0
SECTION
2
HEADER
9
$ACADVER
1
AC1015
9
$DWGCODEPAGE
3
ANSI_1252
9
$HANDSEED
5
1cc
9
$ANGBASE
50
0
9
$ANGDIR
70
0
9
$ATTMODE
70
1
9
$AUNITS
70
0
9
$AUPREC
70
0
9
$CECOLOR
62
256
9
$CELTSCALE
40
1
9
$CELTYPE
6
ByLayer
9
$CELWEIGHT
370
18
9
$CLAYER
8
0
9
$CMLJUST
70
0
9
$CMLSCALE
40
1
9
$CMLSTYLE
2
Standard
9
$DIMSTYLE
2
Standard
9
$TEXTSIZE
40
0.2
9
$TEXTSTYLE
7
Standard
9
$LUNITS
70
2
9
$LUPREC
70
4
9
$EXTNAMES
290
1
9
$INSUNITS
70
4
9
$LTSCALE
40
1
9
$LWDISPLAY
290
1
9
$PDMODE
70
0
9
$PDSIZE
40
0
9
$PLINEGEN
70
0
0
ENDSEC
0
SECTION
2
CLASSES
0
CLASS
1
RASTERVARIABLES
2
AcDbRasterVariables
3
ISM
90
0
280
0
281
0
0
ENDSEC
0
SECTION
2
TABLES
0
TABLE
2
VPORT
5
1c2
100
AcDbSymbolTable
0
VPORT
5
1
100
AcDbSymbolTableRecord
100
AcDbViewportTableRecord
2
*Active
70
0
10
0
20
0
11
1
21
1
12
-1
22
1
13
0
23
0
14
0.5
24
0.5
15
10
25
10
16
0
26
0
36
1
17
0
27
0
37
0
0
ENDTAB
0
TABLE
2
LTYPE
5
1c3
100
AcDbSymbolTable
0
LTYPE
5
14
100
AcDbSymbolTableRecord
100
AcDbLinetypeTableRecord
70
0
2
ByBlock
3

72
65
73
0
40
0
0
LTYPE
5
15
100
AcDbSymbolTableRecord
100
AcDbLinetypeTableRecord
70
0
2
ByLayer
3

72
65
73
0
40
0
0
LTYPE
5
16
100
AcDbSymbolTableRecord
100
AcDbLinetypeTableRecord
70
0
2
CONTINUOUS
3
Solid line
72
65
73
0
40
0
0
LTYPE
5
6A
100
AcDbSymbolTableRecord
100
AcDbLinetypeTableRecord
70
0
2
CENTER
3
____ _ ____ _ ____ _ ____
72
65
73
4
40
47.5
49
22
74
0
49
-8.5
74
0
49
8.5
74
0
49
-8.5
74
0
0
LTYPE
5
6B
100
AcDbSymbolTableRecord
100
AcDbLinetypeTableRecord
70
0
2
DASHED
3
__ __ __ __ __ __ __ __ __
72
65
73
2
40
25.72
49
12.86
74
0
49
-12.86
74
0
0
ENDTAB
0
TABLE
2
LAYER
5
1c4
100
AcDbSymbolTable
0
LAYER
5
10
100
AcDbSymbolTableRecord
100
AcDbLayerTableRecord
2
0
70
0
62
7
6
CONTINUOUS
290
1
370
-3
390
0
0
LAYER
5
6D
100
AcDbSymbolTableRecord
100
AcDbLayerTableRecord
2
80
70
0
62
-6
6
CONTINUOUS
290
1
370
-3
390
0
0
LAYER
5
6F
100
AcDbSymbolTableRecord
100
AcDbLayerTableRecord
2
81
70
0
62
-3
6
CONTINUOUS
290
1
370
-3
390
0
0
LAYER
5
71
100
AcDbSymbolTableRecord
100
AcDbLayerTableRecord
2
1
70
0
62
4
6
CONTINUOUS
290
1
370
-3
390
0
0
LAYER
5
77
100
AcDbSymbolTableRecord
100
AcDbLayerTableRecord
2
4
70
0
62
-2
6
CENTER
290
1
370
-3
390
0
0
LAYER
5
13E
100
AcDbSymbolTableRecord
100
AcDbLayerTableRecord
2
2
70
0
62
7
6
CONTINUOUS
290
1
370
-3
390
0
0
LAYER
5
1ac
100
AcDbSymbolTableRecord
100
AcDbLayerTableRecord
2
SK4
70
0
62
2
6
CENTER
290
1
370
-3
390
0
0
LAYER
5
1ad
100
AcDbSymbolTableRecord
100
AcDbLayerTableRecord
2
SK1
70
0
62
4
6
CONTINUOUS
290
1
370
-3
390
0
0
LAYER
5
1ae
100
AcDbSymbolTableRecord
100
AcDbLayerTableRecord
2
SK6
70
0
62
5
6
CONTINUOUS
290
1
370
-3
390
0
0
LAYER
5
1af
100
AcDbSymbolTableRecord
100
AcDbLayerTableRecord
2
SK2
70
0
62
7
6
CONTINUOUS
290
1
370
-3
390
0
0
ENDTAB
0
TABLE
2
STYLE
5
1c5
100
AcDbSymbolTable
0
STYLE
5
11
100
AcDbSymbolTableRecord
100
AcDbTextStyleTableRecord
2
Standard
3
txt
70
0
71
0
40
0
41
1
42
0
50
0
0
STYLE
5
12E
100
AcDbSymbolTableRecord
100
AcDbTextStyleTableRecord
2
iso_b_vert
3
simplex.shx
70
0
71
0
40
0
41
1
42
0
50
0
0
STYLE
5
12F
100
AcDbSymbolTableRecord
100
AcDbTextStyleTableRecord
2
DWGDirectTextStyle
3
simplex
70
0
71
0
40
0
41
1
42
0
50
0
0
ENDTAB
0
TABLE
2
DIMSTYLE
5
1c6
100
AcDbSymbolTable
100
AcDbDimStyleTable
0
DIMSTYLE
105
27
100
AcDbSymbolTableRecord
100
AcDbDimStyleTableRecord
2
Standard
70
0
3
<>
41
0.18
42
0.0625
44
0.18
140
0.18
147
0.09
73
0
74
0
77
1
271
2
275
0
278
52
280
0
340
11
0
ENDTAB
0
TABLE
2
VIEW
5
1c7
100
AcDbSymbolTable
0
ENDTAB
0
TABLE
2
UCS
5
1c8
100
AcDbSymbolTable
0
ENDTAB
0
TABLE
2
APPID
5
1c9
100
AcDbSymbolTable
0
APPID
5
12
100
AcDbSymbolTableRecord
100
AcDbRegAppTableRecord
2
ACAD
70
0
0
ENDTAB
0
TABLE
2
BLOCK_RECORD
5
1ca
100
AcDbSymbolTable
0
BLOCK_RECORD
5
1F
100
AcDbSymbolTableRecord
100
AcDbBlockTableRecord
2
*Model_Space
340
0
70
0
0
BLOCK_RECORD
5
1B
100
AcDbSymbolTableRecord
100
AcDbBlockTableRecord
2
*Paper_Space
340
0
70
0
0
BLOCK_RECORD
5
23
100
AcDbSymbolTableRecord
100
AcDbBlockTableRecord
2
*Paper_Space0
340
0
70
0
0
BLOCK_RECORD
5
131
100
AcDbSymbolTableRecord
100
AcDbBlockTableRecord
2
DimnDraft3D1
340
0
70
0
0
BLOCK_RECORD
5
13C
100
AcDbSymbolTableRecord
100
AcDbBlockTableRecord
2
DimnDraft3D2
340
0
70
0
0
BLOCK_RECORD
5
147
100
AcDbSymbolTableRecord
100
AcDbBlockTableRecord
2
DimnDraft3D3
340
0
70
0
0
ENDTAB
0
ENDSEC
0
SECTION
2
BLOCKS
0
BLOCK
5
20
100
AcDbEntity
8
0
100
AcDbBlockBegin
2
*Model_Space
70
0
10
0
20
0
30
0
3
*Model_Space
0
ENDBLK
5
21
100
AcDbEntity
8
0
100
AcDbBlockEnd
0
BLOCK
5
1C
100
AcDbEntity
8
0
100
AcDbBlockBegin
2
*Paper_Space
70
0
10
0
20
0
30
0
3
*Paper_Space
0
ENDBLK
5
1D
100
AcDbEntity
8
0
100
AcDbBlockEnd
0
BLOCK
5
24
100
AcDbEntity
8
0
100
AcDbBlockBegin
2
*Paper_Space0
70
0
10
0
20
0
30
0
3
*Paper_Space0
0
ENDBLK
5
25
100
AcDbEntity
8
0
100
AcDbBlockEnd
0
BLOCK
5
139
100
AcDbEntity
8
0
100
AcDbBlockBegin
2
DimnDraft3D1
70
0
10
0
20
0
30
0
3
DimnDraft3D1
0
MTEXT
5
132
100
AcDbEntity
8
SK2
62
256
6
ByLayer
370
18
48
1
60
0
100
AcDbMText
10
8.458363
20
-70.065732
30
0
210
0
220
0
230
1
1
\W0.6961;22.3
40
3
41
0
44
1.084337
50
0
71
7
72
5
7
iso_b_vert
0
LINE
5
134
100
AcDbEntity
8
SK2
62
256
6
ByLayer
370
13
48
1
60
0
100
AcDbLine
10
22.300937
20
-59.485046
30
0
11
22.300937
21
-72.815732
31
0
39
0
210
0
220
0
230
1
0
LINE
5
135
100
AcDbEntity
8
SK2
62
256
6
ByLayer
370
13
48
1
60
0
100
AcDbLine
10
0
20
-2
30
0
11
0
21
-72.815732
31
0
39
0
210
0
220
0
230
1
0
LINE
5
136
100
AcDbEntity
8
SK2
62
256
6
ByLayer
370
13
48
1
60
0
100
AcDbLine
10
22.300937
20
-70.815732
30
0
11
0
21
-70.815732
31
0
39
0
210
0
220
0
230
1
0
SOLID
5
137
100
AcDbEntity
8
SK2
62
256
6
ByLayer
370
13
48
1
60
0
100
AcDbTrace
10
22.300937
20
-70.815732
30
0
11
19.125939
21
-71.233728
31
0
12
19.125935
22
-70.397735
32
0
13
22.300937
23
-70.815732
33
0
39
0
210
0
220
0
230
1
0
SOLID
5
138
100
AcDbEntity
8
SK2
62
256
6
ByLayer
370
13
48
1
60
0
100
AcDbTrace
10
0
20
-70.815732
30
0
11
3.174998
21
-70.397735
31
0
12
3.175002
22
-71.233728
32
0
13
0
23
-70.815732
33
0
39
0
210
0
220
0
230
1
0
ENDBLK
5
13A
100
AcDbEntity
8
0
100
AcDbBlockEnd
0
BLOCK
5
144
100
AcDbEntity
8
0
100
AcDbBlockBegin
2
DimnDraft3D2
70
0
10
0
20
0
30
0
3
DimnDraft3D2
0
MTEXT
5
13D
100
AcDbEntity
8
2
62
256
6
ByLayer
370
18
48
1
60
0
100
AcDbMText
10
48.361092
20
-12.047368
30
0
210
0
220
0
230
1
1
\W0.7034;Dc=115.0-150.0
40
3
41
0
44
1.084337
50
90
71
7
72
5
7
iso_b_vert
0
LINE
5
13F
100
AcDbEntity
8
2
62
256
6
ByLayer
370
13
48
1
60
0
100
AcDbLine
10
24.300937
20
-57.485046
30
0
11
51.111092
21
-57.485046
31
0
39
0
210
0
220
0
230
1
0
LINE
5
140
100
AcDbEntity
8
2
62
256
6
ByLayer
370
13
48
1
60
0
100
AcDbLine
10
23.507187
20
57.485046
30
0
11
51.111092
21
57.485046
31
0
39
0
210
0
220
0
230
1
0
LINE
5
141
100
AcDbEntity
8
2
62
256
6
ByLayer
370
13
48
1
60
0
100
AcDbLine
10
49.111092
20
-57.485046
30
0
11
49.111092
21
57.485046
31
0
39
0
210
0
220
0
230
1
0
SOLID
5
142
100
AcDbEntity
8
2
62
256
6
ByLayer
370
13
48
1
60
0
100
AcDbTrace
10
49.111092
20
-57.485046
30
0
11
48.693096
21
-54.310048
31
0
12
49.529089
22
-54.310045
32
0
13
49.111092
23
-57.485046
33
0
39
0
210
0
220
0
230
1
0
SOLID
5
143
100
AcDbEntity
8
2
62
256
6
ByLayer
370
13
48
1
60
0
100
AcDbTrace
10
49.111092
20
57.485046
30
0
11
49.529089
21
54.310048
31
0
12
48.693096
22
54.310045
32
0
13
49.111092
23
57.485046
33
0
39
0
210
0
220
0
230
1
0
ENDBLK
5
145
100
AcDbEntity
8
0
100
AcDbBlockEnd
0
BLOCK
5
14E
100
AcDbEntity
8
0
100
AcDbBlockBegin
2
DimnDraft3D3
70
0
10
0
20
0
30
0
3
DimnDraft3D3
0
MTEXT
5
148
100
AcDbEntity
8
2
62
256
6
ByLayer
370
18
48
1
60
0
100
AcDbMText
10
34.014881
20
-43.005012
30
0
210
0
220
0
230
1
1
\W0.5899;90%%d
40
3
41
0
44
1.084337
50
315
71
7
72
5
7
iso_b_vert
0
LINE
5
149
100
AcDbEntity
8
2
62
256
6
ByLayer
370
13
48
1
60
0
100
AcDbLine
10
22.300937
20
-40.948126
30
0
11
22.300937
21
-37.713107
31
0
39
0
210
0
220
0
230
1
0
LINE
5
14A
100
AcDbEntity
8
2
62
256
6
ByLayer
370
13
48
1
60
0
100
AcDbLine
10
24.300937
20
-57.485046
30
0
11
42.072877
21
-57.485046
31
0
39
0
210
0
220
0
230
1
0
ARC
5
14B
100
AcDbEntity
8
2
62
256
6
ByLayer
370
13
48
1
60
0
100
AcDbCircle
39
0
10
22.300937
20
-57.485046
30
0
40
17.7719396082786
210
0
220
0
230
1
100
AcDbArc
50
0
51
90
0
SOLID
5
14C
100
AcDbEntity
8
2
62
256
6
ByLayer
370
13
48
1
60
0
100
AcDbTrace
10
22.300937
20
-39.713107
30
0
11
25.491399
21
-39.436908
31
0
12
25.454176
22
-40.272072
32
0
13
22.300937
23
-39.713107
33
0
39
0
210
0
220
0
230
1
0
SOLID
5
14D
100
AcDbEntity
8
2
62
256
6
ByLayer
370
13
48
1
60
0
100
AcDbTrace
10
40.072877
20
-57.485046
30
0
11
39.513911
21
-54.331811
31
0
12
40.349075
22
-54.294581
32
0
13
40.072877
23
-57.485046
33
0
39
0
210
0
220
0
230
1
0
ENDBLK
5
14F
100
AcDbEntity
8
0
100
AcDbBlockEnd
0
ENDSEC
0
SECTION
2
ENTITIES
0
ELLIPSE
5
CE
100
AcDbEntity
8
SK1
62
256
6
ByLayer
370
18
48
1
60
0
100
AcDbEllipse
10
-4.383678
20
-46.00475
30
0
11
-2.41221430850869E-16
21
1.5
31
0
210
0
220
0
230
1
40
0.992546
41
3.11985108009829
42
-3.051709359271
0
ELLIPSE
5
CF
100
AcDbEntity
8
SK1
62
256
6
ByLayer
370
18
48
1
60
0
100
AcDbEllipse
10
-4.383678
20
-46.00475
30
0
11
-2.41221430850869E-16
21
1.5
31
0
210
0
220
0
230
1
40
0.992546
41
-0.0897767136947109
42
0
0
ELLIPSE
5
D0
100
AcDbEntity
8
SK1
62
256
6
ByLayer
370
18
48
1
60
0
100
AcDbEllipse
10
-4.383678
20
-46.00475
30
0
11
-2.41221430850869E-16
21
1.5
31
0
210
0
220
0
230
1
40
0.992546
41
0
42
0.0218481601994134
0
ELLIPSE
5
D1
100
AcDbEntity
8
SK1
62
256
6
ByLayer
370
18
48
1
60
0
100
AcDbEllipse
10
-4.242888
20
-46.00475
30
0
11
-1.98386229319225E-16
21
-1.08
31
0
210
0
220
0
230
1
40
0.992546
41
-3.01342146691146
42
-0.128260978308947
0
ELLIPSE
5
D2
100
AcDbEntity
8
SK1
62
256
6
ByLayer
370
18
48
1
60
0
100
AcDbEllipse
10
-4.230701
20
-41.00475
30
0
11
-1.98386229319225E-16
21
-1.08
31
0
210
0
220
0
230
1
40
0.992546
41
-3.01342146691146
42
-0.128260978308947
0
ELLIPSE
5
D3
100
AcDbEntity
8
1
62
256
6
ByLayer
370
18
48
1
60
0
100
AcDbEllipse
10
17.538437
20
-49.488873
30
0
11
-1.75
21
2.14306111918916E-16
31
0
210
0
220
0
230
1
40
0.999657
41
0
42
6.28318530717959
0
ELLIPSE
5
D4
100
AcDbEntity
8
1
62
256
6
ByLayer
370
18
48
1
60
0
100
AcDbEllipse
10
17.538437
20
-49.494108
30
0
11
2.5
21
0
31
0
210
0
220
0
230
1
40
0.999657
41
2.54884611301714
42
-2.47534605287219
0
ELLIPSE
5
D5
100
AcDbEntity
8
1
62
256
6
ByLayer
370
18
48
1
60
0
100
AcDbEllipse
10
17.538437
20
-49.510643
30
0
11
1.75
21
0
31
0
210
0
220
0
230
1
40
0.999657
41
3.28192076035298E-05
42
-3.14155995268909
0
ELLIPSE
5
D6
100
AcDbEntity
8
SK1
62
256
6
ByLayer
370
18
48
1
60
0
100
AcDbEllipse
10
-3.351767
20
-31.00475
30
0
11
-3.03090072571044E-16
21
-1.65000000000003
31
0
210
0
220
0
230
1
40
0.984808
41
-2.7639141530077
42
-0.412628568353721
0
ELLIPSE
5
D7
100
AcDbEntity
8
SK1
62
256
6
ByLayer
370
18
48
1
60
0
100
AcDbEllipse
10
-4.101232
20
-46.00475
30
0
11
-2.80128703436869E-16
21
-1.525
31
0
210
0
220
0
230
1
40
0.992546
41
-2.99118882121329
42
-2.96036206480932
0
ELLIPSE
5
D8
100
AcDbEntity
8
SK1
62
256
6
ByLayer
370
18
48
1
60
0
100
AcDbEllipse
10
-4.101232
20
-46.00475
30
0
11
-2.80128703436869E-16
21
-1.525
31
0
210
0
220
0
230
1
40
0.992546
41
-0.186139351402851
42
-0.150403788082143
0
ELLIPSE
5
D9
100
AcDbEntity
8
SK1
62
256
6
ByLayer
370
18
48
1
60
0
100
AcDbEllipse
10
-4.310556
20
-41.00475
30
0
11
-2.75536429610035E-16
21
-1.5
31
0
210
0
220
0
230
1
40
0.992546
41
3.12083306299868
42
3.14154811420548
0
ELLIPSE
5
DA
100
AcDbEntity
8
SK1
62
256
6
ByLayer
370
18
48
1
60
0
100
AcDbEllipse
10
-4.310556
20
-41.00475
30
0
11
-2.75536429610035E-16
21
-1.5
31
0
210
0
220
0
230
1
40
0.992546
41
0
42
0.0206700493908532
0
ELLIPSE
5
DB
100
AcDbEntity
8
1
62
256
6
ByLayer
370
18
48
1
60
0
100
AcDbEllipse
10
21.507187
20
-42.948126
30
0
11
0.793750000000206
21
0
31
0
210
0
220
0
230
1
40
0.999657
41
0
42
1.79470063019742
0
ELLIPSE
5
DC
100
AcDbEntity
8
1
62
256
6
ByLayer
370
18
48
1
60
0
100
AcDbEllipse
10
17.538437
20
-49.500172
30
0
11
-1.35
21
1.65321857766021E-16
31
0
210
0
220
0
230
1
40
0.999657
41
0
42
6.28318530717959
0
ELLIPSE
5
DD
100
AcDbEntity
8
SK1
62
256
6
ByLayer
370
18
48
1
60
0
100
AcDbEllipse
10
-4.504907
20
-41.00475
30
0
11
-2.65071874508869E-16
21
-1.44303173386559
31
0
210
0
220
0
230
1
40
0.992546
41
0
42
6.28318530717959
0
ELLIPSE
5
DE
100
AcDbEntity
8
SK1
62
256
6
ByLayer
370
18
48
1
60
0
100
AcDbEllipse
10
-4.5043
20
-41.00475
30
0
11
-2.32934270616923E-16
21
1.44846751257933
31
0
210
0
220
0
230
1
40
0.992546
41
0
42
6.28318530717959
0
ELLIPSE
5
DF
100
AcDbEntity
8
SK1
62
256
6
ByLayer
370
18
48
1
60
0
100
AcDbEllipse
10
-4.504907
20
-41.00475
30
0
11
-1.73679430212625E-16
21
1.08
31
0
210
0
220
0
230
1
40
0.992546
41
0
42
6.28318530717959
0
ELLIPSE
5
E0
100
AcDbEntity
8
SK1
62
256
6
ByLayer
370
18
48
1
60
0
100
AcDbEllipse
10
-4.432517
20
-41.00475
30
0
11
-2.75536429610033E-16
21
-1.49999999999999
31
0
210
0
220
0
230
1
40
0.992546
41
-2.61188672727657
42
-2.34858225344782
0
ELLIPSE
5
E1
100
AcDbEntity
8
SK1
62
256
6
ByLayer
370
18
48
1
60
0
100
AcDbEllipse
10
-4.432517
20
-41.00475
30
0
11
-2.75536429610033E-16
21
-1.49999999999999
31
0
210
0
220
0
230
1
40
0.992546
41
-0.793100939170013
42
0
0
ELLIPSE
5
E2
100
AcDbEntity
8
SK1
62
256
6
ByLayer
370
18
48
1
60
0
100
AcDbEllipse
10
-4.432517
20
-41.00475
30
0
11
-2.75536429610033E-16
21
-1.49999999999999
31
0
210
0
220
0
230
1
40
0.992546
41
0
42
0.167637864752716
0
ELLIPSE
5
E3
100
AcDbEntity
8
SK1
62
256
6
ByLayer
370
18
48
1
60
0
100
AcDbEllipse
10
-4.432517
20
-41.00475
30
0
11
-2.75536429610033E-16
21
-1.49999999999999
31
0
210
0
220
0
230
1
40
0.992546
41
2.97386526614243
42
-2.61188672727657
0
ELLIPSE
5
E4
100
AcDbEntity
8
SK1
62
256
6
ByLayer
370
18
48
1
60
0
100
AcDbEllipse
10
-4.38608
20
-41.00475
30
0
11
-1.98386229319225E-16
21
-1.08
31
0
210
0
220
0
230
1
40
0.992546
41
-3.08626704249895
42
-0.0554154117137264
0
ELLIPSE
5
E5
100
AcDbEntity
8
SK1
62
256
6
ByLayer
370
18
48
1
60
0
100
AcDbEllipse
10
-4.297124
20
-41.00475
30
0
11
-1.73679430212625E-16
21
1.08
31
0
210
0
220
0
230
1
40
0.992546
41
0.0971482087598116
42
0.529705978467209
0
ELLIPSE
5
E6
100
AcDbEntity
8
SK1
62
256
6
ByLayer
370
18
48
1
60
0
100
AcDbEllipse
10
-4.297124
20
-41.00475
30
0
11
-1.73679430212625E-16
21
1.08
31
0
210
0
220
0
230
1
40
0.992546
41
0.529705978467209
42
3.04455097962051
0
ELLIPSE
5
E7
100
AcDbEntity
8
SK1
62
256
6
ByLayer
370
18
48
1
60
0
100
AcDbEllipse
10
-4.371491
20
-41.00475
30
0
11
-2.41221430850869E-16
21
1.5
31
0
210
0
220
0
230
1
40
0.992546
41
3.12112725492562
42
-3.06584667788515
0
ELLIPSE
5
E8
100
AcDbEntity
8
SK1
62
256
6
ByLayer
370
18
48
1
60
0
100
AcDbEllipse
10
-4.371491
20
-41.00475
30
0
11
-2.41221430850869E-16
21
1.5
31
0
210
0
220
0
230
1
40
0.992546
41
-0.0756393932093645
42
0
0
ELLIPSE
5
E9
100
AcDbEntity
8
SK1
62
256
6
ByLayer
370
18
48
1
60
0
100
AcDbEllipse
10
-4.371491
20
-41.00475
30
0
11
-2.41221430850869E-16
21
1.5
31
0
210
0
220
0
230
1
40
0.992546
41
0
42
0.0205719854154589
0
ELLIPSE
5
EA
100
AcDbEntity
8
SK1
62
256
6
ByLayer
370
18
48
1
60
0
100
AcDbEllipse
10
-4.517094
20
-46.00475
30
0
11
-2.65071874508869E-16
21
-1.44303173386559
31
0
210
0
220
0
230
1
40
0.992546
41
0
42
6.28318530717959
0
ELLIPSE
5
EB
100
AcDbEntity
8
SK1
62
256
6
ByLayer
370
18
48
1
60
0
100
AcDbEllipse
10
-4.516487
20
-46.00475
30
0
11
-2.32934270616923E-16
21
1.44846751257933
31
0
210
0
220
0
230
1
40
0.992546
41
0
42
6.28318530717959
0
ELLIPSE
5
EC
100
AcDbEntity
8
SK1
62
256
6
ByLayer
370
18
48
1
60
0
100
AcDbEllipse
10
-4.517094
20
-46.00475
30
0
11
-1.73679430212625E-16
21
1.08
31
0
210
0
220
0
230
1
40
0.992546
41
0
42
6.28318530717959
0
ELLIPSE
5
ED
100
AcDbEntity
8
SK1
62
256
6
ByLayer
370
18
48
1
60
0
100
AcDbEllipse
10
-4.444704
20
-46.00475
30
0
11
-2.75536429610033E-16
21
-1.49999999999999
31
0
210
0
220
0
230
1
40
0.992546
41
-0.793100939170013
42
0
0
ELLIPSE
5
EE
100
AcDbEntity
8
SK1
62
256
6
ByLayer
370
18
48
1
60
0
100
AcDbEllipse
10
-4.444704
20
-46.00475
30
0
11
-2.75536429610033E-16
21
-1.49999999999999
31
0
210
0
220
0
230
1
40
0.992546
41
0
42
0.197090136091465
0
ELLIPSE
5
EF
100
AcDbEntity
8
SK1
62
256
6
ByLayer
370
18
48
1
60
0
100
AcDbEllipse
10
-4.444704
20
-46.00475
30
0
11
-2.75536429610033E-16
21
-1.49999999999999
31
0
210
0
220
0
230
1
40
0.992546
41
2.94441300188985
42
-2.6119846034146
0
ELLIPSE
5
F0
100
AcDbEntity
8
SK1
62
256
6
ByLayer
370
18
48
1
60
0
100
AcDbEllipse
10
-4.398267
20
-46.00475
30
0
11
-1.98386229319225E-16
21
-1.08
31
0
210
0
220
0
230
1
40
0.992546
41
-3.08646294268778
42
-0.0552185786814705
0
ELLIPSE
5
F1
100
AcDbEntity
8
SK1
62
256
6
ByLayer
370
18
48
1
60
0
100
AcDbEllipse
10
-4.309311
20
-46.00475
30
0
11
-1.73679430212625E-16
21
1.08
31
0
210
0
220
0
230
1
40
0.992546
41
0.0971482087598116
42
0.529705978467209
0
ELLIPSE
5
F2
100
AcDbEntity
8
SK1
62
256
6
ByLayer
370
18
48
1
60
0
100
AcDbEllipse
10
-4.309311
20
-46.00475
30
0
11
-1.73679430212625E-16
21
1.08
31
0
210
0
220
0
230
1
40
0.992546
41
0.529705978467209
42
3.04455097962051
0
ELLIPSE
5
F3
100
AcDbEntity
8
SK1
62
256
6
ByLayer
370
18
48
1
60
0
100
AcDbEllipse
10
-4.322743
20
-46.00475
30
0
11
-2.75536429610035E-16
21
-1.5
31
0
210
0
220
0
230
1
40
0.992546
41
3.11131012741469
42
3.14154811420548
0
ELLIPSE
5
F4
100
AcDbEntity
8
SK1
62
256
6
ByLayer
370
18
48
1
60
0
100
AcDbEllipse
10
-4.322743
20
-46.00475
30
0
11
-2.75536429610035E-16
21
-1.5
31
0
210
0
220
0
230
1
40
0.992546
41
0
42
0.0301929853021901
0
ELLIPSE
5
F5
100
AcDbEntity
8
1
62
256
6
ByLayer
370
18
48
1
60
0
100
AcDbEllipse
10
21.507187
20
-56.691568
30
0
11
0.793750000000206
21
0
31
0
210
0
220
0
230
1
40
0.999657
41
-2.09439510239316
42
0
0
ELLIPSE
5
F6
100
AcDbEntity
8
1
62
256
6
ByLayer
370
18
48
1
60
0
100
AcDbEllipse
10
21.507187
20
-56.587679
30
0
11
-0.306448773916805
21
3.75279115659597E-17
31
0
210
0
220
0
230
1
40
0.999657
41
1.04719755119654
42
3.14159265358979
0
ELLIPSE
5
F7
100
AcDbEntity
8
1
62
256
6
ByLayer
370
18
48
1
60
0
100
AcDbEllipse
10
21.507187
20
-42.844237
30
0
11
-0.306448773916805
21
3.75279115659597E-17
31
0
210
0
220
0
230
1
40
0.999657
41
3.14159265358979
42
-1.04719755119654
0
ELLIPSE
5
F8
100
AcDbEntity
8
1
62
256
6
ByLayer
370
18
48
1
60
0
100
AcDbEllipse
10
17.188219
20
-49.472758
30
0
11
2.75000000000002
21
0
31
0
210
0
220
0
230
1
40
0.999657
41
1.57079632679492
42
3.14159265358978
0
ELLIPSE
5
F9
100
AcDbEntity
8
1
62
256
6
ByLayer
370
18
48
1
60
0
100
AcDbEllipse
10
17.188219
20
-49.472758
30
0
11
2.24999999999992
21
0
31
0
210
0
220
0
230
1
40
0.999657
41
0
42
6.28318530717959
0
ELLIPSE
5
FA
100
AcDbEntity
8
1
62
256
6
ByLayer
370
18
48
1
60
0
100
AcDbEllipse
10
17.188219
20
-49.536237
30
0
11
-2.24999999999992
21
2.75536429610025E-16
31
0
210
0
220
0
230
1
40
0.999657
41
-3.12746219630306
42
-1.64914196818365
0
ELLIPSE
5
FB
100
AcDbEntity
8
1
62
256
6
ByLayer
370
18
48
1
60
0
100
AcDbEllipse
10
8.630937
20
-44.410736
30
0
11
12
21
0
31
0
210
0
220
0
230
1
40
0.999657
41
-1.64838285411392
42
-1.57079632679491
0
ELLIPSE
5
FC
100
AcDbEntity
8
1
62
256
6
ByLayer
370
18
48
1
60
0
100
AcDbEllipse
10
20.830937
20
-55.730101
30
0
11
-0.5
21
6.12303176911189E-17
31
0
210
0
220
0
230
1
40
0.999657
41
1.5707963267949
42
-3.14159265358968
0
ELLIPSE
5
FD
100
AcDbEntity
8
SK1
62
256
6
ByLayer
370
18
48
1
60
0
100
AcDbEllipse
10
-4.517037
20
-31.00475
30
0
11
-3.21459167878374E-16
21
-1.75
31
0
210
0
220
0
230
1
40
0.984808
41
-1.5707963267949
42
-0.109317322038179
0
ELLIPSE
5
FE
100
AcDbEntity
8
SK1
62
256
6
ByLayer
370
18
48
1
60
0
100
AcDbEllipse
10
-4.517037
20
-3.50475
30
0
11
-3.21459167878374E-16
21
-1.75
31
0
210
0
220
0
230
1
40
0.984808
41
-3.03227533155162
42
-1.5707963267949
0
ELLIPSE
5
FF
100
AcDbEntity
8
1
62
256
6
ByLayer
370
18
48
1
60
0
100
AcDbEllipse
10
17.188219
20
-49.651233
30
0
11
-2.24999999999996
21
2.7553642961003E-16
31
0
210
0
220
0
230
1
40
0.999657
41
-0.50285139472842
42
-0.0395646618592637
0
ELLIPSE
5
100
100
AcDbEntity
8
SK1
62
256
6
ByLayer
370
18
48
1
60
0
100
AcDbEllipse
10
-4.089045
20
-41.00475
30
0
11
-2.80128703436863E-16
21
-1.52499999999997
31
0
210
0
220
0
230
1
40
0.992546
41
-2.98706568476397
42
-2.96036206480938
0
ELLIPSE
5
101
100
AcDbEntity
8
SK1
62
256
6
ByLayer
370
18
48
1
60
0
100
AcDbEllipse
10
-4.089045
20
-41.00475
30
0
11
-2.80128703436863E-16
21
-1.52499999999997
31
0
210
0
220
0
230
1
40
0.992546
41
-0.186139351402859
42
-0.15452692453194
0
ELLIPSE
5
102
100
AcDbEntity
8
SK1
62
256
6
ByLayer
370
18
48
1
60
0
100
AcDbEllipse
10
-4.550292
20
-31.00475
30
0
11
-2.65343573935962E-16
21
1.65000000000004
31
0
210
0
220
0
230
1
40
0.984808
41
-1.07363957533114
42
0
0
ELLIPSE
5
103
100
AcDbEntity
8
SK1
62
256
6
ByLayer
370
18
48
1
60
0
100
AcDbEllipse
10
-4.550292
20
-31.00475
30
0
11
-2.65343573935962E-16
21
1.65000000000004
31
0
210
0
220
0
230
1
40
0.984808
41
0
42
-2.93179308908934
0
ELLIPSE
5
104
100
AcDbEntity
8
1
62
256
6
ByLayer
370
18
48
1
60
0
100
AcDbEllipse
10
17.538437
20
-49.486255
30
0
11
2.2
21
0
31
0
210
0
220
0
230
1
40
0.999657
41
1.65015435340718
42
-1.54464912276329
0
ELLIPSE
5
105
100
AcDbEntity
8
1
62
256
6
ByLayer
370
18
48
1
60
0
100
AcDbEllipse
10
17.538437
20
-49.486255
30
0
11
1.85
21
0
31
0
210
0
220
0
230
1
40
0.999657
41
0
42
6.28318530717959
0
ELLIPSE
5
106
100
AcDbEntity
8
1
62
256
6
ByLayer
370
18
48
1
60
0
100
AcDbEllipse
10
20.988437
20
-55.61619
30
0
11
0.8
21
0
31
0
210
0
220
0
230
1
40
0.999657
41
-2.09439510239323
42
0
0
ELLIPSE
5
107
100
AcDbEntity
8
1
62
256
6
ByLayer
370
18
48
1
60
0
100
AcDbEllipse
10
20.988437
20
-55.605719
30
0
11
-0.4
21
4.89842541528951E-17
31
0
210
0
220
0
230
1
40
0.999657
41
2.55405044009731
42
3.14159265358979
0
ELLIPSE
5
108
100
AcDbEntity
8
1
62
256
6
ByLayer
370
18
48
1
60
0
100
AcDbEllipse
10
20.988437
20
-43.658664
30
0
11
-0.400000000000001
21
4.89842541528952E-17
31
0
210
0
220
0
230
1
40
0.999657
41
3.14159265358979
42
-2.59875136252538
0
ELLIPSE
5
109
100
AcDbEntity
8
1
62
256
6
ByLayer
370
18
48
1
60
0
100
AcDbEllipse
10
20.988437
20
-43.669135
30
0
11
0.8
21
0
31
0
210
0
220
0
230
1
40
0.999657
41
0
42
1.12835586347859
0
ELLIPSE
5
10A
100
AcDbEntity
8
1
62
256
6
ByLayer
370
18
48
1
60
0
100
AcDbEllipse
10
20.988437
20
-55.688831
30
0
11
0.8
21
0
31
0
210
0
220
0
230
1
40
0.999657
41
-2.09439510239323
42
0
0
ELLIPSE
5
10B
100
AcDbEntity
8
1
62
256
6
ByLayer
370
18
48
1
60
0
100
AcDbEllipse
10
17.538437
20
-49.619757
30
0
11
2.5
21
0
31
0
210
0
220
0
230
1
40
0.999657
41
-3.1415598383642
42
-2.74542457645021
0
ELLIPSE
5
10C
100
AcDbEntity
8
1
62
256
6
ByLayer
370
18
48
1
60
0
100
AcDbEllipse
10
17.188219
20
-49.398817
30
0
11
1.94677221562987
21
-1.99293301259917
31
0
210
0
220
0
230
-1
40
0.9746
41
2.35734120981551
42
-2.35504777056934
0
ELLIPSE
5
10D
100
AcDbEntity
8
1
62
256
6
ByLayer
370
18
48
1
60
0
100
AcDbEllipse
10
34.988896
20
-23.775434
30
0
11
33.7585677962433
21
-2.59790676789231
31
0
210
0
220
0
230
-1
40
0.982485
41
2.14763988072905
42
2.31018560766611
0
ELLIPSE
5
10E
100
AcDbEntity
8
1
62
256
6
ByLayer
370
18
48
1
60
0
100
AcDbEllipse
10
34.988873
20
-23.775479
30
0
11
33.7585009409813
21
-2.5983971243924
31
0
210
0
220
0
230
-1
40
0.982485
41
1.93588417087305
42
1.95514073956143
0
ELLIPSE
5
10F
100
AcDbEntity
8
1
62
256
6
ByLayer
370
18
48
1
60
0
100
AcDbEllipse
10
21.967919
20
-23.775434
30
0
11
0.0925546998840426
21
-33.2688892343295
31
0
210
0
220
0
230
-1
40
0.105067
41
0.247441602647973
42
0.443562493679601
0
ELLIPSE
5
110
100
AcDbEntity
8
1
62
256
6
ByLayer
370
18
48
1
60
0
100
AcDbEllipse
10
-134.047746
20
-23.775434
30
0
11
144.103271852337
21
-33.258614572182
31
0
210
0
220
0
230
-1
40
0.005738
41
-0.398988129848173
42
-0.241144157064319
0
ELLIPSE
5
111
100
AcDbEntity
8
1
62
256
6
ByLayer
370
18
48
1
60
0
100
AcDbEllipse
10
0.746121
20
-23.775434
30
0
11
-2.03706474434643E-15
21
33.2688906600577
31
0
210
0
220
0
230
-1
40
0.141431
41
-2.71774884998987
42
-2.32403562417579
0
ELLIPSE
5
112
100
AcDbEntity
8
1
62
256
6
ByLayer
370
18
48
1
60
0
100
AcDbEllipse
10
20.830937
20
-55.605573
30
0
11
0.374993353480953
21
-0.424007847987202
31
0
210
0
220
0
230
-1
40
0.780001
41
-0.722754344672683
42
0.0132138956949873
0
ELLIPSE
5
113
100
AcDbEntity
8
1
62
256
6
ByLayer
370
18
48
1
60
0
100
AcDbEllipse
10
-0.805031
20
-54.391182
30
0
11
0.999983498498539
21
-0.231093952913223
31
0
210
0
220
0
230
-1
40
0.024859
41
-0.730056471212537
42
2.14973679458191
0
ELLIPSE
5
114
100
AcDbEntity
8
1
62
256
6
ByLayer
370
18
48
1
60
0
100
AcDbEllipse
10
-14.380414
20
-51.50475
30
0
11
21.6573603822863
21
-4.99845556860303
31
0
210
0
220
0
230
-1
40
0.005738
41
0.537296959259617
42
1.28003217595379
0
ELLIPSE
5
115
100
AcDbEntity
8
1
62
256
6
ByLayer
370
18
48
1
60
0
100
AcDbEllipse
10
-3.699063
20
-53.924445
30
0
11
2.02496658446282
21
-0.467965254650148
31
0
210
0
220
0
230
-1
40
0.024859
41
0
42
6.28318530717959
0
ELLIPSE
5
116
100
AcDbEntity
8
1
62
256
6
ByLayer
370
18
48
1
60
0
100
AcDbEllipse
10
8.630937
20
-44.333987
30
0
11
8.62503742906861
21
8.80323735755029
31
0
210
0
220
0
230
-1
40
0.947741
41
2.47745001101357
42
2.566478191534
0
ELLIPSE
5
117
100
AcDbEntity
8
SK1
62
256
6
ByLayer
370
18
48
1
60
0
100
AcDbEllipse
10
-4.899063
20
-31.00475
30
0
11
-1.77699657080005
21
0
31
0
210
0
220
0
230
-1
40
0.984808
41
3.14159265358976
42
0
0
ELLIPSE
5
118
100
AcDbEntity
8
SK1
62
256
6
ByLayer
370
18
48
1
60
0
100
AcDbEllipse
10
-4.899063
20
-3.50475
30
0
11
-1.77699657080006
21
0
31
0
210
0
220
0
230
-1
40
0.984808
41
0
42
3.14159265358979
0
ELLIPSE
5
119
100
AcDbEntity
8
SK1
62
256
6
ByLayer
370
18
48
1
60
0
100
AcDbEllipse
10
-4.558555
20
-46.00475
30
0
11
1.53645248382475
21
0
31
0
210
0
220
0
230
1
40
0.992546
41
0
42
6.28318530717959
0
ELLIPSE
5
11A
100
AcDbEntity
8
SK1
62
256
6
ByLayer
370
18
48
1
60
0
100
AcDbEllipse
10
-4.558555
20
-41.00475
30
0
11
1.53645248382472
21
0
31
0
210
0
220
0
230
1
40
0.992546
41
0
42
6.28318530717959
0
ELLIPSE
5
11B
100
AcDbEntity
8
1
62
256
6
ByLayer
370
13
48
0.05
60
0
100
AcDbEllipse
10
21.507187
20
56.691568
30
0
11
0.793750000000206
21
9.72031293346764E-17
31
0
210
0
220
0
230
-1
40
0.999657
41
-2.09439510239316
42
0
0
POINT
5
6C
100
AcDbEntity
8
80
62
256
6
ByLayer
370
13
48
1
60
0
100
AcDbPoint
10
0
20
0
30
0
39
0
210
0
220
0
230
1
50
360
0
POINT
5
6E
100
AcDbEntity
8
81
62
256
6
ByLayer
370
18
48
1
60
0
100
AcDbPoint
10
22.300937
20
-57.485046
30
0
39
0
210
0
220
0
230
1
50
360
0
POINT
5
70
100
AcDbEntity
8
1
62
256
6
ByLayer
370
18
48
1
60
0
100
AcDbPoint
10
22.300937
20
-57.485046
30
0
39
0
210
0
220
0
230
1
50
360
0
SPLINE
5
11C
100
AcDbEntity
8
1
62
256
6
ByLayer
370
18
48
1
60
0
100
AcDbSpline
70
4
71
3
72
8
73
4
40
0
40
0
40
0
40
0
40
1
40
1
40
1
40
1
41
1
10
-1.68624903626119
20
-19.5083870512985
30
0
41
1
10
0.313750963738812
20
-19.5083870512985
30
0
41
1
10
2.31375096373881
20
-19.5083870512985
30
0
41
1
10
4.31375096373881
20
-19.5083870512985
30
0
0
SPLINE
5
11D
100
AcDbEntity
8
1
62
256
6
ByLayer
370
18
48
1
60
0
100
AcDbSpline
70
4
71
3
72
8
73
4
40
0
40
0
40
0
40
0
40
1
40
1
40
1
40
1
41
1
10
-1.68624903626119
20
-21.3392389315748
30
0
41
1
10
-1.68624903626119
20
-20.7289549714827
30
0
41
1
10
-1.68624903626119
20
-20.1186710113906
30
0
41
1
10
-1.68624903626119
20
-19.5083870512985
30
0
0
SPLINE
5
11E
100
AcDbEntity
8
1
62
256
6
ByLayer
370
18
48
1
60
0
100
AcDbSpline
70
4
71
3
72
18
73
14
40
0
40
0
40
0
40
0
40
0.191325435437368
40
0.191325435437368
40
0.382650870874735
40
0.382650870874735
40
0.536214707212622
40
0.536214707212622
40
0.690626528447
40
0.690626528447
40
0.845885455798054
40
0.845885455798054
40
1
40
1
40
1
40
1
41
1
10
1.50638335053844
20
-22.2294921932785
30
0
41
1
10
1.39893899136734
20
-22.5192849791572
30
0
41
1
10
1.21781850019312
20
-22.7427692462333
30
0
41
1
10
0.705155415005095
20
-23.0546648717129
30
0
41
1
10
0.402776289909184
20
-23.1332527458495
30
0
41
1
10
-0.228075590367098
20
-23.1332527458495
30
0
41
1
10
-0.489011891211305
20
-23.0853632600475
30
0
41
1
10
-0.97230730105457
20
-22.8957390737651
30
0
41
1
10
-1.15823675690586
20
-22.7783793767014
30
0
41
1
10
-1.41988880844434
20
-22.4976421166977
30
0
41
1
10
-1.51894281983755
20
-22.3240432293491
30
0
41
1
10
-1.6535179305306
20
-21.903190155909
30
0
41
1
10
-1.68624903626119
20
-21.6437669438541
30
0
41
1
10
-1.68624903626119
20
-21.3392389315748
30
0
0
SPLINE
5
11F
100
AcDbEntity
8
1
62
256
6
ByLayer
370
18
48
1
60
0
100
AcDbSpline
70
4
71
3
72
18
73
14
40
0
40
0
40
0
40
0
40
0.252026352812657
40
0.252026352812657
40
0.40561296454716
40
0.40561296454716
40
0.559855857535999
40
0.559855857535999
40
0.714098750524839
40
0.714098750524839
40
0.857201879020039
40
0.857201879020039
40
1
40
1
40
1
40
1
41
1
10
4.31375096373881
20
-19.5083870512985
30
0
41
1
10
4.31375096373881
20
-20.1088475271235
30
0
41
1
10
4.31375096373881
20
-20.7093080029485
30
0
41
1
10
4.31375096373881
20
-21.6756932677221
30
0
41
1
10
4.25235418706956
20
-21.9703977957344
30
0
41
1
10
4.00931877661287
20
-22.4133990502378
30
0
41
1
10
3.822576750385
20
-22.5868214334934
30
0
41
1
10
3.31912318169736
20
-22.8373202823039
30
0
41
1
10
3.05511704201967
20
-22.8999449945065
30
0
41
1
10
2.52250000441415
20
-22.8999449945065
30
0
41
1
10
2.28151765598744
20
-22.8446878955042
30
0
41
1
10
1.82766569071015
20
-22.6214417936651
30
0
41
1
10
1.64452609804425
20
-22.4542043958879
30
0
41
1
10
1.50638335053844
20
-22.2294921932785
30
0
0
SPLINE
5
120
100
AcDbEntity
8
1
62
256
6
ByLayer
370
18
48
1
60
0
100
AcDbSpline
70
4
71
3
72
30
73
26
40
0
40
0
40
0
40
0
40
0.0312500000003727
40
0.0312500000003727
40
0.0468750000004726
40
0.0468750000004726
40
0.0625000000005726
40
0.0625000000005726
40
0.0937500000006148
40
0.0937500000006148
40
0.125000000000657
40
0.125000000000657
40
0.187500000000615
40
0.187500000000615
40
0.250000000000573
40
0.250000000000573
40
0.37500000000049
40
0.37500000000049
40
0.500000000000406
40
0.500000000000406
40
0.625000000000323
40
0.625000000000323
40
0.750000000000239
40
0.750000000000239
40
1
40
1
40
1
40
1
41
1
10
20.8309370252455
20
-56.2179762709812
30
0
41
1
10
20.8406814602657
20
-56.2179762709813
30
0
41
1
10
20.8501639765315
20
-56.2176553923044
30
0
41
1
10
20.8640499661877
20
-56.2167595495545
30
0
41
1
10
20.8686435631593
20
-56.2163888557642
30
0
41
1
10
20.8774988123676
20
-56.2155422372494
30
0
41
1
10
20.8817882918436
20
-56.2150652279917
30
0
41
1
10
20.8943081781508
20
-56.2134982689402
30
0
41
1
10
20.902224933977
20
-56.2122677978235
30
0
41
1
10
20.9172306305383
20
-56.2095618542384
30
0
41
1
10
20.9242307703192
20
-56.2081046399454
30
0
41
1
10
20.9441703219619
20
-56.2035096481303
30
0
41
1
10
20.9560927150964
20
-56.2001448897784
30
0
41
1
10
20.9781844445234
20
-56.1930851967917
30
0
41
1
10
20.9881980017501
20
-56.1894346355121
30
0
41
1
10
21.0162867042631
20
-56.1782378401233
30
0
41
1
10
21.0324460317406
20
-56.1704501608132
30
0
41
1
10
21.0620284727675
20
-56.1544699117569
30
0
41
1
10
21.0754005194436
20
-56.1462659218478
30
0
41
1
10
21.1002271458562
20
-56.1295583370875
30
0
41
1
10
21.1115959494454
20
-56.1211045925219
30
0
41
1
10
21.1328442112389
20
-56.104019163037
30
0
41
1
10
21.1427168663836
20
-56.0953872169522
30
0
41
1
10
21.1705874290727
20
-56.0692416985229
30
0
41
1
10
21.1868638651172
20
-56.0514794175549
30
0
41
1
10
21.2015275833677
20
-56.0334082802163
30
0
0
SPLINE
5
121
100
AcDbEntity
8
1
62
256
6
ByLayer
370
18
48
1
60
0
100
AcDbSpline
70
4
71
3
72
30
73
26
40
0
40
0
40
0
40
0
40
0.124999999999958
40
0.124999999999958
40
0.249999999999917
40
0.249999999999917
40
0.374999999999875
40
0.374999999999875
40
0.437499999999878
40
0.437499999999878
40
0.468749999999903
40
0.468749999999903
40
0.499999999999929
40
0.499999999999929
40
0.624999999999983
40
0.624999999999983
40
0.750000000000037
40
0.750000000000037
40
0.781250000000038
40
0.781250000000038
40
0.81250000000004
40
0.81250000000004
40
0.875000000000044
40
0.875000000000044
40
1
40
1
40
1
40
1
41
1
10
5.9315243731192
20
-55.8742630875767
30
0
41
1
10
6.02509735212754
20
-55.8981713535316
30
0
41
1
10
6.1202324309545
20
-55.9212138444368
30
0
41
1
10
6.31426940253061
20
-55.9654616638578
30
0
41
1
10
6.41316851081638
20
-55.986667645169
30
0
41
1
10
6.61559153234003
20
-56.0270908627092
30
0
41
1
10
6.71911087298827
20
-56.0463092175332
30
0
41
1
10
6.87874624067757
20
-56.0734772415954
30
0
41
1
10
6.93268704270309
20
-56.0822560006253
30
0
41
1
10
7.01483696258913
20
-56.0949793624396
30
0
41
1
10
7.04242261268917
20
-56.0991453657619
30
0
41
1
10
7.09783817573378
20
-56.1072954648841
30
0
41
1
10
7.12569097635344
20
-56.111283155217
30
0
41
1
10
7.26571750816356
20
-56.1307728879799
30
0
41
1
10
7.3801670938293
20
-56.1449340292933
30
0
41
1
10
7.61505770792218
20
-56.1700121072178
30
0
41
1
10
7.7354950364429
20
-56.1809313544644
30
0
41
1
10
7.89071560633312
20
-56.1922097247453
30
0
41
1
10
7.92199445661061
20
-56.1943463434154
30
0
41
1
10
7.98504942720768
20
-56.1983705390949
30
0
41
1
10
8.01685220163063
20
-56.2002590365446
30
0
41
1
10
8.11234695741865
20
-56.2054975610631
30
0
41
1
10
8.17633846551661
20
-56.2084353605196
30
0
41
1
10
8.36934562727089
20
-56.2155323183018
30
0
41
1
10
8.49939538190841
20
-56.217976270981
30
0
41
1
10
8.63093702524554
20
-56.2179762709811
30
0
0
SPLINE
5
122
100
AcDbEntity
8
1
62
256
6
ByLayer
370
18
48
1
60
0
100
AcDbSpline
70
4
71
3
72
22
73
18
40
0
40
0
40
0
40
0
40
0.125919801008141
40
0.125919801008141
40
0.228173823812624
40
0.228173823812624
40
0.362000949327643
40
0.362000949327643
40
0.497453699158079
40
0.497453699158079
40
0.624996799363379
40
0.624996799363379
40
0.753577031326432
40
0.753577031326432
40
0.881194351724581
40
0.881194351724581
40
1
40
1
40
1
40
1
41
1
10
1.7918783620504
20
-20.1432297220583
30
0
41
1
10
1.7918783620504
20
-20.4895075424727
30
0
41
1
10
1.7918783620504
20
-20.8357853628871
30
0
41
1
10
1.7918783620504
20
-21.4632604204466
30
0
41
1
10
1.81643707271809
20
-21.6646418479216
30
0
41
1
10
1.92275040745284
20
-21.948144073881
30
0
41
1
10
2.02211627456001
20
-22.0710885094719
30
0
41
1
10
2.30007981659281
20
-22.2341604541312
30
0
41
1
10
2.47491750249549
20
-22.2749258080138
30
0
41
1
10
2.88320606734584
20
-22.2749258080138
30
0
41
1
10
3.05972180026987
20
-22.2368598064788
30
0
41
1
10
3.36178918101433
20
-22.0839767239796
30
0
41
1
10
3.46647544570345
20
-21.9753095378679
30
0
41
1
10
3.57657583437788
20
-21.6914952026185
30
0
41
1
10
3.60615311262598
20
-21.4472972585126
30
0
41
1
10
3.60615311262598
20
-20.7833934467961
30
0
41
1
10
3.60615311262598
20
-20.4633115844271
30
0
41
1
10
3.60615311262598
20
-20.1432297220583
30
0
0
SPLINE
5
123
100
AcDbEntity
8
1
62
256
6
ByLayer
370
18
48
1
60
0
100
AcDbSpline
70
4
71
3
72
8
73
4
40
0
40
0
40
0
40
0
40
1
40
1
40
1
40
1
41
1
10
3.60615311262598
20
-20.1432297220583
30
0
41
1
10
3.0013948624341
20
-20.1432297220583
30
0
41
1
10
2.39663661224222
20
-20.1432297220583
30
0
41
1
10
1.7918783620504
20
-20.1432297220583
30
0
0
SPLINE
5
124
100
AcDbEntity
8
1
62
256
6
ByLayer
370
18
48
1
60
0
100
AcDbSpline
70
4
71
3
72
8
73
4
40
0
40
0
40
0
40
0
40
1
40
1
40
1
40
1
41
1
10
1.08428051093756
20
-20.1432297220583
30
0
41
1
10
0.396636612242219
20
-20.1432297220583
30
0
41
1
10
-0.291007286453066
20
-20.1432297220583
30
0
41
1
10
-0.978651185148408
20
-20.1432297220583
30
0
0
SPLINE
5
125
100
AcDbEntity
8
1
62
256
6
ByLayer
370
18
48
1
60
0
100
AcDbSpline
70
4
71
3
72
10
73
6
40
0
40
0
40
0
40
0
40
0.660338983050846
40
0.660338983050846
40
1
40
1
40
1
40
1
41
1
10
-0.978651185148408
20
-20.1432297220583
30
0
41
1
10
-0.978651185148408
20
-20.5418994585638
30
0
41
1
10
-0.978651185148408
20
-20.9405691950693
30
0
41
1
10
-0.978651185148408
20
-21.54430416565
30
0
41
1
10
-0.969441668648017
20
-21.687972623056
30
0
41
1
10
-0.949487716230522
20
-21.7714722393261
30
0
0
SPLINE
5
126
100
AcDbEntity
8
1
62
256
6
ByLayer
370
18
48
1
60
0
100
AcDbSpline
70
4
71
3
72
8
73
4
40
0
40
0
40
0
40
0
40
1
40
1
40
1
40
1
41
1
10
-0.949487716230522
20
-21.7714722393261
30
0
41
1
10
-0.917254408479209
20
-21.9175965677989
30
0
41
1
10
-0.861997309476862
20
-22.0391621856039
30
0
41
1
10
-0.785251338640364
20
-22.1373970282747
30
0
0
SPLINE
5
127
100
AcDbEntity
8
1
62
256
6
ByLayer
370
18
48
1
60
0
100
AcDbSpline
70
4
71
3
72
18
73
14
40
0
40
0
40
0
40
0
40
0.144086644560491
40
0.144086644560491
40
0.287731062505125
40
0.287731062505125
40
0.456860780407679
40
0.456860780407679
40
0.627194363444242
40
0.627194363444242
40
0.795871414023982
40
0.795871414023982
40
1
40
1
40
1
40
1
41
1
10
-0.785251338640364
20
-22.1373970282747
30
0
41
1
10
-0.710040287220522
20
-22.2356318709454
30
0
41
1
10
-0.597991169799229
20
-22.3166756161488
30
0
41
1
10
-0.306804019051356
20
-22.4441849368974
30
0
41
1
10
-0.137515344780013
20
-22.4750792999554
30
0
41
1
10
0.276912897737247
20
-22.4750792999554
30
0
41
1
10
0.471847663662004
20
-22.4296456852202
30
0
41
1
10
0.801489453185809
20
-22.2447998219359
30
0
41
1
10
0.916974294513921
20
-22.1189779952739
30
0
41
1
10
1.05139039595753
20
-21.7939354226921
30
0
41
1
10
1.08428051093756
20
-21.5590393920506
30
0
41
1
10
1.08428051093756
20
-20.8832655368447
30
0
41
1
10
1.08428051093756
20
-20.5132476294515
30
0
41
1
10
1.08428051093756
20
-20.1432297220583
30
0
0
SPLINE
5
128
100
AcDbEntity
8
1
62
256
6
ByLayer
370
18
48
1
60
0
100
AcDbSpline
70
4
71
3
72
11
73
7
40
0
40
0
40
0
40
0
40
0.217249784912642
40
0.576853418234484
40
0.935424361368743
40
1
40
1
40
1
40
1
41
1
10
17.3643162750014
20
-47.2939077130667
30
0
41
1
10
17.2079184884838
20
-47.2826884001429
30
0
41
1
10
16.8014605854376
20
-47.2939265669864
30
0
41
1
10
16.1515590432086
20
-47.4945533893385
30
0
41
1
10
15.6953450609012
20
-47.8368737253853
30
0
41
1
10
15.4947222540232
20
-48.0623644060312
30
0
41
1
10
15.4649836084567
20
-48.0978794334618
30
0
0
SPLINE
5
129
100
AcDbEntity
8
1
62
256
6
ByLayer
370
18
48
1
60
0
100
AcDbSpline
70
4
71
3
72
11
73
7
40
0
40
0
40
0
40
0
40
0.217249784912642
40
0.576853418234484
40
0.935424361368743
40
1
40
1
40
1
40
1
41
1
10
17.3643162750014
20
-47.2939077130667
30
0
41
1
10
17.2079184884838
20
-47.2826884001429
30
0
41
1
10
16.8014605854376
20
-47.2939265669864
30
0
41
1
10
16.1515590432086
20
-47.4945533893385
30
0
41
1
10
15.6953450609012
20
-47.8368737253853
30
0
41
1
10
15.4947222540232
20
-48.0623644060312
30
0
41
1
10
15.4649836084567
20
-48.0978794334618
30
0
0
SPLINE
5
12A
100
AcDbEntity
8
1
62
256
6
ByLayer
370
18
48
1
60
0
100
AcDbSpline
70
4
71
3
72
10
73
6
40
0
40
0
40
0
40
0
40
0.5
40
0.5
40
1
40
1
40
1
40
1
41
1
10
10.4009370252455
20
-31.0047502745294
30
0
41
1
10
10.4009370252455
20
-32.3556906694104
30
0
41
1
10
10.8709048184567
20
-33.559981754126
30
0
41
1
10
12.3659423307146
20
-35.4485801584383
30
0
41
1
10
13.3407986481723
20
-36.1428242398289
30
0
41
1
10
14.6751713384464
20
-36.4755207177435
30
0
0
SPLINE
5
12B
100
AcDbEntity
8
1
62
256
6
ByLayer
370
18
48
1
60
0
100
AcDbSpline
70
4
71
3
72
26
73
22
40
0
40
0
40
0
40
0
40
0.125000000000191
40
0.250000000000382
40
0.250000000000382
40
0.312500000000473
40
0.312500000000473
40
0.375000000000565
40
0.375000000000565
40
0.500000000000587
40
0.500000000000587
40
0.562500000000515
40
0.562500000000515
40
0.625000000000444
40
0.625000000000444
40
0.750000000000294
40
0.875000000000145
40
0.875000000000145
40
0.937500000000073
40
0.937500000000073
40
1
40
1
40
1
40
1
41
1
10
7.70083250677294
20
-56.3705366082813
30
0
41
1
10
7.66323931801924
20
-56.3676150181144
30
0
41
1
10
7.58897922134469
20
-56.3616256822132
30
0
41
1
10
7.51649124148963
20
-56.3553746313078
30
0
41
1
10
7.46279799629019
20
-56.3506082031254
30
0
41
1
10
7.44496468871972
20
-56.3490020647631
30
0
41
1
10
7.40974893790712
20
-56.3457886260587
30
0
41
1
10
7.39246531911868
20
-56.3441904977489
30
0
41
1
10
7.34156116666117
20
-56.3394305106372
30
0
41
1
10
7.30888289065427
20
-56.3363024949562
30
0
41
1
10
7.26173326011877
20
-56.3317219779269
30
0
41
1
10
7.24632913587521
20
-56.3302138532237
30
0
41
1
10
7.21615637798425
20
-56.3272441496194
30
0
41
1
10
7.20133199329422
20
-56.3257770220536
30
0
41
1
10
7.15831161367839
20
-56.321508058972
30
0
41
1
10
7.10488982709376
20
-56.3161767294917
30
0
41
1
10
7.05909514049807
20
-56.3116869017901
30
0
41
1
10
7.02768691246735
20
-56.3086979324402
30
0
41
1
10
7.01768785465674
20
-56.3077630265589
30
0
41
1
10
6.99887616270462
20
-56.3060481781045
30
0
41
1
10
6.99004705310466
20
-56.3052665767632
30
0
41
1
10
6.98179726973359
20
-56.3045651263868
30
0
0
SPLINE
5
12C
100
AcDbEntity
8
SK1
62
256
6
ByLayer
370
18
48
1
60
0
100
AcDbSpline
70
4
71
3
72
80
73
76
40
0
40
0
40
0
40
0
40
0.0161891514305167
40
0.0161891514305167
40
0.0554834238549391
40
0.0554834238549391
40
0.0947776962793615
40
0.0947776962793615
40
0.114424832491552
40
0.114424832491552
40
0.134071968703743
40
0.134071968703743
40
0.212660513552525
40
0.212660513552525
40
0.25195478597691
40
0.25195478597691
40
0.271601922189096
40
0.271601922189096
40
0.291249058401283
40
0.291249058401283
40
0.330543330825637
40
0.330543330825637
40
0.350190467037805
40
0.350190467037805
40
0.369837603249973
40
0.369837603249973
40
0.409131875674324
40
0.409131875674324
40
0.428779011886508
40
0.428779011886508
40
0.438602579992595
40
0.438602579992595
40
0.448426148098682
40
0.448426148098682
40
0.468073284310856
40
0.468073284310856
40
0.477896852416947
40
0.477896852416947
40
0.487720420523038
40
0.487720420523038
40
0.527014692947406
40
0.527014692947406
40
0.546661829159593
40
0.546661829159593
40
0.566308965371781
40
0.566308965371781
40
0.605603237796147
40
0.605603237796147
40
0.62525037400833
40
0.62525037400833
40
0.644897510220513
40
0.644897510220513
40
0.684191782644868
40
0.684191782644868
40
0.723486055069223
40
0.723486055069223
40
0.762780327493579
40
0.762780327493579
40
0.802074599917934
40
0.802074599917934
40
0.821721736130106
40
0.821721736130106
40
0.841368872342279
40
0.841368872342279
40
0.880663144766598
40
0.880663144766598
40
0.919957417190918
40
0.919957417190918
40
0.939604553403089
40
0.939604553403089
40
0.959251689615261
40
0.959251689615261
40
0.99854596203961
40
0.99854596203961
40
1
40
1
40
1
40
1
41
1
10
-4.09939079555102
20
-32.5233437572345
30
0
41
1
10
-4.11936154715175
20
-32.5153949982214
30
0
41
1
10
-4.13905878598359
20
-32.5071799530164
30
0
41
1
10
-4.20567561134084
20
-32.4781677905877
30
0
41
1
10
-4.2513291994099
20
-32.4561495626342
30
0
41
1
10
-4.33988058138846
20
-32.4095387987734
30
0
41
1
10
-4.38277716518297
20
-32.3849445930339
30
0
41
1
10
-4.44520021578575
20
-32.3463422899924
30
0
41
1
10
-4.46569858992177
20
-32.33317885483
30
0
41
1
10
-4.50568322636491
20
-32.3065833970821
30
0
41
1
10
-4.5252223058086
20
-32.293119700066
30
0
41
1
10
-4.62078743828613
20
-32.2250794083172
30
0
41
1
10
-4.69048883264395
20
-32.1683151137321
30
0
41
1
10
-4.78658304413824
20
-32.0818276388879
30
0
41
1
10
-4.81719181661742
20
-32.052777637114
30
0
41
1
10
-4.86108603171419
20
-32.0092542531293
30
0
41
1
10
-4.87540501747043
20
-31.9947305231382
30
0
41
1
10
-4.90323386737418
20
-31.9659434491389
30
0
41
1
10
-4.91674510304927
20
-31.9516800627974
30
0
41
1
10
-4.9561072078908
20
-31.9094401137251
30
0
41
1
10
-4.9807906235767
20
-31.8819936161993
30
0
41
1
10
-5.01556210203222
20
-31.8428119973169
30
0
41
1
10
-5.02677604428487
20
-31.8300871323258
30
0
41
1
10
-5.04845001013825
20
-31.8055362441571
30
0
41
1
10
-5.05892461111893
20
-31.7936933015136
30
0
41
1
10
-5.08910169992993
20
-31.7600707978932
30
0
41
1
10
-5.10731732136713
20
-31.7404459580931
30
0
41
1
10
-5.13158731278389
20
-31.7175099976653
30
0
41
1
10
-5.13916547017578
20
-31.7109575855099
30
0
41
1
10
-5.14970265219245
20
-31.7031392000795
30
0
41
1
10
-5.15306460978707
20
-31.7008791377301
30
0
41
1
10
-5.15942146288603
20
-31.6971276038453
30
0
41
1
10
-5.1624260567051
20
-31.6956287878483
30
0
41
1
10
-5.17091741835583
20
-31.6922926736034
30
0
41
1
10
-5.17588218517011
20
-31.6916197557353
30
0
41
1
10
-5.1822737601654
20
-31.6929875106292
30
0
41
1
10
-5.18422825058605
20
-31.6938386248183
30
0
41
1
10
-5.18778201892275
20
-31.6963275451831
30
0
41
1
10
-5.18938511718704
20
-31.6979729307321
30
0
41
1
10
-5.19642878768497
20
-31.7080106984265
30
0
41
1
10
-5.19904048718195
20
-31.7218007095275
30
0
41
1
10
-5.1990740036461
20
-31.748505516424
30
0
41
1
10
-5.19842580311467
20
-31.758445286114
30
0
41
1
10
-5.19593546846721
20
-31.7796375684971
30
0
41
1
10
-5.19409635828424
20
-31.7909187999515
30
0
41
1
10
-5.18693726947282
20
-31.8263186057226
30
0
41
1
10
-5.17998692128458
20
-31.8519667853815
30
0
41
1
10
-5.16655595134432
20
-31.8921906881659
30
0
41
1
10
-5.16157472769078
20
-31.9058982669444
30
0
41
1
10
-5.15061539405292
20
-31.933763688768
30
0
41
1
10
-5.14462673133829
20
-31.9479446082376
30
0
41
1
10
-5.12523357854678
20
-31.9908243085758
30
0
41
1
10
-5.11047018470344
20
-32.0197258382911
30
0
41
1
10
-5.07732945355701
20
-32.0774879382128
30
0
41
1
10
-5.05895084575758
20
-32.1063536403832
30
0
41
1
10
-5.01847351149905
20
-32.163593716858
30
0
41
1
10
-4.99637497160006
20
-32.1919709352316
30
0
41
1
10
-4.94821051511639
20
-32.2478738955047
30
0
41
1
10
-4.92214599383578
20
-32.2754016487145
30
0
41
1
10
-4.87976444796846
20
-32.3158012297752
30
0
41
1
10
-4.86505217962429
20
-32.329148377121
30
0
41
1
10
-4.8347317191857
20
-32.3552715760446
30
0
41
1
10
-4.81910829264007
20
-32.3680654105174
30
0
41
1
10
-4.77081073713754
20
-32.4055895086422
30
0
41
1
10
-4.7367140928182
20
-32.4294645409932
30
0
41
1
10
-4.6644206757415
20
-32.4746074568074
30
0
41
1
10
-4.62622603349212
20
-32.4958772993187
30
0
41
1
10
-4.56550050538033
20
-32.5255161080652
30
0
41
1
10
-4.54462039045029
20
-32.5350437907053
30
0
41
1
10
-4.50195389551129
20
-32.5531403476934
30
0
41
1
10
-4.48022186918763
20
-32.561690444321
30
0
41
1
10
-4.41380603678351
20
-32.585801825243
30
0
41
1
10
-4.3679064675685
20
-32.5998287137918
30
0
41
1
10
-4.31851632278921
20
-32.6120804106606
30
0
41
1
10
-4.31675154391843
20
-32.6125145583583
30
0
41
1
10
-4.31498438596981
20
-32.6129456600811
30
0
0
LINE
5
72
100
AcDbEntity
8
81
62
256
6
ByLayer
370
13
48
1
60
0
100
AcDbLine
10
22.300937
20
-57.485046
30
0
11
24.300937
21
-57.485046
31
0
39
0
210
0
220
0
230
1
0
LINE
5
73
100
AcDbEntity
8
SK4
62
256
6
ByLayer
370
13
48
0.05
60
0
100
AcDbLine
10
-14.78511
20
0
30
0
11
23.21489
21
0
31
0
39
0
210
0
220
0
230
1
0
LINE
5
75
100
AcDbEntity
8
80
62
256
6
ByLayer
370
13
48
1
60
0
100
AcDbLine
10
0
20
0
30
0
11
-4
21
0
31
0
39
0
210
0
220
0
230
1
0
LINE
5
76
100
AcDbEntity
8
4
62
256
6
ByLayer
370
13
48
0.05
60
0
100
AcDbLine
10
0
20
0
30
0
11
22.3
21
0
31
0
39
0
210
0
220
0
230
1
0
LINE
5
78
100
AcDbEntity
8
1
62
256
6
ByLayer
370
18
48
1
60
0
100
AcDbLine
10
-8.199063
20
-52.701881
30
0
11
-8.199063
21
-52.004061
31
0
39
0
210
0
220
0
230
1
0
LINE
5
79
100
AcDbEntity
8
1
62
256
6
ByLayer
370
18
48
1
60
0
100
AcDbLine
10
20.588437
20
-56.381414
30
0
11
20.325967
21
-56.229929
31
0
39
0
210
0
220
0
230
1
0
LINE
5
7A
100
AcDbEntity
8
1
62
256
6
ByLayer
370
18
48
1
60
0
100
AcDbLine
10
21.788437
20
-55.688831
30
0
11
21.788437
21
-55.61619
31
0
39
0
210
0
220
0
230
1
0
LINE
5
7B
100
AcDbEntity
8
1
62
256
6
ByLayer
370
13
48
1
60
0
100
AcDbLine
10
20.588437
20
-56.381414
30
0
11
20.588437
21
-56.308773
31
0
39
0
210
0
220
0
230
1
0
LINE
5
7C
100
AcDbEntity
8
1
62
256
6
ByLayer
370
13
48
1
60
0
100
AcDbLine
10
21.353963
20
-42.578935
30
0
11
21.330934
21
-42.548881
31
0
39
0
210
0
220
0
230
1
0
LINE
5
7D
100
AcDbEntity
8
SK1
62
256
6
ByLayer
370
18
48
1
60
0
100
AcDbLine
10
-5.493357
20
-39.9523
30
0
11
-5.528695
21
-39.988457
31
0
39
0
210
0
220
0
230
1
0
LINE
5
7F
100
AcDbEntity
8
SK1
62
256
6
ByLayer
370
18
48
1
60
0
100
AcDbLine
10
-5.528695
20
-42.021044
30
0
11
-5.493357
21
-42.057201
31
0
39
0
210
0
220
0
230
1
0
LINE
5
80
100
AcDbEntity
8
SK1
62
256
6
ByLayer
370
18
48
1
60
0
100
AcDbLine
10
-5.505544
20
-44.9523
30
0
11
-5.540882
21
-44.988457
31
0
39
0
210
0
220
0
230
1
0
LINE
5
81
100
AcDbEntity
8
SK1
62
256
6
ByLayer
370
18
48
1
60
0
100
AcDbLine
10
-5.540882
20
-47.021044
30
0
11
-5.505544
21
-47.057201
31
0
39
0
210
0
220
0
230
1
0
LINE
5
82
100
AcDbEntity
8
1
62
256
6
ByLayer
370
13
48
1
60
0
100
AcDbLine
10
21.813636
20
-56.587679
30
0
11
22.300937
21
-56.691568
31
0
39
0
210
0
220
0
230
1
0
LINE
5
83
100
AcDbEntity
8
1
62
256
6
ByLayer
370
13
48
1
60
0
100
AcDbLine
10
21.110312
20
-57.378741
30
0
11
21.353963
21
-56.85298
31
0
39
0
210
0
220
0
230
1
0
LINE
5
84
100
AcDbEntity
8
1
62
256
6
ByLayer
370
18
48
1
60
0
100
AcDbLine
10
21.813636
20
-56.587679
30
0
11
21.813636
21
-42.844237
31
0
39
0
210
0
220
0
230
1
0
LINE
5
85
100
AcDbEntity
8
1
62
256
6
ByLayer
370
18
48
1
60
0
100
AcDbLine
10
20.274401
20
-56.229908
30
0
11
21.353963
21
-56.85298
31
0
39
0
210
0
220
0
230
1
0
LINE
5
86
100
AcDbEntity
8
1
62
256
6
ByLayer
370
18
48
1
60
0
100
AcDbLine
10
21.353963
20
-42.578935
30
0
11
21.330894
21
-42.592249
31
0
39
0
210
0
220
0
230
1
0
LINE
5
87
100
AcDbEntity
8
1
62
256
6
ByLayer
370
18
48
1
60
0
100
AcDbLine
10
21.110312
20
-57.378741
30
0
11
19.119736
21
-56.229875
31
0
39
0
210
0
220
0
230
1
0
LINE
5
88
100
AcDbEntity
8
1
62
256
6
ByLayer
370
13
48
1
60
0
100
AcDbLine
10
22.300937
20
-42.948126
30
0
11
21.813636
21
-42.844237
31
0
39
0
210
0
220
0
230
1
0
LINE
5
89
100
AcDbEntity
8
1
62
256
6
ByLayer
370
18
48
1
60
0
100
AcDbLine
10
22.300937
20
-42.948126
30
0
11
22.300937
21
-56.691568
31
0
39
0
210
0
220
0
230
1
0
LINE
5
8A
100
AcDbEntity
8
1
62
256
6
ByLayer
370
18
48
1
60
0
100
AcDbLine
10
-2.04981
20
20.99525
30
0
11
-2.686249
21
16.49525
31
0
39
0
210
0
220
0
230
1
0
LINE
5
8B
100
AcDbEntity
8
1
62
256
6
ByLayer
370
18
48
1
60
0
100
AcDbLine
10
-2.04981
20
20.99525
30
0
11
9.804979
21
20.99525
31
0
39
0
210
0
220
0
230
1
0
LINE
5
8C
100
AcDbEntity
8
1
62
256
6
ByLayer
370
18
48
1
60
0
100
AcDbLine
10
-2.686249
20
16.49525
30
0
11
10.277948
21
16.49525
31
0
39
0
210
0
220
0
230
1
0
LINE
5
8D
100
AcDbEntity
8
1
62
256
6
ByLayer
370
18
48
1
60
0
100
AcDbLine
10
9.804979
20
20.99525
30
0
11
10.277948
21
16.49525
31
0
39
0
210
0
220
0
230
1
0
LINE
5
8E
100
AcDbEntity
8
1
62
256
6
ByLayer
370
18
48
1
60
0
100
AcDbLine
10
10.355209
20
-46.531533
30
0
11
10.331749
21
-38.00475
31
0
39
0
210
0
220
0
230
1
0
LINE
5
8F
100
AcDbEntity
8
1
62
256
6
ByLayer
370
18
48
1
60
0
100
AcDbLine
10
-2.686249
20
-46.531533
30
0
11
10.355209
21
-46.531533
31
0
39
0
210
0
220
0
230
1
0
LINE
5
90
100
AcDbEntity
8
1
62
256
6
ByLayer
370
18
48
1
60
0
100
AcDbLine
10
-2.686249
20
-46.531533
30
0
11
-2.686249
21
16.49525
31
0
39
0
210
0
220
0
230
1
0
LINE
5
91
100
AcDbEntity
8
1
62
256
6
ByLayer
370
18
48
1
60
0
100
AcDbLine
10
10.277948
20
16.49525
30
0
11
10.277948
21
-38.00475
31
0
39
0
210
0
220
0
230
1
0
LINE
5
92
100
AcDbEntity
8
1
62
256
6
ByLayer
370
18
48
1
60
0
100
AcDbLine
10
10.277948
20
-38.00475
30
0
11
10.331749
21
-38.00475
31
0
39
0
210
0
220
0
230
1
0
LINE
5
93
100
AcDbEntity
8
1
62
256
6
ByLayer
370
18
48
1
60
0
100
AcDbLine
10
20.127524
20
-46.723701
30
0
11
17.188219
21
-46.64807
31
0
39
0
210
0
220
0
230
1
0
LINE
5
94
100
AcDbEntity
8
1
62
256
6
ByLayer
370
18
48
1
60
0
100
AcDbLine
10
14.438219
20
-49.328057
30
0
11
14.438219
21
-50.15903
31
0
39
0
210
0
220
0
230
1
0
LINE
5
95
100
AcDbEntity
8
1
62
256
6
ByLayer
370
18
48
1
60
0
100
AcDbLine
10
20.551399
20
-53.829017
30
0
11
20.507861
21
-38.00475
31
0
39
0
210
0
220
0
230
1
0
LINE
5
96
100
AcDbEntity
8
1
62
256
6
ByLayer
370
18
48
1
60
0
100
AcDbLine
10
19.964435
20
-53.548692
30
0
11
20.127524
21
-46.723701
31
0
39
0
210
0
220
0
230
1
0
LINE
5
97
100
AcDbEntity
8
1
62
256
6
ByLayer
370
18
48
1
60
0
100
AcDbLine
10
10.331749
20
-38.00475
30
0
11
20.507861
21
-38.00475
31
0
39
0
210
0
220
0
230
1
0
LINE
5
98
100
AcDbEntity
8
1
62
256
6
ByLayer
370
18
48
1
60
0
100
AcDbLine
10
8.630937
20
-56.217976
30
0
11
20.830937
21
-56.217976
31
0
39
0
210
0
220
0
230
1
0
LINE
5
99
100
AcDbEntity
8
1
62
256
6
ByLayer
370
18
48
1
60
0
100
AcDbLine
10
19.964435
20
-53.548692
30
0
11
14.438219
21
-53.548692
31
0
39
0
210
0
220
0
230
1
0
LINE
5
9A
100
AcDbEntity
8
1
62
256
6
ByLayer
370
13
48
1
60
0
100
AcDbLine
10
17.188219
20
-46.64807
30
0
11
17.188219
21
-46.723701
31
0
39
0
210
0
220
0
230
1
0
LINE
5
9B
100
AcDbEntity
8
1
62
256
6
ByLayer
370
18
48
1
60
0
100
AcDbLine
10
20.127524
20
-46.723701
30
0
11
17.188219
21
-46.723701
31
0
39
0
210
0
220
0
230
1
0
LINE
5
9C
100
AcDbEntity
8
1
62
256
6
ByLayer
370
18
48
1
60
0
100
AcDbLine
10
21.330937
20
-38.134989
30
0
11
20.808576
21
-38.00475
31
0
39
0
210
0
220
0
230
1
0
LINE
5
9D
100
AcDbEntity
8
1
62
256
6
ByLayer
370
18
48
1
60
0
100
AcDbLine
10
21.330937
20
-38.134989
30
0
11
21.330937
21
-42.383382
31
0
39
0
210
0
220
0
230
1
0
LINE
5
9E
100
AcDbEntity
8
1
62
256
6
ByLayer
370
18
48
1
60
0
100
AcDbLine
10
21.330937
20
-42.383382
30
0
11
21.330937
21
-55.730101
31
0
39
0
210
0
220
0
230
1
0
LINE
5
9F
100
AcDbEntity
8
1
62
256
6
ByLayer
370
18
48
1
60
0
100
AcDbLine
10
20.507861
20
-38.00475
30
0
11
20.808576
21
-38.00475
31
0
39
0
210
0
220
0
230
1
0
LINE
5
A0
100
AcDbEntity
8
1
62
256
6
ByLayer
370
18
48
1
60
0
100
AcDbLine
10
-1.559247
20
-54.235328
30
0
11
-8.199063
21
-52.701881
31
0
39
0
210
0
220
0
230
1
0
LINE
5
A1
100
AcDbEntity
8
1
62
256
6
ByLayer
370
18
48
1
60
0
100
AcDbLine
10
-1.356968
20
-54.28555
30
0
11
-1.559247
21
-54.235328
31
0
39
0
210
0
220
0
230
1
0
LINE
5
A2
100
AcDbEntity
8
1
62
256
6
ByLayer
370
18
48
1
60
0
100
AcDbLine
10
-0.217601
20
-54.504716
30
0
11
-0.056075
21
-54.5468
31
0
39
0
210
0
220
0
230
1
0
LINE
5
A3
100
AcDbEntity
8
1
62
256
6
ByLayer
370
13
48
1
60
0
100
AcDbLine
10
5.931524
20
-55.874263
30
0
11
5.931524
21
-56.167301
31
0
39
0
210
0
220
0
230
1
0
LINE
5
A4
100
AcDbEntity
8
1
62
256
6
ByLayer
370
18
48
1
60
0
100
AcDbLine
10
5.931524
20
-56.167301
30
0
11
4.210643
21
-55.862501
31
0
39
0
210
0
220
0
230
1
0
LINE
5
A5
100
AcDbEntity
8
1
62
256
6
ByLayer
370
18
48
1
60
0
100
AcDbLine
10
-8.199063
20
-52.701881
30
0
11
-8.199063
21
-53.056779
31
0
39
0
210
0
220
0
230
1
0
LINE
5
A6
100
AcDbEntity
8
1
62
256
6
ByLayer
370
18
48
1
60
0
100
AcDbLine
10
-1.188993
20
-54.100522
30
0
11
-0.217601
21
-54.504716
31
0
39
0
210
0
220
0
230
1
0
LINE
5
A7
100
AcDbEntity
8
1
62
256
6
ByLayer
370
13
48
1
60
0
100
AcDbLine
10
10.400937
20
-27.75475
30
0
11
10.277926
21
-27.75475
31
0
39
0
210
0
220
0
230
1
0
LINE
5
A8
100
AcDbEntity
8
1
62
256
6
ByLayer
370
13
48
1
60
0
100
AcDbLine
10
8.630937
20
-56.217976
30
0
11
8.630937
21
-56.406624
31
0
39
0
210
0
220
0
230
1
0
LINE
5
A9
100
AcDbEntity
8
1
62
256
6
ByLayer
370
13
48
1
60
0
100
AcDbLine
10
20.830937
20
-56.217976
30
0
11
20.830937
21
-56.22993
31
0
39
0
210
0
220
0
230
1
0
LINE
5
AA
100
AcDbEntity
8
1
62
256
6
ByLayer
370
18
48
1
60
0
100
AcDbLine
10
18.488437
20
-56.22993
30
0
11
20.830937
21
-56.22993
31
0
39
0
210
0
220
0
230
1
0
LINE
5
AB
100
AcDbEntity
8
1
62
256
6
ByLayer
370
18
48
1
60
0
100
AcDbLine
10
18.488437
20
-56.22993
30
0
11
18.388437
21
-56.232547
31
0
39
0
210
0
220
0
230
1
0
LINE
5
AC
100
AcDbEntity
8
1
62
256
6
ByLayer
370
18
48
1
60
0
100
AcDbLine
10
18.388437
20
-56.232547
30
0
11
18.388437
21
-56.406624
31
0
39
0
210
0
220
0
230
1
0
LINE
5
AD
100
AcDbEntity
8
1
62
256
6
ByLayer
370
18
48
1
60
0
100
AcDbLine
10
18.388437
20
-56.406624
30
0
11
8.630937
21
-56.406624
31
0
39
0
210
0
220
0
230
1
0
LINE
5
AE
100
AcDbEntity
8
1
62
256
6
ByLayer
370
13
48
1
60
0
100
AcDbLine
10
-1.356968
20
-54.28555
30
0
11
-1.356968
21
-53.53504
31
0
39
0
210
0
220
0
230
1
0
LINE
5
AF
100
AcDbEntity
8
SK1
62
256
6
ByLayer
370
18
48
1
60
0
100
AcDbLine
10
-6.67606
20
-31.00475
30
0
11
-6.67606
21
-3.50475
31
0
39
0
210
0
220
0
230
1
0
LINE
5
B0
100
AcDbEntity
8
SK1
62
256
6
ByLayer
370
18
48
1
60
0
100
AcDbLine
10
-3.122066
20
-3.50475
30
0
11
-3.122066
21
-31.00475
31
0
39
0
210
0
220
0
230
1
0
LINE
5
B1
100
AcDbEntity
8
SK1
62
256
6
ByLayer
370
18
48
1
60
0
100
AcDbLine
10
-8.199063
20
-52.004061
30
0
11
-8.199063
21
20.99525
31
0
39
0
210
0
220
0
230
1
0
LINE
5
B2
100
AcDbEntity
8
SK1
62
256
6
ByLayer
370
18
48
1
60
0
100
AcDbLine
10
-8.199063
20
20.99525
30
0
11
-3.199063
21
20.99525
31
0
39
0
210
0
220
0
230
1
0
LINE
5
B3
100
AcDbEntity
8
SK1
62
256
6
ByLayer
370
18
48
1
60
0
100
AcDbLine
10
-2.049834
20
20.99525
30
0
11
-3.199063
21
20.99525
31
0
39
0
210
0
220
0
230
1
0
LINE
5
B4
100
AcDbEntity
8
1
62
256
6
ByLayer
370
18
48
1
60
0
100
AcDbLine
10
-1.559247
20
-54.235328
30
0
11
-1.559247
21
-52.77656
31
0
39
0
210
0
220
0
230
1
0
LINE
5
B5
100
AcDbEntity
8
SK1
62
256
6
ByLayer
370
13
48
1
60
0
100
AcDbLine
10
-6.67606
20
-31.00475
30
0
11
-6.240451
21
-31.00475
31
0
39
0
210
0
220
0
230
1
0
LINE
5
B6
100
AcDbEntity
8
SK1
62
256
6
ByLayer
370
13
48
1
60
0
100
AcDbLine
10
-6.67606
20
-3.50475
30
0
11
-6.240451
21
-3.50475
31
0
39
0
210
0
220
0
230
1
0
LINE
5
B7
100
AcDbEntity
8
SK1
62
256
6
ByLayer
370
18
48
1
60
0
100
AcDbLine
10
-6.240451
20
-3.50475
30
0
11
-6.240451
21
-31.00475
31
0
39
0
210
0
220
0
230
1
0
LINE
5
B8
100
AcDbEntity
8
1
62
256
6
ByLayer
370
18
48
1
60
0
100
AcDbLine
10
10.400937
20
17.381607
30
0
11
10.400937
21
-27.75475
31
0
39
0
210
0
220
0
230
1
0
LINE
5
B9
100
AcDbEntity
8
1
62
256
6
ByLayer
370
18
48
1
60
0
100
AcDbLine
10
10.182746
20
17.40085
30
0
11
10.400937
21
17.381607
31
0
39
0
210
0
220
0
230
1
0
LINE
5
BA
100
AcDbEntity
8
SK1
62
256
6
ByLayer
370
18
48
1
60
0
100
AcDbLine
10
-12.499063
20
7.99525
30
0
11
-8.199004
21
7.99525
31
0
39
0
210
0
220
0
230
1
0
LINE
5
BB
100
AcDbEntity
8
SK1
62
256
6
ByLayer
370
18
48
1
60
0
100
AcDbLine
10
-8.199004
20
11.99525
30
0
11
-12.499063
21
11.99525
31
0
39
0
210
0
220
0
230
1
0
LINE
5
BC
100
AcDbEntity
8
SK1
62
256
6
ByLayer
370
18
48
1
60
0
100
AcDbLine
10
-12.499063
20
11.99525
30
0
11
-13.799063
21
11.766025
31
0
39
0
210
0
220
0
230
1
0
LINE
5
BD
100
AcDbEntity
8
SK1
62
256
6
ByLayer
370
18
48
1
60
0
100
AcDbLine
10
-13.799063
20
8.224475
30
0
11
-12.499063
21
7.99525
31
0
39
0
210
0
220
0
230
1
0
LINE
5
BE
100
AcDbEntity
8
1
62
256
6
ByLayer
370
18
48
1
60
0
100
AcDbLine
10
15.038437
20
-49.494108
30
0
11
15.038437
21
-49.619757
31
0
39
0
210
0
220
0
230
1
0
LINE
5
BF
100
AcDbEntity
8
1
62
256
6
ByLayer
370
13
48
1
60
0
100
AcDbLine
10
20.588437
20
-56.308773
30
0
11
20.632637
21
-56.229928
31
0
39
0
210
0
220
0
230
1
0
LINE
5
C0
100
AcDbEntity
8
1
62
256
6
ByLayer
370
13
48
1
60
0
100
AcDbLine
10
21.788437
20
-55.61619
30
0
11
21.388437
21
-55.605719
31
0
39
0
210
0
220
0
230
1
0
LINE
5
C1
100
AcDbEntity
8
1
62
256
6
ByLayer
370
18
48
1
60
0
100
AcDbLine
10
21.388437
20
-55.605719
30
0
11
21.388437
21
-43.658664
31
0
39
0
210
0
220
0
230
1
0
LINE
5
C2
100
AcDbEntity
8
1
62
256
6
ByLayer
370
18
48
1
60
0
100
AcDbLine
10
20.588437
20
-56.308773
30
0
11
20.451785
21
-56.229903
31
0
39
0
210
0
220
0
230
1
0
LINE
5
C3
100
AcDbEntity
8
1
62
256
6
ByLayer
370
18
48
1
60
0
100
AcDbLine
10
21.788437
20
-43.669135
30
0
11
21.788437
21
-55.61619
31
0
39
0
210
0
220
0
230
1
0
LINE
5
C4
100
AcDbEntity
8
1
62
256
6
ByLayer
370
13
48
1
60
0
100
AcDbLine
10
21.388437
20
-43.658664
30
0
11
21.788437
21
-43.669135
31
0
39
0
210
0
220
0
230
1
0
LINE
5
C5
100
AcDbEntity
8
SK1
62
256
6
ByLayer
370
18
48
1
60
0
100
AcDbLine
10
-4.310623
20
-42.50475
30
0
11
-4.310556
21
-42.50475
31
0
39
0
210
0
220
0
230
1
0
LINE
5
C6
100
AcDbEntity
8
SK1
62
256
6
ByLayer
370
18
48
1
60
0
100
AcDbLine
10
-4.32281
20
-47.50475
30
0
11
-4.322743
21
-47.50475
31
0
39
0
210
0
220
0
230
1
0
LINE
5
C7
100
AcDbEntity
8
1
62
256
6
ByLayer
370
18
48
1
60
0
100
AcDbLine
10
14.438219
20
-53.548692
30
0
11
14.438219
21
-50.15903
31
0
39
0
210
0
220
0
230
1
0
LINE
5
C8
100
AcDbEntity
8
SK1
62
256
6
ByLayer
370
18
48
1
60
0
100
AcDbLine
10
-13.799063
20
11.766025
30
0
11
-13.799063
21
8.224475
31
0
39
0
210
0
220
0
230
1
0
LINE
5
C9
100
AcDbEntity
8
SK1
62
256
6
ByLayer
370
18
48
1
60
0
100
AcDbLine
10
-12.499063
20
11.99525
30
0
11
-12.499063
21
7.99525
31
0
39
0
210
0
220
0
230
1
0
LINE
5
CA
100
AcDbEntity
8
1
62
256
6
ByLayer
370
18
48
1
60
0
100
AcDbLine
10
10.400937
20
-27.75475
30
0
11
10.400937
21
-31.00475
31
0
39
0
210
0
220
0
230
1
0
LINE
5
CB
100
AcDbEntity
8
1
62
256
6
ByLayer
370
18
48
1
60
0
100
AcDbLine
10
14.675171
20
-36.475521
30
0
11
20.808576
21
-38.00475
31
0
39
0
210
0
220
0
230
1
0
LINE
5
CC
100
AcDbEntity
8
1
62
256
6
ByLayer
370
13
48
0.05
60
0
100
AcDbLine
10
22.300937
20
52.691568
30
0
11
22.300937
21
56.691568
31
0
39
0
210
0
220
0
230
1
0
LINE
5
CD
100
AcDbEntity
8
1
62
256
6
ByLayer
370
13
48
0.05
60
0
100
AcDbLine
10
21.110312
20
57.378741
30
0
11
17.645914
21
55.379255
31
0
39
0
210
0
220
0
230
1
0
MTEXT
5
12D
100
AcDbEntity
8
SK6
62
256
6
ByLayer
370
18
48
1
60
0
100
AcDbMText
10
28.005493
20
-67.337005
30
0
210
0
220
0
230
1
1
\W0.7165;BR20-HB-TC16F-22
40
3
41
0
44
1.084337
50
0
71
7
72
5
7
iso_b_vert
0
DIMENSION
5
13B
100
AcDbEntity
8
SK2
62
256
6
ByLayer
370
13
48
1
60
0
100
AcDbDimension
2
DimnDraft3D1
10
0
20
-70.815732
30
0
11
7.708363
21
-70.815732
31
0
70
32
71
5
72
1
41
1
210
0
220
0
230
1
3
Standard
100
AcDbAlignedDimension
13
22.300937
23
-59.485046
33
0
14
0
24
-2
34
0
50
0
100
AcDbRotatedDimension
1001
ACAD
1000
DSTYLE
1002
{
1070
   279
1070
     0
1070
   172
1070
     1
1070
   173
1070
     1
1070
   340
1005
12E
1070
   271
1070
     1
1070
    77
1070
     1
1070
    73
1070
     0
1070
   171
1070
     4
1070
   274
1070
     4
1070
   177
1070
     7
1070
   176
1070
     7
1070
   178
1070
     7
1070
    41
1041
3.175
1070
   147
1041
1.5
1070
    42
1041
2.0
1070
    44
1041
2.0
1070
   140
1041
3.0
1070
   343
1005
0
1070
   344
1005
0
1002
}
0
DIMENSION
5
146
100
AcDbEntity
8
2
62
256
6
ByLayer
370
13
48
1
60
0
100
AcDbDimension
2
DimnDraft3D2
10
49.111092
20
57.485046
30
0
11
49.111092
21
-12.797368
31
0
70
32
71
5
72
1
41
1
210
0
220
0
230
1
3
Standard
100
AcDbAlignedDimension
13
24.300937
23
-57.485046
33
0
14
23.507187
24
57.485046
34
0
50
90
100
AcDbRotatedDimension
1001
ACAD
1000
DSTYLE
1002
{
1070
    74
1070
     0
1070
   279
1070
     0
1070
   172
1070
     1
1070
   173
1070
     1
1070
   340
1005
12E
1070
   271
1070
     1
1070
    77
1070
     1
1070
    73
1070
     0
1070
   171
1070
     4
1070
   274
1070
     4
1070
   177
1070
     7
1070
   176
1070
     7
1070
   178
1070
     7
1070
    41
1041
3.175
1070
   147
1041
1.5
1070
    42
1041
2.0
1070
    44
1041
2.0
1070
   140
1041
3.0
1070
   343
1005
0
1070
   344
1005
0
1002
}
0
DIMENSION
5
150
100
AcDbEntity
8
2
62
256
6
ByLayer
370
13
48
1
60
0
100
AcDbDimension
2
DimnDraft3D3
10
23.300937
20
-57.485046
30
0
11
36.988916
21
-42.797067
31
0
70
34
71
5
72
1
41
1
210
0
220
0
230
1
3
Standard
100
AcDb2LineAngularDimension
13
22.300937
23
-42.948126
33
0
14
22.300937
24
-56.691568
34
0
15
22.300937
25
-57.485046
35
0
16
34.867596
26
-44.918387
36
0
40
0
0
ENDSEC
0
SECTION
2
OBJECTS
0
DICTIONARY
5
1be
330
0
100
AcDbDictionary
280
0
281
1
3
ACAD_GROUP
350
1bf
3
ACAD_GROUP
350
1c0
3
ACAD_MLINESTYLE
350
1c1
0
DICTIONARY
5
1bf
330
0
100
AcDbDictionary
280
0
281
1
0
DICTIONARY
5
1c0
330
0
100
AcDbDictionary
280
0
281
1
3
<201777268MOD000_00>
350
159
3
DIT-000-00-UG_TO_2D CONVERT_BR20_SIZEG AND_H_TC
350
15A
0
DICTIONARY
5
1c1
330
0
100
AcDbDictionary
280
0
281
1
3
Standard
350
18
0
GROUP
5
159
330
1c0
100
AcDbGroup
300

70
0
71
1
340
6C
340
6E
340
70
340
72
340
73
340
75
340
76
340
78
340
79
340
7A
340
7B
340
7C
340
7D
340
7F
340
80
340
81
340
82
340
83
340
84
340
85
340
86
340
87
340
88
340
89
340
8A
340
8B
340
8C
340
8D
340
8E
340
8F
340
90
340
91
340
92
340
93
340
94
340
95
340
96
340
97
340
98
340
99
340
9A
340
9B
340
9C
340
9D
340
9E
340
9F
340
A0
340
A1
340
A2
340
A3
340
A4
340
A5
340
A6
340
A7
340
A8
340
A9
340
AA
340
AB
340
AC
340
AD
340
AE
340
AF
340
B0
340
B1
340
B2
340
B3
340
B4
340
B5
340
B6
340
B7
340
B8
340
B9
340
BA
340
BB
340
BC
340
BD
340
BE
340
BF
340
C0
340
C1
340
C2
340
C3
340
C4
340
C5
340
C6
340
C7
340
C8
340
C9
340
CA
340
CB
340
CC
340
CD
340
CE
340
CF
340
D0
340
D1
340
D2
340
D3
340
D4
340
D5
340
D6
340
D7
340
D8
340
D9
340
DA
340
DB
340
DC
340
DD
340
DE
340
DF
340
E0
340
E1
340
E2
340
E3
340
E4
340
E5
340
E6
340
E7
340
E8
340
E9
340
EA
340
EB
340
EC
340
ED
340
EE
340
EF
340
F0
340
F1
340
F2
340
F3
340
F4
340
F5
340
F6
340
F7
340
F8
340
F9
340
FA
340
FB
340
FC
340
FD
340
FE
340
FF
340
100
340
101
340
102
340
103
340
104
340
105
340
106
340
107
340
108
340
109
340
10A
340
10B
340
10C
340
10D
340
10E
340
10F
340
110
340
111
340
112
340
113
340
114
340
115
340
116
340
117
340
118
340
119
340
11A
340
11B
340
11C
340
11D
340
11E
340
11F
340
120
340
121
340
122
340
123
340
124
340
125
340
126
340
127
340
128
340
129
340
12A
340
12B
340
12C
340
78
340
79
340
7A
340
7B
340
7C
340
7D
340
7F
340
80
340
81
340
82
340
83
340
84
340
85
340
86
340
87
340
88
340
89
340
8A
340
8B
340
8C
340
8D
340
8E
340
8F
340
90
340
91
340
92
340
93
340
94
340
95
340
96
340
97
340
98
340
99
340
9A
340
9B
340
9C
340
9D
340
9E
340
9F
340
A0
340
A1
340
A2
340
A3
340
A4
340
A5
340
A6
340
A7
340
A8
340
A9
340
AA
340
AB
340
AC
340
AD
340
AE
340
AF
340
B0
340
B1
340
B2
340
B3
340
B4
340
B5
340
B6
340
B7
340
B8
340
B9
340
BA
340
BB
340
BC
340
BD
340
BE
340
BF
340
C0
340
C1
340
C2
340
C3
340
C4
340
C5
340
C6
340
C7
340
C8
340
C9
340
CA
340
CB
340
CE
340
CF
340
D0
340
D1
340
D2
340
D3
340
D4
340
D5
340
D6
340
D7
340
D8
340
D9
340
DA
340
DB
340
DC
340
DD
340
DE
340
DF
340
E0
340
E1
340
E2
340
E3
340
E4
340
E5
340
E6
340
E7
340
E8
340
E9
340
EA
340
EB
340
EC
340
ED
340
EE
340
EF
340
F0
340
F1
340
F2
340
F3
340
F4
340
F5
340
F6
340
F7
340
F8
340
F9
340
FA
340
FB
340
FC
340
FD
340
FE
340
FF
340
100
340
101
340
102
340
103
340
104
340
105
340
106
340
107
340
108
340
109
340
10A
340
10B
340
10C
340
10D
340
10E
340
10F
340
110
340
111
340
112
340
113
340
114
340
115
340
116
340
117
340
118
340
119
340
11A
340
11C
340
11D
340
11E
340
11F
340
120
340
121
340
122
340
123
340
124
340
125
340
126
340
127
340
128
340
129
340
12A
340
12B
340
12C
340
12D
340
13B
340
146
340
150
0
GROUP
5
15A
330
1c0
100
AcDbGroup
300

70
0
71
1
340
78
340
79
340
7A
340
7B
340
7C
340
7D
340
7F
340
80
340
81
340
82
340
83
340
84
340
85
340
86
340
87
340
88
340
89
340
8A
340
8B
340
8C
340
8D
340
8E
340
8F
340
90
340
91
340
92
340
93
340
94
340
95
340
96
340
97
340
98
340
99
340
9A
340
9B
340
9C
340
9D
340
9E
340
9F
340
A0
340
A1
340
A2
340
A3
340
A4
340
A5
340
A6
340
A7
340
A8
340
A9
340
AA
340
AB
340
AC
340
AD
340
AE
340
AF
340
B0
340
B1
340
B2
340
B3
340
B4
340
B5
340
B6
340
B7
340
B8
340
B9
340
BA
340
BB
340
BC
340
BD
340
BE
340
BF
340
C0
340
C1
340
C2
340
C3
340
C4
340
C5
340
C6
340
C7
340
C8
340
C9
340
CA
340
CB
340
CE
340
CF
340
D0
340
D1
340
D2
340
D3
340
D4
340
D5
340
D6
340
D7
340
D8
340
D9
340
DA
340
DB
340
DC
340
DD
340
DE
340
DF
340
E0
340
E1
340
E2
340
E3
340
E4
340
E5
340
E6
340
E7
340
E8
340
E9
340
EA
340
EB
340
EC
340
ED
340
EE
340
EF
340
F0
340
F1
340
F2
340
F3
340
F4
340
F5
340
F6
340
F7
340
F8
340
F9
340
FA
340
FB
340
FC
340
FD
340
FE
340
FF
340
100
340
101
340
102
340
103
340
104
340
105
340
106
340
107
340
108
340
109
340
10A
340
10B
340
10C
340
10D
340
10E
340
10F
340
110
340
111
340
112
340
113
340
114
340
115
340
116
340
117
340
118
340
119
340
11A
340
11C
340
11D
340
11E
340
11F
340
120
340
121
340
122
340
123
340
124
340
125
340
126
340
127
340
128
340
129
340
12A
340
12B
340
12C
0
MLINESTYLE
5
18
330
1c1
100
AcDbMlineStyle
2
Standard
70
0
3

62
256
51
90
52
90
71
2
49
-0.5
62
256
6
ByLayer
49
0.5
62
256
6
ByLayer
0
RASTERVARIABLES
5
1ab
330

100
AcDbRasterVariables
90
0
70
1
71
1
72
1
0
ENDSEC
0
EOF
