0
SECTION
2
HEADER
9
$ACADVER
1
AC1015
9
$DWGCODEPAGE
3
ANSI_1252
9
$HANDSEED
5
2df
9
$ANGBASE
50
0
9
$ANGDIR
70
0
9
$ATTMODE
70
1
9
$AUNITS
70
0
9
$AUPREC
70
0
9
$CECOLOR
62
256
9
$CELTSCALE
40
1
9
$CELTYPE
6
ByLayer
9
$CELWEIGHT
370
18
9
$CLAYER
8
0
9
$CMLJUST
70
0
9
$CMLSCALE
40
1
9
$CMLSTYLE
2
Standard
9
$DIMSTYLE
2
Standard
9
$TEXTSIZE
40
0.2
9
$TEXTSTYLE
7
Standard
9
$LUNITS
70
2
9
$LUPREC
70
4
9
$EXTNAMES
290
1
9
$INSUNITS
70
4
9
$LTSCALE
40
1
9
$LWDISPLAY
290
1
9
$PDMODE
70
0
9
$PDSIZE
40
0
9
$PLINEGEN
70
0
0
ENDSEC
0
SECTION
2
CLASSES
0
CLASS
1
RASTERVARIABLES
2
AcDbRasterVariables
3
ISM
90
0
280
0
281
0
0
ENDSEC
0
SECTION
2
TABLES
0
TABLE
2
VPORT
5
2d5
100
AcDbSymbolTable
0
VPORT
5
1
100
AcDbSymbolTableRecord
100
AcDbViewportTableRecord
2
*Active
70
0
10
0
20
0
11
1
21
1
12
-1
22
1
13
0
23
0
14
0.5
24
0.5
15
10
25
10
16
0
26
0
36
1
17
0
27
0
37
0
0
ENDTAB
0
TABLE
2
LTYPE
5
2d6
100
AcDbSymbolTable
0
LTYPE
5
14
100
AcDbSymbolTableRecord
100
AcDbLinetypeTableRecord
70
0
2
ByBlock
3

72
65
73
0
40
0
0
LTYPE
5
15
100
AcDbSymbolTableRecord
100
AcDbLinetypeTableRecord
70
0
2
ByLayer
3

72
65
73
0
40
0
0
LTYPE
5
16
100
AcDbSymbolTableRecord
100
AcDbLinetypeTableRecord
70
0
2
CONTINUOUS
3
Solid line
72
65
73
0
40
0
0
LTYPE
5
6A
100
AcDbSymbolTableRecord
100
AcDbLinetypeTableRecord
70
0
2
CENTER
3
____ _ ____ _ ____ _ ____
72
65
73
4
40
47.5
49
22
74
0
49
-8.5
74
0
49
8.5
74
0
49
-8.5
74
0
0
LTYPE
5
6B
100
AcDbSymbolTableRecord
100
AcDbLinetypeTableRecord
70
0
2
DASHED
3
__ __ __ __ __ __ __ __ __
72
65
73
2
40
25.72
49
12.86
74
0
49
-12.86
74
0
0
ENDTAB
0
TABLE
2
LAYER
5
2d7
100
AcDbSymbolTable
0
LAYER
5
10
100
AcDbSymbolTableRecord
100
AcDbLayerTableRecord
2
0
70
0
62
7
6
CONTINUOUS
290
1
370
-3
390
0
0
LAYER
5
6D
100
AcDbSymbolTableRecord
100
AcDbLayerTableRecord
2
80
70
0
62
-6
6
CONTINUOUS
290
1
370
-3
390
0
0
LAYER
5
6F
100
AcDbSymbolTableRecord
100
AcDbLayerTableRecord
2
81
70
0
62
-3
6
CONTINUOUS
290
1
370
-3
390
0
0
LAYER
5
7C
100
AcDbSymbolTableRecord
100
AcDbLayerTableRecord
2
4
70
0
62
-2
6
CENTER
290
1
370
-3
390
0
0
LAYER
5
81
100
AcDbSymbolTableRecord
100
AcDbLayerTableRecord
2
2
70
0
62
7
6
CONTINUOUS
290
1
370
-3
390
0
0
LAYER
5
84
100
AcDbSymbolTableRecord
100
AcDbLayerTableRecord
2
1
70
0
62
4
6
CONTINUOUS
290
1
370
-3
390
0
0
LAYER
5
2bf
100
AcDbSymbolTableRecord
100
AcDbLayerTableRecord
2
SK1
70
0
62
4
6
CONTINUOUS
290
1
370
-3
390
0
0
LAYER
5
2c0
100
AcDbSymbolTableRecord
100
AcDbLayerTableRecord
2
SK4
70
0
62
2
6
CENTER
290
1
370
-3
390
0
0
LAYER
5
2c1
100
AcDbSymbolTableRecord
100
AcDbLayerTableRecord
2
SK6
70
0
62
5
6
CONTINUOUS
290
1
370
-3
390
0
0
LAYER
5
2c2
100
AcDbSymbolTableRecord
100
AcDbLayerTableRecord
2
SK2
70
0
62
7
6
CONTINUOUS
290
1
370
-3
390
0
0
ENDTAB
0
TABLE
2
STYLE
5
2d8
100
AcDbSymbolTable
0
STYLE
5
11
100
AcDbSymbolTableRecord
100
AcDbTextStyleTableRecord
2
Standard
3
txt
70
0
71
0
40
0
41
1
42
0
50
0
0
STYLE
5
22C
100
AcDbSymbolTableRecord
100
AcDbTextStyleTableRecord
2
iso_b_vert
3
simplex.shx
70
0
71
0
40
0
41
1
42
0
50
0
0
STYLE
5
22D
100
AcDbSymbolTableRecord
100
AcDbTextStyleTableRecord
2
DWGDirectTextStyle
3
simplex
70
0
71
0
40
0
41
1
42
0
50
0
0
ENDTAB
0
TABLE
2
DIMSTYLE
5
2d9
100
AcDbSymbolTable
100
AcDbDimStyleTable
0
DIMSTYLE
105
27
100
AcDbSymbolTableRecord
100
AcDbDimStyleTableRecord
2
Standard
70
0
3
<>
41
0.18
42
0.0625
44
0.18
140
0.18
147
0.09
73
0
74
0
77
1
271
2
275
0
278
52
280
0
340
11
0
ENDTAB
0
TABLE
2
VIEW
5
2da
100
AcDbSymbolTable
0
ENDTAB
0
TABLE
2
UCS
5
2db
100
AcDbSymbolTable
0
ENDTAB
0
TABLE
2
APPID
5
2dc
100
AcDbSymbolTable
0
APPID
5
12
100
AcDbSymbolTableRecord
100
AcDbRegAppTableRecord
2
ACAD
70
0
0
ENDTAB
0
TABLE
2
BLOCK_RECORD
5
2dd
100
AcDbSymbolTable
0
BLOCK_RECORD
5
1F
100
AcDbSymbolTableRecord
100
AcDbBlockTableRecord
2
*Model_Space
340
0
70
0
0
BLOCK_RECORD
5
1B
100
AcDbSymbolTableRecord
100
AcDbBlockTableRecord
2
*Paper_Space
340
0
70
0
0
BLOCK_RECORD
5
23
100
AcDbSymbolTableRecord
100
AcDbBlockTableRecord
2
*Paper_Space0
340
0
70
0
0
BLOCK_RECORD
5
22F
100
AcDbSymbolTableRecord
100
AcDbBlockTableRecord
2
DimnDraft3D1
340
0
70
0
0
BLOCK_RECORD
5
239
100
AcDbSymbolTableRecord
100
AcDbBlockTableRecord
2
DimnDraft3D2
340
0
70
0
0
BLOCK_RECORD
5
243
100
AcDbSymbolTableRecord
100
AcDbBlockTableRecord
2
DimnDraft3D3
340
0
70
0
0
BLOCK_RECORD
5
24D
100
AcDbSymbolTableRecord
100
AcDbBlockTableRecord
2
DimnDraft3D4
340
0
70
0
0
BLOCK_RECORD
5
257
100
AcDbSymbolTableRecord
100
AcDbBlockTableRecord
2
DimnDraft3D5
340
0
70
0
0
ENDTAB
0
ENDSEC
0
SECTION
2
BLOCKS
0
BLOCK
5
20
100
AcDbEntity
8
0
100
AcDbBlockBegin
2
*Model_Space
70
0
10
0
20
0
30
0
3
*Model_Space
0
ENDBLK
5
21
100
AcDbEntity
8
0
100
AcDbBlockEnd
0
BLOCK
5
1C
100
AcDbEntity
8
0
100
AcDbBlockBegin
2
*Paper_Space
70
0
10
0
20
0
30
0
3
*Paper_Space
0
ENDBLK
5
1D
100
AcDbEntity
8
0
100
AcDbBlockEnd
0
BLOCK
5
24
100
AcDbEntity
8
0
100
AcDbBlockBegin
2
*Paper_Space0
70
0
10
0
20
0
30
0
3
*Paper_Space0
0
ENDBLK
5
25
100
AcDbEntity
8
0
100
AcDbBlockEnd
0
BLOCK
5
236
100
AcDbEntity
8
0
100
AcDbBlockBegin
2
DimnDraft3D1
70
0
10
0
20
0
30
0
3
DimnDraft3D1
0
MTEXT
5
230
100
AcDbEntity
8
2
62
256
6
ByLayer
370
18
48
1
60
0
100
AcDbMText
10
38.807895
20
44.25
30
0
210
0
220
0
230
1
1
\W0.6961;83.0
40
3
41
0
44
1.084337
50
0
71
7
72
5
7
iso_b_vert
0
LINE
5
231
100
AcDbEntity
8
2
62
256
6
ByLayer
370
13
48
1
60
0
100
AcDbLine
10
0
20
17.7
30
0
11
0
21
45.5
31
0
39
0
210
0
220
0
230
1
0
LINE
5
232
100
AcDbEntity
8
2
62
256
6
ByLayer
370
13
48
1
60
0
100
AcDbLine
10
83
20
15.998411
30
0
11
83
21
45.5
31
0
39
0
210
0
220
0
230
1
0
LINE
5
233
100
AcDbEntity
8
2
62
256
6
ByLayer
370
13
48
1
60
0
100
AcDbLine
10
0
20
43.5
30
0
11
83
21
43.5
31
0
39
0
210
0
220
0
230
1
0
SOLID
5
234
100
AcDbEntity
8
2
62
256
6
ByLayer
370
13
48
1
60
0
100
AcDbTrace
10
0
20
43.5
30
0
11
3.174998
21
43.917997
31
0
12
3.175002
22
43.082003
32
0
13
0
23
43.5
33
0
39
0
210
0
220
0
230
1
0
SOLID
5
235
100
AcDbEntity
8
2
62
256
6
ByLayer
370
13
48
1
60
0
100
AcDbTrace
10
83
20
43.5
30
0
11
79.825002
21
43.082003
31
0
12
79.824998
22
43.917997
32
0
13
83
23
43.5
33
0
39
0
210
0
220
0
230
1
0
ENDBLK
5
237
100
AcDbEntity
8
0
100
AcDbBlockEnd
0
BLOCK
5
240
100
AcDbEntity
8
0
100
AcDbBlockBegin
2
DimnDraft3D2
70
0
10
0
20
0
30
0
3
DimnDraft3D2
0
MTEXT
5
23A
100
AcDbEntity
8
2
62
256
6
ByLayer
370
18
48
1
60
0
100
AcDbMText
10
42.790789
20
29.25
30
0
210
0
220
0
230
1
1
\W0.7395;LU = 2.0 X Dc
40
3
41
0
44
1.084337
50
0
71
7
72
5
7
iso_b_vert
0
LINE
5
23B
100
AcDbEntity
8
2
62
256
6
ByLayer
370
13
48
1
60
0
100
AcDbLine
10
83
20
15.998411
30
0
11
83
21
30.5
31
0
39
0
210
0
220
0
230
1
0
LINE
5
23C
100
AcDbEntity
8
2
62
256
6
ByLayer
370
13
48
1
60
0
100
AcDbLine
10
27
20
15.998411
30
0
11
27
21
30.5
31
0
39
0
210
0
220
0
230
1
0
LINE
5
23D
100
AcDbEntity
8
2
62
256
6
ByLayer
370
13
48
1
60
0
100
AcDbLine
10
83
20
28.5
30
0
11
27
21
28.5
31
0
39
0
210
0
220
0
230
1
0
SOLID
5
23E
100
AcDbEntity
8
2
62
256
6
ByLayer
370
13
48
1
60
0
100
AcDbTrace
10
83
20
28.5
30
0
11
79.825002
21
28.082003
31
0
12
79.824998
22
28.917997
32
0
13
83
23
28.5
33
0
39
0
210
0
220
0
230
1
0
SOLID
5
23F
100
AcDbEntity
8
2
62
256
6
ByLayer
370
13
48
1
60
0
100
AcDbTrace
10
27
20
28.5
30
0
11
30.174998
21
28.917997
31
0
12
30.175002
22
28.082003
32
0
13
27
23
28.5
33
0
39
0
210
0
220
0
230
1
0
ENDBLK
5
241
100
AcDbEntity
8
0
100
AcDbBlockEnd
0
BLOCK
5
24A
100
AcDbEntity
8
0
100
AcDbBlockBegin
2
DimnDraft3D3
70
0
10
0
20
0
30
0
3
DimnDraft3D3
0
MTEXT
5
244
100
AcDbEntity
8
2
62
256
6
ByLayer
370
18
48
1
60
0
100
AcDbMText
10
105.75
20
-10.969604
30
0
210
0
220
0
230
1
1
\W0.7221;Dc=28.0-36.0
40
3
41
0
44
1.084337
50
90
71
7
72
5
7
iso_b_vert
0
LINE
5
245
100
AcDbEntity
8
2
62
256
6
ByLayer
370
13
48
1
60
0
100
AcDbLine
10
85
20
13.998411
30
0
11
108.5
21
13.998411
31
0
39
0
210
0
220
0
230
1
0
LINE
5
246
100
AcDbEntity
8
2
62
256
6
ByLayer
370
13
48
1
60
0
100
AcDbLine
10
84.604532
20
-13.998146
30
0
11
108.5
21
-13.998146
31
0
39
0
210
0
220
0
230
1
0
LINE
5
247
100
AcDbEntity
8
2
62
256
6
ByLayer
370
13
48
1
60
0
100
AcDbLine
10
106.5
20
21.498411
30
0
11
106.5
21
-21.498146
31
0
39
0
210
0
220
0
230
1
0
SOLID
5
248
100
AcDbEntity
8
2
62
256
6
ByLayer
370
13
48
1
60
0
100
AcDbTrace
10
106.5
20
13.998411
30
0
11
106.082003
21
17.17341
31
0
12
106.917997
22
17.173413
32
0
13
106.5
23
13.998411
33
0
39
0
210
0
220
0
230
1
0
SOLID
5
249
100
AcDbEntity
8
2
62
256
6
ByLayer
370
13
48
1
60
0
100
AcDbTrace
10
106.5
20
-13.998146
30
0
11
106.917997
21
-17.173144
31
0
12
106.082003
22
-17.173147
32
0
13
106.5
23
-13.998146
33
0
39
0
210
0
220
0
230
1
0
ENDBLK
5
24B
100
AcDbEntity
8
0
100
AcDbBlockEnd
0
BLOCK
5
254
100
AcDbEntity
8
0
100
AcDbBlockBegin
2
DimnDraft3D4
70
0
10
0
20
0
30
0
3
DimnDraft3D4
0
MTEXT
5
24E
100
AcDbEntity
8
2
62
256
6
ByLayer
370
18
48
1
60
0
100
AcDbMText
10
90.283343
20
3.948978
30
0
210
0
220
0
230
1
1
\W0.5899;90%%d
40
3
41
0
44
1.084337
50
45
71
7
72
5
7
iso_b_vert
0
LINE
5
24F
100
AcDbEntity
8
2
62
256
6
ByLayer
370
13
48
1
60
0
100
AcDbLine
10
83
20
3.365124
30
0
11
83
21
-1.007712
31
0
39
0
210
0
220
0
230
1
0
LINE
5
250
100
AcDbEntity
8
2
62
256
6
ByLayer
370
13
48
1
60
0
100
AcDbLine
10
87
20
13.998411
30
0
11
98.006123
21
13.998411
31
0
39
0
210
0
220
0
230
1
0
ARC
5
251
100
AcDbEntity
8
2
62
256
6
ByLayer
370
13
48
1
60
0
100
AcDbCircle
39
0
10
83
20
13.998411
30
0
40
13.0061230716986
210
0
220
0
230
1
100
AcDbArc
50
270
51
0
0
SOLID
5
252
100
AcDbEntity
8
2
62
256
6
ByLayer
370
13
48
1
60
0
100
AcDbTrace
10
83
20
0.992288
30
0
11
86.143777
21
1.602209
31
0
12
86.194517
22
0.767757
32
0
13
83
23
0.992288
33
0
39
0
210
0
220
0
230
1
0
SOLID
5
253
100
AcDbEntity
8
2
62
256
6
ByLayer
370
13
48
1
60
0
100
AcDbTrace
10
96.006123
20
13.998411
30
0
11
96.230655
21
10.803897
31
0
12
95.396202
22
10.854631
32
0
13
96.006123
23
13.998411
33
0
39
0
210
0
220
0
230
1
0
ENDBLK
5
255
100
AcDbEntity
8
0
100
AcDbBlockEnd
0
BLOCK
5
260
100
AcDbEntity
8
0
100
AcDbBlockBegin
2
DimnDraft3D5
70
0
10
0
20
0
30
0
3
DimnDraft3D5
0
MTEXT
5
258
100
AcDbEntity
8
SK2
62
256
6
ByLayer
370
18
48
1
60
0
100
AcDbMText
10
-29.25
20
1.164474
30
0
210
0
220
0
230
1
1
\W0.6337;32
40
3
41
0
44
1.084337
50
90
71
7
72
5
7
iso_b_vert
0
MTEXT
5
25A
100
AcDbEntity
8
SK2
62
256
6
ByLayer
370
18
48
1
60
0
100
AcDbMText
10
-29.25
20
-3.248684
30
0
210
0
220
0
230
1
1
\W1.1719;%%c
40
3
41
0
44
1.084337
50
90
71
7
72
5
7
iso_b_vert
0
LINE
5
25B
100
AcDbEntity
8
SK2
62
256
6
ByLayer
370
13
48
1
60
0
100
AcDbLine
10
-1.7
20
16
30
0
11
-30.5
21
16
31
0
39
0
210
0
220
0
230
1
0
LINE
5
25C
100
AcDbEntity
8
SK2
62
256
6
ByLayer
370
13
48
1
60
0
100
AcDbLine
10
-1.7
20
-16
30
0
11
-30.5
21
-16
31
0
39
0
210
0
220
0
230
1
0
LINE
5
25D
100
AcDbEntity
8
SK2
62
256
6
ByLayer
370
13
48
1
60
0
100
AcDbLine
10
-28.5
20
16
30
0
11
-28.5
21
-16
31
0
39
0
210
0
220
0
230
1
0
SOLID
5
25E
100
AcDbEntity
8
SK2
62
256
6
ByLayer
370
13
48
1
60
0
100
AcDbTrace
10
-28.5
20
16
30
0
11
-28.082003
21
12.825002
31
0
12
-28.917997
22
12.824998
32
0
13
-28.5
23
16
33
0
39
0
210
0
220
0
230
1
0
SOLID
5
25F
100
AcDbEntity
8
SK2
62
256
6
ByLayer
370
13
48
1
60
0
100
AcDbTrace
10
-28.5
20
-16
30
0
11
-28.917997
21
-12.825002
31
0
12
-28.082003
22
-12.824998
32
0
13
-28.5
23
-16
33
0
39
0
210
0
220
0
230
1
0
ENDBLK
5
261
100
AcDbEntity
8
0
100
AcDbBlockEnd
0
ENDSEC
0
SECTION
2
ENTITIES
0
ARC
5
142
100
AcDbEntity
8
SK1
62
256
6
ByLayer
370
18
48
1
60
0
100
AcDbCircle
39
0
10
0.6
20
-11.8
30
0
40
1
210
0
220
0
230
-1
100
AcDbArc
50
113.578178
51
126.869898
0
ARC
5
143
100
AcDbEntity
8
SK1
62
256
6
ByLayer
370
18
48
1
60
0
100
AcDbCircle
39
0
10
-0.6
20
11.8
30
0
40
1
210
0
220
0
230
1
100
AcDbArc
50
293.578178
51
306.869898
0
ARC
5
144
100
AcDbEntity
8
1
62
256
6
ByLayer
370
18
48
1
60
0
100
AcDbCircle
39
0
10
63.1
20
-10.2
30
0
40
0.605662432702594
210
0
220
0
230
1
100
AcDbArc
50
190.686529
51
175.686529
0
ARC
5
145
100
AcDbEntity
8
1
62
256
6
ByLayer
370
18
48
1
60
0
100
AcDbCircle
39
0
10
-63.1
20
-10.2
30
0
40
0.45
210
0
220
0
230
-1
100
AcDbArc
50
4.313471
51
349.313471
0
ARC
5
148
100
AcDbEntity
8
1
62
256
6
ByLayer
370
18
48
1
60
0
100
AcDbCircle
39
0
10
80
20
-0.049914
30
0
40
3
210
0
220
0
230
1
100
AcDbArc
50
125.760944
51
160.529876
0
ARC
5
149
100
AcDbEntity
8
1
62
256
6
ByLayer
370
18
48
1
60
0
100
AcDbCircle
39
0
10
-63.1
20
10.2
30
0
40
0.45
210
0
220
0
230
-1
100
AcDbArc
50
40.65762
51
25.65762
0
ARC
5
14A
100
AcDbEntity
8
1
62
256
6
ByLayer
370
18
48
1
60
0
100
AcDbCircle
39
0
10
63.1
20
10.2
30
0
40
0.605662432702594
210
0
220
0
230
1
100
AcDbArc
50
154.34238
51
139.34238
0
ARC
5
14B
100
AcDbEntity
8
1
62
256
6
ByLayer
370
18
48
1
60
0
100
AcDbCircle
39
0
10
-62
20
16.4
30
0
40
10.0000000002156
210
0
220
0
230
-1
100
AcDbArc
50
270
51
282.131664
0
CIRCLE
5
146
100
AcDbEntity
8
1
62
256
6
ByLayer
370
18
48
1
60
0
100
AcDbCircle
10
63.1
20
-10.2
30
0
40
0.749999999999999
39
0
210
0
220
0
230
1
0
CIRCLE
5
147
100
AcDbEntity
8
1
62
256
6
ByLayer
370
18
48
1
60
0
100
AcDbCircle
10
-63.1
20
10.2
30
0
40
0.749999999999999
39
0
210
0
220
0
230
-1
0
ELLIPSE
5
14C
100
AcDbEntity
8
1
62
256
6
ByLayer
370
18
48
1
60
0
100
AcDbEllipse
10
80.492731
20
2.55
30
0
11
-4.98524290425129E-16
21
3.1
31
0
210
0
220
0
230
1
40
0.104528
41
1.39727948146105
42
2.18542665088177
0
ELLIPSE
5
14D
100
AcDbEntity
8
1
62
256
6
ByLayer
370
13
48
1
60
0
100
AcDbEllipse
10
80.492731
20
2.55
30
0
11
-4.98524290425129E-16
21
3.1
31
0
210
0
220
0
230
1
40
0.104528
41
-3.00261974987016
42
-1.34523286054846
0
ELLIPSE
5
14E
100
AcDbEntity
8
1
62
256
6
ByLayer
370
18
48
1
60
0
100
AcDbEllipse
10
80.221875
20
9.43888
30
0
11
-1.525
21
1.86752468957913E-16
31
0
210
0
220
0
230
1
40
0.998546
41
0
42
3.14156004930622
0
ELLIPSE
5
14F
100
AcDbEntity
8
1
62
256
6
ByLayer
370
18
48
1
60
0
100
AcDbEllipse
10
76.404151
20
-2.55
30
0
11
-3.85751001454049E-16
21
-2.1
31
0
210
0
220
0
230
1
40
0.104528
41
0.911748958556781
42
2.22994166155409
0
ELLIPSE
5
150
100
AcDbEntity
8
1
62
256
6
ByLayer
370
13
48
1
60
0
100
AcDbEllipse
10
79.894922
20
-2.55
30
0
11
-6.42918335756748E-16
21
-3.5
31
0
210
0
220
0
230
1
40
0.104528
41
0.568244558592859
42
3.14150362354335
0
ELLIPSE
5
151
100
AcDbEntity
8
1
62
256
6
ByLayer
370
18
48
1
60
0
100
AcDbEllipse
10
76.404151
20
-2.55
30
0
11
-5.62850005318694E-16
21
3.5
31
0
210
0
220
0
230
1
40
0.104528
41
-2.57334831944679
42
-2.42772522933056E-15
0
ELLIPSE
5
152
100
AcDbEntity
8
1
62
256
6
ByLayer
370
18
48
1
60
0
100
AcDbEllipse
10
76.397639
20
-2.55
30
0
11
-3.45629266800459E-16
21
2.14924477635326
31
0
210
0
220
0
230
1
40
0.104528
41
-2.22994152023154
42
-0.911748945262044
0
ELLIPSE
5
153
100
AcDbEntity
8
1
62
256
6
ByLayer
370
18
48
1
60
0
100
AcDbEllipse
10
82.603125
20
13.602023
30
0
11
-0.396875000000012
21
4.86015646673271E-17
31
0
210
0
220
0
230
1
40
0.998546
41
-3.14159265358979
42
-1.04719755119658
0
ELLIPSE
5
154
100
AcDbEntity
8
1
62
256
6
ByLayer
370
18
48
1
60
0
100
AcDbEllipse
10
82.603125
20
5.365124
30
0
11
-0.396875000000012
21
4.86015646673271E-17
31
0
210
0
220
0
230
1
40
0.998546
41
1.04719755119658
42
-3.14159265358979
0
ELLIPSE
5
155
100
AcDbEntity
8
1
62
256
6
ByLayer
370
18
48
1
60
0
100
AcDbEllipse
10
75.459375
20
9.483573
30
0
11
-0.396875000000012
21
4.86015646673271E-17
31
0
210
0
220
0
230
1
40
0.998546
41
-1.04719755119658
42
1.04719755119658
0
ELLIPSE
5
156
100
AcDbEntity
8
1
62
256
6
ByLayer
370
13
48
1
60
0
100
AcDbEllipse
10
80.221875
20
9.44428
30
0
11
-1.58439303486738
21
1.94025777745051E-16
31
0
210
0
220
0
230
1
40
0.998546
41
0
42
6.28318530717959
0
ELLIPSE
5
157
100
AcDbEntity
8
1
62
256
6
ByLayer
370
18
48
1
60
0
100
AcDbEllipse
10
80.221875
20
9.483573
30
0
11
-1.69405389152434
21
2.07454915927823E-16
31
0
210
0
220
0
230
1
40
0.998546
41
0
42
6.28318530717959
0
ELLIPSE
5
158
100
AcDbEntity
8
1
62
256
6
ByLayer
370
18
48
1
60
0
100
AcDbEllipse
10
76.404151
20
-2.55
30
0
11
-3.53791431914607E-16
21
2.2
31
0
210
0
220
0
230
1
40
0.104528
41
-2.14167383793497
42
-0.609067910957439
0
ELLIPSE
5
159
100
AcDbEntity
8
1
62
256
6
ByLayer
370
18
48
1
60
0
100
AcDbEllipse
10
82.604532
20
-5.180292
30
0
11
-0.104494264349962
21
1.27964340060959E-17
31
0
210
0
220
0
230
1
40
0.99633
41
3.14159265358978
42
-1.04719755119658
0
ELLIPSE
5
15A
100
AcDbEntity
8
1
62
256
6
ByLayer
370
18
48
1
60
0
100
AcDbEllipse
10
82.604532
20
-13.398914
30
0
11
-0.104494264349962
21
1.27964340060959E-17
31
0
210
0
220
0
230
1
40
0.99633
41
1.04719755119657
42
-3.14159265358978
0
ELLIPSE
5
15B
100
AcDbEntity
8
1
62
256
6
ByLayer
370
18
48
1
60
0
100
AcDbEllipse
10
82.604532
20
-13.602727
30
0
11
0.396875000000002
21
0
31
0
210
0
220
0
230
1
40
0.99633
41
-2.09439510239322
42
0
0
ELLIPSE
5
15C
100
AcDbEntity
8
1
62
256
6
ByLayer
370
18
48
1
60
0
100
AcDbEllipse
10
82.604532
20
-5.384106
30
0
11
0.396875000000002
21
0
31
0
210
0
220
0
230
1
40
0.99633
41
0
42
2.01693397686679
0
ELLIPSE
5
15D
100
AcDbEntity
8
1
62
256
6
ByLayer
370
18
48
1
60
0
100
AcDbEllipse
10
80.223282
20
-8.960262
30
0
11
-0.8
21
9.79685083057902E-17
31
0
210
0
220
0
230
1
40
0.99633
41
-1.78488266548923
42
0
0
ELLIPSE
5
15E
100
AcDbEntity
8
1
62
256
6
ByLayer
370
18
48
1
60
0
100
AcDbEllipse
10
80.223282
20
-8.960262
30
0
11
-0.8
21
9.79685083057902E-17
31
0
210
0
220
0
230
1
40
0.99633
41
0
42
1.31871648192329
0
ELLIPSE
5
15F
100
AcDbEntity
8
1
62
256
6
ByLayer
370
18
48
1
60
0
100
AcDbEllipse
10
76.152917
20
-2.55
30
0
11
-7.34763812293426E-16
21
-4
31
0
210
0
220
0
230
1
40
0.104528
41
0.741514075946528
42
2.66878282196939
0
ELLIPSE
5
160
100
AcDbEntity
8
1
62
256
6
ByLayer
370
13
48
1
60
0
100
AcDbEllipse
10
80.094922
20
2.55
30
0
11
-6.42918335756748E-16
21
-3.5
31
0
210
0
220
0
230
1
40
0.104528
41
-1.69257517597241
42
-1.09596697116898
0
ELLIPSE
5
161
100
AcDbEntity
8
1
62
256
6
ByLayer
370
18
48
1
60
0
100
AcDbEllipse
10
79.992848
20
-8.8609
30
0
11
1.35000000000002
21
0
31
0
210
0
220
0
230
1
40
0.99633
41
1.57079632679492
42
-3.14159265358979
0
ELLIPSE
5
162
100
AcDbEntity
8
1
62
256
6
ByLayer
370
18
48
1
60
0
100
AcDbEllipse
10
80.631395
20
-1.299912
30
0
11
-7.71502002908098E-16
21
-4.2
31
0
210
0
220
0
230
1
40
0.104528
41
-0.39146151716111
42
-2.52888044721933E-15
0
ELLIPSE
5
163
100
AcDbEntity
8
1
62
256
6
ByLayer
370
18
48
1
60
0
100
AcDbEllipse
10
81.933282
20
-12.438007
30
0
11
0.5
21
0
31
0
210
0
220
0
230
1
40
0.99633
41
-1.5707963267949
42
5.70528026465207E-14
0
ELLIPSE
5
164
100
AcDbEntity
8
1
62
256
6
ByLayer
370
18
48
1
60
0
100
AcDbEllipse
10
75.433282
20
-1.164228
30
0
11
12
21
0
31
0
210
0
220
0
230
1
40
0.99633
41
-1.60680239943238
42
-1.5707963267949
0
ELLIPSE
5
165
100
AcDbEntity
8
1
62
256
6
ByLayer
370
18
48
1
60
0
100
AcDbEllipse
10
80.223282
20
-8.985939
30
0
11
1.1
21
0
31
0
210
0
220
0
230
1
40
0.99633
41
2.94468679500799
42
3.11845610482274
0
ELLIPSE
5
166
100
AcDbEntity
8
1
62
256
6
ByLayer
370
18
48
1
60
0
100
AcDbEllipse
10
80.492731
20
2.55
30
0
11
-2.83180824673314E-16
21
1.76091832102836
31
0
210
0
220
0
230
1
40
0.104528
41
1.24033051752546
42
1.29494863439452
0
ELLIPSE
5
167
100
AcDbEntity
8
1
62
256
6
ByLayer
370
18
48
1
60
0
100
AcDbEllipse
10
80.492731
20
2.55
30
0
11
-2.83180824673314E-16
21
1.76091832102836
31
0
210
0
220
0
230
1
40
0.104528
41
1.29494863439452
42
2.34214618559107
0
ELLIPSE
5
168
100
AcDbEntity
8
1
62
256
6
ByLayer
370
18
48
1
60
0
100
AcDbEllipse
10
80.492731
20
2.55
30
0
11
-2.83180824673314E-16
21
1.76091832102836
31
0
210
0
220
0
230
1
40
0.104528
41
2.34214618559107
42
-2.89384157039199
0
ELLIPSE
5
169
100
AcDbEntity
8
1
62
256
6
ByLayer
370
18
48
1
60
0
100
AcDbEllipse
10
80.492731
20
2.55
30
0
11
-2.83180824673314E-16
21
1.76091832102836
31
0
210
0
220
0
230
1
40
0.104528
41
-2.89384157039199
42
-1.84664401919532
0
ELLIPSE
5
16A
100
AcDbEntity
8
1
62
256
6
ByLayer
370
18
48
1
60
0
100
AcDbEllipse
10
80.492731
20
2.55
30
0
11
-2.83180824673314E-16
21
1.76091832102836
31
0
210
0
220
0
230
1
40
0.104528
41
-1.84664401919532
42
-1.18823474006818
0
ELLIPSE
5
16B
100
AcDbEntity
8
1
62
256
6
ByLayer
370
18
48
1
60
0
100
AcDbEllipse
10
80.221875
20
9.492785
30
0
11
1.03505
21
0
31
0
210
0
220
0
230
1
40
0.998546
41
-2.61799387799149
42
-1.5707963267949
0
ELLIPSE
5
16C
100
AcDbEntity
8
1
62
256
6
ByLayer
370
18
48
1
60
0
100
AcDbEllipse
10
80.221875
20
9.492785
30
0
11
1.03505
21
0
31
0
210
0
220
0
230
1
40
0.998546
41
-1.5707963267949
42
-0.523598775598306
0
ELLIPSE
5
16D
100
AcDbEntity
8
1
62
256
6
ByLayer
370
18
48
1
60
0
100
AcDbEllipse
10
80.221875
20
9.483494
30
0
11
-1.525
21
1.86752468957913E-16
31
0
210
0
220
0
230
1
40
0.998546
41
0
42
6.28318530717959
0
ELLIPSE
5
16E
100
AcDbEntity
8
1
62
256
6
ByLayer
370
18
48
1
60
0
100
AcDbEllipse
10
80.221875
20
9.492785
30
0
11
1.03505
21
0
31
0
210
0
220
0
230
1
40
0.998546
41
2.61799387799149
42
-2.61799387799149
0
ELLIPSE
5
16F
100
AcDbEntity
8
1
62
256
6
ByLayer
370
18
48
1
60
0
100
AcDbEllipse
10
80.221875
20
9.492785
30
0
11
1.03505
21
0
31
0
210
0
220
0
230
1
40
0.998546
41
-0.523598775598306
42
0.523598775598296
0
ELLIPSE
5
170
100
AcDbEntity
8
1
62
256
6
ByLayer
370
18
48
1
60
0
100
AcDbEllipse
10
80.221875
20
9.492785
30
0
11
1.03505
21
0
31
0
210
0
220
0
230
1
40
0.998546
41
0.523598775598296
42
1.5707963267949
0
ELLIPSE
5
171
100
AcDbEntity
8
1
62
256
6
ByLayer
370
18
48
1
60
0
100
AcDbEllipse
10
80.221875
20
9.492785
30
0
11
1.03505
21
0
31
0
210
0
220
0
230
1
40
0.998546
41
1.5707963267949
42
2.61799387799149
0
ELLIPSE
5
172
100
AcDbEntity
8
1
62
256
6
ByLayer
370
18
48
1
60
0
100
AcDbEllipse
10
80.221875
20
9.43888
30
0
11
0.7912
21
0
31
0
210
0
220
0
230
1
40
0.998546
41
-1.93528670480359
42
-1.18487157985763
0
ELLIPSE
5
173
100
AcDbEntity
8
1
62
256
6
ByLayer
370
18
48
1
60
0
100
AcDbEllipse
10
80.221875
20
9.43888
30
0
11
-0.791199999999999
21
9.68908547144264E-17
31
0
210
0
220
0
230
1
40
0.998546
41
-2.0943951023932
42
-1.04719755119659
0
ELLIPSE
5
174
100
AcDbEntity
8
1
62
256
6
ByLayer
370
18
48
1
60
0
100
AcDbEllipse
10
80.221875
20
9.43888
30
0
11
0.7912
21
0
31
0
210
0
220
0
230
1
40
0.998546
41
0.0930044828301308
42
1.04719755119659
0
ELLIPSE
5
175
100
AcDbEntity
8
1
62
256
6
ByLayer
370
18
48
1
60
0
100
AcDbEllipse
10
80.221875
20
9.43888
30
0
11
0.7912
21
0
31
0
210
0
220
0
230
1
40
0.998546
41
-0.844924701557431
42
0
0
ELLIPSE
5
176
100
AcDbEntity
8
1
62
256
6
ByLayer
370
18
48
1
60
0
100
AcDbEllipse
10
80.221875
20
9.43888
30
0
11
0.7912
21
0
31
0
210
0
220
0
230
1
40
0.998546
41
3.14159265358979
42
-2.26598796230907
0
ELLIPSE
5
177
100
AcDbEntity
8
1
62
256
6
ByLayer
370
18
48
1
60
0
100
AcDbEllipse
10
80.221875
20
9.43888
30
0
11
0.7912
21
0
31
0
210
0
220
0
230
1
40
0.998546
41
2.0943951023932
42
3.04808061414804
0
ELLIPSE
5
178
100
AcDbEntity
8
1
62
256
6
ByLayer
370
18
48
1
60
0
100
AcDbEllipse
10
75.295248
20
9.602955
30
0
11
1.025
21
0
31
0
210
0
220
0
230
1
40
0.998546
41
1.83467132329544
42
3.07532656869964
0
ELLIPSE
5
179
100
AcDbEntity
8
1
62
256
6
ByLayer
370
18
48
1
60
0
100
AcDbEllipse
10
75.295248
20
9.71346
30
0
11
-1.025
21
1.25522151266794E-16
31
0
210
0
220
0
230
1
40
0.998546
41
1.27850325496486
42
2.07375518657064
0
ELLIPSE
5
17A
100
AcDbEntity
8
1
62
256
6
ByLayer
370
18
48
1
60
0
100
AcDbEllipse
10
75.295248
20
9.71346
30
0
11
-1.025
21
1.25522151266794E-16
31
0
210
0
220
0
230
1
40
0.998546
41
-1.30692133029435
42
-1.27850325496486
0
ELLIPSE
5
17B
100
AcDbEntity
8
1
62
256
6
ByLayer
370
18
48
1
60
0
100
AcDbEllipse
10
75.87372
20
10.043603
30
0
11
1.07217072154213
21
0
31
0
210
0
220
0
230
1
40
0.998546
41
1.04719755119661
42
2.47978343029929
0
ELLIPSE
5
17C
100
AcDbEntity
8
1
62
256
6
ByLayer
370
18
48
1
60
0
100
AcDbEllipse
10
75.431875
20
1.143233
30
0
11
-12
21
1.46952762458685E-15
31
0
210
0
220
0
230
1
40
0.998546
41
-1.5707963267949
42
-1.53479025415741
0
ELLIPSE
5
17D
100
AcDbEntity
8
1
62
256
6
ByLayer
370
18
48
1
60
0
100
AcDbEllipse
10
75.87372
20
9.933099
30
0
11
1.07217072154213
21
0
31
0
210
0
220
0
230
1
40
0.998546
41
1.04719755119661
42
2.47978343029929
0
ELLIPSE
5
17E
100
AcDbEntity
8
1
62
256
6
ByLayer
370
18
48
1
60
0
100
AcDbEllipse
10
80.292731
20
-2.55
30
0
11
-4.98524290425129E-16
21
3.1
31
0
210
0
220
0
230
1
40
0.104528
41
-2.70617843063977
42
-0.386112298964316
0
ELLIPSE
5
17F
100
AcDbEntity
8
1
62
256
6
ByLayer
370
18
48
1
60
0
100
AcDbEllipse
10
75.295248
20
9.597565
30
0
11
-0.925000000000007
21
1.13276087728571E-16
31
0
210
0
220
0
230
1
40
0.998546
41
-1.34323423025807
42
1.03684412705953
0
ELLIPSE
5
180
100
AcDbEntity
8
1
62
256
6
ByLayer
370
18
48
1
60
0
100
AcDbEllipse
10
75.295248
20
9.597565
30
0
11
-0.925000000000007
21
1.13276087728571E-16
31
0
210
0
220
0
230
1
40
0.998546
41
2.13424753078603
42
2.15431665678337
0
ELLIPSE
5
181
100
AcDbEntity
8
1
62
256
6
ByLayer
370
18
48
1
60
0
100
AcDbEllipse
10
75.87372
20
9.927708
30
0
11
-0.972170721542135
21
1.19052644260058E-16
31
0
210
0
220
0
230
1
40
0.998546
41
-2.09439510239318
42
-0.627176365074224
0
ELLIPSE
5
182
100
AcDbEntity
8
1
62
256
6
ByLayer
370
18
48
1
60
0
100
AcDbEllipse
10
80.221875
20
9.456685
30
0
11
1.6591734770124
21
0
31
0
210
0
220
0
230
1
40
0.998546
41
0
42
6.28318530717959
0
ELLIPSE
5
183
100
AcDbEntity
8
1
62
256
6
ByLayer
370
18
48
1
60
0
100
AcDbEllipse
10
79.992848
20
-8.959513
30
0
11
0.875000000000003
21
0
31
0
210
0
220
0
230
1
40
0.99633
41
0.0565222831634815
42
1.10836932449793
0
ELLIPSE
5
184
100
AcDbEntity
8
1
62
256
6
ByLayer
370
18
48
1
60
0
100
AcDbEllipse
10
80.221875
20
9.492785
30
0
11
-1.1
21
1.34706698920462E-16
31
0
210
0
220
0
230
1
40
0.998546
41
0
42
6.28318530717959
0
ELLIPSE
5
185
100
AcDbEntity
8
1
62
256
6
ByLayer
370
18
48
1
60
0
100
AcDbEllipse
10
79.992848
20
-8.8609
30
0
11
-0.875000000000003
21
1.07153055959458E-16
31
0
210
0
220
0
230
1
40
0.99633
41
0
42
6.28318530717959
0
ELLIPSE
5
186
100
AcDbEntity
8
1
62
256
6
ByLayer
370
18
48
1
60
0
100
AcDbEllipse
10
104.639789
20
4.766442
30
0
11
33.841729485464
21
-0.152191696279877
31
0
210
0
220
0
230
-1
40
0.577304
41
2.43199564696183
42
2.52591774054757
0
ELLIPSE
5
187
100
AcDbEntity
8
1
62
256
6
ByLayer
370
18
48
1
60
0
100
AcDbEllipse
10
79.992848
20
-8.708647
30
0
11
0.93510190336064
21
-1.02320322162904
31
0
210
0
220
0
230
-1
40
0.951616
41
2.97518526847412
42
-2.37641093382457
0
ELLIPSE
5
188
100
AcDbEntity
8
1
62
256
6
ByLayer
370
18
48
1
60
0
100
AcDbEllipse
10
-74.425959
20
4.766442
30
0
11
159.12039796537
21
-19.4679511495916
31
0
210
0
220
0
230
-1
40
0.010354
41
-0.404143027137845
42
-0.370494561032805
0
ELLIPSE
5
189
100
AcDbEntity
8
1
62
256
6
ByLayer
370
18
48
1
60
0
100
AcDbEllipse
10
80.20793
20
4.766697
30
0
11
0.000507016423359157
21
19.5378007834063
31
0
210
0
220
0
230
-1
40
0.884722
41
-2.63565676956681
42
-2.62631559275847
0
ELLIPSE
5
18A
100
AcDbEntity
8
1
62
256
6
ByLayer
370
18
48
1
60
0
100
AcDbEllipse
10
83.09698
20
4.766442
30
0
11
0.177707403161183
21
-19.5375345994543
31
0
210
0
220
0
230
-1
40
0.10471
41
0.470349383391947
42
0.704301803409622
0
ELLIPSE
5
18B
100
AcDbEntity
8
1
62
256
6
ByLayer
370
18
48
1
60
0
100
AcDbEllipse
10
73.051308
20
4.766442
30
0
11
-1.19628999291112E-15
21
19.5375434592043
31
0
210
0
220
0
230
-1
40
0.141431
41
-2.62628940916284
42
-2.17868145679621
0
ELLIPSE
5
18C
100
AcDbEntity
8
1
62
256
6
ByLayer
370
18
48
1
60
0
100
AcDbEllipse
10
82.023859
20
-1.299912
30
0
11
0.0386414584770566
21
-4.19999798543557
31
0
210
0
220
0
230
-1
40
0.106458
41
-0.963597596211257
42
0.000979453191078241
0
ELLIPSE
5
18D
100
AcDbEntity
8
1
62
256
6
ByLayer
370
18
48
1
60
0
100
AcDbEllipse
10
81.933282
20
-12.030836
30
0
11
0.415612822284948
21
-0.615398624935569
31
0
210
0
220
0
230
-1
40
0.451687
41
-0.58948760864093
42
0.0706069026477654
0
ELLIPSE
5
18E
100
AcDbEntity
8
1
62
256
6
ByLayer
370
18
48
1
60
0
100
AcDbEllipse
10
71.455992
20
-12.426612
30
0
11
0.499972420810795
21
-0.0620661353335593
31
0
210
0
220
0
230
-1
40
0.084612
41
-0.0759542533824816
42
2.14497839952659
0
ELLIPSE
5
18F
100
AcDbEntity
8
1
62
256
6
ByLayer
370
18
48
1
60
0
100
AcDbEllipse
10
50.300761
20
-9.999912
30
0
11
40.7216994708874
21
-4.98219000662268
31
0
210
0
220
0
230
-1
40
0.010354
41
0.970556463003792
42
1.1469479503334
0
ELLIPSE
5
190
100
AcDbEntity
8
1
62
256
6
ByLayer
370
18
48
1
60
0
100
AcDbEllipse
10
75.433282
20
-1.000698
30
0
11
8.93325053637967
21
9.550571838421
31
0
210
0
220
0
230
-1
40
0.838934
41
2.3979660854922
42
2.42407354859484
0
ELLIPSE
5
191
100
AcDbEntity
8
1
62
256
6
ByLayer
370
18
48
1
60
0
100
AcDbEllipse
10
-0.928203
20
0
30
0
11
7.49393430382939
21
15.793399322205
31
0
210
0
220
0
230
-1
40
0.341999
41
0.161466571197682
42
1.0875792012003
0
ELLIPSE
5
192
100
AcDbEntity
8
1
62
256
6
ByLayer
370
18
48
1
60
0
100
AcDbEllipse
10
-0.928203
20
0
30
0
11
7.49393430382832
21
-15.7933993222035
31
0
210
0
220
0
230
-1
40
0.341999
41
-1.08757920120037
42
-0.161466571197697
0
ELLIPSE
5
193
100
AcDbEntity
8
1
62
256
6
ByLayer
370
18
48
1
60
0
100
AcDbEllipse
10
12.928203
20
0
30
0
11
7.49393430382738
21
15.7933993222023
31
0
210
0
220
0
230
-1
40
0.341999
41
-2.98012608239209
42
-2.05401345238937
0
ELLIPSE
5
194
100
AcDbEntity
8
1
62
256
6
ByLayer
370
18
48
1
60
0
100
AcDbEllipse
10
12.928203
20
0
30
0
11
7.49393430382742
21
-15.7933993222024
31
0
210
0
220
0
230
-1
40
0.341999
41
2.05401345238938
42
2.9801260823921
0
ELLIPSE
5
195
100
AcDbEntity
8
1
62
256
6
ByLayer
370
18
48
1
60
0
100
AcDbEllipse
10
214.299336
20
0
30
0
11
161.908203588476
21
-8.50855458898079
31
0
210
0
220
0
230
-1
40
0.052264
41
2.75409965497439
42
2.81127041317604
0
ELLIPSE
5
196
100
AcDbEntity
8
1
62
256
6
ByLayer
370
18
48
1
60
0
100
AcDbEllipse
10
67.6945
20
0
30
0
11
-7.34763814610626E-16
21
12.000000037844
31
0
210
0
220
0
230
-1
40
1
41
2.81925464811716
42
2.84514464806988
0
ELLIPSE
5
197
100
AcDbEntity
8
1
62
256
6
ByLayer
370
18
48
1
60
0
100
AcDbEllipse
10
81.012729
20
8.982944
30
0
11
0.120939941023349
21
0.208962057530841
31
0
210
0
220
0
230
-1
40
0.504504
41
-0.195895417778875
42
0.706836015853621
0
ELLIPSE
5
198
100
AcDbEntity
8
1
62
256
6
ByLayer
370
18
48
1
60
0
100
AcDbEllipse
10
79.431021
20
8.982944
30
0
11
0.120939941023361
21
-0.208962057530845
31
0
210
0
220
0
230
-1
40
0.504504
41
2.53850369666909
42
-2.94569723581073
0
ELLIPSE
5
199
100
AcDbEntity
8
1
62
256
6
ByLayer
370
18
48
1
60
0
100
AcDbEllipse
10
81.012729
20
9.894817
30
0
11
0.120939941023365
21
-0.208962057530838
31
0
210
0
220
0
230
-1
40
0.504504
41
2.94740270477083
42
-0.603093757017167
0
ELLIPSE
5
19A
100
AcDbEntity
8
1
62
256
6
ByLayer
370
18
48
1
60
0
100
AcDbEllipse
10
79.431021
20
9.894817
30
0
11
0.120939941023358
21
0.208962057530849
31
0
210
0
220
0
230
-1
40
0.504504
41
-2.43475765451325
42
0.194189948818952
0
ELLIPSE
5
19B
100
AcDbEntity
8
1
62
256
6
ByLayer
370
18
48
1
60
0
100
AcDbEllipse
10
79.308825
20
9.43888
30
0
11
-1.47778508911922E-17
21
0.241348590836001
31
0
210
0
220
0
230
-1
40
0.504871
41
1.5707963267949
42
2.80244658853352
0
ELLIPSE
5
19C
100
AcDbEntity
8
1
62
256
6
ByLayer
370
18
48
1
60
0
100
AcDbEllipse
10
80.221875
20
10.350753
30
0
11
0.241699999999988
21
2.44271459613395E-16
31
0
210
0
220
0
230
-1
40
0.503404
41
2.94654997029091
42
-0.272515843718751
0
ELLIPSE
5
19D
100
AcDbEntity
8
1
62
256
6
ByLayer
370
18
48
1
60
0
100
AcDbEllipse
10
81.134925
20
9.43888
30
0
11
-1.47778508909281E-17
21
0.241348590831687
31
0
210
0
220
0
230
-1
40
0.504871
41
-2.80244658855072
42
-1.5707963267949
0
ELLIPSE
5
19E
100
AcDbEntity
8
1
62
256
6
ByLayer
370
18
48
1
60
0
100
AcDbEllipse
10
79.76535
20
10.228455
30
0
11
0.209370090255688
21
0.120584617190289
31
0
210
0
220
0
230
-1
40
0.50377
41
1.56994567602684
42
2.80159593776324
0
ELLIPSE
5
19F
100
AcDbEntity
8
1
62
256
6
ByLayer
370
18
48
1
60
0
100
AcDbEllipse
10
80.6784
20
10.228455
30
0
11
0.209370090255533
21
-0.120584617190055
31
0
210
0
220
0
230
-1
40
0.50377
41
0.339996715826426
42
1.57164697756419
0
ELLIPSE
5
1A0
100
AcDbEntity
8
1
62
256
6
ByLayer
370
18
48
1
60
0
100
AcDbEllipse
10
80.6784
20
10.228455
30
0
11
0.209370090254383
21
-0.120584617188866
31
0
210
0
220
0
230
-1
40
0.50377
41
1.5716469775682
42
2.80329723931245
0
ELLIPSE
5
1A1
100
AcDbEntity
8
1
62
256
6
ByLayer
370
18
48
1
60
0
100
AcDbEllipse
10
79.76535
20
10.228455
30
0
11
0.209370090256309
21
0.120584617188943
31
0
210
0
220
0
230
-1
40
0.50377
41
0.338295414277126
42
1.5699456760139
0
ELLIPSE
5
1A2
100
AcDbEntity
8
1
62
256
6
ByLayer
370
18
48
1
60
0
100
AcDbEllipse
10
50.041101
20
10.000086
30
0
11
40.7217191483721
21
4.99294435938041
31
0
210
0
220
0
230
-1
40
0.006521
41
-1.13504185512676
42
-0.958105037911214
0
ELLIPSE
5
1A3
100
AcDbEntity
8
1
62
256
6
ByLayer
370
18
48
1
60
0
100
AcDbEllipse
10
75.428557
20
10.000086
30
0
11
0.172257653154245
21
-4.99929741179781
31
0
210
0
220
0
230
-1
40
0.486583
41
1.58756063011719
42
2.25338309086652
0
ELLIPSE
5
1A4
100
AcDbEntity
8
1
62
256
6
ByLayer
370
18
48
1
60
0
100
AcDbEllipse
10
73.553149
20
7.235423
30
0
11
0.0344515306278945
21
-0.999859482363224
31
0
210
0
220
0
230
-1
40
0.486583
41
0.962268873053367
42
1.58756063011052
0
ELLIPSE
5
1A5
100
AcDbEntity
8
1
62
256
6
ByLayer
370
18
48
1
60
0
100
AcDbEllipse
10
75.431875
20
1.040243
30
0
11
8.77045533716652
21
-9.14759116091238
31
0
210
0
220
0
230
-1
40
0.895338
41
-2.44416798111665
42
-2.41806051845642
0
ELLIPSE
5
1A6
100
AcDbEntity
8
1
62
256
6
ByLayer
370
18
48
1
60
0
100
AcDbEllipse
10
75.295248
20
9.625568
30
0
11
0.749142921177527
21
-0.781357021096132
31
0
210
0
220
0
230
-1
40
0.895338
41
2.24637065820523
42
2.53441689563885
0
ELLIPSE
5
1A7
100
AcDbEntity
8
1
62
256
6
ByLayer
370
18
48
1
60
0
100
AcDbEllipse
10
73.790615
20
9.67966
30
0
11
0.0642278787165323
21
0.589110925414939
31
0
210
0
220
0
230
-1
40
0.484339
41
0
42
6.28318530717959
0
ELLIPSE
5
1A8
100
AcDbEntity
8
1
62
256
6
ByLayer
370
18
48
1
60
0
100
AcDbEllipse
10
73.73395
20
8.200523
30
0
11
0.066247289380621
21
0.588499768939551
31
0
210
0
220
0
230
-1
40
0.488595
41
0
42
6.28318530717959
0
ELLIPSE
5
1A9
100
AcDbEntity
8
1
62
256
6
ByLayer
370
18
48
1
60
0
100
AcDbEllipse
10
69.905552
20
7.235423
30
0
11
-6.12303176920091E-17
21
1.00000000001454
31
0
210
0
220
0
230
-1
40
0.176327
41
1.5707963267949
42
2.44346095278022
0
ELLIPSE
5
1AA
100
AcDbEntity
8
1
62
256
6
ByLayer
370
18
48
1
60
0
100
AcDbEllipse
10
69.676327
20
6.800086
30
0
11
-7.34763812292992E-17
21
1.19999999999929
31
0
210
0
220
0
230
-1
40
0.176327
41
-1.5707963267949
42
0
0
ELLIPSE
5
1AB
100
AcDbEntity
8
1
62
256
6
ByLayer
370
18
48
1
60
0
100
AcDbEllipse
10
275.067621
20
0
30
0
11
228.973640267541
21
2.31409703438757E-13
31
0
210
0
220
0
230
-1
40
0.052408
41
2.67282339784537
42
2.77877555687921
0
ELLIPSE
5
1AC
100
AcDbEntity
8
1
62
256
6
ByLayer
370
18
48
1
60
0
100
AcDbEllipse
10
275.06762
20
0
30
0
11
228.973639320808
21
2.31409702481951E-13
31
0
210
0
220
0
230
-1
40
0.052408
41
-2.77877555629256
42
-2.74094094106105
0
POINT
5
6C
100
AcDbEntity
8
80
62
256
6
ByLayer
370
13
48
1
60
0
100
AcDbPoint
10
0
20
0
30
0
39
0
210
0
220
0
230
1
50
360
0
POINT
5
6E
100
AcDbEntity
8
81
62
256
6
ByLayer
370
18
48
1
60
0
100
AcDbPoint
10
83
20
13.998411
30
0
39
0
210
0
220
0
230
1
50
360
0
SPLINE
5
1AD
100
AcDbEntity
8
SK1
62
256
6
ByLayer
370
18
48
1
60
0
100
AcDbSpline
70
4
71
2
72
6
73
3
40
0
40
0
40
0
40
1
40
1
40
1
41
1
10
-18.0003154452711
20
-10.6105781038671
30
0
41
1
10
-10.2501577226355
20
-10.8052890415268
30
0
41
1
10
-2.5
20
-10.9999999791865
30
0
0
SPLINE
5
1AE
100
AcDbEntity
8
SK1
62
256
6
ByLayer
370
18
48
1
60
0
100
AcDbSpline
70
4
71
2
72
6
73
3
40
0
40
0
40
0
40
1
40
1
40
1
41
1
10
-2.5
20
-10.9999999791865
30
0
41
1
10
-2.09996938540178
20
-11.0100501405959
30
0
41
1
10
-1.69993877080357
20
-11.0201003020053
30
0
0
SPLINE
5
1AF
100
AcDbEntity
8
SK1
62
256
6
ByLayer
370
18
48
1
60
0
100
AcDbSpline
70
4
71
3
72
65
73
61
40
0
40
0
40
0
40
0
40
0.0385802687881515
40
0.077161822956478
40
0.115741507542561
40
0.144681606805133
40
0.173624067464443
40
0.202565604936481
40
0.231504445197291
40
0.254897537675559
40
0.278297957660248
40
0.301697146444028
40
0.32509037227216
40
0.348477429200904
40
0.363797933096877
40
0.379119913062429
40
0.394438008273123
40
0.403742210745375
40
0.413057499559444
40
0.422369521992291
40
0.431671010820326
40
0.440963626688589
40
0.446755388282648
40
0.452558682565464
40
0.4583505223815
40
0.464126627429741
40
0.468638285860722
40
0.473145070498533
40
0.476192237350541
40
0.479247578810218
40
0.482286625300233
40
0.485600569144588
40
0.488914275395058
40
0.492215155522657
40
0.495519353648396
40
0.499153072008384
40
0.502801507877514
40
0.506444684321219
40
0.512034508195028
40
0.517639516822088
40
0.523264016037476
40
0.528895105779331
40
0.534506871525261
40
0.545491335515694
40
0.556485394061695
40
0.567491877980914
40
0.578502670037617
40
0.589501182550461
40
0.608126106028806
40
0.626754769639897
40
0.645382289314837
40
0.674868929763775
40
0.704359813040786
40
0.733853671202451
40
0.763344368821507
40
0.802639790714408
40
0.841936508283538
40
0.881232741620488
40
0.940616226016774
40
1
40
1
40
1
40
1
41
1
10
-1.69996579738209
20
-2.34399541728098
30
0
41
1
10
-1.69992573099713
20
-2.3302819154012
30
0
41
1
10
-1.69975112461217
20
-2.30282782686052
30
0
41
1
10
-1.69922057383455
20
-2.26156687189718
30
0
41
1
10
-1.6984473150492
20
-2.22367001968987
30
0
41
1
10
-1.69749965251179
20
-2.18916127379355
30
0
41
1
10
-1.69643099697973
20
-2.15805828643633
30
0
41
1
10
-1.69511755887307
20
-2.12691475840382
30
0
41
1
10
-1.69362641427983
20
-2.0977256651266
30
0
41
1
10
-1.69200846231297
20
-2.0705011104063
30
0
41
1
10
-1.69028023485284
20
-2.04524833499101
30
0
41
1
10
-1.68826414392458
20
-2.01997970436433
30
0
41
1
10
-1.68590604325312
20
-1.9947084252772
30
0
41
1
10
-1.68346957793931
20
-1.97235085527167
30
0
41
1
10
-1.68105807325991
20
-1.95291529206589
30
0
41
1
10
-1.67874847668135
20
-1.93640424251492
30
0
41
1
10
-1.67645959612974
20
-1.92208992222768
30
0
41
1
10
-1.67430666818139
20
-1.90996482050692
30
0
41
1
10
-1.6723720078312
20
-1.90001863967176
30
0
41
1
10
-1.67021764372776
20
-1.89012766339579
30
0
41
1
10
-1.66779580803865
20
-1.88032637726902
30
0
41
1
10
-1.6653990904099
20
-1.87186588803631
30
0
41
1
10
-1.66312706939086
20
-1.86472065577576
30
0
41
1
10
-1.66104116521665
20
-1.85887487272594
30
0
41
1
10
-1.65870406353397
20
-1.85319332909936
30
0
41
1
10
-1.65626147013294
20
-1.84814762115922
30
0
41
1
10
-1.65374422702645
20
-1.8437665461343
30
0
41
1
10
-1.65144502734463
20
-1.84048375183937
30
0
41
1
10
-1.64921921143985
20
-1.83792648982378
30
0
41
1
10
-1.64715735840889
20
-1.83601741809869
30
0
41
1
10
-1.64489839499413
20
-1.83443312303759
30
0
41
1
10
-1.64245828984503
20
-1.83333174252829
30
0
41
1
10
-1.63990011478464
20
-1.83278575205016
30
0
41
1
10
-1.63736711544252
20
-1.83285790229725
30
0
41
1
10
-1.63483461519089
20
-1.83346706238733
30
0
41
1
10
-1.63234022928093
20
-1.834592963098
30
0
41
1
10
-1.62990999350661
20
-1.83616562185993
30
0
41
1
10
-1.62721026359083
20
-1.83840036063645
30
0
41
1
10
-1.62429880643481
20
-1.84136721953236
30
0
41
1
10
-1.62124264949137
20
-1.84513344184952
30
0
41
1
10
-1.61839672278429
20
-1.84922453962972
30
0
41
1
10
-1.61572916498331
20
-1.8535498737682
30
0
41
1
10
-1.6123925098547
20
-1.85946202291679
30
0
41
1
10
-1.60849133690731
20
-1.86707182883537
30
0
41
1
10
-1.60417786742033
20
-1.87652503562275
30
0
41
1
10
-1.60015182840449
20
-1.886256641682
30
0
41
1
10
-1.5963609604987
20
-1.89619328434181
30
0
41
1
10
-1.5919028191775
20
-1.90859071752988
30
0
41
1
10
-1.5868679147184
20
-1.92351294857798
30
0
41
1
10
-1.58139014101563
20
-1.94105028909345
30
0
41
1
10
-1.57517529137439
20
-1.96221772024803
30
0
41
1
10
-1.56832017527484
20
-1.98706575805521
30
0
41
1
10
-1.56094703031981
20
-2.01565377518783
30
0
41
1
10
-1.55394199409444
20
-2.04444584852521
30
0
41
1
10
-1.54648019188776
20
-2.07658975403803
30
0
41
1
10
-1.53859734995596
20
-2.1120885782753
30
0
41
1
10
-1.53036903069701
20
-2.15096763176513
30
0
41
1
10
-1.52109580634419
20
-2.19660936090068
30
0
41
1
10
-1.51091064543195
20
-2.24904655389565
30
0
41
1
10
-1.50357915173015
20
-2.28853614529452
30
0
41
1
10
-1.50000000000001
20
-2.30830715862381
30
0
0
SPLINE
5
1B0
100
AcDbEntity
8
SK1
62
256
6
ByLayer
370
18
48
1
60
0
100
AcDbSpline
70
4
71
3
72
180
73
176
40
0
40
0
40
0
40
0
40
0.0034728056733933
40
0.0069456119999348
40
0.0104190394899507
40
0.0138924675883114
40
0.0186620464828766
40
0.0234318890109261
40
0.0282018336875939
40
0.0329717031784984
40
0.0377413046883311
40
0.0425193375566374
40
0.0472976008017914
40
0.0520759519937893
40
0.0568542363210133
40
0.0616322868719146
40
0.0664015582458711
40
0.0711710316475851
40
0.0759405812566749
40
0.0807100714174999
40
0.0854793568480845
40
0.0902551571980854
40
0.0950311389013807
40
0.0998071881773814
40
0.104583183347313
40
0.109358994992344
40
0.114128073243028
40
0.118897314787329
40
0.123666616369776
40
0.128435868518588
40
0.133204955663684
40
0.137979342749702
40
0.142753879504408
40
0.147528470959114
40
0.152303016813246
40
0.157077411531282
40
0.163038620129025
40
0.169000009966599
40
0.17496140610704
40
0.180922623299861
40
0.186883770109843
40
0.192845085121948
40
0.198806405274786
40
0.204767559095053
40
0.21072865611332
40
0.216689910840293
40
0.222651170301613
40
0.228612273775976
40
0.234627532110036
40
0.240642943054904
40
0.246658357545242
40
0.252673620714153
40
0.259032557334967
40
0.265391746502687
40
0.271751025870959
40
0.278110226413495
40
0.284469172574858
40
0.290828039097092
40
0.297187143953036
40
0.303546333501029
40
0.309905448275265
40
0.31626432311638
40
0.322655966352512
40
0.329047839648735
40
0.335439793272923
40
0.341831673446654
40
0.348223322451227
40
0.354582082025667
40
0.360941058764885
40
0.367300110611944
40
0.373659092484518
40
0.380017856364501
40
0.386376582479502
40
0.392735518775396
40
0.399094528008393
40
0.405453469737121
40
0.411812200408844
40
0.418199495322417
40
0.424586997754906
40
0.430974570972057
40
0.437362076439513
40
0.443749373898625
40
0.450108049070359
40
0.456466924584058
40
0.46282586791635
40
0.469184745378197
40
0.475543422183914
40
0.481902085544662
40
0.488260946722614
40
0.49461987508814
40
0.50097873861418
40
0.507337403944354
40
0.513722718512114
40
0.520108232238721
40
0.526493812378998
40
0.532879326136627
40
0.539264640730407
40
0.545623293177031
40
0.551982141759428
40
0.558341055465156
40
0.564699903542642
40
0.57105855556578
40
0.577417214581624
40
0.58377607104229
40
0.590134993193586
40
0.596493849397626
40
0.602852508198227
40
0.60923754731167
40
0.615622788918841
40
0.622008096580234
40
0.628393335424699
40
0.63477837222096
40
0.641137056824581
40
0.647495944742013
40
0.653854898816288
40
0.660213783646448
40
0.666572465660661
40
0.672931176377151
40
0.679290095834513
40
0.685649083197116
40
0.692007999450901
40
0.698366707480432
40
0.704753085888933
40
0.711139682873765
40
0.71752634956911
40
0.723912940549079
40
0.730299313921071
40
0.736658095539113
40
0.743017101328815
40
0.749376178206031
40
0.75573517706172
40
0.762093952863933
40
0.768452787734413
40
0.774811857900127
40
0.781171002593555
40
0.787530065313983
40
0.7938888939398
40
0.800278659577154
40
0.806668678135233
40
0.813058775389849
40
0.81944878325392
40
0.825838539921755
40
0.831799570721828
40
0.837760745123339
40
0.843721915881638
40
0.849682941713575
40
0.855648689993388
40
0.861614590588454
40
0.867580487389044
40
0.873546230494439
40
0.879507346252555
40
0.88546862347776
40
0.891429895536413
40
0.89739100424904
40
0.903357453183869
40
0.909324075460075
40
0.915290692022986
40
0.921257133166731
40
0.926026105200817
40
0.930795222321384
40
0.935564383574745
40
0.940333492641349
40
0.945102457920294
40
0.949871491172364
40
0.954640682593774
40
0.959409921444767
40
0.964179102784444
40
0.968948127580588
40
0.973717236579411
40
0.978486519806286
40
0.983255854830703
40
0.988025126097922
40
0.992794225065701
40
0.997616532950611
40
1
40
1
40
1
40
1
41
1
10
-1.69996579738208
20
-2.34399541728098
30
0
41
1
10
-1.69996606385997
20
-2.36209705200412
30
0
41
1
10
-1.69996659261773
20
-2.39825201847879
30
0
41
1
10
-1.69996737354659
20
-2.45234306638612
30
0
41
1
10
-1.69996814124558
20
-2.5062918144361
30
0
41
1
10
-1.69996899004495
20
-2.56679047012487
30
0
41
1
10
-1.69996991462727
20
-2.63376610240542
30
0
41
1
10
-1.69997090763717
20
-2.70713632324939
30
0
41
1
10
-1.69997187660661
20
-2.7802281881877
30
0
41
1
10
-1.69997282111808
20
-2.85303766910703
30
0
41
1
10
-1.69997374113737
20
-2.92560588146491
30
0
41
1
10
-1.69997463683209
20
-2.99793299419662
30
0
41
1
10
-1.69997550896339
20
-3.07001914021332
30
0
41
1
10
-1.6999763570137
20
-3.14182035096276
30
0
41
1
10
-1.69997718117229
20
-3.21333344767404
30
0
41
1
10
-1.69997798112766
20
-3.28451365300087
30
0
41
1
10
-1.69997875705935
20
-3.35536239886945
30
0
41
1
10
-1.69997950940167
20
-3.42588111250485
30
0
41
1
10
-1.69998023907576
20
-3.4961122687841
30
0
41
1
10
-1.69998094649061
20
-3.56605333628375
30
0
41
1
10
-1.69998163237816
20
-3.63573526692704
30
0
41
1
10
-1.69998229718263
20
-3.70515838691713
30
0
41
1
10
-1.6999829413009
20
-3.77432291845439
30
0
41
1
10
-1.69998356479583
20
-3.84319655999687
30
0
41
1
10
-1.69998416804108
20
-3.91177718136772
30
0
41
1
10
-1.69998475111159
20
-3.98003207017422
30
0
41
1
10
-1.69998531452738
20
-4.047962608024
30
0
41
1
10
-1.69998585892911
20
-4.11557002930561
30
0
41
1
10
-1.69998638505785
20
-4.18288561807932
30
0
41
1
10
-1.69998689338658
20
-4.24990749374736
30
0
41
1
10
-1.69998738467117
20
-4.31665982492749
30
0
41
1
10
-1.69998785909949
20
-4.38314293795903
30
0
41
1
10
-1.69998831686987
20
-4.44935717745392
30
0
41
1
10
-1.6999887583892
20
-4.51527748485309
30
0
41
1
10
-1.69998918414125
20
-4.58090229245543
30
0
41
1
10
-1.69998962861934
20
-4.65164432540942
30
0
41
1
10
-1.69999008788224
20
-4.72741281754912
30
0
41
1
10
-1.69999055765277
20
-4.80810668670569
30
0
41
1
10
-1.69999100585888
20
-4.88833916471781
30
0
41
1
10
-1.69999143306402
20
-4.9681086134524
30
0
41
1
10
-1.69999184001571
20
-5.0474157446855
30
0
41
1
10
-1.69999222769628
20
-5.12626105371557
30
0
41
1
10
-1.69999259687362
20
-5.20464344629953
30
0
41
1
10
-1.69999294842672
20
-5.28256155502512
30
0
41
1
10
-1.69999328298977
20
-5.36001529179981
30
0
41
1
10
-1.69999360096801
20
-5.43700478319074
30
0
41
1
10
-1.69999390301493
20
-5.51352944588725
30
0
41
1
10
-1.69999419052371
20
-5.58981871780708
30
0
41
1
10
-1.6999944641204
20
-5.66586820730894
30
0
41
1
10
-1.69999472442464
20
-5.74167280372927
30
0
41
1
10
-1.69999497112616
20
-5.81700217107457
30
0
41
1
10
-1.69999520932363
20
-5.89328031382194
30
0
41
1
10
-1.69999543853501
20
-5.97047564857211
30
0
41
1
10
-1.69999565833936
20
-6.04855574654723
30
0
41
1
10
-1.69999586525822
20
-6.12610332046583
30
0
41
1
10
-1.69999605993218
20
-6.20311563960787
30
0
41
1
10
-1.69999624304949
20
-6.27959163104628
30
0
41
1
10
-1.69999641520608
20
-6.35553122885098
30
0
41
1
10
-1.69999657675165
20
-6.43093445419645
30
0
41
1
10
-1.69999672811778
20
-6.50580097788581
30
0
41
1
10
-1.69999686972215
20
-6.58012835328077
30
0
41
1
10
-1.69999700216506
20
-6.65404254535038
30
0
41
1
10
-1.69999712596735
20
-6.72754098562112
30
0
41
1
10
-1.69999724157568
20
-6.80062049803545
30
0
41
1
10
-1.69999734907271
20
-6.87315384162137
30
0
41
1
10
-1.6999974488049
20
-6.94513820130374
30
0
41
1
10
-1.69999754094687
20
-7.01644947326023
30
0
41
1
10
-1.69999762588257
20
-7.08709159640613
30
0
41
1
10
-1.69999770394542
20
-7.15706839148516
30
0
41
1
10
-1.69999777556859
20
-7.22649970913117
30
0
41
1
10
-1.69999784103256
20
-7.2953826798828
30
0
41
1
10
-1.69999790064015
20
-7.36371575416855
30
0
41
1
10
-1.69999795461458
20
-7.43149805114606
30
0
41
1
10
-1.69999800305794
20
-7.49872916391823
30
0
41
1
10
-1.69999804615046
20
-7.56540826841484
30
0
41
1
10
-1.69999808405247
20
-7.63153294978352
30
0
41
1
10
-1.69999811696972
20
-7.6972003924711
30
0
41
1
10
-1.69999814506998
20
-7.7624073304521
30
0
41
1
10
-1.69999816842886
20
-7.82714985673413
30
0
41
1
10
-1.69999818706603
20
-7.89132890904173
30
0
41
1
10
-1.69999820105338
20
-7.95494153944507
30
0
41
1
10
-1.69999821044419
20
-8.01789154798135
30
0
41
1
10
-1.6999982153373
20
-8.08018194931599
30
0
41
1
10
-1.69999821574823
20
-8.14181569173228
30
0
41
1
10
-1.69999821166792
20
-8.20288392339811
30
0
41
1
10
-1.69999820308339
20
-8.2633836105786
30
0
41
1
10
-1.69999818997528
20
-8.32331285438
30
0
41
1
10
-1.69999817234481
20
-8.38267009418906
30
0
41
1
10
-1.69999815010908
20
-8.44145421796501
30
0
41
1
10
-1.69999812316517
20
-8.49966381214041
30
0
41
1
10
-1.69999809141174
20
-8.55729617615583
30
0
41
1
10
-1.69999805471036
20
-8.61442948540863
30
0
41
1
10
-1.69999801288776
20
-8.67105983823261
30
0
41
1
10
-1.69999796570791
20
-8.72718258942161
30
0
41
1
10
-1.6999979130787
20
-8.78271646217357
30
0
41
1
10
-1.6999978548349
20
-8.83765804328842
30
0
41
1
10
-1.69999779090087
20
-8.89192895177696
30
0
41
1
10
-1.69999772114834
20
-8.94553134015799
30
0
41
1
10
-1.69999764530268
20
-8.99846743911474
30
0
41
1
10
-1.69999756295156
20
-9.05080930659003
30
0
41
1
10
-1.69999747378994
20
-9.10255350192732
30
0
41
1
10
-1.6999973774883
20
-9.15369765217808
30
0
41
1
10
-1.69999727379722
20
-9.20423925240991
30
0
41
1
10
-1.69999716243118
20
-9.25417616598669
30
0
41
1
10
-1.69999704302814
20
-9.30350627533211
30
0
41
1
10
-1.69999691523377
20
-9.35222633539483
30
0
41
1
10
-1.69999677855639
20
-9.40040058965419
30
0
41
1
10
-1.69999663242421
20
-9.44802430608601
30
0
41
1
10
-1.69999647620186
20
-9.49509188131445
30
0
41
1
10
-1.69999630972378
20
-9.54153433289088
30
0
41
1
10
-1.69999613257157
20
-9.58734752824076
30
0
41
1
10
-1.69999594457627
20
-9.63246566869607
30
0
41
1
10
-1.69999574543968
20
-9.67689005810888
30
0
41
1
10
-1.69999553461083
20
-9.72062216242091
30
0
41
1
10
-1.69999531112521
20
-9.76371967188922
30
0
41
1
10
-1.6999950743295
20
-9.80617843488046
30
0
41
1
10
-1.69999482352029
20
-9.8479952995323
30
0
41
1
10
-1.69999455813682
20
-9.88916667500278
30
0
41
1
10
-1.69999427766756
20
-9.92968920596095
30
0
41
1
10
-1.69999398146936
20
-9.9695597469118
30
0
41
1
10
-1.69999366890421
20
-10.0087741510418
30
0
41
1
10
-1.69999333898324
20
-10.0473850270537
30
0
41
1
10
-1.69999299056399
20
-10.0853860931369
30
0
41
1
10
-1.6999926224353
20
-10.122770112488
30
0
41
1
10
-1.69999223452066
20
-10.1594776677695
30
0
41
1
10
-1.69999182611293
20
-10.1955035957751
30
0
41
1
10
-1.69999139711484
20
-10.2307921786631
30
0
41
1
10
-1.69999094704671
20
-10.265343896006
30
0
41
1
10
-1.69999047494999
20
-10.299159185247
30
0
41
1
10
-1.69998997895199
20
-10.3322829325395
30
0
41
1
10
-1.6999894579273
20
-10.3647097082756
30
0
41
1
10
-1.6999889105463
20
-10.3964349125406
30
0
41
1
10
-1.69998833614724
20
-10.4274536024289
30
0
41
1
10
-1.69998773413346
20
-10.4577610036559
30
0
41
1
10
-1.69998710325955
20
-10.4873523602914
30
0
41
1
10
-1.69998644241066
20
-10.5162220833589
30
0
41
1
10
-1.69998574951459
20
-10.5444110752433
30
0
41
1
10
-1.69998502258342
20
-10.5719100704634
30
0
41
1
10
-1.69998425976462
20
-10.598708843653
30
0
41
1
10
-1.69998346143671
20
-10.6247570372973
30
0
41
1
10
-1.69998262656978
20
-10.6500479488108
30
0
41
1
10
-1.69998177376613
20
-10.67402669165
30
0
41
1
10
-1.6999809047558
20
-10.6967470238097
30
0
41
1
10
-1.69998002058493
20
-10.7182615862428
30
0
41
1
10
-1.69997909944205
20
-10.7390962672395
30
0
41
1
10
-1.6999781392678
20
-10.7592506375067
30
0
41
1
10
-1.69997713920183
20
-10.7787179865194
30
0
41
1
10
-1.69997609873516
20
-10.7974918327272
30
0
41
1
10
-1.69997501661842
20
-10.8155613065488
30
0
41
1
10
-1.6999738921534
20
-10.8329159992131
30
0
41
1
10
-1.69997272332177
20
-10.8495508846042
30
0
41
1
10
-1.69997150799713
20
-10.8654596878775
30
0
41
1
10
-1.69997024477184
20
-10.8806394653617
30
0
41
1
10
-1.69996893162953
20
-10.8950870583551
30
0
41
1
10
-1.69996756789344
20
-10.9087949960881
30
0
41
1
10
-1.69996615220406
20
-10.9217557300432
30
0
41
1
10
-1.69996468269013
20
-10.9339574000801
30
0
41
1
10
-1.69996325950266
20
-10.9446274858779
30
0
41
1
10
-1.69996189299264
20
-10.9539289315345
30
0
41
1
10
-1.69996059387734
20
-10.9620125968328
30
0
41
1
10
-1.69995925610127
20
-10.9695925419767
30
0
41
1
10
-1.69995787902363
20
-10.9766642051552
30
0
41
1
10
-1.69995646214278
20
-10.9832231089534
30
0
41
1
10
-1.69995500440867
20
-10.9892650982956
30
0
41
1
10
-1.6999535042534
20
-10.9947854342279
30
0
41
1
10
-1.69995196063877
20
-10.9997788824533
30
0
41
1
10
-1.69995037247588
20
-11.0042402101516
30
0
41
1
10
-1.69994873842533
20
-11.0081642296108
30
0
41
1
10
-1.69994705804331
20
-11.011545834719
30
0
41
1
10
-1.69994533086313
20
-11.0143795484222
30
0
41
1
10
-1.69994355553164
20
-11.0166596537952
30
0
41
1
10
-1.69994173095134
20
-11.0183804367566
30
0
41
1
10
-1.69993984902268
20
-11.0195403834335
30
0
41
1
10
-1.69993823615118
20
-11.0200274191725
30
0
41
1
10
-1.69993779044438
20
-11.0201003798049
30
0
41
1
10
-1.69993657994476
20
-11.0201004558265
30
0
0
SPLINE
5
1B1
100
AcDbEntity
8
SK1
62
256
6
ByLayer
370
18
48
1
60
0
100
AcDbSpline
70
4
71
3
72
84
73
80
40
0
40
0
40
0
40
0
40
0.0155931578223318
40
0.0311869675377442
40
0.04678073117575
40
0.0623738261625935
40
0.0779675291687816
40
0.0935619987473321
40
0.109156410916284
40
0.124750035632754
40
0.137225454772625
40
0.149701590031166
40
0.162177917179629
40
0.174653963099665
40
0.187129307306209
40
0.199807704347395
40
0.212487001932498
40
0.225166537917841
40
0.23784571756363
40
0.25052401568102
40
0.26315342033909
40
0.275783888132449
40
0.288414640774121
40
0.301044975811197
40
0.313674269116009
40
0.326304560169348
40
0.338936097969189
40
0.351567981299053
40
0.364199385311814
40
0.376829564145654
40
0.38961677203785
40
0.402405440071374
40
0.41519453838409
40
0.427983098518043
40
0.440770215903553
40
0.452991870097939
40
0.46521442199733
40
0.477436954674634
40
0.489658582655151
40
0.501880287494326
40
0.514102901004263
40
0.526325512707522
40
0.538547215082862
40
0.550768786057719
40
0.562991237899284
40
0.575213707040131
40
0.587435301606611
40
0.59994710362224
40
0.612459786896567
40
0.624972507065614
40
0.637484359395742
40
0.649414319070273
40
0.661345281299715
40
0.673276632730128
40
0.685207698781744
40
0.697137745540316
40
0.709066998050482
40
0.720997107109834
40
0.732927555866224
40
0.744857767192601
40
0.756787105481327
40
0.768839862382662
40
0.780893364371211
40
0.79294716507566
40
0.805000762115536
40
0.817053598742318
40
0.829223660352078
40
0.84139436700393
40
0.853565331583177
40
0.865736119256189
40
0.877906248822819
40
0.893118279040282
40
0.908331036459643
40
0.923543845825425
40
0.938755946882261
40
0.954066619030835
40
0.969377923066342
40
0.984689269725668
40
1
40
1
40
1
40
1
41
1
10
-1.69996579751816
20
2.3439945435084
30
0
41
1
10
-1.70394455867316
20
2.32082586228064
30
0
41
1
10
-1.71184363811775
20
2.27440226541443
30
0
41
1
10
-1.72352137367037
20
2.2045104023079
30
0
41
1
10
-1.73501350237754
20
2.13436331791891
30
0
41
1
10
-1.74631081748457
20
2.0639620848916
30
0
41
1
10
-1.75740156950264
20
1.99330622433574
30
0
41
1
10
-1.76827328726002
20
1.92239554046928
30
0
41
1
10
-1.77891409748346
20
1.8512338867137
30
0
41
1
10
-1.78861880957596
20
1.78458406460287
30
0
41
1
10
-1.79743168779176
20
1.72250182573458
30
0
41
1
10
-1.80539670562145
20
1.66503582617606
30
0
41
1
10
-1.81318419655495
20
1.6074131927732
30
0
41
1
10
-1.82078656046536
20
1.54963756065975
30
0
41
1
10
-1.82823625327324
20
1.49139653187214
30
0
41
1
10
-1.83552323905003
20
1.43268766496202
30
0
41
1
10
-1.84263638886999
20
1.37350906045607
30
0
41
1
10
-1.84952760369325
20
1.31417857934213
30
0
41
1
10
-1.85618805990411
20
1.25470168506661
30
0
41
1
10
-1.86260033892822
20
1.19515820564293
30
0
41
1
10
-1.86875836855714
20
1.13555023327772
30
0
41
1
10
-1.87465610111931
20
1.07588055000848
30
0
41
1
10
-1.88029216257544
20
1.01607674870174
30
0
41
1
10
-1.88565753312091
20
0.956146422449453
30
0
41
1
10
-1.89074292674562
20
0.896092916210319
30
0
41
1
10
-1.89554090724092
20
0.835918859686853
30
0
41
1
10
-1.90004499749328
20
0.775627937944269
30
0
41
1
10
-1.9042464155318
20
0.715228282439747
30
0
41
1
10
-1.90813683360271
20
0.654730100613816
30
0
41
1
10
-1.91172231036713
20
0.593889384460107
30
0
41
1
10
-1.91499119864985
20
0.532708940843756
30
0
41
1
10
-1.91793427171021
20
0.471193123414934
30
0
41
1
10
-1.92053153889642
20
0.409602466173462
30
0
41
1
10
-1.92277689202129
20
0.347950237249135
30
0
41
1
10
-1.92463565064401
20
0.287155432071337
30
0
41
1
10
-1.92612223258716
20
0.227227536481296
30
0
41
1
10
-1.92725388789201
20
0.1681750052707
30
0
41
1
10
-1.92804971491176
20
0.109097584235577
30
0
41
1
10
-1.9285059336517
20
0.0500052199018667
30
0
41
1
10
-1.92862209927718
20
-0.0090947273585502
30
0
41
1
10
-1.92840085108601
20
-0.0681948929367122
30
0
41
1
10
-1.92784138051031
20
-0.127284923061983
30
0
41
1
10
-1.92694288848378
20
-0.186354309582306
30
0
41
1
10
-1.92570756838772
20
-0.245395759702353
30
0
41
1
10
-1.92414105041306
20
-0.304402470074028
30
0
41
1
10
-1.92224563815902
20
-0.363364925523689
30
0
41
1
10
-1.92000652016112
20
-0.422739773543985
30
0
41
1
10
-1.91741851080837
20
-0.482518815081394
30
0
41
1
10
-1.91448001200348
20
-0.542693994484116
30
0
41
1
10
-1.91121713650367
20
-0.602790478829181
30
0
41
1
10
-1.90769181081923
20
-0.661869282366233
30
0
41
1
10
-1.9039263489616
20
-0.7199297042777
30
0
41
1
10
-1.89994369795195
20
-0.776973119753073
30
0
41
1
10
-1.89569068663062
20
-0.833922693050329
30
0
41
1
10
-1.89117438153419
20
-0.890770243016541
30
0
41
1
10
-1.88640193195146
20
-0.947509245946218
30
0
41
1
10
-1.88137939362369
20
-1.00413694616124
30
0
41
1
10
-1.87611352624726
20
-1.06065144234032
30
0
41
1
10
-1.87061183320466
20
-1.11705001043377
30
0
41
1
10
-1.86488183364246
20
-1.17332652068168
30
0
41
1
10
-1.85891065541956
20
-1.22967105033244
30
0
41
1
10
-1.85270176922682
20
-1.28608043147069
30
0
41
1
10
-1.84625888710312
20
-1.34255198481413
30
0
41
1
10
-1.83961106814279
20
-1.39888989858999
30
0
41
1
10
-1.8327658614559
20
-1.45508963663105
30
0
41
1
10
-1.82570820037441
20
-1.51133068685285
30
0
41
1
10
-1.81844205490119
20
-1.56761069023929
30
0
41
1
10
-1.8109710415564
20
-1.62392752943251
30
0
41
1
10
-1.80332584120534
20
-1.68009829845048
30
0
41
1
10
-1.79551352688305
20
-1.73611971309029
30
0
41
1
10
-1.78687691336626
20
-1.79664516366693
30
0
41
1
10
-1.77737419619803
20
-1.86162821066946
30
0
41
1
10
-1.76696312600622
20
-1.93101567533475
30
0
41
1
10
-1.75633371289204
20
-2.00016411094881
30
0
41
1
10
-1.74547344284784
20
-2.06921967677218
30
0
41
1
10
-1.73439241066158
20
-2.13818078457283
30
0
41
1
10
-1.72310017280998
20
-2.20704599601104
30
0
41
1
10
-1.71162938796562
20
-2.27566512699111
30
0
41
1
10
-1.70387242247442
20
-2.32124636308918
30
0
41
1
10
-1.69996579738209
20
-2.34399541728098
30
0
0
SPLINE
5
1B2
100
AcDbEntity
8
SK1
62
256
6
ByLayer
370
18
48
1
60
0
100
AcDbSpline
70
4
71
3
72
22
73
18
40
0
40
0
40
0
40
0
40
0.066542064105131
40
0.133086618671589
40
0.199631883028446
40
0.266176207982731
40
0.332718079502757
40
0.399261959984528
40
0.465808723347938
40
0.532356285389385
40
0.598902739091697
40
0.665446359846553
40
0.732354976922669
40
0.799267058836767
40
0.866180075130574
40
0.93309173604146
40
1
40
1
40
1
40
1
41
1
10
-1.30710678118655
20
3.27410008506509
30
0
41
1
10
-1.3115735202587
20
3.25327946008581
30
0
41
1
10
-1.32049071075495
20
3.21155815994636
30
0
41
1
10
-1.33382010988667
20
3.14873812918737
30
0
41
1
10
-1.34709459570483
20
3.08567885519523
30
0
41
1
10
-1.36030832609397
20
3.02238135802805
30
0
41
1
10
-1.37345495498211
20
2.95884464794235
30
0
41
1
10
-1.38652875506816
20
2.89506722447668
30
0
41
1
10
-1.39952290677895
20
2.83104728338881
30
0
41
1
10
-1.41242986834555
20
2.7667850289214
30
0
41
1
10
-1.42524198642264
20
2.70228172296635
30
0
41
1
10
-1.43797501315001
20
2.63741877072822
30
0
41
1
10
-1.45062140357901
20
2.572193009073
30
0
41
1
10
-1.46317244693828
20
2.5066011217148
30
0
41
1
10
-1.47559602953388
20
2.440761819911
30
0
41
1
10
-1.487883957154
20
2.37467706685023
30
0
41
1
10
-1.49597734019862
20
2.33045674320931
30
0
41
1
10
-1.49999999999999
20
2.3083060243678
30
0
0
SPLINE
5
1B3
100
AcDbEntity
8
SK1
62
256
6
ByLayer
370
18
48
1
60
0
100
AcDbSpline
70
4
71
3
72
67
73
63
40
0
40
0
40
0
40
0
40
0.0612349262955409
40
0.122469517908287
40
0.16329615790708
40
0.204123354777336
40
0.244948961795635
40
0.269526766777978
40
0.294108878374848
40
0.318689800355516
40
0.343266727703433
40
0.367840183917966
40
0.38175268854927
40
0.395671692929365
40
0.409588820170201
40
0.423499828006218
40
0.437405623034811
40
0.445635713773631
40
0.453866962007185
40
0.462095013124389
40
0.468403935684039
40
0.47472162889424
40
0.4810307384618
40
0.487327936850832
40
0.492624660816176
40
0.497915945567378
40
0.501500070272641
40
0.505092910261955
40
0.508663625302591
40
0.512002903996213
40
0.515340499414441
40
0.5186755754078
40
0.522013691450631
40
0.525258275537411
40
0.528515897556705
40
0.531768172299159
40
0.53641063504849
40
0.541067144189122
40
0.545733227150391
40
0.550388779617734
40
0.558368732836311
40
0.566358971707167
40
0.574361748643116
40
0.582368546556244
40
0.590362408193828
40
0.604023560930244
40
0.617689422222169
40
0.631353636212819
40
0.652505772576713
40
0.67366464868243
40
0.694830418455781
40
0.715997830831323
40
0.737157129160713
40
0.763560388530381
40
0.789966379119751
40
0.816373388618155
40
0.842778037543207
40
0.878863816147721
40
0.914951516319554
40
0.95103795936049
40
0.975518969454555
40
1
40
1
40
1
40
1
41
1
10
-1.50000000000001
20
2.30830602436801
30
0
41
1
10
-1.5036899428907
20
2.28791855998353
30
0
41
1
10
-1.5112552037708
20
2.24720015814687
30
0
41
1
10
-1.52180036697675
20
2.19303497788935
30
0
41
1
10
-1.53144135901319
20
2.14578266408693
30
0
41
1
10
-1.54004165805325
20
2.10541094920713
30
0
41
1
10
-1.5478593436564
20
2.07055272536281
30
0
41
1
10
-1.55474627269112
20
2.04114939158818
30
0
41
1
10
-1.5605878758087
20
2.01715411031985
30
0
41
1
10
-1.56668342937465
20
1.99329833117016
30
0
41
1
10
-1.57308051422184
20
1.96962175718712
30
0
41
1
10
-1.57885775080743
20
1.94956095325962
30
0
41
1
10
-1.58387450280626
20
1.93303271031314
30
0
41
1
10
-1.58803200245937
20
1.91997669267617
30
0
41
1
10
-1.59239884104472
20
1.90707466550969
30
0
41
1
10
-1.59701875879352
20
1.89437475213646
30
0
41
1
10
-1.60126470653437
20
1.88361700066255
30
0
41
1
10
-1.6050421030953
20
1.87473341859694
30
0
41
1
10
-1.60827320192266
20
1.86766123320774
30
0
41
1
10
-1.61143273918755
20
1.86132034833113
30
0
41
1
10
-1.61448556923195
20
1.85568461695342
30
0
41
1
10
-1.6174198852312
20
1.8507548127881
30
0
41
1
10
-1.6205626240618
20
1.84609365632488
30
0
41
1
10
-1.6237690249979
20
1.84201266740538
30
0
41
1
10
-1.62702753566348
20
1.83854322933137
30
0
41
1
10
-1.62999670061116
20
1.83606883374886
30
0
41
1
10
-1.63280149796563
20
1.83435625775419
30
0
41
1
10
-1.63535816109881
20
1.83329822432815
30
0
41
1
10
-1.63797889040472
20
1.83277741738242
30
0
41
1
10
-1.64061034353616
20
1.8328854188581
30
0
41
1
10
-1.64318403795888
20
1.8335890798975
30
0
41
1
10
-1.64567798759488
20
1.83491762076714
30
0
41
1
10
-1.64801324138069
20
1.83673630018396
30
0
41
1
10
-1.65016200737924
20
1.83894969762381
30
0
41
1
10
-1.65212842483733
20
1.84143698078778
30
0
41
1
10
-1.65419821329478
20
1.84453465354087
30
0
41
1
10
-1.6563185430016
20
1.84826928072825
30
0
41
1
10
-1.65843771970144
20
1.85265012503793
30
0
41
1
10
-1.66035256361377
20
1.85719623218583
30
0
41
1
10
-1.66251734161413
20
1.86295817593636
30
0
41
1
10
-1.66485275092173
20
1.86997059356552
30
0
41
1
10
-1.66725258362878
20
1.87826869243622
30
0
41
1
10
-1.66938913694007
20
1.88667899082278
30
0
41
1
10
-1.671310159916
20
1.8951593675039
30
0
41
1
10
-1.67348821944612
20
1.90569142192357
30
0
41
1
10
-1.67583254168412
20
1.91829214194086
30
0
41
1
10
-1.67821813718417
20
1.93297554571565
30
0
41
1
10
-1.68072804524146
20
1.95038342013484
30
0
41
1
10
-1.68328456646689
20
1.97051584019044
30
0
41
1
10
-1.68577986609211
20
1.99336788817264
30
0
41
1
10
-1.68792863318038
20
2.01623087852446
30
0
41
1
10
-1.68978878011373
20
2.03908848270159
30
0
41
1
10
-1.69155905278018
20
2.06381934107439
30
0
41
1
10
-1.693224048235
20
2.09041703967098
30
0
41
1
10
-1.69473033235954
20
2.11887337988264
30
0
41
1
10
-1.69599659884897
20
2.14729869165445
30
0
41
1
10
-1.69718249758278
20
2.17916000320834
30
0
41
1
10
-1.69822965092187
20
2.21444139906522
30
0
41
1
10
-1.69906769785793
20
2.25312046231981
30
0
41
1
10
-1.69956966224736
20
2.28759210223394
30
0
41
1
10
-1.69984895063556
20
2.31787862577455
30
0
41
1
10
-1.69993891617033
20
2.3352928183692
30
0
41
1
10
-1.69996579751816
20
2.3439945435084
30
0
0
SPLINE
5
1B4
100
AcDbEntity
8
SK1
62
256
6
ByLayer
370
18
48
1
60
0
100
AcDbSpline
70
4
71
3
72
81
73
77
40
0
40
0
40
0
40
0
40
0.0075681843185937
40
0.0151467366394614
40
0.0227277369379811
40
0.0303053450417768
40
0.0378760643963729
40
0.0454390204800843
40
0.0511028767733373
40
0.0567707259786344
40
0.0624375506020738
40
0.0681000087070699
40
0.0739341645598102
40
0.0797756190908921
40
0.0856154963874634
40
0.0914474986684472
40
0.0968206447622859
40
0.102211182947066
40
0.107609587007127
40
0.113006815493699
40
0.118394636468954
40
0.12376596537705
40
0.129133095671128
40
0.134514197071837
40
0.139904415294675
40
0.145296970071509
40
0.1506834711168
40
0.156054211141329
40
0.161898431795518
40
0.167748638723386
40
0.173600229844816
40
0.179446339887217
40
0.185448398344236
40
0.191454165307418
40
0.197460865205177
40
0.203464196595644
40
0.212335370383556
40
0.22121403921132
40
0.230098033992612
40
0.238981952530215
40
0.24785753322872
40
0.259197363611469
40
0.270541931517712
40
0.281888145676431
40
0.293230221827357
40
0.305797614758877
40
0.318367934373963
40
0.330939169014296
40
0.343507809981545
40
0.36025560255635
40
0.377005458039932
40
0.393754014816905
40
0.410833492963543
40
0.427914202214353
40
0.444994073982179
40
0.464367185925603
40
0.483742135936754
40
0.503117555978952
40
0.522491308931786
40
0.548384509808813
40
0.574279168855859
40
0.600172801754514
40
0.626744113103451
40
0.653317788725162
40
0.679892729103612
40
0.706467297211537
40
0.733039357165928
40
0.759606252700562
40
0.786174699588973
40
0.81274385504585
40
0.839312661255579
40
0.865879858174406
40
0.899408978741284
40
0.932939756751813
40
0.966470680580503
40
1
40
1
40
1
40
1
41
1
10
-0.400000000000026
20
-4.48934893107536
30
0
41
1
10
-0.403410816772151
20
-4.49238489662505
30
0
41
1
10
-0.410341210667108
20
-4.49837601959021
30
0
41
1
10
-0.421043079064066
20
-4.50712504983491
30
0
41
1
10
-0.432081965292876
20
-4.51559322913531
30
0
41
1
10
-0.443466210868249
20
-4.5237421034339
30
0
41
1
10
-0.455207336204158
20
-4.53152881686559
30
0
41
1
10
-0.466305000225434
20
-4.53829691883292
30
0
41
1
10
-0.476669799203457
20
-4.54412185596819
30
0
41
1
10
-0.486219233589909
20
-4.54908648795448
30
0
41
1
10
-0.49599429481288
20
-4.55374953212587
30
0
41
1
10
-0.506093390157283
20
-4.55812628979064
30
0
41
1
10
-0.516528381047562
20
-4.56217303093134
30
0
41
1
10
-0.527299555563575
20
-4.56584597492552
30
0
41
1
10
-0.538285075820548
20
-4.5690705087066
30
0
41
1
10
-0.54916880806358
20
-4.57174133575848
30
0
41
1
10
-0.559928103624942
20
-4.57385594712367
30
0
41
1
10
-0.570529891722861
20
-4.57544562455383
30
0
41
1
10
-0.581238977655096
20
-4.57656403680858
30
0
41
1
10
-0.592006511658689
20
-4.57719839626973
30
0
41
1
10
-0.602783244809701
20
-4.57733743354829
30
0
41
1
10
-0.613532102545552
20
-4.57696761987643
30
0
41
1
10
-0.624229691878988
20
-4.5760770804318
30
0
41
1
10
-0.634859898314239
20
-4.57469629318036
30
0
41
1
10
-0.645398525850699
20
-4.57284760268108
30
0
41
1
10
-0.655807378511745
20
-4.57055563009834
30
0
41
1
10
-0.666048705753686
20
-4.56784544710143
30
0
41
1
10
-0.676394661284208
20
-4.56464237959564
30
0
41
1
10
-0.686817529568221
20
-4.5609286467812
30
0
41
1
10
-0.697301788758516
20
-4.55670693264716
30
0
41
1
10
-0.70754785608771
20
-4.55211294535392
30
0
41
1
10
-0.717638691928543
20
-4.54713630767204
30
0
41
1
10
-0.727568962620823
20
-4.5417962644378
30
0
41
1
10
-0.737338783107963
20
-4.53611162332991
30
0
41
1
10
-0.746864922778841
20
-4.53015662564531
30
0
41
1
10
-0.757630846281736
20
-4.52297008454646
30
0
41
1
10
-0.769508869553529
20
-4.51443465068679
30
0
41
1
10
-0.782355726950722
20
-4.5044403490354
30
0
41
1
10
-0.794760735497201
20
-4.49406576925556
30
0
41
1
10
-0.806744764307777
20
-4.48336244541129
30
0
41
1
10
-0.819409680529278
20
-4.47135744037046
30
0
41
1
10
-0.832665060926423
20
-4.45799598936178
30
0
41
1
10
-0.846411277376759
20
-4.44322326511155
30
0
41
1
10
-0.859652677689961
20
-4.42812848196068
30
0
41
1
10
-0.872890773204122
20
-4.41220054396461
30
0
41
1
10
-0.88611497125805
20
-4.39544231492754
30
0
41
1
10
-0.899301787486452
20
-4.37784819697276
30
0
41
1
10
-0.912041502290052
20
-4.36001078708328
30
0
41
1
10
-0.925736067429341
20
-4.33995708313336
30
0
41
1
10
-0.940261704046428
20
-4.31762711211081
30
0
41
1
10
-0.955486849338446
20
-4.29296328045059
30
0
41
1
10
-0.970244627628798
20
-4.26786077293066
30
0
41
1
10
-0.984575526792422
20
-4.24234399226643
30
0
41
1
10
-0.998502833393307
20
-4.21642827545157
30
0
41
1
10
-1.01257338244868
20
-4.18913036220501
30
0
41
1
10
-1.02675747152854
20
-4.16043710464193
30
0
41
1
10
-1.04101799283176
20
-4.13033327457286
30
0
41
1
10
-1.05480570350859
20
-4.10001504186452
30
0
41
1
10
-1.06965276094424
20
-4.06607636112014
30
0
41
1
10
-1.08541853912514
20
-4.028450979228
30
0
41
1
10
-1.10195436954563
20
-3.98707162898563
30
0
41
1
10
-1.11800593271288
20
-3.94504292188428
30
0
41
1
10
-1.13360947445961
20
-3.90237595723287
30
0
41
1
10
-1.14878207077226
20
-3.85907541625454
30
0
41
1
10
-1.16342155691895
20
-3.81551986654371
30
0
41
1
10
-1.1775595507162
20
-3.77172374427201
30
0
41
1
10
-1.1912282511429
20
-3.72770162891234
30
0
41
1
10
-1.20445852141968
20
-3.68346211389873
30
0
41
1
10
-1.21726716056088
20
-3.63900981887172
30
0
41
1
10
-1.22967422073406
20
-3.59434860616798
30
0
41
1
10
-1.24169762496463
20
-3.54948621896901
30
0
41
1
10
-1.25437471196534
20
-3.50049314860476
30
0
41
1
10
-1.26760939710281
20
-3.44731042158434
30
0
41
1
10
-1.28129905440901
20
-3.38987573861653
30
0
41
1
10
-1.29448093206228
20
-3.3321512223491
30
0
41
1
10
-1.30295221255304
20
-3.29348163771673
30
0
41
1
10
-1.30710678118656
20
-3.2741000776645
30
0
0
SPLINE
5
1B5
100
AcDbEntity
8
SK1
62
256
6
ByLayer
370
18
48
1
60
0
100
AcDbSpline
70
4
71
3
72
22
73
18
40
0
40
0
40
0
40
0
40
0.066529824972742
40
0.133062991652621
40
0.199597490681809
40
0.266131069659647
40
0.332661240448219
40
0.399188510607344
40
0.465718614030467
40
0.532249826124921
40
0.598780239636389
40
0.665307769880783
40
0.732244439014813
40
0.799183606429778
40
0.86612373111859
40
0.933063133657676
40
1
40
1
40
1
40
1
41
1
10
-1.50000000000001
20
-2.30830715862382
30
0
41
1
10
-1.49600012810481
20
-2.33033257761122
30
0
41
1
10
-1.48795283374968
20
-2.3743032047755
30
0
41
1
10
-1.47573563468565
20
-2.44001615975135
30
0
41
1
10
-1.46338418620169
20
-2.5054864103854
30
0
41
1
10
-1.45090655498992
20
-2.57071202787035
30
0
41
1
10
-1.43831185907357
20
-2.63569217497257
30
0
41
1
10
-1.42560798795298
20
-2.70042861400235
30
0
41
1
10
-1.4128018081216
20
-2.76492294688904
30
0
41
1
10
-1.39990062567841
20
-2.82917633669234
30
0
41
1
10
-1.38691210059812
20
-2.89318752294061
30
0
41
1
10
-1.37381686112356
20
-2.95708766852499
30
0
41
1
10
-1.36062119771143
20
-3.02087686348666
30
0
41
1
10
-1.34733041194562
20
-3.08455487293396
30
0
41
1
10
-1.33397803656588
20
-3.1479918204303
30
0
41
1
10
-1.32057001676003
20
-3.21118666367274
30
0
41
1
10
-1.31160002497343
20
-3.25315594311198
30
0
41
1
10
-1.30710678118675
20
-3.27410007766361
30
0
0
SPLINE
5
1B6
100
AcDbEntity
8
SK1
62
256
6
ByLayer
370
18
48
1
60
0
100
AcDbSpline
70
4
71
3
72
57
73
53
40
0
40
0
40
0
40
0
40
0.0073932962681551
40
0.0147989816697232
40
0.0221974385950167
40
0.0295808595557788
40
0.0352585571079405
40
0.0409528607306442
40
0.0466400067741995
40
0.0523079131539834
40
0.0582639641943679
40
0.0642366871840209
40
0.0701886875390531
40
0.0761458671943962
40
0.0821235948005769
40
0.088085578216966
40
0.0941260463743234
40
0.100187658488618
40
0.106257815927674
40
0.112309974519464
40
0.120868501087468
40
0.129447649404614
40
0.138046779295172
40
0.146649913690023
40
0.155228610508581
40
0.168345460031993
40
0.181476412338267
40
0.194621089888706
40
0.207768617747079
40
0.220899385692899
40
0.237712801480513
40
0.254532167923753
40
0.271354168135401
40
0.288171176593966
40
0.315140486875594
40
0.342119022477721
40
0.369105474647445
40
0.396092961266678
40
0.423069781621146
40
0.456737506554949
40
0.490409840225163
40
0.524083791007605
40
0.557753721377029
40
0.602629707399844
40
0.647508781512573
40
0.692385875950514
40
0.739841677237884
40
0.787299596774102
40
0.834756001440092
40
0.892555719377348
40
0.950357947479045
40
1
40
1
40
1
40
1
41
1
10
-0.400000000000013
20
-10.7720903270618
30
0
41
1
10
-0.398527489288419
20
-10.772240204823
30
0
41
1
10
-0.395505492388386
20
-10.7725708067871
30
0
41
1
10
-0.390759577329385
20
-10.7731520238076
30
0
41
1
10
-0.385770974425094
20
-10.7738378623626
30
0
41
1
10
-0.380934084865274
20
-10.7745776082771
30
0
41
1
10
-0.376299633364784
20
-10.7753544458112
30
0
41
1
10
-0.371923114490731
20
-10.7761466321735
30
0
41
1
10
-0.367395028116978
20
-10.777029118299
30
0
41
1
10
-0.36265487802145
20
-10.7780218850625
30
0
41
1
10
-0.357712068273282
20
-10.7791371694753
30
0
41
1
10
-0.352614818924455
20
-10.7803707773123
30
0
41
1
10
-0.347500793950906
20
-10.7816940107532
30
0
41
1
10
-0.34244276565739
20
-10.7830944775069
30
0
41
1
10
-0.337502036619386
20
-10.784546479627
30
0
41
1
10
-0.33270805980272
20
-10.7860365405837
30
0
41
1
10
-0.32810706660943
20
-10.7875467372152
30
0
41
1
10
-0.323706557969301
20
-10.7890635955846
30
0
41
1
10
-0.319533197445264
20
-10.7905688436704
30
0
41
1
10
-0.315044306544334
20
-10.7922580000764
30
0
41
1
10
-0.310330899790788
20
-10.7941154242782
30
0
41
1
10
-0.305482941479964
20
-10.7961226947891
30
0
41
1
10
-0.300979765270612
20
-10.7980767012967
30
0
41
1
10
-0.296788639393137
20
-10.7999749705509
30
0
41
1
10
-0.292178139298642
20
-10.802144157159
30
0
41
1
10
-0.287259909863071
20
-10.8045564678968
30
0
41
1
10
-0.28217095651141
20
-10.8071778267981
30
0
41
1
10
-0.277496567006227
20
-10.8097005514205
30
0
41
1
10
-0.273183631329299
20
-10.8121308132999
30
0
41
1
10
-0.268795398612956
20
-10.8146973963945
30
0
41
1
10
-0.264372171371957
20
-10.8173827903312
30
0
41
1
10
-0.259984110223871
20
-10.8201634761412
30
0
41
1
10
-0.255931552726224
20
-10.8228366173206
30
0
41
1
10
-0.251415789689179
20
-10.825928010902
30
0
41
1
10
-0.246590996640543
20
-10.8293737591541
30
0
41
1
10
-0.241636860892765
20
-10.833097999546
30
0
41
1
10
-0.237181819842456
20
-10.8366203673604
30
0
41
1
10
-0.233162507174893
20
-10.8399546016402
30
0
41
1
10
-0.229208362138377
20
-10.8433776922697
30
0
41
1
10
-0.225364205093236
20
-10.8468529882701
30
0
41
1
10
-0.221706034679634
20
-10.8503352852803
30
0
41
1
10
-0.21845543470112
20
-10.8535912399927
30
0
41
1
10
-0.215244615417239
20
-10.8569708364862
30
0
41
1
10
-0.212165319848983
20
-10.8604000280047
30
0
41
1
10
-0.209321157265242
20
-10.863796955204
30
0
41
1
10
-0.206888602612153
20
-10.8669263503722
30
0
41
1
10
-0.204842613806043
20
-10.8697832633815
30
0
41
1
10
-0.20317651401192
20
-10.872358286103
30
0
41
1
10
-0.201797268227106
20
-10.8747751901808
30
0
41
1
10
-0.20076076732149
20
-10.8769633374605
30
0
41
1
10
-0.200162599851441
20
-10.8787572770276
30
0
41
1
10
-0.200017048554057
20
-10.8796796089619
30
0
41
1
10
-0.200003988616734
20
-10.8800527551157
30
0
0
SPLINE
5
1B7
100
AcDbEntity
8
SK1
62
256
6
ByLayer
370
18
48
1
60
0
100
AcDbSpline
70
4
71
3
72
76
73
72
40
0
40
0
40
0
40
0
40
0.0335608688014308
40
0.0729174508445306
40
0.112271628262245
40
0.143979926993386
40
0.175691105864644
40
0.207402722945774
40
0.239112897857544
40
0.270820354483813
40
0.299083571925349
40
0.32734896518495
40
0.355613787852334
40
0.383876227150816
40
0.406560721112833
40
0.429248784288935
40
0.451937105996378
40
0.474623372999187
40
0.497306360265857
40
0.516148174172019
40
0.534990988115853
40
0.553832325492661
40
0.572678888369084
40
0.591527106906344
40
0.610372667261343
40
0.624515043677829
40
0.638660785802644
40
0.652805322899995
40
0.666946055680641
40
0.67883339980498
40
0.690728738107022
40
0.70262415805109
40
0.714514486792599
40
0.726397626666353
40
0.736335909297687
40
0.746276678539212
40
0.756213566295157
40
0.763776408839209
40
0.771344068831776
40
0.778910333783855
40
0.786471272724086
40
0.794045529894211
40
0.801623348397487
40
0.809196188897827
40
0.815015214645765
40
0.820839797978848
40
0.826663486971243
40
0.832481291964604
40
0.83892037407473
40
0.845380165311562
40
0.851849735736642
40
0.858318396739191
40
0.864776085937286
40
0.871213762256537
40
0.877639542186436
40
0.884080994570155
40
0.890532914656059
40
0.896987739695832
40
0.90343590472717
40
0.909866171441228
40
0.917198166181722
40
0.924537687839494
40
0.931879050433394
40
0.939213558002994
40
0.946741540903963
40
0.954274054641222
40
0.961807745816896
40
0.969337335236201
40
0.979556566396212
40
0.989779450232879
40
1
40
1
40
1
40
1
41
1
10
-1.23806317234439
20
-10.8251483415871
30
0
41
1
10
-1.23387763424055
20
-10.8251477694306
30
0
41
1
10
-1.22462577829549
20
-10.8250496353703
30
0
41
1
10
-1.2098652212302
20
-10.8245720452339
30
0
41
1
10
-1.19476151207394
20
-10.8237628715577
30
0
41
1
10
-1.18018781876952
20
-10.822728510828
30
0
41
1
10
-1.16624263311913
20
-10.821542591391
30
0
41
1
10
-1.15181019992896
20
-10.820132068842
30
0
41
1
10
-1.1368604902936
20
-10.8185008667353
30
0
41
1
10
-1.12192392314951
20
-10.8167197760623
30
0
41
1
10
-1.10704033624741
20
-10.8148187150542
30
0
41
1
10
-1.09223752821102
20
-10.8128265251986
30
0
41
1
10
-1.07689631768477
20
-10.8106730414806
30
0
41
1
10
-1.06202452356734
20
-10.8085144366874
30
0
41
1
10
-1.04772060212881
20
-10.8063877158735
30
0
41
1
10
-1.0340714668781
20
-10.8043263622422
30
0
41
1
10
-1.01995643140682
20
-10.8021728935766
30
0
41
1
10
-1.00534066147894
20
-10.7999310917326
30
0
41
1
10
-0.991044710791496
20
-10.7977358650374
30
0
41
1
10
-0.977137423295616
20
-10.7956063773798
30
0
41
1
10
-0.963679683265431
20
-10.7935603144852
30
0
41
1
10
-0.94975084324664
20
-10.7914655443881
30
0
41
1
10
-0.935317582581028
20
-10.7893256126599
30
0
41
1
10
-0.920327965504661
20
-10.7871460366997
30
0
41
1
10
-0.906027103873269
20
-10.7851170809471
30
0
41
1
10
-0.892544542329541
20
-10.7832520926125
30
0
41
1
10
-0.880002136309925
20
-10.7815616438843
30
0
41
1
10
-0.867020056760789
20
-10.7798642740281
30
0
41
1
10
-0.854279110946183
20
-10.7782551607557
30
0
41
1
10
-0.84183743448394
20
-10.7767380505175
30
0
41
1
10
-0.829743248137701
20
-10.7753171465378
30
0
41
1
10
-0.817223291719742
20
-10.7739080578964
30
0
41
1
10
-0.804250176833645
20
-10.7725171886405
30
0
41
1
10
-0.791529154229743
20
-10.7712251006493
30
0
41
1
10
-0.779121417520517
20
-10.7700330503834
30
0
41
1
10
-0.767083074099261
20
-10.7689421544223
30
0
41
1
10
-0.755623758435628
20
-10.7679698696633
30
0
41
1
10
-0.744835755989127
20
-10.7671124462051
30
0
41
1
10
-0.734807044931219
20
-10.7663641528475
30
0
41
1
10
-0.724510212685091
20
-10.7656482437334
30
0
41
1
10
-0.713935844303495
20
-10.7649689668595
30
0
41
1
10
-0.703077566299797
20
-10.7643312835763
30
0
41
1
10
-0.691935217460358
20
-10.7637408446768
30
0
41
1
10
-0.681401282606587
20
-10.7632451867426
30
0
41
1
10
-0.671551306188262
20
-10.76283586712
30
0
41
1
10
-0.662450914141556
20
-10.7625017854863
30
0
41
1
10
-0.65321538196035
20
-10.7622083442075
30
0
41
1
10
-0.643528685691003
20
-10.7619490956851
30
0
41
1
10
-0.633376804244595
20
-10.7617344014045
30
0
41
1
10
-0.622767528038724
20
-10.7615724024795
30
0
41
1
10
-0.612071171090851
20
-10.7614704461338
30
0
41
1
10
-0.601337303483489
20
-10.7614297366475
30
0
41
1
10
-0.590615718652335
20
-10.7614512479293
30
0
41
1
10
-0.579947450319187
20
-10.761536359597
30
0
41
1
10
-0.569355564984019
20
-10.7616858811568
30
0
41
1
10
-0.558852889055276
20
-10.7618951481569
30
0
41
1
10
-0.548457096878591
20
-10.7621609676591
30
0
41
1
10
-0.538202396138051
20
-10.7624796700153
30
0
41
1
10
-0.528122598471149
20
-10.7628475612757
30
0
41
1
10
-0.517775929549452
20
-10.7632813408901
30
0
41
1
10
-0.507199885727962
20
-10.76378508285
30
0
41
1
10
-0.496423302390868
20
-10.7643599593829
30
0
41
1
10
-0.485906683247121
20
-10.7649793001413
30
0
41
1
10
-0.475563837112975
20
-10.7656436672105
30
0
41
1
10
-0.465398256451564
20
-10.7663494968327
30
0
41
1
10
-0.45540843410766
20
-10.7670936071504
30
0
41
1
10
-0.445677044643151
20
-10.7678657667165
30
0
41
1
10
-0.435068308264721
20
-10.7687568049813
30
0
41
1
10
-0.423678537288952
20
-10.7697725929867
30
0
41
1
10
-0.411613847906746
20
-10.7709177466538
30
0
41
1
10
-0.403826874517426
20
-10.7716966169638
30
0
41
1
10
-0.400000000000013
20
-10.7720903270618
30
0
0
SPLINE
5
1B8
100
AcDbEntity
8
SK1
62
256
6
ByLayer
370
18
48
1
60
0
100
AcDbSpline
70
4
71
3
72
57
73
53
40
0
40
0
40
0
40
0
40
0.0073271757848892
40
0.0146666113013114
40
0.0219988851797601
40
0.0293162769949137
40
0.0349405598119987
40
0.0405812792354507
40
0.0462148975809423
40
0.0518294665355005
40
0.057724529430192
40
0.0636360740779738
40
0.0695271003801854
40
0.0754234756956735
40
0.0813402113170617
40
0.0872413291134807
40
0.0932124229033069
40
0.0992044213477674
40
0.105204858469855
40
0.111187496805311
40
0.119642753865994
40
0.128118391644072
40
0.136613768381155
40
0.145113095585877
40
0.153588273455759
40
0.1665399711436
40
0.179505597281915
40
0.192484775031097
40
0.205466764717121
40
0.21843220281131
40
0.235034062188465
40
0.251641800325371
40
0.268252140652574
40
0.284857549626185
40
0.311486443521506
40
0.338124447086268
40
0.364770269998623
40
0.391417116062778
40
0.418053428982847
40
0.451296170123599
40
0.484543460089864
40
0.517792346661853
40
0.551037265271122
40
0.595346788394453
40
0.63965935887996
40
0.683969976369284
40
0.730826333106608
40
0.777684779267489
40
0.824541731912405
40
0.883134883659912
40
0.941730708915171
40
1
40
1
40
1
40
1
41
1
10
-0.400000000000026
20
4.48934914533076
30
0
41
1
10
-0.398528784698615
20
4.48803421840552
30
0
41
1
10
-0.395509376831832
20
4.48548717177535
30
0
41
1
10
-0.39076736596909
20
4.48189750614115
30
0
41
1
10
-0.385782558220671
20
4.47861358640736
30
0
41
1
10
-0.380949612443279
20
4.47591559673351
30
0
41
1
10
-0.37631932720193
20
4.47376991604459
30
0
41
1
10
-0.371947235696065
20
4.47212084170426
30
0
41
1
10
-0.367423316294971
20
4.47081869232844
30
0
41
1
10
-0.362688386767958
20
4.46989855657415
30
0
41
1
10
-0.357751840999375
20
4.4694526448488
30
0
41
1
10
-0.352661781477643
20
4.46953051275956
30
0
41
1
10
-0.347554209430042
20
4.47016221919031
30
0
41
1
10
-0.342501772132847
20
4.47138375603187
30
0
41
1
10
-0.337565878842849
20
4.47312913523212
30
0
41
1
10
-0.332778233167904
20
4.47536016143726
30
0
41
1
10
-0.328184907310294
20
4.47803788535838
30
0
41
1
10
-0.323793126755546
20
4.48108950232285
30
0
41
1
10
-0.319627641781439
20
4.48444145525327
30
0
41
1
10
-0.315147938221331
20
4.48853432997706
30
0
41
1
10
-0.310444611625027
20
4.49342778431391
30
0
41
1
10
-0.305607149252308
20
4.49916110268776
30
0
41
1
10
-0.301113182228059
20
4.50514502245946
30
0
41
1
10
-0.296930177397299
20
4.51131338345124
30
0
41
1
10
-0.292329261060684
20
4.51872512472917
30
0
41
1
10
-0.287421523641139
20
4.52742220981644
30
0
41
1
10
-0.28234324861371
20
4.53744742506847
30
0
41
1
10
-0.277677909513856
20
4.54762441681819
30
0
41
1
10
-0.273372652965678
20
4.55790841193401
30
0
41
1
10
-0.268991621280265
20
4.56923271232904
30
0
41
1
10
-0.264575008416563
20
4.58159770302106
30
0
41
1
10
-0.260192708506724
20
4.59501097200736
30
0
41
1
10
-0.256144740508929
20
4.60847719647231
30
0
41
1
10
-0.251633352863873
20
4.62469574630111
30
0
41
1
10
-0.246812172237689
20
4.64367546754132
30
0
41
1
10
-0.241860242101746
20
4.66541694617954
30
0
41
1
10
-0.237405659647434
20
4.68717811341835
30
0
41
1
10
-0.233385286868019
20
4.70893800697757
30
0
41
1
10
-0.229428614172189
20
4.73248007727447
30
0
41
1
10
-0.225580299199127
20
4.75779158443444
30
0
41
1
10
-0.221916083494309
20
4.78485956946309
30
0
41
1
10
-0.218658039318392
20
4.81187975376457
30
0
41
1
10
-0.215437591491529
20
4.84183697240493
30
0
41
1
10
-0.212346199711801
20
4.87470402757237
30
0
41
1
10
-0.209487145932147
20
4.91044698627628
30
0
41
1
10
-0.207037896141355
20
4.94676014542332
30
0
41
1
10
-0.204973502123288
20
4.9836333782816
30
0
41
1
10
-0.203287267930471
20
5.02105626626356
30
0
41
1
10
-0.201870950737422
20
5.06146090064599
30
0
41
1
10
-0.200794613539139
20
5.10480634377136
30
0
41
1
10
-0.2001403742001
20
5.15095995491485
30
0
41
1
10
-0.199996202910282
20
5.1815635566501
30
0
41
1
10
-0.200000006389663
20
5.1967884357316
30
0
0
SPLINE
5
1B9
100
AcDbEntity
8
SK1
62
256
6
ByLayer
370
18
48
1
60
0
100
AcDbSpline
70
4
71
3
72
81
73
77
40
0
40
0
40
0
40
0
40
0.0327280846335196
40
0.0654576581514965
40
0.0981871005735009
40
0.130915006431523
40
0.163645035779371
40
0.196376963918589
40
0.229108606025773
40
0.261838245306693
40
0.288209396055118
40
0.314582940615535
40
0.340956852042033
40
0.367329567269219
40
0.393700022386462
40
0.417244780569908
40
0.440791353523949
40
0.464337450405222
40
0.487881559346103
40
0.506779056973603
40
0.525679536918511
40
0.544580230839387
40
0.563479205943545
40
0.582375441255455
40
0.598071686627557
40
0.613768768239246
40
0.629464614228757
40
0.645164844751067
40
0.660866461074821
40
0.676565849204635
40
0.688347298193243
40
0.700131573353089
40
0.711914832184679
40
0.723694894916887
40
0.733601344343435
40
0.743514548441237
40
0.75342781001838
40
0.763336758404524
40
0.773239636213628
40
0.781452979319777
40
0.78966837632394
40
0.797880570486965
40
0.804130608267955
40
0.810384617079967
40
0.81663747928464
40
0.822885952464332
40
0.82916209033164
40
0.835441184533195
40
0.841716147642896
40
0.846538047415132
40
0.851364557998019
40
0.856190328274699
40
0.86101121754477
40
0.866347725388128
40
0.871701394995795
40
0.877063177718854
40
0.882424217496421
40
0.887776169859852
40
0.893111529252665
40
0.898436882838903
40
0.903775204004339
40
0.909122191598865
40
0.914471589039216
40
0.919815478766415
40
0.925144554407262
40
0.931228209318171
40
0.937318110006343
40
0.943409540610312
40
0.949495283815789
40
0.955741510556008
40
0.961991493876993
40
0.96824245434378
40
0.974490014318854
40
0.982991957855168
40
0.991496952359784
40
1
40
1
40
1
40
1
41
1
10
-1.30710678118655
20
3.27410008506506
30
0
41
1
10
-1.30305135634103
20
3.29301846338197
30
0
41
1
10
-1.29478622765048
20
3.33076613888626
30
0
41
1
10
-1.28193630949704
20
3.38712109010923
30
0
41
1
10
-1.26860381063519
20
3.44320026566257
30
0
41
1
10
-1.25476864227559
20
3.49899781420363
30
0
41
1
10
-1.24040932619562
20
3.5545076826704
30
0
41
1
10
-1.22549264806575
20
3.60972097503842
30
0
41
1
10
-1.20998461881448
20
3.66462465955787
30
0
41
1
10
-1.19489530771168
20
3.71567163090171
30
0
41
1
10
-1.18033396408026
20
3.76292256893369
30
0
41
1
10
-1.1663997332895
20
3.80643487577289
30
0
41
1
10
-1.15197781384505
20
3.84971240973396
30
0
41
1
10
-1.13703826559067
20
3.89274152379893
30
0
41
1
10
-1.12210359127807
20
3.93398250858419
30
0
41
1
10
-1.10721283153346
20
3.97345688222167
30
0
41
1
10
-1.09239279675664
20
4.01118271922783
30
0
41
1
10
-1.07703227415018
20
4.04866182539707
30
0
41
1
10
-1.0621402660634
20
4.08342804593414
30
0
41
1
10
-1.04781554668877
20
4.11552686786234
30
0
41
1
10
-1.03414520366063
20
4.14500089185834
30
0
41
1
10
-1.02000669379487
20
4.17426386415135
30
0
41
1
10
-1.00536487625629
20
4.2032949106609
30
0
41
1
10
-0.99104165116826
20
4.23045046475108
30
0
41
1
10
-0.977106150514854
20
4.25576037405976
30
0
41
1
10
-0.96361951924373
20
4.2792528057922
30
0
41
1
10
-0.949658991546207
20
4.30252006021592
30
0
41
1
10
-0.935190987934562
20
4.32554078727935
30
0
41
1
10
-0.920163066893427
20
4.34828251618293
30
0
41
1
10
-0.905823310882461
20
4.36884153573995
30
0
41
1
10
-0.892302039586996
20
4.38727593862597
30
0
41
1
10
-0.879721776380544
20
4.40364678240724
30
0
41
1
10
-0.866698434627548
20
4.41976357868302
30
0
41
1
10
-0.85391342022017
20
4.43475476611407
30
0
41
1
10
-0.841425098154497
20
4.44864822786977
30
0
41
1
10
-0.829281699181396
20
4.46146698615848
30
0
41
1
10
-0.816708228764553
20
4.47399664746437
30
0
41
1
10
-0.803676877591738
20
4.48619255657127
30
0
41
1
10
-0.790927210905077
20
4.49734095936294
30
0
41
1
10
-0.778524820240744
20
4.50747403614278
30
0
41
1
10
-0.766530115353148
20
4.51662431544534
30
0
41
1
10
-0.755113363187077
20
4.52470036440853
30
0
41
1
10
-0.744366360302878
20
4.53176367460646
30
0
41
1
10
-0.734376604561071
20
4.53788659322332
30
0
41
1
10
-0.72412056957685
20
4.54370763413974
30
0
41
1
10
-0.713579597115851
20
4.54920267816583
30
0
41
1
10
-0.702746526971396
20
4.55433609832293
30
0
41
1
10
-0.691620443347362
20
4.55906803493924
30
0
41
1
10
-0.681102053563899
20
4.56302071244908
30
0
41
1
10
-0.671266773039493
20
4.56627196347363
30
0
41
1
10
-0.662180084236885
20
4.56891704431086
30
0
41
1
10
-0.65295875989685
20
4.57123332987835
30
0
41
1
10
-0.643286802579261
20
4.57327378572987
30
0
41
1
10
-0.633150297808298
20
4.5749596257475
30
0
41
1
10
-0.622557105283807
20
4.57622820093368
30
0
41
1
10
-0.611877489399106
20
4.57702235378313
30
0
41
1
10
-0.601160962479664
20
4.57733360815563
30
0
41
1
10
-0.590457257289289
20
4.57715514907869
30
0
41
1
10
-0.579807445977351
20
4.57647720062233
30
0
41
1
10
-0.569234547770675
20
4.57529369696144
30
0
41
1
10
-0.558751283412027
20
4.57363797376199
30
0
41
1
10
-0.548375135796945
20
4.57153254410181
30
0
41
1
10
-0.53814016096478
20
4.56900350262739
30
0
41
1
10
-0.528080020936941
20
4.56607713564925
30
0
41
1
10
-0.517749259431465
20
4.56261581430044
30
0
41
1
10
-0.507185584736892
20
4.55858043782387
30
0
41
1
10
-0.49641814667877
20
4.55395286920443
30
0
41
1
10
-0.485910867437072
20
4.5489431694086
30
0
41
1
10
-0.475577602114999
20
4.54354068704373
30
0
41
1
10
-0.465421782641059
20
4.53776711529199
30
0
41
1
10
-0.455441864530959
20
4.53164234535552
30
0
41
1
10
-0.445720367012527
20
4.5252449862842
30
0
41
1
10
-0.435111177155729
20
4.51780345681342
30
0
41
1
10
-0.423711727117014
20
4.50923850453276
30
0
41
1
10
-0.411629453943428
20
4.49947580374828
30
0
41
1
10
-0.403831876102299
20
4.49276090685036
30
0
41
1
10
-0.400000000000026
20
4.48934914533074
30
0
0
SPLINE
5
1BA
100
AcDbEntity
8
SK1
62
256
6
ByLayer
370
18
48
1
60
0
100
AcDbSpline
70
4
71
2
72
6
73
3
40
0
40
0
40
0
40
1
40
1
40
1
41
1
10
-2.5
20
11.0000000216178
30
0
41
1
10
-10.2501577226355
20
10.805289083207
30
0
41
1
10
-18.0003154452711
20
10.6105781447963
30
0
0
SPLINE
5
1BB
100
AcDbEntity
8
SK1
62
256
6
ByLayer
370
18
48
1
60
0
100
AcDbSpline
70
4
71
2
72
6
73
3
40
0
40
0
40
0
40
1
40
1
40
1
41
1
10
-1.69993839754319
20
11.0201003538918
30
0
41
1
10
-2.0999691987716
20
11.0100501877548
30
0
41
1
10
-2.5
20
11.0000000216178
30
0
0
SPLINE
5
1BC
100
AcDbEntity
8
SK1
62
256
6
ByLayer
370
18
48
1
60
0
100
AcDbSpline
70
4
71
3
72
180
73
176
40
0
40
0
40
0
40
0
40
0.0042352453572472
40
0.0084706306994786
40
0.0127060235295438
40
0.016941279097807
40
0.0211723967907296
40
0.0254036395417889
40
0.0296348882256341
40
0.0338660140089561
40
0.0386425173767189
40
0.0434192559417041
40
0.0481960845285501
40
0.0529728450594346
40
0.0577493668511236
40
0.0625186195955681
40
0.0672880783520576
40
0.0720576150187399
40
0.0768270912419865
40
0.0815963586366064
40
0.0863711973256763
40
0.0911462204671361
40
0.0959213124093916
40
0.100696349385891
40
0.105471199678993
40
0.11024026493468
40
0.115009496014811
40
0.119778788226945
40
0.124548030384594
40
0.129317104931427
40
0.134090857745109
40
0.138864762313902
40
0.143638722453242
40
0.148412636452424
40
0.153186397175717
40
0.159147594003015
40
0.165108974355486
40
0.171070361045127
40
0.177031566514286
40
0.183040819556202
40
0.189050246850362
40
0.195059679738849
40
0.201068940409614
40
0.207030026902928
40
0.212991272673303
40
0.21895252318344
40
0.22491361614024
40
0.230874661058573
40
0.236835855770751
40
0.242797054075484
40
0.24875810389288
40
0.254719112578215
40
0.260680263411613
40
0.266641417811089
40
0.272602431359373
40
0.278991739437306
40
0.285381294376749
40
0.291770936599535
40
0.298160500979637
40
0.30454981697585
40
0.310908623882253
40
0.317267661278876
40
0.32362677936463
40
0.329985824051196
40
0.336344637071966
40
0.342703395598937
40
0.349062374555724
40
0.355421430726313
40
0.361780416744284
40
0.368139181193743
40
0.37452534451915
40
0.380911723364437
40
0.38729817668081
40
0.393684560492237
40
0.400070727982934
40
0.406429423027701
40
0.412788324481173
40
0.41914729631037
40
0.425506200725232
40
0.431864898253825
40
0.438223570059075
40
0.444582443561265
40
0.450941386105643
40
0.457300263019753
40
0.463658937686704
40
0.470043933631227
40
0.476429130930652
40
0.482814396302114
40
0.489199595389828
40
0.495584592834254
40
0.501943244186252
40
0.508302092315026
40
0.514661006160331
40
0.521019854504418
40
0.527378506037008
40
0.533737153560955
40
0.54009599720646
40
0.546454906685755
40
0.552813751183689
40
0.559172399422598
40
0.565557829670503
40
0.571943459499745
40
0.578329155314674
40
0.584714784095132
40
0.591100213463385
40
0.597458876376343
40
0.603817737940282
40
0.610176664573583
40
0.616535523937797
40
0.622894185005766
40
0.629252863119379
40
0.63561174313071
40
0.64197068954303
40
0.648329567827514
40
0.654688244492758
40
0.661075841634928
40
0.667463648413096
40
0.673851522958488
40
0.680239325703979
40
0.686626919463792
40
0.692985653553288
40
0.699344600356203
40
0.705703615278974
40
0.712062556769299
40
0.718421286402925
40
0.724780059161618
40
0.731139052647484
40
0.737498116955194
40
0.743857105185166
40
0.750215873535536
40
0.756608115940174
40
0.763000593144069
40
0.769393144492953
40
0.775785613838496
40
0.782177849652015
40
0.788536738952494
40
0.7948958719873
40
0.801255080780944
40
0.807614203360258
40
0.81397308389128
40
0.820332049660185
40
0.826691274717888
40
0.833050580056875
40
0.83940979339562
40
0.845768749335322
40
0.851785572244544
40
0.857802550022025
40
0.863819523895427
40
0.869836341480766
40
0.875797459670631
40
0.881758737650217
40
0.887720010613829
40
0.893681121963544
40
0.899642294792991
40
0.905603638657512
40
0.911564977092704
40
0.917526142518308
40
0.922295118600686
40
0.927064237952025
40
0.931833400860414
40
0.936602512215301
40
0.941371481590776
40
0.946146105465433
40
0.950920885785809
40
0.955695713170166
40
0.960470483806923
40
0.96524509955957
40
0.970014215838309
40
0.974783503647171
40
0.979552842583766
40
0.984322118870471
40
0.989091225485119
40
0.99386739348899
40
0.998643753150372
40
1
40
1
40
1
40
1
41
1
10
-1.69996579751816
20
2.3439945435084
30
0
41
1
10
-1.69996612242068
20
2.3660703945272
30
0
41
1
10
-1.69996676599268
20
2.41015090286334
30
0
41
1
10
-1.69996771261636
20
2.47605686717243
30
0
41
1
10
-1.69996864052676
20
2.5417459584132
30
0
41
1
10
-1.69996954940724
20
2.6071952954691
30
0
41
1
10
-1.69997043939312
20
2.6724046465795
30
0
41
1
10
-1.69997131030937
20
2.73737370489709
30
0
41
1
10
-1.69997216212822
20
2.80212216922942
30
0
41
1
10
-1.69997303028922
20
2.86942085466674
30
0
41
1
10
-1.69997391156758
20
2.93923580280961
30
0
41
1
10
-1.69997480315029
20
3.01153043139536
30
0
41
1
10
-1.69997567040541
20
3.08354106564826
30
0
41
1
10
-1.69997651356834
20
3.15526441556151
30
0
41
1
10
-1.69997733254162
20
3.22666305065809
30
0
41
1
10
-1.69997812744667
20
3.29773824427545
30
0
41
1
10
-1.6999788985374
20
3.36849127064663
30
0
41
1
10
-1.69997964666556
20
3.4389572284027
30
0
41
1
10
-1.69998037219959
20
3.50913351494434
30
0
41
1
10
-1.69998107578815
20
3.57904655059393
30
0
41
1
10
-1.69998175789922
20
3.64869676031914
30
0
41
1
10
-1.69998241898372
20
3.71808443127403
30
0
41
1
10
-1.69998305912482
20
3.78718168475423
30
0
41
1
10
-1.69998367869055
20
3.85598631154
30
0
41
1
10
-1.69998427780191
20
3.92446996780317
30
0
41
1
10
-1.69998485690166
20
3.99263396752795
30
0
41
1
10
-1.69998541657051
20
4.06047952914795
30
0
41
1
10
-1.69998595754723
20
4.12803353747203
30
0
41
1
10
-1.6999864803225
20
4.19529409241293
30
0
41
1
10
-1.69998698561063
20
4.26228258324794
30
0
41
1
10
-1.69998747375966
20
4.32899931621843
30
0
41
1
10
-1.69998794504289
20
4.39544459624518
30
0
41
1
10
-1.69998839976831
20
4.46159619892808
30
0
41
1
10
-1.69998883836408
20
4.52745253815139
30
0
41
1
10
-1.69998929626502
20
4.59844908618541
30
0
41
1
10
-1.69998976943331
20
4.67449525845762
30
0
41
1
10
-1.69999025363783
20
4.75549004498703
30
0
41
1
10
-1.69999071580161
20
4.83602373376709
30
0
41
1
10
-1.69999115777847
20
4.91630999481677
30
0
41
1
10
-1.69999158001055
20
4.9963451381406
30
0
41
1
10
-1.69999198317158
20
5.07612540813765
30
0
41
1
10
-1.69999236700321
20
5.15543555906557
30
0
41
1
10
-1.69999273140481
20
5.23406388203623
30
0
41
1
10
-1.69999307738624
20
5.31201470849937
30
0
41
1
10
-1.69999340560463
20
5.38929241409033
30
0
41
1
10
-1.69999371752819
20
5.4661055150772
30
0
41
1
10
-1.69999401362569
20
5.54245277883016
30
0
41
1
10
-1.69999429459244
20
5.61833480560373
30
0
41
1
10
-1.69999456125915
20
5.69375172381316
30
0
41
1
10
-1.69999481420633
20
5.76870232754076
30
0
41
1
10
-1.69999505416259
20
5.84318520391693
30
0
41
1
10
-1.69999528150545
20
5.91720010726441
30
0
41
1
10
-1.69999549650078
20
5.99074718942914
30
0
41
1
10
-1.69999569976161
20
6.06382579298078
30
0
41
1
10
-1.69999589636036
20
6.13817409809277
30
0
41
1
10
-1.69999608606989
20
6.21375257776918
30
0
41
1
10
-1.69999626855952
20
6.29051954225389
30
0
41
1
10
-1.69999643990347
20
6.36674643718131
30
0
41
1
10
-1.69999660056061
20
6.44243038443333
30
0
41
1
10
-1.69999675072973
20
6.51745035546202
30
0
41
1
10
-1.69999689094843
20
6.5918103885103
30
0
41
1
10
-1.69999702174804
20
6.66551441560417
30
0
41
1
10
-1.69999714379065
20
6.73867960258818
30
0
41
1
10
-1.69999725750823
20
6.81130314134095
30
0
41
1
10
-1.69999736338343
20
6.88338352705535
30
0
41
1
10
-1.69999746170884
20
6.95492056168268
30
0
41
1
10
-1.69999755265234
20
7.02591440148312
30
0
41
1
10
-1.69999763657096
20
7.09636431314721
30
0
41
1
10
-1.69999771377134
20
7.16626786424129
30
0
41
1
10
-1.69999778466466
20
7.2357238532074
30
0
41
1
10
-1.69999784957292
20
7.30472917275314
30
0
41
1
10
-1.69999790868012
20
7.37328027614902
30
0
41
1
10
-1.69999796205885
20
7.44127703693803
30
0
41
1
10
-1.69999800988865
20
7.50871671459502
30
0
41
1
10
-1.69999805227544
20
7.57550177388589
30
0
41
1
10
-1.69999808945128
20
7.64163541431597
30
0
41
1
10
-1.69999812159106
20
7.70712048916739
30
0
41
1
10
-1.69999814885882
20
7.7720500386602
30
0
41
1
10
-1.69999817137188
20
7.83642105426832
30
0
41
1
10
-1.69999818925552
20
7.90023152885286
30
0
41
1
10
-1.69999820259691
20
7.96348071065425
30
0
41
1
10
-1.69999821138997
20
8.02616834508153
30
0
41
1
10
-1.69999821566707
20
8.08829305987291
30
0
41
1
10
-1.69999821544876
20
8.14985224446487
30
0
41
1
10
-1.69999821075625
20
8.21092877488276
30
0
41
1
10
-1.69999820157779
20
8.27151875115829
30
0
41
1
10
-1.69999818782175
20
8.33161785482458
30
0
41
1
10
-1.69999816944727
20
8.39114093902203
30
0
41
1
10
-1.69999814639611
20
8.45008499212932
30
0
41
1
10
-1.6999981186505
20
8.50836757758103
30
0
41
1
10
-1.69999808617055
20
8.56599119699136
30
0
41
1
10
-1.69999804880202
20
8.62295802206794
30
0
41
1
10
-1.69999800632601
20
8.67934492463908
30
0
41
1
10
-1.69999795857657
20
8.73514854859721
30
0
41
1
10
-1.69999790535334
20
8.79036646418814
30
0
41
1
10
-1.69999784658098
20
8.84499695885436
30
0
41
1
10
-1.69999778209748
20
8.89903886288666
30
0
41
1
10
-1.69999771161678
20
8.95249025299632
30
0
41
1
10
-1.69999763488056
20
9.00534814625774
30
0
41
1
10
-1.69999755152986
20
9.05768406885757
30
0
41
1
10
-1.6999974611894
20
9.10949325573566
30
0
41
1
10
-1.69999736346369
20
9.16077033676829
30
0
41
1
10
-1.6999972582193
20
9.21144021124627
30
0
41
1
10
-1.69999714516921
20
9.26149926308435
30
0
41
1
10
-1.69999702420737
20
9.31087541208629
30
0
41
1
10
-1.69999689506991
20
9.35957053168207
30
0
41
1
10
-1.69999675728063
20
9.40758628911836
30
0
41
1
10
-1.69999661016139
20
9.45498759231316
30
0
41
1
10
-1.69999645323204
20
9.50177052180173
30
0
41
1
10
-1.69999628593179
20
9.54793206040911
30
0
41
1
10
-1.69999610799175
20
9.59346936496276
30
0
41
1
10
-1.69999591908909
20
9.63838007468818
30
0
41
1
10
-1.69999571861339
20
9.68266148962772
30
0
41
1
10
-1.69999550601455
20
9.7263099427576
30
0
41
1
10
-1.69999528045768
20
9.7693879690811
30
0
41
1
10
-1.69999504107306
20
9.81188945160707
30
0
41
1
10
-1.69999478702117
20
9.85380749439755
30
0
41
1
10
-1.69999451820638
20
9.89507425282333
30
0
41
1
10
-1.69999423409129
20
9.93568521941329
30
0
41
1
10
-1.69999393461467
20
9.97557617241029
30
0
41
1
10
-1.69999361930771
20
10.0147483685141
30
0
41
1
10
-1.69999328730147
20
10.0532028243903
30
0
41
1
10
-1.69999293718236
20
10.0909942658102
30
0
41
1
10
-1.69999256806462
20
10.1281177947965
30
0
41
1
10
-1.69999217885872
20
10.1645692906338
30
0
41
1
10
-1.69999176920418
20
10.2003447371122
30
0
41
1
10
-1.69999133869334
20
10.235440479533
30
0
41
1
10
-1.6999908861981
20
10.2698524851402
30
0
41
1
10
-1.6999904107571
20
10.3035759121763
30
0
41
1
10
-1.69998991061206
20
10.3366648011913
30
0
41
1
10
-1.69998938419918
20
10.3691105152724
30
0
41
1
10
-1.69998883012916
20
10.4009036191399
30
0
41
1
10
-1.69998824864038
20
10.4319824824015
30
0
41
1
10
-1.69998763887751
20
10.4623413339119
30
0
41
1
10
-1.6999870012762
20
10.4919232665826
30
0
41
1
10
-1.69998633474121
20
10.5207288254414
30
0
41
1
10
-1.69998563769048
20
10.5487578765268
30
0
41
1
10
-1.69998490775715
20
10.5760544081915
30
0
41
1
10
-1.6999841436795
20
10.6026118364451
30
0
41
1
10
-1.6999833439149
20
10.6284239471495
30
0
41
1
10
-1.69998250801884
20
10.6534856380379
30
0
41
1
10
-1.69998163508393
20
10.6777917861197
30
0
41
1
10
-1.69998072309391
20
10.7013357662292
30
0
41
1
10
-1.69997977034933
20
10.7241106002297
30
0
41
1
10
-1.69997879290239
20
10.7457155046249
30
0
41
1
10
-1.69997779168171
20
10.766191707731
30
0
41
1
10
-1.69997676842339
20
10.7855801282915
30
0
41
1
10
-1.69997570354649
20
10.8042559040246
30
0
41
1
10
-1.69997459968839
20
10.8221574330327
30
0
41
1
10
-1.69997345584007
20
10.8392869942767
30
0
41
1
10
-1.699972270053
20
10.8556458849688
30
0
41
1
10
-1.69997103719778
20
10.871280076025
30
0
41
1
10
-1.69996975498735
20
10.8861824063186
30
0
41
1
10
-1.69996842310213
20
10.9003459416392
30
0
41
1
10
-1.69996704109636
20
10.9137638114812
30
0
41
1
10
-1.69996560655206
20
10.9264285863535
30
0
41
1
10
-1.69996421702352
20
10.9375393772494
30
0
41
1
10
-1.69996288237661
20
10.9472575378816
30
0
41
1
10
-1.69996161284907
20
10.9557322539913
30
0
41
1
10
-1.69996030529125
20
10.9637066765373
30
0
41
1
10
-1.69995895906196
20
10.9711762451104
30
0
41
1
10
-1.69995757301354
20
10.9781391703646
30
0
41
1
10
-1.69995614638407
20
10.9845906775241
30
0
41
1
10
-1.69995467779522
20
10.9905255624594
30
0
41
1
10
-1.69995316656029
20
10.9959362044957
30
0
41
1
10
-1.69995161149513
20
11.0008175057901
30
0
41
1
10
-1.69995001179579
20
11.0051627934334
30
0
41
1
10
-1.6999483668597
20
11.008967641953
30
0
41
1
10
-1.69994667631386
20
11.0122272408325
30
0
41
1
10
-1.69994493833782
20
11.0149375653012
30
0
41
1
10
-1.69994315196715
20
11.017092982899
30
0
41
1
10
-1.6999413153198
20
11.0186887576837
30
0
41
1
10
-1.69993942700851
20
11.019718109571
30
0
41
1
10
-1.69993794848434
20
11.0200652372054
30
0
41
1
10
-1.6999378200153
20
11.020100973915
30
0
41
1
10
-1.69993649740843
20
11.0201003516381
30
0
0
SPLINE
5
1BD
100
AcDbEntity
8
SK1
62
256
6
ByLayer
370
18
48
1
60
0
100
AcDbSpline
70
4
71
1
72
4
73
2
40
0
40
0
40
1
40
1
41
1
10
-0.200000005442477
20
-5.19680794508643
30
0
41
1
10
-0.200000000000024
20
-5.19704273475741
30
0
0
SPLINE
5
1BE
100
AcDbEntity
8
SK1
62
256
6
ByLayer
370
18
48
1
60
0
100
AcDbSpline
70
4
71
3
72
56
73
52
40
0
40
0
40
0
40
0
40
0.006761977803773
40
0.0135269305323183
40
0.0202862674469568
40
0.0267830416041125
40
0.0332985254108644
40
0.0398040673120295
40
0.0462872414211212
40
0.0521410840405516
40
0.0580083003715619
40
0.0638565508237443
40
0.0687945473933698
40
0.0737553583851286
40
0.0787182750302334
40
0.0836591559812431
40
0.0901806402150962
40
0.0967222718444798
40
0.103252676238906
40
0.111520841104774
40
0.119815655037805
40
0.128136809107207
40
0.136463473585915
40
0.144758445906575
40
0.158463924577422
40
0.172188079311001
40
0.185938389559093
40
0.199707080911171
40
0.213473697136566
40
0.227207536549772
40
0.249071547844972
40
0.270947041726457
40
0.292833206360783
40
0.314721310082174
40
0.336595903415434
40
0.363455754779285
40
0.390320433482466
40
0.417186978949584
40
0.444049376325915
40
0.479749964521235
40
0.515453542930182
40
0.551155312678759
40
0.596135057302628
40
0.641121165529632
40
0.686111498544725
40
0.731101527369666
40
0.776084560725257
40
0.832135438644148
40
0.888190841404337
40
0.944247259296514
40
1
40
1
40
1
40
1
41
1
10
-0.399999999985102
20
-4.48934893106662
30
0
41
1
10
-0.398641680617972
20
-4.48813637790511
30
0
41
1
10
-0.395861537254683
20
-4.48578185653582
30
0
41
1
10
-0.391510700516363
20
-4.48244674564057
30
0
41
1
10
-0.387016209409357
20
-4.47940010626899
30
0
41
1
10
-0.382372731759284
20
-4.47666901489298
30
0
41
1
10
-0.377578401011622
20
-4.47429566096089
30
0
41
1
10
-0.372572668628812
20
-4.47230817610865
30
0
41
1
10
-0.36753459784706
20
-4.47082570142115
30
0
41
1
10
-0.362497488924908
20
-4.46987644248746
30
0
41
1
10
-0.35751645354501
20
-4.46944405219786
30
0
41
1
10
-0.352724276219822
20
-4.46952891394603
30
0
41
1
10
-0.348183107254819
20
-4.47009223094407
30
0
41
1
10
-0.343930802337096
20
-4.47101923764999
30
0
41
1
10
-0.339746804842
20
-4.47231613210516
30
0
41
1
10
-0.335239001469037
20
-4.47414320826429
30
0
41
1
10
-0.330488622479824
20
-4.47661683026292
30
0
41
1
10
-0.325580466908244
20
-4.47977183707953
30
0
41
1
10
-0.320534768346225
20
-4.48363002004143
30
0
41
1
10
-0.315430354752953
20
-4.48821813413891
30
0
41
1
10
-0.310333459648395
20
-4.49354128290212
30
0
41
1
10
-0.305601663144882
20
-4.49917611521868
30
0
41
1
10
-0.30120483248202
20
-4.50503873302744
30
0
41
1
10
-0.296213872250199
20
-4.51237718561701
30
0
41
1
10
-0.290783264696331
20
-4.52126023360704
30
0
41
1
10
-0.285101566978918
20
-4.53175597678224
30
0
41
1
10
-0.27992926511922
20
-4.54246332161268
30
0
41
1
10
-0.275199302773555
20
-4.55332495198965
30
0
41
1
10
-0.270848137754887
20
-4.56428513725729
30
0
41
1
10
-0.265998907145592
20
-4.57747756686728
30
0
41
1
10
-0.260797515538789
20
-4.59292702735731
30
0
41
1
10
-0.255450429152017
20
-4.61066322694172
30
0
41
1
10
-0.250612362073943
20
-4.62846853610875
30
0
41
1
10
-0.246216796430138
20
-4.64631264519422
30
0
41
1
10
-0.241880192109204
20
-4.66552979939609
30
0
41
1
10
-0.237632797227068
20
-4.68611097547273
30
0
41
1
10
-0.233542095048236
20
-4.70805087053365
30
0
41
1
10
-0.229836311614706
20
-4.72997993636993
30
0
41
1
10
-0.226099125604657
20
-4.75429121130544
30
0
41
1
10
-0.222411481273267
20
-4.78096855586471
30
0
41
1
10
-0.218866154541808
20
-4.80999082897739
30
0
41
1
10
-0.21547001636923
20
-4.84146043459899
30
0
41
1
10
-0.212283643205528
20
-4.87535264368692
30
0
41
1
10
-0.209383915042131
20
-4.91163838776331
30
0
41
1
10
-0.206959716865966
20
-4.94781062932738
30
0
41
1
10
-0.204963585762503
20
-4.98386290621755
30
0
41
1
10
-0.203213269007964
20
-5.02273968189297
30
0
41
1
10
-0.201772108075429
20
-5.06440534681943
30
0
41
1
10
-0.200721882683504
20
-5.10881838352363
30
0
41
1
10
-0.200127205999952
20
-5.15296269263563
30
0
41
1
10
-0.199996323373367
20
-5.18224021730161
30
0
41
1
10
-0.200000005442477
20
-5.19680794508643
30
0
0
SPLINE
5
1BF
100
AcDbEntity
8
SK1
62
256
6
ByLayer
370
18
48
1
60
0
100
AcDbSpline
70
4
71
3
72
54
73
50
40
0
40
0
40
0
40
0
40
0.0100145198681333
40
0.0200255438856703
40
0.026623933682398
40
0.0332412927551338
40
0.0398485125021426
40
0.0464330322424895
40
0.0523397205383355
40
0.0582597496352186
40
0.0641607805511718
40
0.0707945712363089
40
0.0774571626042099
40
0.0840949747093734
40
0.0906627303797025
40
0.0972508515109159
40
0.103827552818743
40
0.11219134640825
40
0.120582570736459
40
0.129000955711548
40
0.137425045194892
40
0.145816501919456
40
0.159678719977209
40
0.173560019513044
40
0.187468111601938
40
0.201395054210068
40
0.215319900139765
40
0.229211204172222
40
0.25121226989176
40
0.273224878848373
40
0.295248200262366
40
0.317273459353914
40
0.339285140919699
40
0.366285627062472
40
0.393290961617004
40
0.420298168101023
40
0.447301207301069
40
0.483188722551737
40
0.519079244187067
40
0.554967947164691
40
0.600358094304271
40
0.645754702770763
40
0.691155609150867
40
0.736556213565282
40
0.781949712645892
40
0.838511175100991
40
0.89507722248702
40
0.951644300929252
40
1
40
1
40
1
40
1
41
1
10
-0.399999999987723
20
10.7720903551645
30
0
41
1
10
-0.398007464135245
20
10.77229193478
30
0
41
1
10
-0.393881897763346
20
10.772754327602
30
0
41
1
10
-0.388039443234334
20
10.7735134227531
30
0
41
1
10
-0.382645051174228
20
10.774309014873
30
0
41
1
10
-0.377829209268886
20
10.7750884374212
30
0
41
1
10
-0.372799415073767
20
10.7759792220378
30
0
41
1
10
-0.36774562449258
20
10.7769552640778
30
0
41
1
10
-0.362702565348116
20
10.7780123914308
30
0
41
1
10
-0.357725706431298
20
10.7791340734224
30
0
41
1
10
-0.352465564319599
20
10.7804045440389
30
0
41
1
10
-0.346974461160065
20
10.7818346513121
30
0
41
1
10
-0.341351558262514
20
10.7834051733395
30
0
41
1
10
-0.335906368363041
20
10.7850290012985
30
0
41
1
10
-0.330719277938862
20
10.7866781535406
30
0
41
1
10
-0.325806416778406
20
10.7883286207937
30
0
41
1
10
-0.320745348003339
20
10.7901189046776
30
0
41
1
10
-0.315617182170567
20
10.792031522789
30
0
41
1
10
-0.310490744202667
20
10.7940487738739
30
0
41
1
10
-0.305732315871578
20
10.7960180800998
30
0
41
1
10
-0.301311788268641
20
10.7979332721613
30
0
41
1
10
-0.296295793298888
20
10.8001973321744
30
0
41
1
10
-0.290839858270201
20
10.8027743239005
30
0
41
1
10
-0.285133681600548
20
10.8056193798904
30
0
41
1
10
-0.279940797663059
20
10.8083488804258
30
0
41
1
10
-0.275193481254211
20
10.8109704939252
30
0
41
1
10
-0.27082760053681
20
10.8134912838429
30
0
41
1
10
-0.265973999214926
20
10.8163968387709
30
0
41
1
10
-0.260776180128486
20
10.8196365749611
30
0
41
1
10
-0.255438373908982
20
10.8231441440541
30
0
41
1
10
-0.250607768865015
20
10.8264811108901
30
0
41
1
10
-0.246218265803373
20
10.8296599718986
30
0
41
1
10
-0.24188883241039
20
10.8329258489697
30
0
41
1
10
-0.237649287765997
20
10.8362548291275
30
0
41
1
10
-0.233566410403529
20
10.8396144352824
30
0
41
1
10
-0.229866904541124
20
10.8427980744725
30
0
41
1
10
-0.226135288131755
20
10.8461479265742
30
0
41
1
10
-0.22245233388518
20
10.8496097958407
30
0
41
1
10
-0.218910502669019
20
10.8531233586239
30
0
41
1
10
-0.215511614102833
20
10.8566800765541
30
0
41
1
10
-0.212318379601176
20
10.8602192682296
30
0
41
1
10
-0.209409668858884
20
10.8636730567215
30
0
41
1
10
-0.206978341274081
20
10.8667906083575
30
0
41
1
10
-0.204976617520742
20
10.8695867251097
30
0
41
1
10
-0.203221573282297
20
10.8722811631323
30
0
41
1
10
-0.201776554362569
20
10.8747975445933
30
0
41
1
10
-0.200723743621051
20
10.8770510034512
30
0
41
1
10
-0.200155025675234
20
10.8787904465816
30
0
41
1
10
-0.200016551665237
20
10.8796881594196
30
0
41
1
10
-0.200004036223494
20
10.8800516520633
30
0
0
SPLINE
5
1C0
100
AcDbEntity
8
SK1
62
256
6
ByLayer
370
18
48
1
60
0
100
AcDbSpline
70
4
71
3
72
76
73
72
40
0
40
0
40
0
40
0
40
0.0365456129496873
40
0.0761482946033748
40
0.115748509572477
40
0.147434421309867
40
0.179123241059675
40
0.210812498587716
40
0.242500295609007
40
0.274185349497602
40
0.297708129051159
40
0.321232129076491
40
0.344755869274488
40
0.368278294498952
40
0.391745035890283
40
0.415213793829413
40
0.438681984402933
40
0.462147952044002
40
0.482836527446638
40
0.503526115237712
40
0.524214214223873
40
0.544501624249077
40
0.564790605150551
40
0.585077088969276
40
0.600301411392321
40
0.615528875783015
40
0.630755229518019
40
0.645978037077887
40
0.65969759194476
40
0.673422144418163
40
0.687144706652291
40
0.700861546496111
40
0.711597762323137
40
0.722344062175914
40
0.733090449421749
40
0.743830390627036
40
0.754561268638144
40
0.761815641675961
40
0.76907408032672
40
0.776331391363453
40
0.783584225840372
40
0.790648697715135
40
0.797719792074421
40
0.804789209672955
40
0.811851392812948
40
0.818329718921967
40
0.824827020836758
40
0.831331601351675
40
0.83783335706299
40
0.84432413103529
40
0.850798093158016
40
0.857277406894909
40
0.863776630087371
40
0.870287192696244
40
0.876799154117446
40
0.883301610513573
40
0.889783086519841
40
0.896812307379279
40
0.903851026747788
40
0.910891642407426
40
0.917923452484562
40
0.924747997992575
40
0.931577816145322
40
0.938408869601199
40
0.945235100859182
40
0.954350241568855
40
0.963474765173619
40
0.972607612799953
40
0.981744558096462
40
0.990878543707051
40
1
40
1
40
1
40
1
41
1
10
-1.23806607120081
20
10.8251483838145
30
0
41
1
10
-1.23350861653494
20
10.8251476996415
30
0
41
1
10
-1.22383233379411
20
10.8250361793598
30
0
41
1
10
-1.20856795228987
20
10.8245153895803
30
0
41
1
10
-1.19334814293571
20
10.8236739499276
30
0
41
1
10
-1.17869328079155
20
10.8226103380361
30
0
41
1
10
-1.1647068481759
20
10.8214006688362
30
0
41
1
10
-1.15023068857104
20
10.8199671190086
30
0
41
1
10
-1.13523432699697
20
10.8183136455445
30
0
41
1
10
-1.12102209952378
20
10.8166046407209
30
0
41
1
10
-1.10772363756814
20
10.814903112779
30
0
41
1
10
-1.09545846784884
20
10.8132633558896
30
0
41
1
10
-1.08282685703667
20
10.8115112198576
30
0
41
1
10
-1.06981717646241
20
10.8096504992771
30
0
41
1
10
-1.05641033922085
20
10.8076836021909
30
0
41
1
10
-1.0425738431189
20
10.805614061726
30
0
41
1
10
-1.02826223149092
20
10.8034438116005
30
0
41
1
10
-1.01402665025748
20
10.8012657878228
30
0
41
1
10
-0.999904434412562
20
10.7990960587071
30
0
41
1
10
-0.985925375622253
20
10.7969501458354
30
0
41
1
10
-0.971540570978907
20
10.7947531426814
30
0
41
1
10
-0.956726556737783
20
10.7925101351974
30
0
41
1
10
-0.941442501121998
20
10.7902278871753
30
0
41
1
10
-0.926859714455245
20
10.7880913491495
30
0
41
1
10
-0.913110417839864
20
10.7861176702907
30
0
41
1
10
-0.900318998784466
20
10.7843208358846
30
0
41
1
10
-0.887077734441607
20
10.7825084006797
30
0
41
1
10
-0.873803628390643
20
10.7807450335931
30
0
41
1
10
-0.860520960259169
20
10.7790357579146
30
0
41
1
10
-0.847241071790728
20
10.7773869218867
30
0
41
1
10
-0.833454317200747
20
10.7757448255787
30
0
41
1
10
-0.820159138411718
20
10.7742343197138
30
0
41
1
10
-0.807455542448987
20
10.7728569545479
30
0
41
1
10
-0.795434249806717
20
10.7716137188379
30
0
41
1
10
-0.782989937215521
20
10.7703945761134
30
0
41
1
10
-0.770101517120264
20
10.7692069835285
30
0
41
1
10
-0.758187294848963
20
10.7681819978668
30
0
41
1
10
-0.747391563370024
20
10.7673117134852
30
0
41
1
10
-0.737842893667652
20
10.7665861170389
30
0
41
1
10
-0.728049582449883
20
10.7658890948631
30
0
41
1
10
-0.718094957865713
20
10.7652303754339
30
0
41
1
10
-0.707978851815238
20
10.7646129679285
30
0
41
1
10
-0.697706534434974
20
10.7640400692191
30
0
41
1
10
-0.687194793853505
20
10.7635110667584
30
0
41
1
10
-0.676749865076775
20
10.7630438804731
30
0
41
1
10
-0.666387778040696
20
10.7626396068859
30
0
41
1
10
-0.656136645013052
20
10.7622965441553
30
0
41
1
10
-0.645717369987542
20
10.7620053599826
30
0
41
1
10
-0.635167609154256
20
10.7617695893927
30
0
41
1
10
-0.624525463306048
20
10.7615927091691
30
0
41
1
10
-0.613814901912915
20
10.7614778817908
30
0
41
1
10
-0.603051939095129
20
10.7614293959673
30
0
41
1
10
-0.592260009760999
20
10.7614456739692
30
0
41
1
10
-0.581476427693595
20
10.7615248393771
30
0
41
1
10
-0.570750562487811
20
10.7616653314967
30
0
41
1
10
-0.560131387561519
20
10.7618653772076
30
0
41
1
10
-0.549356791593855
20
10.762131549568
30
0
41
1
10
-0.538459768636453
20
10.762467394459
30
0
41
1
10
-0.527462863648766
20
10.7628717729002
30
0
41
1
10
-0.516679803849751
20
10.7633310033924
30
0
41
1
10
-0.506232843800948
20
10.763835160524
30
0
41
1
10
-0.496121814316902
20
10.7643782025425
30
0
41
1
10
-0.486334921923911
20
10.7649542019046
30
0
41
1
10
-0.476773566013339
20
10.7655645282211
30
0
41
1
10
-0.466395474439734
20
10.7662769526631
30
0
41
1
10
-0.455283232664487
20
10.7670992434047
30
0
41
1
10
-0.443526343320363
20
10.7680377291289
30
0
41
1
10
-0.4321265528311
20
10.7690117831752
30
0
41
1
10
-0.421072412055724
20
10.7700152381809
30
0
41
1
10
-0.410355646327625
20
10.7710426142126
30
0
41
1
10
-0.403415582063274
20
10.7717390631668
30
0
41
1
10
-0.400000000000013
20
10.7720903551641
30
0
0
SPLINE
5
1C1
100
AcDbEntity
8
SK1
62
256
6
ByLayer
370
18
48
1
60
0
100
AcDbSpline
70
4
71
1
72
4
73
2
40
0
40
0
40
1
40
1
41
1
10
-1.49999999999999
20
10.8251483838183
30
0
41
1
10
-1.2380472093398
20
10.8251483838183
30
0
0
SPLINE
5
1C2
100
AcDbEntity
8
SK1
62
256
6
ByLayer
370
18
48
1
60
0
100
AcDbSpline
70
4
71
3
72
58
73
54
40
0
40
0
40
0
40
0
40
0.0115476554189552
40
0.0310901255599042
40
0.0486692581042438
40
0.0627026229484809
40
0.0751654748339867
40
0.0860563103485252
40
0.0953745617025338
40
0.103121072924658
40
0.108378238605354
40
0.112550751916084
40
0.115648928770893
40
0.117283510019496
40
0.118362796707608
40
0.118729603374637
40
0.118885076529125
40
0.119032287396306
40
0.119619075418187
40
0.139028429138708
40
0.159492751987071
40
0.180074228401826
40
0.207470566373491
40
0.235401681382066
40
0.264880524822324
40
0.291404482411536
40
0.3190928172069
40
0.347944562264581
40
0.377723575057538
40
0.407433597055537
40
0.436921484725884
40
0.466144181951935
40
0.495827053666593
40
0.525145335316361
40
0.554060020496655
40
0.572234644196208
40
0.590222576307909
40
0.608516842518931
40
0.628353656470564
40
0.649770095898382
40
0.672737037825986
40
0.694523822365313
40
0.717485134271881
40
0.741582722382451
40
0.766771902289731
40
0.793001268465883
40
0.820212530760763
40
0.848340497538854
40
0.877313224230817
40
0.907052340831911
40
0.93747356497967
40
0.968487398978826
40
1
40
1
40
1
40
1
41
1
10
-1.69993481969334
20
11.0199644220599
30
0
41
1
10
-1.69993163722858
20
11.0198437321643
30
0
41
1
10
-1.69992256952215
20
11.0195127647231
30
0
41
1
10
-1.6999064723486
20
11.018972472421
30
0
41
1
10
-1.69988650665289
20
11.0183662468788
30
0
41
1
10
-1.69986647140861
20
11.0178060017865
30
0
41
1
10
-1.69984685778059
20
11.0172937152053
30
0
41
1
10
-1.69982697954314
20
11.0168052290619
30
0
41
1
10
-1.69980704375797
20
11.0163414981183
30
0
41
1
10
-1.69978805602406
20
11.0159211706377
30
0
41
1
10
-1.69977032627552
20
11.0155450004637
30
0
41
1
10
-1.69975438499964
20
11.0152184282915
30
0
41
1
10
-1.69973986461439
20
11.0149299581723
30
0
41
1
10
-1.69972662170056
20
11.0146743001593
30
0
41
1
10
-1.69971674872282
20
11.0144873165271
30
0
41
1
10
-1.69970870540557
20
11.0143378445809
30
0
41
1
10
-1.69970469288511
20
11.0142639079067
30
0
41
1
10
-1.69969910479642
20
11.0141614491591
30
0
41
1
10
-1.69957202606289
20
11.0118583244451
30
0
41
1
10
-1.69923610551817
20
11.0072205571368
30
0
41
1
10
-1.69849767315881
20
11.0003245167381
30
0
41
1
10
-1.69738613694603
20
10.9925480796163
30
0
41
1
10
-1.69579808814743
20
10.983981032448
30
0
41
1
10
-1.69357023079115
20
10.974504872693
30
0
41
1
10
-1.69090451745256
20
10.9652460570733
30
0
41
1
10
-1.68780505028117
20
10.9561537717316
30
0
41
1
10
-1.68431105596103
20
10.9472825522306
30
0
41
1
10
-1.68023583058874
20
10.9382509965473
30
0
41
1
10
-1.67560405061777
20
10.9292298117784
30
0
41
1
10
-1.67048000871551
20
10.9203944328394
30
0
41
1
10
-1.6649474733262
20
10.9118851306186
30
0
41
1
10
-1.65899410966937
20
10.9036688233856
30
0
41
1
10
-1.65264413033588
20
10.8957798659565
30
0
41
1
10
-1.64592565913498
20
10.8882500313573
30
0
41
1
10
-1.63976604001153
20
10.8820065508584
30
0
41
1
10
-1.6343103602213
20
10.8769073857344
30
0
41
1
10
-1.62961444060464
20
10.872784466236
30
0
41
1
10
-1.62464499082169
20
10.8686889187134
30
0
41
1
10
-1.61923225552413
20
10.8645185323359
30
0
41
1
10
-1.61323887369377
20
10.8602309321217
30
0
41
1
10
-1.60689930459881
20
10.8560521291035
30
0
41
1
10
-1.60025236680847
20
10.8520289680222
30
0
41
1
10
-1.59334200283405
20
10.8482017728463
30
0
41
1
10
-1.58593354159866
20
10.8444822759416
30
0
41
1
10
-1.57803215270062
20
10.8409262842104
30
0
41
1
10
-1.5696493250739
20
10.8375911163195
30
0
41
1
10
-1.56080342434042
20
10.834534611309
30
0
41
1
10
-1.55152008655451
20
10.8318140066167
30
0
41
1
10
-1.5418325048895
20
10.8294846937942
30
0
41
1
10
-1.53178104531256
20
10.8275988821431
30
0
41
1
10
-1.52141425504385
20
10.826204302013
30
0
41
1
10
-1.51078316501606
20
10.8253427037342
30
0
41
1
10
-1.50361744823536
20
10.8251485171847
30
0
41
1
10
-1.49999999999999
20
10.8251483838118
30
0
0
SPLINE
5
1C3
100
AcDbEntity
8
SK1
62
256
6
ByLayer
370
18
48
1
60
0
100
AcDbSpline
70
4
71
2
72
6
73
3
40
0
40
0
40
0
40
1
40
1
40
1
41
1
10
-19
20
9.99961658101914
30
0
41
1
10
-18.5001472916301
20
10.3054626291052
30
0
41
1
10
-18.0002949072371
20
10.6113090758985
30
0
0
SPLINE
5
1C4
100
AcDbEntity
8
SK1
62
256
6
ByLayer
370
18
48
1
60
0
100
AcDbSpline
70
4
71
3
72
59
73
55
40
0
40
0
40
0
40
0
40
0.0321058315139704
40
0.0637022096166683
40
0.0946931250182141
40
0.124987028118336
40
0.154497722300224
40
0.183145078795795
40
0.210855562075951
40
0.237562564167764
40
0.263206554834372
40
0.28773506166836
40
0.311102499545194
40
0.333269872460501
40
0.35533954354187
40
0.376002738719012
40
0.39523411492531
40
0.413017120885761
40
0.43025544897404
40
0.45802874870871
40
0.486205867960258
40
0.514754423480581
40
0.543639451620919
40
0.573421895102421
40
0.603473722611785
40
0.633750814361009
40
0.664075374142865
40
0.693423902387465
40
0.721584389407089
40
0.74855611055252
40
0.778235259268899
40
0.806369602174693
40
0.818057390493608
40
0.829725557243273
40
0.841371541210599
40
0.85299281243998
40
0.864586875202239
40
0.876245367990435
40
0.88702692581368
40
0.898403852667286
40
0.899526666800376
40
0.900006667596328
40
0.901329492355452
40
0.903193162607014
40
0.90656030596946
40
0.910956941563045
40
0.91639299352001
40
0.924294676534413
40
0.933703585670431
40
0.944620944801844
40
0.957046527665069
40
0.970979147290757
40
0.988043367303014
40
1
40
1
40
1
40
1
41
1
10
-1.49999999999999
20
-10.825148341587
30
0
41
1
10
-1.50362516555079
20
-10.8251484761826
30
0
41
1
10
-1.51080597112543
20
-10.8253434858904
30
0
41
1
10
-1.52145908758311
20
-10.8262087036889
30
0
41
1
10
-1.53184652064324
20
-10.8276090220466
30
0
41
1
10
-1.54191694370671
20
-10.8295023877419
30
0
41
1
10
-1.55162154928082
20
-10.8318407243205
30
0
41
1
10
-1.5609197826383
20
-10.8345714494739
30
0
41
1
10
-1.56977832582606
20
-10.8376387857386
30
0
41
1
10
-1.57817148174133
20
-10.8409851107502
30
0
41
1
10
-1.58608088056421
20
-10.8445522127184
30
0
41
1
10
-1.59349508236738
20
-10.848282424807
30
0
41
1
10
-1.60040899826486
20
-10.8521196151317
30
0
41
1
10
-1.60693268965046
20
-10.8560764129123
30
0
41
1
10
-1.61304907140601
20
-10.8601068240601
30
0
41
1
10
-1.61874580766426
20
-10.8641635585777
30
0
41
1
10
-1.62391797420346
20
-10.868116534123
30
0
41
1
10
-1.62866423863011
20
-10.8719854251926
30
0
41
1
10
-1.63402261467132
20
-10.8766242774831
30
0
41
1
10
-1.6400591339932
20
-10.8822665230709
30
0
41
1
10
-1.64671221735304
20
-10.8891033368188
30
0
41
1
10
-1.65311275884274
20
-10.8963459041453
30
0
41
1
10
-1.65926709288709
20
-10.9040325978254
30
0
41
1
10
-1.6651317968348
20
-10.9121532544692
30
0
41
1
10
-1.67066329995259
20
-10.9206924793767
30
0
41
1
10
-1.67578229265463
20
-10.929556087341
30
0
41
1
10
-1.68040386127086
20
-10.9385999232952
30
0
41
1
10
-1.68446481620429
20
-10.9476473144594
30
0
41
1
10
-1.6879424757448
20
-10.9565288774197
30
0
41
1
10
-1.69101377368721
20
-10.9655980368543
30
0
41
1
10
-1.69364611457938
20
-10.9748019317012
30
0
41
1
10
-1.69543213193906
20
-10.9824431591518
30
0
41
1
10
-1.69656332243175
20
-10.9881435063677
30
0
41
1
10
-1.69725553231189
20
-10.992033010747
30
0
41
1
10
-1.69786965852806
20
-10.9959279290898
30
0
41
1
10
-1.69840583022882
20
-10.9998261061241
30
0
41
1
10
-1.69886536185073
20
-11.0037347264132
30
0
41
1
10
-1.69923897246307
20
-11.0075600310549
30
0
41
1
10
-1.69953127067538
20
-11.0112954289915
30
0
41
1
10
-1.69967483734999
20
-11.0136570514499
30
0
41
1
10
-1.69974546193646
20
-11.015041071732
30
0
41
1
10
-1.69975693037139
20
-11.0152709428318
30
0
41
1
10
-1.69976676365575
20
-11.0154720757634
30
0
41
1
10
-1.69977978541359
20
-11.0157446515339
30
0
41
1
10
-1.6997937902675
20
-11.0160473759328
30
0
41
1
10
-1.69980880822524
20
-11.0163835500196
30
0
41
1
10
-1.69982512767733
20
-11.0167633444162
30
0
41
1
10
-1.69984223061462
20
-11.0171804278763
30
0
41
1
10
-1.6998598206418
20
-11.0176331414303
30
0
41
1
10
-1.69987701689446
20
-11.0181026566932
30
0
41
1
10
-1.69989367693072
20
-11.0185880781377
30
0
41
1
10
-1.69991028901208
20
-11.0191081446099
30
0
41
1
10
-1.69992420927319
20
-11.0195831804587
30
0
41
1
10
-1.69993245436449
20
-11.0198868385502
30
0
41
1
10
-1.69993562747777
20
-11.0200085306332
30
0
0
SPLINE
5
1C5
100
AcDbEntity
8
SK1
62
256
6
ByLayer
370
18
48
1
60
0
100
AcDbSpline
70
4
71
1
72
4
73
2
40
0
40
0
40
1
40
1
41
1
10
-1.23802920586218
20
-10.8251483415938
30
0
41
1
10
-1.49999999999999
20
-10.8251483415938
30
0
0
SPLINE
5
1C6
100
AcDbEntity
8
SK1
62
256
6
ByLayer
370
18
48
1
60
0
100
AcDbSpline
70
4
71
1
72
4
73
2
40
0
40
0
40
1
40
1
41
1
10
-0.200000006389663
20
5.1967884357316
30
0
41
1
10
-0.200000000000027
20
5.19704283599542
30
0
0
SPLINE
5
1C7
100
AcDbEntity
8
SK1
62
256
6
ByLayer
370
18
48
1
60
0
100
AcDbSpline
70
4
71
2
72
6
73
3
40
0
40
0
40
0
40
1
40
1
40
1
41
1
10
-18.0002916508393
20
-10.6098973116691
30
0
41
1
10
-18.5001458312575
20
-10.3041895565537
30
0
41
1
10
-19
20
-9.99848199241104
30
0
0
SPLINE
5
1C8
100
AcDbEntity
8
1
62
256
6
ByLayer
370
18
48
1
60
0
100
AcDbSpline
70
4
71
3
72
12
73
8
40
0
40
0
40
0
40
0
40
0.114001529806513
40
0.406384067338604
40
0.66708691042173
40
0.84595180371983
40
1
40
1
40
1
40
1
41
1
10
80.3968371470106
20
0.436487737050811
30
0
41
1
10
80.3917763906678
20
0.461605030710359
30
0
41
1
10
80.3709767727019
20
0.548868354539593
30
0
41
1
10
80.3258632865897
20
0.658669022327445
30
0
41
1
10
80.2415067353333
20
0.801094330596641
30
0
41
1
10
80.0840812053285
20
0.922630207327245
30
0
41
1
10
79.9676936596624
20
0.941616288253385
30
0
41
1
10
79.9070947777373
20
0.943744146077165
30
0
0
SPLINE
5
1C9
100
AcDbEntity
8
1
62
256
6
ByLayer
370
18
48
1
60
0
100
AcDbSpline
70
4
71
3
72
8
73
4
40
0
40
0
40
0
40
0
40
1
40
1
40
1
40
1
41
1
10
71.2831049070654
20
-0.214783862971501
30
0
41
1
10
72.2831049070654
20
-0.214783862971501
30
0
41
1
10
73.2831049070654
20
-0.214783862971501
30
0
41
1
10
74.2831049070654
20
-0.214783862971501
30
0
0
SPLINE
5
1CA
100
AcDbEntity
8
1
62
256
6
ByLayer
370
18
48
1
60
0
100
AcDbSpline
70
4
71
3
72
8
73
4
40
0
40
0
40
0
40
0
40
1
40
1
40
1
40
1
41
1
10
71.2831049070654
20
-1.13020980310967
30
0
41
1
10
71.2831049070654
20
-0.825067823063591
30
0
41
1
10
71.2831049070654
20
-0.519925843017575
30
0
41
1
10
71.2831049070654
20
-0.214783862971501
30
0
0
SPLINE
5
1CB
100
AcDbEntity
8
1
62
256
6
ByLayer
370
18
48
1
60
0
100
AcDbSpline
70
4
71
3
72
18
73
14
40
0
40
0
40
0
40
0
40
0.191325435437369
40
0.191325435437369
40
0.382650870874736
40
0.382650870874736
40
0.536214707212623
40
0.536214707212623
40
0.690626528447001
40
0.690626528447001
40
0.845885455798056
40
0.845885455798056
40
1
40
1
40
1
40
1
41
1
10
72.8794211004653
20
-1.57533643396153
30
0
41
1
10
72.8256989208797
20
-1.72023282690088
30
0
41
1
10
72.7351386752926
20
-1.83197496043891
30
0
41
1
10
72.4788071326986
20
-1.98792277317875
30
0
41
1
10
72.3276175701506
20
-2.02721671024705
30
0
41
1
10
72.0121916300125
20
-2.02721671024705
30
0
41
1
10
71.8817234795903
20
-2.00327196734605
30
0
41
1
10
71.6400757746687
20
-1.90845987420482
30
0
41
1
10
71.5471110467431
20
-1.849780025673
30
0
41
1
10
71.4162850209738
20
-1.70941139567117
30
0
41
1
10
71.3667580152772
20
-1.62261195199682
30
0
41
1
10
71.2994704599307
20
-1.41218541527678
30
0
41
1
10
71.2831049070654
20
-1.28247380924933
30
0
41
1
10
71.2831049070654
20
-1.13020980310967
30
0
0
SPLINE
5
1CC
100
AcDbEntity
8
1
62
256
6
ByLayer
370
18
48
1
60
0
100
AcDbSpline
70
4
71
3
72
18
73
14
40
0
40
0
40
0
40
0
40
0.252026352812657
40
0.252026352812657
40
0.40561296454716
40
0.40561296454716
40
0.559855857535999
40
0.559855857535999
40
0.714098750524839
40
0.714098750524839
40
0.85720187902004
40
0.85720187902004
40
1
40
1
40
1
40
1
41
1
10
74.2831049070654
20
-0.214783862971501
30
0
41
1
10
74.2831049070654
20
-0.515014100884002
30
0
41
1
10
74.2831049070654
20
-0.81524433879656
30
0
41
1
10
74.2831049070654
20
-1.29843697118332
30
0
41
1
10
74.2524065187308
20
-1.44578923518947
30
0
41
1
10
74.1308888135025
20
-1.66728986244118
30
0
41
1
10
74.0375178003885
20
-1.75400105406897
30
0
41
1
10
73.7857910160447
20
-1.87925047847421
30
0
41
1
10
73.6537879462059
20
-1.9105628345755
30
0
41
1
10
73.3874794274031
20
-1.9105628345755
30
0
41
1
10
73.2669882531897
20
-1.88293428507438
30
0
41
1
10
73.0400622705511
20
-1.77131123415484
30
0
41
1
10
72.9484924742181
20
-1.68769253526619
30
0
41
1
10
72.8794211004653
20
-1.57533643396153
30
0
0
SPLINE
5
1CD
100
AcDbEntity
8
1
62
256
6
ByLayer
370
18
48
1
60
0
100
AcDbSpline
70
4
71
3
72
8
73
4
40
0
40
0
40
0
40
0
40
1
40
1
40
1
40
1
41
1
10
71.6514855670808
20
-1.34632645698531
30
0
41
1
10
71.6676022209564
20
-1.41938862122169
30
0
41
1
10
71.6952307704576
20
-1.48017143012424
30
0
41
1
10
71.7336037558758
20
-1.52928885145963
30
0
0
SPLINE
5
1CE
100
AcDbEntity
8
1
62
256
6
ByLayer
370
18
48
1
60
0
100
AcDbSpline
70
4
71
3
72
10
73
6
40
0
40
0
40
0
40
0
40
0.660338983050847
40
0.660338983050847
40
1
40
1
40
1
40
1
41
1
10
71.6369038326218
20
-0.532205198351392
30
0
41
1
10
71.6369038326218
20
-0.731540066604168
30
0
41
1
10
71.6369038326218
20
-0.930874934856888
30
0
41
1
10
71.6369038326218
20
-1.23274242014725
30
0
41
1
10
71.641508590872
20
-1.30457664885023
30
0
41
1
10
71.6514855670808
20
-1.34632645698531
30
0
0
SPLINE
5
1CF
100
AcDbEntity
8
1
62
256
6
ByLayer
370
18
48
1
60
0
100
AcDbSpline
70
4
71
3
72
8
73
4
40
0
40
0
40
0
40
0
40
1
40
1
40
1
40
1
41
1
10
72.6683696806648
20
-0.532205198351392
30
0
41
1
10
72.3245477313171
20
-0.532205198351392
30
0
41
1
10
71.9807257819695
20
-0.532205198351392
30
0
41
1
10
71.6369038326218
20
-0.532205198351392
30
0
0
SPLINE
5
1D0
100
AcDbEntity
8
1
62
256
6
ByLayer
370
18
48
1
60
0
100
AcDbSpline
70
4
71
3
72
18
73
14
40
0
40
0
40
0
40
0
40
0.144086644560488
40
0.144086644560488
40
0.287731062505122
40
0.287731062505122
40
0.456860780407674
40
0.456860780407674
40
0.627194363444235
40
0.627194363444235
40
0.795871414023979
40
0.795871414023979
40
1
40
1
40
1
40
1
41
1
10
71.7336037558758
20
-1.52928885145963
30
0
41
1
10
71.7712092815858
20
-1.57840627279501
30
0
41
1
10
71.8272338402964
20
-1.61892814539669
30
0
41
1
10
71.9728274156703
20
-1.68268280577098
30
0
41
1
10
72.057471752806
20
-1.69812998729998
30
0
41
1
10
72.2646858740646
20
-1.69812998729998
30
0
41
1
10
72.362153257027
20
-1.67541317993238
30
0
41
1
10
72.5269741517889
20
-1.58299024829023
30
0
41
1
10
72.584716572453
20
-1.52007933495923
30
0
41
1
10
72.6519246231748
20
-1.35755804866835
30
0
41
1
10
72.6683696806648
20
-1.24011003334755
30
0
41
1
10
72.6683696806648
20
-0.902223105744611
30
0
41
1
10
72.6683696806648
20
-0.71721415204803
30
0
41
1
10
72.6683696806648
20
-0.532205198351392
30
0
0
SPLINE
5
1D1
100
AcDbEntity
8
1
62
256
6
ByLayer
370
18
48
1
60
0
100
AcDbSpline
70
4
71
3
72
8
73
4
40
0
40
0
40
0
40
0
40
1
40
1
40
1
40
1
41
1
10
73.929305981509
20
-0.532205198351392
30
0
41
1
10
73.6269268564131
20
-0.532205198351392
30
0
41
1
10
73.3245477313171
20
-0.532205198351392
30
0
41
1
10
73.0221686062212
20
-0.532205198351392
30
0
0
SPLINE
5
1D2
100
AcDbEntity
8
1
62
256
6
ByLayer
370
18
48
1
60
0
100
AcDbSpline
70
4
71
3
72
22
73
18
40
0
40
0
40
0
40
0
40
0.125919801008142
40
0.125919801008142
40
0.228173823812626
40
0.228173823812626
40
0.362000949327648
40
0.362000949327648
40
0.497453699158084
40
0.497453699158084
40
0.624996799363384
40
0.624996799363384
40
0.753577031326437
40
0.753577031326437
40
0.881194351724583
40
0.881194351724583
40
1
40
1
40
1
40
1
41
1
10
73.0221686062212
20
-0.532205198351392
30
0
41
1
10
73.0221686062212
20
-0.70534410855862
30
0
41
1
10
73.0221686062212
20
-0.878483018765849
30
0
41
1
10
73.0221686062212
20
-1.19222054754556
30
0
41
1
10
73.034447961555
20
-1.29291126128311
30
0
41
1
10
73.0876046289224
20
-1.43466237426281
30
0
41
1
10
73.137287562476
20
-1.49613459205824
30
0
41
1
10
73.2762693334924
20
-1.57767056438786
30
0
41
1
10
73.3636881764438
20
-1.59805324132913
30
0
41
1
10
73.567832458869
20
-1.59805324132913
30
0
41
1
10
73.656090325331
20
-1.5790202405617
30
0
41
1
10
73.8071240157032
20
-1.50257869931204
30
0
41
1
10
73.8594671480478
20
-1.44824510625625
30
0
41
1
10
73.9145173423849
20
-1.30633793863154
30
0
41
1
10
73.929305981509
20
-1.18423896657856
30
0
41
1
10
73.929305981509
20
-0.8522870607203
30
0
41
1
10
73.929305981509
20
-0.692246129535874
30
0
41
1
10
73.929305981509
20
-0.532205198351392
30
0
0
SPLINE
5
1D3
100
AcDbEntity
8
1
62
256
6
ByLayer
370
18
48
1
60
0
100
AcDbSpline
70
4
71
3
72
26
73
22
40
0
40
0
40
0
40
0
40
0.0625000000000104
40
0.0625000000000104
40
0.125000000000021
40
0.125000000000021
40
0.187500000000031
40
0.187500000000031
40
0.250000000000042
40
0.250000000000042
40
0.375000000000065
40
0.375000000000065
40
0.437500000000039
40
0.437500000000039
40
0.500000000000013
40
0.500000000000013
40
0.625000000000021
40
0.625000000000021
40
0.750000000000029
40
0.750000000000029
40
1
40
1
40
1
40
1
41
1
10
81.9332819935311
20
-12.8933169986117
30
0
41
1
10
81.9482262291764
20
-12.8933169986117
30
0
41
1
10
81.9628108244899
20
-12.8924987326369
30
0
41
1
10
81.9913481962767
20
-12.8894220293175
30
0
41
1
10
82.0054107981672
20
-12.8871271298464
30
0
41
1
10
82.0318148127846
20
-12.8815224991513
30
0
41
1
10
82.0443127515614
20
-12.8782071317108
30
0
41
1
10
82.0682215742146
20
-12.8707764980326
30
0
41
1
10
82.0796429649183
20
-12.866647211256
30
0
41
1
10
82.1118140596725
20
-12.8536193652927
30
0
41
1
10
82.1308707562594
20
-12.8439950402088
30
0
41
1
10
82.1572306537863
20
-12.8286465595331
30
0
41
1
10
82.1656575527224
20
-12.8233569061255
30
0
41
1
10
82.1817284440405
20
-12.8126039820048
30
0
41
1
10
82.1893737682525
20
-12.8071426807433
30
0
41
1
10
82.2113477826711
20
-12.7905416536953
30
0
41
1
10
82.2247252847304
20
-12.779186772045
30
0
41
1
10
82.249611268549
20
-12.7560212910175
30
0
41
1
10
82.2611124719502
20
-12.744209355378
30
0
41
1
10
82.2933670455749
20
-12.7081853942056
30
0
41
1
10
82.3119092365888
20
-12.6833803169662
30
0
41
1
10
82.3282491342864
20
-12.6579452132705
30
0
0
SPLINE
5
1D4
100
AcDbEntity
8
1
62
256
6
ByLayer
370
18
48
1
60
0
100
AcDbSpline
70
4
71
3
72
10
73
6
40
0
40
0
40
0
40
0
40
0.5
40
0.5
40
1
40
1
40
1
40
1
41
1
10
73.9708498726693
20
-12.7840298287904
30
0
41
1
10
74.2079274129372
20
-12.8194708767138
30
0
41
1
10
74.4480360069085
20
-12.8467503209299
30
0
41
1
10
74.9352215502623
20
-12.8836741519727
30
0
41
1
10
75.1823030673092
20
-12.8933169986117
30
0
41
1
10
75.4332819935311
20
-12.8933169986117
30
0
0
SPLINE
5
1D5
100
AcDbEntity
8
1
62
256
6
ByLayer
370
18
48
1
60
0
100
AcDbSpline
70
4
71
3
72
16
73
12
40
0
40
0
40
0
40
0
40
0.249999999999999
40
0.249999999999999
40
0.374999999999995
40
0.374999999999995
40
0.499999999999991
40
0.499999999999991
40
0.749999999999995
40
0.749999999999995
40
1
40
1
40
1
40
1
41
1
10
71.9549216161817
20
-12.4852888000219
30
0
41
1
10
71.9531552324304
20
-12.4709637504134
30
0
41
1
10
71.9492249057949
20
-12.4566730563585
30
0
41
1
10
71.9400074210673
20
-12.43529587172
30
0
41
1
10
71.9363621684389
20
-12.4281533898711
30
0
41
1
10
71.9279900209888
20
-12.4140210644829
30
0
41
1
10
71.9232854943087
20
-12.4070606712682
30
0
41
1
10
71.9076418717697
20
-12.3864953552141
30
0
41
1
10
71.8951834925859
20
-12.3732037851538
30
0
41
1
10
71.8660864750572
20
-12.3475090416961
30
0
41
1
10
71.8494525178297
20
-12.3351046618015
30
0
41
1
10
71.8304700535367
20
-12.323216678633
30
0
0
SPLINE
5
1D6
100
AcDbEntity
8
1
62
256
6
ByLayer
370
18
48
1
60
0
100
AcDbSpline
70
4
71
3
72
21
73
17
40
0
40
0
40
0
40
0
40
0.249999999999998
40
0.249999999999998
40
0.312499999999998
40
0.312499999999998
40
0.374999999999998
40
0.499999999999986
40
0.499999999999986
40
0.749999999999981
40
0.749999999999981
40
0.874999999999989
40
0.874999999999989
40
0.937499999999994
40
0.937499999999994
40
1
40
1
40
1
40
1
41
1
10
78.6428479861708
20
-8.72290032007277
30
0
41
1
10
78.6428479861708
20
-8.649759486976
30
0
41
1
10
78.6477876346873
20
-8.57591031798859
30
0
41
1
10
78.6607888592973
20
-8.48268175666385
30
0
41
1
10
78.663731387606
20
-8.46400574646611
30
0
41
1
10
78.6702855883387
20
-8.42676688314339
30
0
41
1
10
78.6811309109264
20
-8.37100675766766
30
0
41
1
10
78.6950586268979
20
-8.31555512983408
30
0
41
1
10
78.727201003455
20
-8.20511450978518
30
0
41
1
10
78.7543077361851
20
-8.13209645585295
30
0
41
1
10
78.8047515072131
20
-8.02380307599361
30
0
41
1
10
78.8232048646489
20
-7.98791259314066
30
0
41
1
10
78.8536043453073
20
-7.93444948688869
30
0
41
1
10
78.8641987642177
20
-7.91668322061804
30
0
41
1
10
78.8861690267125
20
-7.88156535331899
30
0
41
1
10
78.8975635374145
20
-7.86417948022176
30
0
41
1
10
78.9093799047004
20
-7.84697453890482
30
0
0
SPLINE
5
1D7
100
AcDbEntity
8
1
62
256
6
ByLayer
370
18
48
1
60
0
100
AcDbSpline
70
4
71
3
72
14
73
10
40
0
40
0
40
0
40
0
40
0.302267326515522
40
0.302267326515522
40
0.604490323621539
40
0.604490323621539
40
0.907325570601324
40
0.907325570601324
40
1
40
1
40
1
40
1
41
1
10
75.0013024750586
20
-13.1124434426317
30
0
41
1
10
74.911695214956
20
-13.1092274869388
30
0
41
1
10
74.8208924672817
20
-13.1062368169868
30
0
41
1
10
74.6519393844237
20
-13.1015191802618
30
0
41
1
10
74.5714557570474
20
-13.0997412180923
30
0
41
1
10
74.4315514189624
20
-13.0984646070114
30
0
41
1
10
74.3702375275586
20
-13.0989757464488
30
0
41
1
10
74.3079853120803
20
-13.1017443881134
30
0
41
1
10
74.2944648323066
20
-13.1025534802523
30
0
41
1
10
74.2822672380192
20
-13.1035229279162
30
0
0
SPLINE
5
1D8
100
AcDbEntity
8
1
62
256
6
ByLayer
370
18
48
1
60
0
100
AcDbSpline
70
4
71
3
72
13
73
9
40
0
40
0
40
0
40
0
40
0.129877278283307
40
0.327194999111744
40
0.524302624928218
40
0.717876658503386
40
0.906693889720496
40
1
40
1
40
1
40
1
41
1
10
80.3832043151205
20
-8.17928575601923
30
0
41
1
10
80.3222855230188
20
-8.15079206162034
30
0
41
1
10
80.1658962642139
20
-8.0977602394625
30
0
41
1
10
79.8911180537048
20
-8.08678571856399
30
0
41
1
10
79.5948135868524
20
-8.18060954230697
30
0
41
1
10
79.3472342437083
20
-8.36731036751166
30
0
41
1
10
79.2051069791509
20
-8.58241876036004
30
0
41
1
10
79.1569424184731
20
-8.72294299332026
30
0
41
1
10
79.1445528866124
20
-8.77145366752552
30
0
0
SPLINE
5
1D9
100
AcDbEntity
8
1
62
256
6
ByLayer
370
18
48
1
60
0
100
AcDbSpline
70
4
71
3
72
13
73
9
40
0
40
0
40
0
40
0
40
0.129877278283307
40
0.327194999111744
40
0.524302624928218
40
0.717876658503386
40
0.906693889720496
40
1
40
1
40
1
40
1
41
1
10
80.3832043151205
20
-8.17928575601923
30
0
41
1
10
80.3222855230188
20
-8.15079206162034
30
0
41
1
10
80.1658962642139
20
-8.0977602394625
30
0
41
1
10
79.8911180537048
20
-8.08678571856399
30
0
41
1
10
79.5948135868524
20
-8.18060954230697
30
0
41
1
10
79.3472342437083
20
-8.36731036751166
30
0
41
1
10
79.2051069791509
20
-8.58241876036004
30
0
41
1
10
79.1569424184731
20
-8.72294299332026
30
0
41
1
10
79.1445528866124
20
-8.77145366752552
30
0
0
SPLINE
5
1DA
100
AcDbEntity
8
1
62
256
6
ByLayer
370
18
48
1
60
0
100
AcDbSpline
70
4
71
3
72
8
73
4
40
0
40
0
40
0
40
0
40
1
40
1
40
1
40
1
41
1
10
59.7737773363942
20
11.5
30
0
41
1
10
59.7736470235194
20
11.5
30
0
41
1
10
59.8492384116786
20
11.5
30
0
41
1
10
60
20
11.5
30
0
0
SPLINE
5
1DB
100
AcDbEntity
8
1
62
256
6
ByLayer
370
18
48
1
60
0
100
AcDbSpline
70
4
71
3
72
10
73
6
40
0
40
0
40
0
40
0
40
0.0553067285361298
40
0.62789401173048
40
1
40
1
40
1
40
1
41
1
10
80.5414951458312
20
-0.614203006835908
30
0
41
1
10
80.5440315828144
20
-0.608186252282565
30
0
41
1
10
80.5720117137266
20
-0.539961307706278
30
0
41
1
10
80.60552762746
20
-0.431225026274603
30
0
41
1
10
80.6323154466868
20
-0.294877536212141
30
0
41
1
10
80.6414768179942
20
-0.237916722109333
30
0
0
SPLINE
5
1DC
100
AcDbEntity
8
1
62
256
6
ByLayer
370
18
48
1
60
0
100
AcDbSpline
70
4
71
3
72
15
73
11
40
0
40
0
40
0
40
0
40
0.0656673380987775
40
0.213790327745038
40
0.354264345430329
40
0.492271331925613
40
0.629282820484874
40
0.765850238592546
40
0.902253673763338
40
1
40
1
40
1
40
1
41
1
10
80.6414768179942
20
-0.237916722109333
30
0
41
1
10
80.6511104099924
20
-0.194641285496743
30
0
41
1
10
80.6810628934471
20
-0.0425691828694994
30
0
41
1
10
80.7208869022744
20
0.284438216009846
30
0
41
1
10
80.7616197368328
20
0.741820005234956
30
0
41
1
10
80.7914211628262
20
1.24788227365599
30
0
41
1
10
80.8110647030194
20
1.78989418246056
30
0
41
1
10
80.8201166776063
20
2.35377317219121
30
0
41
1
10
80.8185821025417
20
2.87030723087298
30
0
41
1
10
80.8124126781044
20
3.18856109035602
30
0
41
1
10
80.8089268039795
20
3.32076783013429
30
0
0
SPLINE
5
1DD
100
AcDbEntity
8
1
62
256
6
ByLayer
370
18
48
1
60
0
100
AcDbSpline
70
4
71
3
72
10
73
6
40
0
40
0
40
0
40
0
40
0.535640370359118
40
0.535640370359118
40
1
40
1
40
1
40
1
41
1
10
80.5378686191888
20
0.842848921595191
30
0
41
1
10
80.4731465421671
20
1.05551925873272
30
0
41
1
10
80.4425575481078
20
1.27887013216321
30
0
41
1
10
80.501007332406
20
1.69277419344712
30
0
41
1
10
80.5737041835571
20
1.88528475877314
30
0
41
1
10
80.6698385419251
20
2.0703915671408
30
0
0
SPLINE
5
1DE
100
AcDbEntity
8
1
62
256
6
ByLayer
370
18
48
1
60
0
100
AcDbSpline
70
4
71
3
72
16
73
12
40
0
40
0
40
0
40
0
40
0.462497527135798
40
0.462497527135798
40
0.645191851133657
40
0.645191851133657
40
0.830465145084777
40
0.830465145084777
40
0.946099677592152
40
0.946099677592152
40
1
40
1
40
1
40
1
41
1
10
4.66339745962156
20
5.06861858311169
30
0
41
1
10
4.68049745427383
20
5.00572719980329
30
0
41
1
10
4.70393430551654
20
4.94318132289493
30
0
41
1
10
4.75230660037377
20
4.864513415327
30
0
41
1
10
4.76803751709781
20
4.84296870144203
30
0
41
1
10
4.80461917683135
20
4.80415189945637
30
0
41
1
10
4.82601832205678
20
4.78648459402871
30
0
41
1
10
4.86534830605126
20
4.76617783194865
30
0
41
1
10
4.88194300110749
20
4.76031541807629
30
0
41
1
10
4.90693069677602
20
4.75614889828648
30
0
41
1
10
4.91508241701405
20
4.75546271781747
30
0
41
1
10
4.92320508075687
20
4.75546271781747
30
0
0
SPLINE
5
1DF
100
AcDbEntity
8
1
62
256
6
ByLayer
370
18
48
1
60
0
100
AcDbSpline
70
4
71
3
72
16
73
12
40
0
40
0
40
0
40
0
40
0.1129043830553
40
0.1129043830553
40
0.251995806601947
40
0.251995806601947
40
0.471177478614493
40
0.471177478614493
40
0.892334804026099
40
0.892334804026099
40
1
40
1
40
1
40
1
41
1
10
7.07679491924311
20
4.75546271781758
30
0
41
1
10
7.09363003644253
20
4.75546271781758
30
0
41
1
10
7.11067448209637
20
4.75851551862661
30
0
41
1
10
7.14599612783957
20
4.77071315953361
30
0
41
1
10
7.16423843011323
20
4.78117073972197
30
0
41
1
10
7.20594636314289
20
4.81283214608436
30
0
41
1
10
7.22743815354158
20
4.83715715133616
30
0
41
1
10
7.2804704094188
20
4.91214630601439
30
0
41
1
10
7.30493517049524
20
4.96811547083689
30
0
41
1
10
7.32822068883895
20
5.03919021254677
30
0
41
1
10
7.33259153417376
20
5.05386666454075
30
0
41
1
10
7.33660254037849
20
5.06861858311169
30
0
0
SPLINE
5
1E0
100
AcDbEntity
8
1
62
256
6
ByLayer
370
18
48
1
60
0
100
AcDbSpline
70
4
71
3
72
16
73
12
40
0
40
0
40
0
40
0
40
0.462497527135837
40
0.462497527135837
40
0.645191851133693
40
0.645191851133693
40
0.830465145084806
40
0.830465145084806
40
0.946099677592177
40
0.946099677592177
40
1
40
1
40
1
40
1
41
1
10
7.33660254037845
20
15.1759383782004
30
0
41
1
10
7.31950254572618
20
15.1969435000064
30
0
41
1
10
7.29606569448347
20
15.2173733040723
30
0
41
1
10
7.24769339962623
20
15.2426068177431
30
0
41
1
10
7.23196248290219
20
15.2494611471717
30
0
41
1
10
7.19538082316863
20
15.2617345707429
30
0
41
1
10
7.1739816779432
20
15.2672766430868
30
0
41
1
10
7.13465169394873
20
15.2736248541653
30
0
41
1
10
7.1180569988925
20
15.2754510872996
30
0
41
1
10
7.09306930322398
20
15.2767486596485
30
0
41
1
10
7.08491758298597
20
15.2769622091386
30
0
41
1
10
7.07679491924313
20
15.2769622091386
30
0
0
SPLINE
5
1E1
100
AcDbEntity
8
1
62
256
6
ByLayer
370
18
48
1
60
0
100
AcDbSpline
70
4
71
3
72
16
73
12
40
0
40
0
40
0
40
0
40
0.112904383055299
40
0.112904383055299
40
0.25199580660195
40
0.25199580660195
40
0.471177478614513
40
0.471177478614513
40
0.892334804026094
40
0.892334804026094
40
1
40
1
40
1
40
1
41
1
10
4.92320508075689
20
15.2769622091386
30
0
41
1
10
4.90636996355747
20
15.2769622091386
30
0
41
1
10
4.88932551790364
20
15.2760126621562
30
0
41
1
10
4.85400387216043
20
15.2722082770661
30
0
41
1
10
4.83576156988677
20
15.2689414463835
30
0
41
1
10
4.79405363685711
20
15.2589992478797
30
0
41
1
10
4.77256184645843
20
15.2513160232934
30
0
41
1
10
4.7195295905812
20
15.2273927985289
30
0
41
1
10
4.69506482950476
20
15.2092528380284
30
0
41
1
10
4.67177931116105
20
15.1857432227236
30
0
41
1
10
4.66740846582624
20
15.1808653782146
30
0
41
1
10
4.66339745962151
20
15.1759383782004
30
0
0
SPLINE
5
1E2
100
AcDbEntity
8
1
62
256
6
ByLayer
370
18
48
1
60
0
100
AcDbSpline
70
4
71
3
72
16
73
12
40
0
40
0
40
0
40
0
40
0.462497527135779
40
0.462497527135779
40
0.645191851133646
40
0.645191851133646
40
0.830465145084773
40
0.830465145084773
40
0.946099677592146
40
0.946099677592146
40
1
40
1
40
1
40
1
41
1
10
4.66339745962156
20
-15.1759383782004
30
0
41
1
10
4.68049745427383
20
-15.1969435000063
30
0
41
1
10
4.70393430551653
20
-15.2173733040723
30
0
41
1
10
4.75230660037376
20
-15.2426068177431
30
0
41
1
10
4.76803751709781
20
-15.2494611471717
30
0
41
1
10
4.80461917683135
20
-15.2617345707429
30
0
41
1
10
4.82601832205678
20
-15.2672766430868
30
0
41
1
10
4.86534830605126
20
-15.2736248541653
30
0
41
1
10
4.88194300110749
20
-15.2754510872996
30
0
41
1
10
4.90693069677602
20
-15.2767486596485
30
0
41
1
10
4.91508241701405
20
-15.2769622091386
30
0
41
1
10
4.92320508075687
20
-15.2769622091386
30
0
0
SPLINE
5
1E3
100
AcDbEntity
8
1
62
256
6
ByLayer
370
18
48
1
60
0
100
AcDbSpline
70
4
71
3
72
16
73
12
40
0
40
0
40
0
40
0
40
0.112904383055295
40
0.112904383055295
40
0.25199580660194
40
0.25199580660194
40
0.471177478614494
40
0.471177478614494
40
0.892334804026116
40
0.892334804026116
40
1
40
1
40
1
40
1
41
1
10
7.07679491924311
20
-15.2769622091385
30
0
41
1
10
7.09363003644253
20
-15.2769622091385
30
0
41
1
10
7.11067448209637
20
-15.2760126621562
30
0
41
1
10
7.14599612783957
20
-15.2722082770661
30
0
41
1
10
7.16423843011324
20
-15.2689414463835
30
0
41
1
10
7.2059463631429
20
-15.2589992478797
30
0
41
1
10
7.22743815354158
20
-15.2513160232934
30
0
41
1
10
7.2804704094188
20
-15.2273927985289
30
0
41
1
10
7.30493517049524
20
-15.2092528380283
30
0
41
1
10
7.32822068883897
20
-15.1857432227235
30
0
41
1
10
7.33259153417377
20
-15.1808653782146
30
0
41
1
10
7.33660254037849
20
-15.1759383782004
30
0
0
SPLINE
5
1E4
100
AcDbEntity
8
1
62
256
6
ByLayer
370
18
48
1
60
0
100
AcDbSpline
70
4
71
3
72
16
73
12
40
0
40
0
40
0
40
0
40
0.462497527135779
40
0.462497527135779
40
0.645191851133639
40
0.645191851133639
40
0.830465145084769
40
0.830465145084769
40
0.946099677592151
40
0.946099677592151
40
1
40
1
40
1
40
1
41
1
10
7.33660254037845
20
-5.06861858311169
30
0
41
1
10
7.31950254572618
20
-5.00572719980329
30
0
41
1
10
7.29606569448347
20
-4.94318132289493
30
0
41
1
10
7.24769339962626
20
-4.864513415327
30
0
41
1
10
7.2319624829022
20
-4.84296870144203
30
0
41
1
10
7.19538082316865
20
-4.80415189945637
30
0
41
1
10
7.17398167794323
20
-4.78648459402871
30
0
41
1
10
7.13465169394874
20
-4.76617783194865
30
0
41
1
10
7.11805699889251
20
-4.76031541807629
30
0
41
1
10
7.093069303224
20
-4.75614889828648
30
0
41
1
10
7.08491758298598
20
-4.75546271781747
30
0
41
1
10
7.07679491924313
20
-4.75546271781747
30
0
0
SPLINE
5
1E5
100
AcDbEntity
8
1
62
256
6
ByLayer
370
18
48
1
60
0
100
AcDbSpline
70
4
71
3
72
16
73
12
40
0
40
0
40
0
40
0
40
0.112904383055297
40
0.112904383055297
40
0.25199580660195
40
0.25199580660195
40
0.471177478614501
40
0.471177478614501
40
0.892334804026129
40
0.892334804026129
40
1
40
1
40
1
40
1
41
1
10
4.92320508075689
20
-4.75546271781758
30
0
41
1
10
4.90636996355747
20
-4.75546271781758
30
0
41
1
10
4.88932551790364
20
-4.75851551862661
30
0
41
1
10
4.85400387216043
20
-4.77071315953361
30
0
41
1
10
4.83576156988677
20
-4.78117073972197
30
0
41
1
10
4.79405363685711
20
-4.81283214608436
30
0
41
1
10
4.77256184645843
20
-4.83715715133616
30
0
41
1
10
4.7195295905812
20
-4.91214630601439
30
0
41
1
10
4.69506482950476
20
-4.96811547083689
30
0
41
1
10
4.67177931116105
20
-5.03919021254677
30
0
41
1
10
4.66740846582624
20
-5.05386666454075
30
0
41
1
10
4.66339745962151
20
-5.06861858311169
30
0
0
SPLINE
5
1E6
100
AcDbEntity
8
1
62
256
6
ByLayer
370
18
48
1
60
0
100
AcDbSpline
70
4
71
3
72
8
73
4
40
0
40
0
40
0
40
0
40
1
40
1
40
1
40
1
41
1
10
53.8454614682402
20
10.611779087315
30
0
41
1
10
54.2303083709829
20
10.5830707389301
30
0
41
1
10
54.6151545556918
20
10.5543527592212
30
0
41
1
10
55
20
10.5256249101894
30
0
0
SPLINE
5
1E7
100
AcDbEntity
8
1
62
256
6
ByLayer
370
18
48
1
60
0
100
AcDbSpline
70
4
71
3
72
17
73
13
40
0
40
0
40
0
40
0
40
0.250000000000001
40
0.250000000000001
40
0.500000000000002
40
0.500000000000002
40
0.750000000000003
40
0.750000000000003
40
0.812500000000002
40
0.812500000000002
40
0.875000000000001
40
1
40
1
40
1
40
1
41
1
10
53.8454614682402
20
10.611779087315
30
0
41
1
10
53.9035925897756
20
10.5298830302007
30
0
41
1
10
53.9698021102039
20
10.4391844465871
30
0
41
1
10
54.120196849274
20
10.2417451727861
30
0
41
1
10
54.2043794384596
20
10.1349995109014
30
0
41
1
10
54.3933158888876
20
9.9069045978311
30
0
41
1
10
54.4980630194761
20
9.78555034396135
30
0
41
1
10
54.6440462099651
20
9.62564991985414
30
0
41
1
10
54.6740298743395
20
9.59322588533769
30
0
41
1
10
54.7353894404328
20
9.52777724837642
30
0
41
1
10
54.8294996876651
20
9.42871973688767
30
0
41
1
10
54.9299945720222
20
9.32719061605701
30
0
41
1
10
55
20
9.25857157145714
30
0
0
SPLINE
5
1E8
100
AcDbEntity
8
1
62
256
6
ByLayer
370
18
48
1
60
0
100
AcDbSpline
70
4
71
3
72
8
73
4
40
0
40
0
40
0
40
0
40
1
40
1
40
1
40
1
41
1
10
60
20
-11.5
30
0
41
1
10
59.8486639398378
20
-11.5
30
0
41
1
10
59.7734776414207
20
-11.5
30
0
41
1
10
59.773316
20
-11.5
30
0
0
SPLINE
5
1E9
100
AcDbEntity
8
1
62
256
6
ByLayer
370
18
48
1
60
0
100
AcDbSpline
70
4
71
3
72
8
73
4
40
0
40
0
40
0
40
0
40
1
40
1
40
1
40
1
41
1
10
59.809587612806
20
0.457287195684842
30
0
41
1
10
60.8082171475606
20
0.457287195684842
30
0
41
1
10
61.8068466823152
20
0.457287195684842
30
0
41
1
10
62.8054762170698
20
0.457287195684842
30
0
0
SPLINE
5
1EA
100
AcDbEntity
8
1
62
256
6
ByLayer
370
18
48
1
60
0
100
AcDbSpline
70
4
71
3
72
8
73
4
40
0
40
0
40
0
40
0
40
1
40
1
40
1
40
1
41
1
10
59.809587612806
20
-0.552875405941222
30
0
41
1
10
59.809587612806
20
-0.216154538732496
30
0
41
1
10
59.809587612806
20
0.120566328476173
30
0
41
1
10
59.809587612806
20
0.457287195684842
30
0
0
SPLINE
5
1EB
100
AcDbEntity
8
1
62
256
6
ByLayer
370
18
48
1
60
0
100
AcDbSpline
70
4
71
3
72
18
73
14
40
0
40
0
40
0
40
0
40
0.191365141806888
40
0.191365141806888
40
0.382730283613776
40
0.382730283613776
40
0.53632598953772
40
0.53632598953772
40
0.69074598386202
40
0.69074598386202
40
0.845924953879706
40
0.845924953879706
40
1
40
1
40
1
40
1
41
1
10
61.4037161103421
20
-1.04406781786531
30
0
41
1
10
61.3500675551366
20
-1.20395941678129
30
0
41
1
10
61.2596314192187
20
-1.32726564984364
30
0
41
1
10
61.003651170095
20
-1.49935237071082
30
0
41
1
10
60.852668807588
20
-1.54271280431516
30
0
41
1
10
60.5376751477384
20
-1.54271280431516
30
0
41
1
10
60.407385799382
20
-1.51629004008754
30
0
41
1
10
60.1660879658142
20
-1.41167403124967
30
0
41
1
10
60.0732319412447
20
-1.34691334632061
30
0
41
1
10
59.9426224062152
20
-1.19206218707313
30
0
41
1
10
59.8931260773404
20
-1.09623583954556
30
0
41
1
10
59.8259220731197
20
-0.864002497142508
30
0
41
1
10
59.809587612806
20
-0.720897086158004
30
0
41
1
10
59.809587612806
20
-0.552875405941222
30
0
0
SPLINE
5
1EC
100
AcDbEntity
8
1
62
256
6
ByLayer
370
18
48
1
60
0
100
AcDbSpline
70
4
71
3
72
10
73
6
40
0
40
0
40
0
40
0
40
0.5
40
0.5
40
1
40
1
40
1
40
1
41
1
10
59.9999999999994
20
6.23465941664364
30
0
41
1
10
60.1465324087418
20
6.06907161402052
30
0
41
1
10
60.3048574396279
20
5.90961587861869
30
0
41
1
10
60.6396776637309
20
5.60015274385785
30
0
41
1
10
60.8162033542026
20
5.45016120282213
30
0
41
1
10
61.0000000000077
20
5.30395049918843
30
0
0
SPLINE
5
1ED
100
AcDbEntity
8
1
62
256
6
ByLayer
370
18
48
1
60
0
100
AcDbSpline
70
4
71
3
72
8
73
4
40
0
40
0
40
0
40
0
40
1
40
1
40
1
40
1
41
1
10
60.9999999999998
20
-11.5
30
0
41
1
10
60.6359969763399
20
-11.5
30
0
41
1
10
60.2964568494214
20
-11.5
30
0
41
1
10
60
20
-11.5
30
0
0
SPLINE
5
1EE
100
AcDbEntity
8
1
62
256
6
ByLayer
370
18
48
1
60
0
100
AcDbSpline
70
4
71
3
72
10
73
6
40
0
40
0
40
0
40
0
40
0.499801257682663
40
0.499801257682663
40
1
40
1
40
1
40
1
41
1
10
60.6678771385601
20
-1.5427127221725
30
0
41
1
10
60.8424415591179
20
-1.54264386432942
30
0
41
1
10
60.993285686635
20
-1.49928399606131
30
0
41
1
10
61.2491642279701
20
-1.32726564984364
30
0
41
1
10
61.339600363888
20
-1.20395941678129
30
0
41
1
10
61.3932489190935
20
-1.04406781786531
30
0
0
SPLINE
5
1EF
100
AcDbEntity
8
1
62
256
6
ByLayer
370
18
48
1
60
0
100
AcDbSpline
70
4
71
3
72
10
73
6
40
0
40
0
40
0
40
0
40
0.339661016949153
40
0.339661016949153
40
1
40
1
40
1
40
1
41
1
10
60.1669962286811
20
-0.791357790765062
30
0
41
1
10
60.1570329255716
20
-0.745287330060421
30
0
41
1
10
60.1524344779825
20
-0.666019037377509
30
0
41
1
10
60.1524344779825
20
-0.332911539635859
30
0
41
1
10
60.1524344779825
20
-0.112947673330552
30
0
41
1
10
60.1524344779825
20
0.107016192974811
30
0
0
SPLINE
5
1F0
100
AcDbEntity
8
1
62
256
6
ByLayer
370
18
48
1
60
0
100
AcDbSpline
70
4
71
3
72
10
73
6
40
0
40
0
40
0
40
0
40
0.660338983050847
40
0.660338983050847
40
1
40
1
40
1
40
1
41
1
10
60.1629016692311
20
0.107016192974811
30
0
41
1
10
60.1629016692311
20
-0.112947673330552
30
0
41
1
10
60.1629016692311
20
-0.332911539635859
30
0
41
1
10
60.1629016692311
20
-0.666019037377509
30
0
41
1
10
60.1675001168201
20
-0.745287330060421
30
0
41
1
10
60.1774634199297
20
-0.791357790765062
30
0
0
SPLINE
5
1F1
100
AcDbEntity
8
1
62
256
6
ByLayer
370
18
48
1
60
0
100
AcDbSpline
70
4
71
3
72
8
73
4
40
0
40
0
40
0
40
0
40
1
40
1
40
1
40
1
41
1
10
60.1774634199297
20
-0.791357790765062
30
0
41
1
10
60.1935579864914
20
-0.871981096998127
30
0
41
1
10
60.2211486720257
20
-0.93905426772983
30
0
41
1
10
60.259469068601
20
-0.99325480973522
30
0
0
SPLINE
5
1F2
100
AcDbEntity
8
1
62
256
6
ByLayer
370
18
48
1
60
0
100
AcDbSpline
70
4
71
3
72
18
73
14
40
0
40
0
40
0
40
0
40
0.144162319211354
40
0.144162319211354
40
0.287803952446087
40
0.287803952446087
40
0.456930391577304
40
0.456930391577304
40
0.627201285564253
40
0.627201285564253
40
0.795875204209621
40
0.795875204209621
40
1
40
1
40
1
40
1
41
1
10
60.259469068601
20
-0.99325480973522
30
0
41
1
10
60.2970230572449
20
-1.04745535174067
30
0
41
1
10
60.352970836245
20
-1.09217079889515
30
0
41
1
10
60.498325372317
20
-1.16250425839058
30
0
41
1
10
60.5828932156973
20
-1.17956917287887
30
0
41
1
10
60.7898233572044
20
-1.17956917287887
30
0
41
1
10
60.8871571645059
20
-1.15450142220135
30
0
41
1
10
61.0517233825535
20
-1.05253156145307
30
0
41
1
10
61.1094154646431
20
-0.983092208109213
30
0
41
1
10
61.1765430835399
20
-0.803720535083528
30
0
41
1
10
61.1929539291775
20
-0.674149118678315
30
0
41
1
10
61.1929539291775
20
-0.301294556799348
30
0
41
1
10
61.1929539291775
20
-0.0971391819122687
30
0
41
1
10
61.1929539291775
20
0.107016192974811
30
0
0
SPLINE
5
1F3
100
AcDbEntity
8
1
62
256
6
ByLayer
370
18
48
1
60
0
100
AcDbSpline
70
4
71
3
72
8
73
4
40
0
40
0
40
0
40
0
40
1
40
1
40
1
40
1
41
1
10
61.1929539291775
20
0.107016192974811
30
0
41
1
10
60.849603175862
20
0.107016192974811
30
0
41
1
10
60.5062524225465
20
0.107016192974811
30
0
41
1
10
60.1629016692311
20
0.107016192974811
30
0
0
SPLINE
5
1F4
100
AcDbEntity
8
1
62
256
6
ByLayer
370
18
48
1
60
0
100
AcDbSpline
70
4
71
3
72
8
73
4
40
0
40
0
40
0
40
0
40
1
40
1
40
1
40
1
41
1
10
60.2490018773525
20
-0.99325480973522
30
0
41
1
10
60.2106814807771
20
-0.93905426772983
30
0
41
1
10
60.1830907952428
20
-0.871981096998127
30
0
41
1
10
60.1669962286811
20
-0.791357790765062
30
0
0
SPLINE
5
1F5
100
AcDbEntity
8
1
62
256
6
ByLayer
370
18
48
1
60
0
100
AcDbSpline
70
4
71
3
72
10
73
6
40
0
40
0
40
0
40
0
40
0.498566025599769
40
0.498566025599769
40
1
40
1
40
1
40
1
41
1
10
60.6668576596753
20
-1.17956894379245
30
0
41
1
10
60.572068300283
20
-1.17949689627972
30
0
41
1
10
60.4877047227262
20
-1.16243000370008
30
0
41
1
10
60.3425036449964
20
-1.09217079889515
30
0
41
1
10
60.2865558659963
20
-1.04745535174067
30
0
41
1
10
60.2490018773525
20
-0.99325480973522
30
0
0
SPLINE
5
1F6
100
AcDbEntity
8
1
62
256
6
ByLayer
370
18
48
1
60
0
100
AcDbSpline
70
2053
71
3
72
162
73
158
40
0
40
0
40
0
40
0
40
0.0312500000000085
40
0.0312500000000085
40
0.062500000000017
40
0.062500000000017
40
0.0937500000000255
40
0.0937500000000255
40
0.101562500000028
40
0.101562500000028
40
0.10937500000003
40
0.10937500000003
40
0.125000000000035
40
0.125000000000035
40
0.140625000000041
40
0.140625000000041
40
0.148437500000044
40
0.148437500000044
40
0.156250000000048
40
0.156250000000048
40
0.171875000000056
40
0.171875000000056
40
0.179687500000059
40
0.179687500000059
40
0.18359375000006
40
0.18359375000006
40
0.187500000000061
40
0.187500000000061
40
0.203125000000056
40
0.203125000000056
40
0.210937500000051
40
0.210937500000051
40
0.218750000000047
40
0.218750000000047
40
0.234375000000034
40
0.234375000000034
40
0.238281250000031
40
0.238281250000031
40
0.242187500000029
40
0.250000000000028
40
0.257812500000028
40
0.257812500000028
40
0.265625000000028
40
0.265625000000028
40
0.281250000000023
40
0.281250000000023
40
0.285156250000024
40
0.285156250000024
40
0.289062500000024
40
0.289062500000024
40
0.296875000000025
40
0.296875000000025
40
0.312500000000027
40
0.312500000000027
40
0.328125000000029
40
0.328125000000029
40
0.33593750000003
40
0.33593750000003
40
0.343750000000031
40
0.343750000000031
40
0.375000000000039
40
0.375000000000039
40
0.390625000000043
40
0.390625000000043
40
0.398437500000045
40
0.398437500000045
40
0.406250000000046
40
0.406250000000046
40
0.437500000000056
40
0.437500000000056
40
0.468750000000065
40
0.468750000000065
40
0.500000000000074
40
0.500000000000074
40
0.515625000000078
40
0.515625000000078
40
0.531250000000083
40
0.531250000000083
40
0.562500000000091
40
0.562500000000091
40
0.593750000000099
40
0.593750000000099
40
0.609375000000103
40
0.609375000000103
40
0.617187500000105
40
0.617187500000105
40
0.625000000000107
40
0.625000000000107
40
0.64062500000011
40
0.64062500000011
40
0.656250000000113
40
0.656250000000113
40
0.671875000000117
40
0.671875000000117
40
0.679687500000119
40
0.679687500000119
40
0.68359375000012
40
0.68359375000012
40
0.687500000000121
40
0.687500000000121
40
0.695312500000119
40
0.695312500000119
40
0.703125000000118
40
0.703125000000118
40
0.707031250000118
40
0.707031250000118
40
0.710937500000117
40
0.710937500000117
40
0.718750000000113
40
0.718750000000113
40
0.722656250000112
40
0.722656250000112
40
0.726562500000112
40
0.734375000000107
40
0.734375000000107
40
0.738281250000106
40
0.738281250000106
40
0.742187500000106
40
0.746093750000105
40
0.746093750000105
40
0.750000000000105
40
0.750000000000105
40
0.757812500000104
40
0.757812500000104
40
0.765625000000103
40
0.765625000000103
40
0.773437500000101
40
0.773437500000101
40
0.7812500000001
40
0.7812500000001
40
0.796875000000095
40
0.796875000000095
40
0.804687500000093
40
0.804687500000093
40
0.812500000000091
40
0.812500000000091
40
0.828125000000084
40
0.828125000000084
40
0.843750000000077
40
0.843750000000077
40
0.875000000000062
40
0.875000000000062
40
0.906250000000047
40
0.906250000000047
40
0.921875000000039
40
0.921875000000039
40
0.937500000000032
40
0.937500000000032
40
0.968750000000016
40
0.968750000000016
40
0.984375000000008
40
0.984375000000008
40
0.992187500000004
40
0.996093750000002
40
0.998046875000001
40
0.998046875000001
40
1
40
1
40
1
40
1
41
1
10
62.1
20
-10.2
30
0
41
1
10
62.1
20
-10.1473584194196
30
0
41
1
10
62.1041314828906
20
-10.0940595603085
30
0
41
1
10
62.1215714668887
20
-9.98632949261719
30
0
41
1
10
62.1348671563205
20
-9.93189661335191
30
0
41
1
10
62.1723139472737
20
-9.82216482501178
30
0
41
1
10
62.1964290418977
20
-9.76686156347989
30
0
41
1
10
62.235298594292
20
-9.69746187675821
30
0
41
1
10
62.2435142075063
20
-9.68356904763709
30
0
41
1
10
62.2609052466491
20
-9.65576766340007
30
0
41
1
10
62.2701012418096
20
-9.6418299441105
30
0
41
1
10
62.2991110668434
20
-9.6002334143202
30
0
41
1
10
62.3202696725735
20
-9.57287790069364
30
0
41
1
10
62.3667262823679
20
-9.51913939313755
30
0
41
1
10
62.3920196340352
20
-9.49275470892138
30
0
41
1
10
62.4336274290757
20
-9.45414101748003
30
0
41
1
10
62.4481557351061
20
-9.44139475666725
30
0
41
1
10
62.4783303154135
20
-9.41647612406956
30
0
41
1
10
62.4939542237638
20
-9.40431744144405
30
0
41
1
10
62.5425390335754
20
-9.36882845425936
30
0
41
1
10
62.5771991663822
20
-9.34647605787586
30
0
41
1
10
62.6332035991335
20
-9.31537743755274
30
0
41
1
10
62.6525437448453
20
-9.3054181812696
30
0
41
1
10
62.6826767324508
20
-9.29117398638022
30
0
41
1
10
62.6929085230902
20
-9.28654192360528
30
0
41
1
10
62.7137710256983
20
-9.2775270696041
30
0
41
1
10
62.7244261632751
20
-9.27313552233204
30
0
41
1
10
62.7782089391235
20
-9.25206224789866
30
0
41
1
10
62.8231494858865
20
-9.23786913478034
30
0
41
1
10
62.8937990885114
20
-9.22119119009653
30
0
41
1
10
62.9179469791803
20
-9.21639515211194
30
0
41
1
10
62.9671969034587
20
-9.20854393101479
30
0
41
1
10
62.9919181099183
20
-9.20554614378545
30
0
41
1
10
63.0663681390072
20
-9.19932544434226
30
0
41
1
10
63.1163814056488
20
-9.19885857049792
30
0
41
1
10
63.1793933770901
20
-9.20307662095121
30
0
41
1
10
63.1920079330442
20
-9.20416280562335
30
0
41
1
10
63.2169449299161
20
-9.20678219092991
30
0
41
1
10
63.2540406424365
20
-9.2113911893544
30
0
41
1
10
63.3143746471637
20
-9.22234160977268
30
0
41
1
10
63.3611277252714
20
-9.23439746185721
30
0
41
1
10
63.407147360087
20
-9.2480354787258
30
0
41
1
10
63.4294659836777
20
-9.25555050406126
30
0
41
1
10
63.4942985274624
20
-9.27985902690972
30
0
41
1
10
63.5348284870429
20
-9.29844118546777
30
0
41
1
10
63.5826310369838
20
-9.32410900280456
30
0
41
1
10
63.5920474178623
20
-9.32936558696201
30
0
41
1
10
63.6106005373034
20
-9.34011510427473
30
0
41
1
10
63.6197542223317
20
-9.34561900521368
30
0
41
1
10
63.6466228424415
20
-9.36235519958962
30
0
41
1
10
63.6637815840473
20
-9.37382806868419
30
0
41
1
10
63.7132381918138
20
-9.40906519957645
30
0
41
1
10
63.7435283096236
20
-9.43364224715236
30
0
41
1
10
63.7996224321629
20
-9.48448526007422
30
0
41
1
10
63.825420170768
20
-9.5107542644871
30
0
41
1
10
63.8611578573546
20
-9.55118396813322
30
0
41
1
10
63.8725249393042
20
-9.5647773605134
30
0
41
1
10
63.8941501948889
20
-9.59202956361253
30
0
41
1
10
63.9044276298441
20
-9.60571024845893
30
0
41
1
10
63.9533573181338
20
-9.67433164953576
30
0
41
1
10
63.9847397258312
20
-9.72990331975927
30
0
41
1
10
64.0228245263826
20
-9.81356279770694
30
0
41
1
10
64.0340011576177
20
-9.84150413903461
30
0
41
1
10
64.0486878513073
20
-9.88343922862697
30
0
41
1
10
64.0532421412502
20
-9.89744208370172
30
0
41
1
10
64.0616444004564
20
-9.92531487182441
30
0
41
1
10
64.0654952220299
20
-9.93918942313275
30
0
41
1
10
64.083098959309
20
-10.008251913966
30
0
41
1
10
64.0919437156244
20
-10.0625087496277
30
0
41
1
10
64.1009476146604
20
-10.1690153005285
30
0
41
1
10
64.1010929230278
20
-10.2212651748707
30
0
41
1
10
64.0936433810668
20
-10.32374198746
30
0
41
1
10
64.0860442040296
20
-10.3739689920778
30
0
41
1
10
64.0691447184626
20
-10.4477813760199
30
0
41
1
10
64.0625858967924
20
-10.4721313316562
30
0
41
1
10
64.047758891697
20
-10.5199689884687
30
0
41
1
10
64.0394812532387
20
-10.5435035243212
30
0
41
1
10
64.0120984195997
20
-10.6129833635694
30
0
41
1
10
63.9904633347359
20
-10.6578073788243
30
0
41
1
10
63.9402194408199
20
-10.7445583879467
30
0
41
1
10
63.9116243616985
20
-10.7864862769496
30
0
41
1
10
63.8627546687226
20
-10.8472096876053
30
0
41
1
10
63.8454615152682
20
-10.8670886758458
30
0
41
1
10
63.8178231170626
20
-10.8963548058694
30
0
41
1
10
63.8083263453648
20
-10.9060180429788
30
0
41
1
10
63.7887193162623
20
-10.9251574945877
30
0
41
1
10
63.7785949735857
20
-10.9346458815653
30
0
41
1
10
63.7473704113315
20
-10.9626889198336
30
0
41
1
10
63.7254051635614
20
-10.9808469720508
30
0
41
1
10
63.6787498237362
20
-11.0160283413555
30
0
41
1
10
63.6540655673401
20
-11.0330528746493
30
0
41
1
10
63.6012697540053
20
-11.0658489352034
30
0
41
1
10
63.573172709209
20
-11.081623561627
30
0
41
1
10
63.5275123064432
20
-11.1041688764433
30
0
41
1
10
63.5117010491282
20
-11.1114967552274
30
0
41
1
10
63.4868951682262
20
-11.1221676371268
30
0
41
1
10
63.4784442982938
20
-11.1256709490313
30
0
41
1
10
63.4611325168298
20
-11.1325610425488
30
0
41
1
10
63.452250474839
20
-11.1359552734604
30
0
41
1
10
63.425124928081
20
-11.145867043992
30
0
41
1
10
63.4063827480918
20
-11.1521271204754
30
0
41
1
10
63.3672839091537
20
-11.1638338828764
30
0
41
1
10
63.3469300412957
20
-11.1692818307578
30
0
41
1
10
63.3148564365659
20
-11.1767072948698
30
0
41
1
10
63.3038669846449
20
-11.1790649473026
30
0
41
1
10
63.2814978052867
20
-11.1834574038264
30
0
41
1
10
63.2701444170971
20
-11.1854884162901
30
0
41
1
10
63.2355328874268
20
-11.1910484355825
30
0
41
1
10
63.2117269649448
20
-11.1940480288399
30
0
41
1
10
63.1746874626764
20
-11.1972840029315
30
0
41
1
10
63.162076800733
20
-11.1981503952381
30
0
41
1
10
63.1369886618248
20
-11.1993948593627
30
0
41
1
10
63.0993512425248
20
-11.2005502234764
30
0
41
1
10
63.0616982156924
20
-11.199582902805
30
0
41
1
10
63.0240347422921
20
-11.1971898170292
30
0
41
1
10
63.0115825372279
20
-11.1961589616639
30
0
41
1
10
62.987185586197
20
-11.1936917191285
30
0
41
1
10
62.963191533398
20
-11.1908126088322
30
0
41
1
10
62.939933396369
20
-11.1871747529927
30
0
41
1
10
62.9170135773338
20
-11.1831842551954
30
0
41
1
10
62.9057159366266
20
-11.1810094532894
30
0
41
1
10
62.8727783813582
20
-11.1741014910721
30
0
41
1
10
62.8519007047782
20
-11.1689578967645
30
0
41
1
10
62.8118228740379
20
-11.1578030121398
30
0
41
1
10
62.7926258656323
20
-11.1517902328062
30
0
41
1
10
62.7555974333815
20
-11.1390262924169
30
0
41
1
10
62.7377440403205
20
-11.1322603762811
30
0
41
1
10
62.703682228978
20
-11.1182978895104
30
0
41
1
10
62.6873960812405
20
-11.111075797157
30
0
41
1
10
62.6403552006691
20
-11.0887806626004
30
0
41
1
10
62.6113960846171
20
-11.0730840285727
30
0
41
1
10
62.5705667665841
20
-11.048500340674
30
0
41
1
10
62.5573988169119
20
-11.0401309826585
30
0
41
1
10
62.5318422867453
20
-11.0230631353551
30
0
41
1
10
62.5194391284508
20
-11.0143535308796
30
0
41
1
10
62.4833850063205
20
-10.9878301497715
30
0
41
1
10
62.4609682022937
20
-10.9696939421726
30
0
41
1
10
62.4187332523438
20
-10.9325749256116
30
0
41
1
10
62.3989201412343
20
-10.9135915214932
30
0
41
1
10
62.3428124337144
20
-10.8554161282107
30
0
41
1
10
62.3098114291737
20
-10.8150039423
30
0
41
1
10
62.2510656892664
20
-10.7309786837231
30
0
41
1
10
62.2253437705818
20
-10.687363349416
30
0
41
1
10
62.1918790171668
20
-10.6194674230994
30
0
41
1
10
62.181602600333
20
-10.5964550162989
30
0
41
1
10
62.1628646336052
20
-10.5498680733017
30
0
41
1
10
62.1543883658244
20
-10.5262640550905
30
0
41
1
10
62.1316291394054
20
-10.4545118104942
30
0
41
1
10
62.1199995029452
20
-10.4054245582057
30
0
41
1
10
62.1081400381709
20
-10.3298609716418
30
0
41
1
10
62.1051217524279
20
-10.3043507133341
30
0
41
1
10
62.1020693279546
20
-10.2655920994279
30
0
41
1
10
62.1009122538715
20
-10.2460894561099
30
0
41
1
10
62.1002292685026
20
-10.2231180302522
30
0
41
1
10
62.100082013584
20
-10.2132260540656
30
0
41
1
10
62.1000164643114
20
-10.2066209074953
30
0
41
1
10
62.1
20
-10.2032900987863
30
0
41
1
10
62.1
20
-10.2
30
0
0
SPLINE
5
1F7
100
AcDbEntity
8
1
62
256
6
ByLayer
370
18
48
1
60
0
100
AcDbSpline
70
4
71
3
72
16
73
12
40
0
40
0
40
0
40
0
40
0.0024381196016452
40
0.0024381196016452
40
0.2179304957262
40
0.2179304957262
40
0.433422871850756
40
0.433422871850756
40
0.647959065228742
40
0.647959065228742
40
1
40
1
40
1
40
1
41
1
10
62.0239220223712
20
-1.41397291373278
30
0
41
1
10
62.0254805741725
20
-1.41398198302204
30
0
41
1
10
62.0270402643566
20
-1.41398651705231
30
0
41
1
10
62.1665545219848
20
-1.41398651705231
30
0
41
1
10
62.2983766862042
20
-1.37943367152383
30
0
41
1
10
62.5497584877387
20
-1.24122228941002
30
0
41
1
10
62.6429904022808
20
-1.14555986105529
30
0
41
1
10
62.7643527085609
20
-0.901113888325995
30
0
41
1
10
62.7950090258212
20
-0.738512262309769
30
0
41
1
10
62.7950090258212
20
-0.205314430331441
30
0
41
1
10
62.7950090258212
20
0.125986382676672
30
0
41
1
10
62.7950090258212
20
0.457287195684842
30
0
0
SPLINE
5
1F8
100
AcDbEntity
8
1
62
256
6
ByLayer
370
18
48
1
60
0
100
AcDbSpline
70
4
71
3
72
16
73
12
40
0
40
0
40
0
40
0
40
0.0002638838764648
40
0.0002638838764648
40
0.272534087073171
40
0.272534087073171
40
0.5414944542496
40
0.5414944542496
40
0.746969542266903
40
0.746969542266903
40
1
40
1
40
1
40
1
41
1
10
61.9821554677728
20
-1.0691355017878
30
0
41
1
10
61.9820537267151
20
-1.06913554629114
30
0
41
1
10
61.9819519742872
20
-1.06913556854283
30
0
41
1
10
61.8768523238749
20
-1.06913556854283
30
0
41
1
10
61.7895642416903
20
-1.04665060810282
30
0
41
1
10
61.6507619840801
20
-0.956669443881594
30
0
41
1
10
61.6011516687591
20
-0.888848864875683
30
0
41
1
10
61.5480633212581
20
-0.732414701334164
30
0
41
1
10
61.535800794354
20
-0.621303590223022
30
0
41
1
10
61.535800794354
20
-0.275097628163394
30
0
41
1
10
61.535800794354
20
-0.0840407175942914
30
0
41
1
10
61.535800794354
20
0.107016192974811
30
0
0
SPLINE
5
1F9
100
AcDbEntity
8
1
62
256
6
ByLayer
370
18
48
1
60
0
100
AcDbSpline
70
4
71
3
72
22
73
18
40
0
40
0
40
0
40
0
40
0.125914321794557
40
0.125914321794557
40
0.228163895166733
40
0.228163895166733
40
0.362005340682979
40
0.362005340682979
40
0.497493843875514
40
0.497493843875514
40
0.625070609655346
40
0.625070609655346
40
0.75364085656554
40
0.75364085656554
40
0.881225123202375
40
0.881225123202375
40
1
40
1
40
1
40
1
41
1
10
61.5462679856025
20
0.107016192974811
30
0
41
1
10
61.5462679856025
20
-0.0840407175942914
30
0
41
1
10
61.5462679856025
20
-0.275097628163394
30
0
41
1
10
61.5462679856025
20
-0.621303590223022
30
0
41
1
10
61.5585305125067
20
-0.732414701334164
30
0
41
1
10
61.6116188600077
20
-0.888848864875683
30
0
41
1
10
61.6612291753287
20
-0.956669443881594
30
0
41
1
10
61.8000314329389
20
-1.04665060810282
30
0
41
1
10
61.8873195151235
20
-1.06913556854283
30
0
41
1
10
62.0911840249045
20
-1.06913556854283
30
0
41
1
10
62.1793209370279
20
-1.04813285851571
30
0
41
1
10
62.3301217814752
20
-0.963794908749549
30
0
41
1
10
62.3824190388775
20
-0.903823915426301
30
0
41
1
10
62.4373888223329
20
-0.747245041096448
30
0
41
1
10
62.4521621606447
20
-0.612496002147168
30
0
41
1
10
62.4521621606447
20
-0.24619067242719
30
0
41
1
10
62.4521621606447
20
-0.0695872397262178
30
0
41
1
10
62.4521621606447
20
0.107016192974811
30
0
0
SPLINE
5
1FA
100
AcDbEntity
8
1
62
256
6
ByLayer
370
18
48
1
60
0
100
AcDbSpline
70
4
71
3
72
20
73
16
40
0
40
0
40
0
40
0
40
0.10949967970077
40
0.10949967970077
40
0.198638810244653
40
0.198638810244653
40
0.288860563665796
40
0.288860563665796
40
0.365773511238728
40
0.365773511238728
40
0.497175732455741
40
0.497175732455741
40
0.760043316473941
40
0.760043316473941
40
1
40
1
40
1
40
1
41
1
10
60.4734723090982
20
11.5
30
0
41
1
10
60.4850956992238
20
11.5000000000001
30
0
41
1
10
60.4957045676753
20
11.499394967806
30
0
41
1
10
60.5105803301768
20
11.4965182445239
30
0
41
1
10
60.5157260561754
20
11.494524567244
30
0
41
1
10
60.520869691453
20
11.4889284167621
30
0
41
1
10
60.5207881774203
20
11.4852041336496
30
0
41
1
10
60.5157290205117
20
11.4773500333072
30
0
41
1
10
60.5114803120844
20
11.4732875726065
30
0
41
1
10
60.4967101794363
20
11.4620134126434
30
0
41
1
10
60.4837827059425
20
11.4544233922415
30
0
41
1
10
60.4412914200987
20
11.4321157216498
30
0
41
1
10
60.4072922921014
20
11.4172635396559
30
0
41
1
10
60.3404847703642
20
11.3899007470104
30
0
41
1
10
60.3071528419628
20
11.3770977412119
30
0
41
1
10
60.2733191375311
20
11.3645751311065
30
0
0
SPLINE
5
1FB
100
AcDbEntity
8
1
62
256
6
ByLayer
370
18
48
1
60
0
100
AcDbSpline
70
4
71
3
72
8
73
4
40
0
40
0
40
0
40
0
40
1
40
1
40
1
40
1
41
1
10
64.8080728920683
20
11.5
30
0
41
1
10
64.7362736963378
20
11.5
30
0
41
1
10
64.6637263036622
20
11.5
30
0
41
1
10
64.5919271079317
20
11.5
30
0
0
SPLINE
5
1FC
100
AcDbEntity
8
1
62
256
6
ByLayer
370
18
48
1
60
0
100
AcDbSpline
70
4
71
3
72
8
73
4
40
0
40
0
40
0
40
0
40
1
40
1
40
1
40
1
41
1
10
60.2733191375311
20
11.3645751311065
30
0
41
1
10
60.182211138182
20
11.3392161215195
30
0
41
1
10
60.0911047459243
20
11.313851340439
30
0
41
1
10
60
20
11.2884806728531
30
0
0
SPLINE
5
1FD
100
AcDbEntity
8
1
62
256
6
ByLayer
370
18
48
1
60
0
100
AcDbSpline
70
4
71
3
72
8
73
4
40
0
40
0
40
0
40
0
40
1
40
1
40
1
40
1
41
1
10
60
20
11.5
30
0
41
1
10
60.146779629192
20
11.5
30
0
41
1
10
60.3059402628951
20
11.5
30
0
41
1
10
60.4734723090969
20
11.5
30
0
0
SPLINE
5
1FE
100
AcDbEntity
8
1
62
256
6
ByLayer
370
18
48
1
60
0
100
AcDbSpline
70
4
71
3
72
8
73
4
40
0
40
0
40
0
40
0
40
1
40
1
40
1
40
1
41
1
10
60
20
11.2884806728531
30
0
41
1
10
59.7556424472593
20
11.0345213219847
30
0
41
1
10
59.5115951353233
20
10.7802516325628
30
0
41
1
10
59.2679491924312
20
10.5256249101894
30
0
0
SPLINE
5
1FF
100
AcDbEntity
8
1
62
256
6
ByLayer
370
18
48
1
60
0
100
AcDbSpline
70
4
71
3
72
28
73
24
40
0
40
0
40
0
40
0
40
0.108288540731954
40
0.108288540731954
40
0.225253580018362
40
0.225253580018362
40
0.342268318548633
40
0.342268318548633
40
0.459393576191648
40
0.459393576191648
40
0.555729824682084
40
0.555729824682084
40
0.63263557324143
40
0.63263557324143
40
0.704746769386181
40
0.704746769386181
40
0.818780459988322
40
0.818780459988322
40
0.901881358114124
40
0.901881358114124
40
0.984963093097928
40
0.984963093097928
40
1
40
1
40
1
40
1
41
1
10
80.2218750000009
20
8.45923980607802
30
0
41
1
10
80.2337662771603
20
8.45923980607802
30
0
41
1
10
80.2456669560802
20
8.45967314215096
30
0
41
1
10
80.2703249608655
20
8.46149286891949
30
0
41
1
10
80.2830990294433
20
8.46295410589045
30
0
41
1
10
80.3084250799708
20
8.4669765671909
30
0
41
1
10
80.3210074956289
20
8.46954224716035
30
0
41
1
10
80.345777505162
20
8.47590945125614
30
0
41
1
10
80.3580076176125
20
8.4797213557523
30
0
41
1
10
80.3796475787424
20
8.48799661043796
30
0
41
1
10
80.3892102009925
20
8.49223929081944
30
0
41
1
10
80.4056823555352
20
8.5009193927184
30
0
41
1
10
80.4127673623426
20
8.505161959075
30
0
41
1
10
80.425709503855
20
8.51420439099923
30
0
41
1
10
80.4316509558073
20
8.51897931807844
30
0
41
1
10
80.4454688851162
20
8.53225219757377
30
0
41
1
10
80.4527099362357
20
8.54157884533214
30
0
41
1
10
80.4608357976939
20
8.55885219766901
30
0
41
1
10
80.4629534958913
20
8.56666577583854
30
0
41
1
10
80.4639530948293
20
8.58204164286087
30
0
41
1
10
80.4628548313893
20
8.58978371973495
30
0
41
1
10
80.4600032140507
20
8.59832765279685
30
0
41
1
10
80.4595180456607
20
8.59963801406491
30
0
41
1
10
80.4589922225114
20
8.60093334178606
30
0
0
SPLINE
5
200
100
AcDbEntity
8
1
62
256
6
ByLayer
370
18
48
1
60
0
100
AcDbSpline
70
4
71
3
72
26
73
22
40
0
40
0
40
0
40
0
40
0.0086569148768282
40
0.0086569148768282
40
0.125591395709175
40
0.125591395709175
40
0.242553460371824
40
0.242553460371824
40
0.359581429952909
40
0.359581429952909
40
0.476756419374691
40
0.476756419374691
40
0.594287938352874
40
0.594287938352874
40
0.734087980384785
40
0.734087980384785
40
0.816818773651443
40
0.816818773651443
40
0.904422913955509
40
0.904422913955509
40
1
40
1
40
1
40
1
41
1
10
80.2218750000009
20
8.45923980607802
30
0
41
1
10
80.2209235231805
20
8.45923980607802
30
0
41
1
10
80.219972041738
20
8.4592425870315
30
0
41
1
10
80.2061785271681
20
8.45932322416922
30
0
41
1
10
80.1933277941588
20
8.45990364108314
30
0
41
1
10
80.16774855283
20
8.46210097648913
30
0
41
1
10
80.1549943492174
20
8.46371995289536
30
0
41
1
10
80.1297277476277
20
8.46807376411596
30
0
41
1
10
80.1171836804597
20
8.47081373973634
30
0
41
1
10
80.0925223761966
20
8.4775576803313
30
0
41
1
10
80.0803598933301
20
8.4815737415575
30
0
41
1
10
80.056793387269
20
8.49111545361797
30
0
41
1
10
80.0453139298847
20
8.49667378518404
30
0
41
1
10
80.0218956918826
20
8.51081913496301
30
0
41
1
10
80.0099991437506
20
8.51995034278235
30
0
41
1
10
79.9948982849133
20
8.53685947224773
30
0
41
1
10
79.9900608852089
20
8.54379820365318
30
0
41
1
10
79.9828904655055
20
8.55876606512106
30
0
41
1
10
79.9806687553517
20
8.56703016466884
30
0
41
1
10
79.9797970951527
20
8.58395030098643
30
0
41
1
10
79.9814652185139
20
8.59282235823702
30
0
41
1
10
79.9847577774887
20
8.60093334178606
30
0
0
SPLINE
5
201
100
AcDbEntity
8
1
62
256
6
ByLayer
370
18
48
1
60
0
100
AcDbSpline
70
4
71
3
72
8
73
4
40
0
40
0
40
0
40
0
40
1
40
1
40
1
40
1
41
1
10
79.9847577774887
20
8.60093334178606
30
0
41
1
10
79.9841767080295
20
8.60739247817924
30
0
41
1
10
79.9835954607761
20
8.61385385392589
30
0
41
1
10
79.9830140245924
20
8.62031761019011
30
0
0
SPLINE
5
202
100
AcDbEntity
8
1
62
256
6
ByLayer
370
18
48
1
60
0
100
AcDbSpline
70
4
71
3
72
28
73
24
40
0
40
0
40
0
40
0
40
0.108288540731915
40
0.108288540731915
40
0.225253580018328
40
0.225253580018328
40
0.342268318548604
40
0.342268318548604
40
0.459393576191624
40
0.459393576191624
40
0.555729824682064
40
0.555729824682064
40
0.632635573241414
40
0.632635573241414
40
0.704746769386168
40
0.704746769386168
40
0.818780459988314
40
0.818780459988314
40
0.90188135811412
40
0.90188135811412
40
0.984963093097928
40
0.984963093097928
40
1
40
1
40
1
40
1
41
1
10
79.3254954058147
20
8.97601237319327
30
0
41
1
10
79.3314410443944
20
8.9657291976327
30
0
41
1
10
79.3377735794322
20
8.95565088791983
30
0
41
1
10
79.3517078712319
20
8.93522173675035
30
0
41
1
10
79.3593840263767
20
8.92489319773824
30
0
41
1
10
79.3755970903609
20
8.90496790857549
30
0
41
1
10
79.3841531306477
20
8.8953470392143
30
0
41
1
10
79.4021619991824
20
8.87705175569789
30
0
41
1
10
79.4116452190231
20
8.86834568840885
30
0
41
1
10
79.4297831548371
20
8.85368855367886
30
0
41
1
10
79.4383182154091
20
8.84749772344554
30
0
41
1
10
79.4542407770454
20
8.83750191979135
30
0
41
1
10
79.4615422892015
20
8.83345050178588
30
0
41
1
10
79.476031948982
20
8.82667820246604
30
0
41
1
10
79.4832397595714
20
8.82387243694194
30
0
41
1
10
79.5019379350435
20
8.81839942903724
30
0
41
1
10
79.5138529326769
20
8.81668240673213
30
0
41
1
10
79.5333089172485
20
8.81805452540516
30
0
41
1
10
79.5413401952546
20
8.82001710861641
30
0
41
1
10
79.5555825887278
20
8.82660580154709
30
0
41
1
10
79.5619643218285
20
8.83130190080465
30
0
41
1
10
79.5681990815236
20
8.83789541557076
30
0
41
1
10
79.569131722317
20
8.8389478041405
30
0
41
1
10
79.570030882774
20
8.84002789885085
30
0
0
SPLINE
5
203
100
AcDbEntity
8
1
62
256
6
ByLayer
370
18
48
1
60
0
100
AcDbSpline
70
4
71
3
72
8
73
4
40
0
40
0
40
0
40
0
40
1
40
1
40
1
40
1
41
1
10
79.5882232672978
20
8.84791876760619
30
0
41
1
10
79.5821572067616
20
8.84528736536595
30
0
41
1
10
79.5760931173144
20
8.8426570983687
30
0
41
1
10
79.570030882774
20
8.84002789885085
30
0
0
SPLINE
5
204
100
AcDbEntity
8
1
62
256
6
ByLayer
370
18
48
1
60
0
100
AcDbSpline
70
4
71
3
72
34
73
30
40
0
40
0
40
0
40
0
40
0.031249999999978
40
0.031249999999978
40
0.062499999999956
40
0.062499999999956
40
0.124999999999912
40
0.124999999999912
40
0.249999999999896
40
0.249999999999896
40
0.312499999999941
40
0.312499999999941
40
0.374999999999985
40
0.374999999999985
40
0.43750000000003
40
0.43750000000003
40
0.500000000000075
40
0.500000000000075
40
0.625000000000169
40
0.625000000000169
40
0.687500000000141
40
0.687500000000141
40
0.750000000000113
40
0.750000000000113
40
0.875000000000056
40
0.875000000000056
40
0.937500000000028
40
0.937500000000028
40
1
40
1
40
1
40
1
41
1
10
79.9830140245924
20
8.62031761019011
30
0
41
1
10
79.9825962432062
20
8.62496203571357
30
0
41
1
10
79.9818047796919
20
8.62961478804863
30
0
41
1
10
79.979628518797
20
8.63879018419635
30
0
41
1
10
79.9782470200502
20
8.64331367325883
30
0
41
1
10
79.9733722265213
20
8.65673038075585
30
0
41
1
10
79.9691574277443
20
8.66547177326134
30
0
41
1
10
79.9542419307938
20
8.69126852981145
30
0
41
1
10
79.9415673162683
20
8.70743928132356
30
0
41
1
10
79.9201932580284
20
8.73015837779957
30
0
41
1
10
79.9126312057779
20
8.73750202187932
30
0
41
1
10
79.8968651784272
20
8.75164642829276
30
0
41
1
10
79.8886676940095
20
8.7584445101358
30
0
41
1
10
79.8716858882027
20
8.77154057667076
30
0
41
1
10
79.862897171467
20
8.77783830463704
30
0
41
1
10
79.8449236711662
20
8.78983378995645
30
0
41
1
10
79.8357179591273
20
8.79554827633689
30
0
41
1
10
79.8074472719422
20
8.81184831663455
30
0
41
1
10
79.787899039861
20
8.82149907925191
30
0
41
1
10
79.7579314671094
20
8.83381725116192
30
0
41
1
10
79.7478097374718
20
8.8375699925557
30
0
41
1
10
79.7274763954495
20
8.84423695573048
30
0
41
1
10
79.7172655155872
20
8.84715440308207
30
0
41
1
10
79.6864633432357
20
8.85450443342239
30
0
41
1
10
79.6657202170963
20
8.85755763535172
30
0
41
1
10
79.635433637025
20
8.85787713344712
30
0
41
1
10
79.6254058946477
20
8.85725729348167
30
0
41
1
10
79.6061797039535
20
8.8541559195217
30
0
41
1
10
79.5969393871617
20
8.85169974163352
30
0
41
1
10
79.5882232672978
20
8.84791876760619
30
0
0
SPLINE
5
205
100
AcDbEntity
8
1
62
256
6
ByLayer
370
18
48
1
60
0
100
AcDbSpline
70
4
71
3
72
8
73
4
40
0
40
0
40
0
40
0
40
1
40
1
40
1
40
1
41
1
10
80.8737191172261
20
8.84002789885085
30
0
41
1
10
80.8676568826857
20
8.8426570983687
30
0
41
1
10
80.8615927932385
20
8.84528736536595
30
0
41
1
10
80.8555267327023
20
8.84791876760613
30
0
0
SPLINE
5
206
100
AcDbEntity
8
1
62
256
6
ByLayer
370
18
48
1
60
0
100
AcDbSpline
70
4
71
3
72
26
73
22
40
0
40
0
40
0
40
0
40
0.0086569148768395
40
0.0086569148768395
40
0.125591395709185
40
0.125591395709185
40
0.242553460371832
40
0.242553460371832
40
0.359581429952917
40
0.359581429952917
40
0.476756419374698
40
0.476756419374698
40
0.594287938352879
40
0.594287938352879
40
0.734087980384788
40
0.734087980384788
40
0.816818773651446
40
0.816818773651446
40
0.904422913955509
40
0.904422913955509
40
1
40
1
40
1
40
1
41
1
10
81.1182545941862
20
8.97601237319469
30
0
41
1
10
81.117778855776
20
8.97518956812047
30
0
41
1
10
81.1173006621335
20
8.97436812586699
30
0
41
1
10
81.1103327793296
20
8.96247959203362
30
0
41
1
10
81.1033954940461
20
8.95165200158374
30
0
41
1
10
81.0886673841443
20
8.93061171142995
30
0
41
1
10
81.0808619047074
20
8.92037780736285
30
0
41
1
10
81.0643857672125
20
8.9006664763433
30
0
41
1
10
81.0556947568832
20
8.89116419925926
30
0
41
1
10
81.0374065893192
20
8.87314730308782
30
0
41
1
10
81.0277761629388
20
8.86459951555003
30
0
41
1
10
81.0075531499866
20
8.84889609452176
30
0
41
1
10
80.9968940040913
20
8.84169128096113
30
0
41
1
10
80.9726504329615
20
8.82835908036054
30
0
41
1
10
80.958602720662
20
8.8225331403911
30
0
41
1
10
80.9360220908188
20
8.81771848256307
30
0
41
1
10
80.9274293212031
20
8.81691457555809
30
0
41
1
10
80.9105063549861
20
8.81799233848579
30
0
41
1
10
80.9020209682057
20
8.82008368041505
30
0
41
1
10
80.8864607318229
20
8.82753064996911
30
0
41
1
10
80.8793494110547
20
8.83326464482337
30
0
41
1
10
80.8737191172261
20
8.84002789885085
30
0
0
SPLINE
5
207
100
AcDbEntity
8
1
62
256
6
ByLayer
370
18
48
1
60
0
100
AcDbSpline
70
4
71
3
72
8
73
4
40
0
40
0
40
0
40
0
40
1
40
1
40
1
40
1
41
1
10
80.4607359754076
20
8.62031761019011
30
0
41
1
10
80.460154539224
20
8.61385385392589
30
0
41
1
10
80.4595732919706
20
8.60739247817924
30
0
41
1
10
80.4589922225113
20
8.60093334178606
30
0
0
SPLINE
5
208
100
AcDbEntity
8
1
62
256
6
ByLayer
370
18
48
1
60
0
100
AcDbSpline
70
4
71
3
72
30
73
26
40
0
40
0
40
0
40
0
40
0.0212218158422363
40
0.0212218158422363
40
0.126059559525533
40
0.126059559525533
40
0.201107055759459
40
0.201107055759459
40
0.294112283011609
40
0.294112283011609
40
0.397100605352966
40
0.397100605352966
40
0.500042881039266
40
0.500042881039266
40
0.583971495240648
40
0.583971495240648
40
0.666565148488668
40
0.666565148488668
40
0.767859984421262
40
0.767859984421262
40
0.83872056129773
40
0.83872056129773
40
0.909748878403058
40
0.909748878403058
40
1
40
1
40
1
40
1
41
1
10
80.8555267327022
20
8.84791876760619
30
0
41
1
10
80.8525697608358
20
8.84920147527896
30
0
41
1
10
80.8495246477358
20
8.85033864492857
30
0
41
1
10
80.8312795243766
20
8.8562213116212
30
0
41
1
10
80.8145145465112
20
8.85798406766935
30
0
41
1
10
80.7855580061216
20
8.85760594518769
30
0
41
1
10
80.7732066894146
20
8.85641178370264
30
0
41
1
10
80.7456037221563
20
8.85198755414217
30
0
41
1
10
80.7302457630643
20
8.848320729877
30
0
41
1
10
80.6982757854479
20
8.83864804984847
30
0
41
1
10
80.6815836842759
20
8.83239411526273
30
0
41
1
10
80.6489732350063
20
8.81805099745935
30
0
41
1
10
80.6329513124213
20
8.80991506822778
30
0
41
1
10
80.6048447320377
20
8.79371131951245
30
0
41
1
10
80.5925220586912
20
8.78587364892604
30
0
41
1
10
80.568987885381
20
8.76937215260517
30
0
41
1
10
80.557714922327
20
8.7606910765669
30
0
41
1
10
80.5339036181587
20
8.74041051147373
30
0
41
1
10
80.5215640266356
20
8.72852477772977
30
0
41
1
10
80.5026129125673
20
8.7072629355502
30
0
41
1
10
80.4953540186893
20
8.69815678007501
30
0
41
1
10
80.4823826405505
20
8.67933550164554
30
0
41
1
10
80.4766284165948
20
8.66955760505112
30
0
41
1
10
80.4661248638343
20
8.64686669685858
30
0
41
1
10
80.4619252424099
20
8.63353854870741
30
0
41
1
10
80.4607359754076
20
8.62031761019011
30
0
0
SPLINE
5
209
100
AcDbEntity
8
1
62
256
6
ByLayer
370
18
48
1
60
0
100
AcDbSpline
70
4
71
3
72
28
73
24
40
0
40
0
40
0
40
0
40
0.108288540731943
40
0.108288540731943
40
0.225253580018352
40
0.225253580018352
40
0.342268318548625
40
0.342268318548625
40
0.459393576191641
40
0.459393576191641
40
0.555729824682079
40
0.555729824682079
40
0.632635573241426
40
0.632635573241426
40
0.704746769386177
40
0.704746769386177
40
0.818780459988321
40
0.818780459988321
40
0.901881358114125
40
0.901881358114125
40
0.984963093097931
40
0.984963093097931
40
1
40
1
40
1
40
1
41
1
10
81.1182545941862
20
8.97601237319469
30
0
41
1
10
81.1242002327659
20
8.98629554875532
30
0
41
1
10
81.129768376648
20
8.99679985081457
30
0
41
1
10
81.1404920896337
20
9.01901752198091
30
0
41
1
10
81.1455900030666
20
9.03078215059861
30
0
41
1
10
81.1547029896099
20
9.05465909063946
30
0
41
1
10
81.1587293649812
20
9.06679991894191
30
0
41
1
10
81.1654905059796
20
9.09134517362031
30
0
41
1
10
81.1682373985894
20
9.10379148412352
30
0
41
1
10
81.1717394239053
20
9.12656136693579
30
0
41
1
10
81.1727669855835
20
9.13690940331867
30
0
41
1
10
81.1733165784898
20
9.15540272740947
30
0
41
1
10
81.1731000731411
20
9.16360505942129
30
0
41
1
10
81.171552554873
20
9.17921661534547
30
0
41
1
10
81.1702861962359
20
9.18668678447364
30
0
41
1
10
81.1654059500727
20
9.20511233532966
30
0
41
1
10
81.1607320035588
20
9.21591894676158
30
0
41
1
10
81.1494018804454
20
9.23134500746875
30
0
41
1
10
81.1434883006368
20
9.23697021868145
30
0
41
1
10
81.1302455061016
20
9.24528775053028
30
0
41
1
10
81.1227655095609
20
9.24808436740017
30
0
41
1
10
81.1136791325271
20
9.24974591710793
30
0
41
1
10
81.1122613233437
20
9.24995919114622
30
0
41
1
10
81.1108363397374
20
9.25012985759491
30
0
0
SPLINE
5
20A
100
AcDbEntity
8
1
62
256
6
ByLayer
370
18
48
1
60
0
100
AcDbSpline
70
4
71
3
72
26
73
22
40
0
40
0
40
0
40
0
40
0.0086569148768713
40
0.0086569148768713
40
0.125591395709213
40
0.125591395709213
40
0.242553460371856
40
0.242553460371856
40
0.359581429952936
40
0.359581429952936
40
0.476756419374713
40
0.476756419374713
40
0.594287938352891
40
0.594287938352891
40
0.734087980384796
40
0.734087980384796
40
0.81681877365145
40
0.81681877365145
40
0.904422913955512
40
0.904422913955512
40
1
40
1
40
1
40
1
41
1
10
79.3254954058147
20
8.97601237319327
30
0
41
1
10
79.3250196674045
20
8.97683517826749
30
0
41
1
10
79.3245463796045
20
8.97765935415651
30
0
41
1
10
79.3177207478385
20
8.98962715299768
30
0
41
1
10
79.3118073001127
20
9.00102532380868
30
0
41
1
10
79.3009561686857
20
9.02422516459535
30
0
41
1
10
79.29600744451
20
9.03605007105398
30
0
41
1
10
79.2872169804152
20
9.06003815036411
30
0
41
1
10
79.2833639235765
20
9.07223124598096
30
0
41
1
10
79.2769907868774
20
9.09686687869953
30
0
41
1
10
79.2744587303914
20
9.10935450138584
30
0
41
1
10
79.2711152372824
20
9.13441012010202
30
0
41
1
10
79.2702949257934
20
9.14705940194938
30
0
41
1
10
79.2711202589211
20
9.17422980665634
30
0
41
1
10
79.2732714230887
20
9.18897933412671
30
0
41
1
10
79.2807511940946
20
9.21028210346117
30
0
41
1
10
79.2845065640058
20
9.21784463678893
30
0
41
1
10
79.2942591105194
20
9.23132387411914
30
0
41
1
10
79.300522787146
20
9.23725773611596
30
0
41
1
10
79.3152113633298
20
9.24621227037233
30
0
41
1
10
79.3239908074592
20
9.2490611915461
30
0
41
1
10
79.3329136602626
20
9.25012985759491
30
0
0
SPLINE
5
20B
100
AcDbEntity
8
1
62
256
6
ByLayer
370
18
48
1
60
0
100
AcDbSpline
70
4
71
3
72
8
73
4
40
0
40
0
40
0
40
0
40
1
40
1
40
1
40
1
41
1
10
79.3329136602626
20
9.25012985759491
30
0
41
1
10
79.3383948253438
20
9.25376403566673
30
0
41
1
10
79.3438776675377
20
9.25739958871867
30
0
41
1
10
79.3493622918902
20
9.2610366037747
30
0
0
SPLINE
5
20C
100
AcDbEntity
8
1
62
256
6
ByLayer
370
18
48
1
60
0
100
AcDbSpline
70
4
71
3
72
26
73
22
40
0
40
0
40
0
40
0
40
0.0086569148801293
40
0.0086569148801293
40
0.125591395712035
40
0.125591395712035
40
0.242553460374244
40
0.242553460374244
40
0.359581429954889
40
0.359581429954889
40
0.476756419376228
40
0.476756419376228
40
0.594287938353997
40
0.594287938353997
40
0.734087980384734
40
0.734087980384734
40
0.816818773651405
40
0.816818773651405
40
0.904422913955489
40
0.904422913955489
40
1
40
1
40
1
40
1
41
1
10
79.3254954058147
20
10.0095575074267
30
0
41
1
10
79.3250196674043
20
10.0087347023522
30
0
41
1
10
79.3245463796041
20
10.0079104318268
30
0
41
1
10
79.317720747838
20
9.99593988872562
30
0
41
1
10
79.3118073001123
20
9.98452204480895
30
0
41
1
10
79.3009561686853
20
9.9612466344762
30
0
41
1
10
79.2960074445097
20
9.94936577998817
30
0
41
1
10
79.2872169804149
20
9.92522357481812
30
0
41
1
10
79.2833639235759
20
9.91293216502629
30
0
41
1
10
79.2769907868769
20
9.88804612421205
30
0
41
1
10
79.2744587303884
20
9.87540604937124
30
0
41
1
10
79.2711152372793
20
9.84997140190995
30
0
41
1
10
79.2702949257934
20
9.83709439350321
30
0
41
1
10
79.2711202589211
20
9.80930969745111
30
0
41
1
10
79.2732714230887
20
9.79414492934404
30
0
41
1
10
79.2807511940945
20
9.7720001240919
30
0
41
1
10
79.2845065640058
20
9.76407738059868
30
0
41
1
10
79.2942591105194
20
9.7497764208486
30
0
41
1
10
79.300522787146
20
9.7433647676084
30
0
41
1
10
79.3152113633298
20
9.73337296833762
30
0
41
1
10
79.3239908074592
20
9.72994576471882
30
0
41
1
10
79.3329136602626
20
9.72831897172449
30
0
0
SPLINE
5
20D
100
AcDbEntity
8
1
62
256
6
ByLayer
370
18
48
1
60
0
100
AcDbSpline
70
4
71
3
72
8
73
4
40
0
40
0
40
0
40
0
40
1
40
1
40
1
40
1
41
1
10
79.3329136602626
20
9.72831897172449
30
0
41
1
10
79.3383948253438
20
9.72429327604573
30
0
41
1
10
79.3438776675377
20
9.72026661159873
30
0
41
1
10
79.3493622918902
20
9.71623891860679
30
0
0
SPLINE
5
20E
100
AcDbEntity
8
1
62
256
6
ByLayer
370
18
48
1
60
0
100
AcDbSpline
70
4
71
3
72
26
73
22
40
0
40
0
40
0
40
0
40
0.0742301486906304
40
0.0742301486906304
40
0.125696238139608
40
0.125696238139608
40
0.200645519545572
40
0.200645519545572
40
0.29352903064535
40
0.29352903064535
40
0.396382571934822
40
0.396382571934822
40
0.499190126830596
40
0.499190126830596
40
0.558129055846334
40
0.558129055846334
40
0.765978231673767
40
0.765978231673767
40
0.910227308046385
40
0.910227308046385
40
1
40
1
40
1
40
1
41
1
10
79.3493622918902
20
9.71623891860673
30
0
41
1
10
79.3586262200334
20
9.70943585315285
30
0
41
1
10
79.3669121019477
20
9.70083955429567
30
0
41
1
10
79.3792555738631
20
9.68481371901333
30
0
41
1
10
79.3838881723683
20
9.67775390404489
30
0
41
1
10
79.394268700788
20
9.65969933350453
30
0
41
1
10
79.3996105318105
20
9.6483048802786
30
0
41
1
10
79.4099764738785
20
9.62199116230204
30
0
41
1
10
79.4146646084926
20
9.60676754739427
30
0
41
1
10
79.4225863942095
20
9.57409683274045
30
0
41
1
10
79.425638242357
20
9.556460297032
30
0
41
1
10
79.4296766594452
20
9.52098870991449
30
0
41
1
10
79.430675
20
9.5030404142114
30
0
41
1
10
79.430675
20
9.47494552161817
30
0
41
1
10
79.4303453883272
20
9.46470173054786
30
0
41
1
10
79.4273783197986
20
9.41905613481572
30
0
41
1
10
79.42103789909
20
9.38371824106531
30
0
41
1
10
79.4022493585354
20
9.32919300717941
30
0
41
1
10
79.3920591073358
20
9.30779291141232
30
0
41
1
10
79.3703661768726
20
9.27858347541292
30
0
41
1
10
79.3605805183195
20
9.26847573830827
30
0
41
1
10
79.3493622918902
20
9.2610366037747
30
0
0
SPLINE
5
20F
100
AcDbEntity
8
1
62
256
6
ByLayer
370
18
48
1
60
0
100
AcDbSpline
70
4
71
3
72
8
73
4
40
0
40
0
40
0
40
0
40
1
40
1
40
1
40
1
41
1
10
81.1108363397374
20
9.72831897172443
30
0
41
1
10
81.1053551746562
20
9.72429327604573
30
0
41
1
10
81.0998723324624
20
9.72026661159873
30
0
41
1
10
81.0943877081098
20
9.71623891860679
30
0
0
SPLINE
5
210
100
AcDbEntity
8
1
62
256
6
ByLayer
370
18
48
1
60
0
100
AcDbSpline
70
4
71
3
72
26
73
22
40
0
40
0
40
0
40
0
40
0.0086569148768425
40
0.0086569148768425
40
0.125591395709188
40
0.125591395709188
40
0.242553460371835
40
0.242553460371835
40
0.359581429952918
40
0.359581429952918
40
0.476756419374698
40
0.476756419374698
40
0.594287938352879
40
0.594287938352879
40
0.734087980384788
40
0.734087980384788
40
0.816818773651445
40
0.816818773651445
40
0.904422913955509
40
0.904422913955509
40
1
40
1
40
1
40
1
41
1
10
81.1182545941854
20
10.0095575074267
30
0
41
1
10
81.1187303325956
20
10.0087347023525
30
0
41
1
10
81.1192036203955
20
10.0079104318274
30
0
41
1
10
81.1260292521616
20
9.99593988872653
30
0
41
1
10
81.1319426998873
20
9.98452204480986
30
0
41
1
10
81.1427938313144
20
9.96124663447699
30
0
41
1
10
81.1477425554901
20
9.94936577998897
30
0
41
1
10
81.1565330195849
20
9.9252235748188
30
0
41
1
10
81.1603860764235
20
9.91293216502686
30
0
41
1
10
81.1667592131226
20
9.88804612421251
30
0
41
1
10
81.1692912696086
20
9.87540604937089
30
0
41
1
10
81.1726347627177
20
9.84997140190961
30
0
41
1
10
81.1734550742066
20
9.83709439350361
30
0
41
1
10
81.1726297410789
20
9.8093096974514
30
0
41
1
10
81.1704785769114
20
9.79414492934416
30
0
41
1
10
81.1629988059055
20
9.7720001240919
30
0
41
1
10
81.1592434359943
20
9.76407738059868
30
0
41
1
10
81.1494908894806
20
9.7497764208486
30
0
41
1
10
81.143227212854
20
9.7433647676084
30
0
41
1
10
81.1285386366702
20
9.73337296833768
30
0
41
1
10
81.1197591925408
20
9.72994576471882
30
0
41
1
10
81.1108363397374
20
9.72831897172449
30
0
0
SPLINE
5
211
100
AcDbEntity
8
1
62
256
6
ByLayer
370
18
48
1
60
0
100
AcDbSpline
70
4
71
3
72
8
73
4
40
0
40
0
40
0
40
0
40
1
40
1
40
1
40
1
41
1
10
81.0943877081098
20
9.2610366037747
30
0
41
1
10
81.0998723324624
20
9.25739958871867
30
0
41
1
10
81.1053551746562
20
9.25376403566673
30
0
41
1
10
81.1108363397374
20
9.25012985759491
30
0
0
SPLINE
5
212
100
AcDbEntity
8
1
62
256
6
ByLayer
370
18
48
1
60
0
100
AcDbSpline
70
4
71
3
72
30
73
26
40
0
40
0
40
0
40
0
40
0.0212218158422364
40
0.0212218158422364
40
0.126059559525533
40
0.126059559525533
40
0.201107055759459
40
0.201107055759459
40
0.294112283011608
40
0.294112283011608
40
0.397100605352965
40
0.397100605352965
40
0.500042881039265
40
0.500042881039265
40
0.583971495240648
40
0.583971495240648
40
0.666565148488669
40
0.666565148488669
40
0.767859984421263
40
0.767859984421263
40
0.83872056129773
40
0.83872056129773
40
0.909748878403058
40
0.909748878403058
40
1
40
1
40
1
40
1
41
1
10
81.0943877081098
20
9.71623891860673
30
0
41
1
10
81.0917141640838
20
9.71427557274279
30
0
41
1
10
81.089123984419
20
9.712163934937
30
0
41
1
10
81.0744308956497
20
9.69905736476136
30
0
41
1
10
81.0641634813414
20
9.6852356532587
30
0
41
1
10
81.0494812992118
20
9.65969933350408
30
0
41
1
10
81.0441394681925
20
9.6483048802786
30
0
41
1
10
81.0337735261244
20
9.62199116230227
30
0
41
1
10
81.0290853915078
20
9.60676754739427
30
0
41
1
10
81.021163605791
20
9.57409683274045
30
0
41
1
10
81.018111757643
20
9.556460297032
30
0
41
1
10
81.0140733405549
20
9.52098870991449
30
0
41
1
10
81.013075
20
9.5030404142114
30
0
41
1
10
81.013075
20
9.4706329167808
30
0
41
1
10
81.013740125145
20
9.45607454310226
30
0
41
1
10
81.0163988110011
20
9.42753810164049
30
0
41
1
10
81.0183759070709
20
9.41349785737015
30
0
41
1
10
81.0243077607084
20
9.38290959494731
30
0
41
1
10
81.0286245579653
20
9.36639863321363
30
0
41
1
10
81.0379589643526
20
9.33959265465734
30
0
41
1
10
81.0423995134937
20
9.32886169284546
30
0
41
1
10
81.052620180778
20
9.30845459974671
30
0
41
1
10
81.0584351889736
20
9.29871174592648
30
0
41
1
10
81.0733838231275
20
9.27858347541292
30
0
41
1
10
81.0831694816806
20
9.26847573830827
30
0
41
1
10
81.0943877081098
20
9.2610366037747
30
0
0
SPLINE
5
213
100
AcDbEntity
8
1
62
256
6
ByLayer
370
18
48
1
60
0
100
AcDbSpline
70
4
71
3
72
28
73
24
40
0
40
0
40
0
40
0
40
0.10828854073194
40
0.10828854073194
40
0.22525358001835
40
0.22525358001835
40
0.342268318548623
40
0.342268318548623
40
0.459393576191639
40
0.459393576191639
40
0.555729824682077
40
0.555729824682077
40
0.632635573241424
40
0.632635573241424
40
0.704746769386176
40
0.704746769386176
40
0.818780459988319
40
0.818780459988319
40
0.901881358114123
40
0.901881358114123
40
0.984963093097929
40
0.984963093097929
40
1
40
1
40
1
40
1
41
1
10
81.1182545941854
20
10.0095575074267
30
0
41
1
10
81.1123089556057
20
10.0198406829873
30
0
41
1
10
81.1059764205679
20
10.0299043052471
30
0
41
1
10
81.0920421287681
20
10.0502710428731
30
0
41
1
10
81.0843659736233
20
10.0605492871546
30
0
41
1
10
81.0681529096391
20
10.0803329554726
30
0
41
1
10
81.0595968693523
20
10.0898623827773
30
0
41
1
10
81.0415880008176
20
10.1079232004261
30
0
41
1
10
81.0321047809769
20
10.1164859451514
30
0
41
1
10
81.013966845163
20
10.1308180666746
30
0
41
1
10
81.005431784591
20
10.1368379484439
30
0
41
1
10
80.9895092229547
20
10.1464685891734
30
0
41
1
10
80.9822077107985
20
10.1503367024784
30
0
41
1
10
80.9677180510181
20
10.1567026511585
30
0
41
1
10
80.9605102404286
20
10.1592873697323
30
0
41
1
10
80.9418120649566
20
10.164119704549
30
0
41
1
10
80.9298970673232
20
10.1653626095909
30
0
41
1
10
80.9104410827515
20
10.1630401450046
30
0
41
1
10
80.9024098047455
20
10.1606259943023
30
0
41
1
10
80.8881674112723
20
10.153098016886
30
0
41
1
10
80.8817856781716
20
10.1479031961351
30
0
41
1
10
80.8755509184764
20
10.1407319441929
30
0
41
1
10
80.8746182776831
20
10.1395901583031
30
0
41
1
10
80.8737191172261
20
10.1384209304685
30
0
0
SPLINE
5
214
100
AcDbEntity
8
1
62
256
6
ByLayer
370
18
48
1
60
0
100
AcDbSpline
70
4
71
3
72
28
73
24
40
0
40
0
40
0
40
0
40
0.108288540728039
40
0.108288540728039
40
0.225253580013819
40
0.225253580013819
40
0.342268318543461
40
0.342268318543461
40
0.459393576185839
40
0.459393576185839
40
0.55572982467764
40
0.55572982467764
40
0.632635573237562
40
0.632635573237562
40
0.704746769382398
40
0.704746769382398
40
0.818780459984687
40
0.818780459984687
40
0.901881358110709
40
0.901881358110709
40
0.984963093095476
40
0.984963093095476
40
1
40
1
40
1
40
1
41
1
10
79.3254954058147
20
10.0095575074267
30
0
41
1
10
79.3314410443942
20
10.0198406829869
30
0
41
1
10
79.3377735794317
20
10.0299043052464
30
0
41
1
10
79.3517078712312
20
10.050271042872
30
0
41
1
10
79.3593840263759
20
10.0605492871536
30
0
41
1
10
79.37559709036
20
10.0803329554715
30
0
41
1
10
79.3841531306467
20
10.0898623827763
30
0
41
1
10
79.4021619991812
20
10.1079232004251
30
0
41
1
10
79.4116452190209
20
10.116485945151
30
0
41
1
10
79.4297831548349
20
10.1308180666744
30
0
41
1
10
79.4383182154064
20
10.1368379484443
30
0
41
1
10
79.4542407770429
20
10.1464685891741
30
0
41
1
10
79.4615422891995
20
10.1503367024788
30
0
41
1
10
79.47603194898
20
10.1567026511591
30
0
41
1
10
79.4832397595686
20
10.1592873697335
30
0
41
1
10
79.5019379350407
20
10.1641197045506
30
0
41
1
10
79.5138529326761
20
10.1653626095909
30
0
41
1
10
79.5333089172478
20
10.1630401450048
30
0
41
1
10
79.5413401952524
20
10.1606259943035
30
0
41
1
10
79.5555825887259
20
10.1530980168878
30
0
41
1
10
79.561964321828
20
10.1479031961355
30
0
41
1
10
79.5681990815233
20
10.1407319441933
30
0
41
1
10
79.5691317223169
20
10.1395901583033
30
0
41
1
10
79.570030882774
20
10.1384209304685
30
0
0
SPLINE
5
215
100
AcDbEntity
8
1
62
256
6
ByLayer
370
18
48
1
60
0
100
AcDbSpline
70
4
71
3
72
8
73
4
40
0
40
0
40
0
40
0
40
1
40
1
40
1
40
1
41
1
10
80.4589922225114
20
10.3775154875333
30
0
41
1
10
80.4595732919706
20
10.3706648335332
30
0
41
1
10
80.460154539224
20
10.3638123463915
30
0
41
1
10
80.4607359754076
20
10.3569579121913
30
0
0
SPLINE
5
216
100
AcDbEntity
8
1
62
256
6
ByLayer
370
18
48
1
60
0
100
AcDbSpline
70
4
71
3
72
26
73
22
40
0
40
0
40
0
40
0
40
0.0086569148768343
40
0.0086569148768343
40
0.12559139570918
40
0.12559139570918
40
0.242553460371828
40
0.242553460371828
40
0.359581429952912
40
0.359581429952912
40
0.476756419374694
40
0.476756419374694
40
0.594287938352876
40
0.594287938352876
40
0.734087980384786
40
0.734087980384786
40
0.816818773651444
40
0.816818773651444
40
0.904422913955509
40
0.904422913955509
40
1
40
1
40
1
40
1
41
1
10
80.2218749999992
20
10.5263300745419
30
0
41
1
10
80.2228264768196
20
10.5263300745419
30
0
41
1
10
80.2237779582621
20
10.5263271989525
30
0
41
1
10
80.237571472832
20
10.526243817555
30
0
41
1
10
80.2504222058412
20
10.5256437275354
30
0
41
1
10
80.27600144717
20
10.5233708225832
30
0
41
1
10
80.2887556507827
20
10.5216958981476
30
0
41
1
10
80.3140222523724
20
10.517187961067
30
0
41
1
10
80.3265663195403
20
10.5143496712715
30
0
41
1
10
80.3512276238035
20
10.5073553225807
30
0
41
1
10
80.3633901066699
20
10.5031868091992
30
0
41
1
10
80.3869566127311
20
10.4932660683937
30
0
41
1
10
80.3984360701153
20
10.4874800102689
30
0
41
1
10
80.4218543081174
20
10.4727203691447
30
0
41
1
10
80.4337508562494
20
10.4631739206885
30
0
41
1
10
80.4488517150867
20
10.4454227553053
30
0
41
1
10
80.4536891147912
20
10.4381238137344
30
0
41
1
10
80.4608595344945
20
10.4223342298467
30
0
41
1
10
80.4630812446484
20
10.4135923390555
30
0
41
1
10
80.4639529048474
20
10.3956349377235
30
0
41
1
10
80.4622847814862
20
10.386184598028
30
0
41
1
10
80.4589922225114
20
10.3775154875333
30
0
0
SPLINE
5
217
100
AcDbEntity
8
1
62
256
6
ByLayer
370
18
48
1
60
0
100
AcDbSpline
70
4
71
3
72
8
73
4
40
0
40
0
40
0
40
0
40
1
40
1
40
1
40
1
41
1
10
80.8555267327023
20
10.1293567547753
30
0
41
1
10
80.8615927932385
20
10.1323788349515
30
0
41
1
10
80.8676568826857
20
10.1354002133438
30
0
41
1
10
80.8737191172261
20
10.1384209304686
30
0
0
SPLINE
5
218
100
AcDbEntity
8
1
62
256
6
ByLayer
370
18
48
1
60
0
100
AcDbSpline
70
4
71
3
72
30
73
26
40
0
40
0
40
0
40
0
40
0.0212218158422358
40
0.0212218158422358
40
0.126059559525533
40
0.126059559525533
40
0.201107055759458
40
0.201107055759458
40
0.294112283011608
40
0.294112283011608
40
0.397100605352965
40
0.397100605352965
40
0.500042881039265
40
0.500042881039265
40
0.583971495240648
40
0.583971495240648
40
0.666565148488669
40
0.666565148488669
40
0.767859984421263
40
0.767859984421263
40
0.838720561297731
40
0.838720561297731
40
0.909748878403059
40
0.909748878403059
40
1
40
1
40
1
40
1
41
1
10
80.4607359754076
20
10.3569579121913
30
0
41
1
10
80.461019403248
20
10.3536166383993
30
0
41
1
10
80.4614743366833
20
10.350274007962
30
0
41
1
10
80.4650263712731
20
10.330744499105
30
0
41
1
10
80.4715239348302
20
10.3147494277188
30
0
41
1
10
80.4857982930902
20
10.2889779930762
30
0
41
1
10
80.4928077787779
20
10.278544960871
30
0
41
1
10
80.5100448039682
20
10.2561924969068
30
0
41
1
10
80.5207146284436
20
10.2444173911395
30
0
41
1
10
80.5447628203431
20
10.2210437247177
30
0
41
1
10
80.5584030733671
20
10.2095115193677
30
0
41
1
10
80.5869751055486
20
10.1881838276877
30
0
41
1
10
80.6019986875787
20
10.1783212359526
30
0
41
1
10
80.6301052679624
20
10.1621174872372
30
0
41
1
10
80.6430930664538
20
10.1554301722508
30
0
41
1
10
80.6692859256201
20
10.1435269597059
30
0
41
1
10
80.682535984744
20
10.1382653357103
30
0
41
1
10
80.7122791425497
20
10.1282441046712
30
0
41
1
10
80.7289355313297
20
10.1238244123721
30
0
41
1
10
80.7572210517853
20
10.1187067300414
30
0
41
1
10
80.7689204948044
20
10.117280648925
30
0
41
1
10
80.7921125402274
20
10.1161363474294
30
0
41
1
10
80.8036817723789
20
10.116415696892
30
0
41
1
10
80.8291339592932
20
10.1195789383143
30
0
41
1
10
80.8431192392707
20
10.1231754053291
30
0
41
1
10
80.8555267327023
20
10.1293567547752
30
0
0
SPLINE
5
219
100
AcDbEntity
8
1
62
256
6
ByLayer
370
18
48
1
60
0
100
AcDbSpline
70
4
71
3
72
26
73
22
40
0
40
0
40
0
40
0
40
0.0271387234067459
40
0.0271387234067459
40
0.133143415966932
40
0.133143415966932
40
0.291286691908894
40
0.291286691908894
40
0.500757280312417
40
0.500757280312417
40
0.626885076483452
40
0.626885076483452
40
0.697530097277508
40
0.697530097277508
40
0.76820995110537
40
0.76820995110537
40
0.838963700897016
40
0.838963700897016
40
0.909884938037895
40
0.909884938037895
40
1
40
1
40
1
40
1
41
1
10
79.9830140245924
20
10.3569579121911
30
0
41
1
10
79.9826503178014
20
10.3526702460059
30
0
41
1
10
79.9820040529127
20
10.3483794324873
30
0
41
1
10
79.9777121673361
20
10.3277046670611
30
0
41
1
10
79.9707764208763
20
10.3115663934346
30
0
41
1
10
79.949098205956
20
10.2740087456986
30
0
41
1
10
79.9318161213746
20
10.2530888401005
30
0
41
1
10
79.8871707842792
20
10.2093855394944
30
0
41
1
10
79.8575214382014
20
10.1874128846648
30
0
41
1
10
79.8073104894292
20
10.1584657276091
30
0
41
1
10
79.7875099191993
20
10.1488536781377
30
0
41
1
10
79.7560399962586
20
10.1364325558382
30
0
41
1
10
79.7445634710853
20
10.1324700030813
30
0
41
1
10
79.7214769075678
20
10.125720721301
30
0
41
1
10
79.7098267973476
20
10.1229219959769
30
0
41
1
10
79.6865289482149
20
10.1187067300413
30
0
41
1
10
79.6748295051964
20
10.1172806489244
30
0
41
1
10
79.6516374597734
20
10.1161363474286
30
0
41
1
10
79.6400682276212
20
10.116415696892
30
0
41
1
10
79.6146160407069
20
10.1195789383143
30
0
41
1
10
79.6006307607293
20
10.1231754053291
30
0
41
1
10
79.5882232672978
20
10.1293567547752
30
0
0
SPLINE
5
21A
100
AcDbEntity
8
1
62
256
6
ByLayer
370
18
48
1
60
0
100
AcDbSpline
70
4
71
3
72
8
73
4
40
0
40
0
40
0
40
0
40
1
40
1
40
1
40
1
41
1
10
79.5882232672978
20
10.1293567547752
30
0
41
1
10
79.5821572067616
20
10.1323788349515
30
0
41
1
10
79.5760931173144
20
10.1354002133438
30
0
41
1
10
79.570030882774
20
10.1384209304685
30
0
0
SPLINE
5
21B
100
AcDbEntity
8
1
62
256
6
ByLayer
370
18
48
1
60
0
100
AcDbSpline
70
4
71
3
72
28
73
24
40
0
40
0
40
0
40
0
40
0.108288540731948
40
0.108288540731948
40
0.225253580018357
40
0.225253580018357
40
0.342268318548629
40
0.342268318548629
40
0.459393576191644
40
0.459393576191644
40
0.555729824682081
40
0.555729824682081
40
0.632635573241428
40
0.632635573241428
40
0.704746769386179
40
0.704746769386179
40
0.818780459988321
40
0.818780459988321
40
0.901881358114123
40
0.901881358114123
40
0.984963093097929
40
0.984963093097929
40
1
40
1
40
1
40
1
41
1
10
80.2218749999992
20
10.5263300745419
30
0
41
1
10
80.2099837228398
20
10.5263300745419
30
0
41
1
10
80.1980830439199
20
10.525882051016
30
0
41
1
10
80.1734250391345
20
10.5239999107039
30
0
41
1
10
80.1606509705567
20
10.5224883790024
30
0
41
1
10
80.1353249200293
20
10.5183242968571
30
0
41
1
10
80.1227425043712
20
10.5156671748313
30
0
41
1
10
80.097972494838
20
10.5090655048678
30
0
41
1
10
80.0857423823875
20
10.5051102778079
30
0
41
1
10
80.0641024212576
20
10.4965100099155
30
0
41
1
10
80.0545397990076
20
10.49209638107
30
0
41
1
10
80.0380676444649
20
10.4830511162464
30
0
41
1
10
80.0309826376574
20
10.4786252451892
30
0
41
1
10
80.0180404961451
20
10.4691764626253
30
0
41
1
10
80.0120990441927
20
10.4641804885957
30
0
41
1
10
79.9982811148838
20
10.4502669360124
30
0
41
1
10
79.9910400637644
20
10.4404661709909
30
0
41
1
10
79.9829142023062
20
10.4222424727408
30
0
41
1
10
79.9807965041087
20
10.4139773270802
30
0
41
1
10
79.9797969051707
20
10.3976621755722
30
0
41
1
10
79.9808951686107
20
10.3894213772048
30
0
41
1
10
79.9837467859493
20
10.3802997069668
30
0
41
1
10
79.9842319543394
20
10.3788999483787
30
0
41
1
10
79.9847577774887
20
10.3775154875333
30
0
0
SPLINE
5
21C
100
AcDbEntity
8
1
62
256
6
ByLayer
370
18
48
1
60
0
100
AcDbSpline
70
4
71
3
72
8
73
4
40
0
40
0
40
0
40
0
40
1
40
1
40
1
40
1
41
1
10
79.9830140245924
20
10.3569579121913
30
0
41
1
10
79.9835954607761
20
10.3638123463916
30
0
41
1
10
79.9841767080295
20
10.3706648335332
30
0
41
1
10
79.9847577774887
20
10.3775154875333
30
0
0
SPLINE
5
21D
100
AcDbEntity
8
1
62
256
6
ByLayer
370
18
48
1
60
0
100
AcDbSpline
70
4
71
3
72
32
73
28
40
0
40
0
40
0
40
0
40
0.0625000000000037
40
0.0625000000000037
40
0.125000000000007
40
0.125000000000007
40
0.250000000000003
40
0.250000000000003
40
0.312500000000006
40
0.312500000000006
40
0.37500000000001
40
0.37500000000001
40
0.500000000000002
40
0.500000000000002
40
0.562500000000009
40
0.562500000000009
40
0.593750000000012
40
0.593750000000012
40
0.625000000000016
40
0.625000000000016
40
0.750000000000027
40
0.750000000000027
40
0.812500000000021
40
0.812500000000021
40
0.875000000000014
40
0.875000000000014
40
1
40
1
40
1
40
1
41
1
10
74.2808602444881
20
9.5907791058263
30
0
41
1
10
74.2845278102093
20
9.56512172886403
30
0
41
1
10
74.2890187161969
20
9.54031272750007
30
0
41
1
10
74.299465588054
20
9.49189771930003
30
0
41
1
10
74.3054237822109
20
9.46829450364908
30
0
41
1
10
74.3253958997107
20
9.39883334206513
30
0
41
1
10
74.341488765431
20
9.35429415426222
30
0
41
1
10
74.3698884182218
20
9.2891963563186
30
0
41
1
10
74.3800847125633
20
9.26777584256195
30
0
41
1
10
74.4017024233864
20
9.22594515804127
30
0
41
1
10
74.4131508156794
20
9.20546876035428
30
0
41
1
10
74.4494639184095
20
9.14524186929845
30
0
41
1
10
74.4762815596346
20
9.10668136189622
30
0
41
1
10
74.5208664964387
20
9.05106896424633
30
0
41
1
10
74.5364580089058
20
9.03290632026506
30
0
41
1
10
74.5610353136658
20
9.00623298259904
30
0
41
1
10
74.5694264094797
20
8.99743715722525
30
0
41
1
10
74.5866263202296
20
8.98003974949137
30
0
41
1
10
74.5954546637154
20
8.971420127339
30
0
41
1
10
74.6404229509009
20
8.92907893130825
30
0
41
1
10
74.6789532653298
20
8.89765041637025
30
0
41
1
10
74.7410602081428
20
8.85438841787169
30
0
41
1
10
74.7624847275403
20
8.84061798016239
30
0
41
1
10
74.8069173439607
20
8.81446307798836
30
0
41
1
10
74.8299840712182
20
8.80206249167594
30
0
41
1
10
74.9002925304522
20
8.76781836766372
30
0
41
1
10
74.9490546923145
20
8.74863772295259
30
0
41
1
10
74.9998954815275
20
8.73336137373747
30
0
0
SPLINE
5
21E
100
AcDbEntity
8
1
62
256
6
ByLayer
370
18
48
1
60
0
100
AcDbSpline
70
4
71
3
72
32
73
28
40
0
40
0
40
0
40
0
40
0.124999999999987
40
0.124999999999987
40
0.187499999999996
40
0.187499999999996
40
0.218750000000014
40
0.218750000000014
40
0.250000000000032
40
0.250000000000032
40
0.375000000000021
40
0.375000000000021
40
0.437500000000029
40
0.437500000000029
40
0.500000000000036
40
0.500000000000036
40
0.625000000000032
40
0.625000000000032
40
0.687500000000031
40
0.687500000000031
40
0.75000000000003
40
0.75000000000003
40
0.875000000000017
40
0.875000000000017
40
0.937500000000008
40
0.937500000000008
40
1
40
1
40
1
40
1
41
1
10
74.9998954815275
20
10.6935578600035
30
0
41
1
10
74.9490492908232
20
10.6782798877792
30
0
41
1
10
74.9005261746611
20
10.6596897791588
30
0
41
1
10
74.8308137331457
20
10.6271908603787
30
0
41
1
10
74.8080921210933
20
10.615584459791
30
0
41
1
10
74.7747604467763
20
10.5970229070274
30
0
41
1
10
74.7637480859746
20
10.5906267719922
30
0
41
1
10
74.742120889261
20
10.5775400779187
30
0
41
1
10
74.7315135128831
20
10.5708557841882
30
0
41
1
10
74.6794561983297
20
10.536750328775
30
0
41
1
10
74.6409196109213
20
10.507294059131
30
0
41
1
10
74.5871414084763
20
10.4600314112234
30
0
41
1
10
74.5698321589674
20
10.4436981756704
30
0
41
1
10
74.5368611818389
20
10.4103579140883
30
0
41
1
10
74.5211935850025
20
10.3933570071957
30
0
41
1
10
74.4764346524858
20
10.3413579043381
30
0
41
1
10
74.449572537773
20
10.3053773305525
30
0
41
1
10
74.4132484422892
20
10.2491987977896
30
0
41
1
10
74.4018059367498
20
10.2301015997949
30
0
41
1
10
74.3802126197126
20
10.191073721377
30
0
41
1
10
74.3700511045164
20
10.1711209228926
30
0
41
1
10
74.3415540980924
20
10.1099381482891
30
0
41
1
10
74.3254246906544
20
10.0679602339101
30
0
41
1
10
74.3054251786138
20
10.0020427287711
30
0
41
1
10
74.2994624822939
20
9.97956965800239
30
0
41
1
10
74.2890131931094
20
9.9332482135971
30
0
41
1
10
74.2845244429687
20
9.9094029562774
30
0
41
1
10
74.2808602444881
20
9.88457907506739
30
0
0
SPLINE
5
21F
100
AcDbEntity
8
1
62
256
6
ByLayer
370
18
48
1
60
0
100
AcDbSpline
70
4
71
3
72
26
73
22
40
0
40
0
40
0
40
0
40
0.12499999999998
40
0.249999999999959
40
0.249999999999959
40
0.312499999999971
40
0.312499999999971
40
0.374999999999983
40
0.374999999999983
40
0.499999999999966
40
0.499999999999966
40
0.562499999999956
40
0.562499999999956
40
0.624999999999947
40
0.624999999999947
40
0.749999999999965
40
0.874999999999982
40
0.874999999999982
40
0.937499999999991
40
0.937499999999991
40
1
40
1
40
1
40
1
41
1
10
74.9998954815275
20
13.1180199374343
30
0
41
1
10
74.9623041673757
20
13.1166678053627
30
0
41
1
10
74.8880346769874
20
13.113927337359
30
0
41
1
10
74.8155145841896
20
13.1111363639168
30
0
41
1
10
74.7617900972367
20
13.1090456106082
30
0
41
1
10
74.7439411823231
20
13.1083472023977
30
0
41
1
10
74.7087148544513
20
13.1069664661453
30
0
41
1
10
74.691425678516
20
13.1062876332376
30
0
41
1
10
74.6405045425478
20
13.1042941671808
30
0
41
1
10
74.6078145302872
20
13.1030219765423
30
0
41
1
10
74.5606485449374
20
13.1012423086992
30
0
41
1
10
74.5452391764322
20
13.100670661314
30
0
41
1
10
74.5150566539448
20
13.0995797262973
30
0
41
1
10
74.5002271749788
20
13.0990585781323
30
0
41
1
10
74.4572289798692
20
13.0976067063482
30
0
41
1
10
74.403836056349
20
13.0959655391817
30
0
41
1
10
74.3580706842381
20
13.0950367731462
30
0
41
1
10
74.3266845267162
20
13.0946681618785
30
0
41
1
10
74.3166959990542
20
13.0946003274476
30
0
41
1
10
74.2979131662661
20
13.0945862462041
30
0
41
1
10
74.2890975970032
20
13.0946395357604
30
0
41
1
10
74.2808602444881
20
13.0947573181851
30
0
0
SPLINE
5
220
100
AcDbEntity
8
1
62
256
6
ByLayer
370
18
48
1
60
0
100
AcDbSpline
70
4
71
3
72
18
73
14
40
0
40
0
40
0
40
0
40
0.250000000000002
40
0.250000000000002
40
0.500000000000004
40
0.500000000000004
40
0.624999999999973
40
0.624999999999973
40
0.687499999999957
40
0.687499999999957
40
0.749999999999941
40
0.749999999999941
40
1
40
1
40
1
40
1
41
1
10
79.274234313201
20
2.86097345914356
30
0
41
1
10
79.1803945279774
20
2.83757657290653
30
0
41
1
10
79.0883934836345
20
2.80982741132959
30
0
41
1
10
78.9081046274909
20
2.74596007442477
30
0
41
1
10
78.819816778689
20
2.70984003936223
30
0
41
1
10
78.6902938112433
20
2.64951918571285
30
0
41
1
10
78.6476052938774
20
2.62838775546442
30
0
41
1
10
78.5843265008006
20
2.59516399219808
30
0
41
1
10
78.5633377693671
20
2.58382241909294
30
0
41
1
10
78.5218067680469
20
2.56073929874549
30
0
41
1
10
78.5012472805275
20
2.54898937710544
30
0
41
1
10
78.3994882907674
20
2.48923468060451
30
0
41
1
10
78.3213965126089
20
2.43820692790518
30
0
41
1
10
78.2467859792166
20
2.38447338949282
30
0
0
SPLINE
5
221
100
AcDbEntity
8
1
62
256
6
ByLayer
370
18
48
1
60
0
100
AcDbSpline
70
4
71
3
72
8
73
4
40
0
40
0
40
0
40
0
40
1
40
1
40
1
40
1
41
1
10
75.0865650868331
20
10.4974075171679
30
0
41
1
10
75.0669635803512
20
10.5287115182896
30
0
41
1
10
75.0474147163797
20
10.5599121707811
30
0
41
1
10
75.0279040403337
20
10.5910378521175
30
0
0
SPLINE
5
222
100
AcDbEntity
8
1
62
256
6
ByLayer
370
18
48
1
60
0
100
AcDbSpline
70
4
71
3
72
29
73
25
40
0
40
0
40
0
40
0
40
0.124999999999996
40
0.124999999999996
40
0.249999999999993
40
0.249999999999993
40
0.374999999999989
40
0.374999999999989
40
0.437499999999989
40
0.437499999999989
40
0.46874999999999
40
0.46874999999999
40
0.49999999999999
40
0.49999999999999
40
0.62499999999999
40
0.62499999999999
40
0.749999999999991
40
0.749999999999991
40
0.874999999999992
40
0.874999999999992
40
0.906249999999994
40
0.906249999999994
40
0.937499999999996
40
1
40
1
40
1
40
1
41
1
10
55
20
9.25857157145714
30
0
41
1
10
55.117116656126
20
9.14377428670031
30
0
41
1
10
55.2417596017821
20
9.02724586817175
30
0
41
1
10
55.5068540499751
20
8.79274212083158
30
0
41
1
10
55.647304920513
20
8.67476458934414
30
0
41
1
10
55.9449108848468
20
8.43935349795368
30
0
41
1
10
56.1020643920944
20
8.32191765498698
30
0
41
1
10
56.3511235121226
20
8.14769976754002
30
0
41
1
10
56.4363661856623
20
8.08995035327382
30
0
41
1
10
56.5676809399621
20
8.00401011090844
30
0
41
1
10
56.6120375269733
20
7.97547300726916
30
0
41
1
10
56.7014079672144
20
7.91897900414722
30
0
41
1
10
56.7464831919916
20
7.89098140750457
30
0
41
1
10
56.9738022222323
20
7.75229995605105
30
0
41
1
10
57.1618689952645
20
7.64553900358805
30
0
41
1
10
57.5503328027398
20
7.44184389562741
30
0
41
1
10
57.750728756534
20
7.34490674192466
30
0
41
1
10
58.1639197357299
20
7.16227797457265
30
0
41
1
10
58.3767129704389
20
7.07658310081166
30
0
41
1
10
58.6506250034541
20
6.97741640493814
30
0
41
1
10
58.7058485505919
20
6.95796592691698
30
0
41
1
10
58.8168488250845
20
6.91996889211157
30
0
41
1
10
58.9841406234983
20
6.86433931504536
30
0
41
1
10
59.1537970363391
20
6.81286223715261
30
0
41
1
10
59.2679491924312
20
6.78044188203728
30
0
0
SPLINE
5
223
100
AcDbEntity
8
1
62
256
6
ByLayer
370
18
48
1
60
0
100
AcDbSpline
70
4
71
3
72
18
73
14
40
0
40
0
40
0
40
0
40
0.194614049919098
40
0.194614049919098
40
0.389228099838195
40
0.389228099838195
40
0.583842149757293
40
0.583842149757293
40
0.77845619967639
40
0.77845619967639
40
0.973070249595488
40
0.973070249595488
40
1
40
1
40
1
40
1
41
1
10
80.6698385419263
20
2.07039156714063
30
0
41
1
10
80.6474407315261
20
2.13982576071498
30
0
41
1
10
80.6267112315967
20
2.20989788751086
30
0
41
1
10
80.5894694841375
20
2.35165474586415
30
0
41
1
10
80.5731202434075
20
2.42276459997248
30
0
41
1
10
80.5457759523754
20
2.56531550305471
30
0
41
1
10
80.5347778709844
20
2.6367878122885
30
0
41
1
10
80.5187385312635
20
2.7801709566811
30
0
41
1
10
80.513701692578
20
2.85208211720271
30
0
41
1
10
80.5099016450542
20
2.99636628666798
30
0
41
1
10
80.5111396601333
20
3.06873938571329
30
0
41
1
10
80.5160749262013
20
3.15138669458639
30
0
41
1
10
80.5167334581191
20
3.16142721174572
30
0
41
1
10
80.5174492968869
20
3.17145850907212
30
0
0
SPLINE
5
224
100
AcDbEntity
8
1
62
256
6
ByLayer
370
18
48
1
60
0
100
AcDbSpline
70
4
71
3
72
8
73
4
40
0
40
0
40
0
40
0
40
1
40
1
40
1
40
1
41
1
10
59.8984110598091
20
6.62332756371222
30
0
41
1
10
59.68171097581
20
6.66990931254742
30
0
41
1
10
59.4712730436889
20
6.72269587279078
30
0
41
1
10
59.2679491924312
20
6.78044188203728
30
0
0
SPLINE
5
225
100
AcDbEntity
8
1
62
256
6
ByLayer
370
18
48
1
60
0
100
AcDbSpline
70
4
71
3
72
8
73
4
40
0
40
0
40
0
40
0
40
1
40
1
40
1
40
1
41
1
10
59.8984110598091
20
6.62332756371228
30
0
41
1
10
59.9285907206653
20
6.49351819490079
30
0
41
1
10
59.9625085302129
20
6.36396591676851
30
0
41
1
10
60
20
6.23465941664398
30
0
0
SPLINE
5
226
100
AcDbEntity
8
1
62
256
6
ByLayer
370
18
48
1
60
0
100
AcDbSpline
70
4
71
3
72
21
73
17
40
0
40
0
40
0
40
0
40
0.250000000000001
40
0.250000000000001
40
0.375000000000001
40
0.375000000000001
40
0.5
40
0.5
40
0.625
40
0.625
40
0.65625
40
0.65625
40
0.687500000000001
40
0.750000000000001
40
0.750000000000001
40
1
40
1
40
1
40
1
41
1
10
60
20
3.25587106279369
30
0
41
1
10
59.8589008344479
20
2.72184199920895
30
0
41
1
10
59.7493961537476
20
2.18484586310279
30
0
41
1
10
59.6383147356699
20
1.37435788008838
30
0
41
1
10
59.6101353878943
20
1.10336431332877
30
0
41
1
10
59.5721914374138
20
0.559647831021493
30
0
41
1
10
59.5624281704962
20
0.286924790028536
30
0
41
1
10
59.5618152241034
20
-0.260297487576452
30
0
41
1
10
59.5709664037683
20
-0.534796804871291
30
0
41
1
10
59.5943773976413
20
-0.879045256875258
30
0
41
1
10
59.5996607736435
20
-0.947988291302806
30
0
41
1
10
59.6114097111292
20
-1.0858161075189
30
0
41
1
10
59.6307853420912
20
-1.29225046030535
30
0
41
1
10
59.6553469768024
20
-1.49777509533902
30
0
41
1
10
59.74840639599
20
-2.18089475912399
30
0
41
1
10
59.8587051925835
20
-2.72110153812088
30
0
41
1
10
60
20
-3.25587106279369
30
0
0
SPLINE
5
227
100
AcDbEntity
8
1
62
256
6
ByLayer
370
18
48
1
60
0
100
AcDbSpline
70
4
71
3
72
18
73
14
40
0
40
0
40
0
40
0
40
0.25201186049697
40
0.25201186049697
40
0.405589640513528
40
0.405589640513528
40
0.559851913068134
40
0.559851913068134
40
0.714114185622739
40
0.714114185622739
40
0.857235294048401
40
0.857235294048401
40
1
40
1
40
1
40
1
41
1
10
62.8054762170698
20
0.457287195684842
30
0
41
1
10
62.8054762170698
20
0.125986382676672
30
0
41
1
10
62.8054762170698
20
-0.205314430331441
30
0
41
1
10
62.8054762170698
20
-0.738512262309769
30
0
41
1
10
62.7748198998094
20
-0.901113888325995
30
0
41
1
10
62.6534575935294
20
-1.14555986105529
30
0
41
1
10
62.5602256789873
20
-1.24122228941002
30
0
41
1
10
62.3088438774527
20
-1.37943367152383
30
0
41
1
10
62.1770217132334
20
-1.41398651705231
30
0
41
1
10
61.9110781610002
20
-1.41398651705231
30
0
41
1
10
61.7907521157535
20
-1.38349871217423
30
0
41
1
10
61.5641778291786
20
-1.26034600868911
30
0
41
1
10
61.4726928241778
20
-1.16805155770271
30
0
41
1
10
61.4037161103421
20
-1.04406781786531
30
0
0
SPLINE
5
228
100
AcDbEntity
8
1
62
256
6
ByLayer
370
18
48
1
60
0
100
AcDbSpline
70
4
71
3
72
10
73
6
40
0
40
0
40
0
40
0
40
0.5
40
0.5
40
1
40
1
40
1
40
1
41
1
10
59.9999999999999
20
-3.25587106279374
30
0
41
1
10
60.1554941547795
20
-3.43421372952389
30
0
41
1
10
60.3174145524805
20
-3.60613208346791
30
0
41
1
10
60.6514847430379
20
-3.93974246862069
30
0
41
1
10
60.8236463222545
20
-4.1014227170092
30
0
41
1
10
61.0000000000179
20
-4.2589121259565
30
0
0
SPLINE
5
229
100
AcDbEntity
8
1
62
256
6
ByLayer
370
18
48
1
60
0
100
AcDbSpline
70
4
71
3
72
10
73
6
40
0
40
0
40
0
40
0
40
0.5
40
0.5
40
1
40
1
40
1
40
1
41
1
10
61
20
4.25891212594053
30
0
41
1
10
60.8236463222399
20
4.10142271699561
30
0
41
1
10
60.6514847430264
20
3.93974246860961
30
0
41
1
10
60.3174145524751
20
3.60613208346211
30
0
41
1
10
60.1554941547769
20
3.43421372952088
30
0
41
1
10
59.9999999999999
20
3.25587106279374
30
0
0
SPLINE
5
22A
100
AcDbEntity
8
1
62
256
6
ByLayer
370
18
48
1
60
0
100
AcDbSpline
70
4
71
3
72
8
73
4
40
0
40
0
40
0
40
0
40
1
40
1
40
1
40
1
41
1
10
62.4521621606447
20
0.107016192974811
30
0
41
1
10
62.1501974356306
20
0.107016192974811
30
0
41
1
10
61.8482327106166
20
0.107016192974811
30
0
41
1
10
61.5462679856025
20
0.107016192974811
30
0
0
LINE
5
70
100
AcDbEntity
8
SK1
62
256
6
ByLayer
370
18
48
1
60
0
100
AcDbLine
10
-2.5
20
-11
30
0
11
-2.5
21
11
31
0
39
0
210
0
220
0
230
1
0
LINE
5
72
100
AcDbEntity
8
SK1
62
256
6
ByLayer
370
18
48
1
60
0
100
AcDbLine
10
-1.5
20
10.825148
30
0
11
-1.5
21
2.308306
31
0
39
0
210
0
220
0
230
1
0
LINE
5
73
100
AcDbEntity
8
SK1
62
256
6
ByLayer
370
18
48
1
60
0
100
AcDbLine
10
-1.307107
20
3.2741
30
0
11
-1.307107
21
-3.2741
31
0
39
0
210
0
220
0
230
1
0
LINE
5
74
100
AcDbEntity
8
SK1
62
256
6
ByLayer
370
18
48
1
60
0
100
AcDbLine
10
-0.4
20
-4.489349
30
0
11
-0.4
21
-10.77209
31
0
39
0
210
0
220
0
230
1
0
LINE
5
75
100
AcDbEntity
8
SK1
62
256
6
ByLayer
370
18
48
1
60
0
100
AcDbLine
10
-0.4
20
10.77209
30
0
11
-0.4
21
4.489349
31
0
39
0
210
0
220
0
230
1
0
LINE
5
76
100
AcDbEntity
8
SK1
62
256
6
ByLayer
370
18
48
1
60
0
100
AcDbLine
10
-18.000315
20
10.610578
30
0
11
-18.000315
21
-10.610578
31
0
39
0
210
0
220
0
230
1
0
LINE
5
77
100
AcDbEntity
8
SK1
62
256
6
ByLayer
370
18
48
1
60
0
100
AcDbLine
10
-0.2
20
-5.197043
30
0
11
-0.2
21
-10.883485
31
0
39
0
210
0
220
0
230
1
0
LINE
5
78
100
AcDbEntity
8
SK1
62
256
6
ByLayer
370
18
48
1
60
0
100
AcDbLine
10
-0.2
20
5.197043
30
0
11
-0.2
21
10.883485
31
0
39
0
210
0
220
0
230
1
0
LINE
5
79
100
AcDbEntity
8
SK1
62
256
6
ByLayer
370
18
48
1
60
0
100
AcDbLine
10
-1.5
20
-10.825148
30
0
11
-1.5
21
-2.308307
31
0
39
0
210
0
220
0
230
1
0
LINE
5
7A
100
AcDbEntity
8
SK1
62
256
6
ByLayer
370
18
48
1
60
0
100
AcDbLine
10
-19
20
-9.9986
30
0
11
-19
21
9.999346
31
0
39
0
210
0
220
0
230
1
0
LINE
5
7B
100
AcDbEntity
8
4
62
256
6
ByLayer
370
13
48
0.05
60
0
100
AcDbLine
10
0
20
0
30
0
11
83
21
0
31
0
39
0
210
0
220
0
230
1
0
LINE
5
7D
100
AcDbEntity
8
80
62
256
6
ByLayer
370
13
48
1
60
0
100
AcDbLine
10
0
20
0
30
0
11
-4.28511
21
0
31
0
39
0
210
0
220
0
230
1
0
LINE
5
7E
100
AcDbEntity
8
SK4
62
256
6
ByLayer
370
13
48
0.05
60
0
100
AcDbLine
10
-24.5
20
0
30
0
11
85.5
21
0
31
0
39
0
210
0
220
0
230
1
0
LINE
5
80
100
AcDbEntity
8
2
62
256
6
ByLayer
370
13
48
0.05
60
0
100
AcDbLine
10
83
20
13.998411
30
0
11
27
21
13.998411
31
0
39
0
210
0
220
0
230
1
0
LINE
5
82
100
AcDbEntity
8
81
62
256
6
ByLayer
370
13
48
1
60
0
100
AcDbLine
10
83
20
13.998411
30
0
11
85
21
13.998411
31
0
39
0
210
0
220
0
230
1
0
LINE
5
83
100
AcDbEntity
8
1
62
256
6
ByLayer
370
18
48
1
60
0
100
AcDbLine
10
79.894922
20
0.95
30
0
11
76.404151
21
0.95
31
0
39
0
210
0
220
0
230
1
0
LINE
5
85
100
AcDbEntity
8
1
62
256
6
ByLayer
370
18
48
1
60
0
100
AcDbLine
10
83
20
5.365124
30
0
11
83
21
13.602023
31
0
39
0
210
0
220
0
230
1
0
LINE
5
86
100
AcDbEntity
8
1
62
256
6
ByLayer
370
18
48
1
60
0
100
AcDbLine
10
75.260937
20
9.140369
30
0
11
82.404687
21
5.02192
31
0
39
0
210
0
220
0
230
1
0
LINE
5
87
100
AcDbEntity
8
1
62
256
6
ByLayer
370
18
48
1
60
0
100
AcDbLine
10
82.404687
20
13.945227
30
0
11
75.260937
21
9.826777
31
0
39
0
210
0
220
0
230
1
0
LINE
5
88
100
AcDbEntity
8
1
62
256
6
ByLayer
370
18
48
1
60
0
100
AcDbLine
10
82.709026
20
-13.398914
30
0
11
82.709026
21
-5.180292
31
0
39
0
210
0
220
0
230
1
0
LINE
5
89
100
AcDbEntity
8
1
62
256
6
ByLayer
370
18
48
1
60
0
100
AcDbLine
10
81.591004
20
-12.936118
30
0
11
82.552285
21
-13.489077
31
0
39
0
210
0
220
0
230
1
0
LINE
5
8A
100
AcDbEntity
8
1
62
256
6
ByLayer
370
13
48
1
60
0
100
AcDbLine
10
82.709026
20
-13.398914
30
0
11
83.001407
21
-13.602727
31
0
39
0
210
0
220
0
230
1
0
LINE
5
8B
100
AcDbEntity
8
1
62
256
6
ByLayer
370
18
48
1
60
0
100
AcDbLine
10
82.552285
20
-5.09013
30
0
11
82.433185
21
-5.15864
31
0
39
0
210
0
220
0
230
1
0
LINE
5
8C
100
AcDbEntity
8
1
62
256
6
ByLayer
370
13
48
1
60
0
100
AcDbLine
10
82.406094
20
-13.94517
30
0
11
82.552285
21
-13.489077
31
0
39
0
210
0
220
0
230
1
0
LINE
5
8D
100
AcDbEntity
8
1
62
256
6
ByLayer
370
13
48
1
60
0
100
AcDbLine
10
83.001407
20
-5.384106
30
0
11
82.709026
21
-5.180292
31
0
39
0
210
0
220
0
230
1
0
LINE
5
8E
100
AcDbEntity
8
1
62
256
6
ByLayer
370
18
48
1
60
0
100
AcDbLine
10
82.406094
20
-13.94517
30
0
11
80.651969
21
-12.936141
31
0
39
0
210
0
220
0
230
1
0
LINE
5
8F
100
AcDbEntity
8
1
62
256
6
ByLayer
370
13
48
1
60
0
100
AcDbLine
10
82.552285
20
-5.09013
30
0
11
82.433284
21
-5.050677
31
0
39
0
210
0
220
0
230
1
0
LINE
5
90
100
AcDbEntity
8
1
62
256
6
ByLayer
370
18
48
1
60
0
100
AcDbLine
10
83.001407
20
-5.384106
30
0
11
83.001407
21
-13.602727
31
0
39
0
210
0
220
0
230
1
0
LINE
5
91
100
AcDbEntity
8
1
62
256
6
ByLayer
370
18
48
1
60
0
100
AcDbLine
10
76.483444
20
-4.999759
30
0
11
76.575234
21
-3.866287
31
0
39
0
210
0
220
0
230
1
0
LINE
5
92
100
AcDbEntity
8
1
62
256
6
ByLayer
370
18
48
1
60
0
100
AcDbLine
10
76.575234
20
-1.233713
30
0
11
76.483444
21
-0.100241
31
0
39
0
210
0
220
0
230
1
0
LINE
5
93
100
AcDbEntity
8
1
62
256
6
ByLayer
370
18
48
1
60
0
100
AcDbLine
10
62.363008
20
-10.339077
30
0
11
62.504842
21
-10.312311
31
0
39
0
210
0
220
0
230
1
0
LINE
5
94
100
AcDbEntity
8
1
62
256
6
ByLayer
370
18
48
1
60
0
100
AcDbLine
10
62.496053
20
-10.154446
30
0
11
62.352124
21
-10.14359
31
0
39
0
210
0
220
0
230
1
0
LINE
5
95
100
AcDbEntity
8
1
62
256
6
ByLayer
370
18
48
1
60
0
100
AcDbLine
10
62.504842
20
-10.312311
30
0
11
62.657805
21
-10.283446
31
0
39
0
210
0
220
0
230
1
0
LINE
5
96
100
AcDbEntity
8
1
62
256
6
ByLayer
370
18
48
1
60
0
100
AcDbLine
10
62.651275
20
-10.166154
30
0
11
62.496053
21
-10.154446
31
0
39
0
210
0
220
0
230
1
0
LINE
5
97
100
AcDbEntity
8
1
62
256
6
ByLayer
370
18
48
1
60
0
100
AcDbLine
10
71.136682
20
6.650088
30
0
11
71.101308
21
6.399971
31
0
39
0
210
0
220
0
230
1
0
LINE
5
98
100
AcDbEntity
8
1
62
256
6
ByLayer
370
18
48
1
60
0
100
AcDbLine
10
71.108715
20
6.4
30
0
11
70.794512
21
4.150088
31
0
39
0
210
0
220
0
230
1
0
LINE
5
99
100
AcDbEntity
8
1
62
256
6
ByLayer
370
18
48
1
60
0
100
AcDbLine
10
76.34334
20
4.150088
30
0
11
76.080579
21
6.650088
31
0
39
0
210
0
220
0
230
1
0
LINE
5
9A
100
AcDbEntity
8
1
62
256
6
ByLayer
370
18
48
1
60
0
100
AcDbLine
10
76.34334
20
-5.499912
30
0
11
76.95318
21
-5.499912
31
0
39
0
210
0
220
0
230
1
0
LINE
5
9B
100
AcDbEntity
8
1
62
256
6
ByLayer
370
18
48
1
60
0
100
AcDbLine
10
76.961206
20
-6.392089
30
0
11
76.95318
21
-5.499912
31
0
39
0
210
0
220
0
230
1
0
LINE
5
9C
100
AcDbEntity
8
1
62
256
6
ByLayer
370
18
48
1
60
0
100
AcDbLine
10
70.783105
20
-6.392089
30
0
11
70.783105
21
-5.421385
31
0
39
0
210
0
220
0
230
1
0
LINE
5
9D
100
AcDbEntity
8
1
62
256
6
ByLayer
370
18
48
1
60
0
100
AcDbLine
10
76.34334
20
4.150088
30
0
11
76.34334
21
-5.499912
31
0
39
0
210
0
220
0
230
1
0
LINE
5
9E
100
AcDbEntity
8
1
62
256
6
ByLayer
370
18
48
1
60
0
100
AcDbLine
10
76.95318
20
-5.499912
30
0
11
81.803119
21
-5.499912
31
0
39
0
210
0
220
0
230
1
0
LINE
5
9F
100
AcDbEntity
8
1
62
256
6
ByLayer
370
18
48
1
60
0
100
AcDbLine
10
81.820616
20
-7.444888
30
0
11
81.803119
21
-5.499912
31
0
39
0
210
0
220
0
230
1
0
LINE
5
A0
100
AcDbEntity
8
1
62
256
6
ByLayer
370
18
48
1
60
0
100
AcDbLine
10
81.820616
20
-7.444888
30
0
11
79.992848
21
-7.354279
31
0
39
0
210
0
220
0
230
1
0
LINE
5
A1
100
AcDbEntity
8
1
62
256
6
ByLayer
370
18
48
1
60
0
100
AcDbLine
10
75.433282
20
-12.893317
30
0
11
81.933282
21
-12.893317
31
0
39
0
210
0
220
0
230
1
0
LINE
5
A2
100
AcDbEntity
8
1
62
256
6
ByLayer
370
18
48
1
60
0
100
AcDbLine
10
81.907761
20
-10.134455
30
0
11
78.642848
21
-10.134455
31
0
39
0
210
0
220
0
230
1
0
LINE
5
A3
100
AcDbEntity
8
1
62
256
6
ByLayer
370
13
48
1
60
0
100
AcDbLine
10
79.992848
20
-7.354279
30
0
11
79.992848
21
-7.515854
31
0
39
0
210
0
220
0
230
1
0
LINE
5
A4
100
AcDbEntity
8
1
62
256
6
ByLayer
370
18
48
1
60
0
100
AcDbLine
10
81.820616
20
-7.444888
30
0
11
81.907761
21
-7.515854
31
0
39
0
210
0
220
0
230
1
0
LINE
5
A5
100
AcDbEntity
8
1
62
256
6
ByLayer
370
18
48
1
60
0
100
AcDbLine
10
81.907761
20
-7.515854
30
0
11
79.992848
21
-7.515854
31
0
39
0
210
0
220
0
230
1
0
LINE
5
A6
100
AcDbEntity
8
1
62
256
6
ByLayer
370
18
48
1
60
0
100
AcDbLine
10
82.413107
20
-3.692923
30
0
11
82.433282
21
-3.697953
31
0
39
0
210
0
220
0
230
1
0
LINE
5
A7
100
AcDbEntity
8
1
62
256
6
ByLayer
370
18
48
1
60
0
100
AcDbLine
10
82.433282
20
-3.697953
30
0
11
82.433282
21
-5.07846
31
0
39
0
210
0
220
0
230
1
0
LINE
5
A8
100
AcDbEntity
8
1
62
256
6
ByLayer
370
18
48
1
60
0
100
AcDbLine
10
82.433282
20
-5.07846
30
0
11
82.433282
21
-12.438007
31
0
39
0
210
0
220
0
230
1
0
LINE
5
A9
100
AcDbEntity
8
1
62
256
6
ByLayer
370
18
48
1
60
0
100
AcDbLine
10
81.907761
20
-7.515854
30
0
11
81.907761
21
-10.134455
31
0
39
0
210
0
220
0
230
1
0
LINE
5
AA
100
AcDbEntity
8
1
62
256
6
ByLayer
370
13
48
1
60
0
100
AcDbLine
10
71.180024
20
-12.42842
30
0
11
71.180024
21
-11.476294
31
0
39
0
210
0
220
0
230
1
0
LINE
5
AB
100
AcDbEntity
8
1
62
256
6
ByLayer
370
18
48
1
60
0
100
AcDbLine
10
71.003342
20
-12.3966
30
0
11
67.001407
21
-11.903415
31
0
39
0
210
0
220
0
230
1
0
LINE
5
AC
100
AcDbEntity
8
1
62
256
6
ByLayer
370
13
48
1
60
0
100
AcDbLine
10
73.97085
20
-12.78403
30
0
11
73.97085
21
-13.124181
31
0
39
0
210
0
220
0
230
1
0
LINE
5
AD
100
AcDbEntity
8
1
62
256
6
ByLayer
370
18
48
1
60
0
100
AcDbLine
10
71.180024
20
-12.42842
30
0
11
71.003342
21
-12.3966
31
0
39
0
210
0
220
0
230
1
0
LINE
5
AE
100
AcDbEntity
8
1
62
256
6
ByLayer
370
18
48
1
60
0
100
AcDbLine
10
73.97085
20
-13.124181
30
0
11
73.259454
21
-13.161994
31
0
39
0
210
0
220
0
230
1
0
LINE
5
AF
100
AcDbEntity
8
1
62
256
6
ByLayer
370
13
48
1
60
0
100
AcDbLine
10
81.933282
20
-12.893317
30
0
11
81.933282
21
-12.936172
31
0
39
0
210
0
220
0
230
1
0
LINE
5
B0
100
AcDbEntity
8
1
62
256
6
ByLayer
370
18
48
1
60
0
100
AcDbLine
10
67.001407
20
-11.903415
30
0
11
67.001407
21
-12.433276
31
0
39
0
210
0
220
0
230
1
0
LINE
5
B1
100
AcDbEntity
8
1
62
256
6
ByLayer
370
18
48
1
60
0
100
AcDbLine
10
70.794512
20
-5.421464
30
0
11
70.783105
21
-5.421464
31
0
39
0
210
0
220
0
230
1
0
LINE
5
B2
100
AcDbEntity
8
1
62
256
6
ByLayer
370
18
48
1
60
0
100
AcDbLine
10
67.001407
20
-11.903415
30
0
11
67.001407
21
-11.476394
31
0
39
0
210
0
220
0
230
1
0
LINE
5
B3
100
AcDbEntity
8
1
62
256
6
ByLayer
370
18
48
1
60
0
100
AcDbLine
10
67.001407
20
6.399906
30
0
11
67.001407
21
6.650088
31
0
39
0
210
0
220
0
230
1
0
LINE
5
B4
100
AcDbEntity
8
1
62
256
6
ByLayer
370
18
48
1
60
0
100
AcDbLine
10
71.003342
20
-12.3966
30
0
11
71.003342
21
-11.476519
31
0
39
0
210
0
220
0
230
1
0
LINE
5
B5
100
AcDbEntity
8
1
62
256
6
ByLayer
370
18
48
1
60
0
100
AcDbLine
10
67.001407
20
6.650088
30
0
11
68.801407
21
6.650088
31
0
39
0
210
0
220
0
230
1
0
LINE
5
B6
100
AcDbEntity
8
1
62
256
6
ByLayer
370
13
48
1
60
0
100
AcDbLine
10
75.433282
20
-12.893317
30
0
11
75.433282
21
-13.120193
31
0
39
0
210
0
220
0
230
1
0
LINE
5
B7
100
AcDbEntity
8
1
62
256
6
ByLayer
370
18
48
1
60
0
100
AcDbLine
10
68.801407
20
6.399997
30
0
11
68.801407
21
6.650088
31
0
39
0
210
0
220
0
230
1
0
LINE
5
B8
100
AcDbEntity
8
1
62
256
6
ByLayer
370
18
48
1
60
0
100
AcDbLine
10
81.933282
20
-12.936172
30
0
11
80.043282
21
-12.936172
31
0
39
0
210
0
220
0
230
1
0
LINE
5
B9
100
AcDbEntity
8
1
62
256
6
ByLayer
370
18
48
1
60
0
100
AcDbLine
10
79.943282
20
-12.944732
30
0
11
80.043282
21
-12.936172
31
0
39
0
210
0
220
0
230
1
0
LINE
5
BA
100
AcDbEntity
8
1
62
256
6
ByLayer
370
18
48
1
60
0
100
AcDbLine
10
79.943282
20
-13.120193
30
0
11
79.943282
21
-12.944732
31
0
39
0
210
0
220
0
230
1
0
LINE
5
BB
100
AcDbEntity
8
1
62
256
6
ByLayer
370
18
48
1
60
0
100
AcDbLine
10
81.933282
20
-12.936172
30
0
11
81.591099
21
-12.936172
31
0
39
0
210
0
220
0
230
1
0
LINE
5
BC
100
AcDbEntity
8
1
62
256
6
ByLayer
370
18
48
1
60
0
100
AcDbLine
10
79.943282
20
-13.120193
30
0
11
75.433282
21
-13.120193
31
0
39
0
210
0
220
0
230
1
0
LINE
5
BD
100
AcDbEntity
8
1
62
256
6
ByLayer
370
18
48
1
60
0
100
AcDbLine
10
76.801407
20
4.600189
30
0
11
76.801407
21
0.950013
31
0
39
0
210
0
220
0
230
1
0
LINE
5
BE
100
AcDbEntity
8
1
62
256
6
ByLayer
370
18
48
1
60
0
100
AcDbLine
10
76.801407
20
4.600189
30
0
11
76.291285
21
4.645178
31
0
39
0
210
0
220
0
230
1
0
LINE
5
BF
100
AcDbEntity
8
1
62
256
6
ByLayer
370
18
48
1
60
0
100
AcDbLine
10
81.746875
20
9.43888
30
0
11
81.746875
21
9.483494
31
0
39
0
210
0
220
0
230
1
0
LINE
5
C0
100
AcDbEntity
8
1
62
256
6
ByLayer
370
18
48
1
60
0
100
AcDbLine
10
81.803119
20
-5.499912
30
0
11
82.062063
21
-5.499912
31
0
39
0
210
0
220
0
230
1
0
LINE
5
C1
100
AcDbEntity
8
1
62
256
6
ByLayer
370
18
48
1
60
0
100
AcDbLine
10
27
20
13
30
0
11
15
21
16
31
0
39
0
210
0
220
0
230
1
0
LINE
5
C2
100
AcDbEntity
8
1
62
256
6
ByLayer
370
18
48
1
60
0
100
AcDbLine
10
80.315602
20
2.070392
30
0
11
80.669839
21
2.070392
31
0
39
0
210
0
220
0
230
1
0
LINE
5
C3
100
AcDbEntity
8
1
62
256
6
ByLayer
370
18
48
1
60
0
100
AcDbLine
10
0.3
20
16
30
0
11
0
21
15.7
31
0
39
0
210
0
220
0
230
1
0
LINE
5
C4
100
AcDbEntity
8
1
62
256
6
ByLayer
370
18
48
1
60
0
100
AcDbLine
10
0
20
-15.7
30
0
11
0.3
21
-16
31
0
39
0
210
0
220
0
230
1
0
LINE
5
C5
100
AcDbEntity
8
1
62
256
6
ByLayer
370
18
48
1
60
0
100
AcDbLine
10
0.3
20
-16
30
0
11
15
21
-16
31
0
39
0
210
0
220
0
230
1
0
LINE
5
C6
100
AcDbEntity
8
1
62
256
6
ByLayer
370
18
48
1
60
0
100
AcDbLine
10
15
20
16
30
0
11
0.3
21
16
31
0
39
0
210
0
220
0
230
1
0
LINE
5
C7
100
AcDbEntity
8
1
62
256
6
ByLayer
370
18
48
1
60
0
100
AcDbLine
10
4.923205
20
4.755463
30
0
11
7.076795
21
4.755463
31
0
39
0
210
0
220
0
230
1
0
LINE
5
C8
100
AcDbEntity
8
1
62
256
6
ByLayer
370
18
48
1
60
0
100
AcDbLine
10
7.076795
20
15.276962
30
0
11
4.923205
21
15.276962
31
0
39
0
210
0
220
0
230
1
0
LINE
5
C9
100
AcDbEntity
8
1
62
256
6
ByLayer
370
18
48
1
60
0
100
AcDbLine
10
4.923205
20
-15.276962
30
0
11
7.076795
21
-15.276962
31
0
39
0
210
0
220
0
230
1
0
LINE
5
CA
100
AcDbEntity
8
1
62
256
6
ByLayer
370
18
48
1
60
0
100
AcDbLine
10
7.076795
20
-4.755463
30
0
11
4.923205
21
-4.755463
31
0
39
0
210
0
220
0
230
1
0
LINE
5
CB
100
AcDbEntity
8
1
62
256
6
ByLayer
370
18
48
1
60
0
100
AcDbLine
10
15
20
-16
30
0
11
27
21
-13
31
0
39
0
210
0
220
0
230
1
0
LINE
5
CC
100
AcDbEntity
8
1
62
256
6
ByLayer
370
13
48
1
60
0
100
AcDbLine
10
7.076795
20
-4.755463
30
0
11
7.076795
21
-15.276962
31
0
39
0
210
0
220
0
230
1
0
LINE
5
CD
100
AcDbEntity
8
1
62
256
6
ByLayer
370
13
48
1
60
0
100
AcDbLine
10
7.336603
20
-5.068619
30
0
11
7.336603
21
-15.175938
31
0
39
0
210
0
220
0
230
1
0
LINE
5
CE
100
AcDbEntity
8
1
62
256
6
ByLayer
370
13
48
1
60
0
100
AcDbLine
10
4.663397
20
15.175938
30
0
11
4.663397
21
5.068619
31
0
39
0
210
0
220
0
230
1
0
LINE
5
CF
100
AcDbEntity
8
1
62
256
6
ByLayer
370
13
48
1
60
0
100
AcDbLine
10
4.923205
20
15.276962
30
0
11
4.923205
21
4.755463
31
0
39
0
210
0
220
0
230
1
0
LINE
5
D0
100
AcDbEntity
8
1
62
256
6
ByLayer
370
13
48
1
60
0
100
AcDbLine
10
4.663397
20
-5.068619
30
0
11
4.663397
21
-15.175938
31
0
39
0
210
0
220
0
230
1
0
LINE
5
D1
100
AcDbEntity
8
1
62
256
6
ByLayer
370
13
48
1
60
0
100
AcDbLine
10
4.923205
20
-4.755463
30
0
11
4.923205
21
-15.276962
31
0
39
0
210
0
220
0
230
1
0
LINE
5
D2
100
AcDbEntity
8
1
62
256
6
ByLayer
370
13
48
1
60
0
100
AcDbLine
10
7.076795
20
15.276962
30
0
11
7.076795
21
4.755463
31
0
39
0
210
0
220
0
230
1
0
LINE
5
D3
100
AcDbEntity
8
1
62
256
6
ByLayer
370
13
48
1
60
0
100
AcDbLine
10
7.336603
20
15.175938
30
0
11
7.336603
21
5.068619
31
0
39
0
210
0
220
0
230
1
0
LINE
5
D4
100
AcDbEntity
8
1
62
256
6
ByLayer
370
18
48
1
60
0
100
AcDbLine
10
27
20
-13
30
0
11
55
21
-11
31
0
39
0
210
0
220
0
230
1
0
LINE
5
D5
100
AcDbEntity
8
1
62
256
6
ByLayer
370
18
48
1
60
0
100
AcDbLine
10
55
20
11
30
0
11
27
21
13
31
0
39
0
210
0
220
0
230
1
0
LINE
5
D6
100
AcDbEntity
8
1
62
256
6
ByLayer
370
18
48
1
60
0
100
AcDbLine
10
59.267949
20
-11
30
0
11
59.767949
21
-11.5
31
0
39
0
210
0
220
0
230
1
0
LINE
5
D7
100
AcDbEntity
8
1
62
256
6
ByLayer
370
18
48
1
60
0
100
AcDbLine
10
61.403716
20
-1.044068
30
0
11
61.393249
21
-1.044068
31
0
39
0
210
0
220
0
230
1
0
LINE
5
D8
100
AcDbEntity
8
1
62
256
6
ByLayer
370
18
48
1
60
0
100
AcDbLine
10
60.177463
20
-0.791358
30
0
11
60.166996
21
-0.791358
31
0
39
0
210
0
220
0
230
1
0
LINE
5
D9
100
AcDbEntity
8
1
62
256
6
ByLayer
370
18
48
1
60
0
100
AcDbLine
10
60.162902
20
0.107016
30
0
11
60.152434
21
0.107016
31
0
39
0
210
0
220
0
230
1
0
LINE
5
DA
100
AcDbEntity
8
1
62
256
6
ByLayer
370
18
48
1
60
0
100
AcDbLine
10
60.259469
20
-0.993255
30
0
11
60.249002
21
-0.993255
31
0
39
0
210
0
220
0
230
1
0
LINE
5
DB
100
AcDbEntity
8
1
62
256
6
ByLayer
370
18
48
1
60
0
100
AcDbLine
10
60.667461
20
-1.179569
30
0
11
60.680706
21
-1.179569
31
0
39
0
210
0
220
0
230
1
0
LINE
5
DC
100
AcDbEntity
8
1
62
256
6
ByLayer
370
18
48
1
60
0
100
AcDbLine
10
66.7
20
-11.476562
30
0
11
71.2
21
-11.476562
31
0
39
0
210
0
220
0
230
1
0
LINE
5
DD
100
AcDbEntity
8
1
62
256
6
ByLayer
370
18
48
1
60
0
100
AcDbLine
10
66.7
20
-11.5
30
0
11
61
21
-11.5
31
0
39
0
210
0
220
0
230
1
0
LINE
5
DE
100
AcDbEntity
8
1
62
256
6
ByLayer
370
18
48
1
60
0
100
AcDbLine
10
61.978968
20
-1.069136
30
0
11
61.995162
21
-1.069136
31
0
39
0
210
0
220
0
230
1
0
LINE
5
DF
100
AcDbEntity
8
1
62
256
6
ByLayer
370
18
48
1
60
0
100
AcDbLine
10
61.546268
20
0.107016
30
0
11
61.535801
21
0.107016
31
0
39
0
210
0
220
0
230
1
0
LINE
5
E0
100
AcDbEntity
8
1
62
256
6
ByLayer
370
18
48
1
60
0
100
AcDbLine
10
62
20
6.4
30
0
11
71.087029
21
6.4
31
0
39
0
210
0
220
0
230
1
0
LINE
5
E1
100
AcDbEntity
8
1
62
256
6
ByLayer
370
18
48
1
60
0
100
AcDbLine
10
71.087029
20
6.4
30
0
11
70.794512
21
4.336038
31
0
39
0
210
0
220
0
230
1
0
LINE
5
E2
100
AcDbEntity
8
1
62
256
6
ByLayer
370
18
48
1
60
0
100
AcDbLine
10
55
20
-11
30
0
11
59.267949
21
-11
31
0
39
0
210
0
220
0
230
1
0
LINE
5
E3
100
AcDbEntity
8
1
62
256
6
ByLayer
370
18
48
1
60
0
100
AcDbLine
10
71.087029
20
6.4
30
0
11
71.10872
21
6.4
31
0
39
0
210
0
220
0
230
1
0
LINE
5
E4
100
AcDbEntity
8
1
62
256
6
ByLayer
370
18
48
1
60
0
100
AcDbLine
10
64.808073
20
11.5
30
0
11
66.7
21
11.5
31
0
39
0
210
0
220
0
230
1
0
LINE
5
E5
100
AcDbEntity
8
1
62
256
6
ByLayer
370
18
48
1
60
0
100
AcDbLine
10
60.273319
20
11.364575
30
0
11
66.7
21
11.364575
31
0
39
0
210
0
220
0
230
1
0
LINE
5
E6
100
AcDbEntity
8
1
62
256
6
ByLayer
370
18
48
1
60
0
100
AcDbLine
10
60.473472
20
11.5
30
0
11
64.591927
21
11.5
31
0
39
0
210
0
220
0
230
1
0
LINE
5
E7
100
AcDbEntity
8
1
62
256
6
ByLayer
370
18
48
1
60
0
100
AcDbLine
10
55
20
10.525625
30
0
11
59.267949
21
10.525625
31
0
39
0
210
0
220
0
230
1
0
LINE
5
E8
100
AcDbEntity
8
1
62
256
6
ByLayer
370
18
48
1
60
0
100
AcDbLine
10
66.7
20
6.4
30
0
11
66.7
21
11.364575
31
0
39
0
210
0
220
0
230
1
0
LINE
5
E9
100
AcDbEntity
8
1
62
256
6
ByLayer
370
18
48
1
60
0
100
AcDbLine
10
59.267949
20
11
30
0
11
55
21
11
31
0
39
0
210
0
220
0
230
1
0
LINE
5
EA
100
AcDbEntity
8
1
62
256
6
ByLayer
370
18
48
1
60
0
100
AcDbLine
10
59.767949
20
11.5
30
0
11
59.267949
21
11
31
0
39
0
210
0
220
0
230
1
0
LINE
5
EB
100
AcDbEntity
8
1
62
256
6
ByLayer
370
18
48
1
60
0
100
AcDbLine
10
66.7
20
11.476562
30
0
11
67.200036
21
11.476562
31
0
39
0
210
0
220
0
230
1
0
LINE
5
EC
100
AcDbEntity
8
1
62
256
6
ByLayer
370
18
48
1
60
0
100
AcDbLine
10
79.984758
20
8.600933
30
0
11
79.984758
21
8.550589
31
0
39
0
210
0
220
0
230
1
0
LINE
5
ED
100
AcDbEntity
8
1
62
256
6
ByLayer
370
18
48
1
60
0
100
AcDbLine
10
80.458992
20
8.600933
30
0
11
80.458992
21
8.550589
31
0
39
0
210
0
220
0
230
1
0
LINE
5
EE
100
AcDbEntity
8
1
62
256
6
ByLayer
370
18
48
1
60
0
100
AcDbLine
10
81.110836
20
9.25013
30
0
11
81.110836
21
9.199786
31
0
39
0
210
0
220
0
230
1
0
LINE
5
EF
100
AcDbEntity
8
1
62
256
6
ByLayer
370
18
48
1
60
0
100
AcDbLine
10
79.332914
20
9.25013
30
0
11
79.332914
21
9.199786
31
0
39
0
210
0
220
0
230
1
0
LINE
5
F0
100
AcDbEntity
8
1
62
256
6
ByLayer
370
18
48
1
60
0
100
AcDbLine
10
80.873719
20
10.138421
30
0
11
80.873719
21
10.088077
31
0
39
0
210
0
220
0
230
1
0
LINE
5
F1
100
AcDbEntity
8
1
62
256
6
ByLayer
370
18
48
1
60
0
100
AcDbLine
10
79.570031
20
10.138421
30
0
11
79.570031
21
10.088077
31
0
39
0
210
0
220
0
230
1
0
LINE
5
F2
100
AcDbEntity
8
1
62
256
6
ByLayer
370
18
48
1
60
0
100
AcDbLine
10
79.430675
20
9.43888
30
0
11
79.430675
21
9.485196
31
0
39
0
210
0
220
0
230
1
0
LINE
5
F3
100
AcDbEntity
8
1
62
256
6
ByLayer
370
13
48
1
60
0
100
AcDbLine
10
79.349362
20
9.261037
30
0
11
79.349362
21
9.211279
31
0
39
0
210
0
220
0
230
1
0
LINE
5
F4
100
AcDbEntity
8
1
62
256
6
ByLayer
370
18
48
1
60
0
100
AcDbLine
10
80.458992
20
10.377515
30
0
11
80.458992
21
10.327171
31
0
39
0
210
0
220
0
230
1
0
LINE
5
F5
100
AcDbEntity
8
1
62
256
6
ByLayer
370
18
48
1
60
0
100
AcDbLine
10
79.984758
20
10.377515
30
0
11
79.984758
21
10.327171
31
0
39
0
210
0
220
0
230
1
0
LINE
5
F6
100
AcDbEntity
8
1
62
256
6
ByLayer
370
18
48
1
60
0
100
AcDbLine
10
79.349362
20
9.211279
30
0
11
79.332914
21
9.199786
31
0
39
0
210
0
220
0
230
1
0
LINE
5
F7
100
AcDbEntity
8
1
62
256
6
ByLayer
370
13
48
1
60
0
100
AcDbLine
10
81.094388
20
9.261037
30
0
11
81.094388
21
9.211279
31
0
39
0
210
0
220
0
230
1
0
LINE
5
F8
100
AcDbEntity
8
1
62
256
6
ByLayer
370
18
48
1
60
0
100
AcDbLine
10
81.110836
20
9.199786
30
0
11
81.094388
21
9.211279
31
0
39
0
210
0
220
0
230
1
0
LINE
5
F9
100
AcDbEntity
8
1
62
256
6
ByLayer
370
18
48
1
60
0
100
AcDbLine
10
81.013075
20
9.485196
30
0
11
81.013075
21
9.43888
31
0
39
0
210
0
220
0
230
1
0
LINE
5
FA
100
AcDbEntity
8
1
62
256
6
ByLayer
370
18
48
1
60
0
100
AcDbLine
10
78.696875
20
9.483494
30
0
11
78.696875
21
9.43888
31
0
39
0
210
0
220
0
230
1
0
LINE
5
FB
100
AcDbEntity
8
1
62
256
6
ByLayer
370
13
48
1
60
0
100
AcDbLine
10
79.588223
20
10.129357
30
0
11
79.588223
21
10.079599
31
0
39
0
210
0
220
0
230
1
0
LINE
5
FC
100
AcDbEntity
8
1
62
256
6
ByLayer
370
18
48
1
60
0
100
AcDbLine
10
79.588223
20
10.079599
30
0
11
79.570031
21
10.088077
31
0
39
0
210
0
220
0
230
1
0
LINE
5
FD
100
AcDbEntity
8
1
62
256
6
ByLayer
370
13
48
1
60
0
100
AcDbLine
10
80.855527
20
10.129357
30
0
11
80.855527
21
10.079599
31
0
39
0
210
0
220
0
230
1
0
LINE
5
FE
100
AcDbEntity
8
1
62
256
6
ByLayer
370
18
48
1
60
0
100
AcDbLine
10
80.873719
20
10.088077
30
0
11
80.855527
21
10.079599
31
0
39
0
210
0
220
0
230
1
0
LINE
5
FF
100
AcDbEntity
8
1
62
256
6
ByLayer
370
18
48
1
60
0
100
AcDbLine
10
80.460736
20
10.356958
30
0
11
80.460736
21
10.307201
31
0
39
0
210
0
220
0
230
1
0
LINE
5
100
100
AcDbEntity
8
1
62
256
6
ByLayer
370
18
48
1
60
0
100
AcDbLine
10
80.460736
20
10.307201
30
0
11
80.458992
21
10.327171
31
0
39
0
210
0
220
0
230
1
0
LINE
5
101
100
AcDbEntity
8
1
62
256
6
ByLayer
370
18
48
1
60
0
100
AcDbLine
10
79.983014
20
10.356958
30
0
11
79.983014
21
10.307201
31
0
39
0
210
0
220
0
230
1
0
LINE
5
102
100
AcDbEntity
8
1
62
256
6
ByLayer
370
13
48
1
60
0
100
AcDbLine
10
72.993439
20
10.000086
30
0
11
67.2
21
10.000086
31
0
39
0
210
0
220
0
230
1
0
LINE
5
103
100
AcDbEntity
8
1
62
256
6
ByLayer
370
13
48
1
60
0
100
AcDbLine
10
70.081879
20
7.235423
30
0
11
73.066125
21
7.235423
31
0
39
0
210
0
220
0
230
1
0
LINE
5
104
100
AcDbEntity
8
1
62
256
6
ByLayer
370
18
48
1
60
0
100
AcDbLine
10
70.081879
20
8.000086
30
0
11
70.081879
21
7.235423
31
0
39
0
210
0
220
0
230
1
0
LINE
5
105
100
AcDbEntity
8
1
62
256
6
ByLayer
370
18
48
1
60
0
100
AcDbLine
10
70.081879
20
8.000086
30
0
11
67.2
21
8.000086
31
0
39
0
210
0
220
0
230
1
0
LINE
5
106
100
AcDbEntity
8
1
62
256
6
ByLayer
370
18
48
1
60
0
100
AcDbLine
10
67.2
20
8.000086
30
0
11
67.2
21
10.000086
31
0
39
0
210
0
220
0
230
1
0
LINE
5
107
100
AcDbEntity
8
1
62
256
6
ByLayer
370
13
48
1
60
0
100
AcDbLine
10
74.28086
20
6.650121
30
0
11
74.28086
21
9.590779
31
0
39
0
210
0
220
0
230
1
0
LINE
5
108
100
AcDbEntity
8
1
62
256
6
ByLayer
370
18
48
1
60
0
100
AcDbLine
10
72.993439
20
10.000086
30
0
11
73.066125
21
7.235423
31
0
39
0
210
0
220
0
230
1
0
LINE
5
109
100
AcDbEntity
8
1
62
256
6
ByLayer
370
18
48
1
60
0
100
AcDbLine
10
73.969443
20
13.095108
30
0
11
73.432358
21
13.088617
31
0
39
0
210
0
220
0
230
1
0
LINE
5
10A
100
AcDbEntity
8
1
62
256
6
ByLayer
370
13
48
1
60
0
100
AcDbLine
10
74.28086
20
9.884579
30
0
11
74.28086
21
13.094757
31
0
39
0
210
0
220
0
230
1
0
LINE
5
10B
100
AcDbEntity
8
1
62
256
6
ByLayer
370
13
48
1
60
0
100
AcDbLine
10
71.111124
20
6.469378
30
0
11
70.018893
21
6.469378
31
0
39
0
210
0
220
0
230
1
0
LINE
5
10C
100
AcDbEntity
8
1
62
256
6
ByLayer
370
18
48
1
60
0
100
AcDbLine
10
69.464735
20
6.800086
30
0
11
69.464735
21
6.399951
31
0
39
0
210
0
220
0
230
1
0
LINE
5
10D
100
AcDbEntity
8
1
62
256
6
ByLayer
370
18
48
1
60
0
100
AcDbLine
10
70.004312
20
6.399993
30
0
11
70.018893
21
6.469378
31
0
39
0
210
0
220
0
230
1
0
LINE
5
10E
100
AcDbEntity
8
1
62
256
6
ByLayer
370
18
48
1
60
0
100
AcDbLine
10
76.801454
20
4.425934
30
0
11
82.431875
21
4.425934
31
0
39
0
210
0
220
0
230
1
0
LINE
5
10F
100
AcDbEntity
8
1
62
256
6
ByLayer
370
13
48
1
60
0
100
AcDbLine
10
76.801293
20
4.281872
30
0
11
82.431875
21
4.281872
31
0
39
0
210
0
220
0
230
1
0
LINE
5
110
100
AcDbEntity
8
1
62
256
6
ByLayer
370
13
48
1
60
0
100
AcDbLine
10
67.2
20
6.800086
30
0
11
69.464735
21
6.800086
31
0
39
0
210
0
220
0
230
1
0
LINE
5
111
100
AcDbEntity
8
1
62
256
6
ByLayer
370
18
48
1
60
0
100
AcDbLine
10
82.431875
20
4.425934
30
0
11
82.431875
21
4.281872
31
0
39
0
210
0
220
0
230
1
0
LINE
5
112
100
AcDbEntity
8
1
62
256
6
ByLayer
370
13
48
1
60
0
100
AcDbLine
10
74.999895
20
8.733361
30
0
11
74.999895
21
6.650047
31
0
39
0
210
0
220
0
230
1
0
LINE
5
113
100
AcDbEntity
8
1
62
256
6
ByLayer
370
18
48
1
60
0
100
AcDbLine
10
75.027904
20
10.701542
30
0
11
75.027904
21
10.591038
31
0
39
0
210
0
220
0
230
1
0
LINE
5
114
100
AcDbEntity
8
1
62
256
6
ByLayer
370
13
48
1
60
0
100
AcDbLine
10
74.999895
20
13.11802
30
0
11
74.999895
21
10.693558
31
0
39
0
210
0
220
0
230
1
0
LINE
5
115
100
AcDbEntity
8
1
62
256
6
ByLayer
370
18
48
1
60
0
100
AcDbLine
10
82.431875
20
4.425934
30
0
11
82.431875
21
5.00761
31
0
39
0
210
0
220
0
230
1
0
LINE
5
116
100
AcDbEntity
8
1
62
256
6
ByLayer
370
18
48
1
60
0
100
AcDbLine
10
76.801383
20
2.384474
30
0
11
78.246786
21
2.384474
31
0
39
0
210
0
220
0
230
1
0
LINE
5
117
100
AcDbEntity
8
1
62
256
6
ByLayer
370
18
48
1
60
0
100
AcDbLine
10
76.409805
20
10.97078
30
0
11
76.827543
21
10.72995
31
0
39
0
210
0
220
0
230
1
0
LINE
5
118
100
AcDbEntity
8
1
62
256
6
ByLayer
370
18
48
1
60
0
100
AcDbLine
10
79.941875
20
13.125786
30
0
11
75.431875
21
13.125786
31
0
39
0
210
0
220
0
230
1
0
LINE
5
119
100
AcDbEntity
8
1
62
256
6
ByLayer
370
18
48
1
60
0
100
AcDbLine
10
79.941875
20
12.525392
30
0
11
79.941875
21
13.125786
31
0
39
0
210
0
220
0
230
1
0
LINE
5
11A
100
AcDbEntity
8
1
62
256
6
ByLayer
370
13
48
1
60
0
100
AcDbLine
10
76.409805
20
10.97078
30
0
11
76.409805
21
10.860276
31
0
39
0
210
0
220
0
230
1
0
LINE
5
11B
100
AcDbEntity
8
1
62
256
6
ByLayer
370
18
48
1
60
0
100
AcDbLine
10
76.409805
20
10.860276
30
0
11
76.731702
21
10.674699
31
0
39
0
210
0
220
0
230
1
0
LINE
5
11C
100
AcDbEntity
8
1
62
256
6
ByLayer
370
18
48
1
60
0
100
AcDbLine
10
67.2
20
6.800086
30
0
11
67.2
21
6.650072
31
0
39
0
210
0
220
0
230
1
0
LINE
5
11D
100
AcDbEntity
8
1
62
256
6
ByLayer
370
18
48
1
60
0
100
AcDbLine
10
76.627041
20
10.614344
30
0
11
76.359805
21
10.768409
31
0
39
0
210
0
220
0
230
1
0
LINE
5
11E
100
AcDbEntity
8
1
62
256
6
ByLayer
370
18
48
1
60
0
100
AcDbLine
10
80.041875
20
13.009892
30
0
11
80.041875
21
12.583051
31
0
39
0
210
0
220
0
230
1
0
LINE
5
11F
100
AcDbEntity
8
1
62
256
6
ByLayer
370
18
48
1
60
0
100
AcDbLine
10
80.782282
20
13.009892
30
0
11
80.041875
21
13.009892
31
0
39
0
210
0
220
0
230
1
0
LINE
5
120
100
AcDbEntity
8
1
62
256
6
ByLayer
370
13
48
1
60
0
100
AcDbLine
10
76.359805
20
10.768409
30
0
11
76.409805
21
10.860276
31
0
39
0
210
0
220
0
230
1
0
LINE
5
121
100
AcDbEntity
8
1
62
256
6
ByLayer
370
18
48
1
60
0
100
AcDbLine
10
79.941875
20
13.015282
30
0
11
80.041875
21
13.009892
31
0
39
0
210
0
220
0
230
1
0
LINE
5
122
100
AcDbEntity
8
1
62
256
6
ByLayer
370
18
48
1
60
0
100
AcDbLine
10
62.554057
20
10.462247
30
0
11
62.694371
21
10.394847
31
0
39
0
210
0
220
0
230
1
0
LINE
5
123
100
AcDbEntity
8
1
62
256
6
ByLayer
370
18
48
1
60
0
100
AcDbLine
10
62.758623
20
10.493192
30
0
11
62.640535
21
10.594612
31
0
39
0
210
0
220
0
230
1
0
LINE
5
124
100
AcDbEntity
8
1
62
256
6
ByLayer
370
18
48
1
60
0
100
AcDbLine
10
62.423952
20
10.524744
30
0
11
62.554057
21
10.462247
31
0
39
0
210
0
220
0
230
1
0
LINE
5
125
100
AcDbEntity
8
1
62
256
6
ByLayer
370
18
48
1
60
0
100
AcDbLine
10
70.783105
20
-6.392089
30
0
11
76.961206
21
-6.392089
31
0
39
0
210
0
220
0
230
1
0
LINE
5
126
100
AcDbEntity
8
1
62
256
6
ByLayer
370
18
48
1
60
0
100
AcDbLine
10
71.136682
20
6.650088
30
0
11
76.080579
21
6.650088
31
0
39
0
210
0
220
0
230
1
0
LINE
5
127
100
AcDbEntity
8
1
62
256
6
ByLayer
370
18
48
1
60
0
100
AcDbLine
10
70.794573
20
4.150088
30
0
11
76.34334
21
4.150088
31
0
39
0
210
0
220
0
230
1
0
LINE
5
128
100
AcDbEntity
8
1
62
256
6
ByLayer
370
18
48
1
60
0
100
AcDbLine
10
70.794512
20
4.336038
30
0
11
70.794512
21
-5.421464
31
0
39
0
210
0
220
0
230
1
0
LINE
5
129
100
AcDbEntity
8
1
62
256
6
ByLayer
370
18
48
1
60
0
100
AcDbLine
10
64.227088
20
4.680222
30
0
11
70.794512
21
4.336038
31
0
39
0
210
0
220
0
230
1
0
LINE
5
12A
100
AcDbEntity
8
1
62
256
6
ByLayer
370
18
48
1
60
0
100
AcDbLine
10
62.640535
20
10.594612
30
0
11
62.531038
21
10.688653
31
0
39
0
210
0
220
0
230
1
0
LINE
5
12B
100
AcDbEntity
8
1
62
256
6
ByLayer
370
18
48
1
60
0
100
AcDbLine
10
78.696875
20
9.43893
30
0
11
78.696875
21
9.43888
31
0
39
0
210
0
220
0
230
1
0
LINE
5
12C
100
AcDbEntity
8
1
62
256
6
ByLayer
370
18
48
1
60
0
100
AcDbLine
10
76.404151
20
0.95
30
0
11
76.404147
21
0.95
31
0
39
0
210
0
220
0
230
1
0
LINE
5
12D
100
AcDbEntity
8
1
62
256
6
ByLayer
370
18
48
1
60
0
100
AcDbLine
10
78.642848
20
-10.134455
30
0
11
78.642848
21
-8.7229
31
0
39
0
210
0
220
0
230
1
0
LINE
5
12E
100
AcDbEntity
8
1
62
256
6
ByLayer
370
18
48
1
60
0
100
AcDbLine
10
27
20
-13
30
0
11
27
21
13
31
0
39
0
210
0
220
0
230
1
0
LINE
5
12F
100
AcDbEntity
8
1
62
256
6
ByLayer
370
18
48
1
60
0
100
AcDbLine
10
0.3
20
-16
30
0
11
0.3
21
16
31
0
39
0
210
0
220
0
230
1
0
LINE
5
130
100
AcDbEntity
8
1
62
256
6
ByLayer
370
18
48
1
60
0
100
AcDbLine
10
0
20
-15.7
30
0
11
0
21
15.7
31
0
39
0
210
0
220
0
230
1
0
LINE
5
131
100
AcDbEntity
8
1
62
256
6
ByLayer
370
18
48
1
60
0
100
AcDbLine
10
15
20
-16
30
0
11
15
21
16
31
0
39
0
210
0
220
0
230
1
0
LINE
5
132
100
AcDbEntity
8
1
62
256
6
ByLayer
370
18
48
1
60
0
100
AcDbLine
10
55
20
11
30
0
11
55
21
10.525625
31
0
39
0
210
0
220
0
230
1
0
LINE
5
133
100
AcDbEntity
8
1
62
256
6
ByLayer
370
18
48
1
60
0
100
AcDbLine
10
55
20
-11
30
0
11
55
21
9.258572
31
0
39
0
210
0
220
0
230
1
0
LINE
5
134
100
AcDbEntity
8
1
62
256
6
ByLayer
370
18
48
1
60
0
100
AcDbLine
10
59.267949
20
-11
30
0
11
59.267949
21
6.780442
31
0
39
0
210
0
220
0
230
1
0
LINE
5
135
100
AcDbEntity
8
1
62
256
6
ByLayer
370
18
48
1
60
0
100
AcDbLine
10
61
20
4.258912
30
0
11
61
21
5.30395
31
0
39
0
210
0
220
0
230
1
0
LINE
5
136
100
AcDbEntity
8
1
62
256
6
ByLayer
370
18
48
1
60
0
100
AcDbLine
10
66.7
20
-11.5
30
0
11
66.7
21
-11.476562
31
0
39
0
210
0
220
0
230
1
0
LINE
5
137
100
AcDbEntity
8
1
62
256
6
ByLayer
370
18
48
1
60
0
100
AcDbLine
10
66.7
20
11.364575
30
0
11
66.7
21
11.5
31
0
39
0
210
0
220
0
230
1
0
LINE
5
138
100
AcDbEntity
8
1
62
256
6
ByLayer
370
18
48
1
60
0
100
AcDbLine
10
60
20
11.288481
30
0
11
60
21
11.5
31
0
39
0
210
0
220
0
230
1
0
LINE
5
139
100
AcDbEntity
8
1
62
256
6
ByLayer
370
18
48
1
60
0
100
AcDbLine
10
59.267949
20
11
30
0
11
59.267949
21
10.525625
31
0
39
0
210
0
220
0
230
1
0
LINE
5
13A
100
AcDbEntity
8
1
62
256
6
ByLayer
370
18
48
1
60
0
100
AcDbLine
10
67.2
20
12.348298
30
0
11
67.2
21
10.000086
31
0
39
0
210
0
220
0
230
1
0
LINE
5
13B
100
AcDbEntity
8
1
62
256
6
ByLayer
370
18
48
1
60
0
100
AcDbLine
10
67.2
20
8.000086
30
0
11
67.2
21
6.800086
31
0
39
0
210
0
220
0
230
1
0
LINE
5
13C
100
AcDbEntity
8
1
62
256
6
ByLayer
370
18
48
1
60
0
100
AcDbLine
10
82.431875
20
4.281872
30
0
11
82.431875
21
3.648262
31
0
39
0
210
0
220
0
230
1
0
LINE
5
13D
100
AcDbEntity
8
1
62
256
6
ByLayer
370
18
48
1
60
0
100
AcDbLine
10
60
20
3.255871
30
0
11
60
21
6.234659
31
0
39
0
210
0
220
0
230
1
0
LINE
5
13E
100
AcDbEntity
8
1
62
256
6
ByLayer
370
18
48
1
60
0
100
AcDbLine
10
60
20
-11.5
30
0
11
60
21
-3.255871
31
0
39
0
210
0
220
0
230
1
0
LINE
5
13F
100
AcDbEntity
8
1
62
256
6
ByLayer
370
18
48
1
60
0
100
AcDbLine
10
61
20
-11.5
30
0
11
61
21
-4.258912
31
0
39
0
210
0
220
0
230
1
0
LINE
5
140
100
AcDbEntity
8
1
62
256
6
ByLayer
370
18
48
1
60
0
100
AcDbLine
10
82.413107
20
-3.692923
30
0
11
80.608569
21
-3.243001
31
0
39
0
210
0
220
0
230
1
0
LINE
5
141
100
AcDbEntity
8
1
62
256
6
ByLayer
370
18
48
1
60
0
100
AcDbLine
10
82.431875
20
3.648262
30
0
11
79.274234
21
2.860973
31
0
39
0
210
0
220
0
230
1
0
MTEXT
5
22B
100
AcDbEntity
8
SK6
62
256
6
ByLayer
370
18
48
1
60
0
100
AcDbMText
10
90.780583
20
22.841321
30
0
210
0
220
0
230
1
1
\W0.7255;BR20-36TC09F-C3
40
3
41
0
44
1.084337
50
0
71
7
72
5
7
iso_b_vert
0
DIMENSION
5
238
100
AcDbEntity
8
2
62
256
6
ByLayer
370
13
48
1
60
0
100
AcDbDimension
2
DimnDraft3D1
10
83
20
43.5
30
0
11
38.057895
21
43.5
31
0
70
32
71
5
72
1
41
1
210
0
220
0
230
1
3
Standard
100
AcDbAlignedDimension
13
0
23
17.7
33
0
14
83
24
15.998411
34
0
50
0
100
AcDbRotatedDimension
1001
ACAD
1000
DSTYLE
1002
{
1070
   279
1070
     0
1070
   172
1070
     1
1070
   173
1070
     1
1070
   340
1005
22C
1070
   271
1070
     1
1070
    77
1070
     1
1070
    73
1070
     0
1070
   171
1070
     4
1070
   274
1070
     4
1070
   177
1070
     7
1070
   176
1070
     7
1070
   178
1070
     7
1070
    41
1041
3.175
1070
   147
1041
1.5
1070
    42
1041
2.0
1070
    44
1041
2.0
1070
   140
1041
3.0
1070
   343
1005
0
1070
   344
1005
0
1002
}
0
DIMENSION
5
242
100
AcDbEntity
8
2
62
256
6
ByLayer
370
13
48
1
60
0
100
AcDbDimension
2
DimnDraft3D2
10
27
20
28.5
30
0
11
42.040789
21
28.5
31
0
70
32
71
5
72
1
41
1
210
0
220
0
230
1
3
Standard
100
AcDbAlignedDimension
13
83
23
15.998411
33
0
14
27
24
15.998411
34
0
50
0
100
AcDbRotatedDimension
1001
ACAD
1000
DSTYLE
1002
{
1070
   279
1070
     0
1070
   172
1070
     1
1070
   173
1070
     1
1070
   340
1005
22C
1070
   271
1070
     1
1070
    77
1070
     1
1070
    73
1070
     0
1070
   171
1070
     4
1070
   274
1070
     4
1070
   177
1070
     7
1070
   176
1070
     7
1070
   178
1070
     7
1070
    41
1041
3.175
1070
   147
1041
1.5
1070
    42
1041
2.0
1070
    44
1041
2.0
1070
   140
1041
3.0
1070
   343
1005
0
1070
   344
1005
0
1002
}
0
DIMENSION
5
24C
100
AcDbEntity
8
2
62
256
6
ByLayer
370
13
48
1
60
0
100
AcDbDimension
2
DimnDraft3D3
10
106.5
20
-13.998146
30
0
11
106.5
21
-11.719604
31
0
70
32
71
5
72
1
41
1
210
0
220
0
230
1
3
Standard
100
AcDbAlignedDimension
13
85
23
13.998411
33
0
14
84.604532
24
-13.998146
34
0
50
90
100
AcDbRotatedDimension
1001
ACAD
1000
DSTYLE
1002
{
1070
    74
1070
     0
1070
   279
1070
     0
1070
   172
1070
     1
1070
   173
1070
     1
1070
   340
1005
22C
1070
   271
1070
     1
1070
    77
1070
     1
1070
    73
1070
     0
1070
   171
1070
     4
1070
   274
1070
     4
1070
   177
1070
     7
1070
   176
1070
     7
1070
   178
1070
     7
1070
    41
1041
3.175
1070
   147
1041
1.5
1070
    42
1041
2.0
1070
    44
1041
2.0
1070
   140
1041
3.0
1070
   343
1005
0
1070
   344
1005
0
1002
}
0
DIMENSION
5
256
100
AcDbEntity
8
2
62
256
6
ByLayer
370
13
48
1
60
0
100
AcDbDimension
2
DimnDraft3D4
10
84
20
13.998411
30
0
11
90.075397
21
6.923014
31
0
70
34
71
5
72
1
41
1
210
0
220
0
230
1
3
Standard
100
AcDb2LineAngularDimension
13
83
23
5.365124
33
0
14
83
24
13.602023
34
0
15
83
25
13.998411
35
0
16
92.196718
26
4.801693
36
0
40
0
0
DIMENSION
5
262
100
AcDbEntity
8
SK2
62
256
6
ByLayer
370
13
48
1
60
0
100
AcDbDimension
2
DimnDraft3D5
10
-30.5
20
-16
30
0
11
-30
21
0.414474
31
0
70
33
71
5
72
1
41
1
210
0
220
0
230
1
3
Standard
100
AcDbAlignedDimension
13
-1.7
23
16
33
0
14
-1.7
24
-16
34
0
1001
ACAD
1000
DSTYLE
1002
{
1070
   279
1070
     0
1070
    74
1070
     0
1070
   173
1070
     1
1070
   340
1005
22C
1070
   271
1070
     0
1070
    77
1070
     1
1070
    73
1070
     0
1070
   171
1070
     4
1070
   274
1070
     4
1070
   177
1070
     7
1070
   176
1070
     7
1070
   178
1070
     7
1070
    41
1041
3.175
1070
   147
1041
1.5
1070
    42
1041
2.0
1070
    44
1041
2.0
1070
   140
1041
3.0
1070
   343
1005
0
1070
   344
1005
0
1002
}
0
ENDSEC
0
SECTION
2
OBJECTS
0
DICTIONARY
5
2d1
330
0
100
AcDbDictionary
280
0
281
1
3
ACAD_GROUP
350
2d2
3
ACAD_GROUP
350
2d3
3
ACAD_MLINESTYLE
350
2d4
0
DICTIONARY
5
2d2
330
0
100
AcDbDictionary
280
0
281
1
0
DICTIONARY
5
2d3
330
0
100
AcDbDictionary
280
0
281
1
3
<201765816MOD000_00>
350
26B
3
391_68A_1_03213C06B_A1
350
26C
3
DIT-000-00-UG_TO_2D CONVERT_BR20_SIZEB,C AND_D_TC
350
26D
0
DICTIONARY
5
2d4
330
0
100
AcDbDictionary
280
0
281
1
3
Standard
350
18
0
GROUP
5
26B
330
2d3
100
AcDbGroup
300

70
0
71
1
340
6C
340
6E
340
70
340
72
340
73
340
74
340
75
340
76
340
77
340
78
340
79
340
7A
340
7B
340
7D
340
7E
340
80
340
82
340
83
340
85
340
86
340
87
340
88
340
89
340
8A
340
8B
340
8C
340
8D
340
8E
340
8F
340
90
340
91
340
92
340
93
340
94
340
95
340
96
340
97
340
98
340
99
340
9A
340
9B
340
9C
340
9D
340
9E
340
9F
340
A0
340
A1
340
A2
340
A3
340
A4
340
A5
340
A6
340
A7
340
A8
340
A9
340
AA
340
AB
340
AC
340
AD
340
AE
340
AF
340
B0
340
B1
340
B2
340
B3
340
B4
340
B5
340
B6
340
B7
340
B8
340
B9
340
BA
340
BB
340
BC
340
BD
340
BE
340
BF
340
C0
340
C1
340
C2
340
C3
340
C4
340
C5
340
C6
340
C7
340
C8
340
C9
340
CA
340
CB
340
CC
340
CD
340
CE
340
CF
340
D0
340
D1
340
D2
340
D3
340
D4
340
D5
340
D6
340
D7
340
D8
340
D9
340
DA
340
DB
340
DC
340
DD
340
DE
340
DF
340
E0
340
E1
340
E2
340
E3
340
E4
340
E5
340
E6
340
E7
340
E8
340
E9
340
EA
340
EB
340
EC
340
ED
340
EE
340
EF
340
F0
340
F1
340
F2
340
F3
340
F4
340
F5
340
F6
340
F7
340
F8
340
F9
340
FA
340
FB
340
FC
340
FD
340
FE
340
FF
340
100
340
101
340
102
340
103
340
104
340
105
340
106
340
107
340
108
340
109
340
10A
340
10B
340
10C
340
10D
340
10E
340
10F
340
110
340
111
340
112
340
113
340
114
340
115
340
116
340
117
340
118
340
119
340
11A
340
11B
340
11C
340
11D
340
11E
340
11F
340
120
340
121
340
122
340
123
340
124
340
125
340
126
340
127
340
128
340
129
340
12A
340
12B
340
12C
340
12D
340
12E
340
12F
340
130
340
131
340
132
340
133
340
134
340
135
340
136
340
137
340
138
340
139
340
13A
340
13B
340
13C
340
13D
340
13E
340
13F
340
140
340
141
340
142
340
143
340
144
340
145
340
146
340
147
340
148
340
149
340
14A
340
14B
340
14C
340
14D
340
14E
340
14F
340
150
340
151
340
152
340
153
340
154
340
155
340
156
340
157
340
158
340
159
340
15A
340
15B
340
15C
340
15D
340
15E
340
15F
340
160
340
161
340
162
340
163
340
164
340
165
340
166
340
167
340
168
340
169
340
16A
340
16B
340
16C
340
16D
340
16E
340
16F
340
170
340
171
340
172
340
173
340
174
340
175
340
176
340
177
340
178
340
179
340
17A
340
17B
340
17C
340
17D
340
17E
340
17F
340
180
340
181
340
182
340
183
340
184
340
185
340
186
340
187
340
188
340
189
340
18A
340
18B
340
18C
340
18D
340
18E
340
18F
340
190
340
191
340
192
340
193
340
194
340
195
340
196
340
197
340
198
340
199
340
19A
340
19B
340
19C
340
19D
340
19E
340
19F
340
1A0
340
1A1
340
1A2
340
1A3
340
1A4
340
1A5
340
1A6
340
1A7
340
1A8
340
1A9
340
1AA
340
1AB
340
1AC
340
1AD
340
1AE
340
1AF
340
1B0
340
1B1
340
1B2
340
1B3
340
1B4
340
1B5
340
1B6
340
1B7
340
1B8
340
1B9
340
1BA
340
1BB
340
1BC
340
1BD
340
1BE
340
1BF
340
1C0
340
1C1
340
1C2
340
1C3
340
1C4
340
1C5
340
1C6
340
1C7
340
1C8
340
1C9
340
1CA
340
1CB
340
1CC
340
1CD
340
1CE
340
1CF
340
1D0
340
1D1
340
1D2
340
1D3
340
1D4
340
1D5
340
1D6
340
1D7
340
1D8
340
1D9
340
1DA
340
1DB
340
1DC
340
1DD
340
1DE
340
1DF
340
1E0
340
1E1
340
1E2
340
1E3
340
1E4
340
1E5
340
1E6
340
1E7
340
1E8
340
1E9
340
1EA
340
1EB
340
1EC
340
1ED
340
1EE
340
1EF
340
1F0
340
1F1
340
1F2
340
1F3
340
1F4
340
1F5
340
1F6
340
1F7
340
1F8
340
1F9
340
1FA
340
1FB
340
1FC
340
1FD
340
1FE
340
1FF
340
200
340
201
340
202
340
203
340
204
340
205
340
206
340
207
340
208
340
209
340
20A
340
20B
340
20C
340
20D
340
20E
340
20F
340
210
340
211
340
212
340
213
340
214
340
215
340
216
340
217
340
218
340
219
340
21A
340
21B
340
21C
340
21D
340
21E
340
21F
340
220
340
221
340
222
340
223
340
224
340
225
340
226
340
227
340
228
340
229
340
22A
340
6E
340
82
340
22B
340
24C
340
256
340
83
340
85
340
86
340
87
340
88
340
89
340
8A
340
8B
340
8C
340
8D
340
8E
340
8F
340
90
340
91
340
92
340
93
340
94
340
95
340
96
340
97
340
98
340
99
340
9A
340
9B
340
9C
340
9D
340
9E
340
9F
340
A0
340
A1
340
A2
340
A3
340
A4
340
A5
340
A6
340
A7
340
A8
340
A9
340
AA
340
AB
340
AC
340
AD
340
AE
340
AF
340
B0
340
B1
340
B2
340
B3
340
B4
340
B5
340
B6
340
B7
340
B8
340
B9
340
BA
340
BB
340
BC
340
BD
340
BE
340
BF
340
C0
340
C1
340
C2
340
C3
340
C4
340
C5
340
C6
340
C7
340
C8
340
C9
340
CA
340
CB
340
CC
340
CD
340
CE
340
CF
340
D0
340
D1
340
D2
340
D3
340
D4
340
D5
340
D6
340
D7
340
D8
340
D9
340
DA
340
DB
340
DC
340
DD
340
DE
340
DF
340
E0
340
E1
340
E2
340
E3
340
E4
340
E5
340
E6
340
E7
340
E8
340
E9
340
EA
340
EB
340
EC
340
ED
340
EE
340
EF
340
F0
340
F1
340
F2
340
F3
340
F4
340
F5
340
F6
340
F7
340
F8
340
F9
340
FA
340
FB
340
FC
340
FD
340
FE
340
FF
340
100
340
101
340
102
340
103
340
104
340
105
340
106
340
107
340
108
340
109
340
10A
340
10B
340
10C
340
10D
340
10E
340
10F
340
110
340
111
340
112
340
113
340
114
340
115
340
116
340
117
340
118
340
119
340
11A
340
11B
340
11C
340
11D
340
11E
340
11F
340
120
340
121
340
122
340
123
340
124
340
125
340
126
340
127
340
128
340
129
340
12A
340
12B
340
12C
340
12D
340
12E
340
12F
340
130
340
131
340
132
340
133
340
134
340
135
340
136
340
137
340
138
340
139
340
13A
340
13B
340
13C
340
13D
340
13E
340
13F
340
140
340
141
340
144
340
145
340
146
340
147
340
148
340
149
340
14A
340
14B
340
14C
340
14D
340
14E
340
14F
340
150
340
151
340
152
340
153
340
154
340
155
340
156
340
157
340
158
340
159
340
15A
340
15B
340
15C
340
15D
340
15E
340
15F
340
160
340
161
340
162
340
163
340
164
340
165
340
166
340
167
340
168
340
169
340
16A
340
16B
340
16C
340
16D
340
16E
340
16F
340
170
340
171
340
172
340
173
340
174
340
175
340
176
340
177
340
178
340
179
340
17A
340
17B
340
17C
340
17D
340
17E
340
17F
340
180
340
181
340
182
340
183
340
184
340
185
340
186
340
187
340
188
340
189
340
18A
340
18B
340
18C
340
18D
340
18E
340
18F
340
190
340
191
340
192
340
193
340
194
340
195
340
196
340
197
340
198
340
199
340
19A
340
19B
340
19C
340
19D
340
19E
340
19F
340
1A0
340
1A1
340
1A2
340
1A3
340
1A4
340
1A5
340
1A6
340
1A7
340
1A8
340
1A9
340
1AA
340
1AB
340
1AC
340
1C8
340
1C9
340
1CA
340
1CB
340
1CC
340
1CD
340
1CE
340
1CF
340
1D0
340
1D1
340
1D2
340
1D3
340
1D4
340
1D5
340
1D6
340
1D7
340
1D8
340
1D9
340
1DA
340
1DB
340
1DC
340
1DD
340
1DE
340
1DF
340
1E0
340
1E1
340
1E2
340
1E3
340
1E4
340
1E5
340
1E6
340
1E7
340
1E8
340
1E9
340
1EA
340
1EB
340
1EC
340
1ED
340
1EE
340
1EF
340
1F0
340
1F1
340
1F2
340
1F3
340
1F4
340
1F5
340
1F6
340
1F7
340
1F8
340
1F9
340
1FA
340
1FB
340
1FC
340
1FD
340
1FE
340
1FF
340
200
340
201
340
202
340
203
340
204
340
205
340
206
340
207
340
208
340
209
340
20A
340
20B
340
20C
340
20D
340
20E
340
20F
340
210
340
211
340
212
340
213
340
214
340
215
340
216
340
217
340
218
340
219
340
21A
340
21B
340
21C
340
21D
340
21E
340
21F
340
220
340
221
340
222
340
223
340
224
340
225
340
226
340
227
340
228
340
229
340
22A
340
22B
340
238
340
242
340
24C
340
256
340
262
0
GROUP
5
26C
330
2d3
100
AcDbGroup
300

70
0
71
1
340
6E
340
82
340
22B
340
24C
340
256
0
GROUP
5
26D
330
2d3
100
AcDbGroup
300

70
0
71
1
340
83
340
85
340
86
340
87
340
88
340
89
340
8A
340
8B
340
8C
340
8D
340
8E
340
8F
340
90
340
91
340
92
340
93
340
94
340
95
340
96
340
97
340
98
340
99
340
9A
340
9B
340
9C
340
9D
340
9E
340
9F
340
A0
340
A1
340
A2
340
A3
340
A4
340
A5
340
A6
340
A7
340
A8
340
A9
340
AA
340
AB
340
AC
340
AD
340
AE
340
AF
340
B0
340
B1
340
B2
340
B3
340
B4
340
B5
340
B6
340
B7
340
B8
340
B9
340
BA
340
BB
340
BC
340
BD
340
BE
340
BF
340
C0
340
C1
340
C2
340
C3
340
C4
340
C5
340
C6
340
C7
340
C8
340
C9
340
CA
340
CB
340
CC
340
CD
340
CE
340
CF
340
D0
340
D1
340
D2
340
D3
340
D4
340
D5
340
D6
340
D7
340
D8
340
D9
340
DA
340
DB
340
DC
340
DD
340
DE
340
DF
340
E0
340
E1
340
E2
340
E3
340
E4
340
E5
340
E6
340
E7
340
E8
340
E9
340
EA
340
EB
340
EC
340
ED
340
EE
340
EF
340
F0
340
F1
340
F2
340
F3
340
F4
340
F5
340
F6
340
F7
340
F8
340
F9
340
FA
340
FB
340
FC
340
FD
340
FE
340
FF
340
100
340
101
340
102
340
103
340
104
340
105
340
106
340
107
340
108
340
109
340
10A
340
10B
340
10C
340
10D
340
10E
340
10F
340
110
340
111
340
112
340
113
340
114
340
115
340
116
340
117
340
118
340
119
340
11A
340
11B
340
11C
340
11D
340
11E
340
11F
340
120
340
121
340
122
340
123
340
124
340
125
340
126
340
127
340
128
340
129
340
12A
340
12B
340
12C
340
12D
340
12E
340
12F
340
130
340
131
340
132
340
133
340
134
340
135
340
136
340
137
340
138
340
139
340
13A
340
13B
340
13C
340
13D
340
13E
340
13F
340
140
340
141
340
144
340
145
340
146
340
147
340
148
340
149
340
14A
340
14B
340
14C
340
14D
340
14E
340
14F
340
150
340
151
340
152
340
153
340
154
340
155
340
156
340
157
340
158
340
159
340
15A
340
15B
340
15C
340
15D
340
15E
340
15F
340
160
340
161
340
162
340
163
340
164
340
165
340
166
340
167
340
168
340
169
340
16A
340
16B
340
16C
340
16D
340
16E
340
16F
340
170
340
171
340
172
340
173
340
174
340
175
340
176
340
177
340
178
340
179
340
17A
340
17B
340
17C
340
17D
340
17E
340
17F
340
180
340
181
340
182
340
183
340
184
340
185
340
186
340
187
340
188
340
189
340
18A
340
18B
340
18C
340
18D
340
18E
340
18F
340
190
340
191
340
192
340
193
340
194
340
195
340
196
340
197
340
198
340
199
340
19A
340
19B
340
19C
340
19D
340
19E
340
19F
340
1A0
340
1A1
340
1A2
340
1A3
340
1A4
340
1A5
340
1A6
340
1A7
340
1A8
340
1A9
340
1AA
340
1AB
340
1AC
340
1C8
340
1C9
340
1CA
340
1CB
340
1CC
340
1CD
340
1CE
340
1CF
340
1D0
340
1D1
340
1D2
340
1D3
340
1D4
340
1D5
340
1D6
340
1D7
340
1D8
340
1D9
340
1DA
340
1DB
340
1DC
340
1DD
340
1DE
340
1DF
340
1E0
340
1E1
340
1E2
340
1E3
340
1E4
340
1E5
340
1E6
340
1E7
340
1E8
340
1E9
340
1EA
340
1EB
340
1EC
340
1ED
340
1EE
340
1EF
340
1F0
340
1F1
340
1F2
340
1F3
340
1F4
340
1F5
340
1F6
340
1F7
340
1F8
340
1F9
340
1FA
340
1FB
340
1FC
340
1FD
340
1FE
340
1FF
340
200
340
201
340
202
340
203
340
204
340
205
340
206
340
207
340
208
340
209
340
20A
340
20B
340
20C
340
20D
340
20E
340
20F
340
210
340
211
340
212
340
213
340
214
340
215
340
216
340
217
340
218
340
219
340
21A
340
21B
340
21C
340
21D
340
21E
340
21F
340
220
340
221
340
222
340
223
340
224
340
225
340
226
340
227
340
228
340
229
340
22A
0
MLINESTYLE
5
18
330
2d4
100
AcDbMlineStyle
2
Standard
70
0
3

62
256
51
90
52
90
71
2
49
-0.5
62
256
6
ByLayer
49
0.5
62
256
6
ByLayer
0
RASTERVARIABLES
5
2be
330

100
AcDbRasterVariables
90
0
70
1
71
1
72
1
0
ENDSEC
0
EOF
