0
SECTION
2
HEADER
9
$ACADVER
1
AC1015
9
$DWGCODEPAGE
3
ANSI_1252
9
$HANDSEED
5
1da
9
$ANGBASE
50
0
9
$ANGDIR
70
0
9
$ATTMODE
70
1
9
$AUNITS
70
0
9
$AUPREC
70
0
9
$CECOLOR
62
256
9
$CELTSCALE
40
1
9
$CELTYPE
6
ByLayer
9
$CELWEIGHT
370
18
9
$CLAYER
8
0
9
$CMLJUST
70
0
9
$CMLSCALE
40
1
9
$CMLSTYLE
2
Standard
9
$DIMSTYLE
2
Standard
9
$TEXTSIZE
40
0.2
9
$TEXTSTYLE
7
Standard
9
$LUNITS
70
2
9
$LUPREC
70
4
9
$EXTNAMES
290
1
9
$INSUNITS
70
4
9
$LTSCALE
40
1
9
$LWDISPLAY
290
1
9
$PDMODE
70
0
9
$PDSIZE
40
0
9
$PLINEGEN
70
0
0
ENDSEC
0
SECTION
2
CLASSES
0
CLASS
1
RASTERVARIABLES
2
AcDbRasterVariables
3
ISM
90
0
280
0
281
0
0
ENDSEC
0
SECTION
2
TABLES
0
TABLE
2
VPORT
5
1d0
100
AcDbSymbolTable
0
VPORT
5
1
100
AcDbSymbolTableRecord
100
AcDbViewportTableRecord
2
*Active
70
0
10
0
20
0
11
1
21
1
12
-1
22
1
13
0
23
0
14
0.5
24
0.5
15
10
25
10
16
0
26
0
36
1
17
0
27
0
37
0
0
ENDTAB
0
TABLE
2
LTYPE
5
1d1
100
AcDbSymbolTable
0
LTYPE
5
14
100
AcDbSymbolTableRecord
100
AcDbLinetypeTableRecord
70
0
2
ByBlock
3

72
65
73
0
40
0
0
LTYPE
5
15
100
AcDbSymbolTableRecord
100
AcDbLinetypeTableRecord
70
0
2
ByLayer
3

72
65
73
0
40
0
0
LTYPE
5
16
100
AcDbSymbolTableRecord
100
AcDbLinetypeTableRecord
70
0
2
CONTINUOUS
3
Solid line
72
65
73
0
40
0
0
LTYPE
5
6A
100
AcDbSymbolTableRecord
100
AcDbLinetypeTableRecord
70
0
2
CENTER
3
____ _ ____ _ ____ _ ____
72
65
73
4
40
47.5
49
22
74
0
49
-8.5
74
0
49
8.5
74
0
49
-8.5
74
0
0
LTYPE
5
6B
100
AcDbSymbolTableRecord
100
AcDbLinetypeTableRecord
70
0
2
DASHED
3
__ __ __ __ __ __ __ __ __
72
65
73
2
40
25.72
49
12.86
74
0
49
-12.86
74
0
0
ENDTAB
0
TABLE
2
LAYER
5
1d2
100
AcDbSymbolTable
0
LAYER
5
10
100
AcDbSymbolTableRecord
100
AcDbLayerTableRecord
2
0
70
0
62
7
6
CONTINUOUS
290
1
370
-3
390
0
0
LAYER
5
6D
100
AcDbSymbolTableRecord
100
AcDbLayerTableRecord
2
80
70
0
62
-6
6
CONTINUOUS
290
1
370
-3
390
0
0
LAYER
5
6F
100
AcDbSymbolTableRecord
100
AcDbLayerTableRecord
2
81
70
0
62
-3
6
CONTINUOUS
290
1
370
-3
390
0
0
LAYER
5
71
100
AcDbSymbolTableRecord
100
AcDbLayerTableRecord
2
4
70
0
62
-2
6
CENTER
290
1
370
-3
390
0
0
LAYER
5
9D
100
AcDbSymbolTableRecord
100
AcDbLayerTableRecord
2
1
70
0
62
4
6
CONTINUOUS
290
1
370
-3
390
0
0
LAYER
5
14C
100
AcDbSymbolTableRecord
100
AcDbLayerTableRecord
2
2
70
0
62
7
6
CONTINUOUS
290
1
370
-3
390
0
0
LAYER
5
1ba
100
AcDbSymbolTableRecord
100
AcDbLayerTableRecord
2
SK4
70
0
62
2
6
CENTER
290
1
370
-3
390
0
0
LAYER
5
1bb
100
AcDbSymbolTableRecord
100
AcDbLayerTableRecord
2
SK1
70
0
62
4
6
CONTINUOUS
290
1
370
-3
390
0
0
LAYER
5
1bc
100
AcDbSymbolTableRecord
100
AcDbLayerTableRecord
2
SK6
70
0
62
5
6
CONTINUOUS
290
1
370
-3
390
0
0
LAYER
5
1bd
100
AcDbSymbolTableRecord
100
AcDbLayerTableRecord
2
SK2
70
0
62
7
6
CONTINUOUS
290
1
370
-3
390
0
0
ENDTAB
0
TABLE
2
STYLE
5
1d3
100
AcDbSymbolTable
0
STYLE
5
11
100
AcDbSymbolTableRecord
100
AcDbTextStyleTableRecord
2
Standard
3
txt
70
0
71
0
40
0
41
1
42
0
50
0
0
STYLE
5
13C
100
AcDbSymbolTableRecord
100
AcDbTextStyleTableRecord
2
iso_b_vert
3
simplex.shx
70
0
71
0
40
0
41
1
42
0
50
0
0
STYLE
5
13D
100
AcDbSymbolTableRecord
100
AcDbTextStyleTableRecord
2
DWGDirectTextStyle
3
simplex
70
0
71
0
40
0
41
1
42
0
50
0
0
ENDTAB
0
TABLE
2
DIMSTYLE
5
1d4
100
AcDbSymbolTable
100
AcDbDimStyleTable
0
DIMSTYLE
105
27
100
AcDbSymbolTableRecord
100
AcDbDimStyleTableRecord
2
Standard
70
0
3
<>
41
0.18
42
0.0625
44
0.18
140
0.18
147
0.09
73
0
74
0
77
1
271
2
275
0
278
52
280
0
340
11
0
ENDTAB
0
TABLE
2
VIEW
5
1d5
100
AcDbSymbolTable
0
ENDTAB
0
TABLE
2
UCS
5
1d6
100
AcDbSymbolTable
0
ENDTAB
0
TABLE
2
APPID
5
1d7
100
AcDbSymbolTable
0
APPID
5
12
100
AcDbSymbolTableRecord
100
AcDbRegAppTableRecord
2
ACAD
70
0
0
ENDTAB
0
TABLE
2
BLOCK_RECORD
5
1d8
100
AcDbSymbolTable
0
BLOCK_RECORD
5
1F
100
AcDbSymbolTableRecord
100
AcDbBlockTableRecord
2
*Model_Space
340
0
70
0
0
BLOCK_RECORD
5
1B
100
AcDbSymbolTableRecord
100
AcDbBlockTableRecord
2
*Paper_Space
340
0
70
0
0
BLOCK_RECORD
5
23
100
AcDbSymbolTableRecord
100
AcDbBlockTableRecord
2
*Paper_Space0
340
0
70
0
0
BLOCK_RECORD
5
13F
100
AcDbSymbolTableRecord
100
AcDbBlockTableRecord
2
DimnDraft3D1
340
0
70
0
0
BLOCK_RECORD
5
14A
100
AcDbSymbolTableRecord
100
AcDbBlockTableRecord
2
DimnDraft3D2
340
0
70
0
0
BLOCK_RECORD
5
155
100
AcDbSymbolTableRecord
100
AcDbBlockTableRecord
2
DimnDraft3D3
340
0
70
0
0
ENDTAB
0
ENDSEC
0
SECTION
2
BLOCKS
0
BLOCK
5
20
100
AcDbEntity
8
0
100
AcDbBlockBegin
2
*Model_Space
70
0
10
0
20
0
30
0
3
*Model_Space
0
ENDBLK
5
21
100
AcDbEntity
8
0
100
AcDbBlockEnd
0
BLOCK
5
1C
100
AcDbEntity
8
0
100
AcDbBlockBegin
2
*Paper_Space
70
0
10
0
20
0
30
0
3
*Paper_Space
0
ENDBLK
5
1D
100
AcDbEntity
8
0
100
AcDbBlockEnd
0
BLOCK
5
24
100
AcDbEntity
8
0
100
AcDbBlockBegin
2
*Paper_Space0
70
0
10
0
20
0
30
0
3
*Paper_Space0
0
ENDBLK
5
25
100
AcDbEntity
8
0
100
AcDbBlockEnd
0
BLOCK
5
147
100
AcDbEntity
8
0
100
AcDbBlockBegin
2
DimnDraft3D1
70
0
10
0
20
0
30
0
3
DimnDraft3D1
0
MTEXT
5
140
100
AcDbEntity
8
SK2
62
256
6
ByLayer
370
18
48
1
60
0
100
AcDbMText
10
4.183363
20
30.46228
30
0
210
0
220
0
230
1
1
\W0.6576;13.0
40
3
41
0
44
1.084337
50
0
71
7
72
5
7
iso_b_vert
0
LINE
5
142
100
AcDbEntity
8
SK2
62
256
6
ByLayer
370
13
48
1
60
0
100
AcDbLine
10
13.000937
20
23.993116
30
0
11
13.000937
21
31.71228
31
0
39
0
210
0
220
0
230
1
0
LINE
5
143
100
AcDbEntity
8
SK2
62
256
6
ByLayer
370
13
48
1
60
0
100
AcDbLine
10
0
20
2
30
0
11
0
21
31.71228
31
0
39
0
210
0
220
0
230
1
0
LINE
5
144
100
AcDbEntity
8
SK2
62
256
6
ByLayer
370
13
48
1
60
0
100
AcDbLine
10
20.500937
20
29.71228
30
0
11
-7.5
21
29.71228
31
0
39
0
210
0
220
0
230
1
0
SOLID
5
145
100
AcDbEntity
8
SK2
62
256
6
ByLayer
370
13
48
1
60
0
100
AcDbTrace
10
13.000937
20
29.71228
30
0
11
16.175935
21
30.130276
31
0
12
16.175939
22
29.294283
32
0
13
13.000937
23
29.71228
33
0
39
0
210
0
220
0
230
1
0
SOLID
5
146
100
AcDbEntity
8
SK2
62
256
6
ByLayer
370
13
48
1
60
0
100
AcDbTrace
10
0
20
29.71228
30
0
11
-3.174998
21
29.294283
31
0
12
-3.175002
22
30.130276
32
0
13
0
23
29.71228
33
0
39
0
210
0
220
0
230
1
0
ENDBLK
5
148
100
AcDbEntity
8
0
100
AcDbBlockEnd
0
BLOCK
5
152
100
AcDbEntity
8
0
100
AcDbBlockBegin
2
DimnDraft3D2
70
0
10
0
20
0
30
0
3
DimnDraft3D2
0
MTEXT
5
14B
100
AcDbEntity
8
2
62
256
6
ByLayer
370
18
48
1
60
0
100
AcDbMText
10
35.544697
20
-11.285526
30
0
210
0
220
0
230
1
1
\W0.7409;Dc=44.0-56.0
40
3
41
0
44
1.084337
50
90
71
7
72
5
7
iso_b_vert
0
LINE
5
14D
100
AcDbEntity
8
2
62
256
6
ByLayer
370
13
48
1
60
0
100
AcDbLine
10
17.000937
20
21.993116
30
0
11
38.294697
21
21.993116
31
0
39
0
210
0
220
0
230
1
0
LINE
5
14E
100
AcDbEntity
8
2
62
256
6
ByLayer
370
13
48
1
60
0
100
AcDbLine
10
14.207187
20
-21.993116
30
0
11
38.294697
21
-21.993116
31
0
39
0
210
0
220
0
230
1
0
LINE
5
14F
100
AcDbEntity
8
2
62
256
6
ByLayer
370
13
48
1
60
0
100
AcDbLine
10
36.294697
20
21.993116
30
0
11
36.294697
21
-21.993116
31
0
39
0
210
0
220
0
230
1
0
SOLID
5
150
100
AcDbEntity
8
2
62
256
6
ByLayer
370
13
48
1
60
0
100
AcDbTrace
10
36.294697
20
21.993116
30
0
11
36.712694
21
18.818117
31
0
12
35.8767
22
18.818114
32
0
13
36.294697
23
21.993116
33
0
39
0
210
0
220
0
230
1
0
SOLID
5
151
100
AcDbEntity
8
2
62
256
6
ByLayer
370
13
48
1
60
0
100
AcDbTrace
10
36.294697
20
-21.993116
30
0
11
35.8767
21
-18.818117
31
0
12
36.712694
22
-18.818114
32
0
13
36.294697
23
-21.993116
33
0
39
0
210
0
220
0
230
1
0
ENDBLK
5
153
100
AcDbEntity
8
0
100
AcDbBlockEnd
0
BLOCK
5
15C
100
AcDbEntity
8
0
100
AcDbBlockBegin
2
DimnDraft3D3
70
0
10
0
20
0
30
0
3
DimnDraft3D3
0
MTEXT
5
156
100
AcDbEntity
8
2
62
256
6
ByLayer
370
18
48
1
60
0
100
AcDbMText
10
20.500562
20
11.7274
30
0
210
0
220
0
230
1
1
\W0.5899;90%%d
40
3
41
0
44
1.084337
50
45
71
7
72
5
7
iso_b_vert
0
LINE
5
157
100
AcDbEntity
8
2
62
256
6
ByLayer
370
13
48
1
60
0
100
AcDbLine
10
13.000937
20
10.959219
30
0
11
13.000937
21
6.681123
31
0
39
0
210
0
220
0
230
1
0
LINE
5
158
100
AcDbEntity
8
2
62
256
6
ByLayer
370
13
48
1
60
0
100
AcDbLine
10
15.000937
20
21.993116
30
0
11
28.31293
21
21.993116
31
0
39
0
210
0
220
0
230
1
0
ARC
5
159
100
AcDbEntity
8
2
62
256
6
ByLayer
370
13
48
1
60
0
100
AcDbCircle
39
0
10
13.000937
20
21.993116
30
0
40
13.3119931042781
210
0
220
0
230
1
100
AcDbArc
50
270
51
0
0
SOLID
5
15A
100
AcDbEntity
8
2
62
256
6
ByLayer
370
13
48
1
60
0
100
AcDbTrace
10
13.000937
20
8.681123
30
0
11
16.145554
21
9.286698
31
0
12
16.195141
22
8.452176
32
0
13
13.000937
23
8.681123
33
0
39
0
210
0
220
0
230
1
0
SOLID
5
15B
100
AcDbEntity
8
2
62
256
6
ByLayer
370
13
48
1
60
0
100
AcDbTrace
10
26.31293
20
21.993116
30
0
11
26.541877
21
18.798915
31
0
12
25.707355
22
18.848496
32
0
13
26.31293
23
21.993116
33
0
39
0
210
0
220
0
230
1
0
ENDBLK
5
15D
100
AcDbEntity
8
0
100
AcDbBlockEnd
0
ENDSEC
0
SECTION
2
ENTITIES
0
ARC
5
E2
100
AcDbEntity
8
1
62
256
6
ByLayer
370
18
48
1
60
0
100
AcDbCircle
39
0
10
-11.479625
20
3.800455
30
0
40
4.97868793689556
210
0
220
0
230
-1
100
AcDbArc
50
59.098479
51
76
0
ARC
5
E3
100
AcDbEntity
8
1
62
256
6
ByLayer
370
18
48
1
60
0
100
AcDbCircle
39
0
10
-11.479625
20
3.800455
30
0
40
4.97868793636581
210
0
220
0
230
-1
100
AcDbArc
50
14.650017
51
47.303793
0
ARC
5
E4
100
AcDbEntity
8
1
62
256
6
ByLayer
370
18
48
1
60
0
100
AcDbCircle
39
0
10
-11.479625
20
3.800455
30
0
40
4.97868793636581
210
0
220
0
230
-1
100
AcDbArc
50
360
51
8.431736
0
ELLIPSE
5
E5
100
AcDbEntity
8
SK1
62
256
6
ByLayer
370
18
48
1
60
0
100
AcDbEllipse
10
-3.593267
20
7.459589
30
0
11
-4.89842541527562E-17
21
0.799999999997732
31
0
210
0
220
0
230
-1
40
0.176327
41
-1.5707963267949
42
-0.69813170079375
0
ELLIPSE
5
E6
100
AcDbEntity
8
SK1
62
256
6
ByLayer
370
18
48
1
60
0
100
AcDbEllipse
10
3.800833
20
9.42435
30
0
11
0.800000000001231
21
8.08511244067134E-16
31
0
210
0
220
0
230
-1
40
0.809999
41
1.5707963267949
42
2.68780704806987
0
ELLIPSE
5
E7
100
AcDbEntity
8
SK1
62
256
6
ByLayer
370
18
48
1
60
0
100
AcDbEllipse
10
-0.805031
20
-8.528265
30
0
11
0.999999999999988
21
1.01063905508235E-15
31
0
210
0
220
0
230
-1
40
0.8391
41
-2.15548162621295
42
0.724311639577623
0
ELLIPSE
5
E8
100
AcDbEntity
8
1
62
256
6
ByLayer
370
18
48
1
60
0
100
AcDbEllipse
10
-3.258246
20
12.709019
30
0
11
-1.22460635379703E-16
21
1.9999999999586
31
0
210
0
220
0
230
-1
40
0.176327
41
1.5707963267949
42
2.44346095280923
0
ELLIPSE
5
E9
100
AcDbEntity
8
1
62
256
6
ByLayer
370
18
48
1
60
0
100
AcDbEllipse
10
-3.522736
20
11.800455
30
0
11
-7.34763812292171E-17
21
1.19999999999795
31
0
210
0
220
0
230
-1
40
0.176327
41
-1.5707963267949
42
0
0
ELLIPSE
5
EA
100
AcDbEntity
8
1
62
256
6
ByLayer
370
18
48
1
60
0
100
AcDbEllipse
10
-13.37461
20
17.500455
30
0
11
21.6573258569886
21
4.9956410768094
31
0
210
0
220
0
230
-1
40
0.009638
41
-1.22106511888794
42
-0.802766462569096
0
ELLIPSE
5
EB
100
AcDbEntity
8
1
62
256
6
ByLayer
370
18
48
1
60
0
100
AcDbEllipse
10
2.449009
20
12.709019
30
0
11
0.0562268677915212
21
-1.9998125662952
31
0
210
0
220
0
230
-1
40
0.486967
41
0.711822451684488
42
1.58448707767072
0
ELLIPSE
5
EC
100
AcDbEntity
8
1
62
256
6
ByLayer
370
18
48
1
60
0
100
AcDbEllipse
10
9.825937
20
17.035124
30
0
11
-0.791199999999999
21
9.68908547144264E-17
31
0
210
0
220
0
230
1
40
0.999033
41
-2.0943951023932
42
-1.04719755119664
0
ELLIPSE
5
ED
100
AcDbEntity
8
1
62
256
6
ByLayer
370
18
48
1
60
0
100
AcDbEllipse
10
2.405657
20
16.702062
30
0
11
0.10803919110027
21
0.826261269525525
31
0
210
0
220
0
230
-1
40
0.465651
41
0
42
6.28318530717959
0
ELLIPSE
5
EE
100
AcDbEntity
8
1
62
256
6
ByLayer
370
18
48
1
60
0
100
AcDbEllipse
10
9.825937
20
17.947441
30
0
11
0.241700000000008
21
2.44271459613415E-16
31
0
210
0
220
0
230
-1
40
0.50365
41
2.94654997029109
42
0.195042683298672
0
ELLIPSE
5
EF
100
AcDbEntity
8
1
62
256
6
ByLayer
370
18
48
1
60
0
100
AcDbEllipse
10
9.825937
20
17.079092
30
0
11
1.03505
21
0
31
0
210
0
220
0
230
1
40
0.999033
41
-0.523598775598371
42
0.52359877559832
0
ELLIPSE
5
F0
100
AcDbEntity
8
1
62
256
6
ByLayer
370
18
48
1
60
0
100
AcDbEllipse
10
9.825937
20
17.035124
30
0
11
0.7912
21
0
31
0
210
0
220
0
230
1
40
0.999033
41
3.14159265358976
42
-2.24141241675977
0
ELLIPSE
5
F1
100
AcDbEntity
8
1
62
256
6
ByLayer
370
18
48
1
60
0
100
AcDbEllipse
10
9.825937
20
17.079092
30
0
11
1.03505
21
0
31
0
210
0
220
0
230
1
40
0.999033
41
0.523598775598324
42
1.5707963267949
0
ELLIPSE
5
F2
100
AcDbEntity
8
1
62
256
6
ByLayer
370
18
48
1
60
0
100
AcDbEllipse
10
4.542565
20
17.334241
30
0
11
-1.275
21
1.56137310112353E-16
31
0
210
0
220
0
230
1
40
0.999033
41
-1.20087964837099
42
0.767919948099538
0
ELLIPSE
5
F3
100
AcDbEntity
8
1
62
256
6
ByLayer
370
18
48
1
60
0
100
AcDbEllipse
10
9.825937
20
17.079092
30
0
11
-1.3
21
1.59198825996909E-16
31
0
210
0
220
0
230
1
40
0.999033
41
0
42
6.28318530717959
0
ELLIPSE
5
F4
100
AcDbEntity
8
1
62
256
6
ByLayer
370
18
48
1
60
0
100
AcDbEllipse
10
2.470377
20
14.621122
30
0
11
0.120806938812021
21
0.848102506821464
31
0
210
0
220
0
230
-1
40
0.450185
41
0
42
6.28318530717959
0
ELLIPSE
5
F5
100
AcDbEntity
8
1
62
256
6
ByLayer
370
18
48
1
60
0
100
AcDbEllipse
10
4.335937
20
9.233975
30
0
11
8.71865635879483
21
-9.02329928356795
31
0
210
0
220
0
230
-1
40
0.913779
41
-2.51598870177522
42
-2.43300113794453
0
ELLIPSE
5
F6
100
AcDbEntity
8
1
62
256
6
ByLayer
370
18
48
1
60
0
100
AcDbEllipse
10
9.035083
20
16.578965
30
0
11
0.120909794987998
21
-0.209081381528565
31
0
210
0
220
0
230
-1
40
0.504381
41
2.53821630439989
42
-2.94598314447268
0
ELLIPSE
5
F7
100
AcDbEntity
8
1
62
256
6
ByLayer
370
18
48
1
60
0
100
AcDbEllipse
10
9.825937
20
17.035124
30
0
11
0.7912
21
0
31
0
210
0
220
0
230
1
40
0.999033
41
-1.95375916110561
42
-1.16657741158884
0
ELLIPSE
5
F8
100
AcDbEntity
8
1
62
256
6
ByLayer
370
18
48
1
60
0
100
AcDbEllipse
10
10.738987
20
17.035124
30
0
11
-1.47850558305915E-17
21
0.241466260312021
31
0
210
0
220
0
230
-1
40
0.504625
41
-2.80244658853449
42
-1.5707963267949
0
ELLIPSE
5
F9
100
AcDbEntity
8
1
62
256
6
ByLayer
370
18
48
1
60
0
100
AcDbEllipse
10
9.825937
20
17.035124
30
0
11
0.7912
21
0
31
0
210
0
220
0
230
1
40
0.999033
41
2.09439510239321
42
3.05906044806321
0
ELLIPSE
5
FA
100
AcDbEntity
8
1
62
256
6
ByLayer
370
18
48
1
60
0
100
AcDbEllipse
10
3.808041
20
17.500455
30
0
11
0.140567169489244
21
-4.99953141563532
31
0
210
0
220
0
230
-1
40
0.486967
41
1.58448707767643
42
2.42149738946342
0
ELLIPSE
5
FB
100
AcDbEntity
8
1
62
256
6
ByLayer
370
18
48
1
60
0
100
AcDbEllipse
10
9.825937
20
17.035124
30
0
11
0.7912
21
0
31
0
210
0
220
0
230
1
40
0.999033
41
-0.87149749994478
42
0
0
ELLIPSE
5
FC
100
AcDbEntity
8
1
62
256
6
ByLayer
370
18
48
1
60
0
100
AcDbEllipse
10
4.542565
20
17.463947
30
0
11
-1.375
21
1.68383373650577E-16
31
0
210
0
220
0
230
1
40
0.999033
41
1.00102241647978
42
1.9539942465317
0
ELLIPSE
5
FD
100
AcDbEntity
8
1
62
256
6
ByLayer
370
18
48
1
60
0
100
AcDbEllipse
10
4.542565
20
17.463947
30
0
11
-1.375
21
1.68383373650577E-16
31
0
210
0
220
0
230
1
40
0.999033
41
-1.18057323131099
42
-1.00102241647978
0
ELLIPSE
5
FE
100
AcDbEntity
8
1
62
256
6
ByLayer
370
18
48
1
60
0
100
AcDbEllipse
10
5.164886
20
17.689583
30
0
11
-1.36656669475825
21
1.673506257323E-16
31
0
210
0
220
0
230
1
40
0.999033
41
-2.0943951023932
42
-0.655566111584515
0
ELLIPSE
5
FF
100
AcDbEntity
8
1
62
256
6
ByLayer
370
18
48
1
60
0
100
AcDbEllipse
10
10.282462
20
17.825084
30
0
11
0.209352784298064
21
-0.120673451402194
31
0
210
0
220
0
230
-1
40
0.503893
41
0.339711969441203
42
1.57136223120108
0
ELLIPSE
5
100
100
AcDbEntity
8
1
62
256
6
ByLayer
370
18
48
1
60
0
100
AcDbEllipse
10
9.825937
20
17.079092
30
0
11
1.03505
21
0
31
0
210
0
220
0
230
1
40
0.999033
41
1.5707963267949
42
2.6179938779915
0
ELLIPSE
5
101
100
AcDbEntity
8
1
62
256
6
ByLayer
370
18
48
1
60
0
100
AcDbEllipse
10
10.616791
20
17.491282
30
0
11
0.120909794987931
21
-0.209081381528559
31
0
210
0
220
0
230
-1
40
0.504381
41
2.94711679610866
42
-0.603375853468237
0
ELLIPSE
5
102
100
AcDbEntity
8
1
62
256
6
ByLayer
370
18
48
1
60
0
100
AcDbEllipse
10
5.063437
20
17.079676
30
0
11
-0.793749999999994
21
9.72031293346505E-17
31
0
210
0
220
0
230
1
40
0.999033
41
-1.04719755119656
42
1.04719755119656
0
ELLIPSE
5
103
100
AcDbEntity
8
1
62
256
6
ByLayer
370
18
48
1
60
0
100
AcDbEllipse
10
9.035083
20
17.491282
30
0
11
0.120909794987941
21
0.209081381528593
31
0
210
0
220
0
230
-1
40
0.504381
41
-2.43447455133075
42
0.19447585748167
0
ELLIPSE
5
104
100
AcDbEntity
8
1
62
256
6
ByLayer
370
18
48
1
60
0
100
AcDbEllipse
10
9.825937
20
17.079092
30
0
11
1.03505
21
0
31
0
210
0
220
0
230
1
40
0.999033
41
-2.6179938779915
42
-1.57079632679501
0
ELLIPSE
5
105
100
AcDbEntity
8
1
62
256
6
ByLayer
370
18
48
1
60
0
100
AcDbEllipse
10
8.912887
20
17.035124
30
0
11
-1.47850558305594E-17
21
0.241466260311497
31
0
210
0
220
0
230
-1
40
0.504625
41
1.5707963267949
42
2.80244658853806
0
ELLIPSE
5
106
100
AcDbEntity
8
1
62
256
6
ByLayer
370
18
48
1
60
0
100
AcDbEllipse
10
5.164886
20
17.819288
30
0
11
1.46656669475825
21
0
31
0
210
0
220
0
230
1
40
0.999033
41
1.04719755119663
42
2.46703446408984
0
ELLIPSE
5
107
100
AcDbEntity
8
1
62
256
6
ByLayer
370
18
48
1
60
0
100
AcDbEllipse
10
4.335937
20
9.327278
30
0
11
-12
21
1.46952762458685E-15
31
0
210
0
220
0
230
1
40
0.999033
41
-1.57079632679489
42
-1.52618949217255
0
ELLIPSE
5
108
100
AcDbEntity
8
1
62
256
6
ByLayer
370
18
48
1
60
0
100
AcDbEllipse
10
5.164886
20
17.693979
30
0
11
1.46656669475825
21
0
31
0
210
0
220
0
230
1
40
0.999033
41
1.04719755119662
42
2.46703446408985
0
ELLIPSE
5
109
100
AcDbEntity
8
1
62
256
6
ByLayer
370
18
48
1
60
0
100
AcDbEllipse
10
10.282462
20
17.825084
30
0
11
0.209352784302604
21
-0.120673451406313
31
0
210
0
220
0
230
-1
40
0.503893
41
1.57136223118765
42
2.80301249292267
0
ELLIPSE
5
10A
100
AcDbEntity
8
1
62
256
6
ByLayer
370
18
48
1
60
0
100
AcDbEllipse
10
10.616791
20
16.578965
30
0
11
0.120909794988
21
0.209081381528538
31
0
210
0
220
0
230
-1
40
0.504381
41
-0.19560950911689
42
0.707118564342453
0
ELLIPSE
5
10B
100
AcDbEntity
8
1
62
256
6
ByLayer
370
18
48
1
60
0
100
AcDbEllipse
10
9.825937
20
17.035124
30
0
11
0.7912
21
0
31
0
210
0
220
0
230
1
40
0.999033
41
0.0820906793062905
42
1.04719755119658
0
ELLIPSE
5
10C
100
AcDbEntity
8
1
62
256
6
ByLayer
370
18
48
1
60
0
100
AcDbEllipse
10
4.542565
20
17.338638
30
0
11
1.375
21
0
31
0
210
0
220
0
230
1
40
0.999033
41
1.9610194222788
42
-3.14158864938092
0
ELLIPSE
5
10D
100
AcDbEntity
8
1
62
256
6
ByLayer
370
18
48
1
60
0
100
AcDbEllipse
10
9.825937
20
17.079092
30
0
11
1.03505
21
0
31
0
210
0
220
0
230
1
40
0.999033
41
2.6179938779915
42
-2.6179938779915
0
ELLIPSE
5
10E
100
AcDbEntity
8
1
62
256
6
ByLayer
370
18
48
1
60
0
100
AcDbEllipse
10
9.825937
20
17.079092
30
0
11
1.03505
21
0
31
0
210
0
220
0
230
1
40
0.999033
41
-1.57079632679501
42
-0.523598775598371
0
ELLIPSE
5
10F
100
AcDbEntity
8
1
62
256
6
ByLayer
370
18
48
1
60
0
100
AcDbEllipse
10
12.207187
20
21.200133
30
0
11
-0.793749999999994
21
9.72031293346505E-17
31
0
210
0
220
0
230
1
40
0.999033
41
-3.14159265358979
42
-1.04719755119656
0
ELLIPSE
5
110
100
AcDbEntity
8
1
62
256
6
ByLayer
370
18
48
1
60
0
100
AcDbEllipse
10
12.207187
20
12.959219
30
0
11
-0.793749999999994
21
9.72031293346505E-17
31
0
210
0
220
0
230
1
40
0.999033
41
1.04719755119656
42
3.14159265358979
0
ELLIPSE
5
111
100
AcDbEntity
8
1
62
256
6
ByLayer
370
18
48
1
60
0
100
AcDbEllipse
10
9.825937
20
17.05574
30
0
11
1.88448184300129
21
0
31
0
210
0
220
0
230
1
40
0.999033
41
0
42
6.28318530717959
0
ELLIPSE
5
112
100
AcDbEntity
8
1
62
256
6
ByLayer
370
18
48
1
60
0
100
AcDbEllipse
10
9.825937
20
17.079676
30
0
11
-1.9225502321216
21
2.3543672297988E-16
31
0
210
0
220
0
230
1
40
0.999033
41
0
42
6.28318530717959
0
ELLIPSE
5
113
100
AcDbEntity
8
1
62
256
6
ByLayer
370
13
48
1
60
0
100
AcDbEllipse
10
9.825937
20
17.045281
30
0
11
-1.80474984822621
21
2.21010813119779E-16
31
0
210
0
220
0
230
1
40
0.999033
41
0
42
6.28318530717959
0
ELLIPSE
5
114
100
AcDbEntity
8
1
62
256
6
ByLayer
370
18
48
1
60
0
100
AcDbEllipse
10
9.825937
20
17.039521
30
0
11
-1.725
21
2.1124459603436E-16
31
0
210
0
220
0
230
1
40
0.999033
41
0
42
3.14156000678613
0
ELLIPSE
5
115
100
AcDbEntity
8
1
62
256
6
ByLayer
370
18
48
1
60
0
100
AcDbEllipse
10
9.825937
20
17.071445
30
0
11
-1.725
21
2.1124459603436E-16
31
0
210
0
220
0
230
1
40
0.999033
41
0
42
6.28318530717959
0
ELLIPSE
5
116
100
AcDbEntity
8
1
62
256
6
ByLayer
370
13
48
0.05
60
0
100
AcDbEllipse
10
12.207187
20
-21.200133
30
0
11
-0.793749999999994
21
0
31
0
210
0
220
0
230
-1
40
0.999033
41
-3.14159265358979
42
-1.04719755119656
0
POINT
5
6C
100
AcDbEntity
8
80
62
256
6
ByLayer
370
13
48
1
60
0
100
AcDbPoint
10
0
20
0
30
0
39
0
210
0
220
0
230
1
50
360
0
POINT
5
6E
100
AcDbEntity
8
81
62
256
6
ByLayer
370
18
48
1
60
0
100
AcDbPoint
10
13.000937
20
21.993116
30
0
39
0
210
0
220
0
230
1
50
360
0
SPLINE
5
117
100
AcDbEntity
8
1
62
256
6
ByLayer
370
18
48
1
60
0
100
AcDbSpline
70
4
71
3
72
8
73
4
40
0
40
0
40
0
40
0
40
1
40
1
40
1
40
1
41
1
10
10.4595887579476
20
17.7167406026266
30
0
41
1
10
10.4656548184838
20
17.7197280534472
30
0
41
1
10
10.471718907931
20
17.7227147620854
30
0
41
1
10
10.4777811424714
20
17.7257007715955
30
0
0
SPLINE
5
118
100
AcDbEntity
8
1
62
256
6
ByLayer
370
18
48
1
60
0
100
AcDbSpline
70
4
71
3
72
8
73
4
40
0
40
0
40
0
40
0
40
1
40
1
40
1
40
1
41
1
10
9.58707604983778
20
17.9444527269594
30
0
41
1
10
9.58765748602139
20
17.9512744002677
30
0
41
1
10
9.58823873327475
20
17.958094085512
30
0
41
1
10
9.58881980273401
20
17.9649118991826
30
0
0
SPLINE
5
119
100
AcDbEntity
8
1
62
256
6
ByLayer
370
18
48
1
60
0
100
AcDbSpline
70
4
71
3
72
28
73
24
40
0
40
0
40
0
40
0
40
0.108288540731878
40
0.108288540731878
40
0.225253580018296
40
0.225253580018296
40
0.342268318548578
40
0.342268318548578
40
0.459393576191602
40
0.459393576191602
40
0.555729824682046
40
0.555729824682046
40
0.632635573241399
40
0.632635573241399
40
0.704746769386155
40
0.704746769386155
40
0.818780459988306
40
0.818780459988306
40
0.901881358114116
40
0.901881358114116
40
0.984963093097928
40
0.984963093097928
40
1
40
1
40
1
40
1
41
1
10
9.82593702524628
20
16.0450429022463
30
0
41
1
10
9.83782830240563
20
16.0450429022463
30
0
41
1
10
9.84972898132554
20
16.0454778068681
30
0
41
1
10
9.87438698611095
20
16.0473041885153
30
0
41
1
10
9.88716105468865
20
16.0487707856768
30
0
41
1
10
9.91248710521614
20
16.0528082953907
30
0
41
1
10
9.92506952087422
20
16.0553836764696
30
0
41
1
10
9.94983953040736
20
16.0617756520193
30
0
41
1
10
9.96206964285784
20
16.0656026595287
30
0
41
1
10
9.98370960398773
20
16.0739119834693
30
0
41
1
10
9.99327222623788
20
16.078172529814
30
0
41
1
10
10.0097443807805
20
16.0868906086093
30
0
41
1
10
10.016829387588
20
16.0911521827204
30
0
41
1
10
10.0297715291003
20
16.1002365743751
30
0
41
1
10
10.0357129810527
20
16.1050342565439
30
0
41
1
10
10.0495309103616
20
16.1183728121949
30
0
41
1
10
10.0567719614811
20
16.1277478206055
30
0
41
1
10
10.0648978229392
20
16.14511741657
30
0
41
1
10
10.0670155211366
20
16.1529765338576
30
0
41
1
10
10.0680151200747
20
16.168446697196
30
0
41
1
10
10.0669168566347
20
16.1762386358559
30
0
41
1
10
10.064065239296
20
16.1848401235327
30
0
41
1
10
10.063580070906
20
16.1861593849245
30
0
41
1
10
10.0630542477567
20
16.1874635810253
30
0
0
SPLINE
5
11A
100
AcDbEntity
8
1
62
256
6
ByLayer
370
18
48
1
60
0
100
AcDbSpline
70
4
71
3
72
30
73
26
40
0
40
0
40
0
40
0
40
0.0212218158422365
40
0.0212218158422365
40
0.126059559525534
40
0.126059559525534
40
0.201107055759459
40
0.201107055759459
40
0.29411228301161
40
0.29411228301161
40
0.397100605352966
40
0.397100605352966
40
0.500042881039266
40
0.500042881039266
40
0.583971495240649
40
0.583971495240649
40
0.66656514848867
40
0.66656514848867
40
0.767859984421263
40
0.767859984421263
40
0.83872056129773
40
0.83872056129773
40
0.909748878403057
40
0.909748878403057
40
1
40
1
40
1
40
1
41
1
10
10.4595887579475
20
16.434677850522
30
0
41
1
10
10.4566317860811
20
16.4359787822947
30
0
41
1
10
10.4535866729811
20
16.4371338468416
30
0
41
1
10
10.435341549622
20
16.4431192353117
30
0
41
1
10
10.4185765717566
20
16.4449587390598
30
0
41
1
10
10.389620031367
20
16.4446937714534
30
0
41
1
10
10.37726871466
20
16.4435420431128
30
0
41
1
10
10.3496657474017
20
16.4392012241877
30
0
41
1
10
10.3343077883096
20
16.4355729614127
30
0
41
1
10
10.3023378106933
20
16.4259649901665
30
0
41
1
10
10.2856457095213
20
16.4197356564994
30
0
41
1
10
10.2530352602516
20
16.4054223662151
30
0
41
1
10
10.2370133376667
20
16.3972917530026
30
0
41
1
10
10.208906757283
20
16.3810801041516
30
0
41
1
10
10.1965840839366
20
16.3732324414822
30
0
41
1
10
10.1730499106264
20
16.3566985528904
30
0
41
1
10
10.1617769475724
20
16.3479952161576
30
0
41
1
10
10.1379656434041
20
16.3276518182514
30
0
41
1
10
10.1256260518809
20
16.3157223022791
30
0
41
1
10
10.1066749378126
20
16.2943712761686
30
0
41
1
10
10.0994160439346
20
16.2852239523669
30
0
41
1
10
10.0864446657959
20
16.2663118966579
30
0
41
1
10
10.0806904418401
20
16.2564840798109
30
0
41
1
10
10.0701868890797
20
16.2336711044011
30
0
41
1
10
10.0659872676552
20
16.2202669550207
30
0
41
1
10
10.064798000653
20
16.2069657261891
30
0
0
SPLINE
5
11B
100
AcDbEntity
8
1
62
256
6
ByLayer
370
18
48
1
60
0
100
AcDbSpline
70
4
71
3
72
26
73
22
40
0
40
0
40
0
40
0
40
0.008656914876836
40
0.008656914876836
40
0.125591395709181
40
0.125591395709181
40
0.242553460371828
40
0.242553460371828
40
0.359581429952912
40
0.359581429952912
40
0.476756419374694
40
0.476756419374694
40
0.594287938352875
40
0.594287938352875
40
0.734087980384785
40
0.734087980384785
40
0.816818773651443
40
0.816818773651443
40
0.904422913955509
40
0.904422913955509
40
1
40
1
40
1
40
1
41
1
10
8.92955743106006
20
16.5620674217641
30
0
41
1
10
8.92908169264985
20
16.5628906279969
30
0
41
1
10
8.9286084048498
20
16.5637152144581
30
0
41
1
10
8.92178277308381
20
16.5756891017967
30
0
41
1
10
8.91586932535802
20
16.5870946477875
30
0
41
1
10
8.90501819393103
20
16.6103127830784
30
0
41
1
10
8.90006946975529
20
16.622148624958
30
0
41
1
10
8.89127900566058
20
16.6461626425118
30
0
41
1
10
8.88742594882183
20
16.6583707681399
30
0
41
1
10
8.88105281212279
20
16.6830415523128
30
0
41
1
10
8.87852075563677
20
16.6955493515286
30
0
41
1
10
8.8751772625277
20
16.7206522123707
30
0
41
1
10
8.87435695103875
20
16.7333287057148
30
0
41
1
10
8.87518228416644
20
16.7605691243622
30
0
41
1
10
8.87733344833407
20
16.7753642155866
30
0
41
1
10
8.88481321933995
20
16.7967551841022
30
0
41
1
10
8.88856858925112
20
16.8043546917687
30
0
41
1
10
8.89832113576483
20
16.817916436736
30
0
41
1
10
8.90458481239136
20
16.8238973447473
30
0
41
1
10
8.91927338857516
20
16.8329520990363
30
0
41
1
10
8.92805283270457
20
16.8358558486112
30
0
41
1
10
8.936975685508
20
16.8369766125168
30
0
0
SPLINE
5
11C
100
AcDbEntity
8
1
62
256
6
ByLayer
370
18
48
1
60
0
100
AcDbSpline
70
4
71
3
72
8
73
4
40
0
40
0
40
0
40
0
40
1
40
1
40
1
40
1
41
1
10
10.7148983649827
20
17.3153988676911
30
0
41
1
10
10.7094171999016
20
17.3114073896498
30
0
41
1
10
10.7039343577078
20
17.3074149048298
30
0
41
1
10
10.6984497333552
20
17.3034213509071
30
0
0
SPLINE
5
11D
100
AcDbEntity
8
1
62
256
6
ByLayer
370
18
48
1
60
0
100
AcDbSpline
70
4
71
3
72
28
73
24
40
0
40
0
40
0
40
0
40
0.108288540731931
40
0.108288540731931
40
0.225253580018341
40
0.225253580018341
40
0.342268318548614
40
0.342268318548614
40
0.459393576191631
40
0.459393576191631
40
0.555729824682071
40
0.555729824682071
40
0.632635573241419
40
0.632635573241419
40
0.704746769386173
40
0.704746769386173
40
0.818780459988316
40
0.818780459988316
40
0.901881358114121
40
0.901881358114121
40
0.984963093097929
40
0.984963093097929
40
1
40
1
40
1
40
1
41
1
10
10.7223166194307
20
17.5961164608027
30
0
41
1
10
10.716370980851
20
17.6064046499242
30
0
41
1
10
10.7100384458132
20
17.6164745359778
30
0
41
1
10
10.6961041540134
20
17.6368569710753
30
0
41
1
10
10.6884279988686
20
17.6471448742782
30
0
41
1
10
10.6722149348844
20
17.6669512753843
30
0
41
1
10
10.6636588945976
20
17.6764937989726
30
0
41
1
10
10.645650026063
20
17.6945850892952
30
0
41
1
10
10.6361668062223
20
17.7031652533053
30
0
41
1
10
10.6180288704083
20
17.7175343971081
30
0
41
1
10
10.6094938098363
20
17.7235730113149
30
0
41
1
10
10.5935712482
20
17.7332420923759
30
0
41
1
10
10.5862697360438
20
17.7371290308708
30
0
41
1
10
10.5717800762634
20
17.7435356343624
30
0
41
1
10
10.564572265674
20
17.7461420401898
30
0
41
1
10
10.5458740902019
20
17.7510359359756
30
0
41
1
10
10.5339590925685
20
17.752323260442
30
0
41
1
10
10.5145031079969
20
17.7500874855452
30
0
41
1
10
10.5064718299908
20
17.747713887433
30
0
41
1
10
10.4922294365176
20
17.7402690395662
30
0
41
1
10
10.4858477034169
20
17.7351177732182
30
0
41
1
10
10.4796129437218
20
17.7279964139544
30
0
41
1
10
10.4786803029284
20
17.7268623326443
30
0
41
1
10
10.4777811424714
20
17.7257007715955
30
0
0
SPLINE
5
11E
100
AcDbEntity
8
1
62
256
6
ByLayer
370
18
48
1
60
0
100
AcDbSpline
70
4
71
3
72
26
73
22
40
0
40
0
40
0
40
0
40
0.0086569148768526
40
0.0086569148768526
40
0.125591395709196
40
0.125591395709196
40
0.242553460371842
40
0.242553460371842
40
0.359581429952924
40
0.359581429952924
40
0.476756419374703
40
0.476756419374703
40
0.594287938352882
40
0.594287938352882
40
0.734087980384789
40
0.734087980384789
40
0.816818773651446
40
0.816818773651446
40
0.904422913955511
40
0.904422913955511
40
1
40
1
40
1
40
1
41
1
10
10.7223166194307
20
17.5961164608027
30
0
41
1
10
10.7227923578409
20
17.5952932545699
30
0
41
1
10
10.7232656456408
20
17.5944685909172
30
0
41
1
10
10.7300912774069
20
17.5824924651781
30
0
41
1
10
10.7360047251327
20
17.5710708724959
30
0
41
1
10
10.7468558565597
20
17.5477910976643
30
0
41
1
10
10.7518045807354
20
17.5359096208564
30
0
41
1
10
10.7605950448302
20
17.5117698880155
30
0
41
1
10
10.7644481016689
20
17.4994815708171
30
0
41
1
10
10.7708212383679
20
17.4746065371713
30
0
41
1
10
10.773353294854
20
17.4619743878532
30
0
41
1
10
10.776696787963
20
17.4365623659946
30
0
41
1
10
10.7775170994519
20
17.4237001237457
30
0
41
1
10
10.7766917663243
20
17.3959586482812
30
0
41
1
10
10.7745406021567
20
17.3808248592168
30
0
41
1
10
10.7670608311508
20
17.3587470702859
30
0
41
1
10
10.7633054612396
20
17.3508537512865
30
0
41
1
10
10.7535529147259
20
17.3366217549419
30
0
41
1
10
10.7472892380994
20
17.3302511286618
30
0
41
1
10
10.7326006619156
20
17.320350312141
30
0
41
1
10
10.7238212177861
20
17.3169748769994
30
0
41
1
10
10.7148983649827
20
17.3153988676911
30
0
0
SPLINE
5
11F
100
AcDbEntity
8
1
62
256
6
ByLayer
370
18
48
1
60
0
100
AcDbSpline
70
4
71
3
72
34
73
30
40
0
40
0
40
0
40
0
40
0.0312499999999494
40
0.0312499999999494
40
0.0624999999998987
40
0.0624999999998987
40
0.124999999999912
40
0.124999999999912
40
0.250000000000083
40
0.250000000000083
40
0.312500000000056
40
0.312500000000056
40
0.37500000000003
40
0.37500000000003
40
0.437500000000003
40
0.437500000000003
40
0.499999999999977
40
0.499999999999977
40
0.624999999999914
40
0.624999999999914
40
0.687499999999878
40
0.687499999999878
40
0.749999999999843
40
0.749999999999843
40
0.874999999999773
40
0.874999999999773
40
0.937499999999886
40
0.937499999999886
40
1
40
1
40
1
40
1
41
1
10
9.58707604983778
20
16.2069657261891
30
0
41
1
10
9.58665826845163
20
16.2116383571523
30
0
41
1
10
9.58586680493733
20
16.2163187521351
30
0
41
1
10
9.58369054404227
20
16.2255475625525
30
0
41
1
10
9.58230904529569
20
16.2300968340007
30
0
41
1
10
9.57743425176665
20
16.2435884780539
30
0
41
1
10
9.57321945298963
20
16.2523766416824
30
0
41
1
10
9.5583039560392
20
16.2783053087269
30
0
41
1
10
9.54562934151357
20
16.294550436087
30
0
41
1
10
9.52425528327382
20
16.3173608677145
30
0
41
1
10
9.51669323102334
20
16.3247316711011
30
0
41
1
10
9.50092720367263
20
16.3389234247683
30
0
41
1
10
9.49272971925484
20
16.3457417010114
30
0
41
1
10
9.47574791344795
20
16.3588712849803
30
0
41
1
10
9.46695919671231
20
16.3651823146051
30
0
41
1
10
9.44898569641157
20
16.377197259972
30
0
41
1
10
9.43977998437265
20
16.3829179518833
30
0
41
1
10
9.41150929718748
20
16.3992259533515
30
0
41
1
10
9.39196106510633
20
16.4088677238773
30
0
41
1
10
9.3619934923546
20
16.4211512053973
30
0
41
1
10
9.351871762717
20
16.4248888122071
30
0
41
1
10
9.33153842069481
20
16.4315185736519
30
0
41
1
10
9.3213275408325
20
16.4344139807937
30
0
41
1
10
9.29052536848087
20
16.4416872502493
30
0
41
1
10
9.26978224234159
20
16.4446751610619
30
0
41
1
10
9.23949566227026
20
16.4448758796424
30
0
41
1
10
9.22946791989295
20
16.4442126277397
30
0
41
1
10
9.21024172919897
20
16.4410183015875
30
0
41
1
10
9.20100141240692
20
16.4385125428283
30
0
41
1
10
9.19228529254315
20
16.4346778505219
30
0
0
SPLINE
5
120
100
AcDbEntity
8
1
62
256
6
ByLayer
370
18
48
1
60
0
100
AcDbSpline
70
4
71
3
72
28
73
24
40
0
40
0
40
0
40
0
40
0.108288540731878
40
0.108288540731878
40
0.225253580018295
40
0.225253580018295
40
0.342268318548575
40
0.342268318548575
40
0.459393576191598
40
0.459393576191598
40
0.555729824682044
40
0.555729824682044
40
0.632635573241397
40
0.632635573241397
40
0.704746769386154
40
0.704746769386154
40
0.818780459988305
40
0.818780459988305
40
0.901881358114115
40
0.901881358114115
40
0.984963093097927
40
0.984963093097927
40
1
40
1
40
1
40
1
41
1
10
9.82593702524446
20
18.1131409803204
30
0
41
1
10
9.81404574808511
20
18.1131409803204
30
0
41
1
10
9.80214506916519
20
18.1126940956366
30
0
41
1
10
9.77748706437978
20
18.1108168053584
30
0
41
1
10
9.76471299580209
20
18.1093091844743
30
0
41
1
10
9.73938694527459
20
18.1051561593943
30
0
41
1
10
9.72680452961652
20
18.1025061921014
30
0
41
1
10
9.70203452008337
20
18.0959229706189
30
0
41
1
10
9.68980440763289
20
18.0919790597082
30
0
41
1
10
9.668164446503
20
18.0834046334117
30
0
41
1
10
9.65860182425286
20
18.0790046501468
30
0
41
1
10
9.64212966971024
20
18.0699887202192
30
0
41
1
10
9.63504466290277
20
18.0655776306209
30
0
41
1
10
9.62210252139045
20
18.0561617923981
30
0
41
1
10
9.61616106943808
20
18.0511838096566
30
0
41
1
10
9.60234314012916
20
18.0373226784872
30
0
41
1
10
9.59510208900963
20
18.0275609485501
30
0
41
1
10
9.58697622755147
20
18.0094161873449
30
0
41
1
10
9.58485852935411
20
18.0011887416225
30
0
41
1
10
9.58385893041606
20
17.9849524354785
30
0
41
1
10
9.58495719385604
20
17.9767537064478
30
0
41
1
10
9.58780881119469
20
17.967680977962
30
0
41
1
10
9.58829397958471
20
17.9662887981791
30
0
41
1
10
9.58881980273401
20
17.9649118991826
30
0
0
SPLINE
5
121
100
AcDbEntity
8
1
62
256
6
ByLayer
370
18
48
1
60
0
100
AcDbSpline
70
4
71
3
72
8
73
4
40
0
40
0
40
0
40
0
40
1
40
1
40
1
40
1
41
1
10
10.0630542477567
20
17.9649118991826
30
0
41
1
10
10.063635317216
20
17.958094085512
30
0
41
1
10
10.0642165644693
20
17.9512744002677
30
0
41
1
10
10.064798000653
20
17.9444527269594
30
0
0
SPLINE
5
122
100
AcDbEntity
8
1
62
256
6
ByLayer
370
18
48
1
60
0
100
AcDbSpline
70
4
71
3
72
26
73
22
40
0
40
0
40
0
40
0
40
0.0086569148769114
40
0.0086569148769114
40
0.125591395709248
40
0.125591395709248
40
0.242553460371887
40
0.242553460371887
40
0.359581429952962
40
0.359581429952962
40
0.476756419374735
40
0.476756419374735
40
0.594287938352907
40
0.594287938352907
40
0.734087980384806
40
0.734087980384806
40
0.816818773651458
40
0.816818773651458
40
0.904422913955517
40
0.904422913955517
40
1
40
1
40
1
40
1
41
1
10
9.82593702524628
20
16.0450429022463
30
0
41
1
10
9.82498554842584
20
16.0450429022463
30
0
41
1
10
9.82403406698336
20
16.045045693301
30
0
41
1
10
9.8102405524134
20
16.045126623352
30
0
41
1
10
9.7973898194042
20
16.045709141251
30
0
41
1
10
9.77181057807536
20
16.0479145313923
30
0
41
1
10
9.75905637446272
20
16.0495394673196
30
0
41
1
10
9.73378977287297
20
16.0539096440988
30
0
41
1
10
9.72124570570509
20
16.0566600408629
30
0
41
1
10
9.69658440144195
20
16.0634304098199
30
0
41
1
10
9.68442191857548
20
16.0674625172667
30
0
41
1
10
9.66085541251431
20
16.0770439076498
30
0
41
1
10
9.64937595513004
20
16.0826259935208
30
0
41
1
10
9.62595771712796
20
16.0968350068762
30
0
41
1
10
9.61406116899599
20
16.1060090392385
30
0
41
1
10
9.59896031015865
20
16.1230042257664
30
0
41
1
10
9.59412291045425
20
16.129979627376
30
0
41
1
10
9.58695249075083
20
16.1450307222595
30
0
41
1
10
9.584730780597
20
16.1533430039289
30
0
41
1
10
9.58385912039802
20
16.1703672439074
30
0
41
1
10
9.5855272437592
20
16.1792970661384
30
0
41
1
10
9.58881980273401
20
16.1874635810253
30
0
0
SPLINE
5
123
100
AcDbEntity
8
1
62
256
6
ByLayer
370
18
48
1
60
0
100
AcDbSpline
70
4
71
3
72
26
73
22
40
0
40
0
40
0
40
0
40
0.0086569148801189
40
0.0086569148801189
40
0.125591395712026
40
0.125591395712026
40
0.242553460374236
40
0.242553460374236
40
0.359581429954882
40
0.359581429954882
40
0.476756419376223
40
0.476756419376223
40
0.594287938353993
40
0.594287938353993
40
0.734087980384731
40
0.734087980384731
40
0.816818773651404
40
0.816818773651404
40
0.904422913955489
40
0.904422913955489
40
1
40
1
40
1
40
1
41
1
10
8.92955743106006
20
17.5961164608027
30
0
41
1
10
8.92908169264967
20
17.5952932545696
30
0
41
1
10
8.92860840484951
20
17.5944685909166
30
0
41
1
10
8.92178277308329
20
17.5824924651772
30
0
41
1
10
8.91586932535756
20
17.571070872495
30
0
41
1
10
8.90501819393069
20
17.5477910976635
30
0
41
1
10
8.90006946975501
20
17.5359096208556
30
0
41
1
10
8.89127900566029
20
17.5117698880148
30
0
41
1
10
8.88742594882132
20
17.4994815708165
30
0
41
1
10
8.88105281212228
20
17.4746065371708
30
0
41
1
10
8.8785207556337
20
17.4619743878535
30
0
41
1
10
8.87517726252469
20
17.4365623659951
30
0
41
1
10
8.87435695103875
20
17.4237001237453
30
0
41
1
10
8.87518228416644
20
17.3959586482809
30
0
41
1
10
8.87733344833401
20
17.3808248592167
30
0
41
1
10
8.88481321933989
20
17.3587470702859
30
0
41
1
10
8.88856858925112
20
17.3508537512865
30
0
41
1
10
8.89832113576483
20
17.3366217549419
30
0
41
1
10
8.90458481239136
20
17.3302511286618
30
0
41
1
10
8.91927338857516
20
17.320350312141
30
0
41
1
10
8.92805283270457
20
17.3169748769994
30
0
41
1
10
8.936975685508
20
17.3153988676911
30
0
0
SPLINE
5
124
100
AcDbEntity
8
1
62
256
6
ByLayer
370
18
48
1
60
0
100
AcDbSpline
70
4
71
3
72
28
73
24
40
0
40
0
40
0
40
0
40
0.108288540731907
40
0.108288540731907
40
0.225253580018321
40
0.225253580018321
40
0.342268318548597
40
0.342268318548597
40
0.459393576191617
40
0.459393576191617
40
0.555729824682059
40
0.555729824682059
40
0.632635573241409
40
0.632635573241409
40
0.704746769386164
40
0.704746769386164
40
0.818780459988312
40
0.818780459988312
40
0.901881358114119
40
0.901881358114119
40
0.984963093097928
40
0.984963093097928
40
1
40
1
40
1
40
1
41
1
10
10.7223166194316
20
16.5620674217656
30
0
41
1
10
10.7282622580113
20
16.5723556108871
30
0
41
1
10
10.7338304018933
20
16.5828663915935
30
0
41
1
10
10.744554114879
20
16.6051006626538
30
0
41
1
10
10.749652028312
20
16.6168756748794
30
0
41
1
10
10.7587650148552
20
16.6407773433825
30
0
41
1
10
10.7627913902265
20
16.6529325411567
30
0
41
1
10
10.769552531225
20
16.6775114299954
30
0
41
1
10
10.7722994238347
20
16.6899770532155
30
0
41
1
10
10.7758014491507
20
16.7127880721369
30
0
41
1
10
10.7768290108288
20
16.7231569511484
30
0
41
1
10
10.7773786037351
20
16.741693036571
30
0
41
1
10
10.7771620983864
20
16.7499163069205
30
0
41
1
10
10.7756145801184
20
16.7655730253509
30
0
41
1
10
10.7743482214813
20
16.7730672636336
30
0
41
1
10
10.7694679753181
20
16.7915610028295
30
0
41
1
10
10.7647940288042
20
16.8024166964697
30
0
41
1
10
10.7534639056906
20
16.8179381001578
30
0
41
1
10
10.7475503258821
20
16.8236077835505
30
0
41
1
10
10.7343075313469
20
16.832016170425
30
0
41
1
10
10.7268275348062
20
16.8348602379223
30
0
41
1
10
10.7177411577725
20
16.8365759867397
30
0
41
1
10
10.716323348589
20
16.836797626017
30
0
41
1
10
10.7148983649827
20
16.8369766125168
30
0
0
SPLINE
5
125
100
AcDbEntity
8
1
62
256
6
ByLayer
370
18
48
1
60
0
100
AcDbSpline
70
4
71
3
72
8
73
4
40
0
40
0
40
0
40
0
40
1
40
1
40
1
40
1
41
1
10
10.6984497333552
20
16.8479971022415
30
0
41
1
10
10.7039343577078
20
16.8443222111887
30
0
41
1
10
10.7094171999016
20
16.8406487427967
30
0
41
1
10
10.7148983649827
20
16.8369766125168
30
0
0
SPLINE
5
126
100
AcDbEntity
8
1
62
256
6
ByLayer
370
18
48
1
60
0
100
AcDbSpline
70
4
71
3
72
8
73
4
40
0
40
0
40
0
40
0
40
1
40
1
40
1
40
1
41
1
10
4.08160420192121
20
18.5218470338357
30
0
41
1
10
4.06089219765221
20
18.5509532410419
30
0
41
1
10
4.04019941897263
20
18.5800149994823
30
0
41
1
10
4.01952205081688
20
18.6090412204174
30
0
0
SPLINE
5
127
100
AcDbEntity
8
1
62
256
6
ByLayer
370
18
48
1
60
0
100
AcDbSpline
70
4
71
3
72
28
73
24
40
0
40
0
40
0
40
0
40
0.108288540731946
40
0.108288540731946
40
0.225253580018355
40
0.225253580018355
40
0.342268318548627
40
0.342268318548627
40
0.459393576191642
40
0.459393576191642
40
0.555729824682079
40
0.555729824682079
40
0.632635573241425
40
0.632635573241425
40
0.704746769386178
40
0.704746769386178
40
0.81878045998832
40
0.81878045998832
40
0.901881358114123
40
0.901881358114123
40
0.98496309309793
40
0.98496309309793
40
1
40
1
40
1
40
1
41
1
10
8.92955743106006
20
16.5620674217641
30
0
41
1
10
8.93550306963976
20
16.5517792326426
30
0
41
1
10
8.94183560467752
20
16.5416973665269
30
0
41
1
10
8.95576989647725
20
16.5212640227983
30
0
41
1
10
8.96344605162216
20
16.5109350958729
30
0
41
1
10
8.9796591156063
20
16.4910131794007
30
0
41
1
10
8.9882151558931
20
16.4813960695984
30
0
41
1
10
9.00622402442775
20
16.463113533343
30
0
41
1
10
9.01570724426847
20
16.4544164659316
30
0
41
1
10
9.03384518008244
20
16.4397822197728
30
0
41
1
10
9.04238024065438
20
16.4336041686459
30
0
41
1
10
9.05830280229077
20
16.4236372364525
30
0
41
1
10
9.06560431444683
20
16.4196007824705
30
0
41
1
10
9.08009397422734
20
16.4128627324109
30
0
41
1
10
9.08730178481676
20
16.4100760260106
30
0
41
1
10
9.10599996028884
20
16.4046595547064
30
0
41
1
10
9.11791495792227
20
16.4029855087135
30
0
41
1
10
9.13737094249387
20
16.4044461183697
30
0
41
1
10
9.14540222049993
20
16.4064513880471
30
0
41
1
10
9.15964461397311
20
16.4131300931083
30
0
41
1
10
9.16602634707385
20
16.4178745690855
30
0
41
1
10
9.17226110676893
20
16.4245246875403
30
0
41
1
10
9.17319374756238
20
16.4255858504592
30
0
41
1
10
9.17409290801936
20
16.4266747086124
30
0
0
SPLINE
5
128
100
AcDbEntity
8
1
62
256
6
ByLayer
370
18
48
1
60
0
100
AcDbSpline
70
4
71
3
72
8
73
4
40
0
40
0
40
0
40
0
40
1
40
1
40
1
40
1
41
1
10
1.63652437311907
20
21.1211632851014
30
0
41
1
10
1.78937821709451
20
21.1549262891888
30
0
41
1
10
1.9428054317321
20
21.1857533706569
30
0
41
1
10
2.0968526396457
20
21.2136764475402
30
0
0
SPLINE
5
129
100
AcDbEntity
8
1
62
256
6
ByLayer
370
18
48
1
60
0
100
AcDbSpline
70
4
71
3
72
26
73
22
40
0
40
0
40
0
40
0
40
0.0742301486906313
40
0.0742301486906313
40
0.125696238139609
40
0.125696238139609
40
0.200645519545574
40
0.200645519545574
40
0.293529030645351
40
0.293529030645351
40
0.396382571934823
40
0.396382571934823
40
0.499190126830596
40
0.499190126830596
40
0.558129055846337
40
0.558129055846337
40
0.765978231673768
40
0.765978231673768
40
0.910227308046386
40
0.910227308046386
40
1
40
1
40
1
40
1
41
1
10
8.9534243171355
20
17.3034213509071
30
0
41
1
10
8.96268824527874
20
17.296675948816
30
0
41
1
10
8.97097412719307
20
17.2881334825913
30
0
41
1
10
8.98331759910843
20
17.27218980436
30
0
41
1
10
8.98795019761366
20
17.2651614607719
30
0
41
1
10
8.99833072603332
20
17.2471782203047
30
0
41
1
10
9.00367255705589
20
17.2358212270721
30
0
41
1
10
9.0140384991239
20
17.2095802475135
30
0
41
1
10
9.01872663373797
20
17.1943895595841
30
0
41
1
10
9.02664841945483
20
17.1617723410236
30
0
41
1
10
9.02970026760238
20
17.144154856648
30
0
41
1
10
9.03373868469055
20
17.1087027958669
30
0
41
1
10
9.03473702524536
20
17.0907550321649
30
0
41
1
10
9.03473702524536
20
17.0626464419101
30
0
41
1
10
9.03440741357252
20
17.0523946051678
30
0
41
1
10
9.0314403450439
20
17.0066994644416
30
0
41
1
10
9.02509992433528
20
16.971285259616
30
0
41
1
10
9.00631138378071
20
16.9165745765496
30
0
41
1
10
8.99612113258115
20
16.8950806389276
30
0
41
1
10
8.97442820211796
20
16.8656958763944
30
0
41
1
10
8.96464254356482
20
16.8555137081715
30
0
41
1
10
8.95342431713556
20
16.8479971022415
30
0
0
SPLINE
5
12A
100
AcDbEntity
8
1
62
256
6
ByLayer
370
18
48
1
60
0
100
AcDbSpline
70
4
71
3
72
30
73
26
40
0
40
0
40
0
40
0
40
0.0212218158422364
40
0.0212218158422364
40
0.126059559525534
40
0.126059559525534
40
0.20110705575946
40
0.20110705575946
40
0.294112283011609
40
0.294112283011609
40
0.397100605352965
40
0.397100605352965
40
0.500042881039265
40
0.500042881039265
40
0.583971495240649
40
0.583971495240649
40
0.66656514848867
40
0.66656514848867
40
0.767859984421262
40
0.767859984421262
40
0.83872056129773
40
0.83872056129773
40
0.909748878403058
40
0.909748878403058
40
1
40
1
40
1
40
1
41
1
10
10.6984497333551
20
17.3034213509071
30
0
41
1
10
10.6957761893291
20
17.3014746465301
30
0
41
1
10
10.6931860096644
20
17.2993793196658
30
0
41
1
10
10.678492920895
20
17.2863662130677
30
0
41
1
10
10.6682255065867
20
17.2726136510595
30
0
41
1
10
10.6535433244572
20
17.2471782203042
30
0
41
1
10
10.6482014934379
20
17.2358212270722
30
0
41
1
10
10.6378355513698
20
17.2095802475138
30
0
41
1
10
10.6331474167532
20
17.1943895595841
30
0
41
1
10
10.6252256310364
20
17.1617723410236
30
0
41
1
10
10.6221737828883
20
17.144154856648
30
0
41
1
10
10.6181353658002
20
17.1087027958669
30
0
41
1
10
10.6171370252454
20
17.0907550321649
30
0
41
1
10
10.6171370252454
20
17.0583317344627
30
0
41
1
10
10.6178021503903
20
17.0437600920232
30
0
41
1
10
10.6204608362465
20
17.0151853906544
30
0
41
1
10
10.6224379323163
20
17.0011202728279
30
0
41
1
10
10.6283697859538
20
16.9704641520754
30
0
41
1
10
10.6326865832106
20
16.953907153084
30
0
41
1
10
10.642020989598
20
16.9270092875537
30
0
41
1
10
10.6464615387391
20
16.9162363652412
30
0
41
1
10
10.6566822060233
20
16.8957377216992
30
0
41
1
10
10.6624972142189
20
16.8859449647115
30
0
41
1
10
10.6774458483728
20
16.8656958763944
30
0
41
1
10
10.687231506926
20
16.8555137081715
30
0
41
1
10
10.6984497333552
20
16.8479971022415
30
0
0
SPLINE
5
12B
100
AcDbEntity
8
1
62
256
6
ByLayer
370
18
48
1
60
0
100
AcDbSpline
70
4
71
3
72
8
73
4
40
0
40
0
40
0
40
0
40
1
40
1
40
1
40
1
41
1
10
10.064798000653
20
16.2069657261891
30
0
41
1
10
10.0642165644693
20
16.2004627157509
30
0
41
1
10
10.063635317216
20
16.1939620469345
30
0
41
1
10
10.0630542477567
20
16.1874635810253
30
0
0
SPLINE
5
12C
100
AcDbEntity
8
1
62
256
6
ByLayer
370
18
48
1
60
0
100
AcDbSpline
70
4
71
3
72
8
73
4
40
0
40
0
40
0
40
0
40
1
40
1
40
1
40
1
41
1
10
9.58881980273401
20
16.1874635810253
30
0
41
1
10
9.58823873327475
20
16.1939620469345
30
0
41
1
10
9.58765748602139
20
16.2004627157509
30
0
41
1
10
9.58707604983778
20
16.2069657261891
30
0
0
SPLINE
5
12D
100
AcDbEntity
8
1
62
256
6
ByLayer
370
18
48
1
60
0
100
AcDbSpline
70
4
71
3
72
28
73
24
40
0
40
0
40
0
40
0
40
0.108288540728049
40
0.108288540728049
40
0.22525358001383
40
0.22525358001383
40
0.342268318543472
40
0.342268318543472
40
0.45939357618585
40
0.45939357618585
40
0.555729824677647
40
0.555729824677647
40
0.632635573237568
40
0.632635573237568
40
0.704746769382401
40
0.704746769382401
40
0.818780459984689
40
0.818780459984689
40
0.901881358110712
40
0.901881358110712
40
0.98496309309548
40
0.98496309309548
40
1
40
1
40
1
40
1
41
1
10
8.92955743106006
20
17.5961164608027
30
0
41
1
10
8.93550306963959
20
17.6064046499238
30
0
41
1
10
8.94183560467707
20
17.616474535977
30
0
41
1
10
8.95576989647657
20
17.6368569710743
30
0
41
1
10
8.96344605162136
20
17.6471448742772
30
0
41
1
10
8.97965911560539
20
17.6669512753832
30
0
41
1
10
8.98821515589196
20
17.6764937989716
30
0
41
1
10
9.0062240244265
20
17.6945850892942
30
0
41
1
10
9.01570724426625
20
17.7031652533049
30
0
41
1
10
9.03384518008022
20
17.717534397108
30
0
41
1
10
9.04238024065171
20
17.7235730113153
30
0
41
1
10
9.05830280228821
20
17.7332420923766
30
0
41
1
10
9.06560431444484
20
17.7371290308712
30
0
41
1
10
9.08009397422535
20
17.743535634363
30
0
41
1
10
9.08730178481392
20
17.7461420401912
30
0
41
1
10
9.105999960286
20
17.7510359359773
30
0
41
1
10
9.11791495792141
20
17.7523232604419
30
0
41
1
10
9.13737094249313
20
17.7500874855454
30
0
41
1
10
9.14540222049777
20
17.7477138874342
30
0
41
1
10
9.1596446139713
20
17.740269039568
30
0
41
1
10
9.16602634707334
20
17.7351177732187
30
0
41
1
10
9.17226110676864
20
17.7279964139547
30
0
41
1
10
9.17319374756221
20
17.7268623326444
30
0
41
1
10
9.17409290801936
20
17.7257007715955
30
0
0
SPLINE
5
12E
100
AcDbEntity
8
1
62
256
6
ByLayer
370
18
48
1
60
0
100
AcDbSpline
70
4
71
3
72
8
73
4
40
0
40
0
40
0
40
0
40
1
40
1
40
1
40
1
41
1
10
8.936975685508
20
16.8369766125168
30
0
41
1
10
8.94245685058911
20
16.8406487427966
30
0
41
1
10
8.94793969278294
20
16.8443222111887
30
0
41
1
10
8.9534243171355
20
16.8479971022414
30
0
0
SPLINE
5
12F
100
AcDbEntity
8
1
62
256
6
ByLayer
370
18
48
1
60
0
100
AcDbSpline
70
4
71
3
72
26
73
22
40
0
40
0
40
0
40
0
40
0.008656914876879
40
0.008656914876879
40
0.12559139570922
40
0.12559139570922
40
0.242553460371862
40
0.242553460371862
40
0.359581429952941
40
0.359581429952941
40
0.476756419374717
40
0.476756419374717
40
0.594287938352893
40
0.594287938352893
40
0.734087980384797
40
0.734087980384797
40
0.816818773651452
40
0.816818773651452
40
0.904422913955514
40
0.904422913955514
40
1
40
1
40
1
40
1
41
1
10
10.7223166194316
20
16.5620674217656
30
0
41
1
10
10.7218408810214
20
16.5612442155328
30
0
41
1
10
10.7213626873788
20
16.5604223815306
30
0
41
1
10
10.714394804575
20
16.5485283050426
30
0
41
1
10
10.7074575192915
20
16.5376972536052
30
0
41
1
10
10.6927294093897
20
16.5166536886853
30
0
41
1
10
10.6849239299528
20
16.5064199652687
30
0
41
1
10
10.6684477924578
20
16.4867132668506
30
0
41
1
10
10.6597567821286
20
16.4772154422014
30
0
41
1
10
10.6414686145645
20
16.4592129022491
30
0
41
1
10
10.6318381881841
20
16.450675035429
30
0
41
1
10
10.611615175232
20
16.4349989844619
30
0
41
1
10
10.6009560293367
20
16.4278117025361
30
0
41
1
10
10.5767124582069
20
16.4145297688357
30
0
41
1
10
10.5626647459073
20
16.4087393610536
30
0
41
1
10
10.5400841160641
20
16.4040001688583
30
0
41
1
10
10.5314913464486
20
16.4032291571349
30
0
41
1
10
10.5145683802314
20
16.4043833813625
30
0
41
1
10
10.5060829934511
20
16.406519895886
30
0
41
1
10
10.4905227570682
20
16.4140663504597
30
0
41
1
10
10.4834114363001
20
16.4198565803325
30
0
41
1
10
10.4777811424714
20
16.4266747086124
30
0
0
SPLINE
5
130
100
AcDbEntity
8
1
62
256
6
ByLayer
370
18
48
1
60
0
100
AcDbSpline
70
4
71
3
72
26
73
22
40
0
40
0
40
0
40
0
40
0.0271387234067453
40
0.0271387234067453
40
0.133143415966931
40
0.133143415966931
40
0.291286691908894
40
0.291286691908894
40
0.500757280312417
40
0.500757280312417
40
0.626885076483449
40
0.626885076483449
40
0.697530097277506
40
0.697530097277506
40
0.768209951105368
40
0.768209951105368
40
0.838963700897015
40
0.838963700897015
40
0.909884938037894
40
0.909884938037894
40
1
40
1
40
1
40
1
41
1
10
9.58707604983778
20
17.9444527269592
30
0
41
1
10
9.58671234304677
20
17.9401855537519
30
0
41
1
10
9.58606607815796
20
17.9359148111838
30
0
41
1
10
9.58177419258141
20
17.9153348002204
30
0
41
1
10
9.57483844612165
20
17.8992644925307
30
0
41
1
10
9.55316023120133
20
17.861851653527
30
0
41
1
10
9.53587814661989
20
17.8409996919195
30
0
41
1
10
9.49123280952449
20
17.7974060652397
30
0
41
1
10
9.46158346344669
20
17.7754611683333
30
0
41
1
10
9.41137251467455
20
17.7464998980948
30
0
41
1
10
9.39157194444465
20
17.7368691845157
30
0
41
1
10
9.36010202150396
20
17.7243988920754
30
0
41
1
10
9.34862549633061
20
17.7204145606324
30
0
41
1
10
9.32553893281312
20
17.7136138877327
30
0
41
1
10
9.31388882259296
20
17.710785460554
30
0
41
1
10
9.29059097346021
20
17.7065032199108
30
0
41
1
10
9.27889153044174
20
17.7050397148868
30
0
41
1
10
9.25569948501868
20
17.7038132545195
30
0
41
1
10
9.24413025286657
20
17.7040475871394
30
0
41
1
10
9.21867806595219
20
17.7071013665319
30
0
41
1
10
9.2046927859746
20
17.7106300839115
30
0
41
1
10
9.19228529254309
20
17.7167406026266
30
0
0
SPLINE
5
131
100
AcDbEntity
8
1
62
256
6
ByLayer
370
18
48
1
60
0
100
AcDbSpline
70
4
71
3
72
30
73
26
40
0
40
0
40
0
40
0
40
0.0212218158422365
40
0.0212218158422365
40
0.126059559525534
40
0.126059559525534
40
0.20110705575946
40
0.20110705575946
40
0.294112283011609
40
0.294112283011609
40
0.397100605352965
40
0.397100605352965
40
0.500042881039265
40
0.500042881039265
40
0.583971495240649
40
0.583971495240649
40
0.66656514848867
40
0.66656514848867
40
0.767859984421263
40
0.767859984421263
40
0.83872056129773
40
0.83872056129773
40
0.909748878403058
40
0.909748878403058
40
1
40
1
40
1
40
1
41
1
10
10.064798000653
20
17.9444527269594
30
0
41
1
10
10.0650814284934
20
17.9411274228457
30
0
41
1
10
10.0655363619286
20
17.9378005031797
30
0
41
1
10
10.0690883965185
20
17.9183613263971
30
0
41
1
10
10.0755859600755
20
17.9024343448842
30
0
41
1
10
10.0898603183355
20
17.8767636846106
30
0
41
1
10
10.0968698040232
20
17.8663685811396
30
0
41
1
10
10.1141068292135
20
17.8440907869023
30
0
41
1
10
10.1247766536889
20
17.8323502894335
30
0
41
1
10
10.1488248455885
20
17.8090346518798
30
0
41
1
10
10.1624650986125
20
17.797524474028
30
0
41
1
10
10.1910371307939
20
17.776223204539
30
0
41
1
10
10.206060712824
20
17.7663650869889
30
0
41
1
10
10.2341672932077
20
17.7501534381379
30
0
41
1
10
10.2471550916991
20
17.7434566919241
30
0
41
1
10
10.2733479508654
20
17.731523329001
30
0
41
1
10
10.2865980099893
20
17.7262411114644
30
0
41
1
10
10.316341167795
20
17.7161620495493
30
0
41
1
10
10.3329975565751
20
17.7117022150894
30
0
41
1
10
10.3612830770307
20
17.7065032199109
30
0
41
1
10
10.3729825200497
20
17.7050397148875
30
0
41
1
10
10.3961745654728
20
17.7038132545202
30
0
41
1
10
10.4077437976242
20
17.7040475871394
30
0
41
1
10
10.4331959845385
20
17.7071013665319
30
0
41
1
10
10.4471812645161
20
17.7106300839115
30
0
41
1
10
10.4595887579476
20
17.7167406026266
30
0
0
SPLINE
5
132
100
AcDbEntity
8
1
62
256
6
ByLayer
370
18
48
1
60
0
100
AcDbSpline
70
4
71
3
72
8
73
4
40
0
40
0
40
0
40
0
40
1
40
1
40
1
40
1
41
1
10
10.4777811424714
20
16.4266747086124
30
0
41
1
10
10.471718907931
20
16.4293413703611
30
0
41
1
10
10.4656548184838
20
16.4320090625714
30
0
41
1
10
10.4595887579476
20
16.434677850522
30
0
0
SPLINE
5
133
100
AcDbEntity
8
1
62
256
6
ByLayer
370
18
48
1
60
0
100
AcDbSpline
70
4
71
3
72
26
73
22
40
0
40
0
40
0
40
0
40
0.1250000000002
40
0.250000000000399
40
0.250000000000399
40
0.31250000000041
40
0.31250000000041
40
0.375000000000421
40
0.375000000000421
40
0.500000000000442
40
0.500000000000442
40
0.562500000000373
40
0.562500000000373
40
0.625000000000305
40
0.625000000000305
40
0.750000000000169
40
0.875000000000032
40
0.875000000000032
40
0.937500000000016
40
0.937500000000016
40
1
40
1
40
1
40
1
41
1
10
3.80083250677291
20
21.3037481169831
30
0
41
1
10
3.76323916285708
20
21.3020717065617
30
0
41
1
10
3.68896854910383
20
21.2986377557937
30
0
41
1
10
3.61645242901858
20
21.2950670744692
30
0
41
1
10
3.56273254888555
20
21.2923586538238
30
0
41
1
10
3.54488607507733
20
21.2914482450067
30
0
41
1
10
3.50966142296647
20
21.2896349666467
30
0
41
1
10
3.49237318794127
20
21.2887368090653
30
0
41
1
10
3.44145506918255
20
21.2860764388699
30
0
41
1
10
3.40876732654454
20
21.2843477797477
30
0
41
1
10
3.36160471309739
20
21.2818657452089
30
0
41
1
10
3.34619646352769
20
21.2810570212261
30
0
41
1
10
3.3160161013343
20
21.2794859190668
30
0
41
1
10
3.30118768316339
20
21.2787206989976
30
0
41
1
10
3.25818679126257
20
21.2765357445473
30
0
41
1
10
3.20479031522206
20
21.2739159951196
30
0
41
1
10
3.15902104970149
20
21.2720066578044
30
0
41
1
10
3.12763182950442
20
21.2709019705182
30
0
41
1
10
3.11764164314451
20
21.2705881347928
30
0
41
1
10
3.09885429543777
20
21.2700865856016
30
0
41
1
10
3.09003659295178
20
21.2698979791542
30
0
41
1
10
3.08179726973356
20
21.2697757281063
30
0
0
SPLINE
5
134
100
AcDbEntity
8
1
62
256
6
ByLayer
370
18
48
1
60
0
100
AcDbSpline
70
4
71
3
72
8
73
4
40
0
40
0
40
0
40
0
40
1
40
1
40
1
40
1
41
1
10
9.19228529254315
20
16.4346778505219
30
0
41
1
10
9.18621923200698
20
16.4320090625714
30
0
41
1
10
9.18015514255978
20
16.4293413703611
30
0
41
1
10
9.17409290801936
20
16.4266747086124
30
0
0
SPLINE
5
135
100
AcDbEntity
8
1
62
256
6
ByLayer
370
18
48
1
60
0
100
AcDbSpline
70
4
71
3
72
8
73
4
40
0
40
0
40
0
40
0
40
1
40
1
40
1
40
1
41
1
10
8.936975685508
20
17.3153988676911
30
0
41
1
10
8.94245685058911
20
17.3114073896498
30
0
41
1
10
8.94793969278294
20
17.3074149048298
30
0
41
1
10
8.9534243171355
20
17.3034213509071
30
0
0
SPLINE
5
136
100
AcDbEntity
8
1
62
256
6
ByLayer
370
18
48
1
60
0
100
AcDbSpline
70
4
71
3
72
8
73
4
40
0
40
0
40
0
40
0
40
1
40
1
40
1
40
1
41
1
10
9.19228529254309
20
17.7167406026266
30
0
41
1
10
9.18621923200698
20
17.7197280534472
30
0
41
1
10
9.18015514255978
20
17.7227147620854
30
0
41
1
10
9.17409290801936
20
17.7257007715955
30
0
0
SPLINE
5
137
100
AcDbEntity
8
1
62
256
6
ByLayer
370
18
48
1
60
0
100
AcDbSpline
70
4
71
3
72
26
73
22
40
0
40
0
40
0
40
0
40
0.0086569148769113
40
0.0086569148769113
40
0.125591395709247
40
0.125591395709247
40
0.242553460371886
40
0.242553460371886
40
0.359581429952962
40
0.359581429952962
40
0.476756419374734
40
0.476756419374734
40
0.594287938352906
40
0.594287938352906
40
0.734087980384805
40
0.734087980384805
40
0.816818773651458
40
0.816818773651458
40
0.904422913955517
40
0.904422913955517
40
1
40
1
40
1
40
1
41
1
10
9.82593702524446
20
18.1131409803204
30
0
41
1
10
9.82688850206483
20
18.1131409803204
30
0
41
1
10
9.82783998350737
20
18.1131381120743
30
0
41
1
10
9.84163349807733
20
18.1130549436229
30
0
41
1
10
9.85448423108653
20
18.1124563790324
30
0
41
1
10
9.88006347241537
20
18.1101893493505
30
0
41
1
10
9.89281767602802
20
18.1085187784948
30
0
41
1
10
9.91808427761777
20
18.1040228864285
30
0
41
1
10
9.93062834478565
20
18.1011922980941
30
0
41
1
10
9.95528964904878
20
18.0942176796642
30
0
41
1
10
9.96745213191525
20
18.090061222115
30
0
41
1
10
9.99101863797642
20
18.0801706707155
30
0
41
1
10
10.0024980953607
20
18.0744028359398
30
0
41
1
10
10.0259163333628
20
18.0596927657672
30
0
41
1
10
10.0378128814947
20
18.0501800355649
30
0
41
1
10
10.0529137403321
20
18.0324980286217
30
0
41
1
10
10.0577511400365
20
18.0252288156792
30
0
41
1
10
10.0649215597398
20
18.0095074694184
30
0
41
1
10
10.0671432698937
20
18.0008054694802
30
0
41
1
10
10.0680149300927
20
17.9829351672699
30
0
41
1
10
10.0663468067315
20
17.9735336594723
30
0
41
1
10
10.0630542477567
20
17.9649118991826
30
0
0
SPLINE
5
138
100
AcDbEntity
8
1
62
256
6
ByLayer
370
18
48
1
60
0
100
AcDbSpline
70
4
71
3
72
20
73
16
40
0
40
0
40
0
40
0
40
0.145238614567465
40
0.145238614567465
40
0.316534079942819
40
0.316534079942819
40
0.445037822111604
40
0.445037822111604
40
0.549660439794436
40
0.549660439794436
40
0.681182059071602
40
0.681182059071602
40
0.860808574223346
40
0.860808574223346
40
1
40
1
40
1
40
1
41
1
10
3.80083250677291
20
18.6206087276817
30
0
41
1
10
3.68607348527934
20
18.5471595029653
30
0
41
1
10
3.58151355392033
20
18.4562322317218
30
0
41
1
10
3.3951211461129
20
18.2411343626046
30
0
41
1
10
3.31591206954039
20
18.1101360181015
30
0
41
1
10
3.21899101879529
20
17.8643724730617
30
0
41
1
10
3.18987671845713
20
17.7504764604644
30
0
41
1
10
3.1653239371459
20
17.5357348526144
30
0
41
1
10
3.16477556471744
20
17.4343466186334
30
0
41
1
10
3.18737531699304
20
17.213727280649
30
0
41
1
10
3.21639197295008
20
17.0935740725739
30
0
41
1
10
3.31577696158774
20
16.830243231156
30
0
41
1
10
3.39936836703742
20
16.6877575933073
30
0
41
1
10
3.58998281666919
20
16.4663156852301
30
0
41
1
10
3.69072973574049
20
16.3777539759638
30
0
41
1
10
3.80083250677291
20
16.3072848915623
30
0
0
SPLINE
5
139
100
AcDbEntity
8
1
62
256
6
ByLayer
370
18
48
1
60
0
100
AcDbSpline
70
4
71
3
72
18
73
14
40
0
40
0
40
0
40
0
40
0.249999999999939
40
0.249999999999939
40
0.499999999999878
40
0.499999999999878
40
0.624999999999908
40
0.624999999999908
40
0.749999999999939
40
0.749999999999939
40
0.874999999999969
40
0.874999999999969
40
1
40
1
40
1
40
1
41
1
10
8.1035218346517
20
7.45958894827044
30
0
41
1
10
8.1700194902856
20
7.52094306822283
30
0
41
1
10
8.23726015957936
20
7.57963464012352
30
0
41
1
10
8.37328965176107
20
7.69221670966175
30
0
41
1
10
8.44207841623637
20
7.74610308012882
30
0
41
1
10
8.54633447874744
20
7.8235152869043
30
0
41
1
10
8.58135940956822
20
7.84881239718379
30
0
41
1
10
8.65091276348625
20
7.89771361104374
30
0
41
1
10
8.68551182695796
20
7.92137372414805
30
0
41
1
10
8.75426213366637
20
7.9671607487212
30
0
41
1
10
8.78841445738982
20
7.98928796515594
30
0
41
1
10
8.8561084721473
20
8.03201461999925
30
0
41
1
10
8.88965261968281
20
8.05261500286326
30
0
41
1
10
8.92274988762853
20
8.07242450276561
30
0
0
SPLINE
5
13A
100
AcDbEntity
8
1
62
256
6
ByLayer
370
18
48
1
60
0
100
AcDbSpline
70
4
71
3
72
20
73
16
40
0
40
0
40
0
40
0
40
0.124999999999933
40
0.124999999999933
40
0.187499999999918
40
0.187499999999918
40
0.249999999999902
40
0.249999999999902
40
0.499999999999968
40
0.499999999999968
40
0.624999999999975
40
0.624999999999975
40
0.749999999999982
40
0.749999999999982
40
1
40
1
40
1
40
1
41
1
10
6.55475033965792
20
4.53048481258151
30
0
41
1
10
6.55744374799229
20
4.54865489021694
30
0
41
1
10
6.56034613385623
20
4.56754286983278
30
0
41
1
10
6.56505332448705
20
4.5969584820495
30
0
41
1
10
6.56668140102767
20
4.60694456075055
30
0
41
1
10
6.57006333037054
20
4.62728293262648
30
0
41
1
10
6.57181971687095
20
4.63764886388128
30
0
41
1
10
6.5808413879688
20
4.68986499177919
30
0
41
1
10
6.58888660806946
20
4.73325130490684
30
0
41
1
10
6.60237568616458
20
4.8006036538676
30
0
41
1
10
6.607109405171
20
4.82343573243475
30
0
41
1
10
6.61708899453538
20
4.86986670541262
30
0
41
1
10
6.62234162602698
20
4.89348688363714
30
0
41
1
10
6.63863692542236
20
4.96429112544683
30
0
41
1
10
6.65029869526018
20
5.01181157922656
30
0
41
1
10
6.66280037382018
20
5.05963507479441
30
0
0
LINE
5
70
100
AcDbEntity
8
4
62
256
6
ByLayer
370
13
48
0.05
60
0
100
AcDbLine
10
0
20
0
30
0
11
13
21
0
31
0
39
0
210
0
220
0
230
1
0
LINE
5
72
100
AcDbEntity
8
81
62
256
6
ByLayer
370
13
48
1
60
0
100
AcDbLine
10
13.000937
20
21.993116
30
0
11
15.000937
21
21.993116
31
0
39
0
210
0
220
0
230
1
0
LINE
5
73
100
AcDbEntity
8
80
62
256
6
ByLayer
370
13
48
1
60
0
100
AcDbLine
10
0
20
0
30
0
11
-4
21
0
31
0
39
0
210
0
220
0
230
1
0
LINE
5
74
100
AcDbEntity
8
SK4
62
256
6
ByLayer
370
13
48
0.05
60
0
100
AcDbLine
10
-10.78511
20
0
30
0
11
15.21489
21
0
31
0
39
0
210
0
220
0
230
1
0
LINE
5
76
100
AcDbEntity
8
SK1
62
256
6
ByLayer
370
18
48
1
60
0
100
AcDbLine
10
-9.299063
20
-1.299545
30
0
11
-5.999063
21
-1.299545
31
0
39
0
210
0
220
0
230
1
0
LINE
5
78
100
AcDbEntity
8
SK1
62
256
6
ByLayer
370
18
48
1
60
0
100
AcDbLine
10
-9.299063
20
0.700455
30
0
11
-9.999063
21
0.577026
31
0
39
0
210
0
220
0
230
1
0
LINE
5
79
100
AcDbEntity
8
SK1
62
256
6
ByLayer
370
18
48
1
60
0
100
AcDbLine
10
-5.999063
20
0.700455
30
0
11
-9.299063
21
0.700455
31
0
39
0
210
0
220
0
230
1
0
LINE
5
7A
100
AcDbEntity
8
SK1
62
256
6
ByLayer
370
18
48
1
60
0
100
AcDbLine
10
-3.683939
20
8.072425
30
0
11
-3.488951
21
9.000332
31
0
39
0
210
0
220
0
230
1
0
LINE
5
7B
100
AcDbEntity
8
SK1
62
256
6
ByLayer
370
18
48
1
60
0
100
AcDbLine
10
-3.734328
20
9.000325
30
0
11
-3.734328
21
7.459589
31
0
39
0
210
0
220
0
230
1
0
LINE
5
7C
100
AcDbEntity
8
SK1
62
256
6
ByLayer
370
13
48
1
60
0
100
AcDbLine
10
-3.683939
20
8.072425
30
0
11
4.758997
21
8.072425
31
0
39
0
210
0
220
0
230
1
0
LINE
5
7D
100
AcDbEntity
8
SK1
62
256
6
ByLayer
370
13
48
1
60
0
100
AcDbLine
10
3.800833
20
9.200555
30
0
11
3.800833
21
8.776351
31
0
39
0
210
0
220
0
230
1
0
LINE
5
7E
100
AcDbEntity
8
SK1
62
256
6
ByLayer
370
18
48
1
60
0
100
AcDbLine
10
3.800833
20
8.776351
30
0
11
4.685184
21
8.776351
31
0
39
0
210
0
220
0
230
1
0
LINE
5
7F
100
AcDbEntity
8
SK1
62
256
6
ByLayer
370
13
48
1
60
0
100
AcDbLine
10
-3.734328
20
7.459589
30
0
11
4.823512
21
7.459589
31
0
39
0
210
0
220
0
230
1
0
LINE
5
80
100
AcDbEntity
8
SK1
62
256
6
ByLayer
370
13
48
1
60
0
100
AcDbLine
10
-5.999063
20
5.059635
30
0
11
6.30075
21
5.059635
31
0
39
0
210
0
220
0
230
1
0
LINE
5
81
100
AcDbEntity
8
SK1
62
256
6
ByLayer
370
18
48
1
60
0
100
AcDbLine
10
6.300928
20
4.530485
30
0
11
-5.999063
21
4.530485
31
0
39
0
210
0
220
0
230
1
0
LINE
5
82
100
AcDbEntity
8
SK1
62
256
6
ByLayer
370
13
48
1
60
0
100
AcDbLine
10
-4.199063
20
-3.232332
30
0
11
6.500937
21
-3.232332
31
0
39
0
210
0
220
0
230
1
0
LINE
5
83
100
AcDbEntity
8
SK1
62
256
6
ByLayer
370
18
48
1
60
0
100
AcDbLine
10
6.500937
20
-3.232332
30
0
11
6.500937
21
3.800455
31
0
39
0
210
0
220
0
230
1
0
LINE
5
84
100
AcDbEntity
8
SK1
62
256
6
ByLayer
370
18
48
1
60
0
100
AcDbLine
10
-4.199063
20
-9.199545
30
0
11
-5.999063
21
-9.199545
31
0
39
0
210
0
220
0
230
1
0
LINE
5
85
100
AcDbEntity
8
SK1
62
256
6
ByLayer
370
18
48
1
60
0
100
AcDbLine
10
-4.199063
20
-3.232332
30
0
11
-4.199063
21
-9.199545
31
0
39
0
210
0
220
0
230
1
0
LINE
5
86
100
AcDbEntity
8
SK1
62
256
6
ByLayer
370
13
48
1
60
0
100
AcDbLine
10
6.500937
20
-4.764421
30
0
11
-4.199063
21
-4.764421
31
0
39
0
210
0
220
0
230
1
0
LINE
5
87
100
AcDbEntity
8
SK1
62
256
6
ByLayer
370
18
48
1
60
0
100
AcDbLine
10
-5.999063
20
4.530485
30
0
11
-5.999063
21
-9.199545
31
0
39
0
210
0
220
0
230
1
0
LINE
5
88
100
AcDbEntity
8
SK1
62
256
6
ByLayer
370
18
48
1
60
0
100
AcDbLine
10
-5.999063
20
9.200394
30
0
11
-5.999063
21
5.059635
31
0
39
0
210
0
220
0
230
1
0
LINE
5
89
100
AcDbEntity
8
SK1
62
256
6
ByLayer
370
18
48
1
60
0
100
AcDbLine
10
-0.177619
20
-9.199545
30
0
11
4.031293
21
-9.199545
31
0
39
0
210
0
220
0
230
1
0
LINE
5
8A
100
AcDbEntity
8
SK1
62
256
6
ByLayer
370
18
48
1
60
0
100
AcDbLine
10
-0.177619
20
-9.199545
30
0
11
-0.056075
21
-9.08427
31
0
39
0
210
0
220
0
230
1
0
LINE
5
8B
100
AcDbEntity
8
SK1
62
256
6
ByLayer
370
18
48
1
60
0
100
AcDbLine
10
-1.356968
20
-7.828552
30
0
11
-1.559247
21
-7.940896
31
0
39
0
210
0
220
0
230
1
0
LINE
5
8C
100
AcDbEntity
8
SK1
62
256
6
ByLayer
370
18
48
1
60
0
100
AcDbLine
10
-1.559247
20
-7.940896
30
0
11
-4.199063
21
-7.940896
31
0
39
0
210
0
220
0
230
1
0
LINE
5
8D
100
AcDbEntity
8
SK1
62
256
6
ByLayer
370
18
48
1
60
0
100
AcDbLine
10
3.715146
20
-6.675583
30
0
11
6.500937
21
-6.429896
31
0
39
0
210
0
220
0
230
1
0
LINE
5
8E
100
AcDbEntity
8
SK1
62
256
6
ByLayer
370
18
48
1
60
0
100
AcDbLine
10
4.031293
20
-9.199545
30
0
11
3.715146
21
-6.675583
31
0
39
0
210
0
220
0
230
1
0
LINE
5
8F
100
AcDbEntity
8
SK1
62
256
6
ByLayer
370
18
48
1
60
0
100
AcDbLine
10
6.500937
20
-6.429896
30
0
11
6.500937
21
-4.764421
31
0
39
0
210
0
220
0
230
1
0
LINE
5
90
100
AcDbEntity
8
SK1
62
256
6
ByLayer
370
18
48
1
60
0
100
AcDbLine
10
4.840596
20
-9.199545
30
0
11
5.118884
21
-6.551811
31
0
39
0
210
0
220
0
230
1
0
LINE
5
91
100
AcDbEntity
8
SK1
62
256
6
ByLayer
370
13
48
1
60
0
100
AcDbLine
10
-0.056075
20
-7.971971
30
0
11
-0.056075
21
-9.08427
31
0
39
0
210
0
220
0
230
1
0
LINE
5
92
100
AcDbEntity
8
SK1
62
256
6
ByLayer
370
18
48
1
60
0
100
AcDbLine
10
4.840596
20
-9.199545
30
0
11
4.031293
21
-9.199545
31
0
39
0
210
0
220
0
230
1
0
LINE
5
93
100
AcDbEntity
8
SK1
62
256
6
ByLayer
370
18
48
1
60
0
100
AcDbLine
10
-0.177619
20
-9.199545
30
0
11
-0.217601
21
-9.199545
31
0
39
0
210
0
220
0
230
1
0
LINE
5
94
100
AcDbEntity
8
SK1
62
256
6
ByLayer
370
18
48
1
60
0
100
AcDbLine
10
-0.217601
20
-7.848754
30
0
11
-0.217601
21
-9.199545
31
0
39
0
210
0
220
0
230
1
0
LINE
5
95
100
AcDbEntity
8
SK1
62
256
6
ByLayer
370
18
48
1
60
0
100
AcDbLine
10
-1.300227
20
-9.199545
30
0
11
-1.484144
21
-7.899139
31
0
39
0
210
0
220
0
230
1
0
LINE
5
96
100
AcDbEntity
8
SK1
62
256
6
ByLayer
370
18
48
1
60
0
100
AcDbLine
10
-9.999063
20
-1.176116
30
0
11
-9.299063
21
-1.299545
31
0
39
0
210
0
220
0
230
1
0
LINE
5
97
100
AcDbEntity
8
SK1
62
256
6
ByLayer
370
18
48
1
60
0
100
AcDbLine
10
-0.217601
20
-9.199545
30
0
11
-1.300227
21
-9.199545
31
0
39
0
210
0
220
0
230
1
0
LINE
5
98
100
AcDbEntity
8
SK1
62
256
6
ByLayer
370
18
48
1
60
0
100
AcDbLine
10
-9.299063
20
-1.299545
30
0
11
-9.299063
21
0.700455
31
0
39
0
210
0
220
0
230
1
0
LINE
5
99
100
AcDbEntity
8
SK1
62
256
6
ByLayer
370
18
48
1
60
0
100
AcDbLine
10
-5.999063
20
4.530485
30
0
11
-5.999063
21
5.059635
31
0
39
0
210
0
220
0
230
1
0
LINE
5
9A
100
AcDbEntity
8
SK1
62
256
6
ByLayer
370
18
48
1
60
0
100
AcDbLine
10
6.500937
20
-4.764421
30
0
11
6.500937
21
-3.232332
31
0
39
0
210
0
220
0
230
1
0
LINE
5
9B
100
AcDbEntity
8
SK1
62
256
6
ByLayer
370
18
48
1
60
0
100
AcDbLine
10
-9.999063
20
-1.176116
30
0
11
-9.999063
21
0.577026
31
0
39
0
210
0
220
0
230
1
0
LINE
5
9C
100
AcDbEntity
8
1
62
256
6
ByLayer
370
18
48
1
60
0
100
AcDbLine
10
-2.905592
20
13.000455
30
0
11
-5.999063
21
13.000455
31
0
39
0
210
0
220
0
230
1
0
LINE
5
9E
100
AcDbEntity
8
1
62
256
6
ByLayer
370
13
48
1
60
0
100
AcDbLine
10
-2.905592
20
12.709019
30
0
11
1.474487
21
12.709019
31
0
39
0
210
0
220
0
230
1
0
LINE
5
9F
100
AcDbEntity
8
1
62
256
6
ByLayer
370
18
48
1
60
0
100
AcDbLine
10
-3.488951
20
9.000332
30
0
11
-3.031564
21
11.17693
31
0
39
0
210
0
220
0
230
1
0
LINE
5
A0
100
AcDbEntity
8
1
62
256
6
ByLayer
370
13
48
1
60
0
100
AcDbLine
10
-5.999063
20
11.800455
30
0
11
-3.734328
21
11.800455
31
0
39
0
210
0
220
0
230
1
0
LINE
5
A1
100
AcDbEntity
8
1
62
256
6
ByLayer
370
18
48
1
60
0
100
AcDbLine
10
-3.734328
20
11.800455
30
0
11
-3.734328
21
9.000325
31
0
39
0
210
0
220
0
230
1
0
LINE
5
A2
100
AcDbEntity
8
1
62
256
6
ByLayer
370
13
48
1
60
0
100
AcDbLine
10
1.371736
20
17.500455
30
0
11
-5.999063
21
17.500455
31
0
39
0
210
0
220
0
230
1
0
LINE
5
A3
100
AcDbEntity
8
1
62
256
6
ByLayer
370
13
48
1
60
0
100
AcDbLine
10
1.855453
20
11.17693
30
0
11
-3.031564
21
11.17693
31
0
39
0
210
0
220
0
230
1
0
LINE
5
A4
100
AcDbEntity
8
1
62
256
6
ByLayer
370
18
48
1
60
0
100
AcDbLine
10
-2.905592
20
13.000455
30
0
11
-2.905592
21
12.709019
31
0
39
0
210
0
220
0
230
1
0
LINE
5
A5
100
AcDbEntity
8
1
62
256
6
ByLayer
370
18
48
1
60
0
100
AcDbLine
10
-5.999063
20
13.000455
30
0
11
-5.999063
21
17.500455
31
0
39
0
210
0
220
0
230
1
0
LINE
5
A6
100
AcDbEntity
8
1
62
256
6
ByLayer
370
18
48
1
60
0
100
AcDbLine
10
-5.999063
20
19.408287
30
0
11
-5.999063
21
17.500455
31
0
39
0
210
0
220
0
230
1
0
LINE
5
A7
100
AcDbEntity
8
1
62
256
6
ByLayer
370
18
48
1
60
0
100
AcDbLine
10
-5.999063
20
13.000455
30
0
11
-5.999063
21
11.800455
31
0
39
0
210
0
220
0
230
1
0
LINE
5
A8
100
AcDbEntity
8
1
62
256
6
ByLayer
370
18
48
1
60
0
100
AcDbLine
10
-5.999063
20
11.800455
30
0
11
-5.999063
21
9.200394
31
0
39
0
210
0
220
0
230
1
0
LINE
5
A9
100
AcDbEntity
8
1
62
256
6
ByLayer
370
18
48
1
60
0
100
AcDbLine
10
1.855453
20
11.17693
30
0
11
3.045563
21
9.200463
31
0
39
0
210
0
220
0
230
1
0
LINE
5
AA
100
AcDbEntity
8
1
62
256
6
ByLayer
370
13
48
1
60
0
100
AcDbLine
10
10.69845
20
16.847997
30
0
11
10.69845
21
16.807412
31
0
39
0
210
0
220
0
230
1
0
LINE
5
AB
100
AcDbEntity
8
1
62
256
6
ByLayer
370
18
48
1
60
0
100
AcDbLine
10
9.192285
20
17.676155
30
0
11
9.174093
21
17.684637
31
0
39
0
210
0
220
0
230
1
0
LINE
5
AC
100
AcDbEntity
8
1
62
256
6
ByLayer
370
13
48
1
60
0
100
AcDbLine
10
5.898169
20
19.088144
30
0
11
5.898169
21
18.962835
31
0
39
0
210
0
220
0
230
1
0
LINE
5
AD
100
AcDbEntity
8
1
62
256
6
ByLayer
370
18
48
1
60
0
100
AcDbLine
10
8.100937
20
17.039577
30
0
11
8.100937
21
17.039521
31
0
39
0
210
0
220
0
230
1
0
LINE
5
AE
100
AcDbEntity
8
1
62
256
6
ByLayer
370
13
48
1
60
0
100
AcDbLine
10
9.192285
20
17.716741
30
0
11
9.192285
21
17.676155
31
0
39
0
210
0
220
0
230
1
0
LINE
5
AF
100
AcDbEntity
8
1
62
256
6
ByLayer
370
18
48
1
60
0
100
AcDbLine
10
10.063054
20
17.964912
30
0
11
10.063054
21
17.923848
31
0
39
0
210
0
220
0
230
1
0
LINE
5
B0
100
AcDbEntity
8
1
62
256
6
ByLayer
370
13
48
1
60
0
100
AcDbLine
10
5.848169
20
18.87192
30
0
11
5.898169
21
18.962835
31
0
39
0
210
0
220
0
230
1
0
LINE
5
B1
100
AcDbEntity
8
1
62
256
6
ByLayer
370
18
48
1
60
0
100
AcDbLine
10
9.58882
20
16.187464
30
0
11
9.58882
21
16.1464
31
0
39
0
210
0
220
0
230
1
0
LINE
5
B2
100
AcDbEntity
8
1
62
256
6
ByLayer
370
18
48
1
60
0
100
AcDbLine
10
10.225937
20
21.190364
30
0
11
10.325937
21
21.185967
31
0
39
0
210
0
220
0
230
1
0
LINE
5
B3
100
AcDbEntity
8
1
62
256
6
ByLayer
370
18
48
1
60
0
100
AcDbLine
10
10.225937
20
21.315673
30
0
11
4.335937
21
21.315673
31
0
39
0
210
0
220
0
230
1
0
LINE
5
B4
100
AcDbEntity
8
1
62
256
6
ByLayer
370
18
48
1
60
0
100
AcDbLine
10
10.477781
20
17.725701
30
0
11
10.477781
21
17.684637
31
0
39
0
210
0
220
0
230
1
0
LINE
5
B5
100
AcDbEntity
8
1
62
256
6
ByLayer
370
18
48
1
60
0
100
AcDbLine
10
5.898169
20
19.088144
30
0
11
6.428113
21
18.782477
31
0
39
0
210
0
220
0
230
1
0
LINE
5
B6
100
AcDbEntity
8
1
62
256
6
ByLayer
370
18
48
1
60
0
100
AcDbLine
10
10.325937
20
21.185967
30
0
11
10.325937
21
21.030697
31
0
39
0
210
0
220
0
230
1
0
LINE
5
B7
100
AcDbEntity
8
1
62
256
6
ByLayer
370
18
48
1
60
0
100
AcDbLine
10
9.58882
20
17.964912
30
0
11
9.58882
21
17.923848
31
0
39
0
210
0
220
0
230
1
0
LINE
5
B8
100
AcDbEntity
8
1
62
256
6
ByLayer
370
18
48
1
60
0
100
AcDbLine
10
6.215686
20
18.659938
30
0
11
5.848169
21
18.87192
31
0
39
0
210
0
220
0
230
1
0
LINE
5
B9
100
AcDbEntity
8
1
62
256
6
ByLayer
370
18
48
1
60
0
100
AcDbLine
10
10.714898
20
16.795913
30
0
11
10.69845
21
16.807412
31
0
39
0
210
0
220
0
230
1
0
LINE
5
BA
100
AcDbEntity
8
1
62
256
6
ByLayer
370
18
48
1
60
0
100
AcDbLine
10
8.936976
20
16.836977
30
0
11
8.936976
21
16.795913
31
0
39
0
210
0
220
0
230
1
0
LINE
5
BB
100
AcDbEntity
8
1
62
256
6
ByLayer
370
13
48
1
60
0
100
AcDbLine
10
3.800833
20
21.303748
30
0
11
3.800833
21
18.620609
31
0
39
0
210
0
220
0
230
1
0
LINE
5
BC
100
AcDbEntity
8
1
62
256
6
ByLayer
370
18
48
1
60
0
100
AcDbLine
10
10.063054
20
16.187464
30
0
11
10.063054
21
16.1464
31
0
39
0
210
0
220
0
230
1
0
LINE
5
BD
100
AcDbEntity
8
1
62
256
6
ByLayer
370
18
48
1
60
0
100
AcDbLine
10
9.174093
20
17.725701
30
0
11
9.174093
21
17.684637
31
0
39
0
210
0
220
0
230
1
0
LINE
5
BE
100
AcDbEntity
8
1
62
256
6
ByLayer
370
13
48
1
60
0
100
AcDbLine
10
10.459589
20
17.716741
30
0
11
10.459589
21
17.676155
31
0
39
0
210
0
220
0
230
1
0
LINE
5
BF
100
AcDbEntity
8
1
62
256
6
ByLayer
370
18
48
1
60
0
100
AcDbLine
10
10.617137
20
17.072902
30
0
11
10.617137
21
17.035124
31
0
39
0
210
0
220
0
230
1
0
LINE
5
C0
100
AcDbEntity
8
1
62
256
6
ByLayer
370
18
48
1
60
0
100
AcDbLine
10
5.898169
20
18.962835
30
0
11
6.319495
21
18.719818
31
0
39
0
210
0
220
0
230
1
0
LINE
5
C1
100
AcDbEntity
8
1
62
256
6
ByLayer
370
13
48
1
60
0
100
AcDbLine
10
3.081797
20
9.200555
30
0
11
3.081797
21
21.269776
31
0
39
0
210
0
220
0
230
1
0
LINE
5
C2
100
AcDbEntity
8
1
62
256
6
ByLayer
370
18
48
1
60
0
100
AcDbLine
10
8.100937
20
17.071445
30
0
11
8.100937
21
17.039521
31
0
39
0
210
0
220
0
230
1
0
LINE
5
C3
100
AcDbEntity
8
1
62
256
6
ByLayer
370
18
48
1
60
0
100
AcDbLine
10
8.953424
20
16.807412
30
0
11
8.936976
21
16.795913
31
0
39
0
210
0
220
0
230
1
0
LINE
5
C4
100
AcDbEntity
8
1
62
256
6
ByLayer
370
18
48
1
60
0
100
AcDbLine
10
10.477781
20
17.684637
30
0
11
10.459589
21
17.676155
31
0
39
0
210
0
220
0
230
1
0
LINE
5
C5
100
AcDbEntity
8
1
62
256
6
ByLayer
370
18
48
1
60
0
100
AcDbLine
10
1.371736
20
17.500455
30
0
11
1.474487
21
12.709019
31
0
39
0
210
0
220
0
230
1
0
LINE
5
C6
100
AcDbEntity
8
1
62
256
6
ByLayer
370
18
48
1
60
0
100
AcDbLine
10
9.034737
20
17.035124
30
0
11
9.034737
21
17.072902
31
0
39
0
210
0
220
0
230
1
0
LINE
5
C7
100
AcDbEntity
8
1
62
256
6
ByLayer
370
18
48
1
60
0
100
AcDbLine
10
10.064798
20
17.944453
30
0
11
10.064798
21
17.903867
31
0
39
0
210
0
220
0
230
1
0
LINE
5
C8
100
AcDbEntity
8
1
62
256
6
ByLayer
370
18
48
1
60
0
100
AcDbLine
10
10.595142
20
21.185967
30
0
11
10.325937
21
21.185967
31
0
39
0
210
0
220
0
230
1
0
LINE
5
C9
100
AcDbEntity
8
1
62
256
6
ByLayer
370
18
48
1
60
0
100
AcDbLine
10
10.225937
20
20.973027
30
0
11
10.225937
21
21.315673
31
0
39
0
210
0
220
0
230
1
0
LINE
5
CA
100
AcDbEntity
8
1
62
256
6
ByLayer
370
13
48
1
60
0
100
AcDbLine
10
3.800833
20
16.307285
30
0
11
3.800833
21
9.200555
31
0
39
0
210
0
220
0
230
1
0
LINE
5
CB
100
AcDbEntity
8
1
62
256
6
ByLayer
370
18
48
1
60
0
100
AcDbLine
10
10.064798
20
17.903867
30
0
11
10.063054
21
17.923848
31
0
39
0
210
0
220
0
230
1
0
LINE
5
CC
100
AcDbEntity
8
1
62
256
6
ByLayer
370
18
48
1
60
0
100
AcDbLine
10
10.714898
20
16.836977
30
0
11
10.714898
21
16.795913
31
0
39
0
210
0
220
0
230
1
0
LINE
5
CD
100
AcDbEntity
8
1
62
256
6
ByLayer
370
18
48
1
60
0
100
AcDbLine
10
4.019522
20
18.73435
30
0
11
4.019522
21
18.609041
31
0
39
0
210
0
220
0
230
1
0
LINE
5
CE
100
AcDbEntity
8
1
62
256
6
ByLayer
370
13
48
1
60
0
100
AcDbLine
10
8.953424
20
16.847997
30
0
11
8.953424
21
16.807412
31
0
39
0
210
0
220
0
230
1
0
LINE
5
CF
100
AcDbEntity
8
1
62
256
6
ByLayer
370
18
48
1
60
0
100
AcDbLine
10
13.000937
20
12.959219
30
0
11
13.000937
21
21.200133
31
0
39
0
210
0
220
0
230
1
0
LINE
5
D0
100
AcDbEntity
8
1
62
256
6
ByLayer
370
18
48
1
60
0
100
AcDbLine
10
11.550937
20
17.039521
30
0
11
11.550937
21
17.071445
31
0
39
0
210
0
220
0
230
1
0
LINE
5
D1
100
AcDbEntity
8
1
62
256
6
ByLayer
370
18
48
1
60
0
100
AcDbLine
10
12.335937
20
11.991276
30
0
11
11.969471
21
12.202651
31
0
39
0
210
0
220
0
230
1
0
LINE
5
D2
100
AcDbEntity
8
1
62
256
6
ByLayer
370
18
48
1
60
0
100
AcDbLine
10
12.268871
20
12.168672
30
0
11
12.335937
21
12.129989
31
0
39
0
210
0
220
0
230
1
0
LINE
5
D3
100
AcDbEntity
8
1
62
256
6
ByLayer
370
18
48
1
60
0
100
AcDbLine
10
12.335937
20
12.129989
30
0
11
12.335937
21
11.991276
31
0
39
0
210
0
220
0
230
1
0
LINE
5
D4
100
AcDbEntity
8
1
62
256
6
ByLayer
370
18
48
1
60
0
100
AcDbLine
10
12.335937
20
9.145061
30
0
11
12.335937
21
11.991276
31
0
39
0
210
0
220
0
230
1
0
LINE
5
D5
100
AcDbEntity
8
1
62
256
6
ByLayer
370
18
48
1
60
0
100
AcDbLine
10
12.335937
20
12.176737
30
0
11
12.335937
21
12.129989
31
0
39
0
210
0
220
0
230
1
0
LINE
5
D6
100
AcDbEntity
8
1
62
256
6
ByLayer
370
18
48
1
60
0
100
AcDbLine
10
11.810312
20
21.886876
30
0
11
4.666562
21
17.766419
31
0
39
0
210
0
220
0
230
1
0
LINE
5
D7
100
AcDbEntity
8
1
62
256
6
ByLayer
370
18
48
1
60
0
100
AcDbLine
10
4.666562
20
16.392933
30
0
11
11.810312
21
12.272476
31
0
39
0
210
0
220
0
230
1
0
LINE
5
D8
100
AcDbEntity
8
1
62
256
6
ByLayer
370
18
48
1
60
0
100
AcDbLine
10
12.335937
20
9.145061
30
0
11
10.857122
21
8.776351
31
0
39
0
210
0
220
0
230
1
0
LINE
5
D9
100
AcDbEntity
8
1
62
256
6
ByLayer
370
18
48
1
60
0
100
AcDbLine
10
4.685184
20
8.776351
30
0
11
10.857122
21
8.776351
31
0
39
0
210
0
220
0
230
1
0
LINE
5
DA
100
AcDbEntity
8
1
62
256
6
ByLayer
370
18
48
1
60
0
100
AcDbLine
10
10.275171
20
8.631255
30
0
11
10.857122
21
8.776351
31
0
39
0
210
0
220
0
230
1
0
LINE
5
DB
100
AcDbEntity
8
1
62
256
6
ByLayer
370
13
48
1
60
0
100
AcDbLine
10
4.758997
20
8.072425
30
0
11
8.92275
21
8.072425
31
0
39
0
210
0
220
0
230
1
0
LINE
5
DC
100
AcDbEntity
8
1
62
256
6
ByLayer
370
13
48
1
60
0
100
AcDbLine
10
4.823512
20
7.459589
30
0
11
8.103522
21
7.459589
31
0
39
0
210
0
220
0
230
1
0
LINE
5
DD
100
AcDbEntity
8
1
62
256
6
ByLayer
370
13
48
1
60
0
100
AcDbLine
10
6.30075
20
5.059635
30
0
11
6.6628
21
5.059635
31
0
39
0
210
0
220
0
230
1
0
LINE
5
DE
100
AcDbEntity
8
1
62
256
6
ByLayer
370
18
48
1
60
0
100
AcDbLine
10
6.55475
20
4.530485
30
0
11
6.300928
21
4.530485
31
0
39
0
210
0
220
0
230
1
0
LINE
5
DF
100
AcDbEntity
8
1
62
256
6
ByLayer
370
18
48
1
60
0
100
AcDbLine
10
6.500937
20
0.555263
30
0
11
6.500937
21
3.800455
31
0
39
0
210
0
220
0
230
1
0
LINE
5
E0
100
AcDbEntity
8
1
62
256
6
ByLayer
370
13
48
0.05
60
0
100
AcDbLine
10
13.000937
20
-17.200133
30
0
11
13.000937
21
-21.200133
31
0
39
0
210
0
220
0
230
1
0
LINE
5
E1
100
AcDbEntity
8
1
62
256
6
ByLayer
370
13
48
0.05
60
0
100
AcDbLine
10
11.810312
20
-21.886876
30
0
11
8.345373
21
-19.888327
31
0
39
0
210
0
220
0
230
1
0
MTEXT
5
13B
100
AcDbEntity
8
SK6
62
256
6
ByLayer
370
18
48
1
60
0
100
AcDbMText
10
24.801392
20
27.191281
30
0
210
0
220
0
230
1
1
\W0.7195;BR20-DA-TC11F-13
40
3
41
0
44
1.084337
50
0
71
7
72
5
7
iso_b_vert
0
DIMENSION
5
149
100
AcDbEntity
8
SK2
62
256
6
ByLayer
370
13
48
1
60
0
100
AcDbDimension
2
DimnDraft3D1
10
0
20
29.71228
30
0
11
3.433363
21
29.71228
31
0
70
32
71
5
72
1
41
1
210
0
220
0
230
1
3
Standard
100
AcDbAlignedDimension
13
13.000937
23
23.993116
33
0
14
0
24
2
34
0
50
0
100
AcDbRotatedDimension
1001
ACAD
1000
DSTYLE
1002
{
1070
   279
1070
     0
1070
   172
1070
     1
1070
   173
1070
     1
1070
   340
1005
13C
1070
   271
1070
     1
1070
    77
1070
     1
1070
    73
1070
     0
1070
   171
1070
     4
1070
   274
1070
     4
1070
   177
1070
     7
1070
   176
1070
     7
1070
   178
1070
     7
1070
    41
1041
3.175
1070
   147
1041
1.5
1070
    42
1041
2.0
1070
    44
1041
2.0
1070
   140
1041
3.0
1070
   343
1005
0
1070
   344
1005
0
1002
}
0
DIMENSION
5
154
100
AcDbEntity
8
2
62
256
6
ByLayer
370
13
48
1
60
0
100
AcDbDimension
2
DimnDraft3D2
10
36.294697
20
-21.993116
30
0
11
36.294697
21
-12.035526
31
0
70
32
71
5
72
1
41
1
210
0
220
0
230
1
3
Standard
100
AcDbAlignedDimension
13
17.000937
23
21.993116
33
0
14
14.207187
24
-21.993116
34
0
50
90
100
AcDbRotatedDimension
1001
ACAD
1000
DSTYLE
1002
{
1070
    74
1070
     0
1070
   279
1070
     0
1070
   172
1070
     1
1070
   173
1070
     1
1070
   340
1005
13C
1070
   271
1070
     1
1070
    77
1070
     1
1070
    73
1070
     0
1070
   171
1070
     4
1070
   274
1070
     4
1070
   177
1070
     7
1070
   176
1070
     7
1070
   178
1070
     7
1070
    41
1041
3.175
1070
   147
1041
1.5
1070
    42
1041
2.0
1070
    44
1041
2.0
1070
   140
1041
3.0
1070
   343
1005
0
1070
   344
1005
0
1002
}
0
DIMENSION
5
15E
100
AcDbEntity
8
2
62
256
6
ByLayer
370
13
48
1
60
0
100
AcDbDimension
2
DimnDraft3D3
10
14.000937
20
21.993116
30
0
11
20.292617
21
14.701436
31
0
70
34
71
5
72
1
41
1
210
0
220
0
230
1
3
Standard
100
AcDb2LineAngularDimension
13
13.000937
23
12.959219
33
0
14
13.000937
24
21.200133
34
0
15
13.000937
25
21.993116
35
0
16
22.413938
26
12.580115
36
0
40
0
0
ENDSEC
0
SECTION
2
OBJECTS
0
DICTIONARY
5
1cc
330
0
100
AcDbDictionary
280
0
281
1
3
ACAD_GROUP
350
1cd
3
ACAD_GROUP
350
1ce
3
ACAD_MLINESTYLE
350
1cf
0
DICTIONARY
5
1cd
330
0
100
AcDbDictionary
280
0
281
1
0
DICTIONARY
5
1ce
330
0
100
AcDbDictionary
280
0
281
1
3
<201758077MOD000_00>
350
167
3
DIT-000-00-UG_TO_2D CONVERT_BR20_SIZEB,C AND_D_TC
350
168
0
DICTIONARY
5
1cf
330
0
100
AcDbDictionary
280
0
281
1
3
Standard
350
18
0
GROUP
5
167
330
1ce
100
AcDbGroup
300

70
0
71
1
340
6C
340
6E
340
70
340
72
340
73
340
74
340
76
340
78
340
79
340
7A
340
7B
340
7C
340
7D
340
7E
340
7F
340
80
340
81
340
82
340
83
340
84
340
85
340
86
340
87
340
88
340
89
340
8A
340
8B
340
8C
340
8D
340
8E
340
8F
340
90
340
91
340
92
340
93
340
94
340
95
340
96
340
97
340
98
340
99
340
9A
340
9B
340
9C
340
9E
340
9F
340
A0
340
A1
340
A2
340
A3
340
A4
340
A5
340
A6
340
A7
340
A8
340
A9
340
AA
340
AB
340
AC
340
AD
340
AE
340
AF
340
B0
340
B1
340
B2
340
B3
340
B4
340
B5
340
B6
340
B7
340
B8
340
B9
340
BA
340
BB
340
BC
340
BD
340
BE
340
BF
340
C0
340
C1
340
C2
340
C3
340
C4
340
C5
340
C6
340
C7
340
C8
340
C9
340
CA
340
CB
340
CC
340
CD
340
CE
340
CF
340
D0
340
D1
340
D2
340
D3
340
D4
340
D5
340
D6
340
D7
340
D8
340
D9
340
DA
340
DB
340
DC
340
DD
340
DE
340
DF
340
E0
340
E1
340
E2
340
E3
340
E4
340
E5
340
E6
340
E7
340
E8
340
E9
340
EA
340
EB
340
EC
340
ED
340
EE
340
EF
340
F0
340
F1
340
F2
340
F3
340
F4
340
F5
340
F6
340
F7
340
F8
340
F9
340
FA
340
FB
340
FC
340
FD
340
FE
340
FF
340
100
340
101
340
102
340
103
340
104
340
105
340
106
340
107
340
108
340
109
340
10A
340
10B
340
10C
340
10D
340
10E
340
10F
340
110
340
111
340
112
340
113
340
114
340
115
340
116
340
117
340
118
340
119
340
11A
340
11B
340
11C
340
11D
340
11E
340
11F
340
120
340
121
340
122
340
123
340
124
340
125
340
126
340
127
340
128
340
129
340
12A
340
12B
340
12C
340
12D
340
12E
340
12F
340
130
340
131
340
132
340
133
340
134
340
135
340
136
340
137
340
138
340
139
340
13A
340
76
340
78
340
79
340
7A
340
7B
340
7C
340
7D
340
7E
340
7F
340
80
340
81
340
82
340
83
340
84
340
85
340
86
340
87
340
88
340
89
340
8A
340
8B
340
8C
340
8D
340
8E
340
8F
340
90
340
91
340
92
340
93
340
94
340
95
340
96
340
97
340
98
340
99
340
9A
340
9B
340
E5
340
E6
340
E7
340
13B
340
149
340
154
340
15E
0
GROUP
5
168
330
1ce
100
AcDbGroup
300

70
0
71
1
340
76
340
78
340
79
340
7A
340
7B
340
7C
340
7D
340
7E
340
7F
340
80
340
81
340
82
340
83
340
84
340
85
340
86
340
87
340
88
340
89
340
8A
340
8B
340
8C
340
8D
340
8E
340
8F
340
90
340
91
340
92
340
93
340
94
340
95
340
96
340
97
340
98
340
99
340
9A
340
9B
340
E5
340
E6
340
E7
0
MLINESTYLE
5
18
330
1cf
100
AcDbMlineStyle
2
Standard
70
0
3

62
256
51
90
52
90
71
2
49
-0.5
62
256
6
ByLayer
49
0.5
62
256
6
ByLayer
0
RASTERVARIABLES
5
1b9
330

100
AcDbRasterVariables
90
0
70
1
71
1
72
1
0
ENDSEC
0
EOF
