0
SECTION
2
HEADER
9
$ACADVER
1
AC1015
9
$DWGCODEPAGE
3
ANSI_1252
9
$HANDSEED
5
4d9
9
$ANGBASE
50
0
9
$ANGDIR
70
0
9
$ATTMODE
70
1
9
$AUNITS
70
0
9
$AUPREC
70
0
9
$CECOLOR
62
256
9
$CELTSCALE
40
1
9
$CELTYPE
6
ByLayer
9
$CELWEIGHT
370
18
9
$CLAYER
8
0
9
$CMLJUST
70
0
9
$CMLSCALE
40
1
9
$CMLSTYLE
2
Standard
9
$DIMSTYLE
2
Standard
9
$TEXTSIZE
40
0.2
9
$TEXTSTYLE
7
Standard
9
$LUNITS
70
2
9
$LUPREC
70
4
9
$EXTNAMES
290
1
9
$INSUNITS
70
4
9
$LTSCALE
40
1
9
$LWDISPLAY
290
1
9
$PDMODE
70
0
9
$PDSIZE
40
0
9
$PLINEGEN
70
0
0
ENDSEC
0
SECTION
2
CLASSES
0
CLASS
1
RASTERVARIABLES
2
AcDbRasterVariables
3
ISM
90
0
280
0
281
0
0
ENDSEC
0
SECTION
2
TABLES
0
TABLE
2
VPORT
5
4cf
100
AcDbSymbolTable
0
VPORT
5
1
100
AcDbSymbolTableRecord
100
AcDbViewportTableRecord
2
*Active
70
0
10
0
20
0
11
1
21
1
12
-1
22
1
13
0
23
0
14
0.5
24
0.5
15
10
25
10
16
0
26
0
36
1
17
0
27
0
37
0
0
ENDTAB
0
TABLE
2
LTYPE
5
4d0
100
AcDbSymbolTable
0
LTYPE
5
14
100
AcDbSymbolTableRecord
100
AcDbLinetypeTableRecord
70
0
2
ByBlock
3

72
65
73
0
40
0
0
LTYPE
5
15
100
AcDbSymbolTableRecord
100
AcDbLinetypeTableRecord
70
0
2
ByLayer
3

72
65
73
0
40
0
0
LTYPE
5
16
100
AcDbSymbolTableRecord
100
AcDbLinetypeTableRecord
70
0
2
Continuous
3
Solid line
72
65
73
0
40
0
0
LTYPE
5
6E
100
AcDbSymbolTableRecord
100
AcDbLinetypeTableRecord
70
0
2
CENTER
3
____ _ ____ _ ____ _ ____
72
65
73
4
40
47.5
49
22
74
0
49
-8.5
74
0
49
8.5
74
0
49
-8.5
74
0
0
LTYPE
5
6F
100
AcDbSymbolTableRecord
100
AcDbLinetypeTableRecord
70
0
2
DASHED
3
__ __ __ __ __ __ __ __ __
72
65
73
2
40
25.72
49
12.86
74
0
49
-12.86
74
0
0
ENDTAB
0
TABLE
2
LAYER
5
4d1
100
AcDbSymbolTable
0
LAYER
5
10
100
AcDbSymbolTableRecord
100
AcDbLayerTableRecord
2
0
70
0
62
7
6
Continuous
290
1
370
-3
390
0
0
LAYER
5
71
100
AcDbSymbolTableRecord
100
AcDbLayerTableRecord
2
80
70
0
62
-6
6
Continuous
290
1
370
-3
390
0
0
LAYER
5
73
100
AcDbSymbolTableRecord
100
AcDbLayerTableRecord
2
81
70
0
62
-3
6
Continuous
290
1
370
-3
390
0
0
LAYER
5
75
100
AcDbSymbolTableRecord
100
AcDbLayerTableRecord
2
1
70
0
62
4
6
Continuous
290
1
370
-3
390
0
0
LAYER
5
2BF
100
AcDbSymbolTableRecord
100
AcDbLayerTableRecord
2
4
70
0
62
-2
6
CENTER
290
1
370
-3
390
0
0
LAYER
5
2F6
100
AcDbSymbolTableRecord
100
AcDbLayerTableRecord
2
2
70
0
62
7
6
Continuous
290
1
370
-3
390
0
0
LAYER
5
415
100
AcDbSymbolTableRecord
100
AcDbLayerTableRecord
2
Defpoints
70
0
62
7
6
Continuous
290
0
370
-3
390
0
0
LAYER
5
4bc
100
AcDbSymbolTableRecord
100
AcDbLayerTableRecord
2
SK4
70
0
62
2
6
CENTER
290
1
370
-3
390
0
0
LAYER
5
4bd
100
AcDbSymbolTableRecord
100
AcDbLayerTableRecord
2
SK2
70
0
62
7
6
Continuous
290
1
370
-3
390
0
0
LAYER
5
4be
100
AcDbSymbolTableRecord
100
AcDbLayerTableRecord
2
SK6
70
0
62
5
6
Continuous
290
1
370
-3
390
0
0
ENDTAB
0
TABLE
2
STYLE
5
4d2
100
AcDbSymbolTable
0
STYLE
5
11
100
AcDbSymbolTableRecord
100
AcDbTextStyleTableRecord
2
Standard
3
txt
70
0
71
0
40
0
41
1
42
0
50
0
0
STYLE
5
3E0
100
AcDbSymbolTableRecord
100
AcDbTextStyleTableRecord
2
iso_b_vert
3
simplex.shx
70
0
71
0
40
0
41
1
42
0
50
0
0
STYLE
5
3E1
100
AcDbSymbolTableRecord
100
AcDbTextStyleTableRecord
2
DWGDirectTextStyle
3
simplex
70
0
71
0
40
0
41
1
42
0
50
0
0
ENDTAB
0
TABLE
2
DIMSTYLE
5
4d3
100
AcDbSymbolTable
100
AcDbDimStyleTable
0
DIMSTYLE
105
27
100
AcDbSymbolTableRecord
100
AcDbDimStyleTableRecord
2
Standard
70
0
3
<>
41
0.18
42
0.0625
44
0.18
140
0.18
147
0.09
73
0
74
0
77
1
271
2
275
0
278
52
280
0
340
11
0
ENDTAB
0
TABLE
2
VIEW
5
4d4
100
AcDbSymbolTable
0
ENDTAB
0
TABLE
2
UCS
5
4d5
100
AcDbSymbolTable
0
ENDTAB
0
TABLE
2
APPID
5
4d6
100
AcDbSymbolTable
0
APPID
5
12
100
AcDbSymbolTableRecord
100
AcDbRegAppTableRecord
2
ACAD
70
0
0
APPID
5
411
100
AcDbSymbolTableRecord
100
AcDbRegAppTableRecord
2
ACAD_DSTYLE_DIMBREAK
70
0
0
APPID
5
47B
100
AcDbSymbolTableRecord
100
AcDbRegAppTableRecord
2
ACAD_DSTYLE_DIM_LINETYPE
70
0
0
APPID
5
47C
100
AcDbSymbolTableRecord
100
AcDbRegAppTableRecord
2
ACAD_DSTYLE_DIM_EXT1_LINETYPE
70
0
0
APPID
5
47D
100
AcDbSymbolTableRecord
100
AcDbRegAppTableRecord
2
ACAD_DSTYLE_DIM_EXT2_LINETYPE
70
0
0
APPID
5
4B8
100
AcDbSymbolTableRecord
100
AcDbRegAppTableRecord
2
ACAD_MLEADERVER
70
0
0
ENDTAB
0
TABLE
2
BLOCK_RECORD
5
4d7
100
AcDbSymbolTable
0
BLOCK_RECORD
5
1F
100
AcDbSymbolTableRecord
100
AcDbBlockTableRecord
2
*Model_Space
340
0
70
0
0
BLOCK_RECORD
5
1B
100
AcDbSymbolTableRecord
100
AcDbBlockTableRecord
2
*Paper_Space
340
0
70
0
0
BLOCK_RECORD
5
23
100
AcDbSymbolTableRecord
100
AcDbBlockTableRecord
2
*Paper_Space0
340
0
70
0
0
BLOCK_RECORD
5
416
100
AcDbSymbolTableRecord
100
AcDbBlockTableRecord
2
*D1
340
0
70
0
0
BLOCK_RECORD
5
422
100
AcDbSymbolTableRecord
100
AcDbBlockTableRecord
2
_U0
340
0
70
0
0
BLOCK_RECORD
5
42E
100
AcDbSymbolTableRecord
100
AcDbBlockTableRecord
2
*D3
340
0
70
0
0
BLOCK_RECORD
5
43A
100
AcDbSymbolTableRecord
100
AcDbBlockTableRecord
2
_U1
340
0
70
0
0
BLOCK_RECORD
5
446
100
AcDbSymbolTableRecord
100
AcDbBlockTableRecord
2
*D5
340
0
70
0
0
BLOCK_RECORD
5
454
100
AcDbSymbolTableRecord
100
AcDbBlockTableRecord
2
_U2
340
0
70
0
0
ENDTAB
0
ENDSEC
0
SECTION
2
BLOCKS
0
BLOCK
5
20
100
AcDbEntity
8
0
100
AcDbBlockBegin
2
*Model_Space
70
0
10
0
20
0
30
0
3
*Model_Space
0
ENDBLK
5
21
100
AcDbEntity
8
0
100
AcDbBlockEnd
0
BLOCK
5
1C
100
AcDbEntity
8
0
100
AcDbBlockBegin
2
*Paper_Space
70
0
10
0
20
0
30
0
3
*Paper_Space
0
ENDBLK
5
1D
100
AcDbEntity
8
0
100
AcDbBlockEnd
0
BLOCK
5
24
100
AcDbEntity
8
0
100
AcDbBlockBegin
2
*Paper_Space0
70
0
10
0
20
0
30
0
3
*Paper_Space0
0
ENDBLK
5
25
100
AcDbEntity
8
0
100
AcDbBlockEnd
0
BLOCK
5
417
100
AcDbEntity
8
0
100
AcDbBlockBegin
2
*D1
70
1
10
0
20
0
30
0
3
*D1
0
LINE
5
419
100
AcDbEntity
8
0
62
256
6
ByLayer
370
-2
48
1
60
0
100
AcDbLine
10
50.8
20
-41.58745
30
0
11
50.8
21
-55.370519
31
0
39
0
210
0
220
0
230
1
0
LINE
5
41A
100
AcDbEntity
8
0
62
256
6
ByLayer
370
-2
48
1
60
0
100
AcDbLine
10
24.79
20
-20.29345
30
0
11
24.79
21
-55.370519
31
0
39
0
210
0
220
0
230
1
0
LINE
5
41B
100
AcDbEntity
8
0
62
256
6
ByLayer
370
-2
48
1
60
0
100
AcDbLine
10
47.3
20
-53.370519
30
0
11
28.29
21
-53.370519
31
0
39
0
210
0
220
0
230
1
0
SOLID
5
41C
100
AcDbEntity
8
0
62
256
6
ByLayer
370
-1
48
1
60
0
100
AcDbTrace
10
47.3
20
-53.953852
30
0
11
47.3
21
-52.787185
31
0
12
50.8
22
-53.370519
32
0
13
50.8
23
-53.370519
33
0
39
0
210
0
220
0
230
1
0
SOLID
5
41D
100
AcDbEntity
8
0
62
256
6
ByLayer
370
-1
48
1
60
0
100
AcDbTrace
10
28.29
20
-52.787185
30
0
11
28.29
21
-53.953852
31
0
12
24.79
22
-53.370519
32
0
13
24.79
23
-53.370519
33
0
39
0
210
0
220
0
230
1
0
MTEXT
5
41E
100
AcDbEntity
8
0
62
256
6
ByLayer
370
18
48
1
60
0
100
AcDbMText
10
37.795
20
-45.370519
30
0
210
0
220
0
230
1
1
\A1;26.01
40
4
41
0
44
1
50
0
71
5
72
5
7
iso_b_vert
0
POINT
5
41F
100
AcDbEntity
8
Defpoints
62
0
6
ByLayer
370
-1
48
1
60
0
100
AcDbPoint
10
50.8
20
-39.99995
30
0
39
0
210
0
220
0
230
1
50
360
0
POINT
5
420
100
AcDbEntity
8
Defpoints
62
0
6
ByLayer
370
-1
48
1
60
0
100
AcDbPoint
10
24.79
20
-18.70595
30
0
39
0
210
0
220
0
230
1
50
360
0
POINT
5
421
100
AcDbEntity
8
Defpoints
62
0
6
ByLayer
370
-1
48
1
60
0
100
AcDbPoint
10
24.79
20
-53.370519
30
0
39
0
210
0
220
0
230
1
50
360
0
ENDBLK
5
418
100
AcDbEntity
8
0
100
AcDbBlockEnd
0
BLOCK
5
429
100
AcDbEntity
8
0
100
AcDbBlockBegin
2
_U0
70
0
10
0
20
0
30
0
3
_U0
0
MTEXT
5
423
100
AcDbEntity
8
SK2
62
256
6
ByLayer
370
13
48
1
60
0
100
AcDbMText
10
32.31843
20
-52.190366
30
0
210
0
220
0
230
1
1
\W0.7373;26.01
40
4
41
0
44
1.084337
50
0
71
7
72
5
7
iso_b_vert
0
LINE
5
424
100
AcDbEntity
8
SK2
62
256
6
ByLayer
370
13
48
1
60
0
100
AcDbLine
10
50.8
20
-41.58745
30
0
11
50.8
21
-55.370519
31
0
39
0
210
0
220
0
230
1
0
LINE
5
425
100
AcDbEntity
8
SK2
62
256
6
ByLayer
370
13
48
1
60
0
100
AcDbLine
10
24.79
20
-20.29345
30
0
11
24.79
21
-55.370519
31
0
39
0
210
0
220
0
230
1
0
LINE
5
426
100
AcDbEntity
8
SK2
62
256
6
ByLayer
370
13
48
1
60
0
100
AcDbLine
10
50.8
20
-53.370519
30
0
11
24.79
21
-53.370519
31
0
39
0
210
0
220
0
230
1
0
SOLID
5
427
100
AcDbEntity
8
SK2
62
256
6
ByLayer
370
18
48
1
60
0
100
AcDbTrace
10
50.8
20
-53.370519
30
0
11
47.300002
21
-53.831302
31
0
12
47.299998
22
-52.909735
32
0
13
47.299998
23
-52.909735
33
0
39
0
210
0
220
0
230
1
0
SOLID
5
428
100
AcDbEntity
8
SK2
62
256
6
ByLayer
370
18
48
1
60
0
100
AcDbTrace
10
24.79
20
-53.370519
30
0
11
28.289998
21
-52.909735
31
0
12
28.290002
22
-53.831302
32
0
13
28.290002
23
-53.831302
33
0
39
0
210
0
220
0
230
1
0
ENDBLK
5
42A
100
AcDbEntity
8
0
100
AcDbBlockEnd
0
BLOCK
5
42F
100
AcDbEntity
8
0
100
AcDbBlockBegin
2
*D3
70
1
10
0
20
0
30
0
3
*D3
0
LINE
5
431
100
AcDbEntity
8
0
62
256
6
ByLayer
370
-2
48
1
60
0
100
AcDbLine
10
50.8
20
-41.58745
30
0
11
50.8
21
-65.370519
31
0
39
0
210
0
220
0
230
1
0
LINE
5
432
100
AcDbEntity
8
0
62
256
6
ByLayer
370
-2
48
1
60
0
100
AcDbLine
10
0
20
-14.2875
30
0
11
0
21
-65.370519
31
0
39
0
210
0
220
0
230
1
0
LINE
5
433
100
AcDbEntity
8
0
62
256
6
ByLayer
370
-2
48
1
60
0
100
AcDbLine
10
47.3
20
-63.370519
30
0
11
3.5
21
-63.370519
31
0
39
0
210
0
220
0
230
1
0
SOLID
5
434
100
AcDbEntity
8
0
62
256
6
ByLayer
370
-1
48
1
60
0
100
AcDbTrace
10
47.3
20
-63.953852
30
0
11
47.3
21
-62.787185
31
0
12
50.8
22
-63.370519
32
0
13
50.8
23
-63.370519
33
0
39
0
210
0
220
0
230
1
0
SOLID
5
435
100
AcDbEntity
8
0
62
256
6
ByLayer
370
-1
48
1
60
0
100
AcDbTrace
10
3.5
20
-62.787185
30
0
11
3.5
21
-63.953852
31
0
12
0
22
-63.370519
32
0
13
0
23
-63.370519
33
0
39
0
210
0
220
0
230
1
0
MTEXT
5
436
100
AcDbEntity
8
0
62
256
6
ByLayer
370
18
48
1
60
0
100
AcDbMText
10
25.4
20
-55.370519
30
0
210
0
220
0
230
1
1
\A1;50.8
40
4
41
0
44
1
50
0
71
5
72
5
7
iso_b_vert
0
POINT
5
437
100
AcDbEntity
8
Defpoints
62
0
6
ByLayer
370
-1
48
1
60
0
100
AcDbPoint
10
50.8
20
-39.99995
30
0
39
0
210
0
220
0
230
1
50
360
0
POINT
5
438
100
AcDbEntity
8
Defpoints
62
0
6
ByLayer
370
-1
48
1
60
0
100
AcDbPoint
10
0
20
-12.7
30
0
39
0
210
0
220
0
230
1
50
360
0
POINT
5
439
100
AcDbEntity
8
Defpoints
62
0
6
ByLayer
370
-1
48
1
60
0
100
AcDbPoint
10
0
20
-63.370519
30
0
39
0
210
0
220
0
230
1
50
360
0
ENDBLK
5
430
100
AcDbEntity
8
0
100
AcDbBlockEnd
0
BLOCK
5
441
100
AcDbEntity
8
0
100
AcDbBlockBegin
2
_U1
70
0
10
0
20
0
30
0
3
_U1
0
MTEXT
5
43B
100
AcDbEntity
8
2
62
256
6
ByLayer
370
13
48
1
60
0
100
AcDbMText
10
20.918058
20
-62.190366
30
0
210
0
220
0
230
1
1
\W0.7346;50.8
40
4
41
0
44
1.084337
50
0
71
7
72
5
7
iso_b_vert
0
LINE
5
43C
100
AcDbEntity
8
2
62
256
6
ByLayer
370
13
48
1
60
0
100
AcDbLine
10
50.8
20
-41.58745
30
0
11
50.8
21
-65.370519
31
0
39
0
210
0
220
0
230
1
0
LINE
5
43D
100
AcDbEntity
8
2
62
256
6
ByLayer
370
13
48
1
60
0
100
AcDbLine
10
0
20
-14.2875
30
0
11
0
21
-65.370519
31
0
39
0
210
0
220
0
230
1
0
LINE
5
43E
100
AcDbEntity
8
2
62
256
6
ByLayer
370
13
48
1
60
0
100
AcDbLine
10
50.8
20
-63.370519
30
0
11
0
21
-63.370519
31
0
39
0
210
0
220
0
230
1
0
SOLID
5
43F
100
AcDbEntity
8
2
62
256
6
ByLayer
370
18
48
1
60
0
100
AcDbTrace
10
50.8
20
-63.370519
30
0
11
47.300002
21
-63.831302
31
0
12
47.299998
22
-62.909735
32
0
13
47.299998
23
-62.909735
33
0
39
0
210
0
220
0
230
1
0
SOLID
5
440
100
AcDbEntity
8
2
62
256
6
ByLayer
370
18
48
1
60
0
100
AcDbTrace
10
0
20
-63.370519
30
0
11
3.499998
21
-62.909735
31
0
12
3.500002
22
-63.831302
32
0
13
3.500002
23
-63.831302
33
0
39
0
210
0
220
0
230
1
0
ENDBLK
5
442
100
AcDbEntity
8
0
100
AcDbBlockEnd
0
BLOCK
5
447
100
AcDbEntity
8
0
100
AcDbBlockBegin
2
*D5
70
1
10
0
20
0
30
0
3
*D5
0
LINE
5
449
100
AcDbEntity
8
0
62
256
6
ByLayer
370
-2
48
1
60
0
100
AcDbLine
10
50.8
20
41.58745
30
0
11
50.8
21
51.373013
31
0
39
0
210
0
220
0
230
1
0
LINE
5
44A
100
AcDbEntity
8
0
62
256
6
ByLayer
370
-2
48
1
60
0
100
AcDbLine
10
40.8
20
41.58745
30
0
11
40.8
21
51.373013
31
0
39
0
210
0
220
0
230
1
0
LINE
5
44B
100
AcDbEntity
8
0
62
256
6
ByLayer
370
-2
48
1
60
0
100
AcDbLine
10
50.8
20
49.373013
30
0
11
75.704762
21
49.373013
31
0
39
0
210
0
220
0
230
1
0
LINE
5
44C
100
AcDbEntity
8
0
62
256
6
ByLayer
370
-2
48
1
60
0
100
AcDbLine
10
54.3
20
49.373013
30
0
11
57.8
21
49.373013
31
0
39
0
210
0
220
0
230
1
0
LINE
5
44D
100
AcDbEntity
8
0
62
256
6
ByLayer
370
-2
48
1
60
0
100
AcDbLine
10
37.3
20
49.373013
30
0
11
33.8
21
49.373013
31
0
39
0
210
0
220
0
230
1
0
SOLID
5
44E
100
AcDbEntity
8
0
62
256
6
ByLayer
370
-1
48
1
60
0
100
AcDbTrace
10
54.3
20
49.956346
30
0
11
54.3
21
48.78968
31
0
12
50.8
22
49.373013
32
0
13
50.8
23
49.373013
33
0
39
0
210
0
220
0
230
1
0
SOLID
5
44F
100
AcDbEntity
8
0
62
256
6
ByLayer
370
-1
48
1
60
0
100
AcDbTrace
10
37.3
20
48.78968
30
0
11
37.3
21
49.956346
31
0
12
40.8
22
49.373013
32
0
13
40.8
23
49.373013
33
0
39
0
210
0
220
0
230
1
0
MTEXT
5
450
100
AcDbEntity
8
0
62
256
6
ByLayer
370
18
48
1
60
0
100
AcDbMText
10
66.752381
20
57.373013
30
0
210
0
220
0
230
1
1
\A1;10
40
4
41
0
44
1
50
0
71
5
72
5
7
iso_b_vert
0
POINT
5
451
100
AcDbEntity
8
Defpoints
62
0
6
ByLayer
370
-1
48
1
60
0
100
AcDbPoint
10
50.8
20
39.99995
30
0
39
0
210
0
220
0
230
1
50
360
0
POINT
5
452
100
AcDbEntity
8
Defpoints
62
0
6
ByLayer
370
-1
48
1
60
0
100
AcDbPoint
10
40.8
20
39.99995
30
0
39
0
210
0
220
0
230
1
50
360
0
POINT
5
453
100
AcDbEntity
8
Defpoints
62
0
6
ByLayer
370
-1
48
1
60
0
100
AcDbPoint
10
40.8
20
49.373013
30
0
39
0
210
0
220
0
230
1
50
360
0
ENDBLK
5
448
100
AcDbEntity
8
0
100
AcDbBlockEnd
0
BLOCK
5
45B
100
AcDbEntity
8
0
100
AcDbBlockBegin
2
_U2
70
0
10
0
20
0
30
0
3
_U2
0
MTEXT
5
455
100
AcDbEntity
8
SK2
62
256
6
ByLayer
370
13
48
1
60
0
100
AcDbMText
10
51.396824
20
50.553165
30
0
210
0
220
0
230
1
1
\W0.6744;10.0-12.0
40
4
41
0
44
1.084337
50
0
71
7
72
5
7
iso_b_vert
0
LINE
5
456
100
AcDbEntity
8
SK2
62
256
6
ByLayer
370
13
48
1
60
0
100
AcDbLine
10
50.8
20
41.58745
30
0
11
50.8
21
51.373013
31
0
39
0
210
0
220
0
230
1
0
LINE
5
457
100
AcDbEntity
8
SK2
62
256
6
ByLayer
370
13
48
1
60
0
100
AcDbLine
10
40.8
20
41.58745
30
0
11
40.8
21
51.373013
31
0
39
0
210
0
220
0
230
1
0
LINE
5
458
100
AcDbEntity
8
SK2
62
256
6
ByLayer
370
13
48
1
60
0
100
AcDbLine
10
40.8
20
49.373013
30
0
11
72.15
21
49.373013
31
0
39
0
210
0
220
0
230
1
0
SOLID
5
459
100
AcDbEntity
8
SK2
62
256
6
ByLayer
370
18
48
1
60
0
100
AcDbTrace
10
50.8
20
49.373013
30
0
11
47.300002
21
48.912229
31
0
12
47.299998
22
49.833797
32
0
13
47.299998
23
49.833797
33
0
39
0
210
0
220
0
230
1
0
SOLID
5
45A
100
AcDbEntity
8
SK2
62
256
6
ByLayer
370
18
48
1
60
0
100
AcDbTrace
10
40.8
20
49.373013
30
0
11
44.299998
21
49.833797
31
0
12
44.300002
22
48.912229
32
0
13
44.300002
23
48.912229
33
0
39
0
210
0
220
0
230
1
0
ENDBLK
5
45C
100
AcDbEntity
8
0
100
AcDbBlockEnd
0
ENDSEC
0
SECTION
2
ENTITIES
0
ARC
5
31A
100
AcDbEntity
8
1
62
256
6
ByLayer
370
18
48
1
60
0
100
AcDbCircle
39
0
10
40.5
20
19.50595
30
0
40
0.8
210
0
220
0
230
1
100
AcDbArc
50
270
51
294.863933
0
ARC
5
31B
100
AcDbEntity
8
1
62
256
6
ByLayer
370
18
48
1
60
0
100
AcDbCircle
39
0
10
40.5
20
-19.50595
30
0
40
0.8
210
0
220
0
230
1
100
AcDbArc
50
0
51
90
0
ARC
5
31C
100
AcDbEntity
8
1
62
256
6
ByLayer
370
18
48
1
60
0
100
AcDbCircle
39
0
10
24.545605
20
-20.20595
30
0
40
1.5
210
0
220
0
230
1
100
AcDbArc
50
90
51
155
0
ARC
5
31D
100
AcDbEntity
8
1
62
256
6
ByLayer
370
18
48
1
60
0
100
AcDbCircle
39
0
10
24.545605
20
20.20595
30
0
40
1.5
210
0
220
0
230
1
100
AcDbArc
50
205
51
270
0
ELLIPSE
5
31E
100
AcDbEntity
8
1
62
256
6
ByLayer
370
18
48
1
60
0
100
AcDbEllipse
10
45.8
20
9.410476
30
0
11
-2.25
21
2.75536429610035E-16
31
0
210
0
220
0
230
1
40
0.968148
41
0
42
6.28318530717959
0
ELLIPSE
5
31F
100
AcDbEntity
8
1
62
256
6
ByLayer
370
18
48
1
60
0
100
AcDbEllipse
10
45.095889
20
18.270638
30
0
11
-2.2956730038394
21
-0.282045656990758
31
0
210
0
220
0
230
1
40
0.723454
41
0
42
6.28318530717959
0
ELLIPSE
5
320
100
AcDbEntity
8
1
62
256
6
ByLayer
370
13
48
1
60
0
100
AcDbEllipse
10
45.014458
20
18.933435
30
0
11
2.18109151221106
21
0.26796821127822
31
0
210
0
220
0
230
1
40
0.723454
41
-3.0599110891117
42
-2.83842859499442
0
ELLIPSE
5
321
100
AcDbEntity
8
1
62
256
6
ByLayer
370
13
48
1
60
0
100
AcDbEllipse
10
45.014458
20
18.933435
30
0
11
2.18109151221106
21
0.26796821127822
31
0
210
0
220
0
230
1
40
0.723454
41
-0.303261940706304
42
-0.0817798994237762
0
ELLIPSE
5
322
100
AcDbEntity
8
1
62
256
6
ByLayer
370
13
48
1
60
0
100
AcDbEllipse
10
45.027807
20
18.824779
30
0
11
-2.23954488279379
21
-0.275149773844731
31
0
210
0
220
0
230
1
40
0.723454
41
2.6547438847147
42
3.04469381230907
0
ELLIPSE
5
323
100
AcDbEntity
8
1
62
256
6
ByLayer
370
13
48
1
60
0
100
AcDbEllipse
10
45.027807
20
18.824779
30
0
11
-2.23954488279379
21
-0.275149773844731
31
0
210
0
220
0
230
1
40
0.723454
41
0.0969963743874721
42
0.48694659770138
0
ELLIPSE
5
324
100
AcDbEntity
8
1
62
256
6
ByLayer
370
18
48
1
60
0
100
AcDbEllipse
10
44.286423
20
18.212778
30
0
11
-0.522074530340563
21
-0.0641419111788914
31
0
210
0
220
0
230
1
40
0.723454
41
-2.16022418614626
42
-1.38679705185738
0
ELLIPSE
5
325
100
AcDbEntity
8
1
62
256
6
ByLayer
370
18
48
1
60
0
100
AcDbEllipse
10
44.983935
20
19.181875
30
0
11
0.925044605090123
21
0.113650686727619
31
0
210
0
220
0
230
1
40
0.723454
41
-2.16022418614627
42
-1.11338943614847
0
ELLIPSE
5
326
100
AcDbEntity
8
1
62
256
6
ByLayer
370
18
48
1
60
0
100
AcDbEllipse
10
44.983935
20
19.181875
30
0
11
0.925044605090123
21
0.113650686727619
31
0
210
0
220
0
230
1
40
0.723454
41
-1.11338943614847
42
-0.391313980794174
0
ELLIPSE
5
327
100
AcDbEntity
8
1
62
256
6
ByLayer
370
18
48
1
60
0
100
AcDbEllipse
10
45.067606
20
18.500844
30
0
11
0.925044605090123
21
0.113650686727619
31
0
210
0
220
0
230
1
40
0.723454
41
-0.0905061379044523
42
-0.0415148308004835
0
ELLIPSE
5
328
100
AcDbEntity
8
1
62
256
6
ByLayer
370
18
48
1
60
0
100
AcDbEllipse
10
45.067606
20
18.500844
30
0
11
0.925044605090123
21
0.113650686727619
31
0
210
0
220
0
230
1
40
0.723454
41
3.05108651568534
42
3.10007782278932
0
ELLIPSE
5
329
100
AcDbEntity
8
1
62
256
6
ByLayer
370
18
48
1
60
0
100
AcDbEllipse
10
45.084958
20
18.35961
30
0
11
-1.27938036047336
21
-0.157184265227359
31
0
210
0
220
0
230
1
40
0.723454
41
-1.63680681114737
42
-0.589972061149563
0
ELLIPSE
5
32A
100
AcDbEntity
8
1
62
256
6
ByLayer
370
18
48
1
60
0
100
AcDbEllipse
10
45.084958
20
18.35961
30
0
11
-1.27938036047336
21
-0.157184265227359
31
0
210
0
220
0
230
1
40
0.723454
41
-2.68364156114517
42
-1.63680681114737
0
ELLIPSE
5
32B
100
AcDbEntity
8
1
62
256
6
ByLayer
370
18
48
1
60
0
100
AcDbEllipse
10
45.084958
20
18.35961
30
0
11
-1.27938036047336
21
-0.157184265227359
31
0
210
0
220
0
230
1
40
0.723454
41
2.55162059244024
42
-2.68364156114517
0
ELLIPSE
5
32C
100
AcDbEntity
8
1
62
256
6
ByLayer
370
18
48
1
60
0
100
AcDbEllipse
10
45.084958
20
18.35961
30
0
11
-1.27938036047336
21
-0.157184265227359
31
0
210
0
220
0
230
1
40
0.723454
41
1.50478584244243
42
2.55162059244024
0
ELLIPSE
5
32D
100
AcDbEntity
8
1
62
256
6
ByLayer
370
18
48
1
60
0
100
AcDbEllipse
10
45.084958
20
18.35961
30
0
11
-1.27938036047336
21
-0.157184265227359
31
0
210
0
220
0
230
1
40
0.723454
41
0.457951092444632
42
1.50478584244243
0
ELLIPSE
5
32E
100
AcDbEntity
8
1
62
256
6
ByLayer
370
18
48
1
60
0
100
AcDbEllipse
10
45.084958
20
18.35961
30
0
11
-1.27938036047336
21
-0.157184265227359
31
0
210
0
220
0
230
1
40
0.723454
41
-0.589972061149563
42
0.457951092444632
0
ELLIPSE
5
32F
100
AcDbEntity
8
1
62
256
6
ByLayer
370
18
48
1
60
0
100
AcDbEllipse
10
45.084958
20
18.35961
30
0
11
-1.38955198189503
21
-0.170719915685262
31
0
210
0
220
0
230
1
40
0.723454
41
0
42
6.28318530717959
0
ELLIPSE
5
330
100
AcDbEntity
8
1
62
256
6
ByLayer
370
13
48
1
60
0
100
AcDbEllipse
10
46.585542
20
34.987801
30
0
11
-2.10682537461088
21
-0.624703119722077
31
0
210
0
220
0
230
1
40
0.955145
41
-0.301005513154694
42
0
0
ELLIPSE
5
331
100
AcDbEntity
8
1
62
256
6
ByLayer
370
13
48
1
60
0
100
AcDbEllipse
10
46.585542
20
34.987801
30
0
11
-2.10682537461088
21
-0.624703119722077
31
0
210
0
220
0
230
1
40
0.955145
41
0
42
0.0653823805453429
0
ELLIPSE
5
332
100
AcDbEntity
8
1
62
256
6
ByLayer
370
13
48
1
60
0
100
AcDbEllipse
10
46.585542
20
34.987801
30
0
11
-2.10682537461088
21
-0.624703119722077
31
0
210
0
220
0
230
1
40
0.955145
41
2.80868001196863
42
-2.5286894533093
0
ELLIPSE
5
333
100
AcDbEntity
8
1
62
256
6
ByLayer
370
13
48
1
60
0
100
AcDbEllipse
10
46.585542
20
34.987801
30
0
11
-2.10682537461088
21
-0.624703119722077
31
0
210
0
220
0
230
1
40
0.955145
41
-0.612906858998415
42
-0.301005513154683
0
ELLIPSE
5
334
100
AcDbEntity
8
1
62
256
6
ByLayer
370
18
48
1
60
0
100
AcDbEllipse
10
46.504111
20
35.262428
30
0
11
2.21750536794075
21
0.657521282042131
31
0
210
0
220
0
230
1
40
0.955145
41
-0.783731262154493
42
-0.301005699047298
0
ELLIPSE
5
335
100
AcDbEntity
8
1
62
256
6
ByLayer
370
18
48
1
60
0
100
AcDbEllipse
10
46.504111
20
35.262428
30
0
11
2.21750536794075
21
0.657521282042131
31
0
210
0
220
0
230
1
40
0.955145
41
-0.301005699047298
42
0
0
ELLIPSE
5
336
100
AcDbEntity
8
1
62
256
6
ByLayer
370
18
48
1
60
0
100
AcDbEllipse
10
46.504111
20
35.262428
30
0
11
2.21750536794075
21
0.657521282042131
31
0
210
0
220
0
230
1
40
0.955145
41
0
42
-2.95997144111284
0
ELLIPSE
5
337
100
AcDbEntity
8
1
62
256
6
ByLayer
370
18
48
1
60
0
100
AcDbEllipse
10
46.572193
20
35.032822
30
0
11
2.16328840868614
21
0.641445197143802
31
0
210
0
220
0
230
1
40
0.955145
41
2.89419045618303
42
-3.0640365701104
0
ELLIPSE
5
338
100
AcDbEntity
8
1
62
256
6
ByLayer
370
13
48
1
60
0
100
AcDbEllipse
10
46.572193
20
35.032822
30
0
11
2.16328840868614
21
0.641445197143802
31
0
210
0
220
0
230
1
40
0.955145
41
-0.173672832875069
42
0
0
ELLIPSE
5
339
100
AcDbEntity
8
1
62
256
6
ByLayer
370
13
48
1
60
0
100
AcDbEllipse
10
46.572193
20
35.032822
30
0
11
2.16328840868614
21
0.641445197143802
31
0
210
0
220
0
230
1
40
0.955145
41
0
42
2.89419046161174
0
ELLIPSE
5
33A
100
AcDbEntity
8
1
62
256
6
ByLayer
370
18
48
1
60
0
100
AcDbEllipse
10
45.8
20
-19.228686
30
0
11
3
21
0
31
0
210
0
220
0
230
1
40
0.700909
41
-2.98834191532746
42
-1.7571321989106
0
ELLIPSE
5
33B
100
AcDbEntity
8
1
62
256
6
ByLayer
370
18
48
1
60
0
100
AcDbEllipse
10
45.8
20
-19.228686
30
0
11
3
21
0
31
0
210
0
220
0
230
1
40
0.700909
41
-1.38455866058503
42
-0.155017947799281
0
ELLIPSE
5
33C
100
AcDbEntity
8
1
62
256
6
ByLayer
370
18
48
1
60
0
100
AcDbEllipse
10
45.8
20
-19.763624
30
0
11
2.25
21
0
31
0
210
0
220
0
230
1
40
0.700909
41
0
42
0.747011995047235
0
ELLIPSE
5
33D
100
AcDbEntity
8
1
62
256
6
ByLayer
370
18
48
1
60
0
100
AcDbEllipse
10
45.8
20
-19.763624
30
0
11
2.25
21
0
31
0
210
0
220
0
230
1
40
0.700909
41
2.17614210204059
42
0
0
ELLIPSE
5
33E
100
AcDbEntity
8
1
62
256
6
ByLayer
370
18
48
1
60
0
100
AcDbEllipse
10
45.8
20
-26.032933
30
0
11
1
21
0
31
0
210
0
220
0
230
1
40
0.566334
41
0
42
6.28318530717959
0
ELLIPSE
5
33F
100
AcDbEntity
8
1
62
256
6
ByLayer
370
13
48
1
60
0
100
AcDbEllipse
10
45.8
20
-26.032933
30
0
11
1.4
21
0
31
0
210
0
220
0
230
1
40
0.566334
41
-3.14159265358979
42
-4.4808410367639E-15
0
ELLIPSE
5
340
100
AcDbEntity
8
1
62
256
6
ByLayer
370
13
48
1
60
0
100
AcDbEllipse
10
44.4
20
-26.11535
30
0
11
0.1
21
0
31
0
210
0
220
0
230
1
40
0.824176
41
1.5707963267949
42
3.14159265358979
0
ELLIPSE
5
341
100
AcDbEntity
8
1
62
256
6
ByLayer
370
13
48
1
60
0
100
AcDbEllipse
10
47.2
20
-26.11535
30
0
11
-0.1
21
1.22460635382238E-17
31
0
210
0
220
0
230
1
40
0.824176
41
3.14159265358979
42
-1.5707963267949
0
ELLIPSE
5
342
100
AcDbEntity
8
1
62
256
6
ByLayer
370
13
48
1
60
0
100
AcDbEllipse
10
45.8
20
-26.11535
30
0
11
-1.5
21
1.83690953073357E-16
31
0
210
0
220
0
230
1
40
0.566334
41
0
42
3.14159265358979
0
ELLIPSE
5
343
100
AcDbEntity
8
1
62
256
6
ByLayer
370
18
48
1
60
0
100
AcDbEllipse
10
45.8
20
2.475512
30
0
11
-1
21
1.22460635382238E-16
31
0
210
0
220
0
230
1
40
0.996924
41
0
42
6.28318530717959
0
ELLIPSE
5
344
100
AcDbEntity
8
1
62
256
6
ByLayer
370
13
48
1
60
0
100
AcDbEllipse
10
47.2
20
2.483349
30
0
11
-0.1
21
1.22460635382238E-17
31
0
210
0
220
0
230
1
40
0.078372
41
1.5707963267949
42
2.33977267891648
0
ELLIPSE
5
345
100
AcDbEntity
8
1
62
256
6
ByLayer
370
13
48
1
60
0
100
AcDbEllipse
10
45.8
20
2.475512
30
0
11
-1.4
21
1.71444889535133E-16
31
0
210
0
220
0
230
1
40
0.996924
41
0
42
0.266397396362946
0
ELLIPSE
5
346
100
AcDbEntity
8
1
62
256
6
ByLayer
370
13
48
1
60
0
100
AcDbEllipse
10
45.8
20
2.475512
30
0
11
-1.4
21
1.71444889535133E-16
31
0
210
0
220
0
230
1
40
0.996924
41
2.89811913087033
42
3.14159265358979
0
ELLIPSE
5
347
100
AcDbEntity
8
1
62
256
6
ByLayer
370
13
48
1
60
0
100
AcDbEllipse
10
44.4
20
2.483349
30
0
11
0.1
21
0
31
0
210
0
220
0
230
1
40
0.078372
41
-2.37654557272685
42
-1.5707963267949
0
ELLIPSE
5
348
100
AcDbEntity
8
1
62
256
6
ByLayer
370
18
48
1
60
0
100
AcDbEllipse
10
45.062869
20
18.539398
30
0
11
-2.08432797284255
21
-0.256079873527893
31
0
210
0
220
0
230
1
40
0.723454
41
-0.533677835639456
42
0
0
ELLIPSE
5
349
100
AcDbEntity
8
1
62
256
6
ByLayer
370
18
48
1
60
0
100
AcDbEllipse
10
45.062869
20
18.539398
30
0
11
-2.08432797284255
21
-0.256079873527893
31
0
210
0
220
0
230
1
40
0.723454
41
0
42
-2.60801260943186
0
ELLIPSE
5
34A
100
AcDbEntity
8
1
62
256
6
ByLayer
370
18
48
1
60
0
100
AcDbEllipse
10
46.616065
20
34.88486
30
0
11
-0.893546848327829
21
-0.264949108025302
31
0
210
0
220
0
230
1
40
0.955145
41
-1.34600529607844
42
-0.323121997834431
0
ELLIPSE
5
34B
100
AcDbEntity
8
1
62
256
6
ByLayer
370
18
48
1
60
0
100
AcDbEllipse
10
46.616065
20
34.88486
30
0
11
-0.893546848327829
21
-0.264949108025302
31
0
210
0
220
0
230
1
40
0.955145
41
-2.39284004607624
42
-1.34600529607844
0
ELLIPSE
5
34C
100
AcDbEntity
8
1
62
256
6
ByLayer
370
18
48
1
60
0
100
AcDbEllipse
10
46.616065
20
34.88486
30
0
11
-0.893546848327829
21
-0.264949108025302
31
0
210
0
220
0
230
1
40
0.955145
41
-3.01304241560064
42
-2.39284004607624
0
ELLIPSE
5
34D
100
AcDbEntity
8
1
62
256
6
ByLayer
370
18
48
1
60
0
100
AcDbEllipse
10
46.616065
20
34.88486
30
0
11
-0.893546848327829
21
-0.264949108025302
31
0
210
0
220
0
230
1
40
0.955145
41
-0.274130690730444
42
0.18858000810708
0
ELLIPSE
5
34E
100
AcDbEntity
8
1
62
256
6
ByLayer
370
18
48
1
60
0
100
AcDbEllipse
10
46.616065
20
34.88486
30
0
11
0.89354684832783
21
0.264949108025302
31
0
210
0
220
0
230
1
40
0.955145
41
-0.768651305780035
42
-0.376471245236586
0
ELLIPSE
5
34F
100
AcDbEntity
8
1
62
256
6
ByLayer
370
18
48
1
60
0
100
AcDbEllipse
10
46.639931
20
35.899319
30
0
11
-0.221469229574816
21
-0.0656687166886746
31
0
210
0
220
0
230
1
40
0.955145
41
-3.0968874563967
42
-0.572578161789549
0
ELLIPSE
5
350
100
AcDbEntity
8
1
62
256
6
ByLayer
370
18
48
1
60
0
100
AcDbEllipse
10
45.918553
20
36.094025
30
0
11
-0.504297899378153
21
-0.149531363542177
31
0
210
0
220
0
230
1
40
0.955145
41
1.02216022322249
42
1.79558735751135
0
ELLIPSE
5
351
100
AcDbEntity
8
1
62
256
6
ByLayer
370
18
48
1
60
0
100
AcDbEllipse
10
45.918553
20
36.094025
30
0
11
-0.504297899378153
21
-0.149531363542177
31
0
210
0
220
0
230
1
40
0.955145
41
1.79558735751135
42
2.56901449180021
0
ELLIPSE
5
352
100
AcDbEntity
8
1
62
256
6
ByLayer
370
18
48
1
60
0
100
AcDbEllipse
10
46.616065
20
34.88486
30
0
11
0.89354684832783
21
0.264949108025302
31
0
210
0
220
0
230
1
40
0.955145
41
2.81847065575538
42
2.86746196285936
0
ELLIPSE
5
353
100
AcDbEntity
8
1
62
256
6
ByLayer
370
18
48
1
60
0
100
AcDbEllipse
10
45.164386
20
34.881535
30
0
11
-0.504297899378153
21
-0.149531363542177
31
0
210
0
220
0
230
1
40
0.955145
41
2.88637854861451
42
-3.14158501689161
0
ELLIPSE
5
354
100
AcDbEntity
8
1
62
256
6
ByLayer
370
18
48
1
60
0
100
AcDbEllipse
10
45.715429
20
35.390318
30
0
11
-0.221469229574816
21
-0.0656687166886746
31
0
210
0
220
0
230
1
40
0.955145
41
-2.1194324303673
42
-0.701059888885824
0
ELLIPSE
5
355
100
AcDbEntity
8
1
62
256
6
ByLayer
370
18
48
1
60
0
100
AcDbEllipse
10
47.370549
20
36.09735
30
0
11
-0.504297899378153
21
-0.149531363542177
31
0
210
0
220
0
230
1
40
0.955145
41
2.31406739504885E-06
42
0.748752607513577
0
ELLIPSE
5
356
100
AcDbEntity
8
1
62
256
6
ByLayer
370
18
48
1
60
0
100
AcDbEllipse
10
47.370549
20
36.09735
30
0
11
-0.504297899378153
21
-0.149531363542177
31
0
210
0
220
0
230
1
40
0.955145
41
0.748752607513577
42
1.52217974180246
0
ELLIPSE
5
357
100
AcDbEntity
8
1
62
256
6
ByLayer
370
18
48
1
60
0
100
AcDbEllipse
10
47.540583
20
35.394498
30
0
11
-0.221469229574816
21
-0.0656687166886746
31
0
210
0
220
0
230
1
40
0.955145
41
-2.14497257472841
42
-1.61941291178735
0
ELLIPSE
5
358
100
AcDbEntity
8
1
62
256
6
ByLayer
370
18
48
1
60
0
100
AcDbEllipse
10
45.164386
20
34.881535
30
0
11
-0.504297899378153
21
-0.149531363542177
31
0
210
0
220
0
230
1
40
0.955145
41
2.06861823618257
42
2.79955407000028
0
ELLIPSE
5
359
100
AcDbEntity
8
1
62
256
6
ByLayer
370
18
48
1
60
0
100
AcDbEllipse
10
46.532394
20
35.167043
30
0
11
0.89354684832783
21
0.264949108025302
31
0
210
0
220
0
230
1
40
0.955145
41
2.81847065575538
42
2.86746196285934
0
ELLIPSE
5
35A
100
AcDbEntity
8
1
62
256
6
ByLayer
370
18
48
1
60
0
100
AcDbEllipse
10
45.691548
20
34.375222
30
0
11
-0.221469229574816
21
-0.0656687166886746
31
0
210
0
220
0
230
1
40
0.955145
41
-1.07297441740716
42
-0.912401400044303
0
ELLIPSE
5
35B
100
AcDbEntity
8
1
62
256
6
ByLayer
370
18
48
1
60
0
100
AcDbEllipse
10
48.067745
20
34.888185
30
0
11
-0.504297899378153
21
-0.149531363542177
31
0
210
0
220
0
230
1
40
0.955145
41
8.64382260729918E-06
42
0.255150961764019
0
ELLIPSE
5
35C
100
AcDbEntity
8
1
62
256
6
ByLayer
370
18
48
1
60
0
100
AcDbEllipse
10
46.532394
20
35.167043
30
0
11
0.89354684832783
21
0.264949108025302
31
0
210
0
220
0
230
1
40
0.955145
41
-0.323121997834406
42
-0.274130690730454
0
ELLIPSE
5
35D
100
AcDbEntity
8
1
62
256
6
ByLayer
370
18
48
1
60
0
100
AcDbEllipse
10
46.599228
20
34.941644
30
0
11
2.01335663249833
21
0.596988333533405
31
0
210
0
220
0
230
1
40
0.955145
41
-0.588756128712705
42
-0.301006004100702
0
ELLIPSE
5
35E
100
AcDbEntity
8
1
62
256
6
ByLayer
370
18
48
1
60
0
100
AcDbEllipse
10
46.599228
20
34.941644
30
0
11
2.01335663249833
21
0.596988333533405
31
0
210
0
220
0
230
1
40
0.955145
41
3.14159088349176
42
-3.0830824779015
0
ELLIPSE
5
35F
100
AcDbEntity
8
1
62
256
6
ByLayer
370
18
48
1
60
0
100
AcDbEllipse
10
46.599228
20
34.941644
30
0
11
2.01335663249833
21
0.596988333533405
31
0
210
0
220
0
230
1
40
0.955145
41
-0.301005507640871
42
0
0
ELLIPSE
5
360
100
AcDbEntity
8
1
62
256
6
ByLayer
370
18
48
1
60
0
100
AcDbEllipse
10
46.515042
20
35.225563
30
0
11
1.23581747585255
21
0.36643712472598
31
0
210
0
220
0
230
1
40
0.955145
41
-1.2333396585123
42
-0.822587921079509
0
ELLIPSE
5
361
100
AcDbEntity
8
1
62
256
6
ByLayer
370
18
48
1
60
0
100
AcDbEllipse
10
46.515042
20
35.225563
30
0
11
1.23581747585255
21
0.36643712472598
31
0
210
0
220
0
230
1
40
0.955145
41
-2.91625742107513
42
-2.51026550563384
0
ELLIPSE
5
362
100
AcDbEntity
8
1
62
256
6
ByLayer
370
18
48
1
60
0
100
AcDbEllipse
10
46.515042
20
35.225563
30
0
11
1.23581747585255
21
0.36643712472598
31
0
210
0
220
0
230
1
40
0.955145
41
2.31900473251028
42
-2.91625742107513
0
ELLIPSE
5
363
100
AcDbEntity
8
1
62
256
6
ByLayer
370
18
48
1
60
0
100
AcDbEllipse
10
46.515042
20
35.225563
30
0
11
1.23581747585255
21
0.36643712472598
31
0
210
0
220
0
230
1
40
0.955145
41
1.27216998251247
42
2.31900473251028
0
ELLIPSE
5
364
100
AcDbEntity
8
1
62
256
6
ByLayer
370
18
48
1
60
0
100
AcDbEllipse
10
46.515042
20
35.225563
30
0
11
1.23581747585255
21
0.36643712472598
31
0
210
0
220
0
230
1
40
0.955145
41
0.225335232514666
42
1.27216998251247
0
ELLIPSE
5
365
100
AcDbEntity
8
1
62
256
6
ByLayer
370
18
48
1
60
0
100
AcDbEllipse
10
46.515042
20
35.225563
30
0
11
1.23581747585255
21
0.36643712472598
31
0
210
0
220
0
230
1
40
0.955145
41
-0.822587921079509
42
0.225335232514666
0
ELLIPSE
5
366
100
AcDbEntity
8
1
62
256
6
ByLayer
370
18
48
1
60
0
100
AcDbEllipse
10
46.515042
20
35.225563
30
0
11
1.34223775499889
21
0.397992222355603
31
0
210
0
220
0
230
1
40
0.955145
41
-1.13313535235079
42
-0.301005755870791
0
ELLIPSE
5
367
100
AcDbEntity
8
1
62
256
6
ByLayer
370
18
48
1
60
0
100
AcDbEllipse
10
46.515042
20
35.225563
30
0
11
1.34223775499889
21
0.397992222355603
31
0
210
0
220
0
230
1
40
0.955145
41
-0.301005755870791
42
0
0
ELLIPSE
5
368
100
AcDbEntity
8
1
62
256
6
ByLayer
370
18
48
1
60
0
100
AcDbEllipse
10
46.515042
20
35.225563
30
0
11
1.34223775499889
21
0.397992222355603
31
0
210
0
220
0
230
1
40
0.955145
41
0
42
-2.61056694520029
0
ELLIPSE
5
369
100
AcDbEntity
8
1
62
256
6
ByLayer
370
18
48
1
60
0
100
AcDbEllipse
10
46.537131
20
35.151068
30
0
11
2.01335663249833
21
0.596988333533405
31
0
210
0
220
0
230
1
40
0.955145
41
-0.774404343151212
42
-0.30100550764086
0
ELLIPSE
5
36A
100
AcDbEntity
8
1
62
256
6
ByLayer
370
18
48
1
60
0
100
AcDbEllipse
10
46.537131
20
35.151068
30
0
11
2.01335663249833
21
0.596988333533405
31
0
210
0
220
0
230
1
40
0.955145
41
-0.301005507640868
42
0
0
ELLIPSE
5
36B
100
AcDbEntity
8
1
62
256
6
ByLayer
370
18
48
1
60
0
100
AcDbEllipse
10
46.537131
20
35.151068
30
0
11
2.01335663249833
21
0.596988333533405
31
0
210
0
220
0
230
1
40
0.955145
41
0
42
-2.9692976459016
0
ELLIPSE
5
36C
100
AcDbEntity
8
1
62
256
6
ByLayer
370
18
48
1
60
0
100
AcDbEllipse
10
45.908452
20
18.86643
30
0
11
-0.229276077012681
21
-0.0281687860880683
31
0
210
0
220
0
230
1
40
0.723454
41
1.25477608315248
42
1.784108283976
0
ELLIPSE
5
36D
100
AcDbEntity
8
1
62
256
6
ByLayer
370
18
48
1
60
0
100
AcDbEllipse
10
44.083298
20
18.73028
30
0
11
-0.229276077012681
21
-0.0281687860880683
31
0
210
0
220
0
230
1
40
0.723454
41
1.66153102357748
42
1.75479560173245
0
ELLIPSE
5
36E
100
AcDbEntity
8
1
62
256
6
ByLayer
370
18
48
1
60
0
100
AcDbEllipse
10
44.983935
20
19.181875
30
0
11
0.925044605090123
21
0.113650686727619
31
0
210
0
220
0
230
1
40
0.723454
41
-2.8358070432295
42
-2.16022418614627
0
ELLIPSE
5
36F
100
AcDbEntity
8
1
62
256
6
ByLayer
370
18
48
1
60
0
100
AcDbEllipse
10
44.286423
20
18.212778
30
0
11
-0.522074530340563
21
-0.0641419111788914
31
0
210
0
220
0
230
1
40
0.723454
41
-2.93365132043515
42
-2.16022418614626
0
ELLIPSE
5
370
100
AcDbEntity
8
1
62
256
6
ByLayer
370
18
48
1
60
0
100
AcDbEllipse
10
45.007801
20
18.415317
30
0
11
-0.229276077012681
21
-0.0281687860880683
31
0
210
0
220
0
230
1
40
0.723454
41
0.207941333154667
42
2.80163035173021
0
ELLIPSE
5
371
100
AcDbEntity
8
1
62
256
6
ByLayer
370
18
48
1
60
0
100
AcDbEllipse
10
45.738418
20
18.321091
30
0
11
-0.522074530340563
21
-0.0641419111788914
31
0
210
0
220
0
230
1
40
0.723454
41
-1.88681657043734
42
-1.11338943614846
0
ELLIPSE
5
372
100
AcDbEntity
8
1
62
256
6
ByLayer
370
18
48
1
60
0
100
AcDbEllipse
10
45.738418
20
18.321091
30
0
11
-0.522074530340563
21
-0.0641419111788914
31
0
210
0
220
0
230
1
40
0.723454
41
-1.11338943614846
42
-0.339962301859565
0
ELLIPSE
5
373
100
AcDbEntity
8
1
62
256
6
ByLayer
370
18
48
1
60
0
100
AcDbEllipse
10
45.8
20
9.222691
30
0
11
-3
21
3.67381906146713E-16
31
0
210
0
220
0
230
1
40
0.968148
41
-3.10998020780432
42
-0.0341647992051314
0
POINT
5
70
100
AcDbEntity
8
80
62
256
6
ByLayer
370
18
48
1
60
0
100
AcDbPoint
10
0
20
0
30
0
39
0
210
0
220
0
230
1
50
360
0
POINT
5
72
100
AcDbEntity
8
81
62
256
6
ByLayer
370
18
48
1
60
0
100
AcDbPoint
10
50.8
20
39.99995
30
0
39
0
210
0
220
0
230
1
50
360
0
POINT
5
74
100
AcDbEntity
8
1
62
256
6
ByLayer
370
18
48
1
60
0
100
AcDbPoint
10
0
20
0
30
0
39
0
210
0
220
0
230
1
50
360
0
POINT
5
76
100
AcDbEntity
8
1
62
256
6
ByLayer
370
18
48
1
60
1
100
AcDbPoint
10
50.8
20
-39.99995
30
0
39
0
210
0
220
0
230
1
50
360
0
POINT
5
77
100
AcDbEntity
8
1
62
256
6
ByLayer
370
18
48
1
60
1
100
AcDbPoint
10
24.79
20
-18.70595
30
0
39
0
210
0
220
0
230
1
50
360
0
POINT
5
78
100
AcDbEntity
8
1
62
256
6
ByLayer
370
18
48
1
60
1
100
AcDbPoint
10
50.8
20
-39.99995
30
0
39
0
210
0
220
0
230
1
50
360
0
POINT
5
79
100
AcDbEntity
8
1
62
256
6
ByLayer
370
18
48
1
60
1
100
AcDbPoint
10
0
20
-12.7
30
0
39
0
210
0
220
0
230
1
50
360
0
POINT
5
7A
100
AcDbEntity
8
1
62
256
6
ByLayer
370
18
48
1
60
1
100
AcDbPoint
10
50.8
20
39.99995
30
0
39
0
210
0
220
0
230
1
50
360
0
POINT
5
7B
100
AcDbEntity
8
1
62
256
6
ByLayer
370
18
48
1
60
1
100
AcDbPoint
10
40.8
20
39.99995
30
0
39
0
210
0
220
0
230
1
50
360
0
SPLINE
5
374
100
AcDbEntity
8
1
62
256
6
ByLayer
370
13
48
1
60
0
100
AcDbSpline
70
4
71
3
72
8
73
4
40
0
40
0
40
0
40
0
40
1
40
1
40
1
40
1
41
1
10
42.2377600619997
20
-15.7351221527553
30
0
41
1
10
42.2091545421811
20
-15.8412854865198
30
0
41
1
10
42.1805490223624
20
-15.9474488202844
30
0
41
1
10
42.1519435025438
20
-16.053612154049
30
0
0
SPLINE
5
375
100
AcDbEntity
8
1
62
256
6
ByLayer
370
18
48
1
60
0
100
AcDbSpline
70
4
71
3
72
28
73
24
40
0
40
0
40
0
40
0
40
0.125000000000035
40
0.125000000000035
40
0.187500000000052
40
0.187500000000052
40
0.25000000000007
40
0.25000000000007
40
0.375000000000082
40
0.375000000000082
40
0.43750000000008
40
0.43750000000008
40
0.500000000000079
40
0.500000000000079
40
0.625000000000065
40
0.625000000000065
40
0.750000000000051
40
0.750000000000051
40
0.812500000000035
40
0.812500000000035
40
0.87500000000002
40
0.87500000000002
40
1
40
1
40
1
40
1
41
1
10
43.0965572167456
20
-18.3573631925094
30
0
41
1
10
43.0457397150519
20
-18.3534560109036
30
0
41
1
10
42.9957286013914
20
-18.3472193214386
30
0
41
1
10
42.9218888552421
20
-18.3344643676169
30
0
41
1
10
42.8974731514921
20
-18.3296420449901
30
0
41
1
10
42.8490484878496
20
-18.3188223909615
30
0
41
1
10
42.8251307677503
20
-18.3128377448928
30
0
41
1
10
42.7555297910205
20
-18.2935105885593
30
0
41
1
10
42.711478924263
20
-18.2787003852694
30
0
41
1
10
42.6489376455643
20
-18.2535884550844
30
0
41
1
10
42.6285758779391
20
-18.2446769889385
30
0
41
1
10
42.5897706391077
20
-18.2261738325936
30
0
41
1
10
42.5713034933545
20
-18.2165830714927
30
0
41
1
10
42.5186306163252
20
-18.1868214700655
30
0
41
1
10
42.4871278202702
20
-18.1656706027001
30
0
41
1
10
42.4315593941301
20
-18.1206723091731
30
0
41
1
10
42.4083554038826
20
-18.097513705662
30
0
41
1
10
42.3801920264975
20
-18.0619504156208
30
0
41
1
10
42.371911675835
20
-18.0499509991698
30
0
41
1
10
42.3575989430193
20
-18.0256578619117
30
0
41
1
10
42.3515640389088
20
-18.0133314928723
30
0
41
1
10
42.3371820610252
20
-17.9765699086501
30
0
41
1
10
42.3323791029951
20
-17.9521492169461
30
0
41
1
10
42.3323767390281
20
-17.9278158394857
30
0
0
SPLINE
5
376
100
AcDbEntity
8
1
62
256
6
ByLayer
370
13
48
1
60
0
100
AcDbSpline
70
4
71
3
72
8
73
4
40
0
40
0
40
0
40
0
40
1
40
1
40
1
40
1
41
1
10
50.4001010207844
20
-14.4165137444039
30
0
41
1
10
50.5333712648358
20
-15.8039609175714
30
0
41
1
10
50.6666415088873
20
-17.1914080907389
30
0
41
1
10
50.7999117529387
20
-18.5788552639064
30
0
0
SPLINE
5
377
100
AcDbEntity
8
1
62
256
6
ByLayer
370
13
48
1
60
0
100
AcDbSpline
70
4
71
3
72
8
73
4
40
0
40
0
40
0
40
0
40
1
40
1
40
1
40
1
41
1
10
50.0357312752212
20
-18.8908922393412
30
0
41
1
10
49.9924798061643
20
-17.4296358621651
30
0
41
1
10
49.9492283371073
20
-15.9683794849889
30
0
41
1
10
49.9059768680504
20
-14.5071231078128
30
0
0
SPLINE
5
378
100
AcDbEntity
8
1
62
256
6
ByLayer
370
18
48
1
60
0
100
AcDbSpline
70
4
71
3
72
29
73
25
40
0
40
0
40
0
40
0
40
0.124999999999999
40
0.124999999999999
40
0.1875
40
0.1875
40
0.250000000000002
40
0.250000000000002
40
0.375000000000005
40
0.375000000000005
40
0.437500000000006
40
0.437500000000006
40
0.500000000000008
40
0.500000000000008
40
0.625000000000012
40
0.625000000000012
40
0.687500000000013
40
0.687500000000013
40
0.750000000000014
40
0.812500000000014
40
0.812500000000014
40
0.875000000000015
40
0.875000000000015
40
1
40
1
40
1
40
1
41
1
10
40.9805214835458
20
14.8277197960659
30
0
41
1
10
40.9827463559834
20
14.7829822948924
30
0
41
1
10
40.9897398474279
20
14.7392637258008
30
0
41
1
10
41.0072246509092
20
14.6751804323318
30
0
41
1
10
41.0142266828208
20
14.6540701379142
30
0
41
1
10
41.0306511826814
20
14.6123667344366
30
0
41
1
10
41.0400647335037
20
14.5918370458801
30
0
41
1
10
41.0713577608895
20
14.5323096286055
30
0
41
1
10
41.0964186408874
20
14.4949295545551
30
0
41
1
10
41.140376956015
20
14.4423544623833
30
0
41
1
10
41.1561819381615
20
14.4253368401343
30
0
41
1
10
41.1896248025804
20
14.3929195198933
30
0
41
1
10
41.2071636812415
20
14.3775970901633
30
0
41
1
10
41.2621700634243
20
14.3342206320962
30
0
41
1
10
41.3020046254835
20
14.3087328381686
30
0
41
1
10
41.3666639388249
20
14.2758215560577
30
0
41
1
10
41.3889866443425
20
14.2657890992995
30
0
41
1
10
41.4342790920404
20
14.2479596451649
30
0
41
1
10
41.4804533834459
20
14.232240723234
30
0
41
1
10
41.5283667578009
20
14.2206839794047
30
0
41
1
10
41.5771621959894
20
14.21123829461
30
0
41
1
10
41.6021230334269
20
14.207562106255
30
0
41
1
10
41.6772738394942
20
14.1999299294241
30
0
41
1
10
41.7277378349859
20
14.1992797348053
30
0
41
1
10
41.7785656028538
20
14.203071300688
30
0
0
SPLINE
5
379
100
AcDbEntity
8
1
62
256
6
ByLayer
370
13
48
1
60
0
100
AcDbSpline
70
4
71
3
72
8
73
4
40
0
40
0
40
0
40
0
40
1
40
1
40
1
40
1
41
1
10
42.3323767390281
20
-17.9278158394858
30
0
41
1
10
42.698839694486
20
-16.6228616920115
30
0
41
1
10
43.0653026499439
20
-15.3179075445371
30
0
41
1
10
43.4317656054017
20
-14.0129533970627
30
0
0
SPLINE
5
37A
100
AcDbEntity
8
1
62
256
6
ByLayer
370
13
48
1
60
0
100
AcDbSpline
70
4
71
3
72
8
73
4
40
0
40
0
40
0
40
0
40
1
40
1
40
1
40
1
41
1
10
43.9804782226515
20
-14.0548249810661
30
0
41
1
10
43.6858378873495
20
-15.4890043848804
30
0
41
1
10
43.3911975520476
20
-16.9231837886948
30
0
41
1
10
43.0965572167456
20
-18.3573631925091
30
0
0
SPLINE
5
37B
100
AcDbEntity
8
1
62
256
6
ByLayer
370
18
48
1
60
0
100
AcDbSpline
70
4
71
3
72
20
73
16
40
0
40
0
40
0
40
0
40
0.150966351437202
40
0.150966351437202
40
0.301932702874403
40
0.301932702874403
40
0.452899054311605
40
0.452899054311605
40
0.603865405748807
40
0.603865405748807
40
0.754831757186008
40
0.754831757186008
40
0.90579810862321
40
0.90579810862321
40
1
40
1
40
1
40
1
41
1
10
47.6155261227894
20
24.6493043368092
30
0
41
1
10
47.6478626342431
20
24.6517165224852
30
0
41
1
10
47.6797409876397
20
24.6518411937013
30
0
41
1
10
47.7426246017002
20
24.6477313151019
30
0
41
1
10
47.773919807056
20
24.6434273955452
30
0
41
1
10
47.8341265603488
20
24.6305214334129
30
0
41
1
10
47.8628136071436
20
24.6220198381511
30
0
41
1
10
47.9174092639307
20
24.600997848568
30
0
41
1
10
47.9435269339763
20
24.5883156500435
30
0
41
1
10
47.9909519140583
20
24.5597709835728
30
0
41
1
10
48.0124670249738
20
24.5438771627911
30
0
41
1
10
48.0510613403521
20
24.5088161820997
30
0
41
1
10
48.068075800525
20
24.4896016601199
30
0
41
1
10
48.0908553770875
20
24.4570138742247
30
0
41
1
10
48.0985350530673
20
24.4440888597216
30
0
41
1
10
48.1051167769545
20
24.4307507689388
30
0
0
SPLINE
5
37C
100
AcDbEntity
8
1
62
256
6
ByLayer
370
18
48
1
60
0
100
AcDbSpline
70
4
71
3
72
22
73
18
40
0
40
0
40
0
40
0
40
0.0854750906911408
40
0.0854750906911408
40
0.216121506306692
40
0.216121506306692
40
0.346767921922243
40
0.346767921922243
40
0.477414337537795
40
0.477414337537795
40
0.608060753153346
40
0.608060753153346
40
0.738707168768897
40
0.738707168768897
40
0.869353584384449
40
0.869353584384449
40
1
40
1
40
1
40
1
41
1
10
41.2018357254218
20
23.844965577845
30
0
41
1
10
41.2037540557362
20
23.8602911473528
30
0
41
1
10
41.2069833629201
20
23.8755050956518
30
0
41
1
10
41.2183569909674
20
23.9136999861728
30
0
41
1
10
41.2283371110725
20
23.9367599166741
30
0
41
1
10
41.2538976663405
20
23.981194580255
30
0
41
1
10
41.2693247254101
20
24.0024346590625
30
0
41
1
10
41.3053651111085
20
24.0429999266251
30
0
41
1
10
41.3262117673149
20
24.0624632129948
30
0
41
1
10
41.3715954270148
20
24.0979333951215
30
0
41
1
10
41.396233134994
20
24.1141174941586
30
0
41
1
10
41.4494365258763
20
24.1433548395373
30
0
41
1
10
41.4779704251227
20
24.1563207387932
30
0
41
1
10
41.5366328407529
20
24.1779956393107
30
0
41
1
10
41.5670393813341
20
24.1868708001019
30
0
41
1
10
41.6300869152762
20
24.2005436460469
30
0
41
1
10
41.6621793194956
20
24.2052064042397
30
0
41
1
10
41.6945115397796
20
24.2076182698102
30
0
0
SPLINE
5
37D
100
AcDbEntity
8
1
62
256
6
ByLayer
370
18
48
1
60
0
100
AcDbSpline
70
4
71
3
72
29
73
25
40
0
40
0
40
0
40
0
40
0.125
40
0.125
40
0.187500000000006
40
0.187500000000006
40
0.250000000000013
40
0.250000000000013
40
0.375000000000024
40
0.375000000000024
40
0.437500000000029
40
0.437500000000029
40
0.500000000000035
40
0.500000000000035
40
0.625000000000037
40
0.625000000000037
40
0.687500000000033
40
0.687500000000033
40
0.75000000000003
40
0.812500000000027
40
0.812500000000027
40
0.875000000000023
40
0.875000000000023
40
1
40
1
40
1
40
1
41
1
10
49.267623260972
20
21.2547673240491
30
0
41
1
10
49.2676208967812
20
21.2814150158018
30
0
41
1
10
49.2628170878154
20
21.3073109564329
30
0
41
1
10
49.2485686595187
20
21.3450522057776
30
0
41
1
10
49.2426373394891
20
21.3574475836505
30
0
41
1
10
49.2283376018243
20
21.3818567686516
30
0
41
1
10
49.2199749293787
20
21.3938329728344
30
0
41
1
10
49.1917437651982
20
21.4284387629622
30
0
41
1
10
49.1686255500776
20
21.4500067753703
30
0
41
1
10
49.1274317534379
20
21.4800804380605
30
0
41
1
10
49.1125274172971
20
21.4897673722804
30
0
41
1
10
49.0808125326987
20
21.5081200312626
30
0
41
1
10
49.0640967979031
20
21.5167425912965
30
0
41
1
10
49.0114404368278
20
21.5409913660209
30
0
41
1
10
48.9730144751758
20
21.5550140448235
30
0
41
1
10
48.910222846689
20
21.5727235551858
30
0
41
1
10
48.8884791191968
20
21.5780434975349
30
0
41
1
10
48.8442363719021
20
21.5873290552534
30
0
41
1
10
48.7990105755002
20
21.5953278286191
30
0
41
1
10
48.7518461090981
20
21.6007889360608
30
0
41
1
10
48.7036983482
20
21.6049629379426
30
0
41
1
10
48.6790116241334
20
21.6064080170783
30
0
41
1
10
48.6045160436904
20
21.6087070723381
30
0
41
1
10
48.5542705511224
20
21.6075787915549
30
0
41
1
10
48.5034427832545
20
21.6037872256722
30
0
0
SPLINE
5
37E
100
AcDbEntity
8
1
62
256
6
ByLayer
370
18
48
1
60
0
100
AcDbSpline
70
4
71
3
72
28
73
24
40
0
40
0
40
0
40
0
40
0.124999999999991
40
0.124999999999991
40
0.187499999999993
40
0.187499999999993
40
0.249999999999996
40
0.249999999999996
40
0.374999999999988
40
0.374999999999988
40
0.437499999999991
40
0.437499999999991
40
0.499999999999994
40
0.499999999999994
40
0.624999999999995
40
0.624999999999995
40
0.749999999999995
40
0.749999999999995
40
0.812499999999997
40
0.812499999999997
40
0.875
40
0.875
40
1
40
1
40
1
40
1
41
1
10
41.5642687247789
20
21.0861501796658
30
0
41
1
10
41.5134512230852
20
21.0823593796022
30
0
41
1
10
41.4634401094248
20
21.0760099828889
30
0
41
1
10
41.3896003632755
20
21.0627516128233
30
0
41
1
10
41.3651846595254
20
21.0577053637409
30
0
41
1
10
41.3167599958829
20
21.0463223039201
30
0
41
1
10
41.2928422757836
20
21.0399985083469
30
0
41
1
10
41.2232412990538
20
21.0195027675011
30
0
41
1
10
41.1791904322963
20
21.0037080040915
30
0
41
1
10
41.1166491535976
20
20.9768100733361
30
0
41
1
10
41.0962873859724
20
20.9672472273174
30
0
41
1
10
41.057482147141
20
20.9473582681607
30
0
41
1
10
41.0390150013878
20
20.937033399584
30
0
41
1
10
40.9863421243585
20
20.9049492871584
30
0
41
1
10
40.9548393283035
20
20.8820909564381
30
0
41
1
10
40.8992709021634
20
20.8333501413246
30
0
41
1
10
40.8760669119159
20
20.8082136634953
30
0
41
1
10
40.8479035345308
20
20.7695413913149
30
0
41
1
10
40.8396231838683
20
20.7564812438362
30
0
41
1
10
40.8253104510526
20
20.7300171081659
30
0
41
1
10
40.8192755469422
20
20.7165773936954
30
0
41
1
10
40.8048935690585
20
20.6764607190255
30
0
41
1
10
40.8000906110283
20
20.6497656530902
30
0
41
1
10
40.8000882470614
20
20.623120131657
30
0
0
SPLINE
5
37F
100
AcDbEntity
8
1
62
256
6
ByLayer
370
13
48
1
60
0
100
AcDbSpline
70
4
71
3
72
8
73
4
40
0
40
0
40
0
40
0
40
1
40
1
40
1
40
1
41
1
10
48.5034427832546
20
21.6037872256722
30
0
41
1
10
48.2074705630995
20
22.6189595960512
30
0
41
1
10
47.9114983429445
20
23.6341319664302
30
0
41
1
10
47.6155261227894
20
24.6493043368092
30
0
0
SPLINE
5
380
100
AcDbEntity
8
1
62
256
6
ByLayer
370
13
48
1
60
0
100
AcDbSpline
70
4
71
3
72
8
73
4
40
0
40
0
40
0
40
0
40
1
40
1
40
1
40
1
41
1
10
41.6945115397796
20
24.2076182698102
30
0
41
1
10
41.6510972681127
20
23.1671289064287
30
0
41
1
10
41.6076829964458
20
22.1266395430472
30
0
41
1
10
41.5642687247789
20
21.0861501796658
30
0
0
SPLINE
5
381
100
AcDbEntity
8
1
62
256
6
ByLayer
370
18
48
1
60
0
100
AcDbSpline
70
4
71
3
72
28
73
24
40
0
40
0
40
0
40
0
40
0.124999999999989
40
0.124999999999989
40
0.249999999999979
40
0.249999999999979
40
0.312499999999983
40
0.312499999999983
40
0.374999999999988
40
0.374999999999988
40
0.499999999999996
40
0.499999999999996
40
0.562500000000003
40
0.562500000000003
40
0.62500000000001
40
0.62500000000001
40
0.750000000000022
40
0.750000000000022
40
0.812500000000015
40
0.812500000000015
40
0.875000000000008
40
0.875000000000008
40
1
40
1
40
1
40
1
41
1
10
45.3246452701173
20
17.6223159792764
30
0
41
1
10
45.3311854151584
20
17.6565548040925
30
0
41
1
10
45.3407274098775
20
17.6902557739129
30
0
41
1
10
45.3657483473686
20
17.7544808135773
30
0
41
1
10
45.3812010395834
20
17.7851272243383
30
0
41
1
10
45.4095209652672
20
17.8283936975023
30
0
41
1
10
45.4198773032825
20
17.8424034102305
30
0
41
1
10
45.4419743546961
20
17.868719994166
30
0
41
1
10
45.4537599119138
20
17.8811090492298
30
0
41
1
10
45.4914482587388
20
17.9157998074454
30
0
41
1
10
45.5200597947675
20
17.935706581039
30
0
41
1
10
45.5654105414371
20
17.9583503970184
30
0
41
1
10
45.5810094038972
20
17.9647897077769
30
0
41
1
10
45.6131659149002
20
17.9754752946698
30
0
41
1
10
45.6298461015355
20
17.9797413555714
30
0
41
1
10
45.6804286174275
20
17.9890725209137
30
0
41
1
10
45.714481290566
20
17.9907285970449
30
0
41
1
10
45.7660852724592
20
17.9875266978239
30
0
41
1
10
45.7834643696622
20
17.9854809467246
30
0
41
1
10
45.8177510446772
20
17.9796904169617
30
0
41
1
10
45.8347069736967
20
17.9759527652752
30
0
41
1
10
45.8850910061514
20
17.9624686805732
30
0
41
1
10
45.9180416424031
20
17.9504758320367
30
0
41
1
10
45.9504612706418
20
17.9357709150062
30
0
0
SPLINE
5
382
100
AcDbEntity
8
1
62
256
6
ByLayer
370
18
48
1
60
0
100
AcDbSpline
70
4
71
3
72
18
73
14
40
0
40
0
40
0
40
0
40
0.249999999999968
40
0.249999999999968
40
0.499999999999936
40
0.499999999999936
40
0.624999999999952
40
0.624999999999952
40
0.749999999999968
40
0.749999999999968
40
0.874999999999984
40
0.874999999999984
40
1
40
1
40
1
40
1
41
1
10
45.3246452701177
20
17.6223159792789
30
0
41
1
10
45.3198519455037
20
17.5972220707013
30
0
41
1
10
45.3115902595854
20
17.573128208685
30
0
41
1
10
45.2877125082086
20
17.5277039770102
30
0
41
1
10
45.2724018528895
20
17.5069961644465
30
0
41
1
10
45.2444158017958
20
17.4799548845193
30
0
41
1
10
45.2344152060913
20
17.4717762455487
30
0
41
1
10
45.2130385953138
20
17.4571211074223
30
0
41
1
10
45.2015395007242
20
17.4505950192249
30
0
41
1
10
45.1777607428129
20
17.4397374016054
30
0
41
1
10
45.1654899008656
20
17.435377255457
30
0
41
1
10
45.1401722572377
20
17.4288286917744
30
0
41
1
10
45.1270326410624
20
17.4266546541216
30
0
41
1
10
45.1140346536132
20
17.4256850517207
30
0
0
SPLINE
5
383
100
AcDbEntity
8
1
62
256
6
ByLayer
370
18
48
1
60
0
100
AcDbSpline
70
4
71
3
72
28
73
24
40
0
40
0
40
0
40
0
40
0.125000000000015
40
0.125000000000015
40
0.25000000000003
40
0.25000000000003
40
0.312500000000038
40
0.312500000000038
40
0.375000000000046
40
0.375000000000046
40
0.50000000000004
40
0.50000000000004
40
0.562500000000025
40
0.562500000000025
40
0.625000000000009
40
0.625000000000009
40
0.749999999999999
40
0.749999999999999
40
0.812499999999995
40
0.812499999999995
40
0.87499999999999
40
0.87499999999999
40
1
40
1
40
1
40
1
41
1
10
44.2391773050272
20
17.8081153800127
30
0
41
1
10
44.2684882487249
20
17.8274362267517
30
0
41
1
10
44.2990569684675
20
17.8443762139123
30
0
41
1
10
44.361393729499
20
17.8720015481374
30
0
41
1
10
44.3932356404081
20
17.8827900813571
30
0
41
1
10
44.4423829534703
20
17.8935030545077
30
0
41
1
10
44.4590628851059
20
17.8961474559322
30
0
41
1
10
44.4921540540393
20
17.8992633213326
30
0
41
1
10
44.5086529272732
20
17.8997613362964
30
0
41
1
10
44.5580389806196
20
17.8978531297708
30
0
41
1
10
44.5911396276603
20
17.8918335508208
30
0
41
1
10
44.6376435447562
20
17.8759232811036
30
0
41
1
10
44.652733930401
20
17.869486862813
30
0
41
1
10
44.6820949220853
20
17.8543719436323
30
0
41
1
10
44.6964631011487
20
17.8456209662527
30
0
41
1
10
44.7375556366718
20
17.8165246757857
30
0
41
1
10
44.7620391641603
20
17.7936537808301
30
0
41
1
10
44.794954192365
20
17.7550143867972
30
0
41
1
10
44.8053296811802
20
17.7413273412683
30
0
41
1
10
44.8244629994566
20
17.7131157650905
30
0
41
1
10
44.8332591981831
20
17.698562065024
30
0
41
1
10
44.8575178183965
20
17.6536970980835
30
0
41
1
10
44.8708709319592
20
17.6221952423355
30
0
41
1
10
44.8815660642786
20
17.5892638884502
30
0
0
SPLINE
5
384
100
AcDbEntity
8
1
62
256
6
ByLayer
370
18
48
1
60
0
100
AcDbSpline
70
4
71
3
72
20
73
16
40
0
40
0
40
0
40
0
40
0.125000000000009
40
0.125000000000009
40
0.250000000000018
40
0.250000000000018
40
0.375000000000027
40
0.375000000000027
40
0.500000000000036
40
0.500000000000036
40
0.625000000000045
40
0.625000000000045
40
0.750000000000054
40
0.750000000000054
40
1
40
1
40
1
40
1
41
1
10
45.1140346536132
20
17.4256850517207
30
0
41
1
10
45.1009904631045
20
17.4247120027403
30
0
41
1
10
45.0879685548947
20
17.4249051630067
30
0
41
1
10
45.0619690022533
20
17.4276309650983
30
0
41
1
10
45.0489929994873
20
17.430199049759
30
0
41
1
10
45.0242299503524
20
17.4374219555608
30
0
41
1
10
45.0122883397335
20
17.4420856631388
30
0
41
1
10
44.9892607772262
20
17.4534718901555
30
0
41
1
10
44.9781358120014
20
17.4602528378167
30
0
41
1
10
44.9576303913638
20
17.4752670224219
30
0
41
1
10
44.9481225031476
20
17.4835512535383
30
0
41
1
10
44.9305114825045
20
17.5015982649908
30
0
41
1
10
44.9223472982519
20
17.5114564235299
30
0
41
1
10
44.9005035181269
20
17.5425342625344
30
0
41
1
10
44.8894296513841
20
17.5650511380094
30
0
41
1
10
44.8815660642786
20
17.5892638884502
30
0
0
SPLINE
5
385
100
AcDbEntity
8
1
62
256
6
ByLayer
370
18
48
1
60
0
100
AcDbSpline
70
4
71
3
72
20
73
16
40
0
40
0
40
0
40
0
40
0.124999999999999
40
0.124999999999999
40
0.249999999999998
40
0.249999999999998
40
0.374999999999997
40
0.374999999999997
40
0.499999999999995
40
0.499999999999995
40
0.624999999999994
40
0.624999999999994
40
0.749999999999993
40
0.749999999999993
40
1
40
1
40
1
40
1
41
1
10
46.2113312895632
20
17.9752923583532
30
0
41
1
10
46.2050608422877
20
17.9665912104067
30
0
41
1
10
46.1978243262017
20
17.9586390386752
30
0
41
1
10
46.1814166422241
20
17.9442389556646
30
0
41
1
10
46.172216790924
20
17.9378144948428
30
0
41
1
10
46.1527261583103
20
17.92702584843
30
0
41
1
10
46.142343921254
20
17.922571414621
30
0
41
1
10
46.1203460216436
20
17.915507207184
30
0
41
1
10
46.1086609185934
20
17.912910506219
30
0
41
1
10
46.0850637595477
20
17.9097389818106
30
0
41
1
10
46.0730397992559
20
17.9091173523472
30
0
41
1
10
46.0485772271638
20
17.9097126491924
30
0
41
1
10
46.0360272337862
20
17.9109528680004
30
0
41
1
10
45.9986698606509
20
17.9173287419911
30
0
41
1
10
45.9742977852951
20
17.9249591324747
30
0
41
1
10
45.9504612706418
20
17.9357709150062
30
0
0
SPLINE
5
386
100
AcDbEntity
8
1
62
256
6
ByLayer
370
18
48
1
60
0
100
AcDbSpline
70
4
71
3
72
16
73
12
40
0
40
0
40
0
40
0
40
0.125
40
0.125
40
0.25
40
0.25
40
0.5
40
0.5
40
0.75
40
0.75
40
1
40
1
40
1
40
1
41
1
10
45.9952660200773
20
18.5866216552091
30
0
41
1
10
45.9956754669854
20
18.5985701829602
30
0
41
1
10
45.996969976972
20
18.6099560283513
30
0
41
1
10
46.0012765799911
20
18.631659227354
30
0
41
1
10
46.0043068301979
20
18.6419930603984
30
0
41
1
10
46.015667380635
20
18.6708751503059
30
0
41
1
10
46.026270763189
20
18.68757128762
30
0
41
1
10
46.0529637162471
20
18.7168312637339
30
0
41
1
10
46.0689518815672
20
18.7291966248549
30
0
41
1
10
46.1047514493965
20
18.7497246720384
30
0
41
1
10
46.1246881949864
20
18.7580123919577
30
0
41
1
10
46.1466037743814
20
18.7645807583713
30
0
0
SPLINE
5
387
100
AcDbEntity
8
1
62
256
6
ByLayer
370
18
48
1
60
0
100
AcDbSpline
70
4
71
3
72
14
73
10
40
0
40
0
40
0
40
0
40
0.25
40
0.25
40
0.5
40
0.5
40
0.75
40
0.75
40
1
40
1
40
1
40
1
41
1
10
46.163197372334
20
18.2316049884069
30
0
41
1
10
46.1402938422449
20
18.2564134265764
30
0
41
1
10
46.1191771602801
20
18.2822107217879
30
0
41
1
10
46.0807208583823
20
18.3357782876214
30
0
41
1
10
46.0636446469908
20
18.3632068394943
30
0
41
1
10
46.0345142362954
20
18.4185412390063
30
0
41
1
10
46.0223077766134
20
18.4468746960771
30
0
41
1
10
46.0044518569226
20
18.5015580212347
30
0
41
1
10
45.9986500700196
20
18.5280652441655
30
0
41
1
10
45.9962958932492
20
18.5535427865781
30
0
0
SPLINE
5
388
100
AcDbEntity
8
1
62
256
6
ByLayer
370
18
48
1
60
0
100
AcDbSpline
70
4
71
3
72
18
73
14
40
0
40
0
40
0
40
0
40
0.250000000000001
40
0.250000000000001
40
0.500000000000002
40
0.500000000000002
40
0.625000000000001
40
0.625000000000001
40
0.750000000000001
40
0.750000000000001
40
0.875
40
0.875
40
1
40
1
40
1
40
1
41
1
10
46.163197372334
20
18.2316049884069
30
0
41
1
10
46.1809416986569
20
18.21238484982
30
0
41
1
10
46.1961653741156
20
18.1917645288099
30
0
41
1
10
46.2206057635584
20
18.1478413300753
30
0
41
1
10
46.2294637118254
20
18.1251466944461
30
0
41
1
10
46.2367756050783
20
18.0905851228487
30
0
41
1
10
46.2381680357314
20
18.0791880298032
30
0
41
1
10
46.2388008735387
20
18.0566303478305
30
0
41
1
10
46.238016127147
20
18.0453618549433
30
0
41
1
10
46.23419001082
20
18.0237310626879
30
0
41
1
10
46.2311774429173
20
18.0133578237477
30
0
41
1
10
46.2229074333017
20
17.9935033957646
30
0
41
1
10
46.2175872158144
20
17.9839733562887
30
0
41
1
10
46.2113312895632
20
17.9752923583532
30
0
0
SPLINE
5
389
100
AcDbEntity
8
1
62
256
6
ByLayer
370
18
48
1
60
0
100
AcDbSpline
70
4
71
3
72
20
73
16
40
0
40
0
40
0
40
0
40
0.124999999999999
40
0.124999999999999
40
0.249999999999997
40
0.249999999999997
40
0.374999999999996
40
0.374999999999996
40
0.499999999999994
40
0.499999999999994
40
0.624999999999993
40
0.624999999999993
40
0.749999999999991
40
0.749999999999991
40
1
40
1
40
1
40
1
41
1
10
46.182236317245
20
18.9098042898716
30
0
41
1
10
46.1890272235836
20
18.9020665789605
30
0
41
1
10
46.194782044787
20
18.8942705743533
30
0
41
1
10
46.2042182346565
20
18.8785666655552
30
0
41
1
10
46.2078695132985
20
18.8706543717039
30
0
41
1
10
46.2128073669527
20
18.8554329751478
30
0
41
1
10
46.214156812432
20
18.8480307917467
30
0
41
1
10
46.2146828586284
20
18.8336537110288
30
0
41
1
10
46.2138264388127
20
18.8266512781095
30
0
41
1
10
46.2100819149827
20
18.8136637166483
30
0
41
1
10
46.2072073573188
20
18.8075998547045
30
0
41
1
10
46.1995763671096
20
18.7963126945424
30
0
41
1
10
46.194765720858
20
18.7910497083337
30
0
41
1
10
46.1779079000792
20
18.7769169680768
30
0
41
1
10
46.1636342320987
20
18.7696849942421
30
0
41
1
10
46.1466037743814
20
18.7645807583713
30
0
0
SPLINE
5
38A
100
AcDbEntity
8
1
62
256
6
ByLayer
370
18
48
1
60
0
100
AcDbSpline
70
4
71
3
72
20
73
16
40
0
40
0
40
0
40
0
40
0.124999999999996
40
0.124999999999996
40
0.249999999999993
40
0.249999999999993
40
0.374999999999989
40
0.374999999999989
40
0.499999999999985
40
0.499999999999985
40
0.624999999999982
40
0.624999999999982
40
0.749999999999978
40
0.749999999999978
40
1
40
1
40
1
40
1
41
1
10
43.9876795845417
20
17.8094160609388
30
0
41
1
10
43.9808886782031
20
17.8171537718499
30
0
41
1
10
43.9750455251439
20
17.8256687418158
30
0
41
1
10
43.9652548279322
20
17.8442581158382
30
0
41
1
10
43.9613345614154
20
17.8543598006165
30
0
41
1
10
43.9557043340388
20
17.8752166807334
30
0
41
1
10
43.9539299856189
20
17.8860773049429
30
0
41
1
10
43.9523968113969
20
17.9086517698874
30
0
41
1
10
43.9526660625514
20
17.920433383803
30
0
41
1
10
43.9551266136876
20
17.9438716697399
30
0
41
1
10
43.9572998151934
20
17.9556441265813
30
0
41
1
10
43.9634105884031
20
17.9793048902342
30
0
41
1
10
43.9673944378897
20
17.9912974784269
30
0
41
1
10
43.981647750122
20
18.0266292685902
30
0
41
1
10
43.9940371850412
20
18.0491977060955
30
0
41
1
10
44.0090269679578
20
18.070911742306
30
0
0
SPLINE
5
38B
100
AcDbEntity
8
1
62
256
6
ByLayer
370
18
48
1
60
0
100
AcDbSpline
70
4
71
3
72
16
73
12
40
0
40
0
40
0
40
0
40
0.125000000000005
40
0.125000000000005
40
0.250000000000009
40
0.250000000000009
40
0.500000000000006
40
0.500000000000006
40
0.750000000000003
40
0.750000000000003
40
1
40
1
40
1
40
1
41
1
10
44.1399460546176
20
18.4150658671743
30
0
41
1
10
44.1396491634642
20
18.4022012068709
30
0
41
1
10
44.1385921879263
20
18.3888819815194
30
0
41
1
10
44.1349979535715
20
18.3613805527939
30
0
41
1
10
44.1324450859581
20
18.3471611278073
30
0
41
1
10
44.1228121864513
20
18.3042170535987
30
0
41
1
10
44.1137566989037
20
18.2749220313486
30
0
41
1
10
44.0907805875817
20
18.2154093177023
30
0
41
1
10
44.0769445909024
20
18.1855266670015
30
0
41
1
10
44.0457662448964
20
18.1273848011977
30
0
41
1
10
44.0283165127886
20
18.0988543667767
30
0
41
1
10
44.0090269679578
20
18.070911742306
30
0
0
SPLINE
5
38C
100
AcDbEntity
8
1
62
256
6
ByLayer
370
18
48
1
60
0
100
AcDbSpline
70
4
71
3
72
14
73
10
40
0
40
0
40
0
40
0
40
0.25
40
0.25
40
0.5
40
0.5
40
0.75
40
0.75
40
1
40
1
40
1
40
1
41
1
10
43.9924333700054
20
18.6038875122704
30
0
41
1
10
44.0127095514061
20
18.6004640282953
30
0
41
1
10
44.0313248942475
20
18.5950260492321
30
0
41
1
10
44.0651139465522
20
18.5794469389108
30
0
41
1
10
44.0800559438277
20
18.5693895381588
30
0
41
1
10
44.1054948240001
20
18.5441018589368
30
0
41
1
10
44.1161251618756
20
18.5285970350751
30
0
41
1
10
44.1317039574383
20
18.4924480580197
30
0
41
1
10
44.1367868368557
20
18.4717922866756
30
0
41
1
10
44.1389161814456
20
18.4481447358054
30
0
0
SPLINE
5
38D
100
AcDbEntity
8
1
62
256
6
ByLayer
370
18
48
1
60
0
100
AcDbSpline
70
4
71
3
72
18
73
14
40
0
40
0
40
0
40
0
40
0.249999999999981
40
0.249999999999981
40
0.499999999999962
40
0.499999999999962
40
0.624999999999972
40
0.624999999999972
40
0.749999999999981
40
0.749999999999981
40
0.874999999999991
40
0.874999999999991
40
1
40
1
40
1
40
1
41
1
10
43.9924333700052
20
18.6038875122704
30
0
41
1
10
43.9767245610155
20
18.6065398290346
30
0
41
1
10
43.9633954323093
20
18.6117397394619
30
0
41
1
10
43.9424306538131
20
18.6273736664986
30
0
41
1
10
43.9351044739992
20
18.637600677122
30
0
41
1
10
43.9297292805935
20
18.6563987386435
30
0
41
1
10
43.9289102230536
20
18.6631289377147
30
0
41
1
10
43.9292812933174
20
18.6775154438514
30
0
41
1
10
43.9304996515215
20
18.6852546112291
30
0
41
1
10
43.9350191680942
20
18.7012415646757
30
0
41
1
10
43.9382937441471
20
18.7094822232253
30
0
41
1
10
43.9469179222785
20
18.7264539438163
30
0
41
1
10
43.9523286859723
20
18.7352469945217
30
0
41
1
10
43.9585846122234
20
18.7439279924571
30
0
0
SPLINE
5
38E
100
AcDbEntity
8
1
62
256
6
ByLayer
370
18
48
1
60
0
100
AcDbSpline
70
4
71
3
72
18
73
14
40
0
40
0
40
0
40
0
40
0.250000000000011
40
0.250000000000011
40
0.500000000000021
40
0.500000000000021
40
0.625000000000016
40
0.625000000000016
40
0.750000000000011
40
0.750000000000011
40
0.875000000000005
40
0.875000000000005
40
1
40
1
40
1
40
1
41
1
10
44.8310148168645
20
19.2129376745914
30
0
41
1
10
44.8378401717343
20
19.2214921439486
30
0
41
1
10
44.8479935216221
20
19.2301890594084
30
0
41
1
10
44.8753393600504
20
19.2473852591259
30
0
41
1
10
44.8921788623231
20
19.2556492258388
30
0
41
1
10
44.9220970924074
20
19.2669637925997
30
0
41
1
10
44.9326697489064
20
19.2704862190384
30
0
41
1
10
44.9550479740054
20
19.2769888509979
30
0
41
1
10
44.966979678058
20
19.2799937721759
30
0
41
1
10
44.9914501460034
20
19.2852213082383
30
0
41
1
10
45.0039823666032
20
19.287453997709
30
0
41
1
10
45.029653322968
20
19.2911268194966
30
0
41
1
10
45.0428832607243
20
19.2925656966888
30
0
41
1
10
45.0558812481735
20
19.2935352990896
30
0
0
SPLINE
5
38F
100
AcDbEntity
8
1
62
256
6
ByLayer
370
18
48
1
60
0
100
AcDbSpline
70
4
71
3
72
20
73
16
40
0
40
0
40
0
40
0
40
0.125000000000007
40
0.125000000000007
40
0.250000000000014
40
0.250000000000014
40
0.375000000000022
40
0.375000000000022
40
0.500000000000029
40
0.500000000000029
40
0.625000000000036
40
0.625000000000036
40
0.750000000000044
40
0.750000000000044
40
1
40
1
40
1
40
1
41
1
10
43.9585846122234
20
18.7439279924571
30
0
41
1
10
43.9648550594991
20
18.7526291404037
30
0
41
1
10
43.9720034753414
20
18.7612983923175
30
0
41
1
10
43.9880574474448
20
18.7785774659476
30
0
41
1
10
43.9969889856027
20
18.7871858257996
30
0
41
1
10
44.0157889318654
20
18.8035962216384
30
0
41
1
10
44.0257472575535
20
18.8115010254837
30
0
41
1
10
44.0467402245432
20
18.8267447479421
30
0
41
1
10
44.0578395051061
20
18.8341096729021
30
0
41
1
10
44.0801555996278
20
18.8477082511263
30
0
41
1
10
44.091479717846
20
18.854026151797
30
0
41
1
10
44.1144251867485
20
18.8657791140018
30
0
41
1
10
44.1261499712679
20
18.8712555726229
30
0
41
1
10
44.1609081601858
20
18.8860354118727
30
0
41
1
10
44.1833995089193
20
18.8937129448665
30
0
41
1
10
44.2051988163405
20
18.8994827388641
30
0
0
SPLINE
5
390
100
AcDbEntity
8
1
62
256
6
ByLayer
370
18
48
1
60
0
100
AcDbSpline
70
4
71
3
72
28
73
24
40
0
40
0
40
0
40
0
40
0.125000000000026
40
0.125000000000026
40
0.250000000000052
40
0.250000000000052
40
0.312500000000054
40
0.312500000000054
40
0.375000000000055
40
0.375000000000055
40
0.500000000000052
40
0.500000000000052
40
0.562500000000052
40
0.562500000000052
40
0.625000000000052
40
0.625000000000052
40
0.750000000000031
40
0.750000000000031
40
0.812500000000019
40
0.812500000000019
40
0.875000000000007
40
0.875000000000007
40
1
40
1
40
1
40
1
41
1
10
44.8310148168645
20
19.2129376745914
30
0
41
1
10
44.8217021133862
20
19.2012657193514
30
0
41
1
10
44.8095051870344
20
19.1891742114204
30
0
41
1
10
44.7796458407012
20
19.1643307551433
30
0
41
1
10
44.7619979175997
20
19.1515521333691
30
0
41
1
10
44.7308498576988
20
19.1313048814283
30
0
41
1
10
44.7196274431183
20
19.1243444833787
30
0
41
1
10
44.6960243501048
20
19.1102861241594
30
0
41
1
10
44.6835930933443
20
19.1031526543966
30
0
41
1
10
44.6443243800724
20
19.0813250780753
30
0
41
1
10
44.6151475206694
20
19.0660196786797
30
0
41
1
10
44.5698039601758
20
19.0433173717805
30
0
41
1
10
44.5543439353026
20
19.0357480110034
30
0
41
1
10
44.5227331952233
20
19.020620194476
30
0
41
1
10
44.5064640855836
20
19.013008227201
30
0
41
1
10
44.4574808212885
20
18.9906601668064
30
0
41
1
10
44.4249571924459
20
18.9765586385839
30
0
41
1
10
44.3761780198066
20
18.9567683796774
30
0
41
1
10
44.3598361946096
20
18.9503713936435
30
0
41
1
10
44.3277421582385
20
18.9383152336348
30
0
41
1
10
44.3119433637416
20
18.9326345432212
30
0
41
1
10
44.2651825800589
20
18.9166276778391
30
0
41
1
10
44.2348476745201
20
18.907330135144
30
0
41
1
10
44.2051988163405
20
18.8994827388641
30
0
0
SPLINE
5
391
100
AcDbEntity
8
1
62
256
6
ByLayer
370
18
48
1
60
0
100
AcDbSpline
70
4
71
3
72
20
73
16
40
0
40
0
40
0
40
0
40
0.125000000000003
40
0.125000000000003
40
0.250000000000007
40
0.250000000000007
40
0.37500000000001
40
0.37500000000001
40
0.500000000000014
40
0.500000000000014
40
0.625000000000017
40
0.625000000000017
40
0.750000000000021
40
0.750000000000021
40
1
40
1
40
1
40
1
41
1
10
45.0558812481735
20
19.2935352990896
30
0
41
1
10
45.0689254386822
20
19.2945083480701
30
0
41
1
10
45.0818592465813
20
19.2950322685318
30
0
41
1
10
45.1075050875333
20
19.2951854555556
30
0
41
1
10
45.1202127770118
20
19.2948012711079
30
0
41
1
10
45.1442851394944
20
19.2932001171847
30
0
41
1
10
45.1558028386894
20
19.2919867800964
30
0
41
1
10
45.1778254690475
20
19.2887800642641
30
0
41
1
10
45.188364611585
20
19.2867673422247
30
0
41
1
10
45.2075889670066
20
19.2821802170678
30
0
41
1
10
45.2163970130115
20
19.2795922582801
30
0
41
1
10
45.2324909308568
20
19.2738935026881
30
0
41
1
10
45.2398299070874
20
19.2707520147723
30
0
41
1
10
45.2590745012154
20
19.2608299034926
30
0
41
1
10
45.2682676412535
20
19.2536209521654
30
0
41
1
10
45.2740940227037
20
19.2459897654202
30
0
0
SPLINE
5
392
100
AcDbEntity
8
1
62
256
6
ByLayer
370
18
48
1
60
0
100
AcDbSpline
70
4
71
3
72
28
73
24
40
0
40
0
40
0
40
0
40
0.125000000000037
40
0.125000000000037
40
0.250000000000074
40
0.250000000000074
40
0.31250000000008
40
0.31250000000008
40
0.375000000000087
40
0.375000000000087
40
0.500000000000098
40
0.500000000000098
40
0.562500000000089
40
0.562500000000089
40
0.62500000000008
40
0.62500000000008
40
0.750000000000051
40
0.750000000000051
40
0.812500000000038
40
0.812500000000038
40
0.875000000000026
40
0.875000000000026
40
1
40
1
40
1
40
1
41
1
10
45.9164827819528
20
19.0271382738562
30
0
41
1
10
45.8843992794438
20
19.0303842997401
30
0
41
1
10
45.8511756279352
20
19.0350537755552
30
0
41
1
10
45.7840004574957
20
19.0468100293278
30
0
41
1
10
45.7499633158237
20
19.0538892840868
30
0
41
1
10
45.6979878690788
20
19.0661955278114
30
0
41
1
10
45.6804418608265
20
19.0706004414851
30
0
41
1
10
45.6458446501869
20
19.0797428016676
30
0
41
1
10
45.6287000774638
20
19.0845003715681
30
0
41
1
10
45.5777336579652
20
19.099271757591
30
0
41
1
10
45.544067687588
20
19.109892710433
30
0
41
1
10
45.4975709569546
20
19.1257444868986
30
0
41
1
10
45.482619409009
20
19.1310508542563
30
0
41
1
10
45.4538041882814
20
19.1417235435345
30
0
41
1
10
45.4398470859553
20
19.1471286166448
30
0
41
1
10
45.4003538026158
20
19.1632080072842
30
0
41
1
10
45.3773993197538
20
19.1736334474578
30
0
41
1
10
45.3473091003274
20
19.1892806872341
30
0
41
1
10
45.3379708833567
20
19.1945249969437
30
0
41
1
10
45.3210302043245
20
19.2048898784635
30
0
41
1
10
45.3133911403247
20
19.2100252347689
30
0
41
1
10
45.2927557691237
20
19.225399249669
30
0
41
1
10
45.2820183859383
20
19.235610716915
30
0
41
1
10
45.2740940227036
20
19.2459897654202
30
0
0
SPLINE
5
393
100
AcDbEntity
8
1
62
256
6
ByLayer
370
18
48
1
60
0
100
AcDbSpline
70
4
71
3
72
18
73
14
40
0
40
0
40
0
40
0
40
0.249999999999999
40
0.249999999999999
40
0.499999999999998
40
0.499999999999998
40
0.624999999999998
40
0.624999999999998
40
0.749999999999999
40
0.749999999999999
40
0.874999999999999
40
0.874999999999999
40
1
40
1
40
1
40
1
41
1
10
45.9164827819528
20
19.0271382738562
30
0
41
1
10
45.9399971624649
20
19.0247592228854
30
0
41
1
10
45.9643878011145
20
19.0205519564469
30
0
41
1
10
46.0143838409372
20
19.0080022935276
30
0
41
1
10
46.0392875179421
20
18.9998250056909
30
0
41
1
10
46.0755364019947
20
18.9844970561072
30
0
41
1
10
46.0872119302975
20
18.9789687854394
30
0
41
1
10
46.1097181899772
20
18.967026725208
30
0
41
1
10
46.1206485739195
20
18.9605426118294
30
0
41
1
10
46.1409591666319
20
18.9469884660727
30
0
41
1
10
46.1503556381711
20
18.9399278718618
30
0
41
1
10
46.1675988156724
20
18.9252155464184
30
0
41
1
10
46.1754776535889
20
18.9175052627476
30
0
41
1
10
46.182236317245
20
18.9098042898716
30
0
0
SPLINE
5
394
100
AcDbEntity
8
1
62
256
6
ByLayer
370
18
48
1
60
0
100
AcDbSpline
70
4
71
3
72
14
73
10
40
0
40
0
40
0
40
0
40
0.0467519322289664
40
0.0467519322289664
40
0.364501288152644
40
0.364501288152644
40
0.682250644076322
40
0.682250644076322
40
1
40
1
40
1
40
1
41
1
10
50.3040114729952
20
-14.4745922531015
30
0
41
1
10
50.306777277814
20
-14.4739314085244
30
0
41
1
10
50.3094931566693
20
-14.4732565390937
30
0
41
1
10
50.3302777177629
20
-14.4678854275945
30
0
41
1
10
50.3460196572519
20
-14.4625357005014
30
0
41
1
10
50.3714502477938
20
-14.4509678958888
30
0
41
1
10
50.3813581382701
20
-14.4447019387158
30
0
41
1
10
50.3953498961548
20
-14.4311699909337
30
0
41
1
10
50.3993047214492
20
-14.4239940841915
30
0
41
1
10
50.4001010207843
20
-14.4165137444036
30
0
0
SPLINE
5
395
100
AcDbEntity
8
1
62
256
6
ByLayer
370
18
48
1
60
0
100
AcDbSpline
70
4
71
3
72
29
73
25
40
0
40
0
40
0
40
0
40
0.124999999999994
40
0.124999999999994
40
0.187499999999991
40
0.187499999999991
40
0.249999999999989
40
0.249999999999989
40
0.375000000000004
40
0.375000000000004
40
0.437500000000011
40
0.437500000000011
40
0.500000000000018
40
0.500000000000018
40
0.62500000000001
40
0.62500000000001
40
0.687500000000005
40
0.687500000000005
40
0.75
40
0.812499999999995
40
0.812499999999995
40
0.87499999999999
40
0.87499999999999
40
1
40
1
40
1
40
1
41
1
10
50.7999117529387
20
-18.5788552639065
30
0
41
1
10
50.7999093887479
20
-18.6031905819227
30
0
41
1
10
50.7951055797821
20
-18.626797305589
30
0
41
1
10
50.7808571514853
20
-18.661138695624
30
0
41
1
10
50.7749258314558
20
-18.6724064869462
30
0
41
1
10
50.760626093791
20
-18.6945722526657
30
0
41
1
10
50.7522634213454
20
-18.7054359374588
30
0
41
1
10
50.7240322571648
20
-18.7367914130258
30
0
41
1
10
50.7009140420443
20
-18.7562852700429
30
0
41
1
10
50.6597202454047
20
-18.7833882982384
30
0
41
1
10
50.6448159092638
20
-18.7921040379812
30
0
41
1
10
50.6131010246654
20
-18.808586218765
30
0
41
1
10
50.5963852898698
20
-18.8163140715752
30
0
41
1
10
50.5437289287946
20
-18.8379972166656
30
0
41
1
10
50.5053029671425
20
-18.850466340161
30
0
41
1
10
50.4425113386557
20
-18.86608884723
30
0
41
1
10
50.4207676111635
20
-18.8707566052277
30
0
41
1
10
50.3765248638688
20
-18.8788486971044
30
0
41
1
10
50.3312990674668
20
-18.885757050582
30
0
41
1
10
50.2841346010649
20
-18.8903309549408
30
0
41
1
10
50.2359868401667
20
-18.8937208254155
30
0
41
1
10
50.2113001161001
20
-18.8948241710797
30
0
41
1
10
50.1368045356571
20
-18.8962708999923
30
0
41
1
10
50.0865590430891
20
-18.8948002102775
30
0
41
1
10
50.0357312752212
20
-18.8908922393411
30
0
0
SPLINE
5
396
100
AcDbEntity
8
1
62
256
6
ByLayer
370
18
48
1
60
0
100
AcDbSpline
70
4
71
3
72
28
73
24
40
0
40
0
40
0
40
0
40
0.125000000000006
40
0.125000000000006
40
0.18750000000001
40
0.18750000000001
40
0.250000000000013
40
0.250000000000013
40
0.375000000000004
40
0.375000000000004
40
0.437499999999997
40
0.437499999999997
40
0.49999999999999
40
0.49999999999999
40
0.625
40
0.625
40
0.750000000000011
40
0.750000000000011
40
0.812500000000008
40
0.812500000000008
40
0.875000000000005
40
0.875000000000005
40
1
40
1
40
1
40
1
41
1
10
43.0965572167456
20
39.9611504181817
30
0
41
1
10
43.0457397150519
20
39.9610340366394
30
0
41
1
10
42.9957286013914
20
39.9559092433828
30
0
41
1
10
42.9218888552422
20
39.9409122703617
30
0
41
1
10
42.8974731514921
20
39.9346863433416
30
0
41
1
10
42.8490484878496
20
39.9197082356572
30
0
41
1
10
42.8251307677504
20
39.9109681431807
30
0
41
1
10
42.7555297910205
20
39.8815292034262
30
0
41
1
10
42.711478924263
20
39.8574963043389
30
0
41
1
10
42.6489376455643
20
39.8148171454347
30
0
41
1
10
42.6285758779391
20
39.7993806602958
30
0
41
1
10
42.5897706391077
20
39.7667780030291
30
0
41
1
10
42.5713034933545
20
39.7496175366304
30
0
41
1
10
42.5186306163252
20
39.6956302313549
30
0
41
1
10
42.4871278202702
20
39.6563210203723
30
0
41
1
10
42.4315593941301
20
39.57087231509
30
0
41
1
10
42.4083554038826
20
39.5260390996334
30
0
41
1
10
42.3801920264975
20
39.4560053076375
30
0
41
1
10
42.371911675835
20
39.4321811115543
30
0
41
1
10
42.3575989430194
20
39.3835591938347
30
0
41
1
10
42.3515640389088
20
39.3586934739446
30
0
41
1
10
42.3371820610252
20
39.2839609011197
30
0
41
1
10
42.332379102995
20
39.2335617097418
30
0
41
1
10
42.3323767390281
20
39.1825831635349
30
0
0
SPLINE
5
397
100
AcDbEntity
8
1
62
256
6
ByLayer
370
18
48
1
60
0
100
AcDbSpline
70
4
71
3
72
10
73
6
40
0
40
0
40
0
40
0
40
0.710985745338792
40
0.710985745338792
40
1
40
1
40
1
40
1
41
1
10
40.9805214835458
20
-31.532371374536
30
0
41
1
10
40.9827463559834
20
-31.4888834604559
30
0
41
1
10
40.9897398474279
20
-31.4460268533034
30
0
41
1
10
41.0061347410396
20
-31.3866173963413
30
0
41
1
10
41.0116489128811
20
-31.3695499247028
30
0
41
1
10
41.0179584874821
20
-31.352587754677
30
0
0
SPLINE
5
398
100
AcDbEntity
8
1
62
256
6
ByLayer
370
18
48
1
60
0
100
AcDbSpline
70
4
71
3
72
29
73
25
40
0
40
0
40
0
40
0
40
0.124999999999999
40
0.124999999999999
40
0.187499999999999
40
0.187499999999999
40
0.249999999999998
40
0.249999999999998
40
0.375000000000004
40
0.375000000000004
40
0.437500000000006
40
0.437500000000006
40
0.500000000000009
40
0.500000000000009
40
0.625000000000003
40
0.625000000000003
40
0.6875
40
0.6875
40
0.749999999999996
40
0.812499999999993
40
0.812499999999993
40
0.87499999999999
40
0.87499999999999
40
1
40
1
40
1
40
1
41
1
10
50.7999117529387
20
39.2019753955635
30
0
41
1
10
50.7999093887479
20
39.2529587580524
30
0
41
1
10
50.7951055797821
20
39.3031781155647
30
0
41
1
10
50.7808571514853
20
39.3773865163885
30
0
41
1
10
50.7749258314559
20
39.401934595215
30
0
41
1
10
50.760626093791
20
39.4506429623627
30
0
41
1
10
50.7522634213454
20
39.474730500994
30
0
41
1
10
50.7240322571649
20
39.5449036502095
30
0
41
1
10
50.7009140420443
20
39.5894145884959
30
0
41
1
10
50.6597202454046
20
39.6527370929976
30
0
41
1
10
50.6448159092638
20
39.6733633850646
30
0
41
1
10
50.6131010246654
20
39.7129298539957
30
0
41
1
10
50.5963852898699
20
39.7317741323944
30
0
41
1
10
50.5437289287946
20
39.7855619967268
30
0
41
1
10
50.5053029671425
20
39.8177866718744
30
0
41
1
10
50.4425113386557
20
39.8604867417021
30
0
41
1
10
50.4207676111635
20
39.873718447394
30
0
41
1
10
50.3765248638688
20
39.8976967917763
30
0
41
1
10
50.3312990674669
20
39.9193512771541
30
0
41
1
10
50.2841346010649
20
39.9364228828947
30
0
41
1
10
50.2359868401667
20
39.9511700495491
30
0
41
1
10
50.2113001161001
20
39.95740155329
30
0
41
1
10
50.1368045356571
20
39.9722615340155
30
0
41
1
10
50.0865590430891
20
39.9771588240606
30
0
41
1
10
50.0357312752212
20
39.9770424190069
30
0
0
SPLINE
5
399
100
AcDbEntity
8
1
62
256
6
ByLayer
370
18
48
1
60
0
100
AcDbSpline
70
4
71
3
72
20
73
16
40
0
40
0
40
0
40
0
40
0.0284031781370438
40
0.0284031781370438
40
0.136358380566253
40
0.136358380566253
40
0.352268785424684
40
0.352268785424684
40
0.568179190283115
40
0.568179190283115
40
0.67613439271233
40
0.67613439271233
40
0.784089595141545
40
0.784089595141545
40
1
40
1
40
1
40
1
41
1
10
50.3004759409057
20
31.0092438558544
30
0
41
1
10
50.3058859089472
20
31.012796482092
30
0
41
1
10
50.311241001576
20
31.0164055175147
30
0
41
1
10
50.3366436190897
20
31.0339768727437
30
0
41
1
10
50.3558569941066
20
31.0486206641032
30
0
41
1
10
50.4108780708213
20
31.0946886129263
30
0
41
1
10
50.4440913207218
20
31.1282292796999
30
0
41
1
10
50.5033791482867
20
31.2011342197075
30
0
41
1
10
50.5285352277713
20
31.2393839701417
30
0
41
1
10
50.5597487632031
20
31.2991310352642
30
0
41
1
10
50.5690668508337
20
31.3194554399944
30
0
41
1
10
50.585497720727
20
31.3609338926004
30
0
41
1
10
50.5926159889302
20
31.3821459426299
30
0
41
1
10
50.6102543337934
20
31.4458963443004
30
0
41
1
10
50.6172538546679
20
31.488887577896
30
0
41
1
10
50.6194785164543
20
31.532371374536
30
0
0
SPLINE
5
39A
100
AcDbEntity
8
1
62
256
6
ByLayer
370
18
48
1
60
0
100
AcDbSpline
70
4
71
3
72
14
73
10
40
0
40
0
40
0
40
0
40
0.465137006853233
40
0.465137006853233
40
0.69770551027985
40
0.69770551027985
40
0.930274013706467
40
0.930274013706467
40
1
40
1
40
1
40
1
41
1
10
42.1519435025437
20
-16.0536121540493
30
0
41
1
10
42.1497233584877
20
-16.0548621046916
30
0
41
1
10
42.1523374849747
20
-16.0564627630799
30
0
41
1
10
42.1633495380869
20
-16.0593781655438
30
0
41
1
10
42.1682101462345
20
-16.0604362907609
30
0
41
1
10
42.1803851217035
20
-16.0627305519919
30
0
41
1
10
42.1876969157724
20
-16.0639644626228
30
0
41
1
10
42.198602005216
20
-16.0656509008966
30
0
41
1
10
42.2012161117195
20
-16.066046066929
30
0
41
1
10
42.2039291638037
20
-16.0664474222788
30
0
0
SPLINE
5
39B
100
AcDbEntity
8
1
62
256
6
ByLayer
370
18
48
1
60
0
100
AcDbSpline
70
4
71
3
72
16
73
12
40
0
40
0
40
0
40
0
40
0.125000000000001
40
0.125000000000001
40
0.250000000000003
40
0.250000000000003
40
0.500000000000002
40
0.500000000000002
40
0.750000000000001
40
0.750000000000001
40
1
40
1
40
1
40
1
41
1
10
49.7954296167081
20
-36.8660541909888
30
0
41
1
10
49.7800707622156
20
-36.8701989075132
30
0
41
1
10
49.7628694815316
20
-36.8758600331316
30
0
41
1
10
49.726079650523
20
-36.8880615364245
30
0
41
1
10
49.7065077756139
20
-36.8946307977238
30
0
41
1
10
49.646886163115
20
-36.9137311361679
30
0
41
1
10
49.6049082249094
20
-36.9259480222442
30
0
41
1
10
49.5193611239375
20
-36.9460571065403
30
0
41
1
10
49.4761006093019
20
-36.9539636360744
30
0
41
1
10
49.3887063862057
20
-36.964645484225
30
0
41
1
10
49.3445721431372
20
-36.9674304126405
30
0
41
1
10
49.3000000000014
20
-36.9674304126406
30
0
0
SPLINE
5
39C
100
AcDbEntity
8
1
62
256
6
ByLayer
370
18
48
1
60
0
100
AcDbSpline
70
4
71
3
72
12
73
8
40
0
40
0
40
0
40
0
40
0.500000000000004
40
0.500000000000004
40
0.750000000000002
40
0.750000000000002
40
1
40
1
40
1
40
1
41
1
10
50.0742908044168
20
-36.7535822265755
30
0
41
1
10
50.0398344965678
20
-36.773853058571
30
0
41
1
10
50.0005253984069
20
-36.7935871485864
30
0
41
1
10
49.931499360469
20
-36.8220753347367
30
0
41
1
10
49.9067593442034
20
-36.831387599502
30
0
41
1
10
49.8539233400707
20
-36.8492674992234
30
0
41
1
10
49.8257579990751
20
-36.8578698210149
30
0
41
1
10
49.7954296167101
20
-36.8660541909892
30
0
0
SPLINE
5
39D
100
AcDbEntity
8
1
62
256
6
ByLayer
370
18
48
1
60
0
100
AcDbSpline
70
4
71
3
72
24
73
20
40
0
40
0
40
0
40
0
40
0.0624999999999921
40
0.0624999999999921
40
0.124999999999984
40
0.124999999999984
40
0.249999999999971
40
0.249999999999971
40
0.312499999999966
40
0.312499999999966
40
0.374999999999962
40
0.374999999999962
40
0.499999999999969
40
0.499999999999969
40
0.624999999999976
40
0.624999999999976
40
0.749999999999983
40
0.749999999999983
40
1
40
1
40
1
40
1
41
1
10
50.3
20
-35.9663166834301
30
0
41
1
10
50.3
20
-35.9856786018958
30
0
41
1
10
50.2993963610542
20
-36.0052782689934
30
0
41
1
10
50.2970632818327
20
-36.0449210101757
30
0
41
1
10
50.2953139929272
20
-36.0651244358914
30
0
41
1
10
50.2886236975336
20
-36.1250767668489
30
0
41
1
10
50.2823367667589
20
-36.1639301676739
30
0
41
1
10
50.2709410608586
20
-36.2210108789507
30
0
41
1
10
50.2668017565952
20
-36.2398503840528
30
0
41
1
10
50.2581181722371
20
-36.2764727965617
30
0
41
1
10
50.2535543155926
20
-36.2943584662958
30
0
41
1
10
50.2393088155437
20
-36.3469539932241
30
0
41
1
10
50.2290789604788
20
-36.3806133262748
30
0
41
1
10
50.2075277379735
20
-36.44584035481
30
0
41
1
10
50.1961919347538
20
-36.477407605509
30
0
41
1
10
50.1730627375067
20
-36.5378442993217
30
0
41
1
10
50.1612135501433
20
-36.566879328121
30
0
41
1
10
50.1249926405943
20
-36.6511846402184
30
0
41
1
10
50.0999567107326
20
-36.7036931523711
30
0
41
1
10
50.0742908044172
20
-36.7535822265771
30
0
0
SPLINE
5
39E
100
AcDbEntity
8
1
62
256
6
ByLayer
370
18
48
1
60
0
100
AcDbSpline
70
4
71
3
72
20
73
16
40
0
40
0
40
0
40
0
40
0.249999999999992
40
0.249999999999992
40
0.499999999999983
40
0.499999999999983
40
0.624999999999988
40
0.624999999999988
40
0.749999999999993
40
0.749999999999993
40
0.874999999999997
40
0.874999999999997
40
0.937499999999999
40
0.937499999999999
40
1
40
1
40
1
40
1
41
1
10
41.5257091955867
20
-36.7535822265824
30
0
41
1
10
41.500100390067
20
-36.7038041442035
30
0
41
1
10
41.4749256005064
20
-36.6510395510306
30
0
41
1
10
41.4262396991241
20
-36.5376306439259
30
0
41
1
10
41.4028766136819
20
-36.4774531063147
30
0
41
1
10
41.3705597239247
20
-36.3794567486648
30
0
41
1
10
41.3603551427466
20
-36.3457968219894
30
0
41
1
10
41.34145266041
20
-36.2758376985493
30
0
41
1
10
41.3327390121371
20
-36.2395269515719
30
0
41
1
10
41.3175298383463
20
-36.1631779079861
30
0
41
1
10
41.311267336959
20
-36.1242954460461
30
0
41
1
10
41.3046294981861
20
-36.0645180293154
30
0
41
1
10
41.3028954996635
20
-36.0443615814234
30
0
41
1
10
41.3005914731454
20
-36.0049273220201
30
0
41
1
10
41.2999999999999
20
-35.9854797737001
30
0
41
1
10
41.2999999999999
20
-35.96631668343
30
0
0
SPLINE
5
39F
100
AcDbEntity
8
1
62
256
6
ByLayer
370
18
48
1
60
0
100
AcDbSpline
70
4
71
3
72
10
73
6
40
0
40
0
40
0
40
0
40
0.5
40
0.5
40
1
40
1
40
1
40
1
41
1
10
41.804570383292
20
-36.8660541909888
30
0
41
1
10
41.7435771109139
20
-36.8495946416112
30
0
41
1
10
41.691838581165
20
-36.8316771609389
30
0
41
1
10
41.6003069062418
20
-36.793960402261
30
0
41
1
10
41.560587568446
20
-36.7741013616985
30
0
41
1
10
41.5257091955779
20
-36.7535822265725
30
0
0
SPLINE
5
3A0
100
AcDbEntity
8
1
62
256
6
ByLayer
370
18
48
1
60
0
100
AcDbSpline
70
4
71
3
72
16
73
12
40
0
40
0
40
0
40
0
40
0.250000000000003
40
0.250000000000003
40
0.500000000000006
40
0.500000000000006
40
0.750000000000008
40
0.750000000000008
40
0.875000000000004
40
0.875000000000004
40
1
40
1
40
1
40
1
41
1
10
42.3
20
-36.9674304126318
30
0
41
1
10
42.2553870737044
20
-36.9674304126318
30
0
41
1
10
42.2112786434776
20
-36.9646406470117
30
0
41
1
10
42.1240662794322
20
-36.9539870364372
30
0
41
1
10
42.0809618237696
20
-36.946113634467
30
0
41
1
10
41.9958793409559
20
-36.9261522852565
30
0
41
1
10
41.9535030134624
20
-36.9138514044485
30
0
41
1
10
41.8936545129466
20
-36.8946849727584
30
0
41
1
10
41.874124800605
20
-36.888129818441
30
0
41
1
10
41.8371751583666
20
-36.8758743664073
30
0
41
1
10
41.8199310689668
20
-36.8701994016733
30
0
41
1
10
41.8045703832921
20
-36.8660541909888
30
0
0
SPLINE
5
3A1
100
AcDbEntity
8
1
62
256
6
ByLayer
370
18
48
1
60
0
100
AcDbSpline
70
4
71
3
72
14
73
10
40
0
40
0
40
0
40
0
40
0.25
40
0.25
40
0.5
40
0.5
40
0.75
40
0.75
40
1
40
1
40
1
40
1
41
1
10
47.2
20
-24.9002642094985
30
0
41
1
10
47.2157306003885
20
-24.9002642094985
30
0
41
1
10
47.2309209286203
20
-24.9054187399154
30
0
41
1
10
47.2568076870683
20
-24.9224696072969
30
0
41
1
10
47.2674229546696
20
-24.9340620603998
30
0
41
1
10
47.2841281829001
20
-24.9601940263882
30
0
41
1
10
47.2900377381453
20
-24.9742910189025
30
0
41
1
10
47.298052214035
20
-25.0040938514794
30
0
41
1
10
47.3000000000039
20
-25.0193722472848
30
0
41
1
10
47.300000000004
20
-25.0348292313346
30
0
0
SPLINE
5
3A2
100
AcDbEntity
8
1
62
256
6
ByLayer
370
18
48
1
60
0
100
AcDbSpline
70
4
71
3
72
66
73
62
40
0
40
0
40
0
40
0
40
0.0625000000000018
40
0.0625000000000018
40
0.125000000000003
40
0.125000000000003
40
0.187500000000005
40
0.187500000000005
40
0.250000000000007
40
0.250000000000007
40
0.312500000000009
40
0.312500000000009
40
0.343750000000009
40
0.343750000000009
40
0.37500000000001
40
0.37500000000001
40
0.406250000000008
40
0.406250000000008
40
0.437500000000007
40
0.437500000000007
40
0.453125000000006
40
0.453125000000006
40
0.468750000000005
40
0.468750000000005
40
0.484375000000004
40
0.484375000000004
40
0.492187500000004
40
0.492187500000004
40
0.500000000000003
40
0.500000000000003
40
0.507812500000003
40
0.507812500000003
40
0.515625000000002
40
0.515625000000002
40
0.523437500000002
40
0.523437500000002
40
0.531250000000001
40
0.531250000000001
40
0.546875000000001
40
0.546875000000001
40
0.562500000000002
40
0.562500000000002
40
0.578125000000002
40
0.578125000000002
40
0.593750000000002
40
0.593750000000002
40
0.625000000000003
40
0.625000000000003
40
0.687500000000003
40
0.687500000000003
40
0.718750000000004
40
0.718750000000004
40
0.750000000000004
40
0.750000000000004
40
0.812500000000003
40
0.812500000000003
40
0.875000000000002
40
0.875000000000002
40
0.937500000000001
40
0.937500000000001
40
1
40
1
40
1
40
1
41
1
10
44.3
20
-28.2641027904002
30
0
41
1
10
44.3
20
-28.4486811704622
30
0
41
1
10
44.308493248983
20
-28.6314228092702
30
0
41
1
10
44.3393568654762
20
-28.9937608265124
30
0
41
1
10
44.3617485698745
20
-29.1733536594811
30
0
41
1
10
44.4188562454943
20
-29.5296683591513
30
0
41
1
10
44.4535734030052
20
-29.7063898592561
30
0
41
1
10
44.5349295556206
20
-30.0570518670456
30
0
41
1
10
44.5815465500809
20
-30.230995524989
30
0
41
1
10
44.6877279110415
20
-30.575970539364
30
0
41
1
10
44.7468305915706
20
-30.7456894344531
30
0
41
1
10
44.8465856123597
20
-30.9950823523018
30
0
41
1
10
44.8817143389933
20
-31.0773605626068
30
0
41
1
10
44.9566016821203
20
-31.239918892587
30
0
41
1
10
44.9962266610734
20
-31.3199270681163
30
0
41
1
10
45.0809190089738
20
-31.4761699418216
30
0
41
1
10
45.1259821822754
20
-31.5525075655214
30
0
41
1
10
45.2242203659138
20
-31.7001144097448
30
0
41
1
10
45.2772328474158
20
-31.7714764360748
30
0
41
1
10
45.3676233881698
20
-31.8720087795228
30
0
41
1
10
45.3997096559311
20
-31.9044622737281
30
0
41
1
10
45.4677435177642
20
-31.9645229559668
30
0
41
1
10
45.5039494494496
20
-31.9924280204693
30
0
41
1
10
45.5821062888871
20
-32.0409843069568
30
0
41
1
10
45.6232686452863
20
-32.0611793512957
30
0
41
1
10
45.6896202273223
20
-32.0824937303126
30
0
41
1
10
45.7125071762193
20
-32.0880315845307
30
0
41
1
10
45.758358137524
20
-32.0952154015719
30
0
41
1
10
45.7815149234269
20
-32.0969323444755
30
0
41
1
10
45.8283212340887
20
-32.0963735983004
30
0
41
1
10
45.8518062539689
20
-32.0940573922275
30
0
41
1
10
45.8974673564871
20
-32.0857883943823
30
0
41
1
10
45.9198662396283
20
-32.0798394247972
30
0
41
1
10
45.9638933065032
20
-32.064697365015
30
0
41
1
10
45.9852886080615
20
-32.0555703853186
30
0
41
1
10
46.0263425039405
20
-32.0351156663393
30
0
41
1
10
46.0461341263556
20
-32.0237406418219
30
0
41
1
10
46.1037180502196
20
-31.9868106509265
30
0
41
1
10
46.1398897598602
20
-31.9583012513204
30
0
41
1
10
46.2071064087941
20
-31.8978034890835
30
0
41
1
10
46.2384448613071
20
-31.8656265032178
30
0
41
1
10
46.2979987946418
20
-31.7985790940942
30
0
41
1
10
46.3261984096497
20
-31.76369553638
30
0
41
1
10
46.3802434849185
20
-31.6918626523581
30
0
41
1
10
46.4060179716011
20
-31.6549832284419
30
0
41
1
10
46.4797940180968
20
-31.5431028634161
30
0
41
1
10
46.524642768292
20
-31.4664459509968
30
0
41
1
10
46.6506938932609
20
-31.2321867965433
30
0
41
1
10
46.7235563893432
20
-31.0703630699107
30
0
41
1
10
46.8225694960224
20
-30.8218524662221
30
0
41
1
10
46.8537740297723
20
-30.7380158550196
30
0
41
1
10
46.913006428474
20
-30.568509543806
30
0
41
1
10
46.9410010388685
20
-30.4829022175863
30
0
41
1
10
47.0199928647669
20
-30.2254230656441
30
0
41
1
10
47.0662830647018
20
-30.0522453644972
30
0
41
1
10
47.1471191549919
20
-29.7029746366898
30
0
41
1
10
47.18164446324
20
-29.5268784612554
30
0
41
1
10
47.2384686998886
20
-29.1716595938735
30
0
41
1
10
47.2607694408688
20
-28.9925374057019
30
0
41
1
10
47.2915240702403
20
-28.6309588564263
30
0
41
1
10
47.3000000000001
20
-28.4485064352804
30
0
41
1
10
47.3000000000001
20
-28.2641027904003
30
0
0
SPLINE
5
3A3
100
AcDbEntity
8
1
62
256
6
ByLayer
370
18
48
1
60
0
100
AcDbSpline
70
4
71
3
72
14
73
10
40
0
40
0
40
0
40
0
40
0.25
40
0.25
40
0.5
40
0.5
40
0.75
40
0.75
40
1
40
1
40
1
40
1
41
1
10
44.3
20
-25.0348292313356
30
0
41
1
10
44.3
20
-25.0193729709082
30
0
41
1
10
44.3019324036759
20
-25.0041899366164
30
0
41
1
10
44.3099210227921
20
-24.974405761667
30
0
41
1
10
44.315880082734
20
-24.9601963864043
30
0
41
1
10
44.3324928929584
20
-24.934178479566
30
0
41
1
10
44.343144079857
20
-24.92250947716
30
0
41
1
10
44.369060088867
20
-24.9054231640167
30
0
41
1
10
44.3842724389651
20
-24.9002642094985
30
0
41
1
10
44.4
20
-24.9002642094985
30
0
0
SPLINE
5
3A4
100
AcDbEntity
8
1
62
256
6
ByLayer
370
18
48
1
60
0
100
AcDbSpline
70
4
71
3
72
28
73
24
40
0
40
0
40
0
40
0
40
0.124999999999995
40
0.124999999999995
40
0.187499999999999
40
0.187499999999999
40
0.250000000000003
40
0.250000000000003
40
0.374999999999995
40
0.374999999999995
40
0.437499999999999
40
0.437499999999999
40
0.500000000000004
40
0.500000000000004
40
0.625000000000004
40
0.625000000000004
40
0.750000000000004
40
0.750000000000004
40
0.812500000000003
40
0.812500000000003
40
0.875000000000002
40
0.875000000000002
40
1
40
1
40
1
40
1
41
1
10
49.3
20
-32.8882574615568
30
0
41
1
10
49.3667912467529
20
-32.8882574615568
30
0
41
1
10
49.432438955049
20
-32.8820692424301
30
0
41
1
10
49.5292662133235
20
-32.863873966475
30
0
41
1
10
49.5612658108713
20
-32.8563116985197
30
0
41
1
10
49.6246994702993
20
-32.838114947266
30
0
41
1
10
49.6561542575166
20
-32.8274488914562
30
0
41
1
10
49.7475464782664
20
-32.7915335119237
30
0
41
1
10
49.8052731037511
20
-32.762222351707
30
0
41
1
10
49.8870982578457
20
-32.7102048813076
30
0
41
1
10
49.9137109941893
20
-32.6914012887608
30
0
41
1
10
49.9645218861567
20
-32.6515769256578
30
0
41
1
10
49.988682628901
20
-32.6306129215094
30
0
41
1
10
50.0575458207331
20
-32.5646449359655
30
0
41
1
10
50.0986627566913
20
-32.5165936199738
30
0
41
1
10
50.1710906349376
20
-32.4120618476169
30
0
41
1
10
50.2014067122241
20
-32.3569504529934
30
0
41
1
10
50.2380619428027
20
-32.270899851964
30
0
41
1
10
50.2488270403416
20
-32.2416091287198
30
0
41
1
10
50.267415441956
20
-32.181791345254
30
0
41
1
10
50.2752537955404
20
-32.1511304891589
30
0
41
1
10
50.293874660486
20
-32.0590644674901
30
0
41
1
10
50.3000000000001
20
-31.9971338931874
30
0
41
1
10
50.3
20
-31.9346552889891
30
0
0
SPLINE
5
3A5
100
AcDbEntity
8
1
62
256
6
ByLayer
370
18
48
1
60
0
100
AcDbSpline
70
4
71
3
72
26
73
22
40
0
40
0
40
0
40
0
40
0.124999999999999
40
0.124999999999999
40
0.249999999999997
40
0.249999999999997
40
0.312499999999995
40
0.312499999999995
40
0.374999999999993
40
0.374999999999993
40
0.499999999999989
40
0.499999999999989
40
0.624999999999984
40
0.624999999999984
40
0.687499999999987
40
0.687499999999987
40
0.74999999999999
40
0.74999999999999
40
0.874999999999995
40
0.874999999999995
40
1
40
1
40
1
40
1
41
1
10
41.2999999999999
20
-31.9346552889896
30
0
41
1
10
41.3
20
-31.9971188933631
30
0
41
1
10
41.3063216912366
20
-32.0603315620886
30
0
41
1
10
41.3311077827618
20
-32.1822831379425
30
0
41
1
10
41.3494911410842
20
-32.2416318092297
30
0
41
1
10
41.3863264115648
20
-32.3281770213059
30
0
41
1
10
41.4002400897649
20
-32.3567313755711
30
0
41
1
10
41.4306657230242
20
-32.4118196259623
30
0
41
1
10
41.4472135435634
20
-32.4384744731022
30
0
41
1
10
41.5007998485643
20
-32.5158278836086
30
0
41
1
10
41.5417422844314
20
-32.5639403438499
30
0
41
1
10
41.6346322440061
20
-32.6529701121753
30
0
41
1
10
41.6851523483069
20
-32.6924906532176
30
0
41
1
10
41.7664820139206
20
-32.7443026091768
30
0
41
1
10
41.7945427141253
20
-32.760337601355
30
0
41
1
10
41.8526130501617
20
-32.7898858431122
30
0
41
1
10
41.8827625506851
20
-32.8034397375698
30
0
41
1
10
41.9742410062401
20
-32.8394028909091
30
0
41
1
10
42.0370763996904
20
-32.8574671506489
30
0
41
1
10
42.1664140603182
20
-32.8819342120987
30
0
41
1
10
42.2332360306222
20
-32.888257461557
30
0
41
1
10
42.3
20
-32.888257461557
30
0
0
SPLINE
5
3A6
100
AcDbEntity
8
1
62
256
6
ByLayer
370
18
48
1
60
0
100
AcDbSpline
70
4
71
3
72
8
73
4
40
0
40
0
40
0
40
0
40
1
40
1
40
1
40
1
41
1
10
0.899999999999977
20
5.09750000000003
30
0
41
1
10
0.732429657767113
20
5.26507034223289
30
0
41
1
10
0.565750062281325
20
5.43174993771868
30
0
41
1
10
0.399999999999977
20
5.59750000000003
30
0
0
SPLINE
5
3A7
100
AcDbEntity
8
1
62
256
6
ByLayer
370
18
48
1
60
0
100
AcDbSpline
70
4
71
3
72
8
73
4
40
0
40
0
40
0
40
0
40
1
40
1
40
1
40
1
41
1
10
0.399999999999977
20
-5.59750000000003
30
0
41
1
10
0.565750062281325
20
-5.43174993771868
30
0
41
1
10
0.732429657767113
20
-5.26507034223289
30
0
41
1
10
0.899999999999977
20
-5.09750000000003
30
0
0
SPLINE
5
3A8
100
AcDbEntity
8
1
62
256
6
ByLayer
370
18
48
1
60
0
100
AcDbSpline
70
4
71
3
72
28
73
24
40
0
40
0
40
0
40
0
40
0.12499999999998
40
0.12499999999998
40
0.187499999999976
40
0.187499999999976
40
0.249999999999972
40
0.249999999999972
40
0.374999999999966
40
0.374999999999966
40
0.437499999999967
40
0.437499999999967
40
0.499999999999967
40
0.499999999999967
40
0.624999999999976
40
0.624999999999976
40
0.749999999999984
40
0.749999999999984
40
0.812499999999991
40
0.812499999999991
40
0.874999999999997
40
0.874999999999997
40
1
40
1
40
1
40
1
41
1
10
49.3
20
34.2330803095995
30
0
41
1
10
49.3667912467529
20
34.2330803095995
30
0
41
1
10
49.432438955049
20
34.2277370782072
30
0
41
1
10
49.5292662133235
20
34.2120625876627
30
0
41
1
10
49.5612658108713
20
34.2055517842956
30
0
41
1
10
49.6246994702993
20
34.1899063702
30
0
41
1
10
49.6561542575166
20
34.1807448545911
30
0
41
1
10
49.7475464782664
20
34.1499485539166
30
0
41
1
10
49.8052731037511
20
34.1248749999887
30
0
41
1
10
49.8870982578457
20
34.0806047378216
30
0
41
1
10
49.9137109941893
20
34.0646346619546
30
0
41
1
10
49.9645218861567
20
34.0309030608739
30
0
41
1
10
49.988682628901
20
34.0131892219824
30
0
41
1
10
50.0575458207331
20
33.9576122784388
30
0
41
1
10
50.0986627566913
20
33.9173360578063
30
0
41
1
10
50.1710906349376
20
33.8303461432969
30
0
41
1
10
50.2014067122242
20
33.7847755762515
30
0
41
1
10
50.2380619428027
20
33.7141643482231
30
0
41
1
10
50.2488270403416
20
33.6902153633958
30
0
41
1
10
50.2674154419559
20
33.6414969293498
30
0
41
1
10
50.2752537955404
20
33.616620069377
30
0
41
1
10
50.293874660486
20
33.5422192047146
30
0
41
1
10
50.3000000000001
20
33.4925616805932
30
0
41
1
10
50.3
20
33.4428670094736
30
0
0
SPLINE
5
3A9
100
AcDbEntity
8
1
62
256
6
ByLayer
370
18
48
1
60
0
100
AcDbSpline
70
4
71
3
72
26
73
22
40
0
40
0
40
0
40
0
40
0.124999999999998
40
0.124999999999998
40
0.249999999999996
40
0.249999999999996
40
0.312499999999993
40
0.312499999999993
40
0.374999999999991
40
0.374999999999991
40
0.5
40
0.5
40
0.62500000000001
40
0.62500000000001
40
0.687500000000014
40
0.687500000000014
40
0.750000000000018
40
0.750000000000018
40
0.875000000000009
40
0.875000000000009
40
1
40
1
40
1
40
1
41
1
10
41.2999999999999
20
33.442867009474
30
0
41
1
10
41.3
20
33.4925497499275
30
0
41
1
10
41.3063216912366
20
33.5432395578421
30
0
41
1
10
41.3311077827618
20
33.6417989769296
30
0
41
1
10
41.3494911410842
20
33.6901486681618
30
0
41
1
10
41.3863264115648
20
33.7611642197177
30
0
41
1
10
41.4002400897649
20
33.7846835705645
30
0
41
1
10
41.4306657230242
20
33.8302154633216
30
0
41
1
10
41.4472135435634
20
33.8523264957839
30
0
41
1
10
41.5007998485642
20
33.9166985709834
30
0
41
1
10
41.5417422844314
20
33.9570192102659
30
0
41
1
10
41.6346322440061
20
34.0320242505781
30
0
41
1
10
41.6851523483069
20
34.0655300661118
30
0
41
1
10
41.7664820139206
20
34.1096234976045
30
0
41
1
10
41.7945427141253
20
34.1233020489166
30
0
41
1
10
41.8526130501617
20
34.1485516965155
30
0
41
1
10
41.8827625506851
20
34.1601578089861
30
0
41
1
10
41.9742410062401
20
34.1909949436774
30
0
41
1
10
42.0370763996904
20
34.2065435925943
30
0
41
1
10
42.1664140603182
20
34.2276205429299
30
0
41
1
10
42.2332360306222
20
34.2330803095997
30
0
41
1
10
42.3
20
34.2330803095997
30
0
0
SPLINE
5
3AA
100
AcDbEntity
8
1
62
256
6
ByLayer
370
18
48
1
60
0
100
AcDbSpline
70
4
71
3
72
23
73
19
40
0
40
0
40
0
40
0
40
0.0689153145193757
40
0.0689153145193757
40
0.155166853469844
40
0.155166853469844
40
0.327669931370781
40
0.327669931370781
40
0.500173009271718
40
0.500173009271718
40
0.672676087172654
40
0.672676087172654
40
0.758927626123123
40
0.758927626123123
40
0.845179165073591
40
0.93143070402406
40
0.93143070402406
40
1
40
1
40
1
40
1
41
1
10
45.2602793440297
20
1.6595133612322
30
0
41
1
10
45.2821972122921
20
1.6734341927002
30
0
41
1
10
45.3047047359279
20
1.6865309011385
30
0
41
1
10
45.3567345905296
20
1.71413166609966
30
0
41
1
10
45.3867036383034
20
1.72818713327933
30
0
41
1
10
45.4775328930283
20
1.76547209130922
30
0
41
1
10
45.5398633773585
20
1.78421002671831
30
0
41
1
10
45.6680538768108
20
1.80957073644555
30
0
41
1
10
45.7343564945172
20
1.81606727760891
30
0
41
1
10
45.8649109610828
20
1.81611459045507
30
0
41
1
10
45.9298135398784
20
1.80987545966678
30
0
41
1
10
46.0265928057921
20
1.79090249738249
30
0
41
1
10
46.0587323199682
20
1.78294501117864
30
0
41
1
10
46.1213959585768
20
1.76414661358007
30
0
41
1
10
46.182811915104
20
1.74240303537994
30
0
41
1
10
46.2417734579161
20
1.71485653230167
30
0
41
1
10
46.2935763121434
20
1.68749256848219
30
0
41
1
10
46.3162188151224
20
1.67437999185336
30
0
41
1
10
46.3382801233118
20
1.6604245743909
30
0
0
SPLINE
5
3AB
100
AcDbEntity
8
1
62
256
6
ByLayer
370
18
48
1
60
0
100
AcDbSpline
70
4
71
3
72
16
73
12
40
0
40
0
40
0
40
0
40
0.125
40
0.125
40
0.25
40
0.25
40
0.5
40
0.5
40
0.75
40
0.75
40
1
40
1
40
1
40
1
41
1
10
49.7954296167081
20
-8.39716836549024
30
0
41
1
10
49.780071967808
20
-8.38536235532007
30
0
41
1
10
49.7628709806445
20
-8.37707710665762
30
0
41
1
10
49.7260799112847
20
-8.36411797004183
30
0
41
1
10
49.7065084611048
20
-8.35958371240997
30
0
41
1
10
49.6468867219268
20
-8.34963313314466
30
0
41
1
10
49.6049053976121
20
-8.34750973637875
30
0
41
1
10
49.5193603605245
20
-8.34589421922817
30
0
41
1
10
49.4761004805306
20
-8.34648758953409
30
0
41
1
10
49.3887068404823
20
-8.34755203088446
30
0
41
1
10
49.3445725457439
20
-8.34804927198923
30
0
41
1
10
49.3000000000014
20
-8.34804927198923
30
0
0
SPLINE
5
3AC
100
AcDbEntity
8
1
62
256
6
ByLayer
370
18
48
1
60
0
100
AcDbSpline
70
4
71
3
72
10
73
6
40
0
40
0
40
0
40
0
40
0.214165116267962
40
0.214165116267962
40
1
40
1
40
1
40
1
41
1
10
49.9015649089297
20
-8.49150154906744
30
0
41
1
10
49.8946155283985
20
-8.48441434694251
30
0
41
1
10
49.8875404482474
20
-8.47739505836273
30
0
41
1
10
49.8539229087859
20
-8.44498776497204
30
0
41
1
10
49.8257577629013
20
-8.42048276762671
30
0
41
1
10
49.7954296167117
20
-8.39716836548826
30
0
0
SPLINE
5
3AD
100
AcDbEntity
8
1
62
256
6
ByLayer
370
18
48
1
60
0
100
AcDbSpline
70
4
71
3
72
18
73
14
40
0
40
0
40
0
40
0
40
0.325777231276426
40
0.325777231276426
40
0.49433292345732
40
0.49433292345732
40
0.662888615638213
40
0.662888615638213
40
0.831444307819107
40
0.831444307819107
40
0.915722153909553
40
0.915722153909553
40
1
40
1
40
1
40
1
41
1
10
50.1516002652506
20
-8.49202249373695
30
0
41
1
10
50.1749687384914
20
-8.42252377063346
30
0
41
1
10
50.1976448471294
20
-8.35365176115255
30
0
41
1
10
50.229210537299
20
-8.25415604372699
30
0
41
1
10
50.2395496207321
20
-8.22085537616817
30
0
41
1
10
50.2585512528245
20
-8.15765013564243
30
0
41
1
10
50.2672324851851
20
-8.12770443127914
30
0
41
1
10
50.2822986736867
20
-8.07245530209576
30
0
41
1
10
50.2887028927824
20
-8.04700470040899
30
0
41
1
10
50.2953191782195
20
-8.01592121069331
30
0
41
1
10
50.2970485111086
20
-8.00666398337586
30
0
41
1
10
50.2994033803155
20
-7.99070893216754
30
0
41
1
10
50.3
20
-7.98417539070385
30
0
41
1
10
50.3
20
-7.97920009573619
30
0
0
SPLINE
5
3AE
100
AcDbEntity
8
1
62
256
6
ByLayer
370
18
48
1
60
0
100
AcDbSpline
70
4
71
3
72
14
73
10
40
0
40
0
40
0
40
0
40
0.25
40
0.25
40
0.5
40
0.5
40
0.75
40
0.75
40
1
40
1
40
1
40
1
41
1
10
47.2
20
4.46936003419165
30
0
41
1
10
47.2157306003885
20
4.46936003419165
30
0
41
1
10
47.2309209286203
20
4.46612196383654
30
0
41
1
10
47.2568076870683
20
4.45542908127112
30
0
41
1
10
47.2674229546696
20
4.44816623777814
30
0
41
1
10
47.2841281829001
20
4.43183011406904
30
0
41
1
10
47.2900377381453
20
4.42303288665437
30
0
41
1
10
47.298052214035
20
4.40447657129067
30
0
41
1
10
47.3000000000039
20
4.39498367547645
30
0
41
1
10
47.300000000004
20
4.3854015320095
30
0
0
SPLINE
5
3AF
100
AcDbEntity
8
1
62
256
6
ByLayer
370
18
48
1
60
0
100
AcDbSpline
70
4
71
3
72
66
73
62
40
0
40
0
40
0
40
0
40
0.0624999999999937
40
0.0624999999999937
40
0.124999999999987
40
0.124999999999987
40
0.187499999999981
40
0.187499999999981
40
0.249999999999975
40
0.249999999999975
40
0.312499999999969
40
0.312499999999969
40
0.343749999999965
40
0.343749999999965
40
0.374999999999961
40
0.374999999999961
40
0.406249999999957
40
0.406249999999957
40
0.437499999999954
40
0.437499999999954
40
0.453124999999952
40
0.453124999999952
40
0.468749999999951
40
0.468749999999951
40
0.48437499999995
40
0.48437499999995
40
0.49218749999995
40
0.49218749999995
40
0.499999999999949
40
0.499999999999949
40
0.507812499999949
40
0.507812499999949
40
0.515624999999948
40
0.515624999999948
40
0.523437499999947
40
0.523437499999947
40
0.531249999999947
40
0.531249999999947
40
0.546874999999947
40
0.546874999999947
40
0.562499999999947
40
0.562499999999947
40
0.578124999999947
40
0.578124999999947
40
0.593749999999948
40
0.593749999999948
40
0.62499999999995
40
0.62499999999995
40
0.687499999999955
40
0.687499999999955
40
0.718749999999959
40
0.718749999999959
40
0.749999999999963
40
0.749999999999963
40
0.812499999999972
40
0.812499999999972
40
0.874999999999982
40
0.874999999999982
40
0.937499999999991
40
0.937499999999991
40
1
40
1
40
1
40
1
41
1
10
44.3
20
2.68767706754011
30
0
41
1
10
44.3
20
2.60791333953517
30
0
41
1
10
44.308493248983
20
2.53191718693927
30
0
41
1
10
44.3393568654763
20
2.38697443379459
30
0
41
1
10
44.3617485698745
20
2.3180306743356
30
0
41
1
10
44.4188562454943
20
2.18688515240604
30
0
41
1
10
44.4535734030052
20
2.12468459819081
30
0
41
1
10
44.5349295556206
20
2.00682871993172
30
0
41
1
10
44.5815465500809
20
1.95117359916975
30
0
41
1
10
44.6877279110415
20
1.84630282693445
30
0
41
1
10
44.7468305915706
20
1.79749281057974
30
0
41
1
10
44.8465856123598
20
1.72966876763815
30
0
41
1
10
44.8817143389933
20
1.70795520025865
30
0
41
1
10
44.9566016821203
20
1.66632427449611
30
0
41
1
10
44.9962266610734
20
1.64647893019168
30
0
41
1
10
45.0809190089738
20
1.60890442300416
30
0
41
1
10
45.1259821822754
20
1.59115099115576
30
0
41
1
10
45.2242203659138
20
1.55788264124635
30
0
41
1
10
45.2772328474158
20
1.5423516918288
30
0
41
1
10
45.3676233881699
20
1.52112543182193
30
0
41
1
10
45.3997096559311
20
1.51438993672883
30
0
41
1
10
45.4677435177642
20
1.50210007652242
30
0
41
1
10
45.5039494494496
20
1.49648429542373
30
0
41
1
10
45.5821062888871
20
1.4868211660214
30
0
41
1
10
45.6232686452863
20
1.4828630521331
30
0
41
1
10
45.6896202273223
20
1.4787071751885
30
0
41
1
10
45.7125071762193
20
1.47763246067507
30
0
41
1
10
45.758358137524
20
1.47623978954238
30
0
41
1
10
45.7815149234269
20
1.47590790729055
30
0
41
1
10
45.8283212340887
20
1.47601603347016
30
0
41
1
10
45.8518062539689
20
1.47646389914968
30
0
41
1
10
45.8974673564871
20
1.47806791456708
30
0
41
1
10
45.9198662396283
20
1.47922342120069
30
0
41
1
10
45.9638933065032
20
1.48217907027532
30
0
41
1
10
45.9852886080616
20
1.48396660253712
30
0
41
1
10
46.0263425039405
20
1.4879971016959
30
0
41
1
10
46.0461341263556
20
1.49024931266763
30
0
41
1
10
46.1037180502197
20
1.49761205074401
30
0
41
1
10
46.1398897598602
20
1.50336133603514
30
0
41
1
10
46.2071064087941
20
1.5157671591399
30
0
41
1
10
46.2384448613072
20
1.52245986299175
30
0
41
1
10
46.2979987946418
20
1.53664515359611
30
0
41
1
10
46.3261984096497
20
1.54414010300781
30
0
41
1
10
46.3802434849185
20
1.55984263389541
30
0
41
1
10
46.4060179716011
20
1.5680355780425
30
0
41
1
10
46.4797940180968
20
1.59331599652359
30
0
41
1
10
46.524642768292
20
1.61119632726144
30
0
41
1
10
46.6506938932609
20
1.66768183766158
30
0
41
1
10
46.7235563893432
20
1.70912056893013
30
0
41
1
10
46.8225694960225
20
1.7768198548282
30
0
41
1
10
46.8537740297724
20
1.80031589188599
30
0
41
1
10
46.9130064284741
20
1.84919458565037
30
0
41
1
10
46.9410010388685
20
1.87456221937464
30
0
41
1
10
47.0199928647669
20
1.95293730604476
30
0
41
1
10
47.0662830647018
20
2.00840098601265
30
0
41
1
10
47.1471191549919
20
2.12587664438803
30
0
41
1
10
47.18164446324
20
2.1878883608781
30
0
41
1
10
47.2384686998886
20
2.31867813802762
30
0
41
1
10
47.2607694408688
20
2.38745486571224
30
0
41
1
10
47.2915240702403
20
2.53211178154578
30
0
41
1
10
47.3000000000001
20
2.60798884962208
30
0
41
1
10
47.3000000000001
20
2.68767706754005
30
0
0
SPLINE
5
3B0
100
AcDbEntity
8
1
62
256
6
ByLayer
370
18
48
1
60
0
100
AcDbSpline
70
4
71
3
72
14
73
10
40
0
40
0
40
0
40
0
40
0.25
40
0.25
40
0.5
40
0.5
40
0.75
40
0.75
40
1
40
1
40
1
40
1
41
1
10
44.3
20
4.38540153200893
30
0
41
1
10
44.3
20
4.39498322688553
30
0
41
1
10
44.3019324036759
20
4.40441683893346
30
0
41
1
10
44.3099210227921
20
4.42296135063907
30
0
41
1
10
44.315880082734
20
4.43182868484496
30
0
41
1
10
44.3324928929584
20
4.44809341365561
30
0
41
1
10
44.343144079857
20
4.45540408951013
30
0
41
1
10
44.369060088867
20
4.46611917814499
30
0
41
1
10
44.3842724389651
20
4.46936003419165
30
0
41
1
10
44.4
20
4.46936003419165
30
0
0
SPLINE
5
3B1
100
AcDbEntity
8
1
62
256
6
ByLayer
370
18
48
1
60
0
100
AcDbSpline
70
4
71
3
72
28
73
24
40
0
40
0
40
0
40
0
40
0.124999999999987
40
0.124999999999987
40
0.187499999999986
40
0.187499999999986
40
0.249999999999986
40
0.249999999999986
40
0.374999999999986
40
0.374999999999986
40
0.437499999999987
40
0.437499999999987
40
0.499999999999988
40
0.499999999999988
40
0.624999999999991
40
0.624999999999991
40
0.749999999999994
40
0.749999999999994
40
0.812499999999996
40
0.812499999999996
40
0.874999999999997
40
0.874999999999997
40
1
40
1
40
1
40
1
41
1
10
49.3
20
1.34482284804267
30
0
41
1
10
49.3667912467529
20
1.34482284804267
30
0
41
1
10
49.432438955049
20
1.34566783577696
30
0
41
1
10
49.5292662133234
20
1.34818862118772
30
0
41
1
10
49.5612658108713
20
1.34924008577576
30
0
41
1
10
49.6246994702994
20
1.3517914229339
30
0
41
1
10
49.6561542575166
20
1.35329596313483
30
0
41
1
10
49.7475464782664
20
1.35841504199289
30
0
41
1
10
49.8052731037511
20
1.3626526482816
30
0
41
1
10
49.8870982578457
20
1.37039985651393
30
0
41
1
10
49.9137109941893
20
1.37323337319373
30
0
41
1
10
49.9645218861567
20
1.37932613521605
30
0
41
1
10
49.988682628901
20
1.38257630047303
30
0
41
1
10
50.0575458207331
20
1.39296734247318
30
0
41
1
10
50.0986627566913
20
1.40074243783243
30
0
41
1
10
50.1710906349376
20
1.41828429567994
30
0
41
1
10
50.2014067122242
20
1.427825123258
30
0
41
1
10
50.2380619428027
20
1.44326449625896
30
0
41
1
10
50.2488270403416
20
1.44860623467593
30
0
41
1
10
50.2674154419559
20
1.45970558409579
30
0
41
1
10
50.2752537955404
20
1.46548958021805
30
0
41
1
10
50.293874660486
20
1.48315473722442
30
0
41
1
10
50.3000000000001
20
1.49542778740579
30
0
41
1
10
50.3
20
1.5082117204845
30
0
0
SPLINE
5
3B2
100
AcDbEntity
8
1
62
256
6
ByLayer
370
18
48
1
60
0
100
AcDbSpline
70
4
71
3
72
26
73
22
40
0
40
0
40
0
40
0
40
0.124999999999996
40
0.124999999999996
40
0.249999999999992
40
0.249999999999992
40
0.312499999999989
40
0.312499999999989
40
0.374999999999987
40
0.374999999999987
40
0.49999999999999
40
0.49999999999999
40
0.624999999999993
40
0.624999999999993
40
0.6875
40
0.6875
40
0.750000000000007
40
0.750000000000007
40
0.875000000000003
40
0.875000000000003
40
1
40
1
40
1
40
1
41
1
10
41.2999999999999
20
1.50821172048444
30
0
41
1
10
41.3
20
1.49543085656444
30
0
41
1
10
41.3063216912366
20
1.48290799575346
30
0
41
1
10
41.3311077827618
20
1.4595158389871
30
0
41
1
10
41.3494911410842
20
1.44851685893207
30
0
41
1
10
41.3863264115648
20
1.4329871984117
30
0
41
1
10
41.4002400897649
20
1.4279521949934
30
0
41
1
10
41.4306657230242
20
1.41839583735918
30
0
41
1
10
41.4472135435634
20
1.41385202268168
30
0
41
1
10
41.5007998485643
20
1.40087068737483
30
0
41
1
10
41.5417422844314
20
1.39307886641586
30
0
41
1
10
41.6346322440061
20
1.37905413840275
30
0
41
1
10
41.6851523483069
20
1.37303941289412
30
0
41
1
10
41.7664820139206
20
1.36532088842762
30
0
41
1
10
41.7945427141253
20
1.36296444756164
30
0
41
1
10
41.8526130501617
20
1.35866585340329
30
0
41
1
10
41.8827625506851
20
1.35671807141631
30
0
41
1
10
41.9742410062401
20
1.35159205276824
30
0
41
1
10
42.0370763996904
20
1.34907644194533
30
0
41
1
10
42.1664140603182
20
1.34568633083114
30
0
41
1
10
42.2332360306222
20
1.34482284804267
30
0
41
1
10
42.3
20
1.34482284804267
30
0
0
SPLINE
5
3B3
100
AcDbEntity
8
1
62
256
6
ByLayer
370
18
48
1
60
0
100
AcDbSpline
70
4
71
3
72
16
73
12
40
0
40
0
40
0
40
0
40
0.249999999999987
40
0.249999999999987
40
0.499999999999974
40
0.499999999999974
40
0.749999999999962
40
0.749999999999962
40
0.874999999999981
40
0.874999999999981
40
1
40
1
40
1
40
1
41
1
10
42.3
20
-8.34804927198786
30
0
41
1
10
42.2553868292931
20
-8.34804927198786
30
0
41
1
10
42.2112781601262
20
-8.34755188528698
30
0
41
1
10
42.1240653294086
20
-8.34648957204553
30
0
41
1
10
42.0809606459819
20
-8.34590126776163
30
0
41
1
10
41.9958777220048
20
-8.34748200566196
30
0
41
1
10
41.9535012701548
20
-8.34958890178126
30
0
41
1
10
41.8936521382836
20
-8.35954673879991
30
0
41
1
10
41.8741216483261
20
-8.36405765963872
30
0
41
1
10
41.8371732675151
20
-8.37705090561423
30
0
41
1
10
41.8199300410037
20
-8.38536081106844
30
0
41
1
10
41.8045703832854
20
-8.39716836549513
30
0
0
SPLINE
5
3B4
100
AcDbEntity
8
1
62
256
6
ByLayer
370
18
48
1
60
0
100
AcDbSpline
70
4
71
3
72
22
73
18
40
0
40
0
40
0
40
0
40
0.0842529389119206
40
0.0842529389119206
40
0.168505877823841
40
0.168505877823841
40
0.252758816735762
40
0.252758816735762
40
0.337011755647682
40
0.337011755647682
40
0.505517633471529
40
0.505517633471529
40
0.674023511295375
40
0.674023511295375
40
0.842529389119221
40
0.842529389119221
40
1
40
1
40
1
40
1
41
1
10
41.3
20
-7.97920009573619
30
0
41
1
10
41.3
20
-7.98421666463815
30
0
41
1
10
41.3006164700371
20
-7.99086497639951
30
0
41
1
10
41.3029629953531
20
-8.00672010180875
30
0
41
1
10
41.3046888893654
20
-8.01596807282334
30
0
41
1
10
41.3091357647593
20
-8.03684158829572
30
0
41
1
10
41.311869564406
20
-8.0485066140638
30
0
41
1
10
41.3180498233014
20
-8.07326347684756
30
0
41
1
10
41.3215107226167
20
-8.08642862826719
30
0
41
1
10
41.3328207423195
20
-8.12789172515943
30
0
41
1
10
41.3416681724115
20
-8.15839933430379
30
0
41
1
10
41.3607426596376
20
-8.22180774079925
30
0
41
1
10
41.3709574569883
20
-8.25469027229116
30
0
41
1
10
41.392363755998
20
-8.32215391386569
30
0
41
1
10
41.4035594804906
20
-8.35674236784411
30
0
41
1
10
41.4259623458842
20
-8.4249490646697
30
0
41
1
10
41.4371183202617
20
-8.45847045375592
30
0
41
1
10
41.4484275263047
20
-8.49210502401468
30
0
0
SPLINE
5
3B5
100
AcDbEntity
8
1
62
256
6
ByLayer
370
18
48
1
60
0
100
AcDbSpline
70
4
71
3
72
8
73
4
40
0
40
0
40
0
40
0
40
1
40
1
40
1
40
1
41
1
10
41.8045703832874
20
-8.3971683654936
30
0
41
1
10
41.7661038336787
20
-8.42673906859079
30
0
41
1
10
41.7313181131822
20
-8.45796182354241
30
0
41
1
10
41.6993900341918
20
-8.49046716233727
30
0
0
SPLINE
5
3B6
100
AcDbEntity
8
1
62
256
6
ByLayer
370
18
48
1
60
0
100
AcDbSpline
70
4
71
3
72
12
73
8
40
0
40
0
40
0
40
0
40
0.271203248645713
40
0.271203248645713
40
0.635601624322857
40
0.635601624322857
40
1
40
1
40
1
40
1
41
1
10
50.3255833844786
20
-24.0074362206661
30
0
41
1
10
50.338131772795
20
-23.991848560403
30
0
41
1
10
50.3492716024775
20
-23.9756528207885
30
0
41
1
10
50.3714502477938
20
-23.9371723580215
30
0
41
1
10
50.3813581382701
20
-23.9144892323428
30
0
41
1
10
50.3953498961548
20
-23.8678330552414
30
0
41
1
10
50.3993047214492
20
-23.8441818957302
30
0
41
1
10
50.4001010207843
20
-23.8205740525374
30
0
0
SPLINE
5
3B7
100
AcDbEntity
8
1
62
256
6
ByLayer
370
13
48
1
60
0
100
AcDbSpline
70
4
71
3
72
8
73
4
40
0
40
0
40
0
40
0
40
1
40
1
40
1
40
1
41
1
10
50.4001010207843
20
-23.8205740525373
30
0
41
1
10
50.5333712648358
20
-22.7547560789105
30
0
41
1
10
50.6666415088873
20
-21.6889381052837
30
0
41
1
10
50.7999117529387
20
-20.623120131657
30
0
0
SPLINE
5
3B8
100
AcDbEntity
8
1
62
256
6
ByLayer
370
18
48
1
60
0
100
AcDbSpline
70
4
71
3
72
96
73
92
40
0
40
0
40
0
40
0
40
0.0084352919922184
40
0.0084352919922184
40
0.0301758407747935
40
0.0301758407747935
40
0.0519163895573687
40
0.0519163895573687
40
0.0953974871225185
40
0.0953974871225185
40
0.106267761513806
40
0.106267761513806
40
0.117138035905093
40
0.117138035905093
40
0.138878584687666
40
0.138878584687666
40
0.182359682252812
40
0.182359682252812
40
0.193229956644099
40
0.193229956644099
40
0.204100231035386
40
0.204100231035386
40
0.225840779817958
40
0.247581328600531
40
0.247581328600531
40
0.258451602991817
40
0.258451602991817
40
0.269321877383104
40
0.269321877383104
40
0.312802974948248
40
0.312802974948248
40
0.334543523730821
40
0.334543523730821
40
0.345413798122107
40
0.345413798122107
40
0.356284072513394
40
0.356284072513394
40
0.399765170078541
40
0.399765170078541
40
0.410635444469828
40
0.410635444469828
40
0.421505718861116
40
0.421505718861116
40
0.443246267643691
40
0.443246267643691
40
0.486727365208841
40
0.486727365208841
40
0.53020846277399
40
0.53020846277399
40
0.551949011556565
40
0.551949011556565
40
0.562819285947852
40
0.562819285947852
40
0.573689560339139
40
0.573689560339139
40
0.617170657904285
40
0.617170657904285
40
0.628040932295573
40
0.628040932295573
40
0.63891120668686
40
0.63891120668686
40
0.660651755469434
40
0.660651755469434
40
0.704132853034581
40
0.704132853034581
40
0.715003127425867
40
0.715003127425867
40
0.725873401817154
40
0.725873401817154
40
0.747613950599727
40
0.7693544993823
40
0.7693544993823
40
0.780224773773587
40
0.780224773773587
40
0.791095048164874
40
0.791095048164874
40
0.834576145730021
40
0.834576145730021
40
0.856316694512596
40
0.856316694512596
40
0.867186968903883
40
0.867186968903883
40
0.87805724329517
40
0.87805724329517
40
0.921538340860321
40
0.921538340860321
40
0.943278889642896
40
0.943278889642896
40
0.965019438425471
40
0.965019438425471
40
1
40
1
40
1
40
1
41
1
10
48.3193255989967
20
-18.7577643600818
30
0
41
1
10
48.3400125067093
20
-18.7805130287952
30
0
41
1
10
48.3600888399161
20
-18.8035840419277
30
0
41
1
10
48.4297421709249
20
-18.8872734897332
30
0
41
1
10
48.4758721144299
20
-18.9497303988989
30
0
41
1
10
48.5598404682979
20
-19.0791757208081
30
0
41
1
10
48.5977025784842
20
-19.1463434809895
30
0
41
1
10
48.6962695170376
20
-19.3503905280863
30
0
41
1
10
48.7431005860815
20
-19.4911572766715
30
0
41
1
10
48.7782909090087
20
-19.6732633675077
30
0
41
1
10
48.7841510810829
20
-19.7099938444737
30
0
41
1
10
48.7934792173408
20
-19.7840868607405
30
0
41
1
10
48.7969507689103
20
-19.8215548260752
30
0
41
1
10
48.8036506815575
20
-19.9339232361256
30
0
41
1
10
48.8032161637489
20
-20.0088563799891
30
0
41
1
10
48.7876874951752
20
-20.2337189621275
30
0
41
1
10
48.7585031141204
20
-20.3837223388476
30
0
41
1
10
48.6979821021155
20
-20.5711877561619
30
0
41
1
10
48.6846359736775
20
-20.6087367914667
30
0
41
1
10
48.6557931541586
20
-20.6830256095733
30
0
41
1
10
48.640270865357
20
-20.7198572255347
30
0
41
1
10
48.590460669024
20
-20.8294186752171
30
0
41
1
10
48.5154134620506
20
-20.9730160066945
30
0
41
1
10
48.4233377479761
20
-21.1115634370584
30
0
41
1
10
48.3477958518466
20
-21.2134826744749
30
0
41
1
10
48.3215324110404
20
-21.2471231597574
30
0
41
1
10
48.2667984633657
20
-21.3137135346018
30
0
41
1
10
48.2383262921291
20
-21.3466532466788
30
0
41
1
10
48.0919944125425
20
-21.5077981912159
30
0
41
1
10
47.961169501926
20
-21.6269158047463
30
0
41
1
10
47.7445968563384
20
-21.7904847962924
30
0
41
1
10
47.6689922606623
20
-21.8424720954653
30
0
41
1
10
47.5502711472177
20
-21.9164245127897
30
0
41
1
10
47.509844927067
20
-21.9403723714259
30
0
41
1
10
47.4281146930305
20
-21.9863749436508
30
0
41
1
10
47.3867025897912
20
-22.008498557362
30
0
41
1
10
47.1769423094743
20
-22.1147550782888
30
0
41
1
10
47.0005725870889
20
-22.1859231664928
30
0
41
1
10
46.7691828938765
20
-22.2568113673763
30
0
41
1
10
46.7223536692983
20
-22.270077806232
30
0
41
1
10
46.6275664270308
20
-22.2947367487388
30
0
41
1
10
46.5796991898383
20
-22.3060987307091
30
0
41
1
10
46.436031536171
20
-22.3369791956441
30
0
41
1
10
46.3396606139503
20
-22.3534346172249
30
0
41
1
10
46.0488069796321
20
-22.3906013311936
30
0
41
1
10
45.8526001941251
20
-22.3992211719496
30
0
41
1
10
45.4553732970945
20
-22.3826245516968
30
0
41
1
10
45.2607785605649
20
-22.3576403313894
30
0
41
1
10
44.9756267115272
20
-22.2965686681487
30
0
41
1
10
44.8816502113967
20
-22.2722494855731
30
0
41
1
10
44.7423258317432
20
-22.229764322009
30
0
41
1
10
44.6960436414183
20
-22.2145585506131
30
0
41
1
10
44.6046129784355
20
-22.1823167733404
30
0
41
1
10
44.5595596974592
20
-22.1653209159395
30
0
41
1
10
44.3375286417216
20
-22.0760906643208
30
0
41
1
10
44.1701639220467
20
-21.9912193205138
30
0
41
1
10
43.9735564053622
20
-21.8690299255965
30
0
41
1
10
43.9348705852474
20
-21.8437798947418
30
0
41
1
10
43.8587880951483
20
-21.7916457413361
30
0
41
1
10
43.8213190801288
20
-21.7647017552563
30
0
41
1
10
43.7119921373409
20
-21.682250570296
30
0
41
1
10
43.6428821065767
20
-21.6249269386411
30
0
41
1
10
43.4465213756528
20
-21.4462685037172
30
0
41
1
10
43.3301329716939
20
-21.3183113216352
30
0
41
1
10
43.2032648874635
20
-21.1475297200575
30
0
41
1
10
43.1788270357453
20
-21.112807413212
30
0
41
1
10
43.1323642599926
20
-21.0430349172995
30
0
41
1
10
43.1102675758272
20
-21.0078919906608
30
0
41
1
10
43.0473264104023
20
-20.9017221487316
30
0
41
1
10
42.972320069608
20
-20.7581911868618
30
0
41
1
10
42.914957960041
20
-20.6109108301776
30
0
41
1
10
42.8786784471627
20
-20.4990633426536
30
0
41
1
10
42.8677109817175
20
-20.461549093497
30
0
41
1
10
42.8480742648968
20
-20.3860533510705
30
0
41
1
10
42.8394146922301
20
-20.3480741551846
30
0
41
1
10
42.8023574030086
20
-20.1591465795286
30
0
41
1
10
42.7920272343424
20
-20.0093955518376
30
0
41
1
10
42.8050295939843
20
-19.7868795276072
30
0
41
1
10
42.8141468957257
20
-19.7130589519869
30
0
41
1
10
42.8352543433936
20
-19.6028553695963
30
0
41
1
10
42.8435315469487
20
-19.5662513722878
30
0
41
1
10
42.8623801703197
20
-19.4940377208251
30
0
41
1
10
42.8729696399016
20
-19.4583256280558
30
0
41
1
10
42.9316552723848
20
-19.2816922513486
30
0
41
1
10
42.996802936506
20
-19.1465103772936
30
0
41
1
10
43.1221404039508
20
-18.9525539979323
30
0
41
1
10
43.1688445855837
20
-18.8890761407633
30
0
41
1
10
43.2698434892856
20
-18.7675175576143
30
0
41
1
10
43.324217135308
20
-18.7092216462832
30
0
41
1
10
43.4759641240699
20
-18.5633096317429
30
0
41
1
10
43.5793795054088
20
-18.4793575066877
30
0
41
1
10
43.6927402865275
20
-18.4015224356339
30
0
0
SPLINE
5
3B9
100
AcDbEntity
8
1
62
256
6
ByLayer
370
13
48
1
60
0
100
AcDbSpline
70
4
71
3
72
8
73
4
40
0
40
0
40
0
40
0
40
1
40
1
40
1
40
1
41
1
10
50.6194785164543
20
-14.8277197960661
30
0
41
1
10
50.596794893861
20
-14.9823747835688
30
0
41
1
10
50.5741112712678
20
-15.1370297710716
30
0
41
1
10
50.5514276486746
20
-15.2916847585744
30
0
0
SPLINE
5
3BA
100
AcDbEntity
8
1
62
256
6
ByLayer
370
18
48
1
60
0
100
AcDbSpline
70
4
71
3
72
28
73
24
40
0
40
0
40
0
40
0
40
0.124999999999953
40
0.124999999999953
40
0.187499999999941
40
0.187499999999941
40
0.249999999999929
40
0.249999999999929
40
0.374999999999904
40
0.374999999999904
40
0.437499999999903
40
0.437499999999903
40
0.499999999999903
40
0.499999999999903
40
0.62499999999991
40
0.62499999999991
40
0.687499999999923
40
0.687499999999923
40
0.749999999999936
40
0.749999999999936
40
0.874999999999968
40
0.874999999999968
40
1
40
1
40
1
40
1
41
1
10
45.6835172180473
20
35.9217194630056
30
0
41
1
10
45.7155800214658
20
35.9095341807621
30
0
41
1
10
45.7483002984612
20
35.9002996846053
30
0
41
1
10
45.798537599411
20
35.8911824833602
30
0
41
1
10
45.8154779868794
20
35.888938432346
30
0
41
1
10
45.8498054730173
20
35.8861845006187
30
0
41
1
10
45.8672415926364
20
35.8856859824955
30
0
41
1
10
45.9191282407049
20
35.8870454772451
30
0
41
1
10
45.9535161088949
20
35.8916677304907
30
0
41
1
10
46.0048519332889
20
35.9050961419928
30
0
41
1
10
46.0218247254827
20
35.9106598580509
30
0
41
1
10
46.0546352908734
20
35.9237141292892
30
0
41
1
10
46.0705973206097
20
35.9312344977052
30
0
41
1
10
46.1171464492555
20
35.9567971793059
30
0
41
1
10
46.1467178352637
20
35.9782177156324
30
0
41
1
10
46.1859834227382
20
36.0144941268457
30
0
41
1
10
46.1983192707607
20
36.0273068021233
30
0
41
1
10
46.2215645463074
20
36.0543035814295
30
0
41
1
10
46.2325222522802
20
36.0685704657468
30
0
41
1
10
46.2626772313287
20
36.1124105794634
30
0
41
1
10
46.2794020829899
20
36.1431892608724
30
0
41
1
10
46.3070624793438
20
36.207511163374
30
0
41
1
10
46.3179764965378
20
36.2411745435799
30
0
41
1
10
46.325905977297
20
36.2753975166201
30
0
0
SPLINE
5
3BB
100
AcDbEntity
8
1
62
256
6
ByLayer
370
18
48
1
60
0
100
AcDbSpline
70
4
71
3
72
18
73
14
40
0
40
0
40
0
40
0
40
0.125000000000011
40
0.125000000000011
40
0.250000000000021
40
0.250000000000021
40
0.375000000000032
40
0.375000000000032
40
0.500000000000043
40
0.500000000000043
40
0.750000000000021
40
0.750000000000021
40
1
40
1
40
1
40
1
41
1
10
46.5441187518266
20
36.4615148702364
30
0
41
1
10
46.5311207643774
20
36.4614851024246
30
0
41
1
10
46.5179300254907
20
36.4602160160959
30
0
41
1
10
46.4924130332104
20
36.4553248064855
30
0
41
1
10
46.4799948773554
20
36.4517245763547
30
0
41
1
10
46.4558282846303
20
36.4422597082342
30
0
41
1
10
46.4440874317142
20
36.4363649457114
30
0
41
1
10
46.4221550079723
20
36.4228123618212
30
0
41
1
10
46.4118386270516
20
36.4151123194836
30
0
41
1
10
46.382795346555
20
36.3893170289718
30
0
41
1
10
46.3666592725313
20
36.3691583606827
30
0
41
1
10
46.3409551120173
20
36.3244322881476
30
0
41
1
10
46.3317175571715
20
36.3004798073019
30
0
41
1
10
46.3259059772964
20
36.2753975166176
30
0
0
SPLINE
5
3BC
100
AcDbEntity
8
1
62
256
6
ByLayer
370
18
48
1
60
0
100
AcDbSpline
70
4
71
3
72
20
73
16
40
0
40
0
40
0
40
0
40
0.25
40
0.25
40
0.375
40
0.375
40
0.5
40
0.5
40
0.625
40
0.625
40
0.75
40
0.75
40
0.875
40
0.875
40
1
40
1
40
1
40
1
41
1
10
45.6835172180473
20
35.9217194630056
30
0
41
1
10
45.6599430586557
20
35.9306786853821
30
0
41
1
10
45.6356781058174
20
35.9360732487408
30
0
41
1
10
45.5982267893501
20
35.9383768598828
30
0
41
1
10
45.5856014579218
20
35.9381393121646
30
0
41
1
10
45.5609021582217
20
35.9356117435757
30
0
41
1
10
45.5487167437598
20
35.9333335053816
30
0
41
1
10
45.5247050615397
20
35.9266306791944
30
0
41
1
10
45.5127633266655
20
35.9221378712883
30
0
41
1
10
45.4901721179514
20
35.9111727649462
30
0
41
1
10
45.479453112548
20
35.904706473523
30
0
41
1
10
45.4592063534256
20
35.8897562542609
30
0
41
1
10
45.4495815688097
20
35.8811562156459
30
0
41
1
10
45.4322650920754
20
35.8623996073811
30
0
41
1
10
45.424545617033
20
35.8522666698846
30
0
41
1
10
45.417763682755
20
35.8413809361202
30
0
0
SPLINE
5
3BD
100
AcDbEntity
8
1
62
256
6
ByLayer
370
18
48
1
60
0
100
AcDbSpline
70
4
71
3
72
28
73
24
40
0
40
0
40
0
40
0
40
0.125000000000016
40
0.125000000000016
40
0.187500000000029
40
0.187500000000029
40
0.250000000000043
40
0.250000000000043
40
0.375000000000049
40
0.375000000000049
40
0.437500000000053
40
0.437500000000053
40
0.500000000000056
40
0.500000000000056
40
0.625000000000063
40
0.625000000000063
40
0.687500000000052
40
0.687500000000052
40
0.750000000000041
40
0.750000000000041
40
0.875000000000021
40
0.875000000000021
40
1
40
1
40
1
40
1
41
1
10
46.7689851831356
20
36.2764122505104
30
0
41
1
10
46.7782918763857
20
36.242250826605
30
0
41
1
10
46.7902934821161
20
36.2091420562876
30
0
41
1
10
46.8125769518954
20
36.1611029897466
30
0
41
1
10
46.8207234924747
20
36.1453624536394
30
0
41
1
10
46.8385749725111
20
36.1144616363878
30
0
41
1
10
46.8483167422337
20
36.0992657503304
30
0
41
1
10
46.8793995447882
20
36.0556315889316
30
0
41
1
10
46.9027389123154
20
36.0287890540969
30
0
41
1
10
46.9422414883408
20
35.992390865779
30
0
41
1
10
46.9561043237255
20
35.9809893177492
30
0
41
1
10
46.9845295080858
20
35.9602455555233
30
0
41
1
10
46.9991855325908
20
35.950813733964
30
0
41
1
10
47.0444873745899
20
35.925358668933
30
0
41
1
10
47.0769164335704
20
35.9121141730973
30
0
41
1
10
47.1255518640592
20
35.8989399227031
30
0
41
1
10
47.1418404732056
20
35.8955982187746
30
0
41
1
10
47.1745876086154
20
35.8909030658797
30
0
41
1
10
47.1911335510591
20
35.889554823089
30
0
41
1
10
47.2399970636869
20
35.8884075691809
30
0
41
1
10
47.2718015434014
20
35.8913891601483
30
0
41
1
10
47.3343311345076
20
35.9037947824127
30
0
41
1
10
47.3651331847852
20
35.913304050717
30
0
41
1
10
47.3948011836618
20
35.9256386219676
30
0
0
SPLINE
5
3BE
100
AcDbEntity
8
1
62
256
6
ByLayer
370
18
48
1
60
0
100
AcDbSpline
70
4
71
3
72
20
73
16
40
0
40
0
40
0
40
0
40
0.250000000000016
40
0.250000000000016
40
0.375000000000013
40
0.375000000000013
40
0.500000000000011
40
0.500000000000011
40
0.625000000000008
40
0.625000000000008
40
0.750000000000005
40
0.750000000000005
40
0.875000000000003
40
0.875000000000003
40
1
40
1
40
1
40
1
41
1
10
46.7689851831356
20
36.2764122505104
30
0
41
1
10
46.7621424446962
20
36.301529408906
30
0
41
1
10
46.7520388740483
20
36.325300704645
30
0
41
1
10
46.7315638288045
20
36.3587282640551
30
0
41
1
10
46.723839358293
20
36.3694479001485
30
0
41
1
10
46.7070440196659
20
36.389304406578
30
0
41
1
10
46.6979162801659
20
36.3985434006151
30
0
41
1
10
46.6781117676349
20
36.4155555310538
30
0
41
1
10
46.6673101467191
20
36.4233910781631
30
0
41
1
10
46.644840251674
20
36.4368869830807
30
0
41
1
10
46.6331355495947
20
36.4426103053556
30
0
41
1
10
46.6087597471348
20
36.4519497762759
30
0
41
1
10
46.5959349584197
20
36.4555867833615
30
0
41
1
10
46.5701349827575
20
36.4603659931924
30
0
41
1
10
46.5571629423353
20
36.4615447438617
30
0
41
1
10
46.5441187518266
20
36.4615148702364
30
0
0
SPLINE
5
3BF
100
AcDbEntity
8
1
62
256
6
ByLayer
370
18
48
1
60
0
100
AcDbSpline
70
4
71
3
72
18
73
14
40
0
40
0
40
0
40
0
40
0.125
40
0.125
40
0.249999999999999
40
0.249999999999999
40
0.374999999999999
40
0.374999999999999
40
0.5
40
0.5
40
0.75
40
0.75
40
1
40
1
40
1
40
1
41
1
10
47.6414153877766
20
35.846473512619
30
0
41
1
10
47.6351664560748
20
35.8572921047173
30
0
41
1
10
47.6278704168075
20
35.8675885626251
30
0
41
1
10
47.6118842746822
20
35.8861624946832
30
0
41
1
10
47.6031646597147
20
35.8945315047121
30
0
41
1
10
47.5843055344233
20
35.9094649278604
30
0
41
1
10
47.5741508197781
20
35.9160034669686
30
0
41
1
10
47.5532367737326
20
35.9268178456739
30
0
41
1
10
47.5423849150935
20
35.9311742298802
30
0
41
1
10
47.5086957273867
20
35.9411640521705
30
0
41
1
10
47.485553902113
20
35.9434934372847
30
0
41
1
10
47.4391529330032
20
35.9402180143196
30
0
41
1
10
47.4165452128352
20
35.9346787759135
30
0
41
1
10
47.3948011836596
20
35.9256386219667
30
0
0
SPLINE
5
3C0
100
AcDbEntity
8
1
62
256
6
ByLayer
370
18
48
1
60
0
100
AcDbSpline
70
4
71
3
72
16
73
12
40
0
40
0
40
0
40
0
40
0.249999999999996
40
0.249999999999996
40
0.499999999999993
40
0.499999999999993
40
0.749999999999989
40
0.749999999999989
40
0.874999999999995
40
0.874999999999995
40
1
40
1
40
1
40
1
41
1
10
45.4368026276661
20
34.8463390194071
30
0
41
1
10
45.45969470207
20
34.8627128838868
30
0
41
1
10
45.4806884553091
20
34.8810280531593
30
0
41
1
10
45.518776452716
20
34.9219514663255
30
0
41
1
10
45.5360078090263
20
34.9447798358499
30
0
41
1
10
45.5653431075682
20
34.9947307366972
30
0
41
1
10
45.5773295036664
20
35.0215382802861
30
0
41
1
10
45.5908724552207
20
35.0650347772693
30
0
41
1
10
45.5946524354855
20
35.0801712762946
30
0
41
1
10
45.6004691123655
20
35.111074868307
30
0
41
1
10
45.6025255559634
20
35.1268714932286
30
0
41
1
10
45.6037041067508
20
35.1430293811162
30
0
0
SPLINE
5
3C1
100
AcDbEntity
8
1
62
256
6
ByLayer
370
18
48
1
60
0
100
AcDbSpline
70
4
71
3
72
14
73
10
40
0
40
0
40
0
40
0
40
0.25
40
0.25
40
0.5
40
0.5
40
0.75
40
0.75
40
1
40
1
40
1
40
1
41
1
10
45.6047339799228
20
35.1868057915749
30
0
41
1
10
45.6039161022293
20
35.2198329703033
30
0
41
1
10
45.5996045002539
20
35.2527058284579
30
0
41
1
10
45.5846474602392
20
35.3181214526784
30
0
41
1
10
45.573855608322
20
35.350819761064
30
0
41
1
10
45.5473559008525
20
35.4128963008874
30
0
41
1
10
45.531518257094
20
35.4427835495485
30
0
41
1
10
45.4953771696318
20
35.4997796262197
30
0
41
1
10
45.4753227720398
20
35.5265303073583
30
0
41
1
10
45.4533962256186
20
35.5516765063319
30
0
0
SPLINE
5
3C2
100
AcDbEntity
8
1
62
256
6
ByLayer
370
18
48
1
60
0
100
AcDbSpline
70
4
71
3
72
18
73
14
40
0
40
0
40
0
40
0
40
0.124999999999986
40
0.124999999999986
40
0.249999999999972
40
0.249999999999972
40
0.374999999999958
40
0.374999999999958
40
0.499999999999944
40
0.499999999999944
40
0.749999999999972
40
0.749999999999972
40
1
40
1
40
1
40
1
41
1
10
45.417763682755
20
35.8413809361202
30
0
41
1
10
45.4109974539969
20
35.8305204114039
30
0
41
1
10
45.4051329543094
20
35.8187870218072
30
0
41
1
10
45.3957582062175
20
35.7946898505727
30
0
41
1
10
45.3921820263588
20
35.7822615766815
30
0
41
1
10
45.3872067753953
20
35.7566585451818
30
0
41
1
10
45.3858362595835
20
35.7434748636575
30
0
41
1
10
45.3853209404828
20
35.7173788721855
30
0
41
1
10
45.3861451818753
20
35.7043379992583
30
0
41
1
10
45.3917702355095
20
35.6652339022603
30
0
41
1
10
45.3995680804071
20
35.6401375620954
30
0
41
1
10
45.4220533146017
20
35.5927730238665
30
0
41
1
10
45.43640880956
20
35.5711583223941
30
0
41
1
10
45.4533962256186
20
35.5516765063319
30
0
0
SPLINE
5
3C3
100
AcDbEntity
8
1
62
256
6
ByLayer
370
18
48
1
60
0
100
AcDbSpline
70
4
71
3
72
20
73
16
40
0
40
0
40
0
40
0
40
0.250000000000057
40
0.250000000000057
40
0.375000000000047
40
0.375000000000047
40
0.500000000000038
40
0.500000000000038
40
0.625000000000028
40
0.625000000000028
40
0.750000000000019
40
0.750000000000019
40
0.87500000000001
40
0.87500000000001
40
1
40
1
40
1
40
1
41
1
10
45.4368026276661
20
34.8463390194071
30
0
41
1
10
45.4190133418724
20
34.8336149931944
30
0
41
1
10
45.4038758024343
20
34.8184006608032
30
0
41
1
10
45.3855536151481
20
34.7916326175889
30
0
41
1
10
45.3802273585684
20
34.7820577301671
30
0
41
1
10
45.3715426663359
20
34.7622096240615
30
0
41
1
10
45.3681257778872
20
34.7518595728407
30
0
41
1
10
45.3632641819744
20
34.7302748317592
30
0
41
1
10
45.3618269054643
20
34.7189178748426
30
0
41
1
10
45.3612004013515
20
34.6961216946271
30
0
41
1
10
45.3619753343288
20
34.6846308236403
30
0
41
1
10
45.3657680471094
20
34.6614711123216
30
0
41
1
10
45.3688422364609
20
34.6496676526692
30
0
41
1
10
45.377168667206
20
34.6267001449971
30
0
41
1
10
45.3823899677648
20
34.6155226901969
30
0
41
1
10
45.3886687104368
20
34.6046524872406
30
0
0
SPLINE
5
3C4
100
AcDbEntity
8
1
62
256
6
ByLayer
370
18
48
1
60
0
100
AcDbSpline
70
4
71
3
72
20
73
16
40
0
40
0
40
0
40
0
40
0.24999999999998
40
0.24999999999998
40
0.374999999999984
40
0.374999999999984
40
0.499999999999987
40
0.499999999999987
40
0.62499999999999
40
0.62499999999999
40
0.749999999999993
40
0.749999999999993
40
0.874999999999997
40
0.874999999999997
40
1
40
1
40
1
40
1
41
1
10
47.6075666299947
20
35.5566099577132
30
0
41
1
10
47.6233152409879
20
35.5762162057613
30
0
41
1
10
47.6365685473647
20
35.5977851566906
30
0
41
1
10
47.6522862261044
20
35.6333369637775
30
0
41
1
10
47.6567856859191
20
35.6457002419547
30
0
41
1
10
47.6639501611521
20
35.670675314212
30
0
41
1
10
47.6666656934426
20
35.6833907049101
30
0
41
1
10
47.6702433166616
20
35.7093056728884
30
0
41
1
10
47.6710934245107
20
35.7226428693705
30
0
41
1
10
47.6707128005978
20
35.7488356115894
30
0
41
1
10
47.6695129646799
20
35.7617594773359
30
0
41
1
10
47.6650278781768
20
35.787254234665
30
0
41
1
10
47.6616847009506
20
35.7999648619976
30
0
41
1
10
47.6530037628634
20
35.8241279536843
30
0
41
1
10
47.6476941304487
20
35.8356033096627
30
0
41
1
10
47.6414153877766
20
35.846473512619
30
0
0
SPLINE
5
3C5
100
AcDbEntity
8
1
62
256
6
ByLayer
370
18
48
1
60
0
100
AcDbSpline
70
4
71
3
72
16
73
12
40
0
40
0
40
0
40
0
40
0.249999999999997
40
0.249999999999997
40
0.499999999999994
40
0.499999999999994
40
0.749999999999991
40
0.749999999999991
40
0.874999999999995
40
0.874999999999995
40
1
40
1
40
1
40
1
41
1
10
47.6075666299947
20
35.5566099577132
30
0
41
1
10
47.5873005901552
20
35.5313797323799
30
0
41
1
10
47.5687938503982
20
35.5046770539922
30
0
41
1
10
47.5353270748145
20
35.4481684658975
30
0
41
1
10
47.520247887145
20
35.4180818590448
30
0
41
1
10
47.4946294303392
20
35.3555958255308
30
0
41
1
10
47.4841909292475
20
35.3235679710872
30
0
41
1
10
47.4723756286235
20
35.2742449323379
30
0
41
1
10
47.4690730309521
20
35.257498449739
30
0
41
1
10
47.4639687227365
20
35.2241923783236
30
0
41
1
10
47.4621498135871
20
35.2075946631114
30
0
41
1
10
47.4610838185545
20
35.1910571783998
30
0
0
SPLINE
5
3C6
100
AcDbEntity
8
1
62
256
6
ByLayer
370
18
48
1
60
0
100
AcDbSpline
70
4
71
3
72
14
73
10
40
0
40
0
40
0
40
0
40
0.25
40
0.25
40
0.5
40
0.5
40
0.75
40
0.75
40
1
40
1
40
1
40
1
41
1
10
47.4600539453825
20
35.147280767941
30
0
41
1
10
47.4606469908956
20
35.1150118408168
30
0
41
1
10
47.4642396853854
20
35.0845635143878
30
0
41
1
10
47.4769196012719
20
35.026827542698
30
0
41
1
10
47.4861353313827
20
34.9994447406872
30
0
41
1
10
47.5089435083291
20
34.949817970893
30
0
41
1
10
47.5226469379716
20
34.9271284075204
30
0
41
1
10
47.5541207758408
20
34.8858727354701
30
0
41
1
10
47.5716738343094
20
34.8675578769954
30
0
41
1
10
47.5909730320423
20
34.8512724707884
30
0
0
SPLINE
5
3C7
100
AcDbEntity
8
1
62
256
6
ByLayer
370
18
48
1
60
0
100
AcDbSpline
70
4
71
3
72
18
73
14
40
0
40
0
40
0
40
0
40
0.125000000000001
40
0.125000000000001
40
0.250000000000003
40
0.250000000000003
40
0.375000000000005
40
0.375000000000005
40
0.500000000000006
40
0.500000000000006
40
0.750000000000003
40
0.750000000000003
40
1
40
1
40
1
40
1
41
1
10
47.6123204154584
20
34.6097450637395
30
0
41
1
10
47.6190866442166
20
34.6206055884558
30
0
41
1
10
47.6250416901106
20
34.6320336089267
30
0
41
1
10
47.6347706067182
20
34.6549363388463
30
0
41
1
10
47.6386087947271
20
34.6664809843355
30
0
41
1
10
47.6442774459363
20
34.6897455078525
30
0
41
1
10
47.6460815735606
20
34.7014668237499
30
0
41
1
10
47.6476008007323
20
34.7241771125881
30
0
41
1
10
47.647349932453
20
34.7352842717464
30
0
41
1
10
47.6436615786661
20
34.7678568047865
30
0
41
1
10
47.6373955022216
20
34.787787221262
30
0
41
1
10
47.6183858789736
20
34.823430183108
30
0
41
1
10
47.6059249307676
20
34.8386554828867
30
0
41
1
10
47.5909730320424
20
34.8512724707883
30
0
0
SPLINE
5
3C8
100
AcDbEntity
8
1
62
256
6
ByLayer
370
18
48
1
60
0
100
AcDbSpline
70
4
71
3
72
20
73
16
40
0
40
0
40
0
40
0
40
0.250000000000052
40
0.250000000000052
40
0.375000000000043
40
0.375000000000043
40
0.500000000000035
40
0.500000000000035
40
0.625000000000026
40
0.625000000000026
40
0.750000000000017
40
0.750000000000017
40
0.875000000000009
40
0.875000000000009
40
1
40
1
40
1
40
1
41
1
10
47.3608226949706
20
34.4813284795855
30
0
41
1
10
47.3823596471301
20
34.4792397845917
30
0
41
1
10
47.4047438733461
20
34.480188014226
30
0
41
1
10
47.439596005596
20
34.4866502105368
30
0
41
1
10
47.4513961281661
20
34.4896707937593
30
0
41
1
10
47.4745783246765
20
34.4973148271053
30
0
41
1
10
47.4860638970649
20
34.501953298492
30
0
41
1
10
47.508794514761
20
34.5129765437079
30
0
41
1
10
47.5201504271478
20
34.5194450511782
30
0
41
1
10
47.5417367032413
20
34.5337993154712
30
0
41
1
10
47.5520317972765
20
34.5416952575535
30
0
41
1
10
47.5715878700478
20
34.5589748321277
30
0
41
1
10
47.5809443415216
20
34.5684797628717
30
0
41
1
10
47.5979071063817
20
34.5884292724177
30
0
41
1
10
47.6055384811805
20
34.5988593299751
30
0
41
1
10
47.6123204154584
20
34.6097450637395
30
0
0
SPLINE
5
3C9
100
AcDbEntity
8
1
62
256
6
ByLayer
370
18
48
1
60
0
100
AcDbSpline
70
4
71
3
72
26
73
22
40
0
40
0
40
0
40
0
40
0.153114080923242
40
0.153114080923242
40
0.229671121384864
40
0.229671121384864
40
0.306228161846485
40
0.306228161846485
40
0.4593422427697
40
0.4593422427697
40
0.535899283231302
40
0.535899283231302
40
0.612456323692904
40
0.612456323692904
40
0.765570404616068
40
0.765570404616068
40
0.842127445077639
40
0.842127445077639
40
0.91868448553921
40
0.91868448553921
40
1
40
1
40
1
40
1
41
1
10
47.3608226949706
20
34.4813284795855
30
0
41
1
10
47.3315306616112
20
34.484169277252
30
0
41
1
10
47.3014261153286
20
34.4845821625271
30
0
41
1
10
47.2548120631508
20
34.4814798754903
30
0
41
1
10
47.2390288102051
20
34.4798214642035
30
0
41
1
10
47.2068939627111
20
34.4751806726034
30
0
41
1
10
47.190495115098
20
34.4721809674693
30
0
41
1
10
47.1414332762834
20
34.4612947397385
30
0
41
1
10
47.1085744523892
20
34.4515157500854
30
0
41
1
10
47.0588378795921
20
34.4326938264686
30
0
41
1
10
47.042276164394
20
34.4257437439622
30
0
41
1
10
47.010011369927
20
34.4108488479626
30
0
41
1
10
46.9941881777777
20
34.4028602466507
30
0
41
1
10
46.9476462353077
20
34.3772733295099
30
0
41
1
10
46.9175095259254
20
34.3577593590259
30
0
41
1
10
46.876663572004
20
34.3268127693335
30
0
41
1
10
46.8636820244386
20
34.3161777303415
30
0
41
1
10
46.838930707292
20
34.2942601103317
30
0
41
1
10
46.827106924754
20
34.2829140887831
30
0
41
1
10
46.8044348172241
20
34.2593352829413
30
0
41
1
10
46.7936225772196
20
34.2470475072412
30
0
41
1
10
46.7836162213702
20
34.2345987599562
30
0
0
SPLINE
5
3CA
100
AcDbEntity
8
1
62
256
6
ByLayer
370
18
48
1
60
0
100
AcDbSpline
70
4
71
3
72
26
73
22
40
0
40
0
40
0
40
0
40
0.0037937620630904
40
0.0037937620630904
40
0.0804250111351674
40
0.0804250111351674
40
0.233687509279318
40
0.233687509279318
40
0.310318758351395
40
0.310318758351395
40
0.386950007423473
40
0.386950007423473
40
0.540212505567602
40
0.540212505567602
40
0.616843754639666
40
0.616843754639666
40
0.69347500371173
40
0.69347500371173
40
0.846737501855865
40
0.846737501855865
40
1
40
1
40
1
40
1
41
1
10
46.2271105423636
20
34.2334043001707
30
0
41
1
10
46.2267270424457
20
34.2339865737898
30
0
41
1
10
46.2263414922993
20
34.2345686369809
30
0
41
1
10
46.2181244629522
20
34.2469035377274
30
0
41
1
10
46.209419965074
20
34.2586012010718
30
0
41
1
10
46.1811619712978
20
34.2927086310931
30
0
41
1
10
46.1593516483971
20
34.3143944284054
30
0
41
1
10
46.1214483245554
20
34.3453991026298
30
0
41
1
10
46.1079965659078
20
34.3554142850833
30
0
41
1
10
46.0801171525043
20
34.3743174224367
30
0
41
1
10
46.0655999656985
20
34.3832810107212
30
0
41
1
10
46.020305310162
20
34.4087118392457
30
0
41
1
10
45.9873109278449
20
34.4238629007971
30
0
41
1
10
45.9370951312039
20
34.4423669717189
30
0
41
1
10
45.9201608225683
20
34.4478863117521
30
0
41
1
10
45.8859076454523
20
34.4576606243025
30
0
41
1
10
45.8684956263919
20
34.4619297300356
30
0
41
1
10
45.8168039800814
20
34.4726149286375
30
0
41
1
10
45.7828042696042
20
34.4770368029775
30
0
41
1
10
45.7154362690899
20
34.4809488256751
30
0
41
1
10
45.6819792870463
20
34.4803933746895
30
0
41
1
10
45.6495387293583
20
34.4774093206245
30
0
0
SPLINE
5
3CB
100
AcDbEntity
8
1
62
256
6
ByLayer
370
18
48
1
60
0
100
AcDbSpline
70
4
71
3
72
18
73
14
40
0
40
0
40
0
40
0
40
0.124999999999992
40
0.124999999999992
40
0.249999999999984
40
0.249999999999984
40
0.374999999999976
40
0.374999999999976
40
0.499999999999968
40
0.499999999999968
40
0.749999999999984
40
0.749999999999984
40
1
40
1
40
1
40
1
41
1
10
45.3886687104368
20
34.6046524872406
30
0
41
1
10
45.3949176421387
20
34.5938338951423
30
0
41
1
10
45.4023040301613
20
34.5832327340174
30
0
41
1
10
45.4186434557981
20
34.5634673453411
30
0
41
1
10
45.4276244394015
20
34.5542168636867
30
0
41
1
10
45.4471753912499
20
34.5369502398565
30
0
41
1
10
45.4577626708085
20
34.5289528658121
30
0
41
1
10
45.4796782920693
20
34.5147606520816
30
0
41
1
10
45.491102241803
20
34.5084748777432
30
0
41
1
10
45.5267239899001
20
34.4919674519073
30
0
41
1
10
45.5513942124114
20
34.4844835126033
30
0
41
1
10
45.601263955619
20
34.4760604166125
30
0
41
1
10
45.6257626588596
20
34.4752222719151
30
0
41
1
10
45.6495387293583
20
34.4774093206244
30
0
0
SPLINE
5
3CC
100
AcDbEntity
8
1
62
256
6
ByLayer
370
18
48
1
60
0
100
AcDbSpline
70
4
71
3
72
28
73
24
40
0
40
0
40
0
40
0
40
0.125000000000017
40
0.125000000000017
40
0.187500000000026
40
0.187500000000026
40
0.250000000000034
40
0.250000000000034
40
0.375000000000038
40
0.375000000000038
40
0.437500000000033
40
0.437500000000033
40
0.500000000000029
40
0.500000000000029
40
0.625000000000021
40
0.625000000000021
40
0.750000000000013
40
0.750000000000013
40
0.812500000000011
40
0.812500000000011
40
0.875000000000008
40
0.875000000000008
40
1
40
1
40
1
40
1
41
1
10
48.7177396613295
20
14.7207083466944
30
0
41
1
10
48.7685571630231
20
14.724499146758
30
0
41
1
10
48.8183498654394
20
14.7326262726596
30
0
41
1
10
48.8915432232392
20
14.7511458344754
30
0
41
1
10
48.9156899588962
20
14.7583813134758
30
0
41
1
10
48.963466519251
20
14.7750395235582
30
0
41
1
10
48.9870056220047
20
14.7844450245127
30
0
41
1
10
49.0553302212996
20
14.8153296692378
30
0
41
1
10
49.0983378243115
20
14.8396159387472
30
0
41
1
10
49.1590248424141
20
14.8816063762906
30
0
41
1
10
49.178715723113
20
14.8966298169582
30
0
41
1
10
49.2161035946619
20
14.928055248052
30
0
41
1
10
49.2338245111512
20
14.9444539501841
30
0
41
1
10
49.284149188495
20
14.9956509207304
30
0
41
1
10
49.3139415307047
20
15.0324312623729
30
0
41
1
10
49.3657905554199
20
15.1114456492639
30
0
41
1
10
49.3870424564304
20
15.1524708970545
30
0
41
1
10
49.4121556757688
20
15.215969523805
30
0
41
1
10
49.4193982894632
20
15.237476192915
30
0
41
1
10
49.4315928852011
20
15.2811806227968
30
0
41
1
10
49.4365444252189
20
15.303438234793
30
0
41
1
10
49.4476700361231
20
15.3700596741355
30
0
41
1
10
49.450276431309
20
15.414633370349
30
0
41
1
10
49.4480564974564
20
15.459366988458
30
0
0
SPLINE
5
3CD
100
AcDbEntity
8
1
62
256
6
ByLayer
370
18
48
1
60
0
100
AcDbSpline
70
4
71
3
72
14
73
10
40
0
40
0
40
0
40
0
40
0.333166360842163
40
0.333166360842163
40
0.499874770631622
40
0.499874770631622
40
0.666583180421081
40
0.666583180421081
40
1
40
1
40
1
40
1
41
1
10
50.4738020313702
20
-14.4593134871507
30
0
41
1
10
50.5034169397274
20
-14.4946522201109
30
0
41
1
10
50.5285508592615
20
-14.5321888619727
30
0
41
1
10
50.5597487632031
20
-14.5914560231033
30
0
41
1
10
50.5690668508338
20
-14.6117273243668
30
0
41
1
10
50.5854977207271
20
-14.6532963990398
30
0
41
1
10
50.5926159889302
20
-14.6746536474162
30
0
41
1
10
50.6102543337934
20
-14.7391294006916
30
0
41
1
10
50.6172538546679
20
-14.7829865306435
30
0
41
1
10
50.6194785164543
20
-14.827719796066
30
0
0
SPLINE
5
3CE
100
AcDbEntity
8
1
62
256
6
ByLayer
370
18
48
1
60
0
100
AcDbSpline
70
4
71
3
72
18
73
14
40
0
40
0
40
0
40
0
40
0.250000000000008
40
0.250000000000008
40
0.500000000000016
40
0.500000000000016
40
0.625000000000012
40
0.625000000000012
40
0.750000000000008
40
0.750000000000008
40
0.875000000000004
40
0.875000000000004
40
1
40
1
40
1
40
1
41
1
10
44.2391773050294
20
17.8081153800142
30
0
41
1
10
44.2176949658404
20
17.7939549016841
30
0
41
1
10
44.1951953102634
20
17.7827707636354
30
0
41
1
10
44.1486680445386
20
17.7670868024758
30
0
41
1
10
44.1252927647714
20
17.7628239048638
30
0
41
1
10
44.090976441109
20
17.7624220369296
30
0
41
1
10
44.0798730039008
20
17.7632938484424
30
0
41
1
10
44.0583683194363
20
17.7670837208065
30
0
41
1
10
44.0478705004075
20
17.7700470297705
30
0
41
1
10
44.028251734252
20
17.7779701455479
30
0
41
1
10
44.0191166313487
20
17.7829033646098
30
0
41
1
10
44.002226737359
20
17.7947401860346
30
0
41
1
10
43.9944382481978
20
17.8017150880628
30
0
41
1
10
43.9876795845417
20
17.8094160609388
30
0
0
SPLINE
5
3CF
100
AcDbEntity
8
1
62
256
6
ByLayer
370
18
48
1
60
0
100
AcDbSpline
70
4
71
3
72
28
73
24
40
0
40
0
40
0
40
0
40
0.124999999999974
40
0.124999999999974
40
0.187499999999972
40
0.187499999999972
40
0.249999999999969
40
0.249999999999969
40
0.374999999999957
40
0.374999999999957
40
0.437499999999958
40
0.437499999999958
40
0.499999999999959
40
0.499999999999959
40
0.624999999999961
40
0.624999999999961
40
0.749999999999964
40
0.749999999999964
40
0.812499999999973
40
0.812499999999973
40
0.874999999999982
40
0.874999999999982
40
1
40
1
40
1
40
1
41
1
10
41.5642687247789
20
-39.9770424190069
30
0
41
1
10
41.5134512230852
20
-39.9771588005491
30
0
41
1
10
41.4634401094248
20
-39.9722630768196
30
0
41
1
10
41.3896003632756
20
-39.957604317337
30
0
41
1
10
41.3651846595254
20
-39.9514902233336
30
0
41
1
10
41.3167599958829
20
-39.9367339186443
30
0
41
1
10
41.2928422757836
20
-39.9281033782338
30
0
41
1
10
41.2232412990538
20
-39.8989832368753
30
0
41
1
10
41.1791904322963
20
-39.8751521071643
30
0
41
1
10
41.1166491535975
20
-39.8327594106097
30
0
41
1
10
41.0962873859724
20
-39.8174161899502
30
0
41
1
10
41.057482147141
20
-39.7849912751302
30
0
41
1
10
41.0390150013878
20
-39.767915395137
30
0
41
1
10
40.9863421243585
20
-39.714169351256
30
0
41
1
10
40.9548393283035
20
-39.6750044348125
30
0
41
1
10
40.8992709021634
20
-39.5898102536181
30
0
41
1
10
40.8760669119159
20
-39.5450833210791
30
0
41
1
10
40.8479035345308
20
-39.475178527841
30
0
41
1
10
40.8396231838683
20
-39.4513922588477
30
0
41
1
10
40.8253104510526
20
-39.402835898775
30
0
41
1
10
40.8192755469421
20
-39.3779978209935
30
0
41
1
10
40.8048935690585
20
-39.3033311229838
30
0
41
1
10
40.8000906110283
20
-39.2529539309426
30
0
41
1
10
40.8000882470614
20
-39.2019753955635
30
0
0
SPLINE
5
3D0
100
AcDbEntity
8
1
62
256
6
ByLayer
370
13
48
1
60
0
100
AcDbSpline
70
4
71
3
72
8
73
4
40
0
40
0
40
0
40
0
40
1
40
1
40
1
40
1
41
1
10
41.299999099956
20
-30.3847522412096
30
0
41
1
10
41.1935065611526
20
-30.7672919523184
30
0
41
1
10
41.0870140223492
20
-31.1498316634272
30
0
41
1
10
40.9805214835458
20
-31.532371374536
30
0
0
SPLINE
5
3D1
100
AcDbEntity
8
1
62
256
6
ByLayer
370
18
48
1
60
0
100
AcDbSpline
70
4
71
3
72
14
73
10
40
0
40
0
40
0
40
0
40
0.317122630226347
40
0.317122630226347
40
0.634245260452693
40
0.634245260452693
40
0.951367890679039
40
0.951367890679039
40
1
40
1
40
1
40
1
41
1
10
41.1998989792157
20
-38.2370877969409
30
0
41
1
10
41.2006952360238
20
-38.268174319627
30
0
41
1
10
41.2046061730842
20
-38.2985968299727
30
0
41
1
10
41.2183569909674
20
-38.3581778712086
30
0
41
1
10
41.2283371110724
20
-38.3876171543855
30
0
41
1
10
41.2538976663405
20
-38.4437064457041
30
0
41
1
10
41.2693247254101
20
-38.470194132253
30
0
41
1
10
41.2901083917711
20
-38.4989844907753
30
0
41
1
10
41.2929383367253
20
-38.5027804249863
30
0
41
1
10
41.295831214087
20
-38.5065402495019
30
0
0
SPLINE
5
3D2
100
AcDbEntity
8
1
62
256
6
ByLayer
370
13
48
1
60
0
100
AcDbSpline
70
4
71
3
72
8
73
4
40
0
40
0
40
0
40
0
40
1
40
1
40
1
40
1
41
1
10
40.8000882470614
20
-39.2019753955635
30
0
41
1
10
40.9333584911129
20
-38.8803461960226
30
0
41
1
10
41.0666287351643
20
-38.5587169964818
30
0
41
1
10
41.1998989792157
20
-38.2370877969409
30
0
0
SPLINE
5
3D3
100
AcDbEntity
8
1
62
256
6
ByLayer
370
18
48
1
60
0
100
AcDbSpline
70
4
71
3
72
29
73
25
40
0
40
0
40
0
40
0
40
0.124999999999988
40
0.124999999999988
40
0.187499999999981
40
0.187499999999981
40
0.249999999999975
40
0.249999999999975
40
0.374999999999979
40
0.374999999999979
40
0.43749999999998
40
0.43749999999998
40
0.499999999999982
40
0.499999999999982
40
0.624999999999998
40
0.624999999999998
40
0.687500000000001
40
0.687500000000001
40
0.750000000000004
40
0.812500000000007
40
0.812500000000007
40
0.87500000000001
40
0.87500000000001
40
1
40
1
40
1
40
1
41
1
10
49.267623260972
20
-39.1825831635348
30
0
41
1
10
49.2676208967812
20
-39.2335665368527
30
0
41
1
10
49.2628170878154
20
-39.2838078975992
30
0
41
1
10
49.2485686595187
20
-39.3580815615314
30
0
41
1
10
49.2426373394891
20
-39.3826568080126
30
0
41
1
10
49.2283376018243
20
-39.4314306732848
30
0
41
1
10
49.2199749293787
20
-39.4555565160704
30
0
41
1
10
49.1917437651981
20
-39.5258589745324
30
0
41
1
10
49.1686255500776
20
-39.5704758028544
30
0
41
1
10
49.1274317534379
20
-39.6339869902872
30
0
41
1
10
49.1125274172971
20
-39.6546815497648
30
0
41
1
10
49.0808125326987
20
-39.6943932846793
30
0
41
1
10
49.0640967979031
20
-39.7133141273691
30
0
41
1
10
49.0114404368278
20
-39.7673431774468
30
0
41
1
10
48.9730144751759
20
-39.7997438578104
30
0
41
1
10
48.910222846689
20
-39.8427315366831
30
0
41
1
10
48.8884791191968
20
-39.8560628367452
30
0
41
1
10
48.8442363719022
20
-39.8802438293881
30
0
41
1
10
48.7990105755002
20
-39.9021054657575
30
0
41
1
10
48.7518461090982
20
-39.9193931023205
30
0
41
1
10
48.7036983482
20
-39.9343608036522
30
0
41
1
10
48.6790116241334
20
-39.9407053817838
30
0
41
1
10
48.6045160436904
20
-39.9559065800132
30
0
41
1
10
48.5542705511224
20
-39.9610340131279
30
0
41
1
10
48.5034427832545
20
-39.9611504181817
30
0
0
SPLINE
5
3D4
100
AcDbEntity
8
1
62
256
6
ByLayer
370
13
48
1
60
0
100
AcDbSpline
70
4
71
3
72
8
73
4
40
0
40
0
40
0
40
0
40
1
40
1
40
1
40
1
41
1
10
41.6876086515227
20
-38.7660171481844
30
0
41
1
10
41.646495342608
20
-39.1696922384585
30
0
41
1
10
41.6053820336935
20
-39.5733673287327
30
0
41
1
10
41.5642687247789
20
-39.9770424190069
30
0
0
SPLINE
5
3D5
100
AcDbEntity
8
1
62
256
6
ByLayer
370
13
48
1
60
0
100
AcDbSpline
70
4
71
3
72
8
73
4
40
0
40
0
40
0
40
0
40
1
40
1
40
1
40
1
41
1
10
48.7754961148582
20
-38.7660089602842
30
0
41
1
10
48.9395384968961
20
-38.9048670280344
30
0
41
1
10
49.1035808789341
20
-39.0437250957846
30
0
41
1
10
49.267623260972
20
-39.1825831635348
30
0
0
SPLINE
5
3D6
100
AcDbEntity
8
1
62
256
6
ByLayer
370
13
48
1
60
0
100
AcDbSpline
70
4
71
3
72
8
73
4
40
0
40
0
40
0
40
0
40
1
40
1
40
1
40
1
41
1
10
48.5034427832545
20
-39.9611504181816
30
0
41
1
10
48.2263295839967
20
-39.5627721096391
30
0
41
1
10
47.9492163847387
20
-39.1643938010967
30
0
41
1
10
47.6721031854809
20
-38.7660154925541
30
0
0
SPLINE
5
3D7
100
AcDbEntity
8
1
62
256
6
ByLayer
370
18
48
1
60
0
100
AcDbSpline
70
4
71
3
72
8
73
4
40
0
40
0
40
0
40
0
40
1
40
1
40
1
40
1
41
1
10
50.7999117529387
20
-20.623120131657
30
0
41
1
10
50.7999109337326
20
-20.6323538365812
30
0
41
1
10
50.7993336225954
20
-20.6415832898808
30
0
41
1
10
50.7981842420645
20
-20.6508085241719
30
0
0
SPLINE
5
3D8
100
AcDbEntity
8
1
62
256
6
ByLayer
370
18
48
1
60
0
100
AcDbSpline
70
2053
71
3
72
127
73
123
40
0
40
0
40
0
40
0
40
0.0312500000000021
40
0.0312500000000021
40
0.046875000000003
40
0.046875000000003
40
0.062500000000004
40
0.062500000000004
40
0.0937500000000061
40
0.0937500000000061
40
0.101562500000007
40
0.101562500000007
40
0.109375000000007
40
0.109375000000007
40
0.125000000000008
40
0.125000000000008
40
0.156250000000009
40
0.156250000000009
40
0.16406250000001
40
0.16406250000001
40
0.17187500000001
40
0.17187500000001
40
0.18750000000001
40
0.20312500000001
40
0.20312500000001
40
0.21093750000001
40
0.21093750000001
40
0.218750000000011
40
0.218750000000011
40
0.250000000000011
40
0.250000000000011
40
0.265625000000011
40
0.265625000000011
40
0.273437500000012
40
0.273437500000012
40
0.281250000000012
40
0.281250000000012
40
0.312500000000014
40
0.312500000000014
40
0.320312500000014
40
0.320312500000014
40
0.328125000000013
40
0.328125000000013
40
0.343750000000013
40
0.343750000000013
40
0.375000000000013
40
0.375000000000013
40
0.406250000000012
40
0.406250000000012
40
0.421875000000012
40
0.421875000000012
40
0.429687500000011
40
0.429687500000011
40
0.43750000000001
40
0.43750000000001
40
0.468750000000011
40
0.468750000000011
40
0.476562500000011
40
0.476562500000011
40
0.484375000000011
40
0.484375000000011
40
0.500000000000012
40
0.500000000000012
40
0.531250000000013
40
0.531250000000013
40
0.539062500000013
40
0.539062500000013
40
0.546875000000013
40
0.546875000000013
40
0.562500000000012
40
0.578125000000012
40
0.578125000000012
40
0.585937500000011
40
0.585937500000011
40
0.593750000000011
40
0.593750000000011
40
0.62500000000001
40
0.62500000000001
40
0.640625000000009
40
0.640625000000009
40
0.648437500000009
40
0.648437500000009
40
0.656250000000008
40
0.656250000000008
40
0.687500000000007
40
0.687500000000007
40
0.703125000000006
40
0.703125000000006
40
0.718750000000006
40
0.718750000000006
40
0.750000000000005
40
0.750000000000005
40
0.781250000000005
40
0.781250000000005
40
0.796875000000005
40
0.796875000000005
40
0.804687500000005
40
0.804687500000005
40
0.812500000000005
40
0.812500000000005
40
0.843750000000005
40
0.843750000000005
40
0.851562500000005
40
0.851562500000005
40
0.859375000000004
40
0.859375000000004
40
0.875000000000004
40
0.875000000000004
40
0.906250000000003
40
0.906250000000003
40
0.914062500000003
40
0.914062500000003
40
0.921875000000002
40
0.921875000000002
40
0.937500000000001
40
0.953125
40
0.953125
40
0.9609375
40
0.9609375
40
0.96875
40
0.96875
40
1
40
1
40
1
40
1
41
1
10
48.0295085345386
20
11.4050255316442
30
0
41
1
10
48.1627385096378
20
11.2620006085629
30
0
41
1
10
48.2791944212896
20
11.1090325623389
30
0
41
1
10
48.429742170925
20
10.8655509207385
30
0
41
1
10
48.4758721144299
20
10.7820338844099
30
0
41
1
10
48.5598404682979
20
10.6102200310693
30
0
41
1
10
48.5977025784842
20
10.5216962406381
30
0
41
1
10
48.6962695170376
20
10.2548097457407
30
0
41
1
10
48.7431005860815
20
10.0733316091195
30
0
41
1
10
48.7782909090087
20
9.84222161673205
30
0
41
1
10
48.7841510810829
20
9.79578419144281
30
0
41
1
10
48.7934792173408
20
9.7024736359175
30
0
41
1
10
48.7969507689103
20
9.65546916057122
30
0
41
1
10
48.8036506815575
20
9.51504767029473
30
0
41
1
10
48.8032161637489
20
9.42213164121745
30
0
41
1
10
48.7876874951752
20
9.14541169645429
30
0
41
1
10
48.7585031141205
20
8.96362284024218
30
0
41
1
10
48.6979821021155
20
8.73973576652344
30
0
41
1
10
48.6846359736774
20
8.69505800579373
30
0
41
1
10
48.6557931541586
20
8.60698397131955
30
0
41
1
10
48.640270865357
20
8.56347747369745
30
0
41
1
10
48.590460669024
20
8.43451346400343
30
0
41
1
10
48.5154134620507
20
8.26670212575704
30
0
41
1
10
48.4233377479761
20
8.10696331245146
30
0
41
1
10
48.3477958518466
20
7.9901905045096
30
0
41
1
10
48.3215324110404
20
7.95177230146635
30
0
41
1
10
48.2667984633657
20
7.87595939480337
30
0
41
1
10
48.2383262921291
20
7.83857705895656
30
0
41
1
10
48.0919944125425
20
7.65623954758263
30
0
41
1
10
47.961169501926
20
7.52320095599038
30
0
41
1
10
47.7445968563384
20
7.34215671918531
30
0
41
1
10
47.6689922606624
20
7.28491684818312
30
0
41
1
10
47.5502711472177
20
7.20383735163244
30
0
41
1
10
47.5098449270671
20
7.17764254849021
30
0
41
1
10
47.4281146930305
20
7.12742501328574
30
0
41
1
10
47.3867025897912
20
7.10332667523181
30
0
41
1
10
47.1769423094744
20
6.98779885444998
30
0
41
1
10
47.0005725870889
20
6.91111348224894
30
0
41
1
10
46.7691828938765
20
6.83501925587149
30
0
41
1
10
46.7223536692983
20
6.82079781635275
30
0
41
1
10
46.6275664270308
20
6.79439073906775
30
0
41
1
10
46.5796991898383
20
6.78223782547616
30
0
41
1
10
46.436031536171
20
6.74923513096354
30
0
41
1
10
46.3396606139503
20
6.73168760750866
30
0
41
1
10
46.048806979632
20
6.69208338217669
30
0
41
1
10
45.8526001941251
20
6.68293135701066
30
0
41
1
10
45.4553732970945
20
6.70059006729281
30
0
41
1
10
45.2607785605649
20
6.72715547205866
30
0
41
1
10
44.9756267115272
20
6.79242214928212
30
0
41
1
10
44.8816502113967
20
6.81844976567754
30
0
41
1
10
44.7423258317432
20
6.86405151384747
30
0
41
1
10
44.6960436414183
20
6.88039206180321
30
0
41
1
10
44.6046129784356
20
6.91509333226804
30
0
41
1
10
44.5595596974592
20
6.93341076024512
30
0
41
1
10
44.3375286417216
20
7.02974169102765
30
0
41
1
10
44.1701639220467
20
7.12184540165572
30
0
41
1
10
43.9735564053622
20
7.25579687678254
30
0
41
1
10
43.9348705852474
20
7.28353704888764
30
0
41
1
10
43.8587880951484
20
7.34095370275963
30
0
41
1
10
43.8213190801289
20
7.37069673852614
30
0
41
1
10
43.7119921373409
20
7.46194975873505
30
0
41
1
10
43.6428821065767
20
7.52569938517911
30
0
41
1
10
43.4465213756528
20
7.72552900566006
30
0
41
1
10
43.3301329716938
20
7.87010591144985
30
0
41
1
10
43.2032648874635
20
8.06575015670097
30
0
41
1
10
43.1788270357453
20
8.1056546746118
30
0
41
1
10
43.1323642599926
20
8.1861106377861
30
0
41
1
10
43.1102675758272
20
8.22676803921456
30
0
41
1
10
43.0473265538153
20
8.35001775410484
30
0
41
1
10
42.972320069608
20
8.51775200872584
30
0
41
1
10
42.9149579600411
20
8.69231086393671
30
0
41
1
10
42.8786784471627
20
8.82586538276922
30
0
41
1
10
42.8677109817175
20
8.87082349689621
30
0
41
1
10
42.8480742648968
20
8.96164148726263
30
0
41
1
10
42.83941469223
20
9.0074999077994
30
0
41
1
10
42.8023574030086
20
9.23648900274276
30
0
41
1
10
42.7920272343424
20
9.42075971388886
30
0
41
1
10
42.8050295939843
20
9.69878839624886
30
0
41
1
10
42.8141468957258
20
9.79173552277643
30
0
41
1
10
42.8352543433936
20
9.93156743450936
30
0
41
1
10
42.8435315469487
20
9.97819370594817
30
0
41
1
10
42.8623801703197
20
10.070531055027
30
0
41
1
10
42.8729696399017
20
10.1163718869293
30
0
41
1
10
42.9316552723849
20
10.3439541260314
30
0
41
1
10
42.996802936506
20
10.520881573031
30
0
41
1
10
43.1221404039509
20
10.7782689611347
30
0
41
1
10
43.1688445855837
20
10.8631326837278
30
0
41
1
10
43.2698434892857
20
11.0267410608537
30
0
41
1
10
43.324217135308
20
11.1057648998398
30
0
41
1
10
43.4987057582044
20
11.3346131956905
30
0
41
1
10
43.6302214771868
20
11.4764268719729
30
0
41
1
10
43.9240712473223
20
11.7364314749978
30
0
41
1
10
44.0817575761937
20
11.8505569673829
30
0
41
1
10
44.3338089059101
20
11.9986055051472
30
0
41
1
10
44.4204322678521
20
12.0440703494007
30
0
41
1
10
44.5543723691721
20
12.1062710967549
30
0
41
1
10
44.5998053797849
20
12.1260501192337
30
0
41
1
10
44.6914456054105
20
12.1633171395912
30
0
41
1
10
44.7375588784597
20
12.1807746984228
30
0
41
1
10
44.969562716706
20
12.2622880016289
30
0
41
1
10
45.1597246630337
20
12.3091811365834
30
0
41
1
10
45.4030979942974
20
12.3449190895586
30
0
41
1
10
45.4520587612244
20
12.3509127298553
30
0
41
1
10
45.5505622824525
20
12.3605514031532
30
0
41
1
10
45.6002430259898
20
12.3642003174889
30
0
41
1
10
45.7488086234688
20
12.3714860455711
30
0
41
1
10
45.8473577865152
20
12.3715159889856
30
0
41
1
10
46.1415652808507
20
12.3575507393087
30
0
41
1
10
46.3357973662946
20
12.3296307814949
30
0
41
1
10
46.5761388480276
20
12.2708829950496
30
0
41
1
10
46.6241710358482
20
12.2578986688457
30
0
41
1
10
46.7189603571526
20
12.2297916167489
30
0
41
1
10
46.7658310889477
20
12.2146457693528
30
0
41
1
10
46.9048991072765
20
12.1659933593738
30
0
41
1
10
47.0862124751586
20
12.0925653578537
30
0
41
1
10
47.2594140156708
20
12.0023057017272
30
0
41
1
10
47.3862254722429
20
11.9282255936242
30
0
41
1
10
47.4279800878126
20
11.9024661320974
30
0
41
1
10
47.5104379127931
20
11.8487791216048
30
0
41
1
10
47.5511300231148
20
11.8208499117739
30
0
41
1
10
47.7500338794413
20
11.6770907509309
30
0
41
1
10
47.8962785594394
20
11.5480504547255
30
0
41
1
10
48.0295085345386
20
11.4050255316442
30
0
0
SPLINE
5
3D9
100
AcDbEntity
8
1
62
256
6
ByLayer
370
18
48
1
60
0
100
AcDbSpline
70
4
71
1
72
4
73
2
40
0
40
0
40
1
40
1
41
1
10
42.237250639327
20
-15.7350735489027
30
0
41
1
10
42.1514175373742
20
-16.0535704848522
30
0
0
SPLINE
5
3DA
100
AcDbEntity
8
1
62
256
6
ByLayer
370
18
48
1
60
0
100
AcDbSpline
70
4
71
1
72
4
73
2
40
0
40
0
40
1
40
1
41
1
10
49.2400857736073
20
21.361689384956
30
0
41
1
10
48.1051778513983
20
24.4307613786289
30
0
0
SPLINE
5
3DB
100
AcDbEntity
8
1
62
256
6
ByLayer
370
18
48
1
60
0
100
AcDbSpline
70
4
71
1
72
4
73
2
40
0
40
0
40
1
40
1
41
1
10
41.2019038496089
20
23.8454730857454
30
0
41
1
10
40.8019229555772
20
20.6516102019829
30
0
0
SPLINE
5
3DC
100
AcDbEntity
8
1
62
256
6
ByLayer
370
18
48
1
60
0
100
AcDbSpline
70
4
71
1
72
4
73
2
40
0
40
0
40
1
40
1
41
1
10
50.3000014834806
20
30.3509249989887
30
0
41
1
10
50.5819663253079
20
31.3523307843716
30
0
0
SPLINE
5
3DD
100
AcDbEntity
8
1
62
256
6
ByLayer
370
18
48
1
60
0
100
AcDbSpline
70
4
71
1
72
4
73
2
40
0
40
0
40
1
40
1
41
1
10
50.3981359760162
20
-23.8451550765918
30
0
41
1
10
50.7980412789533
20
-20.6518957906384
30
0
0
SPLINE
5
3DE
100
AcDbEntity
8
1
62
256
6
ByLayer
370
18
48
1
60
0
100
AcDbSpline
70
4
71
1
72
4
73
2
40
0
40
0
40
1
40
1
41
1
10
41.2999940431545
20
-30.3509408862658
30
0
41
1
10
41.0180560333102
20
-31.3522513771332
30
0
0
LINE
5
7C
100
AcDbEntity
8
1
62
256
6
ByLayer
370
18
48
1
60
0
100
AcDbLine
10
48.71774
20
14.720708
30
0
11
41.778566
21
14.203071
31
0
39
0
210
0
220
0
230
1
0
LINE
5
7D
100
AcDbEntity
8
1
62
256
6
ByLayer
370
18
48
1
60
0
100
AcDbLine
10
41.325
20
4.617701
30
0
11
41.325
21
4.834712
31
0
39
0
210
0
220
0
230
1
0
LINE
5
7E
100
AcDbEntity
8
1
62
256
6
ByLayer
370
18
48
1
60
0
100
AcDbLine
10
44.933975
20
7.958254
30
0
11
44.067949
21
9.410476
31
0
39
0
210
0
220
0
230
1
0
LINE
5
7F
100
AcDbEntity
8
1
62
256
6
ByLayer
370
18
48
1
60
0
100
AcDbLine
10
44.067949
20
9.410476
30
0
11
44.933975
21
10.862697
31
0
39
0
210
0
220
0
230
1
0
LINE
5
80
100
AcDbEntity
8
1
62
256
6
ByLayer
370
18
48
1
60
0
100
AcDbLine
10
41.275
20
38.766013
30
0
11
41.275
21
34.45273
31
0
39
0
210
0
220
0
230
1
0
LINE
5
81
100
AcDbEntity
8
1
62
256
6
ByLayer
370
18
48
1
60
0
100
AcDbLine
10
46.666025
20
7.958254
30
0
11
47.532051
21
9.410476
31
0
39
0
210
0
220
0
230
1
0
LINE
5
82
100
AcDbEntity
8
1
62
256
6
ByLayer
370
18
48
1
60
0
100
AcDbLine
10
41.275
20
30.95497
30
0
11
41.275
21
33.884506
31
0
39
0
210
0
220
0
230
1
0
LINE
5
83
100
AcDbEntity
8
1
62
256
6
ByLayer
370
18
48
1
60
0
100
AcDbLine
10
50.799972
20
-17.96167
30
0
11
50.437375
21
-14.066364
31
0
39
0
210
0
220
0
230
1
0
LINE
5
84
100
AcDbEntity
8
1
62
256
6
ByLayer
370
18
48
1
60
0
100
AcDbLine
10
42.332317
20
-17.310621
30
0
11
42.332377
21
-17.927816
31
0
39
0
210
0
220
0
230
1
0
LINE
5
85
100
AcDbEntity
8
1
62
256
6
ByLayer
370
18
48
1
60
0
100
AcDbLine
10
50.437375
20
-14.066364
30
0
11
50.400101
21
-14.416514
31
0
39
0
210
0
220
0
230
1
0
LINE
5
86
100
AcDbEntity
8
1
62
256
6
ByLayer
370
18
48
1
60
0
100
AcDbLine
10
43.096557
20
-18.357363
30
0
11
50.035731
21
-18.890892
31
0
39
0
210
0
220
0
230
1
0
LINE
5
87
100
AcDbEntity
8
1
62
256
6
ByLayer
370
18
48
1
60
0
100
AcDbLine
10
50.275
20
13.54291
30
0
11
50.275
21
13.712605
31
0
39
0
210
0
220
0
230
1
0
LINE
5
88
100
AcDbEntity
8
1
62
256
6
ByLayer
370
18
48
1
60
0
100
AcDbLine
10
41.325
20
13.54291
30
0
11
41.325
21
13.712605
31
0
39
0
210
0
220
0
230
1
0
LINE
5
89
100
AcDbEntity
8
1
62
256
6
ByLayer
370
18
48
1
60
0
100
AcDbLine
10
50.275
20
13.54291
30
0
11
50.275
21
4.834712
31
0
39
0
210
0
220
0
230
1
0
LINE
5
8A
100
AcDbEntity
8
1
62
256
6
ByLayer
370
18
48
1
60
0
100
AcDbLine
10
41.325
20
13.54291
30
0
11
41.325
21
4.834712
31
0
39
0
210
0
220
0
230
1
0
LINE
5
8B
100
AcDbEntity
8
1
62
256
6
ByLayer
370
18
48
1
60
0
100
AcDbLine
10
40.924095
20
15.96234
30
0
11
40.800028
21
19.94728
31
0
39
0
210
0
220
0
230
1
0
LINE
5
8C
100
AcDbEntity
8
1
62
256
6
ByLayer
370
18
48
1
60
0
100
AcDbLine
10
49.39175
20
16.593996
30
0
11
40.924095
21
15.96234
31
0
39
0
210
0
220
0
230
1
0
LINE
5
8D
100
AcDbEntity
8
1
62
256
6
ByLayer
370
18
48
1
60
0
100
AcDbLine
10
49.267683
20
20.578936
30
0
11
49.39175
21
16.593996
31
0
39
0
210
0
220
0
230
1
0
LINE
5
8E
100
AcDbEntity
8
1
62
256
6
ByLayer
370
18
48
1
60
0
100
AcDbLine
10
41.694512
20
24.207618
30
0
11
47.615526
21
24.649304
31
0
39
0
210
0
220
0
230
1
0
LINE
5
8F
100
AcDbEntity
8
1
62
256
6
ByLayer
370
18
48
1
60
0
100
AcDbLine
10
49.267623
20
21.254767
30
0
11
49.267683
21
20.578936
31
0
39
0
210
0
220
0
230
1
0
LINE
5
90
100
AcDbEntity
8
1
62
256
6
ByLayer
370
18
48
1
60
0
100
AcDbLine
10
41.564269
20
21.08615
30
0
11
48.503443
21
21.603787
31
0
39
0
210
0
220
0
230
1
0
LINE
5
91
100
AcDbEntity
8
1
62
256
6
ByLayer
370
18
48
1
60
0
100
AcDbLine
10
40.800028
20
19.94728
30
0
11
40.800088
21
20.62312
31
0
39
0
210
0
220
0
230
1
0
LINE
5
92
100
AcDbEntity
8
1
62
256
6
ByLayer
370
18
48
1
60
0
100
AcDbLine
10
49.267683
20
20.578936
30
0
11
40.800028
21
19.94728
31
0
39
0
210
0
220
0
230
1
0
LINE
5
93
100
AcDbEntity
8
1
62
256
6
ByLayer
370
18
48
1
60
0
100
AcDbLine
10
50.325
20
4.406108
30
0
11
50.325
21
4.361244
31
0
39
0
210
0
220
0
230
1
0
LINE
5
94
100
AcDbEntity
8
1
62
256
6
ByLayer
370
18
48
1
60
0
100
AcDbLine
10
50.325
20
4.912775
30
0
11
50.325
21
4.406108
31
0
39
0
210
0
220
0
230
1
0
LINE
5
95
100
AcDbEntity
8
1
62
256
6
ByLayer
370
18
48
1
60
0
100
AcDbLine
10
50.325
20
8.884177
30
0
11
50.325
21
4.912775
31
0
39
0
210
0
220
0
230
1
0
LINE
5
96
100
AcDbEntity
8
1
62
256
6
ByLayer
370
13
48
1
60
0
100
AcDbLine
10
45.324645
20
17.622316
30
0
11
45.23075
21
18.386564
31
0
39
0
210
0
220
0
230
1
0
LINE
5
97
100
AcDbEntity
8
1
62
256
6
ByLayer
370
13
48
1
60
0
100
AcDbLine
10
44.881566
20
17.589264
30
0
11
44.787671
21
18.353512
31
0
39
0
210
0
220
0
230
1
0
LINE
5
98
100
AcDbEntity
8
1
62
256
6
ByLayer
370
18
48
1
60
0
100
AcDbLine
10
45.996296
20
18.553543
30
0
11
45.93858
21
19.023316
31
0
39
0
210
0
220
0
230
1
0
LINE
5
99
100
AcDbEntity
8
1
62
256
6
ByLayer
370
13
48
1
60
0
100
AcDbLine
10
45.950461
20
17.935771
30
0
11
45.856566
21
18.700019
31
0
39
0
210
0
220
0
230
1
0
LINE
5
9A
100
AcDbEntity
8
1
62
256
6
ByLayer
370
18
48
1
60
0
100
AcDbLine
10
45.94168
20
19.02278
30
0
11
45.995266
21
18.586622
31
0
39
0
210
0
220
0
230
1
0
LINE
5
9B
100
AcDbEntity
8
1
62
256
6
ByLayer
370
13
48
1
60
0
100
AcDbLine
10
44.239177
20
17.808115
30
0
11
44.145282
21
18.572363
31
0
39
0
210
0
220
0
230
1
0
LINE
5
9C
100
AcDbEntity
8
1
62
256
6
ByLayer
370
13
48
1
60
0
100
AcDbLine
10
46.146604
20
18.764581
30
0
11
46.122763
21
18.958634
31
0
39
0
210
0
220
0
230
1
0
LINE
5
9D
100
AcDbEntity
8
1
62
256
6
ByLayer
370
13
48
1
60
0
100
AcDbLine
10
43.992433
20
18.603888
30
0
11
43.973147
21
18.760868
31
0
39
0
210
0
220
0
230
1
0
LINE
5
9E
100
AcDbEntity
8
1
62
256
6
ByLayer
370
18
48
1
60
0
100
AcDbLine
10
41.3
20
-16.832499
30
0
11
41.3
21
-23.950211
31
0
39
0
210
0
220
0
230
1
0
LINE
5
9F
100
AcDbEntity
8
1
62
256
6
ByLayer
370
18
48
1
60
0
100
AcDbLine
10
50.3
20
-23.950211
30
0
11
50.3
21
-18.883468
31
0
39
0
210
0
220
0
230
1
0
LINE
5
A0
100
AcDbEntity
8
1
62
256
6
ByLayer
370
18
48
1
60
0
100
AcDbLine
10
50.325
20
-21.244198
30
0
11
50.325
21
-21.022728
31
0
39
0
210
0
220
0
230
1
0
LINE
5
A1
100
AcDbEntity
8
1
62
256
6
ByLayer
370
18
48
1
60
0
100
AcDbLine
10
50.325
20
-21.38942
30
0
11
50.325
21
-21.244198
31
0
39
0
210
0
220
0
230
1
0
LINE
5
A2
100
AcDbEntity
8
1
62
256
6
ByLayer
370
18
48
1
60
0
100
AcDbLine
10
50.325
20
-22.363037
30
0
11
50.325
21
-22.183786
31
0
39
0
210
0
220
0
230
1
0
LINE
5
A3
100
AcDbEntity
8
1
62
256
6
ByLayer
370
18
48
1
60
0
100
AcDbLine
10
50.325
20
-22.468173
30
0
11
50.325
21
-22.363037
31
0
39
0
210
0
220
0
230
1
0
LINE
5
A4
100
AcDbEntity
8
1
62
256
6
ByLayer
370
18
48
1
60
0
100
AcDbLine
10
50.325
20
-25.074678
30
0
11
50.325
21
-24.790938
31
0
39
0
210
0
220
0
230
1
0
LINE
5
A5
100
AcDbEntity
8
1
62
256
6
ByLayer
370
13
48
1
60
0
100
AcDbLine
10
50.325
20
-20.917591
30
0
11
50.299899
21
-20.917591
31
0
39
0
210
0
220
0
230
1
0
LINE
5
A6
100
AcDbEntity
8
1
62
256
6
ByLayer
370
18
48
1
60
0
100
AcDbLine
10
50.325
20
-22.834866
30
0
11
50.325
21
-23.345492
31
0
39
0
210
0
220
0
230
1
0
LINE
5
A7
100
AcDbEntity
8
1
62
256
6
ByLayer
370
18
48
1
60
0
100
AcDbLine
10
50.325
20
-22.468173
30
0
11
50.325
21
-22.689644
31
0
39
0
210
0
220
0
230
1
0
LINE
5
A8
100
AcDbEntity
8
1
62
256
6
ByLayer
370
13
48
1
60
0
100
AcDbLine
10
50.325
20
-21.900047
30
0
11
50.299899
21
-21.900047
31
0
39
0
210
0
220
0
230
1
0
LINE
5
A9
100
AcDbEntity
8
1
62
256
6
ByLayer
370
18
48
1
60
0
100
AcDbLine
10
50.325
20
-22.689644
30
0
11
50.325
21
-22.834866
31
0
39
0
210
0
220
0
230
1
0
LINE
5
AA
100
AcDbEntity
8
1
62
256
6
ByLayer
370
13
48
1
60
0
100
AcDbLine
10
50.325
20
-21.022728
30
0
11
50.299899
21
-21.022728
31
0
39
0
210
0
220
0
230
1
0
LINE
5
AB
100
AcDbEntity
8
1
62
256
6
ByLayer
370
18
48
1
60
0
100
AcDbLine
10
50.325
20
-23.629232
30
0
11
50.325
21
-23.808483
31
0
39
0
210
0
220
0
230
1
0
LINE
5
AC
100
AcDbEntity
8
1
62
256
6
ByLayer
370
13
48
1
60
0
100
AcDbLine
10
50.325
20
-21.244198
30
0
11
50.299899
21
-21.244198
31
0
39
0
210
0
220
0
230
1
0
LINE
5
AD
100
AcDbEntity
8
1
62
256
6
ByLayer
370
13
48
1
60
0
100
AcDbLine
10
50.325
20
-21.38942
30
0
11
50.299899
21
-21.38942
31
0
39
0
210
0
220
0
230
1
0
LINE
5
AE
100
AcDbEntity
8
1
62
256
6
ByLayer
370
18
48
1
60
0
100
AcDbLine
10
50.325
20
-23.808483
30
0
11
50.325
21
-23.913619
31
0
39
0
210
0
220
0
230
1
0
LINE
5
AF
100
AcDbEntity
8
1
62
256
6
ByLayer
370
13
48
1
60
0
100
AcDbLine
10
50.325
20
-22.183786
30
0
11
50.299899
21
-22.183786
31
0
39
0
210
0
220
0
230
1
0
LINE
5
B0
100
AcDbEntity
8
1
62
256
6
ByLayer
370
18
48
1
60
0
100
AcDbLine
10
50.325
20
-26.236384
30
0
11
50.325
21
-26.520123
31
0
39
0
210
0
220
0
230
1
0
LINE
5
B1
100
AcDbEntity
8
1
62
256
6
ByLayer
370
13
48
1
60
0
100
AcDbLine
10
50.325
20
-22.363037
30
0
11
50.299899
21
-22.363037
31
0
39
0
210
0
220
0
230
1
0
LINE
5
B2
100
AcDbEntity
8
1
62
256
6
ByLayer
370
18
48
1
60
0
100
AcDbLine
10
50.325
20
-24.790938
30
0
11
50.325
21
-24.280312
31
0
39
0
210
0
220
0
230
1
0
LINE
5
B3
100
AcDbEntity
8
1
62
256
6
ByLayer
370
18
48
1
60
0
100
AcDbLine
10
50.325
20
-24.13509
30
0
11
50.325
21
-23.913619
31
0
39
0
210
0
220
0
230
1
0
LINE
5
B4
100
AcDbEntity
8
1
62
256
6
ByLayer
370
13
48
1
60
0
100
AcDbLine
10
50.325
20
-23.345492
30
0
11
50.299899
21
-23.345492
31
0
39
0
210
0
220
0
230
1
0
LINE
5
B5
100
AcDbEntity
8
1
62
256
6
ByLayer
370
18
48
1
60
0
100
AcDbLine
10
50.325
20
-24.280312
30
0
11
50.325
21
-24.13509
31
0
39
0
210
0
220
0
230
1
0
LINE
5
B6
100
AcDbEntity
8
1
62
256
6
ByLayer
370
13
48
1
60
0
100
AcDbLine
10
50.325
20
-22.468173
30
0
11
50.299899
21
-22.468173
31
0
39
0
210
0
220
0
230
1
0
LINE
5
B7
100
AcDbEntity
8
1
62
256
6
ByLayer
370
18
48
1
60
0
100
AcDbLine
10
50.325
20
-25.253928
30
0
11
50.325
21
-25.074678
31
0
39
0
210
0
220
0
230
1
0
LINE
5
B8
100
AcDbEntity
8
1
62
256
6
ByLayer
370
13
48
1
60
0
100
AcDbLine
10
50.325
20
-22.689644
30
0
11
50.299899
21
-22.689644
31
0
39
0
210
0
220
0
230
1
0
LINE
5
B9
100
AcDbEntity
8
1
62
256
6
ByLayer
370
13
48
1
60
0
100
AcDbLine
10
50.325
20
-22.834866
30
0
11
50.299899
21
-22.834866
31
0
39
0
210
0
220
0
230
1
0
LINE
5
BA
100
AcDbEntity
8
1
62
256
6
ByLayer
370
18
48
1
60
0
100
AcDbLine
10
50.325
20
-25.359065
30
0
11
50.325
21
-25.253928
31
0
39
0
210
0
220
0
230
1
0
LINE
5
BB
100
AcDbEntity
8
1
62
256
6
ByLayer
370
13
48
1
60
0
100
AcDbLine
10
50.325
20
-23.629232
30
0
11
50.299899
21
-23.629232
31
0
39
0
210
0
220
0
230
1
0
LINE
5
BC
100
AcDbEntity
8
1
62
256
6
ByLayer
370
18
48
1
60
0
100
AcDbLine
10
50.325
20
-27.965569
30
0
11
50.325
21
-27.681829
31
0
39
0
210
0
220
0
230
1
0
LINE
5
BD
100
AcDbEntity
8
1
62
256
6
ByLayer
370
13
48
1
60
0
100
AcDbLine
10
50.325
20
-23.808483
30
0
11
50.299899
21
-23.808483
31
0
39
0
210
0
220
0
230
1
0
LINE
5
BE
100
AcDbEntity
8
1
62
256
6
ByLayer
370
18
48
1
60
0
100
AcDbLine
10
50.325
20
-25.725757
30
0
11
50.325
21
-26.236384
31
0
39
0
210
0
220
0
230
1
0
LINE
5
BF
100
AcDbEntity
8
1
62
256
6
ByLayer
370
18
48
1
60
0
100
AcDbLine
10
50.325
20
-25.580535
30
0
11
50.325
21
-25.359065
31
0
39
0
210
0
220
0
230
1
0
LINE
5
C0
100
AcDbEntity
8
1
62
256
6
ByLayer
370
13
48
1
60
0
100
AcDbLine
10
50.325
20
-24.790938
30
0
11
50.299899
21
-24.790938
31
0
39
0
210
0
220
0
230
1
0
LINE
5
C1
100
AcDbEntity
8
1
62
256
6
ByLayer
370
18
48
1
60
0
100
AcDbLine
10
50.325
20
-25.580535
30
0
11
50.325
21
-25.725757
31
0
39
0
210
0
220
0
230
1
0
LINE
5
C2
100
AcDbEntity
8
1
62
256
6
ByLayer
370
13
48
1
60
0
100
AcDbLine
10
50.325
20
-23.913619
30
0
11
50.299899
21
-23.913619
31
0
39
0
210
0
220
0
230
1
0
LINE
5
C3
100
AcDbEntity
8
1
62
256
6
ByLayer
370
18
48
1
60
0
100
AcDbLine
10
50.325
20
-26.520123
30
0
11
50.325
21
-26.699374
31
0
39
0
210
0
220
0
230
1
0
LINE
5
C4
100
AcDbEntity
8
1
62
256
6
ByLayer
370
13
48
1
60
0
100
AcDbLine
10
50.325
20
-24.13509
30
0
11
50.299899
21
-24.13509
31
0
39
0
210
0
220
0
230
1
0
LINE
5
C5
100
AcDbEntity
8
1
62
256
6
ByLayer
370
13
48
1
60
0
100
AcDbLine
10
50.325
20
-24.280312
30
0
11
50.299899
21
-24.280312
31
0
39
0
210
0
220
0
230
1
0
LINE
5
C6
100
AcDbEntity
8
1
62
256
6
ByLayer
370
18
48
1
60
0
100
AcDbLine
10
50.325
20
-26.699374
30
0
11
50.325
21
-26.80451
31
0
39
0
210
0
220
0
230
1
0
LINE
5
C7
100
AcDbEntity
8
1
62
256
6
ByLayer
370
13
48
1
60
0
100
AcDbLine
10
50.325
20
-25.074678
30
0
11
50.299899
21
-25.074678
31
0
39
0
210
0
220
0
230
1
0
LINE
5
C8
100
AcDbEntity
8
1
62
256
6
ByLayer
370
18
48
1
60
0
100
AcDbLine
10
50.325
20
-29.127275
30
0
11
50.325
21
-29.411015
31
0
39
0
210
0
220
0
230
1
0
LINE
5
C9
100
AcDbEntity
8
1
62
256
6
ByLayer
370
13
48
1
60
0
100
AcDbLine
10
50.325
20
-25.253928
30
0
11
50.299899
21
-25.253928
31
0
39
0
210
0
220
0
230
1
0
LINE
5
CA
100
AcDbEntity
8
1
62
256
6
ByLayer
370
18
48
1
60
0
100
AcDbLine
10
50.325
20
-27.681829
30
0
11
50.325
21
-27.171203
31
0
39
0
210
0
220
0
230
1
0
LINE
5
CB
100
AcDbEntity
8
1
62
256
6
ByLayer
370
18
48
1
60
0
100
AcDbLine
10
50.325
20
-27.025981
30
0
11
50.325
21
-26.80451
31
0
39
0
210
0
220
0
230
1
0
LINE
5
CC
100
AcDbEntity
8
1
62
256
6
ByLayer
370
13
48
1
60
0
100
AcDbLine
10
50.325
20
-26.236384
30
0
11
50.299899
21
-26.236384
31
0
39
0
210
0
220
0
230
1
0
LINE
5
CD
100
AcDbEntity
8
1
62
256
6
ByLayer
370
18
48
1
60
0
100
AcDbLine
10
50.325
20
-27.171203
30
0
11
50.325
21
-27.025981
31
0
39
0
210
0
220
0
230
1
0
LINE
5
CE
100
AcDbEntity
8
1
62
256
6
ByLayer
370
13
48
1
60
0
100
AcDbLine
10
50.325
20
-25.359065
30
0
11
50.299899
21
-25.359065
31
0
39
0
210
0
220
0
230
1
0
LINE
5
CF
100
AcDbEntity
8
1
62
256
6
ByLayer
370
18
48
1
60
0
100
AcDbLine
10
50.325
20
-28.14482
30
0
11
50.325
21
-27.965569
31
0
39
0
210
0
220
0
230
1
0
LINE
5
D0
100
AcDbEntity
8
1
62
256
6
ByLayer
370
13
48
1
60
0
100
AcDbLine
10
50.325
20
-25.580535
30
0
11
50.299899
21
-25.580535
31
0
39
0
210
0
220
0
230
1
0
LINE
5
D1
100
AcDbEntity
8
1
62
256
6
ByLayer
370
13
48
1
60
0
100
AcDbLine
10
50.325
20
-25.725757
30
0
11
50.299899
21
-25.725757
31
0
39
0
210
0
220
0
230
1
0
LINE
5
D2
100
AcDbEntity
8
1
62
256
6
ByLayer
370
18
48
1
60
0
100
AcDbLine
10
50.325
20
-28.249956
30
0
11
50.325
21
-28.14482
31
0
39
0
210
0
220
0
230
1
0
LINE
5
D3
100
AcDbEntity
8
1
62
256
6
ByLayer
370
13
48
1
60
0
100
AcDbLine
10
50.325
20
-26.520123
30
0
11
50.299899
21
-26.520123
31
0
39
0
210
0
220
0
230
1
0
LINE
5
D4
100
AcDbEntity
8
1
62
256
6
ByLayer
370
18
48
1
60
0
100
AcDbLine
10
50.325
20
-28.616649
30
0
11
50.325
21
-29.127275
31
0
39
0
210
0
220
0
230
1
0
LINE
5
D5
100
AcDbEntity
8
1
62
256
6
ByLayer
370
13
48
1
60
0
100
AcDbLine
10
50.325
20
-26.699374
30
0
11
50.299899
21
-26.699374
31
0
39
0
210
0
220
0
230
1
0
LINE
5
D6
100
AcDbEntity
8
1
62
256
6
ByLayer
370
18
48
1
60
0
100
AcDbLine
10
50.325
20
-28.249956
30
0
11
50.325
21
-28.471427
31
0
39
0
210
0
220
0
230
1
0
LINE
5
D7
100
AcDbEntity
8
1
62
256
6
ByLayer
370
18
48
1
60
0
100
AcDbLine
10
50.325
20
-28.471427
30
0
11
50.325
21
-28.616649
31
0
39
0
210
0
220
0
230
1
0
LINE
5
D8
100
AcDbEntity
8
1
62
256
6
ByLayer
370
13
48
1
60
0
100
AcDbLine
10
50.325
20
-27.681829
30
0
11
50.299899
21
-27.681829
31
0
39
0
210
0
220
0
230
1
0
LINE
5
D9
100
AcDbEntity
8
1
62
256
6
ByLayer
370
18
48
1
60
0
100
AcDbLine
10
50.325
20
-30.85646
30
0
11
50.325
21
-30.572721
31
0
39
0
210
0
220
0
230
1
0
LINE
5
DA
100
AcDbEntity
8
1
62
256
6
ByLayer
370
13
48
1
60
0
100
AcDbLine
10
50.325
20
-26.80451
30
0
11
50.299899
21
-26.80451
31
0
39
0
210
0
220
0
230
1
0
LINE
5
DB
100
AcDbEntity
8
1
62
256
6
ByLayer
370
18
48
1
60
0
100
AcDbLine
10
50.325
20
-29.411015
30
0
11
50.325
21
-29.590265
31
0
39
0
210
0
220
0
230
1
0
LINE
5
DC
100
AcDbEntity
8
1
62
256
6
ByLayer
370
13
48
1
60
0
100
AcDbLine
10
50.325
20
-27.025981
30
0
11
50.299899
21
-27.025981
31
0
39
0
210
0
220
0
230
1
0
LINE
5
DD
100
AcDbEntity
8
1
62
256
6
ByLayer
370
13
48
1
60
0
100
AcDbLine
10
50.325
20
-27.171203
30
0
11
50.299899
21
-27.171203
31
0
39
0
210
0
220
0
230
1
0
LINE
5
DE
100
AcDbEntity
8
1
62
256
6
ByLayer
370
18
48
1
60
0
100
AcDbLine
10
50.325
20
-29.590265
30
0
11
50.325
21
-29.695402
31
0
39
0
210
0
220
0
230
1
0
LINE
5
DF
100
AcDbEntity
8
1
62
256
6
ByLayer
370
13
48
1
60
0
100
AcDbLine
10
50.325
20
-27.965569
30
0
11
50.299899
21
-27.965569
31
0
39
0
210
0
220
0
230
1
0
LINE
5
E0
100
AcDbEntity
8
1
62
256
6
ByLayer
370
18
48
1
60
0
100
AcDbLine
10
50.325
20
-32.018166
30
0
11
50.325
21
-32.301906
31
0
39
0
210
0
220
0
230
1
0
LINE
5
E1
100
AcDbEntity
8
1
62
256
6
ByLayer
370
13
48
1
60
0
100
AcDbLine
10
50.325
20
-28.14482
30
0
11
50.299899
21
-28.14482
31
0
39
0
210
0
220
0
230
1
0
LINE
5
E2
100
AcDbEntity
8
1
62
256
6
ByLayer
370
18
48
1
60
0
100
AcDbLine
10
50.325
20
-30.572721
30
0
11
50.325
21
-30.062094
31
0
39
0
210
0
220
0
230
1
0
LINE
5
E3
100
AcDbEntity
8
1
62
256
6
ByLayer
370
13
48
1
60
0
100
AcDbLine
10
50.325
20
-29.127275
30
0
11
50.299899
21
-29.127275
31
0
39
0
210
0
220
0
230
1
0
LINE
5
E4
100
AcDbEntity
8
1
62
256
6
ByLayer
370
18
48
1
60
0
100
AcDbLine
10
50.325
20
-29.916872
30
0
11
50.325
21
-29.695402
31
0
39
0
210
0
220
0
230
1
0
LINE
5
E5
100
AcDbEntity
8
1
62
256
6
ByLayer
370
13
48
1
60
0
100
AcDbLine
10
50.325
20
-28.249956
30
0
11
50.299899
21
-28.249956
31
0
39
0
210
0
220
0
230
1
0
LINE
5
E6
100
AcDbEntity
8
1
62
256
6
ByLayer
370
18
48
1
60
0
100
AcDbLine
10
50.325
20
-30.062094
30
0
11
50.325
21
-29.916872
31
0
39
0
210
0
220
0
230
1
0
LINE
5
E7
100
AcDbEntity
8
1
62
256
6
ByLayer
370
13
48
1
60
0
100
AcDbLine
10
50.325
20
-28.471427
30
0
11
50.299899
21
-28.471427
31
0
39
0
210
0
220
0
230
1
0
LINE
5
E8
100
AcDbEntity
8
1
62
256
6
ByLayer
370
13
48
1
60
0
100
AcDbLine
10
50.325
20
-28.616649
30
0
11
50.299899
21
-28.616649
31
0
39
0
210
0
220
0
230
1
0
LINE
5
E9
100
AcDbEntity
8
1
62
256
6
ByLayer
370
18
48
1
60
0
100
AcDbLine
10
50.325
20
-31.035711
30
0
11
50.325
21
-30.85646
31
0
39
0
210
0
220
0
230
1
0
LINE
5
EA
100
AcDbEntity
8
1
62
256
6
ByLayer
370
18
48
1
60
0
100
AcDbLine
10
50.325
20
-31.140847
30
0
11
50.325
21
-31.035711
31
0
39
0
210
0
220
0
230
1
0
LINE
5
EB
100
AcDbEntity
8
1
62
256
6
ByLayer
370
13
48
1
60
0
100
AcDbLine
10
50.325
20
-29.411015
30
0
11
50.299899
21
-29.411015
31
0
39
0
210
0
220
0
230
1
0
LINE
5
EC
100
AcDbEntity
8
1
62
256
6
ByLayer
370
18
48
1
60
0
100
AcDbLine
10
50.325
20
-33.747352
30
0
11
50.325
21
-33.463612
31
0
39
0
210
0
220
0
230
1
0
LINE
5
ED
100
AcDbEntity
8
1
62
256
6
ByLayer
370
13
48
1
60
0
100
AcDbLine
10
50.325
20
-29.590265
30
0
11
50.299899
21
-29.590265
31
0
39
0
210
0
220
0
230
1
0
LINE
5
EE
100
AcDbEntity
8
1
62
256
6
ByLayer
370
18
48
1
60
0
100
AcDbLine
10
50.325
20
-31.50754
30
0
11
50.325
21
-32.018166
31
0
39
0
210
0
220
0
230
1
0
LINE
5
EF
100
AcDbEntity
8
1
62
256
6
ByLayer
370
18
48
1
60
0
100
AcDbLine
10
50.325
20
-31.362318
30
0
11
50.325
21
-31.140847
31
0
39
0
210
0
220
0
230
1
0
LINE
5
F0
100
AcDbEntity
8
1
62
256
6
ByLayer
370
13
48
1
60
0
100
AcDbLine
10
50.325
20
-30.572721
30
0
11
50.299899
21
-30.572721
31
0
39
0
210
0
220
0
230
1
0
LINE
5
F1
100
AcDbEntity
8
1
62
256
6
ByLayer
370
18
48
1
60
0
100
AcDbLine
10
50.325
20
-31.362318
30
0
11
50.325
21
-31.50754
31
0
39
0
210
0
220
0
230
1
0
LINE
5
F2
100
AcDbEntity
8
1
62
256
6
ByLayer
370
13
48
1
60
0
100
AcDbLine
10
50.325
20
-29.695402
30
0
11
50.299899
21
-29.695402
31
0
39
0
210
0
220
0
230
1
0
LINE
5
F3
100
AcDbEntity
8
1
62
256
6
ByLayer
370
18
48
1
60
0
100
AcDbLine
10
50.325
20
-32.301906
30
0
11
50.325
21
-32.481157
31
0
39
0
210
0
220
0
230
1
0
LINE
5
F4
100
AcDbEntity
8
1
62
256
6
ByLayer
370
13
48
1
60
0
100
AcDbLine
10
50.325
20
-29.916872
30
0
11
50.299899
21
-29.916872
31
0
39
0
210
0
220
0
230
1
0
LINE
5
F5
100
AcDbEntity
8
1
62
256
6
ByLayer
370
13
48
1
60
0
100
AcDbLine
10
50.325
20
-30.062094
30
0
11
50.299899
21
-30.062094
31
0
39
0
210
0
220
0
230
1
0
LINE
5
F6
100
AcDbEntity
8
1
62
256
6
ByLayer
370
18
48
1
60
0
100
AcDbLine
10
50.325
20
-32.481157
30
0
11
50.325
21
-32.586293
31
0
39
0
210
0
220
0
230
1
0
LINE
5
F7
100
AcDbEntity
8
1
62
256
6
ByLayer
370
13
48
1
60
0
100
AcDbLine
10
50.325
20
-30.85646
30
0
11
50.29993
21
-30.85646
31
0
39
0
210
0
220
0
230
1
0
LINE
5
F8
100
AcDbEntity
8
1
62
256
6
ByLayer
370
18
48
1
60
0
100
AcDbLine
10
50.325
20
-34.909058
30
0
11
50.325
21
-35.192797
31
0
39
0
210
0
220
0
230
1
0
LINE
5
F9
100
AcDbEntity
8
1
62
256
6
ByLayer
370
13
48
1
60
0
100
AcDbLine
10
50.325
20
-31.035711
30
0
11
50.299999
21
-31.035711
31
0
39
0
210
0
220
0
230
1
0
LINE
5
FA
100
AcDbEntity
8
1
62
256
6
ByLayer
370
18
48
1
60
0
100
AcDbLine
10
50.325
20
-33.463612
30
0
11
50.325
21
-32.952986
31
0
39
0
210
0
220
0
230
1
0
LINE
5
FB
100
AcDbEntity
8
1
62
256
6
ByLayer
370
18
48
1
60
0
100
AcDbLine
10
50.325
20
-32.807764
30
0
11
50.325
21
-32.586293
31
0
39
0
210
0
220
0
230
1
0
LINE
5
FC
100
AcDbEntity
8
1
62
256
6
ByLayer
370
13
48
1
60
0
100
AcDbLine
10
50.325
20
-32.018166
30
0
11
50.299987
21
-32.018166
31
0
39
0
210
0
220
0
230
1
0
LINE
5
FD
100
AcDbEntity
8
1
62
256
6
ByLayer
370
18
48
1
60
0
100
AcDbLine
10
50.325
20
-32.952986
30
0
11
50.325
21
-32.807764
31
0
39
0
210
0
220
0
230
1
0
LINE
5
FE
100
AcDbEntity
8
1
62
256
6
ByLayer
370
13
48
1
60
0
100
AcDbLine
10
50.325
20
-31.140847
30
0
11
50.299996
21
-31.140847
31
0
39
0
210
0
220
0
230
1
0
LINE
5
FF
100
AcDbEntity
8
1
62
256
6
ByLayer
370
18
48
1
60
0
100
AcDbLine
10
50.325
20
-33.926602
30
0
11
50.325
21
-33.747352
31
0
39
0
210
0
220
0
230
1
0
LINE
5
100
100
AcDbEntity
8
1
62
256
6
ByLayer
370
13
48
1
60
0
100
AcDbLine
10
50.325
20
-31.50754
30
0
11
50.299979
21
-31.50754
31
0
39
0
210
0
220
0
230
1
0
LINE
5
101
100
AcDbEntity
8
1
62
256
6
ByLayer
370
13
48
1
60
0
100
AcDbLine
10
50.325
20
-31.362318
30
0
11
50.29999
21
-31.362318
31
0
39
0
210
0
220
0
230
1
0
LINE
5
102
100
AcDbEntity
8
1
62
256
6
ByLayer
370
18
48
1
60
0
100
AcDbLine
10
50.325
20
-34.031739
30
0
11
50.325
21
-33.926602
31
0
39
0
210
0
220
0
230
1
0
LINE
5
103
100
AcDbEntity
8
1
62
256
6
ByLayer
370
13
48
1
60
0
100
AcDbLine
10
50.325
20
-32.301906
30
0
11
50.299982
21
-32.301906
31
0
39
0
210
0
220
0
230
1
0
LINE
5
104
100
AcDbEntity
8
1
62
256
6
ByLayer
370
18
48
1
60
0
100
AcDbLine
10
50.325
20
-36.638243
30
0
11
50.325
21
-36.354503
31
0
39
0
210
0
220
0
230
1
0
LINE
5
105
100
AcDbEntity
8
1
62
256
6
ByLayer
370
13
48
1
60
0
100
AcDbLine
10
50.325
20
-32.481157
30
0
11
50.299953
21
-32.481157
31
0
39
0
210
0
220
0
230
1
0
LINE
5
106
100
AcDbEntity
8
1
62
256
6
ByLayer
370
18
48
1
60
0
100
AcDbLine
10
41.3
20
-36.638243
30
0
11
41.3
21
-36.354503
31
0
39
0
210
0
220
0
230
1
0
LINE
5
107
100
AcDbEntity
8
1
62
256
6
ByLayer
370
18
48
1
60
0
100
AcDbLine
10
50.325
20
-34.398431
30
0
11
50.325
21
-34.909058
31
0
39
0
210
0
220
0
230
1
0
LINE
5
108
100
AcDbEntity
8
1
62
256
6
ByLayer
370
13
48
1
60
0
100
AcDbLine
10
50.325
20
-33.463612
30
0
11
50.29998
21
-33.463612
31
0
39
0
210
0
220
0
230
1
0
LINE
5
109
100
AcDbEntity
8
1
62
256
6
ByLayer
370
18
48
1
60
0
100
AcDbLine
10
50.325
20
-34.031739
30
0
11
50.325
21
-34.253209
31
0
39
0
210
0
220
0
230
1
0
LINE
5
10A
100
AcDbEntity
8
1
62
256
6
ByLayer
370
13
48
1
60
0
100
AcDbLine
10
50.325
20
-32.586293
30
0
11
50.299938
21
-32.586293
31
0
39
0
210
0
220
0
230
1
0
LINE
5
10B
100
AcDbEntity
8
1
62
256
6
ByLayer
370
18
48
1
60
0
100
AcDbLine
10
50.325
20
-34.253209
30
0
11
50.325
21
-34.398431
31
0
39
0
210
0
220
0
230
1
0
LINE
5
10C
100
AcDbEntity
8
1
62
256
6
ByLayer
370
13
48
1
60
0
100
AcDbLine
10
50.325
20
-32.807764
30
0
11
50.299993
21
-32.807764
31
0
39
0
210
0
220
0
230
1
0
LINE
5
10D
100
AcDbEntity
8
1
62
256
6
ByLayer
370
13
48
1
60
0
100
AcDbLine
10
50.325
20
-32.952986
30
0
11
50.29994
21
-32.952986
31
0
39
0
210
0
220
0
230
1
0
LINE
5
10E
100
AcDbEntity
8
1
62
256
6
ByLayer
370
18
48
1
60
0
100
AcDbLine
10
50.325
20
-35.192797
30
0
11
50.325
21
-35.372048
31
0
39
0
210
0
220
0
230
1
0
LINE
5
10F
100
AcDbEntity
8
1
62
256
6
ByLayer
370
13
48
1
60
0
100
AcDbLine
10
50.325
20
-33.747352
30
0
11
50.299961
21
-33.747352
31
0
39
0
210
0
220
0
230
1
0
LINE
5
110
100
AcDbEntity
8
1
62
256
6
ByLayer
370
18
48
1
60
0
100
AcDbLine
10
50.325
20
-37.79599
30
0
11
50.325
21
-38.766013
31
0
39
0
210
0
220
0
230
1
0
LINE
5
111
100
AcDbEntity
8
1
62
256
6
ByLayer
370
13
48
1
60
0
100
AcDbLine
10
50.325
20
-33.926602
30
0
11
50.299899
21
-33.926602
31
0
39
0
210
0
220
0
230
1
0
LINE
5
112
100
AcDbEntity
8
1
62
256
6
ByLayer
370
18
48
1
60
0
100
AcDbLine
10
41.3
20
-37.79599
30
0
11
41.3
21
-38.766013
31
0
39
0
210
0
220
0
230
1
0
LINE
5
113
100
AcDbEntity
8
1
62
256
6
ByLayer
370
18
48
1
60
0
100
AcDbLine
10
41.3
20
-38.766013
30
0
11
50.325
21
-38.766013
31
0
39
0
210
0
220
0
230
1
0
LINE
5
114
100
AcDbEntity
8
1
62
256
6
ByLayer
370
18
48
1
60
0
100
AcDbLine
10
50.325
20
-35.372048
30
0
11
50.325
21
-35.477184
31
0
39
0
210
0
220
0
230
1
0
LINE
5
115
100
AcDbEntity
8
1
62
256
6
ByLayer
370
13
48
1
60
0
100
AcDbLine
10
50.325
20
-34.909058
30
0
11
50.299899
21
-34.909058
31
0
39
0
210
0
220
0
230
1
0
LINE
5
116
100
AcDbEntity
8
1
62
256
6
ByLayer
370
18
48
1
60
0
100
AcDbLine
10
50.325
20
-36.354503
30
0
11
50.325
21
-35.843877
31
0
39
0
210
0
220
0
230
1
0
LINE
5
117
100
AcDbEntity
8
1
62
256
6
ByLayer
370
13
48
1
60
0
100
AcDbLine
10
50.325
20
-34.031739
30
0
11
50.299899
21
-34.031739
31
0
39
0
210
0
220
0
230
1
0
LINE
5
118
100
AcDbEntity
8
1
62
256
6
ByLayer
370
13
48
1
60
0
100
AcDbLine
10
50.325
20
-34.253209
30
0
11
50.299899
21
-34.253209
31
0
39
0
210
0
220
0
230
1
0
LINE
5
119
100
AcDbEntity
8
1
62
256
6
ByLayer
370
13
48
1
60
0
100
AcDbLine
10
50.325
20
-34.398431
30
0
11
50.299899
21
-34.398431
31
0
39
0
210
0
220
0
230
1
0
LINE
5
11A
100
AcDbEntity
8
1
62
256
6
ByLayer
370
18
48
1
60
0
100
AcDbLine
10
50.325
20
-35.698655
30
0
11
50.325
21
-35.477184
31
0
39
0
210
0
220
0
230
1
0
LINE
5
11B
100
AcDbEntity
8
1
62
256
6
ByLayer
370
13
48
1
60
0
100
AcDbLine
10
50.325
20
-35.192797
30
0
11
50.299899
21
-35.192797
31
0
39
0
210
0
220
0
230
1
0
LINE
5
11C
100
AcDbEntity
8
1
62
256
6
ByLayer
370
18
48
1
60
0
100
AcDbLine
10
50.325
20
-35.843877
30
0
11
50.325
21
-35.698655
31
0
39
0
210
0
220
0
230
1
0
LINE
5
11D
100
AcDbEntity
8
1
62
256
6
ByLayer
370
18
48
1
60
0
100
AcDbLine
10
50.325
20
-36.817494
30
0
11
50.325
21
-36.638243
31
0
39
0
210
0
220
0
230
1
0
LINE
5
11E
100
AcDbEntity
8
1
62
256
6
ByLayer
370
18
48
1
60
0
100
AcDbLine
10
41.3
20
-36.817494
30
0
11
41.3
21
-36.638243
31
0
39
0
210
0
220
0
230
1
0
LINE
5
11F
100
AcDbEntity
8
1
62
256
6
ByLayer
370
18
48
1
60
0
100
AcDbLine
10
50.325
20
-36.92263
30
0
11
50.325
21
-36.817494
31
0
39
0
210
0
220
0
230
1
0
LINE
5
120
100
AcDbEntity
8
1
62
256
6
ByLayer
370
13
48
1
60
0
100
AcDbLine
10
50.325
20
-35.372048
30
0
11
50.299899
21
-35.372048
31
0
39
0
210
0
220
0
230
1
0
LINE
5
121
100
AcDbEntity
8
1
62
256
6
ByLayer
370
18
48
1
60
0
100
AcDbLine
10
41.3
20
-36.92263
30
0
11
41.3
21
-36.817494
31
0
39
0
210
0
220
0
230
1
0
LINE
5
122
100
AcDbEntity
8
1
62
256
6
ByLayer
370
18
48
1
60
0
100
AcDbLine
10
50.325
20
-37.289323
30
0
11
50.325
21
-37.79599
31
0
39
0
210
0
220
0
230
1
0
LINE
5
123
100
AcDbEntity
8
1
62
256
6
ByLayer
370
13
48
1
60
0
100
AcDbLine
10
50.325
20
-36.354503
30
0
11
50.232917
21
-36.354503
31
0
39
0
210
0
220
0
230
1
0
LINE
5
124
100
AcDbEntity
8
1
62
256
6
ByLayer
370
13
48
1
60
0
100
AcDbLine
10
41.366559
20
-36.354503
30
0
11
41.3
21
-36.354503
31
0
39
0
210
0
220
0
230
1
0
LINE
5
125
100
AcDbEntity
8
1
62
256
6
ByLayer
370
18
48
1
60
0
100
AcDbLine
10
41.3
20
-37.289323
30
0
11
41.3
21
-37.79599
31
0
39
0
210
0
220
0
230
1
0
LINE
5
126
100
AcDbEntity
8
1
62
256
6
ByLayer
370
13
48
1
60
0
100
AcDbLine
10
50.325
20
-35.477184
30
0
11
50.299899
21
-35.477184
31
0
39
0
210
0
220
0
230
1
0
LINE
5
127
100
AcDbEntity
8
1
62
256
6
ByLayer
370
18
48
1
60
0
100
AcDbLine
10
50.325
20
-37.79599
30
0
11
41.3
21
-37.79599
31
0
39
0
210
0
220
0
230
1
0
LINE
5
128
100
AcDbEntity
8
1
62
256
6
ByLayer
370
13
48
1
60
0
100
AcDbLine
10
50.325
20
-35.698655
30
0
11
50.299899
21
-35.698655
31
0
39
0
210
0
220
0
230
1
0
LINE
5
129
100
AcDbEntity
8
1
62
256
6
ByLayer
370
13
48
1
60
0
100
AcDbLine
10
50.325
20
-35.843877
30
0
11
50.299899
21
-35.843877
31
0
39
0
210
0
220
0
230
1
0
LINE
5
12A
100
AcDbEntity
8
1
62
256
6
ByLayer
370
18
48
1
60
0
100
AcDbLine
10
50.325
20
-37.144101
30
0
11
50.325
21
-36.92263
31
0
39
0
210
0
220
0
230
1
0
LINE
5
12B
100
AcDbEntity
8
1
62
256
6
ByLayer
370
18
48
1
60
0
100
AcDbLine
10
41.3
20
-37.144101
30
0
11
41.3
21
-36.92263
31
0
39
0
210
0
220
0
230
1
0
LINE
5
12C
100
AcDbEntity
8
1
62
256
6
ByLayer
370
13
48
1
60
0
100
AcDbLine
10
50.325
20
-36.638243
30
0
11
50.124194
21
-36.638243
31
0
39
0
210
0
220
0
230
1
0
LINE
5
12D
100
AcDbEntity
8
1
62
256
6
ByLayer
370
13
48
1
60
0
100
AcDbLine
10
41.470911
20
-36.638243
30
0
11
41.3
21
-36.638243
31
0
39
0
210
0
220
0
230
1
0
LINE
5
12E
100
AcDbEntity
8
1
62
256
6
ByLayer
370
18
48
1
60
0
100
AcDbLine
10
50.325
20
-37.144101
30
0
11
50.325
21
-37.289323
31
0
39
0
210
0
220
0
230
1
0
LINE
5
12F
100
AcDbEntity
8
1
62
256
6
ByLayer
370
18
48
1
60
0
100
AcDbLine
10
41.3
20
-37.144101
30
0
11
41.3
21
-37.289323
31
0
39
0
210
0
220
0
230
1
0
LINE
5
130
100
AcDbEntity
8
1
62
256
6
ByLayer
370
13
48
1
60
0
100
AcDbLine
10
50.325
20
-36.817494
30
0
11
49.940027
21
-36.817494
31
0
39
0
210
0
220
0
230
1
0
LINE
5
131
100
AcDbEntity
8
1
62
256
6
ByLayer
370
13
48
1
60
0
100
AcDbLine
10
41.658603
20
-36.817494
30
0
11
41.3
21
-36.817494
31
0
39
0
210
0
220
0
230
1
0
LINE
5
132
100
AcDbEntity
8
1
62
256
6
ByLayer
370
18
48
1
60
0
100
AcDbLine
10
43.096557
20
39.96115
30
0
11
50.035731
21
39.977042
31
0
39
0
210
0
220
0
230
1
0
LINE
5
133
100
AcDbEntity
8
1
62
256
6
ByLayer
370
18
48
1
60
0
100
AcDbLine
10
42.332317
20
37.889557
30
0
11
42.332377
21
39.182583
31
0
39
0
210
0
220
0
230
1
0
LINE
5
134
100
AcDbEntity
8
1
62
256
6
ByLayer
370
18
48
1
60
0
100
AcDbLine
10
50.799912
20
39.201975
30
0
11
50.799972
21
37.90895
31
0
39
0
210
0
220
0
230
1
0
LINE
5
135
100
AcDbEntity
8
1
62
256
6
ByLayer
370
13
48
1
60
0
100
AcDbLine
10
50.325
20
-36.92263
30
0
11
49.611038
21
-36.92263
31
0
39
0
210
0
220
0
230
1
0
LINE
5
136
100
AcDbEntity
8
1
62
256
6
ByLayer
370
13
48
1
60
0
100
AcDbLine
10
41.996335
20
-36.92263
30
0
11
41.3
21
-36.92263
31
0
39
0
210
0
220
0
230
1
0
LINE
5
137
100
AcDbEntity
8
1
62
256
6
ByLayer
370
13
48
1
60
0
100
AcDbLine
10
50.325
20
-37.144101
30
0
11
41.3
21
-37.144101
31
0
39
0
210
0
220
0
230
1
0
LINE
5
138
100
AcDbEntity
8
1
62
256
6
ByLayer
370
13
48
1
60
0
100
AcDbLine
10
50.325
20
-37.289323
30
0
11
41.3
21
-37.289323
31
0
39
0
210
0
220
0
230
1
0
LINE
5
139
100
AcDbEntity
8
1
62
256
6
ByLayer
370
18
48
1
60
0
100
AcDbLine
10
40.924095
20
-32.635299
30
0
11
40.800028
21
-37.90895
31
0
39
0
210
0
220
0
230
1
0
LINE
5
13A
100
AcDbEntity
8
1
62
256
6
ByLayer
370
18
48
1
60
0
100
AcDbLine
10
42.332317
20
-17.310621
30
0
11
42.750062
21
-15.774257
31
0
39
0
210
0
220
0
230
1
0
LINE
5
13B
100
AcDbEntity
8
1
62
256
6
ByLayer
370
18
48
1
60
0
100
AcDbLine
10
43.076102
20
-14.575163
30
0
11
43.221499
21
-14.040431
31
0
39
0
210
0
220
0
230
1
0
LINE
5
13C
100
AcDbEntity
8
1
62
256
6
ByLayer
370
18
48
1
60
0
100
AcDbLine
10
40.980521
20
-31.532371
30
0
11
40.924095
21
-32.635299
31
0
39
0
210
0
220
0
230
1
0
LINE
5
13D
100
AcDbEntity
8
1
62
256
6
ByLayer
370
18
48
1
60
0
100
AcDbLine
10
41.325
20
-17.034731
30
0
11
41.325
21
-24.231354
31
0
39
0
210
0
220
0
230
1
0
LINE
5
13E
100
AcDbEntity
8
1
62
256
6
ByLayer
370
18
48
1
60
0
100
AcDbLine
10
42.24624
20
34.230715
30
0
11
42.332317
21
37.889557
31
0
39
0
210
0
220
0
230
1
0
LINE
5
13F
100
AcDbEntity
8
1
62
256
6
ByLayer
370
18
48
1
60
0
100
AcDbLine
10
50.799972
20
37.90895
30
0
11
42.332317
21
37.889557
31
0
39
0
210
0
220
0
230
1
0
LINE
5
140
100
AcDbEntity
8
1
62
256
6
ByLayer
370
18
48
1
60
0
100
AcDbLine
10
50.675905
20
32.635299
30
0
11
50.619479
21
31.532371
31
0
39
0
210
0
220
0
230
1
0
LINE
5
141
100
AcDbEntity
8
1
62
256
6
ByLayer
370
18
48
1
60
0
100
AcDbLine
10
50.675905
20
32.635299
30
0
11
50.299888
21
32.634438
31
0
39
0
210
0
220
0
230
1
0
LINE
5
142
100
AcDbEntity
8
1
62
256
6
ByLayer
370
18
48
1
60
0
100
AcDbLine
10
50.799912
20
-18.578855
30
0
11
50.799972
21
-17.96167
31
0
39
0
210
0
220
0
230
1
0
LINE
5
143
100
AcDbEntity
8
1
62
256
6
ByLayer
370
18
48
1
60
0
100
AcDbLine
10
42.151944
20
-16.053612
30
0
11
42.20825
21
-16.021911
31
0
39
0
210
0
220
0
230
1
0
LINE
5
144
100
AcDbEntity
8
1
62
256
6
ByLayer
370
18
48
1
60
0
100
AcDbLine
10
42.20825
20
-16.021911
30
0
11
42.332317
21
-17.310621
31
0
39
0
210
0
220
0
230
1
0
LINE
5
145
100
AcDbEntity
8
1
62
256
6
ByLayer
370
18
48
1
60
0
100
AcDbLine
10
50.675905
20
32.635299
30
0
11
50.799972
21
37.90895
31
0
39
0
210
0
220
0
230
1
0
LINE
5
146
100
AcDbEntity
8
1
62
256
6
ByLayer
370
18
48
1
60
0
100
AcDbLine
10
50.325
20
-21.900047
30
0
11
50.325
21
-21.38942
31
0
39
0
210
0
220
0
230
1
0
LINE
5
147
100
AcDbEntity
8
1
62
256
6
ByLayer
370
18
48
1
60
0
100
AcDbLine
10
46.666025
20
-18.71226
30
0
11
47.532051
21
-19.763624
31
0
39
0
210
0
220
0
230
1
0
LINE
5
148
100
AcDbEntity
8
1
62
256
6
ByLayer
370
18
48
1
60
0
100
AcDbLine
10
46.666025
20
-20.814988
30
0
11
47.532051
21
-19.763624
31
0
39
0
210
0
220
0
230
1
0
LINE
5
149
100
AcDbEntity
8
1
62
256
6
ByLayer
370
18
48
1
60
0
100
AcDbLine
10
44.933975
20
-20.814988
30
0
11
46.666025
21
-20.814988
31
0
39
0
210
0
220
0
230
1
0
LINE
5
14A
100
AcDbEntity
8
1
62
256
6
ByLayer
370
18
48
1
60
0
100
AcDbLine
10
50.325
20
-23.345492
30
0
11
50.325
21
-23.629232
31
0
39
0
210
0
220
0
230
1
0
LINE
5
14B
100
AcDbEntity
8
1
62
256
6
ByLayer
370
18
48
1
60
0
100
AcDbLine
10
44.933975
20
-20.814988
30
0
11
44.067949
21
-19.763624
31
0
39
0
210
0
220
0
230
1
0
LINE
5
14C
100
AcDbEntity
8
1
62
256
6
ByLayer
370
18
48
1
60
0
100
AcDbLine
10
44.067949
20
-19.763624
30
0
11
44.933975
21
-18.71226
31
0
39
0
210
0
220
0
230
1
0
LINE
5
14D
100
AcDbEntity
8
1
62
256
6
ByLayer
370
18
48
1
60
0
100
AcDbLine
10
41.3
20
-36.354503
30
0
11
41.3
21
-35.966324
31
0
39
0
210
0
220
0
230
1
0
LINE
5
14E
100
AcDbEntity
8
1
62
256
6
ByLayer
370
18
48
1
60
0
100
AcDbLine
10
50.325
20
-20.73973
30
0
11
50.325
21
-20.917591
31
0
39
0
210
0
220
0
230
1
0
LINE
5
14F
100
AcDbEntity
8
1
62
256
6
ByLayer
370
18
48
1
60
0
100
AcDbLine
10
50.299899
20
-20.73973
30
0
11
50.325
21
-20.73973
31
0
39
0
210
0
220
0
230
1
0
LINE
5
150
100
AcDbEntity
8
1
62
256
6
ByLayer
370
18
48
1
60
0
100
AcDbLine
10
50.325
20
-20.917591
30
0
11
50.325
21
-21.022728
31
0
39
0
210
0
220
0
230
1
0
LINE
5
151
100
AcDbEntity
8
1
62
256
6
ByLayer
370
18
48
1
60
0
100
AcDbLine
10
50.313309
20
-12.777654
30
0
11
50.437375
21
-14.066364
31
0
39
0
210
0
220
0
230
1
0
LINE
5
152
100
AcDbEntity
8
1
62
256
6
ByLayer
370
18
48
1
60
0
100
AcDbLine
10
50.325
20
-22.183786
30
0
11
50.325
21
-21.900047
31
0
39
0
210
0
220
0
230
1
0
LINE
5
153
100
AcDbEntity
8
1
62
256
6
ByLayer
370
18
48
1
60
0
100
AcDbLine
10
41.3
20
10.746038
30
0
11
41.3
21
4.724039
31
0
39
0
210
0
220
0
230
1
0
LINE
5
154
100
AcDbEntity
8
1
62
256
6
ByLayer
370
18
48
1
60
0
100
AcDbLine
10
50.3
20
4.724039
30
0
11
50.3
21
10.746038
31
0
39
0
210
0
220
0
230
1
0
LINE
5
155
100
AcDbEntity
8
1
62
256
6
ByLayer
370
18
48
1
60
0
100
AcDbLine
10
50.299999
20
-12.7322
30
0
11
50.313309
21
-12.777654
31
0
39
0
210
0
220
0
230
1
0
LINE
5
156
100
AcDbEntity
8
1
62
256
6
ByLayer
370
18
48
1
60
0
100
AcDbLine
10
41.3
20
-23.950211
30
0
11
41.3
21
-24.900264
31
0
39
0
210
0
220
0
230
1
0
LINE
5
157
100
AcDbEntity
8
1
62
256
6
ByLayer
370
18
48
1
60
0
100
AcDbLine
10
50.3
20
-24.900264
30
0
11
50.3
21
-23.950211
31
0
39
0
210
0
220
0
230
1
0
LINE
5
158
100
AcDbEntity
8
1
62
256
6
ByLayer
370
18
48
1
60
0
100
AcDbLine
10
44.4
20
-24.900264
30
0
11
47.2
21
-24.900264
31
0
39
0
210
0
220
0
230
1
0
LINE
5
159
100
AcDbEntity
8
1
62
256
6
ByLayer
370
18
48
1
60
0
100
AcDbLine
10
41.3
20
-23.950211
30
0
11
41.325031
21
-23.950211
31
0
39
0
210
0
220
0
230
1
0
LINE
5
15A
100
AcDbEntity
8
1
62
256
6
ByLayer
370
18
48
1
60
0
100
AcDbLine
10
50.274969
20
-23.950211
30
0
11
50.3
21
-23.950211
31
0
39
0
210
0
220
0
230
1
0
LINE
5
15B
100
AcDbEntity
8
1
62
256
6
ByLayer
370
13
48
1
60
0
100
AcDbLine
10
40.5
20
-18.70595
30
0
11
40.5
21
18.70595
31
0
39
0
210
0
220
0
230
1
0
LINE
5
15C
100
AcDbEntity
8
1
62
256
6
ByLayer
370
18
48
1
60
0
100
AcDbLine
10
49.3
20
-36.96743
30
0
11
42.3
21
-36.96743
31
0
39
0
210
0
220
0
230
1
0
LINE
5
15D
100
AcDbEntity
8
1
62
256
6
ByLayer
370
18
48
1
60
0
100
AcDbLine
10
50.3
20
-31.934655
30
0
11
50.3
21
-35.966317
31
0
39
0
210
0
220
0
230
1
0
LINE
5
15E
100
AcDbEntity
8
1
62
256
6
ByLayer
370
13
48
1
60
0
100
AcDbLine
10
44.4
20
-24.900264
30
0
11
44.4
21
-26.032933
31
0
39
0
210
0
220
0
230
1
0
LINE
5
15F
100
AcDbEntity
8
1
62
256
6
ByLayer
370
13
48
1
60
0
100
AcDbLine
10
47.2
20
-26.032933
30
0
11
47.2
21
-24.900264
31
0
39
0
210
0
220
0
230
1
0
LINE
5
160
100
AcDbEntity
8
1
62
256
6
ByLayer
370
13
48
1
60
0
100
AcDbLine
10
24.545605
20
18.70595
30
0
11
24.545605
21
-18.70595
31
0
39
0
210
0
220
0
230
1
0
LINE
5
161
100
AcDbEntity
8
1
62
256
6
ByLayer
370
18
48
1
60
0
100
AcDbLine
10
41.3
20
-35.966317
30
0
11
41.3
21
-31.934655
31
0
39
0
210
0
220
0
230
1
0
LINE
5
162
100
AcDbEntity
8
1
62
256
6
ByLayer
370
13
48
1
60
0
100
AcDbLine
10
49.3
20
-36.96743
30
0
11
49.3
21
-32.888257
31
0
39
0
210
0
220
0
230
1
0
LINE
5
163
100
AcDbEntity
8
1
62
256
6
ByLayer
370
18
48
1
60
0
100
AcDbLine
10
41.3
20
-24.900264
30
0
11
41.3
21
-31.934655
31
0
39
0
210
0
220
0
230
1
0
LINE
5
164
100
AcDbEntity
8
1
62
256
6
ByLayer
370
18
48
1
60
0
100
AcDbLine
10
50.3
20
-31.934655
30
0
11
50.3
21
-24.900264
31
0
39
0
210
0
220
0
230
1
0
LINE
5
165
100
AcDbEntity
8
1
62
256
6
ByLayer
370
18
48
1
60
0
100
AcDbLine
10
47.2
20
-24.900264
30
0
11
50.3
21
-24.900264
31
0
39
0
210
0
220
0
230
1
0
LINE
5
166
100
AcDbEntity
8
1
62
256
6
ByLayer
370
18
48
1
60
0
100
AcDbLine
10
47.3
20
-28.264103
30
0
11
47.3
21
-25.034829
31
0
39
0
210
0
220
0
230
1
0
LINE
5
167
100
AcDbEntity
8
1
62
256
6
ByLayer
370
18
48
1
60
0
100
AcDbLine
10
44.3
20
-25.034829
30
0
11
44.3
21
-28.264103
31
0
39
0
210
0
220
0
230
1
0
LINE
5
168
100
AcDbEntity
8
1
62
256
6
ByLayer
370
13
48
1
60
0
100
AcDbLine
10
42.3
20
-32.888257
30
0
11
42.3
21
-36.96743
31
0
39
0
210
0
220
0
230
1
0
LINE
5
169
100
AcDbEntity
8
1
62
256
6
ByLayer
370
18
48
1
60
0
100
AcDbLine
10
41.3
20
-24.900264
30
0
11
44.4
21
-24.900264
31
0
39
0
210
0
220
0
230
1
0
LINE
5
16A
100
AcDbEntity
8
1
62
256
6
ByLayer
370
18
48
1
60
0
100
AcDbLine
10
42.3
20
-32.888257
30
0
11
49.3
21
-32.888257
31
0
39
0
210
0
220
0
230
1
0
LINE
5
16B
100
AcDbEntity
8
1
62
256
6
ByLayer
370
18
48
1
60
0
100
AcDbLine
10
0.4
20
-5.5975
30
0
11
0
21
-5.9975
31
0
39
0
210
0
220
0
230
1
0
LINE
5
16C
100
AcDbEntity
8
1
62
256
6
ByLayer
370
18
48
1
60
0
100
AcDbLine
10
0
20
-24.5
30
0
11
0
21
-5.9975
31
0
39
0
210
0
220
0
230
1
0
LINE
5
16D
100
AcDbEntity
8
1
62
256
6
ByLayer
370
18
48
1
60
0
100
AcDbLine
10
0
20
5.9975
30
0
11
0.4
21
5.5975
31
0
39
0
210
0
220
0
230
1
0
LINE
5
16E
100
AcDbEntity
8
1
62
256
6
ByLayer
370
18
48
1
60
0
100
AcDbLine
10
0
20
5.9975
30
0
11
0
21
24.5
31
0
39
0
210
0
220
0
230
1
0
LINE
5
16F
100
AcDbEntity
8
1
62
256
6
ByLayer
370
18
48
1
60
0
100
AcDbLine
10
0.4
20
25
30
0
11
0.4
21
5.5975
31
0
39
0
210
0
220
0
230
1
0
LINE
5
170
100
AcDbEntity
8
1
62
256
6
ByLayer
370
18
48
1
60
0
100
AcDbLine
10
0.4
20
-5.5975
30
0
11
0.4
21
-25
31
0
39
0
210
0
220
0
230
1
0
LINE
5
171
100
AcDbEntity
8
1
62
256
6
ByLayer
370
18
48
1
60
0
100
AcDbLine
10
5.8
20
4.0975
30
0
11
5.8
21
-4.0975
31
0
39
0
210
0
220
0
230
1
0
LINE
5
172
100
AcDbEntity
8
1
62
256
6
ByLayer
370
18
48
1
60
0
100
AcDbLine
10
0.9
20
25.5
30
0
11
0.9
21
5.0975
31
0
39
0
210
0
220
0
230
1
0
LINE
5
173
100
AcDbEntity
8
1
62
256
6
ByLayer
370
18
48
1
60
0
100
AcDbLine
10
0.9
20
5.0975
30
0
11
1.1
21
4.8975
31
0
39
0
210
0
220
0
230
1
0
LINE
5
174
100
AcDbEntity
8
1
62
256
6
ByLayer
370
18
48
1
60
0
100
AcDbLine
10
5
20
4.8975
30
0
11
1.1
21
4.8975
31
0
39
0
210
0
220
0
230
1
0
LINE
5
175
100
AcDbEntity
8
1
62
256
6
ByLayer
370
18
48
1
60
0
100
AcDbLine
10
5.8
20
4.0975
30
0
11
5
21
4.8975
31
0
39
0
210
0
220
0
230
1
0
LINE
5
176
100
AcDbEntity
8
1
62
256
6
ByLayer
370
18
48
1
60
0
100
AcDbLine
10
5
20
-4.8975
30
0
11
5.8
21
-4.0975
31
0
39
0
210
0
220
0
230
1
0
LINE
5
177
100
AcDbEntity
8
1
62
256
6
ByLayer
370
18
48
1
60
0
100
AcDbLine
10
1.1
20
-4.8975
30
0
11
5
21
-4.8975
31
0
39
0
210
0
220
0
230
1
0
LINE
5
178
100
AcDbEntity
8
1
62
256
6
ByLayer
370
18
48
1
60
0
100
AcDbLine
10
1.1
20
-4.8975
30
0
11
0.9
21
-5.0975
31
0
39
0
210
0
220
0
230
1
0
LINE
5
179
100
AcDbEntity
8
1
62
256
6
ByLayer
370
18
48
1
60
0
100
AcDbLine
10
0.9
20
-5.0975
30
0
11
0.9
21
-25.5
31
0
39
0
210
0
220
0
230
1
0
LINE
5
17A
100
AcDbEntity
8
1
62
256
6
ByLayer
370
18
48
1
60
0
100
AcDbLine
10
20.421882
20
25.5
30
0
11
20.421882
21
-25.5
31
0
39
0
210
0
220
0
230
1
0
LINE
5
17B
100
AcDbEntity
8
1
62
256
6
ByLayer
370
18
48
1
60
0
100
AcDbLine
10
42.3
20
34.23308
30
0
11
49.3
21
34.23308
31
0
39
0
210
0
220
0
230
1
0
LINE
5
17C
100
AcDbEntity
8
1
62
256
6
ByLayer
370
18
48
1
60
0
100
AcDbLine
10
50.3
20
33.442867
30
0
11
50.3
21
28.634216
31
0
39
0
210
0
220
0
230
1
0
LINE
5
17D
100
AcDbEntity
8
1
62
256
6
ByLayer
370
18
48
1
60
0
100
AcDbLine
10
41.3
20
28.634216
30
0
11
41.3
21
33.442867
31
0
39
0
210
0
220
0
230
1
0
LINE
5
17E
100
AcDbEntity
8
1
62
256
6
ByLayer
370
13
48
1
60
0
100
AcDbLine
10
23.186144
20
-19.572023
30
0
11
23.186144
21
19.572023
31
0
39
0
210
0
220
0
230
1
0
LINE
5
17F
100
AcDbEntity
8
1
62
256
6
ByLayer
370
18
48
1
60
0
100
AcDbLine
10
41.3
20
4.723926
30
0
11
41.3
21
4.46936
31
0
39
0
210
0
220
0
230
1
0
LINE
5
180
100
AcDbEntity
8
1
62
256
6
ByLayer
370
18
48
1
60
0
100
AcDbLine
10
50.3
20
4.46936
30
0
11
50.3
21
4.723926
31
0
39
0
210
0
220
0
230
1
0
LINE
5
181
100
AcDbEntity
8
1
62
256
6
ByLayer
370
18
48
1
60
0
100
AcDbLine
10
41.3
20
4.723926
30
0
11
41.325031
21
4.723926
31
0
39
0
210
0
220
0
230
1
0
LINE
5
182
100
AcDbEntity
8
1
62
256
6
ByLayer
370
18
48
1
60
0
100
AcDbLine
10
50.274969
20
4.723926
30
0
11
50.3
21
4.723926
31
0
39
0
210
0
220
0
230
1
0
LINE
5
183
100
AcDbEntity
8
1
62
256
6
ByLayer
370
13
48
1
60
0
100
AcDbLine
10
49.3
20
28.634192
30
0
11
49.3
21
34.23308
31
0
39
0
210
0
220
0
230
1
0
LINE
5
184
100
AcDbEntity
8
1
62
256
6
ByLayer
370
18
48
1
60
0
100
AcDbLine
10
44.4
20
4.46936
30
0
11
47.2
21
4.46936
31
0
39
0
210
0
220
0
230
1
0
LINE
5
185
100
AcDbEntity
8
1
62
256
6
ByLayer
370
18
48
1
60
0
100
AcDbLine
10
49.3
20
-8.348049
30
0
11
42.3
21
-8.348049
31
0
39
0
210
0
220
0
230
1
0
LINE
5
186
100
AcDbEntity
8
1
62
256
6
ByLayer
370
13
48
1
60
0
100
AcDbLine
10
42.3
20
34.23308
30
0
11
42.3
21
28.634192
31
0
39
0
210
0
220
0
230
1
0
LINE
5
187
100
AcDbEntity
8
1
62
256
6
ByLayer
370
18
48
1
60
0
100
AcDbLine
10
41.275
20
-28.589264
30
0
11
41.275
21
-28.425338
31
0
39
0
210
0
220
0
230
1
0
LINE
5
188
100
AcDbEntity
8
1
62
256
6
ByLayer
370
13
48
1
60
0
100
AcDbLine
10
44.4
20
4.46936
30
0
11
44.4
21
2.475512
31
0
39
0
210
0
220
0
230
1
0
LINE
5
189
100
AcDbEntity
8
1
62
256
6
ByLayer
370
13
48
1
60
0
100
AcDbLine
10
47.2
20
2.475512
30
0
11
47.2
21
4.46936
31
0
39
0
210
0
220
0
230
1
0
LINE
5
18A
100
AcDbEntity
8
1
62
256
6
ByLayer
370
13
48
1
60
0
100
AcDbLine
10
49.79543
20
-8.397168
30
0
11
41.80457
21
-8.397168
31
0
39
0
210
0
220
0
230
1
0
LINE
5
18B
100
AcDbEntity
8
1
62
256
6
ByLayer
370
18
48
1
60
0
100
AcDbLine
10
41.275
20
-28.280116
30
0
11
41.275
21
-27.590239
31
0
39
0
210
0
220
0
230
1
0
LINE
5
18C
100
AcDbEntity
8
1
62
256
6
ByLayer
370
18
48
1
60
0
100
AcDbLine
10
41.275
20
-28.589264
30
0
11
41.275
21
-28.634127
31
0
39
0
210
0
220
0
230
1
0
LINE
5
18D
100
AcDbEntity
8
1
62
256
6
ByLayer
370
18
48
1
60
0
100
AcDbLine
10
47.2
20
4.46936
30
0
11
50.3
21
4.46936
31
0
39
0
210
0
220
0
230
1
0
LINE
5
18E
100
AcDbEntity
8
1
62
256
6
ByLayer
370
18
48
1
60
0
100
AcDbLine
10
47.3
20
2.687677
30
0
11
47.3
21
4.385402
31
0
39
0
210
0
220
0
230
1
0
LINE
5
18F
100
AcDbEntity
8
1
62
256
6
ByLayer
370
18
48
1
60
0
100
AcDbLine
10
50.3
20
1.508212
30
0
11
50.3
21
-7.9792
31
0
39
0
210
0
220
0
230
1
0
LINE
5
190
100
AcDbEntity
8
1
62
256
6
ByLayer
370
18
48
1
60
0
100
AcDbLine
10
44.3
20
4.385402
30
0
11
44.3
21
2.687677
31
0
39
0
210
0
220
0
230
1
0
LINE
5
191
100
AcDbEntity
8
1
62
256
6
ByLayer
370
13
48
1
60
0
100
AcDbLine
10
42.3
20
1.344823
30
0
11
42.3
21
-8.348049
31
0
39
0
210
0
220
0
230
1
0
LINE
5
192
100
AcDbEntity
8
1
62
256
6
ByLayer
370
18
48
1
60
0
100
AcDbLine
10
41.3
20
4.46936
30
0
11
44.4
21
4.46936
31
0
39
0
210
0
220
0
230
1
0
LINE
5
193
100
AcDbEntity
8
1
62
256
6
ByLayer
370
13
48
1
60
0
100
AcDbLine
10
49.3
20
-8.348049
30
0
11
49.3
21
1.344823
31
0
39
0
210
0
220
0
230
1
0
LINE
5
194
100
AcDbEntity
8
1
62
256
6
ByLayer
370
18
48
1
60
0
100
AcDbLine
10
41.3
20
4.46936
30
0
11
41.3
21
1.508212
31
0
39
0
210
0
220
0
230
1
0
LINE
5
195
100
AcDbEntity
8
1
62
256
6
ByLayer
370
18
48
1
60
0
100
AcDbLine
10
42.3
20
1.344823
30
0
11
49.3
21
1.344823
31
0
39
0
210
0
220
0
230
1
0
LINE
5
196
100
AcDbEntity
8
1
62
256
6
ByLayer
370
18
48
1
60
0
100
AcDbLine
10
50.3
20
1.508212
30
0
11
50.3
21
4.46936
31
0
39
0
210
0
220
0
230
1
0
LINE
5
197
100
AcDbEntity
8
1
62
256
6
ByLayer
370
18
48
1
60
0
100
AcDbLine
10
41.3
20
-7.9792
30
0
11
41.3
21
1.508212
31
0
39
0
210
0
220
0
230
1
0
LINE
5
198
100
AcDbEntity
8
1
62
256
6
ByLayer
370
18
48
1
60
0
100
AcDbLine
10
50.437375
20
-22.715507
30
0
11
50.400101
21
-23.820574
31
0
39
0
210
0
220
0
230
1
0
LINE
5
199
100
AcDbEntity
8
1
62
256
6
ByLayer
370
18
48
1
60
0
100
AcDbLine
10
50.317998
20
-18.881185
30
0
11
50.437375
21
-22.715507
31
0
39
0
210
0
220
0
230
1
0
LINE
5
19A
100
AcDbEntity
8
1
62
256
6
ByLayer
370
18
48
1
60
0
100
AcDbLine
10
41.325
20
-17.034731
30
0
11
41.325
21
-16.832252
31
0
39
0
210
0
220
0
230
1
0
LINE
5
19B
100
AcDbEntity
8
1
62
256
6
ByLayer
370
18
48
1
60
0
100
AcDbLine
10
41.325
20
-17.034731
30
0
11
42.305864
21
-17.034731
31
0
39
0
210
0
220
0
230
1
0
LINE
5
19C
100
AcDbEntity
8
1
62
256
6
ByLayer
370
18
48
1
60
0
100
AcDbLine
10
50.275
20
-24.231354
30
0
11
41.325
21
-24.231354
31
0
39
0
210
0
220
0
230
1
0
LINE
5
19D
100
AcDbEntity
8
1
62
256
6
ByLayer
370
18
48
1
60
0
100
AcDbLine
10
50.275
20
-18.872883
30
0
11
50.275
21
-24.231354
31
0
39
0
210
0
220
0
230
1
0
LINE
5
19E
100
AcDbEntity
8
1
62
256
6
ByLayer
370
18
48
1
60
0
100
AcDbLine
10
42.251506
20
34.454966
30
0
11
41.275
21
34.45273
31
0
39
0
210
0
220
0
230
1
0
LINE
5
19F
100
AcDbEntity
8
1
62
256
6
ByLayer
370
18
48
1
60
0
100
AcDbLine
10
41.275
20
30.954941
30
0
11
41.300101
21
30.954395
31
0
39
0
210
0
220
0
230
1
0
LINE
5
1A0
100
AcDbEntity
8
1
62
256
6
ByLayer
370
18
48
1
60
0
100
AcDbLine
10
41.275
20
30.363071
30
0
11
41.300101
21
30.363071
31
0
39
0
210
0
220
0
230
1
0
LINE
5
1A1
100
AcDbEntity
8
1
62
256
6
ByLayer
370
18
48
1
60
0
100
AcDbLine
10
41.275
20
38.766013
30
0
11
42.332347
21
38.766013
31
0
39
0
210
0
220
0
230
1
0
LINE
5
1A2
100
AcDbEntity
8
1
62
256
6
ByLayer
370
18
48
1
60
0
100
AcDbLine
10
41.275
20
30.363071
30
0
11
41.275
21
23.998285
31
0
39
0
210
0
220
0
230
1
0
LINE
5
1A3
100
AcDbEntity
8
1
62
256
6
ByLayer
370
18
48
1
60
0
100
AcDbLine
10
41.275
20
30.954941
30
0
11
41.275
21
30.363071
31
0
39
0
210
0
220
0
230
1
0
LINE
5
1A4
100
AcDbEntity
8
1
62
256
6
ByLayer
370
18
48
1
60
0
100
AcDbLine
10
45.688405
20
34.904623
30
0
11
45.604734
21
35.186806
31
0
39
0
210
0
220
0
230
1
0
LINE
5
1A5
100
AcDbEntity
8
1
62
256
6
ByLayer
370
13
48
1
60
0
100
AcDbLine
10
46.419801
20
35.958734
30
0
11
46.325906
21
36.275398
31
0
39
0
210
0
220
0
230
1
0
LINE
5
1A6
100
AcDbEntity
8
1
62
256
6
ByLayer
370
13
48
1
60
0
100
AcDbLine
10
45.777412
20
35.605056
30
0
11
45.683517
21
35.921719
31
0
39
0
210
0
220
0
230
1
0
LINE
5
1A7
100
AcDbEntity
8
1
62
256
6
ByLayer
370
18
48
1
60
0
100
AcDbLine
10
45.603704
20
35.143029
30
0
11
45.687375
21
34.860846
31
0
39
0
210
0
220
0
230
1
0
LINE
5
1A8
100
AcDbEntity
8
1
62
256
6
ByLayer
370
13
48
1
60
0
100
AcDbLine
10
47.488696
20
35.608975
30
0
11
47.394801
21
35.925639
31
0
39
0
210
0
220
0
230
1
0
LINE
5
1A9
100
AcDbEntity
8
1
62
256
6
ByLayer
370
13
48
1
60
0
100
AcDbLine
10
45.530683
20
34.529725
30
0
11
45.436803
21
34.846339
31
0
39
0
210
0
220
0
230
1
0
LINE
5
1AA
100
AcDbEntity
8
1
62
256
6
ByLayer
370
18
48
1
60
0
100
AcDbLine
10
48.612585
20
35.538632
30
0
11
48.61253
21
35.538817
31
0
39
0
210
0
220
0
230
1
0
LINE
5
1AB
100
AcDbEntity
8
1
62
256
6
ByLayer
370
13
48
1
60
0
100
AcDbLine
10
47.641193
20
34.681904
30
0
11
47.590973
21
34.851272
31
0
39
0
210
0
220
0
230
1
0
LINE
5
1AC
100
AcDbEntity
8
1
62
256
6
ByLayer
370
18
48
1
60
0
100
AcDbLine
10
50.275
20
4.617701
30
0
11
50.275
21
4.834712
31
0
39
0
210
0
220
0
230
1
0
LINE
5
1AD
100
AcDbEntity
8
1
62
256
6
ByLayer
370
18
48
1
60
0
100
AcDbLine
10
41.275
20
34.45273
30
0
11
41.275
21
33.884506
31
0
39
0
210
0
220
0
230
1
0
LINE
5
1AE
100
AcDbEntity
8
1
62
256
6
ByLayer
370
18
48
1
60
0
100
AcDbLine
10
50.325
20
18.090657
30
0
11
50.325
21
18.3742
31
0
39
0
210
0
220
0
230
1
0
LINE
5
1AF
100
AcDbEntity
8
1
62
256
6
ByLayer
370
18
48
1
60
0
100
AcDbLine
10
50.325
20
18.3742
30
0
11
50.325
21
18.809931
31
0
39
0
210
0
220
0
230
1
0
LINE
5
1B0
100
AcDbEntity
8
1
62
256
6
ByLayer
370
18
48
1
60
0
100
AcDbLine
10
50.325
20
18.809931
30
0
11
50.325
21
18.823817
31
0
39
0
210
0
220
0
230
1
0
LINE
5
1B1
100
AcDbEntity
8
1
62
256
6
ByLayer
370
18
48
1
60
0
100
AcDbLine
10
49.325058
20
18.735339
30
0
11
50.325
21
18.809931
31
0
39
0
210
0
220
0
230
1
0
LINE
5
1B2
100
AcDbEntity
8
1
62
256
6
ByLayer
370
18
48
1
60
0
100
AcDbLine
10
50.299899
20
4.912775
30
0
11
50.325
21
4.912775
31
0
39
0
210
0
220
0
230
1
0
LINE
5
1B3
100
AcDbEntity
8
1
62
256
6
ByLayer
370
18
48
1
60
0
100
AcDbLine
10
41.275
20
33.884506
30
0
11
41.492435
21
33.885004
31
0
39
0
210
0
220
0
230
1
0
LINE
5
1B4
100
AcDbEntity
8
1
62
256
6
ByLayer
370
18
48
1
60
0
100
AcDbLine
10
50.299899
20
8.884218
30
0
11
50.325
21
8.884218
31
0
39
0
210
0
220
0
230
1
0
LINE
5
1B5
100
AcDbEntity
8
1
62
256
6
ByLayer
370
18
48
1
60
0
100
AcDbLine
10
50.325
20
10.316563
30
0
11
50.325
21
8.884218
31
0
39
0
210
0
220
0
230
1
0
LINE
5
1B6
100
AcDbEntity
8
1
62
256
6
ByLayer
370
18
48
1
60
0
100
AcDbLine
10
50.299899
20
10.316563
30
0
11
50.325
21
10.316563
31
0
39
0
210
0
220
0
230
1
0
LINE
5
1B7
100
AcDbEntity
8
1
62
256
6
ByLayer
370
18
48
1
60
0
100
AcDbLine
10
50.325
20
10.746209
30
0
11
50.325
21
10.316563
31
0
39
0
210
0
220
0
230
1
0
LINE
5
1B8
100
AcDbEntity
8
1
62
256
6
ByLayer
370
18
48
1
60
0
100
AcDbLine
10
41.275
20
-4.528703
30
0
11
41.275
21
-4.423567
31
0
39
0
210
0
220
0
230
1
0
LINE
5
1B9
100
AcDbEntity
8
1
62
256
6
ByLayer
370
13
48
1
60
0
100
AcDbLine
10
50.325
20
4.406108
30
0
11
50.299899
21
4.406108
31
0
39
0
210
0
220
0
230
1
0
LINE
5
1BA
100
AcDbEntity
8
1
62
256
6
ByLayer
370
18
48
1
60
0
100
AcDbLine
10
41.275
20
-4.366022
30
0
11
41.275
21
-4.361244
31
0
39
0
210
0
220
0
230
1
0
LINE
5
1BB
100
AcDbEntity
8
1
62
256
6
ByLayer
370
18
48
1
60
0
100
AcDbLine
10
41.275
20
-4.366022
30
0
11
41.275
21
-4.423567
31
0
39
0
210
0
220
0
230
1
0
LINE
5
1BC
100
AcDbEntity
8
1
62
256
6
ByLayer
370
18
48
1
60
0
100
AcDbLine
10
40.924095
20
-32.635299
30
0
11
41.286691
21
-31.508221
31
0
39
0
210
0
220
0
230
1
0
LINE
5
1BD
100
AcDbEntity
8
1
62
256
6
ByLayer
370
18
48
1
60
0
100
AcDbLine
10
40.800028
20
-37.90895
30
0
11
40.800088
21
-39.201975
31
0
39
0
210
0
220
0
230
1
0
LINE
5
1BE
100
AcDbEntity
8
1
62
256
6
ByLayer
370
18
48
1
60
0
100
AcDbLine
10
40.800028
20
-37.90895
30
0
11
41.162625
21
-36.781871
31
0
39
0
210
0
220
0
230
1
0
LINE
5
1BF
100
AcDbEntity
8
1
62
256
6
ByLayer
370
18
48
1
60
0
100
AcDbLine
10
49.267623
20
-39.182583
30
0
11
49.267643
21
-38.766007
31
0
39
0
210
0
220
0
230
1
0
LINE
5
1C0
100
AcDbEntity
8
1
62
256
6
ByLayer
370
18
48
1
60
0
100
AcDbLine
10
41.564269
20
-39.977042
30
0
11
48.503443
21
-39.96115
31
0
39
0
210
0
220
0
230
1
0
LINE
5
1C1
100
AcDbEntity
8
1
62
256
6
ByLayer
370
18
48
1
60
0
100
AcDbLine
10
41.286691
20
-31.508221
30
0
11
41.300001
21
-31.325027
31
0
39
0
210
0
220
0
230
1
0
LINE
5
1C2
100
AcDbEntity
8
1
62
256
6
ByLayer
370
18
48
1
60
0
100
AcDbLine
10
41.162625
20
-36.781871
30
0
11
41.286691
21
-31.508221
31
0
39
0
210
0
220
0
230
1
0
LINE
5
1C3
100
AcDbEntity
8
1
62
256
6
ByLayer
370
18
48
1
60
0
100
AcDbLine
10
41.199899
20
-38.237088
30
0
11
41.162625
21
-36.781871
31
0
39
0
210
0
220
0
230
1
0
LINE
5
1C4
100
AcDbEntity
8
1
62
256
6
ByLayer
370
18
48
1
60
0
100
AcDbLine
10
41.275
20
-4.73682
30
0
11
41.275
21
-4.528703
31
0
39
0
210
0
220
0
230
1
0
LINE
5
1C5
100
AcDbEntity
8
1
62
256
6
ByLayer
370
18
48
1
60
0
100
AcDbLine
10
41.275
20
-4.736814
30
0
11
41.275
21
-4.741592
31
0
39
0
210
0
220
0
230
1
0
LINE
5
1C6
100
AcDbEntity
8
1
62
256
6
ByLayer
370
18
48
1
60
0
100
AcDbLine
10
41.275
20
-4.741592
30
0
11
41.275
21
-4.799137
31
0
39
0
210
0
220
0
230
1
0
LINE
5
1C7
100
AcDbEntity
8
1
62
256
6
ByLayer
370
18
48
1
60
0
100
AcDbLine
10
41.275
20
-4.799137
30
0
11
41.275
21
-4.904273
31
0
39
0
210
0
220
0
230
1
0
LINE
5
1C8
100
AcDbEntity
8
1
62
256
6
ByLayer
370
18
48
1
60
0
100
AcDbLine
10
41.275
20
-4.904273
30
0
11
41.275
21
-5.11239
31
0
39
0
210
0
220
0
230
1
0
LINE
5
1C9
100
AcDbEntity
8
1
62
256
6
ByLayer
370
13
48
1
60
0
100
AcDbLine
10
41.275
20
-4.366022
30
0
11
41.300101
21
-4.366022
31
0
39
0
210
0
220
0
230
1
0
LINE
5
1CA
100
AcDbEntity
8
1
62
256
6
ByLayer
370
18
48
1
60
0
100
AcDbLine
10
41.275
20
-5.117162
30
0
11
41.275
21
-5.112384
31
0
39
0
210
0
220
0
230
1
0
LINE
5
1CB
100
AcDbEntity
8
1
62
256
6
ByLayer
370
13
48
1
60
0
100
AcDbLine
10
41.275
20
-4.423567
30
0
11
41.300101
21
-4.423567
31
0
39
0
210
0
220
0
230
1
0
LINE
5
1CC
100
AcDbEntity
8
1
62
256
6
ByLayer
370
13
48
1
60
0
100
AcDbLine
10
41.275
20
-4.528703
30
0
11
41.300101
21
-4.528703
31
0
39
0
210
0
220
0
230
1
0
LINE
5
1CD
100
AcDbEntity
8
1
62
256
6
ByLayer
370
18
48
1
60
0
100
AcDbLine
10
41.275
20
-5.174707
30
0
11
41.275
21
-5.117162
31
0
39
0
210
0
220
0
230
1
0
LINE
5
1CE
100
AcDbEntity
8
1
62
256
6
ByLayer
370
18
48
1
60
0
100
AcDbLine
10
41.275
20
-5.279843
30
0
11
41.275
21
-5.174707
31
0
39
0
210
0
220
0
230
1
0
LINE
5
1CF
100
AcDbEntity
8
1
62
256
6
ByLayer
370
18
48
1
60
0
100
AcDbLine
10
41.275
20
-5.48796
30
0
11
41.275
21
-5.279843
31
0
39
0
210
0
220
0
230
1
0
LINE
5
1D0
100
AcDbEntity
8
1
62
256
6
ByLayer
370
13
48
1
60
0
100
AcDbLine
10
41.275
20
-4.741592
30
0
11
41.300101
21
-4.741592
31
0
39
0
210
0
220
0
230
1
0
LINE
5
1D1
100
AcDbEntity
8
1
62
256
6
ByLayer
370
18
48
1
60
0
100
AcDbLine
10
41.275
20
-5.487954
30
0
11
41.275
21
-5.492732
31
0
39
0
210
0
220
0
230
1
0
LINE
5
1D2
100
AcDbEntity
8
1
62
256
6
ByLayer
370
13
48
1
60
0
100
AcDbLine
10
41.275
20
-4.799137
30
0
11
41.300101
21
-4.799137
31
0
39
0
210
0
220
0
230
1
0
LINE
5
1D3
100
AcDbEntity
8
1
62
256
6
ByLayer
370
13
48
1
60
0
100
AcDbLine
10
41.275
20
-4.904273
30
0
11
41.300101
21
-4.904273
31
0
39
0
210
0
220
0
230
1
0
LINE
5
1D4
100
AcDbEntity
8
1
62
256
6
ByLayer
370
18
48
1
60
0
100
AcDbLine
10
41.275
20
-5.550277
30
0
11
41.275
21
-5.492732
31
0
39
0
210
0
220
0
230
1
0
LINE
5
1D5
100
AcDbEntity
8
1
62
256
6
ByLayer
370
18
48
1
60
0
100
AcDbLine
10
41.275
20
-5.550277
30
0
11
41.275
21
-5.655413
31
0
39
0
210
0
220
0
230
1
0
LINE
5
1D6
100
AcDbEntity
8
1
62
256
6
ByLayer
370
18
48
1
60
0
100
AcDbLine
10
41.275
20
-16.83253
30
0
11
41.275
21
-15.661701
31
0
39
0
210
0
220
0
230
1
0
LINE
5
1D7
100
AcDbEntity
8
1
62
256
6
ByLayer
370
13
48
1
60
0
100
AcDbLine
10
41.275
20
-5.117162
30
0
11
41.300101
21
-5.117162
31
0
39
0
210
0
220
0
230
1
0
LINE
5
1D8
100
AcDbEntity
8
1
62
256
6
ByLayer
370
18
48
1
60
0
100
AcDbLine
10
41.275
20
-16.83253
30
0
11
42.2858
21
-16.826819
31
0
39
0
210
0
220
0
230
1
0
LINE
5
1D9
100
AcDbEntity
8
1
62
256
6
ByLayer
370
13
48
1
60
0
100
AcDbLine
10
41.275
20
-5.174707
30
0
11
41.300101
21
-5.174707
31
0
39
0
210
0
220
0
230
1
0
LINE
5
1DA
100
AcDbEntity
8
1
62
256
6
ByLayer
370
18
48
1
60
0
100
AcDbLine
10
41.275
20
-5.655413
30
0
11
41.275
21
-5.86353
31
0
39
0
210
0
220
0
230
1
0
LINE
5
1DB
100
AcDbEntity
8
1
62
256
6
ByLayer
370
13
48
1
60
0
100
AcDbLine
10
41.275
20
-5.279843
30
0
11
41.300101
21
-5.279843
31
0
39
0
210
0
220
0
230
1
0
LINE
5
1DC
100
AcDbEntity
8
1
62
256
6
ByLayer
370
18
48
1
60
0
100
AcDbLine
10
41.275
20
-5.868302
30
0
11
41.275
21
-5.863524
31
0
39
0
210
0
220
0
230
1
0
LINE
5
1DD
100
AcDbEntity
8
1
62
256
6
ByLayer
370
18
48
1
60
0
100
AcDbLine
10
41.275
20
-5.868302
30
0
11
41.275
21
-5.925847
31
0
39
0
210
0
220
0
230
1
0
LINE
5
1DE
100
AcDbEntity
8
1
62
256
6
ByLayer
370
13
48
1
60
0
100
AcDbLine
10
41.275
20
-5.492732
30
0
11
41.300101
21
-5.492732
31
0
39
0
210
0
220
0
230
1
0
LINE
5
1DF
100
AcDbEntity
8
1
62
256
6
ByLayer
370
18
48
1
60
0
100
AcDbLine
10
41.275
20
-6.030983
30
0
11
41.275
21
-5.925847
31
0
39
0
210
0
220
0
230
1
0
LINE
5
1E0
100
AcDbEntity
8
1
62
256
6
ByLayer
370
13
48
1
60
0
100
AcDbLine
10
41.275
20
-5.550277
30
0
11
41.300101
21
-5.550277
31
0
39
0
210
0
220
0
230
1
0
LINE
5
1E1
100
AcDbEntity
8
1
62
256
6
ByLayer
370
18
48
1
60
0
100
AcDbLine
10
41.275
20
-6.2391
30
0
11
41.275
21
-6.030983
31
0
39
0
210
0
220
0
230
1
0
LINE
5
1E2
100
AcDbEntity
8
1
62
256
6
ByLayer
370
18
48
1
60
0
100
AcDbLine
10
41.275
20
-6.239094
30
0
11
41.275
21
-6.243872
31
0
39
0
210
0
220
0
230
1
0
LINE
5
1E3
100
AcDbEntity
8
1
62
256
6
ByLayer
370
13
48
1
60
0
100
AcDbLine
10
41.275
20
-5.655413
30
0
11
41.300101
21
-5.655413
31
0
39
0
210
0
220
0
230
1
0
LINE
5
1E4
100
AcDbEntity
8
1
62
256
6
ByLayer
370
18
48
1
60
0
100
AcDbLine
10
41.275
20
-6.243872
30
0
11
41.275
21
-6.301417
31
0
39
0
210
0
220
0
230
1
0
LINE
5
1E5
100
AcDbEntity
8
1
62
256
6
ByLayer
370
18
48
1
60
0
100
AcDbLine
10
41.275
20
-6.301417
30
0
11
41.275
21
-6.406553
31
0
39
0
210
0
220
0
230
1
0
LINE
5
1E6
100
AcDbEntity
8
1
62
256
6
ByLayer
370
18
48
1
60
0
100
AcDbLine
10
41.275
20
-6.406553
30
0
11
41.275
21
-6.61467
31
0
39
0
210
0
220
0
230
1
0
LINE
5
1E7
100
AcDbEntity
8
1
62
256
6
ByLayer
370
13
48
1
60
0
100
AcDbLine
10
41.275
20
-5.868302
30
0
11
41.300101
21
-5.868302
31
0
39
0
210
0
220
0
230
1
0
LINE
5
1E8
100
AcDbEntity
8
1
62
256
6
ByLayer
370
18
48
1
60
0
100
AcDbLine
10
41.275
20
-6.619442
30
0
11
41.275
21
-6.614664
31
0
39
0
210
0
220
0
230
1
0
LINE
5
1E9
100
AcDbEntity
8
1
62
256
6
ByLayer
370
13
48
1
60
0
100
AcDbLine
10
41.275
20
-5.925847
30
0
11
41.300101
21
-5.925847
31
0
39
0
210
0
220
0
230
1
0
LINE
5
1EA
100
AcDbEntity
8
1
62
256
6
ByLayer
370
13
48
1
60
0
100
AcDbLine
10
41.275
20
-6.030983
30
0
11
41.300101
21
-6.030983
31
0
39
0
210
0
220
0
230
1
0
LINE
5
1EB
100
AcDbEntity
8
1
62
256
6
ByLayer
370
18
48
1
60
0
100
AcDbLine
10
41.275
20
-6.619442
30
0
11
41.275
21
-6.676987
31
0
39
0
210
0
220
0
230
1
0
LINE
5
1EC
100
AcDbEntity
8
1
62
256
6
ByLayer
370
18
48
1
60
0
100
AcDbLine
10
41.275
20
-6.782123
30
0
11
41.275
21
-6.676987
31
0
39
0
210
0
220
0
230
1
0
LINE
5
1ED
100
AcDbEntity
8
1
62
256
6
ByLayer
370
18
48
1
60
0
100
AcDbLine
10
41.275
20
-6.99024
30
0
11
41.275
21
-6.782123
31
0
39
0
210
0
220
0
230
1
0
LINE
5
1EE
100
AcDbEntity
8
1
62
256
6
ByLayer
370
13
48
1
60
0
100
AcDbLine
10
41.275
20
-6.243872
30
0
11
41.300101
21
-6.243872
31
0
39
0
210
0
220
0
230
1
0
LINE
5
1EF
100
AcDbEntity
8
1
62
256
6
ByLayer
370
18
48
1
60
0
100
AcDbLine
10
41.275
20
-6.990234
30
0
11
41.275
21
-6.995012
31
0
39
0
210
0
220
0
230
1
0
LINE
5
1F0
100
AcDbEntity
8
1
62
256
6
ByLayer
370
13
48
1
60
0
100
AcDbLine
10
41.275
20
-6.301417
30
0
11
41.300101
21
-6.301417
31
0
39
0
210
0
220
0
230
1
0
LINE
5
1F1
100
AcDbEntity
8
1
62
256
6
ByLayer
370
13
48
1
60
0
100
AcDbLine
10
41.275
20
-6.406553
30
0
11
41.300101
21
-6.406553
31
0
39
0
210
0
220
0
230
1
0
LINE
5
1F2
100
AcDbEntity
8
1
62
256
6
ByLayer
370
18
48
1
60
0
100
AcDbLine
10
41.275
20
-7.052557
30
0
11
41.275
21
-6.995012
31
0
39
0
210
0
220
0
230
1
0
LINE
5
1F3
100
AcDbEntity
8
1
62
256
6
ByLayer
370
18
48
1
60
0
100
AcDbLine
10
41.275
20
-7.052557
30
0
11
41.275
21
-7.157693
31
0
39
0
210
0
220
0
230
1
0
LINE
5
1F4
100
AcDbEntity
8
1
62
256
6
ByLayer
370
18
48
1
60
0
100
AcDbLine
10
41.275
20
-7.157693
30
0
11
41.275
21
-7.36581
31
0
39
0
210
0
220
0
230
1
0
LINE
5
1F5
100
AcDbEntity
8
1
62
256
6
ByLayer
370
13
48
1
60
0
100
AcDbLine
10
41.275
20
-6.619442
30
0
11
41.300101
21
-6.619442
31
0
39
0
210
0
220
0
230
1
0
LINE
5
1F6
100
AcDbEntity
8
1
62
256
6
ByLayer
370
18
48
1
60
0
100
AcDbLine
10
41.275
20
-7.370582
30
0
11
41.275
21
-7.365804
31
0
39
0
210
0
220
0
230
1
0
LINE
5
1F7
100
AcDbEntity
8
1
62
256
6
ByLayer
370
13
48
1
60
0
100
AcDbLine
10
41.275
20
-6.676987
30
0
11
41.300101
21
-6.676987
31
0
39
0
210
0
220
0
230
1
0
LINE
5
1F8
100
AcDbEntity
8
1
62
256
6
ByLayer
370
13
48
1
60
0
100
AcDbLine
10
41.275
20
-6.782123
30
0
11
41.300101
21
-6.782123
31
0
39
0
210
0
220
0
230
1
0
LINE
5
1F9
100
AcDbEntity
8
1
62
256
6
ByLayer
370
18
48
1
60
0
100
AcDbLine
10
41.275
20
-7.370582
30
0
11
41.275
21
-7.428127
31
0
39
0
210
0
220
0
230
1
0
LINE
5
1FA
100
AcDbEntity
8
1
62
256
6
ByLayer
370
18
48
1
60
0
100
AcDbLine
10
41.275
20
-7.533263
30
0
11
41.275
21
-7.428127
31
0
39
0
210
0
220
0
230
1
0
LINE
5
1FB
100
AcDbEntity
8
1
62
256
6
ByLayer
370
18
48
1
60
0
100
AcDbLine
10
41.275
20
-7.74138
30
0
11
41.275
21
-7.533263
31
0
39
0
210
0
220
0
230
1
0
LINE
5
1FC
100
AcDbEntity
8
1
62
256
6
ByLayer
370
13
48
1
60
0
100
AcDbLine
10
41.275
20
-6.995012
30
0
11
41.300004
21
-6.995012
31
0
39
0
210
0
220
0
230
1
0
LINE
5
1FD
100
AcDbEntity
8
1
62
256
6
ByLayer
370
18
48
1
60
0
100
AcDbLine
10
41.275
20
-7.741374
30
0
11
41.275
21
-7.746152
31
0
39
0
210
0
220
0
230
1
0
LINE
5
1FE
100
AcDbEntity
8
1
62
256
6
ByLayer
370
13
48
1
60
0
100
AcDbLine
10
41.275
20
-7.052557
30
0
11
41.30001
21
-7.052557
31
0
39
0
210
0
220
0
230
1
0
LINE
5
1FF
100
AcDbEntity
8
1
62
256
6
ByLayer
370
13
48
1
60
0
100
AcDbLine
10
41.275
20
-7.157693
30
0
11
41.300021
21
-7.157693
31
0
39
0
210
0
220
0
230
1
0
LINE
5
200
100
AcDbEntity
8
1
62
256
6
ByLayer
370
18
48
1
60
0
100
AcDbLine
10
41.275
20
-7.746152
30
0
11
41.275
21
-7.803697
31
0
39
0
210
0
220
0
230
1
0
LINE
5
201
100
AcDbEntity
8
1
62
256
6
ByLayer
370
18
48
1
60
0
100
AcDbLine
10
41.275
20
-7.803697
30
0
11
41.275
21
-7.908833
31
0
39
0
210
0
220
0
230
1
0
LINE
5
202
100
AcDbEntity
8
1
62
256
6
ByLayer
370
18
48
1
60
0
100
AcDbLine
10
41.275
20
-7.908833
30
0
11
41.275
21
-8.11695
31
0
39
0
210
0
220
0
230
1
0
LINE
5
203
100
AcDbEntity
8
1
62
256
6
ByLayer
370
13
48
1
60
0
100
AcDbLine
10
41.275
20
-7.370582
30
0
11
41.300062
21
-7.370582
31
0
39
0
210
0
220
0
230
1
0
LINE
5
204
100
AcDbEntity
8
1
62
256
6
ByLayer
370
18
48
1
60
0
100
AcDbLine
10
50.3
20
-7.979201
30
0
11
50.3
21
-8.11695
31
0
39
0
210
0
220
0
230
1
0
LINE
5
205
100
AcDbEntity
8
1
62
256
6
ByLayer
370
13
48
1
60
0
100
AcDbLine
10
41.275
20
-7.428127
30
0
11
41.300007
21
-7.428127
31
0
39
0
210
0
220
0
230
1
0
LINE
5
206
100
AcDbEntity
8
1
62
256
6
ByLayer
370
18
48
1
60
0
100
AcDbLine
10
41.275
20
-8.121722
30
0
11
41.275
21
-8.116944
31
0
39
0
210
0
220
0
230
1
0
LINE
5
207
100
AcDbEntity
8
1
62
256
6
ByLayer
370
13
48
1
60
0
100
AcDbLine
10
41.275
20
-7.533263
30
0
11
41.30006
21
-7.533263
31
0
39
0
210
0
220
0
230
1
0
LINE
5
208
100
AcDbEntity
8
1
62
256
6
ByLayer
370
18
48
1
60
0
100
AcDbLine
10
50.3
20
-8.121722
30
0
11
50.3
21
-8.116944
31
0
39
0
210
0
220
0
230
1
0
LINE
5
209
100
AcDbEntity
8
1
62
256
6
ByLayer
370
18
48
1
60
0
100
AcDbLine
10
41.275
20
-8.179267
30
0
11
41.275
21
-8.121722
31
0
39
0
210
0
220
0
230
1
0
LINE
5
20A
100
AcDbEntity
8
1
62
256
6
ByLayer
370
13
48
1
60
0
100
AcDbLine
10
41.275
20
-7.746152
30
0
11
41.300101
21
-7.746152
31
0
39
0
210
0
220
0
230
1
0
LINE
5
20B
100
AcDbEntity
8
1
62
256
6
ByLayer
370
18
48
1
60
0
100
AcDbLine
10
41.275
20
-8.284403
30
0
11
41.275
21
-8.179267
31
0
39
0
210
0
220
0
230
1
0
LINE
5
20C
100
AcDbEntity
8
1
62
256
6
ByLayer
370
13
48
1
60
0
100
AcDbLine
10
41.275
20
-7.803697
30
0
11
41.300101
21
-7.803697
31
0
39
0
210
0
220
0
230
1
0
LINE
5
20D
100
AcDbEntity
8
1
62
256
6
ByLayer
370
18
48
1
60
0
100
AcDbLine
10
50.675905
20
-15.96234
30
0
11
50.639634
21
-16.239249
31
0
39
0
210
0
220
0
230
1
0
LINE
5
20E
100
AcDbEntity
8
1
62
256
6
ByLayer
370
18
48
1
60
0
100
AcDbLine
10
50.3
20
-8.179267
30
0
11
50.3
21
-8.121722
31
0
39
0
210
0
220
0
230
1
0
LINE
5
20F
100
AcDbEntity
8
1
62
256
6
ByLayer
370
18
48
1
60
0
100
AcDbLine
10
50.3
20
-8.284403
30
0
11
50.3
21
-8.179267
31
0
39
0
210
0
220
0
230
1
0
LINE
5
210
100
AcDbEntity
8
1
62
256
6
ByLayer
370
13
48
1
60
0
100
AcDbLine
10
41.275
20
-7.908833
30
0
11
41.300101
21
-7.908833
31
0
39
0
210
0
220
0
230
1
0
LINE
5
211
100
AcDbEntity
8
1
62
256
6
ByLayer
370
18
48
1
60
0
100
AcDbLine
10
50.3
20
-8.49252
30
0
11
50.3
21
-8.284403
31
0
39
0
210
0
220
0
230
1
0
LINE
5
212
100
AcDbEntity
8
1
62
256
6
ByLayer
370
18
48
1
60
0
100
AcDbLine
10
41.275
20
-8.49252
30
0
11
41.275
21
-8.284403
31
0
39
0
210
0
220
0
230
1
0
LINE
5
213
100
AcDbEntity
8
1
62
256
6
ByLayer
370
18
48
1
60
0
100
AcDbLine
10
44.933975
20
7.958254
30
0
11
46.666025
21
7.958254
31
0
39
0
210
0
220
0
230
1
0
LINE
5
214
100
AcDbEntity
8
1
62
256
6
ByLayer
370
18
48
1
60
0
100
AcDbLine
10
50.3
20
-12.85869
30
0
11
50.3
21
-14.537175
31
0
39
0
210
0
220
0
230
1
0
LINE
5
215
100
AcDbEntity
8
1
62
256
6
ByLayer
370
18
48
1
60
0
100
AcDbLine
10
41.275
20
-12.85869
30
0
11
41.275
21
-15.661678
31
0
39
0
210
0
220
0
230
1
0
LINE
5
216
100
AcDbEntity
8
1
62
256
6
ByLayer
370
18
48
1
60
0
100
AcDbLine
10
42.870093
20
-15.783433
30
0
11
42.998874
21
-15.339916
31
0
39
0
210
0
220
0
230
1
0
LINE
5
217
100
AcDbEntity
8
1
62
256
6
ByLayer
370
13
48
1
60
0
100
AcDbLine
10
41.275
20
-8.121722
30
0
11
41.33197
21
-8.121722
31
0
39
0
210
0
220
0
230
1
0
LINE
5
218
100
AcDbEntity
8
1
62
256
6
ByLayer
370
13
48
1
60
0
100
AcDbLine
10
50.267707
20
-8.121722
30
0
11
50.3
21
-8.121722
31
0
39
0
210
0
220
0
230
1
0
LINE
5
219
100
AcDbEntity
8
1
62
256
6
ByLayer
370
18
48
1
60
0
100
AcDbLine
10
41.275
20
-15.661678
30
0
11
42.870093
21
-15.783433
31
0
39
0
210
0
220
0
230
1
0
LINE
5
21A
100
AcDbEntity
8
1
62
256
6
ByLayer
370
18
48
1
60
0
100
AcDbLine
10
43.124077
20
-14.100145
30
0
11
43.284593
21
-14.001682
31
0
39
0
210
0
220
0
230
1
0
LINE
5
21B
100
AcDbEntity
8
1
62
256
6
ByLayer
370
13
48
1
60
0
100
AcDbLine
10
41.275
20
-8.179267
30
0
11
41.348469
21
-8.179267
31
0
39
0
210
0
220
0
230
1
0
LINE
5
21C
100
AcDbEntity
8
1
62
256
6
ByLayer
370
13
48
1
60
0
100
AcDbLine
10
50.251209
20
-8.179267
30
0
11
50.3
21
-8.179267
31
0
39
0
210
0
220
0
230
1
0
LINE
5
21D
100
AcDbEntity
8
1
62
256
6
ByLayer
370
18
48
1
60
0
100
AcDbLine
10
47.382729
20
9.160111
30
0
11
46.666025
21
10.361937
31
0
39
0
210
0
220
0
230
1
0
LINE
5
21E
100
AcDbEntity
8
1
62
256
6
ByLayer
370
18
48
1
60
0
100
AcDbLine
10
42.998874
20
-15.339916
30
0
11
43.124077
21
-14.100145
31
0
39
0
210
0
220
0
230
1
0
LINE
5
21F
100
AcDbEntity
8
1
62
256
6
ByLayer
370
18
48
1
60
0
100
AcDbLine
10
50.3
20
-14.537175
30
0
11
43.284593
21
-14.001682
31
0
39
0
210
0
220
0
230
1
0
LINE
5
220
100
AcDbEntity
8
1
62
256
6
ByLayer
370
13
48
1
60
0
100
AcDbLine
10
41.275
20
-8.284403
30
0
11
41.381608
21
-8.284403
31
0
39
0
210
0
220
0
230
1
0
LINE
5
221
100
AcDbEntity
8
1
62
256
6
ByLayer
370
13
48
1
60
0
100
AcDbLine
10
50.219057
20
-8.284403
30
0
11
50.3
21
-8.284403
31
0
39
0
210
0
220
0
230
1
0
LINE
5
222
100
AcDbEntity
8
1
62
256
6
ByLayer
370
18
48
1
60
0
100
AcDbLine
10
41.275
20
-8.492514
30
0
11
41.275
21
-8.497292
31
0
39
0
210
0
220
0
230
1
0
LINE
5
223
100
AcDbEntity
8
1
62
256
6
ByLayer
370
18
48
1
60
0
100
AcDbLine
10
50.3
20
-8.492514
30
0
11
50.3
21
-8.497292
31
0
39
0
210
0
220
0
230
1
0
LINE
5
224
100
AcDbEntity
8
1
62
256
6
ByLayer
370
18
48
1
60
0
100
AcDbLine
10
41.275
20
-8.554837
30
0
11
41.275
21
-8.497292
31
0
39
0
210
0
220
0
230
1
0
LINE
5
225
100
AcDbEntity
8
1
62
256
6
ByLayer
370
18
48
1
60
0
100
AcDbLine
10
41.275
20
-8.554837
30
0
11
41.275
21
-8.659973
31
0
39
0
210
0
220
0
230
1
0
LINE
5
226
100
AcDbEntity
8
1
62
256
6
ByLayer
370
18
48
1
60
0
100
AcDbLine
10
50.3
20
-8.554837
30
0
11
50.3
21
-8.497292
31
0
39
0
210
0
220
0
230
1
0
LINE
5
227
100
AcDbEntity
8
1
62
256
6
ByLayer
370
18
48
1
60
0
100
AcDbLine
10
50.3
20
-8.554837
30
0
11
50.3
21
-8.659973
31
0
39
0
210
0
220
0
230
1
0
LINE
5
228
100
AcDbEntity
8
1
62
256
6
ByLayer
370
18
48
1
60
0
100
AcDbLine
10
41.275
20
-9.344501
30
0
11
41.275
21
-12.85869
31
0
39
0
210
0
220
0
230
1
0
LINE
5
229
100
AcDbEntity
8
1
62
256
6
ByLayer
370
18
48
1
60
0
100
AcDbLine
10
50.3
20
-9.344501
30
0
11
50.3
21
-12.85869
31
0
39
0
210
0
220
0
230
1
0
LINE
5
22A
100
AcDbEntity
8
1
62
256
6
ByLayer
370
18
48
1
60
0
100
AcDbLine
10
50.3
20
-8.659973
30
0
11
50.3
21
-9.344501
31
0
39
0
210
0
220
0
230
1
0
LINE
5
22B
100
AcDbEntity
8
1
62
256
6
ByLayer
370
18
48
1
60
0
100
AcDbLine
10
41.275
20
-12.85869
30
0
11
50.3
21
-12.85869
31
0
39
0
210
0
220
0
230
1
0
LINE
5
22C
100
AcDbEntity
8
1
62
256
6
ByLayer
370
18
48
1
60
0
100
AcDbLine
10
44.933975
20
10.862697
30
0
11
44.933975
21
10.361937
31
0
39
0
210
0
220
0
230
1
0
LINE
5
22D
100
AcDbEntity
8
1
62
256
6
ByLayer
370
13
48
1
60
0
100
AcDbLine
10
41.275
20
-8.497292
30
0
11
50.3
21
-8.497292
31
0
39
0
210
0
220
0
230
1
0
LINE
5
22E
100
AcDbEntity
8
1
62
256
6
ByLayer
370
18
48
1
60
0
100
AcDbLine
10
44.933975
20
10.361937
30
0
11
44.217271
21
9.160111
31
0
39
0
210
0
220
0
230
1
0
LINE
5
22F
100
AcDbEntity
8
1
62
256
6
ByLayer
370
18
48
1
60
0
100
AcDbLine
10
41.275
20
-8.659973
30
0
11
41.275
21
-9.344501
31
0
39
0
210
0
220
0
230
1
0
LINE
5
230
100
AcDbEntity
8
1
62
256
6
ByLayer
370
13
48
1
60
0
100
AcDbLine
10
41.275
20
-8.554837
30
0
11
50.3
21
-8.554837
31
0
39
0
210
0
220
0
230
1
0
LINE
5
231
100
AcDbEntity
8
1
62
256
6
ByLayer
370
18
48
1
60
0
100
AcDbLine
10
50.3
20
-9.344501
30
0
11
41.275
21
-9.344501
31
0
39
0
210
0
220
0
230
1
0
LINE
5
232
100
AcDbEntity
8
1
62
256
6
ByLayer
370
18
48
1
60
0
100
AcDbLine
10
46.666025
20
10.862697
30
0
11
46.666025
21
10.361937
31
0
39
0
210
0
220
0
230
1
0
LINE
5
233
100
AcDbEntity
8
1
62
256
6
ByLayer
370
13
48
1
60
0
100
AcDbLine
10
41.275
20
-8.659973
30
0
11
50.3
21
-8.659973
31
0
39
0
210
0
220
0
230
1
0
LINE
5
234
100
AcDbEntity
8
1
62
256
6
ByLayer
370
18
48
1
60
0
100
AcDbLine
10
44.933975
20
10.361937
30
0
11
46.666025
21
10.361937
31
0
39
0
210
0
220
0
230
1
0
LINE
5
235
100
AcDbEntity
8
1
62
256
6
ByLayer
370
18
48
1
60
0
100
AcDbLine
10
50.325
20
15.877855
30
0
11
50.325
21
18.090657
31
0
39
0
210
0
220
0
230
1
0
LINE
5
236
100
AcDbEntity
8
1
62
256
6
ByLayer
370
18
48
1
60
0
100
AcDbLine
10
50.325
20
15.768922
30
0
11
50.325
21
15.877855
31
0
39
0
210
0
220
0
230
1
0
LINE
5
237
100
AcDbEntity
8
1
62
256
6
ByLayer
370
18
48
1
60
0
100
AcDbLine
10
49.430538
20
15.811131
30
0
11
50.325
21
15.877855
31
0
39
0
210
0
220
0
230
1
0
LINE
5
238
100
AcDbEntity
8
1
62
256
6
ByLayer
370
18
48
1
60
0
100
AcDbLine
10
50.325
20
28.629349
30
0
11
50.325
21
28.634127
31
0
39
0
210
0
220
0
230
1
0
LINE
5
239
100
AcDbEntity
8
1
62
256
6
ByLayer
370
13
48
1
60
0
100
AcDbLine
10
49.338596
20
18.300618
30
0
11
50.325
21
18.3742
31
0
39
0
210
0
220
0
230
1
0
LINE
5
23A
100
AcDbEntity
8
1
62
256
6
ByLayer
370
18
48
1
60
0
100
AcDbLine
10
41.3
20
28.629349
30
0
11
41.3
21
28.634127
31
0
39
0
210
0
220
0
230
1
0
LINE
5
23B
100
AcDbEntity
8
1
62
256
6
ByLayer
370
18
48
1
60
0
100
AcDbLine
10
50.325
20
13.684326
30
0
11
50.325
21
10.746151
31
0
39
0
210
0
220
0
230
1
0
LINE
5
23C
100
AcDbEntity
8
1
62
256
6
ByLayer
370
18
48
1
60
0
100
AcDbLine
10
41.3
20
13.684326
30
0
11
41.3
21
10.746151
31
0
39
0
210
0
220
0
230
1
0
LINE
5
23D
100
AcDbEntity
8
1
62
256
6
ByLayer
370
18
48
1
60
0
100
AcDbLine
10
41.3
20
10.746151
30
0
11
41.325101
21
10.746151
31
0
39
0
210
0
220
0
230
1
0
LINE
5
23E
100
AcDbEntity
8
1
62
256
6
ByLayer
370
18
48
1
60
0
100
AcDbLine
10
50.274939
20
10.746151
30
0
11
50.325
21
10.746151
31
0
39
0
210
0
220
0
230
1
0
LINE
5
23F
100
AcDbEntity
8
1
62
256
6
ByLayer
370
18
48
1
60
0
100
AcDbLine
10
50.325
20
28.629349
30
0
11
50.325
21
28.451489
31
0
39
0
210
0
220
0
230
1
0
LINE
5
240
100
AcDbEntity
8
1
62
256
6
ByLayer
370
13
48
1
60
0
100
AcDbLine
10
49.347339
20
18.017727
30
0
11
50.325
21
18.090657
31
0
39
0
210
0
220
0
230
1
0
LINE
5
241
100
AcDbEntity
8
1
62
256
6
ByLayer
370
18
48
1
60
0
100
AcDbLine
10
41.3
20
28.629349
30
0
11
41.3
21
28.451489
31
0
39
0
210
0
220
0
230
1
0
LINE
5
242
100
AcDbEntity
8
1
62
256
6
ByLayer
370
18
48
1
60
0
100
AcDbLine
10
50.325
20
14.12241
30
0
11
50.325
21
15.768922
31
0
39
0
210
0
220
0
230
1
0
LINE
5
243
100
AcDbEntity
8
1
62
256
6
ByLayer
370
18
48
1
60
0
100
AcDbLine
10
41.3
20
13.977149
30
0
11
41.3
21
14.322254
31
0
39
0
210
0
220
0
230
1
0
LINE
5
244
100
AcDbEntity
8
1
62
256
6
ByLayer
370
18
48
1
60
0
100
AcDbLine
10
49.435896
20
15.702598
30
0
11
50.325
21
15.768922
31
0
39
0
210
0
220
0
230
1
0
LINE
5
245
100
AcDbEntity
8
1
62
256
6
ByLayer
370
18
48
1
60
0
100
AcDbLine
10
50.325
20
14.12241
30
0
11
50.325
21
13.684326
31
0
39
0
210
0
220
0
230
1
0
LINE
5
246
100
AcDbEntity
8
1
62
256
6
ByLayer
370
18
48
1
60
0
100
AcDbLine
10
42.20825
20
-16.021911
30
0
11
42.285246
21
-15.738741
31
0
39
0
210
0
220
0
230
1
0
LINE
5
247
100
AcDbEntity
8
1
62
256
6
ByLayer
370
18
48
1
60
0
100
AcDbLine
10
41.3
20
13.977149
30
0
11
41.3
21
13.684326
31
0
39
0
210
0
220
0
230
1
0
LINE
5
248
100
AcDbEntity
8
1
62
256
6
ByLayer
370
18
48
1
60
0
100
AcDbLine
10
41.3
20
13.977149
30
0
11
50.325
21
14.12241
31
0
39
0
210
0
220
0
230
1
0
LINE
5
249
100
AcDbEntity
8
1
62
256
6
ByLayer
370
18
48
1
60
0
100
AcDbLine
10
41.3
20
13.684326
30
0
11
41.325101
21
13.684326
31
0
39
0
210
0
220
0
230
1
0
LINE
5
24A
100
AcDbEntity
8
1
62
256
6
ByLayer
370
18
48
1
60
0
100
AcDbLine
10
50.274939
20
13.684326
30
0
11
50.325
21
13.684326
31
0
39
0
210
0
220
0
230
1
0
LINE
5
24B
100
AcDbEntity
8
1
62
256
6
ByLayer
370
13
48
1
60
0
100
AcDbLine
10
50.325
20
28.629349
30
0
11
41.3
21
28.629349
31
0
39
0
210
0
220
0
230
1
0
LINE
5
24C
100
AcDbEntity
8
1
62
256
6
ByLayer
370
18
48
1
60
0
100
AcDbLine
10
50.325
20
28.451489
30
0
11
50.325
21
25.907323
31
0
39
0
210
0
220
0
230
1
0
LINE
5
24D
100
AcDbEntity
8
1
62
256
6
ByLayer
370
18
48
1
60
0
100
AcDbLine
10
41.3
20
28.451489
30
0
11
41.3
21
25.907323
31
0
39
0
210
0
220
0
230
1
0
LINE
5
24E
100
AcDbEntity
8
1
62
256
6
ByLayer
370
18
48
1
60
0
100
AcDbLine
10
50.325
20
28.451489
30
0
11
41.3
21
28.451489
31
0
39
0
210
0
220
0
230
1
0
LINE
5
24F
100
AcDbEntity
8
1
62
256
6
ByLayer
370
18
48
1
60
0
100
AcDbLine
10
50.325
20
18.823817
30
0
11
50.325
21
19.837357
31
0
39
0
210
0
220
0
230
1
0
LINE
5
250
100
AcDbEntity
8
1
62
256
6
ByLayer
370
18
48
1
60
0
100
AcDbLine
10
48.346074
20
23.779307
30
0
11
48.315407
21
24.764331
31
0
39
0
210
0
220
0
230
1
0
LINE
5
251
100
AcDbEntity
8
1
62
256
6
ByLayer
370
18
48
1
60
0
100
AcDbLine
10
41.3
20
24.030725
30
0
11
41.3
21
24.228838
31
0
39
0
210
0
220
0
230
1
0
LINE
5
252
100
AcDbEntity
8
1
62
256
6
ByLayer
370
18
48
1
60
0
100
AcDbLine
10
41.325
20
13.54291
30
0
11
50.275
21
13.54291
31
0
39
0
210
0
220
0
230
1
0
LINE
5
253
100
AcDbEntity
8
1
62
256
6
ByLayer
370
18
48
1
60
0
100
AcDbLine
10
49.324635
20
18.749194
30
0
11
50.325
21
18.823817
31
0
39
0
210
0
220
0
230
1
0
LINE
5
254
100
AcDbEntity
8
1
62
256
6
ByLayer
370
18
48
1
60
0
100
AcDbLine
10
48.475923
20
24.665869
30
0
11
48.518001
21
23.314347
31
0
39
0
210
0
220
0
230
1
0
LINE
5
255
100
AcDbEntity
8
1
62
256
6
ByLayer
370
18
48
1
60
0
100
AcDbLine
10
50.325
20
19.837333
30
0
11
50.325
21
23.104335
31
0
39
0
210
0
220
0
230
1
0
LINE
5
256
100
AcDbEntity
8
1
62
256
6
ByLayer
370
18
48
1
60
0
100
AcDbLine
10
49.29318
20
19.760363
30
0
11
50.325
21
19.837333
31
0
39
0
210
0
220
0
230
1
0
LINE
5
257
100
AcDbEntity
8
1
62
256
6
ByLayer
370
18
48
1
60
0
100
AcDbLine
10
48.315407
20
24.764331
30
0
11
41.3
21
24.228838
31
0
39
0
210
0
220
0
230
1
0
LINE
5
258
100
AcDbEntity
8
1
62
256
6
ByLayer
370
18
48
1
60
0
100
AcDbLine
10
48.475923
20
24.665869
30
0
11
48.315407
21
24.764331
31
0
39
0
210
0
220
0
230
1
0
LINE
5
259
100
AcDbEntity
8
1
62
256
6
ByLayer
370
18
48
1
60
0
100
AcDbLine
10
50.325
20
25.907323
30
0
11
50.325
21
23.104335
31
0
39
0
210
0
220
0
230
1
0
LINE
5
25A
100
AcDbEntity
8
1
62
256
6
ByLayer
370
18
48
1
60
0
100
AcDbLine
10
50.799972
20
-19.94728
30
0
11
50.437375
21
-22.715507
31
0
39
0
210
0
220
0
230
1
0
LINE
5
25B
100
AcDbEntity
8
1
62
256
6
ByLayer
370
18
48
1
60
0
100
AcDbLine
10
41.3
20
25.907323
30
0
11
50.325
21
25.907323
31
0
39
0
210
0
220
0
230
1
0
LINE
5
25C
100
AcDbEntity
8
1
62
256
6
ByLayer
370
18
48
1
60
0
100
AcDbLine
10
50.675905
20
-15.96234
30
0
11
50.619479
21
-14.82772
31
0
39
0
210
0
220
0
230
1
0
LINE
5
25D
100
AcDbEntity
8
1
62
256
6
ByLayer
370
18
48
1
60
0
100
AcDbLine
10
41.3
20
25.907323
30
0
11
41.3
21
24.228838
31
0
39
0
210
0
220
0
230
1
0
LINE
5
25E
100
AcDbEntity
8
1
62
256
6
ByLayer
370
18
48
1
60
0
100
AcDbLine
10
48.601126
20
23.426098
30
0
11
48.612566
21
23.058656
31
0
39
0
210
0
220
0
230
1
0
LINE
5
25F
100
AcDbEntity
8
1
62
256
6
ByLayer
370
18
48
1
60
0
100
AcDbLine
10
48.729907
20
22.98258
30
0
11
48.738109
21
22.719146
31
0
39
0
210
0
220
0
230
1
0
LINE
5
260
100
AcDbEntity
8
1
62
256
6
ByLayer
370
18
48
1
60
0
100
AcDbLine
10
48.601126
20
23.426098
30
0
11
48.475923
21
24.665869
31
0
39
0
210
0
220
0
230
1
0
LINE
5
261
100
AcDbEntity
8
1
62
256
6
ByLayer
370
18
48
1
60
0
100
AcDbLine
10
48.729907
20
22.98258
30
0
11
48.601126
21
23.426098
31
0
39
0
210
0
220
0
230
1
0
LINE
5
262
100
AcDbEntity
8
1
62
256
6
ByLayer
370
18
48
1
60
0
100
AcDbLine
10
50.325
20
23.104335
30
0
11
48.729907
21
22.98258
31
0
39
0
210
0
220
0
230
1
0
LINE
5
263
100
AcDbEntity
8
1
62
256
6
ByLayer
370
18
48
1
60
0
100
AcDbLine
10
50.799912
20
-20.62312
30
0
11
50.799972
21
-19.94728
31
0
39
0
210
0
220
0
230
1
0
LINE
5
264
100
AcDbEntity
8
1
62
256
6
ByLayer
370
18
48
1
60
0
100
AcDbLine
10
50.675905
20
-15.96234
30
0
11
50.707085
21
-16.963805
31
0
39
0
210
0
220
0
230
1
0
LINE
5
265
100
AcDbEntity
8
1
62
256
6
ByLayer
370
18
48
1
60
0
100
AcDbLine
10
50.760916
20
-18.692833
30
0
11
50.799972
21
-19.94728
31
0
39
0
210
0
220
0
230
1
0
LINE
5
266
100
AcDbEntity
8
1
62
256
6
ByLayer
370
18
48
1
60
0
100
AcDbLine
10
41.275
20
-28.425338
30
0
11
41.275
21
-28.280116
31
0
39
0
210
0
220
0
230
1
0
LINE
5
267
100
AcDbEntity
8
1
62
256
6
ByLayer
370
18
48
1
60
0
100
AcDbLine
10
41.275
20
-27.564246
30
0
11
41.275
21
-27.590239
31
0
39
0
210
0
220
0
230
1
0
LINE
5
268
100
AcDbEntity
8
1
62
256
6
ByLayer
370
18
48
1
60
0
100
AcDbLine
10
41.275
20
-27.564252
30
0
11
41.275
21
-27.519388
31
0
39
0
210
0
220
0
230
1
0
LINE
5
269
100
AcDbEntity
8
1
62
256
6
ByLayer
370
18
48
1
60
0
100
AcDbLine
10
41.275
20
-27.519388
30
0
11
41.275
21
-27.355462
31
0
39
0
210
0
220
0
230
1
0
LINE
5
26A
100
AcDbEntity
8
1
62
256
6
ByLayer
370
18
48
1
60
0
100
AcDbLine
10
41.275
20
-26.520363
30
0
11
41.275
21
-27.21024
31
0
39
0
210
0
220
0
230
1
0
LINE
5
26B
100
AcDbEntity
8
1
62
256
6
ByLayer
370
13
48
1
60
0
100
AcDbLine
10
41.275
20
-28.589264
30
0
11
41.300101
21
-28.589264
31
0
39
0
210
0
220
0
230
1
0
LINE
5
26C
100
AcDbEntity
8
1
62
256
6
ByLayer
370
18
48
1
60
0
100
AcDbLine
10
41.275
20
-27.21024
30
0
11
41.275
21
-27.355462
31
0
39
0
210
0
220
0
230
1
0
LINE
5
26D
100
AcDbEntity
8
1
62
256
6
ByLayer
370
18
48
1
60
0
100
AcDbLine
10
41.275
20
-26.494371
30
0
11
41.275
21
-26.520363
31
0
39
0
210
0
220
0
230
1
0
LINE
5
26E
100
AcDbEntity
8
1
62
256
6
ByLayer
370
13
48
1
60
0
100
AcDbLine
10
41.275
20
-28.280116
30
0
11
41.300101
21
-28.280116
31
0
39
0
210
0
220
0
230
1
0
LINE
5
26F
100
AcDbEntity
8
1
62
256
6
ByLayer
370
13
48
1
60
0
100
AcDbLine
10
41.275
20
-28.425338
30
0
11
41.300101
21
-28.425338
31
0
39
0
210
0
220
0
230
1
0
LINE
5
270
100
AcDbEntity
8
1
62
256
6
ByLayer
370
18
48
1
60
0
100
AcDbLine
10
41.275
20
-26.449512
30
0
11
41.275
21
-26.494376
31
0
39
0
210
0
220
0
230
1
0
LINE
5
271
100
AcDbEntity
8
1
62
256
6
ByLayer
370
13
48
1
60
0
100
AcDbLine
10
41.275
20
-27.590239
30
0
11
41.300101
21
-27.590239
31
0
39
0
210
0
220
0
230
1
0
LINE
5
272
100
AcDbEntity
8
1
62
256
6
ByLayer
370
18
48
1
60
0
100
AcDbLine
10
41.275
20
-26.285586
30
0
11
41.275
21
-26.449512
31
0
39
0
210
0
220
0
230
1
0
LINE
5
273
100
AcDbEntity
8
1
62
256
6
ByLayer
370
18
48
1
60
0
100
AcDbLine
10
41.275
20
-26.140364
30
0
11
41.275
21
-25.450487
31
0
39
0
210
0
220
0
230
1
0
LINE
5
274
100
AcDbEntity
8
1
62
256
6
ByLayer
370
13
48
1
60
0
100
AcDbLine
10
41.275
20
-27.519388
30
0
11
41.300101
21
-27.519388
31
0
39
0
210
0
220
0
230
1
0
LINE
5
275
100
AcDbEntity
8
1
62
256
6
ByLayer
370
18
48
1
60
0
100
AcDbLine
10
41.275
20
-26.285586
30
0
11
41.275
21
-26.140364
31
0
39
0
210
0
220
0
230
1
0
LINE
5
276
100
AcDbEntity
8
1
62
256
6
ByLayer
370
18
48
1
60
0
100
AcDbLine
10
41.275
20
-25.424495
30
0
11
41.275
21
-25.450487
31
0
39
0
210
0
220
0
230
1
0
LINE
5
277
100
AcDbEntity
8
1
62
256
6
ByLayer
370
13
48
1
60
0
100
AcDbLine
10
41.275
20
-27.21024
30
0
11
41.300101
21
-27.21024
31
0
39
0
210
0
220
0
230
1
0
LINE
5
278
100
AcDbEntity
8
1
62
256
6
ByLayer
370
13
48
1
60
0
100
AcDbLine
10
41.275
20
-27.355462
30
0
11
41.300101
21
-27.355462
31
0
39
0
210
0
220
0
230
1
0
LINE
5
279
100
AcDbEntity
8
1
62
256
6
ByLayer
370
18
48
1
60
0
100
AcDbLine
10
41.275
20
-25.4245
30
0
11
41.275
21
-25.379637
31
0
39
0
210
0
220
0
230
1
0
LINE
5
27A
100
AcDbEntity
8
1
62
256
6
ByLayer
370
13
48
1
60
0
100
AcDbLine
10
41.275
20
-26.520363
30
0
11
41.300101
21
-26.520363
31
0
39
0
210
0
220
0
230
1
0
LINE
5
27B
100
AcDbEntity
8
1
62
256
6
ByLayer
370
18
48
1
60
0
100
AcDbLine
10
41.275
20
-25.215711
30
0
11
41.275
21
-25.379637
31
0
39
0
210
0
220
0
230
1
0
LINE
5
27C
100
AcDbEntity
8
1
62
256
6
ByLayer
370
18
48
1
60
0
100
AcDbLine
10
41.275
20
-24.380612
30
0
11
41.275
21
-25.070489
31
0
39
0
210
0
220
0
230
1
0
LINE
5
27D
100
AcDbEntity
8
1
62
256
6
ByLayer
370
13
48
1
60
0
100
AcDbLine
10
41.275
20
-26.449512
30
0
11
41.300101
21
-26.449512
31
0
39
0
210
0
220
0
230
1
0
LINE
5
27E
100
AcDbEntity
8
1
62
256
6
ByLayer
370
18
48
1
60
0
100
AcDbLine
10
41.275
20
-25.070489
30
0
11
41.275
21
-25.215711
31
0
39
0
210
0
220
0
230
1
0
LINE
5
27F
100
AcDbEntity
8
1
62
256
6
ByLayer
370
18
48
1
60
0
100
AcDbLine
10
41.275
20
-24.354619
30
0
11
41.275
21
-24.380612
31
0
39
0
210
0
220
0
230
1
0
LINE
5
280
100
AcDbEntity
8
1
62
256
6
ByLayer
370
13
48
1
60
0
100
AcDbLine
10
41.275
20
-26.140364
30
0
11
41.300101
21
-26.140364
31
0
39
0
210
0
220
0
230
1
0
LINE
5
281
100
AcDbEntity
8
1
62
256
6
ByLayer
370
13
48
1
60
0
100
AcDbLine
10
41.275
20
-26.285586
30
0
11
41.300101
21
-26.285586
31
0
39
0
210
0
220
0
230
1
0
LINE
5
282
100
AcDbEntity
8
1
62
256
6
ByLayer
370
18
48
1
60
0
100
AcDbLine
10
41.275
20
-24.309761
30
0
11
41.275
21
-24.354625
31
0
39
0
210
0
220
0
230
1
0
LINE
5
283
100
AcDbEntity
8
1
62
256
6
ByLayer
370
13
48
1
60
0
100
AcDbLine
10
41.275
20
-25.450487
30
0
11
41.300039
21
-25.450487
31
0
39
0
210
0
220
0
230
1
0
LINE
5
284
100
AcDbEntity
8
1
62
256
6
ByLayer
370
18
48
1
60
0
100
AcDbLine
10
41.275
20
-24.309761
30
0
11
41.275
21
-24.145835
31
0
39
0
210
0
220
0
230
1
0
LINE
5
285
100
AcDbEntity
8
1
62
256
6
ByLayer
370
18
48
1
60
0
100
AcDbLine
10
41.275
20
-24.000613
30
0
11
41.275
21
-23.310736
31
0
39
0
210
0
220
0
230
1
0
LINE
5
286
100
AcDbEntity
8
1
62
256
6
ByLayer
370
13
48
1
60
0
100
AcDbLine
10
41.275
20
-25.379637
30
0
11
41.300007
21
-25.379637
31
0
39
0
210
0
220
0
230
1
0
LINE
5
287
100
AcDbEntity
8
1
62
256
6
ByLayer
370
18
48
1
60
0
100
AcDbLine
10
41.275
20
-24.145835
30
0
11
41.275
21
-24.000613
31
0
39
0
210
0
220
0
230
1
0
LINE
5
288
100
AcDbEntity
8
1
62
256
6
ByLayer
370
18
48
1
60
0
100
AcDbLine
10
41.275
20
-23.284744
30
0
11
41.275
21
-23.310736
31
0
39
0
210
0
220
0
230
1
0
LINE
5
289
100
AcDbEntity
8
1
62
256
6
ByLayer
370
13
48
1
60
0
100
AcDbLine
10
41.275
20
-25.070489
30
0
11
41.300047
21
-25.070489
31
0
39
0
210
0
220
0
230
1
0
LINE
5
28A
100
AcDbEntity
8
1
62
256
6
ByLayer
370
13
48
1
60
0
100
AcDbLine
10
41.275
20
-25.215711
30
0
11
41.300062
21
-25.215711
31
0
39
0
210
0
220
0
230
1
0
LINE
5
28B
100
AcDbEntity
8
1
62
256
6
ByLayer
370
18
48
1
60
0
100
AcDbLine
10
41.275
20
-23.284749
30
0
11
41.275
21
-23.239885
31
0
39
0
210
0
220
0
230
1
0
LINE
5
28C
100
AcDbEntity
8
1
62
256
6
ByLayer
370
13
48
1
60
0
100
AcDbLine
10
41.275
20
-24.380612
30
0
11
41.300018
21
-24.380612
31
0
39
0
210
0
220
0
230
1
0
LINE
5
28D
100
AcDbEntity
8
1
62
256
6
ByLayer
370
18
48
1
60
0
100
AcDbLine
10
41.275
20
-23.075959
30
0
11
41.275
21
-23.239885
31
0
39
0
210
0
220
0
230
1
0
LINE
5
28E
100
AcDbEntity
8
1
62
256
6
ByLayer
370
18
48
1
60
0
100
AcDbLine
10
41.275
20
-22.24086
30
0
11
41.275
21
-22.930737
31
0
39
0
210
0
220
0
230
1
0
LINE
5
28F
100
AcDbEntity
8
1
62
256
6
ByLayer
370
13
48
1
60
0
100
AcDbLine
10
41.275
20
-24.309761
30
0
11
41.30001
21
-24.309761
31
0
39
0
210
0
220
0
230
1
0
LINE
5
290
100
AcDbEntity
8
1
62
256
6
ByLayer
370
18
48
1
60
0
100
AcDbLine
10
41.275
20
-22.930737
30
0
11
41.275
21
-23.075959
31
0
39
0
210
0
220
0
230
1
0
LINE
5
291
100
AcDbEntity
8
1
62
256
6
ByLayer
370
18
48
1
60
0
100
AcDbLine
10
41.275
20
-22.214868
30
0
11
41.275
21
-22.24086
31
0
39
0
210
0
220
0
230
1
0
LINE
5
292
100
AcDbEntity
8
1
62
256
6
ByLayer
370
13
48
1
60
0
100
AcDbLine
10
41.275
20
-24.145835
30
0
11
41.300004
21
-24.145835
31
0
39
0
210
0
220
0
230
1
0
LINE
5
293
100
AcDbEntity
8
1
62
256
6
ByLayer
370
13
48
1
60
0
100
AcDbLine
10
41.275
20
-24.000613
30
0
11
41.300001
21
-24.000613
31
0
39
0
210
0
220
0
230
1
0
LINE
5
294
100
AcDbEntity
8
1
62
256
6
ByLayer
370
18
48
1
60
0
100
AcDbLine
10
41.275
20
-22.17001
30
0
11
41.275
21
-22.214873
31
0
39
0
210
0
220
0
230
1
0
LINE
5
295
100
AcDbEntity
8
1
62
256
6
ByLayer
370
13
48
1
60
0
100
AcDbLine
10
41.275
20
-23.310736
30
0
11
41.30007
21
-23.310736
31
0
39
0
210
0
220
0
230
1
0
LINE
5
296
100
AcDbEntity
8
1
62
256
6
ByLayer
370
18
48
1
60
0
100
AcDbLine
10
41.275
20
-22.006084
30
0
11
41.275
21
-22.17001
31
0
39
0
210
0
220
0
230
1
0
LINE
5
297
100
AcDbEntity
8
1
62
256
6
ByLayer
370
18
48
1
60
0
100
AcDbLine
10
41.275
20
-21.860862
30
0
11
41.275
21
-21.170985
31
0
39
0
210
0
220
0
230
1
0
LINE
5
298
100
AcDbEntity
8
1
62
256
6
ByLayer
370
13
48
1
60
0
100
AcDbLine
10
41.275
20
-23.239885
30
0
11
41.300101
21
-23.239885
31
0
39
0
210
0
220
0
230
1
0
LINE
5
299
100
AcDbEntity
8
1
62
256
6
ByLayer
370
18
48
1
60
0
100
AcDbLine
10
41.275
20
-22.006084
30
0
11
41.275
21
-21.860862
31
0
39
0
210
0
220
0
230
1
0
LINE
5
29A
100
AcDbEntity
8
1
62
256
6
ByLayer
370
18
48
1
60
0
100
AcDbLine
10
41.275
20
-21.144992
30
0
11
41.275
21
-21.170985
31
0
39
0
210
0
220
0
230
1
0
LINE
5
29B
100
AcDbEntity
8
1
62
256
6
ByLayer
370
13
48
1
60
0
100
AcDbLine
10
41.275
20
-22.930737
30
0
11
41.300101
21
-22.930737
31
0
39
0
210
0
220
0
230
1
0
LINE
5
29C
100
AcDbEntity
8
1
62
256
6
ByLayer
370
13
48
1
60
0
100
AcDbLine
10
41.275
20
-23.075959
30
0
11
41.300101
21
-23.075959
31
0
39
0
210
0
220
0
230
1
0
LINE
5
29D
100
AcDbEntity
8
1
62
256
6
ByLayer
370
18
48
1
60
0
100
AcDbLine
10
41.275
20
-21.144998
30
0
11
41.275
21
-21.100134
31
0
39
0
210
0
220
0
230
1
0
LINE
5
29E
100
AcDbEntity
8
1
62
256
6
ByLayer
370
13
48
1
60
0
100
AcDbLine
10
41.275
20
-22.24086
30
0
11
41.300101
21
-22.24086
31
0
39
0
210
0
220
0
230
1
0
LINE
5
29F
100
AcDbEntity
8
1
62
256
6
ByLayer
370
18
48
1
60
0
100
AcDbLine
10
41.275
20
-20.936208
30
0
11
41.275
21
-21.100134
31
0
39
0
210
0
220
0
230
1
0
LINE
5
2A0
100
AcDbEntity
8
1
62
256
6
ByLayer
370
18
48
1
60
0
100
AcDbLine
10
41.275
20
-20.101109
30
0
11
41.275
21
-20.790986
31
0
39
0
210
0
220
0
230
1
0
LINE
5
2A1
100
AcDbEntity
8
1
62
256
6
ByLayer
370
13
48
1
60
0
100
AcDbLine
10
41.275
20
-22.17001
30
0
11
41.300101
21
-22.17001
31
0
39
0
210
0
220
0
230
1
0
LINE
5
2A2
100
AcDbEntity
8
1
62
256
6
ByLayer
370
18
48
1
60
0
100
AcDbLine
10
41.275
20
-20.790986
30
0
11
41.275
21
-20.936208
31
0
39
0
210
0
220
0
230
1
0
LINE
5
2A3
100
AcDbEntity
8
1
62
256
6
ByLayer
370
18
48
1
60
0
100
AcDbLine
10
41.275
20
-20.075117
30
0
11
41.275
21
-20.101109
31
0
39
0
210
0
220
0
230
1
0
LINE
5
2A4
100
AcDbEntity
8
1
62
256
6
ByLayer
370
13
48
1
60
0
100
AcDbLine
10
41.275
20
-21.860862
30
0
11
41.300101
21
-21.860862
31
0
39
0
210
0
220
0
230
1
0
LINE
5
2A5
100
AcDbEntity
8
1
62
256
6
ByLayer
370
13
48
1
60
0
100
AcDbLine
10
41.275
20
-22.006084
30
0
11
41.300101
21
-22.006084
31
0
39
0
210
0
220
0
230
1
0
LINE
5
2A6
100
AcDbEntity
8
1
62
256
6
ByLayer
370
18
48
1
60
0
100
AcDbLine
10
41.275
20
-20.030258
30
0
11
41.275
21
-20.075122
31
0
39
0
210
0
220
0
230
1
0
LINE
5
2A7
100
AcDbEntity
8
1
62
256
6
ByLayer
370
13
48
1
60
0
100
AcDbLine
10
41.275
20
-21.170985
30
0
11
41.300101
21
-21.170985
31
0
39
0
210
0
220
0
230
1
0
LINE
5
2A8
100
AcDbEntity
8
1
62
256
6
ByLayer
370
18
48
1
60
0
100
AcDbLine
10
46.944547
20
-19.050358
30
0
11
46.666025
21
-19.388487
31
0
39
0
210
0
220
0
230
1
0
LINE
5
2A9
100
AcDbEntity
8
1
62
256
6
ByLayer
370
18
48
1
60
0
100
AcDbLine
10
41.275
20
-20.030258
30
0
11
41.275
21
-19.866332
31
0
39
0
210
0
220
0
230
1
0
LINE
5
2AA
100
AcDbEntity
8
1
62
256
6
ByLayer
370
18
48
1
60
0
100
AcDbLine
10
41.275
20
-19.72111
30
0
11
41.275
21
-19.307529
31
0
39
0
210
0
220
0
230
1
0
LINE
5
2AB
100
AcDbEntity
8
1
62
256
6
ByLayer
370
13
48
1
60
0
100
AcDbLine
10
41.275
20
-21.100134
30
0
11
41.300101
21
-21.100134
31
0
39
0
210
0
220
0
230
1
0
LINE
5
2AC
100
AcDbEntity
8
1
62
256
6
ByLayer
370
18
48
1
60
0
100
AcDbLine
10
41.275
20
-19.866332
30
0
11
41.275
21
-19.72111
31
0
39
0
210
0
220
0
230
1
0
LINE
5
2AD
100
AcDbEntity
8
1
62
256
6
ByLayer
370
18
48
1
60
0
100
AcDbLine
10
46.666025
20
-19.388487
30
0
11
44.933975
21
-19.388487
31
0
39
0
210
0
220
0
230
1
0
LINE
5
2AE
100
AcDbEntity
8
1
62
256
6
ByLayer
370
13
48
1
60
0
100
AcDbLine
10
41.275
20
-20.790986
30
0
11
41.300101
21
-20.790986
31
0
39
0
210
0
220
0
230
1
0
LINE
5
2AF
100
AcDbEntity
8
1
62
256
6
ByLayer
370
13
48
1
60
0
100
AcDbLine
10
41.275
20
-20.936208
30
0
11
41.300101
21
-20.936208
31
0
39
0
210
0
220
0
230
1
0
LINE
5
2B0
100
AcDbEntity
8
1
62
256
6
ByLayer
370
18
48
1
60
0
100
AcDbLine
10
46.666025
20
-18.71226
30
0
11
44.933975
21
-18.71226
31
0
39
0
210
0
220
0
230
1
0
LINE
5
2B1
100
AcDbEntity
8
1
62
256
6
ByLayer
370
18
48
1
60
0
100
AcDbLine
10
44.933975
20
-20.814988
30
0
11
44.933975
21
-19.388487
31
0
39
0
210
0
220
0
230
1
0
LINE
5
2B2
100
AcDbEntity
8
1
62
256
6
ByLayer
370
13
48
1
60
0
100
AcDbLine
10
41.275
20
-20.101109
30
0
11
41.300101
21
-20.101109
31
0
39
0
210
0
220
0
230
1
0
LINE
5
2B3
100
AcDbEntity
8
1
62
256
6
ByLayer
370
18
48
1
60
0
100
AcDbLine
10
46.666025
20
10.862697
30
0
11
44.933975
21
10.862697
31
0
39
0
210
0
220
0
230
1
0
LINE
5
2B4
100
AcDbEntity
8
1
62
256
6
ByLayer
370
18
48
1
60
0
100
AcDbLine
10
44.655453
20
-19.050358
30
0
11
44.933975
21
-19.388487
31
0
39
0
210
0
220
0
230
1
0
LINE
5
2B5
100
AcDbEntity
8
1
62
256
6
ByLayer
370
18
48
1
60
0
100
AcDbLine
10
46.666025
20
10.862697
30
0
11
47.532051
21
9.410476
31
0
39
0
210
0
220
0
230
1
0
LINE
5
2B6
100
AcDbEntity
8
1
62
256
6
ByLayer
370
18
48
1
60
0
100
AcDbLine
10
46.666025
20
-20.814988
30
0
11
46.666025
21
-19.388487
31
0
39
0
210
0
220
0
230
1
0
LINE
5
2B7
100
AcDbEntity
8
1
62
256
6
ByLayer
370
13
48
1
60
0
100
AcDbLine
10
41.275
20
-20.030258
30
0
11
41.300101
21
-20.030258
31
0
39
0
210
0
220
0
230
1
0
LINE
5
2B8
100
AcDbEntity
8
1
62
256
6
ByLayer
370
18
48
1
60
0
100
AcDbLine
10
50.275
20
4.834712
30
0
11
41.325
21
4.834712
31
0
39
0
210
0
220
0
230
1
0
LINE
5
2B9
100
AcDbEntity
8
1
62
256
6
ByLayer
370
18
48
1
60
0
100
AcDbLine
10
49.39175
20
16.593996
30
0
11
49.448056
21
15.459367
31
0
39
0
210
0
220
0
230
1
0
LINE
5
2BA
100
AcDbEntity
8
1
62
256
6
ByLayer
370
18
48
1
60
0
100
AcDbLine
10
40.980521
20
14.82772
30
0
11
40.924095
21
15.96234
31
0
39
0
210
0
220
0
230
1
0
LINE
5
2BB
100
AcDbEntity
8
1
62
256
6
ByLayer
370
13
48
1
60
0
100
AcDbLine
10
41.275
20
-19.72111
30
0
11
41.300101
21
-19.72111
31
0
39
0
210
0
220
0
230
1
0
LINE
5
2BC
100
AcDbEntity
8
1
62
256
6
ByLayer
370
13
48
1
60
0
100
AcDbLine
10
41.275
20
-19.866332
30
0
11
41.300101
21
-19.866332
31
0
39
0
210
0
220
0
230
1
0
LINE
5
2BD
100
AcDbEntity
8
80
62
256
6
ByLayer
370
18
48
1
60
0
100
AcDbLine
10
0
20
0
30
0
11
-5
21
0
31
0
39
0
210
0
220
0
230
1
0
LINE
5
2BE
100
AcDbEntity
8
4
62
256
6
ByLayer
370
18
48
0.05
60
0
100
AcDbLine
10
0
20
0
30
0
11
53.8
21
0
31
0
39
0
210
0
220
0
230
1
0
LINE
5
2C0
100
AcDbEntity
8
SK4
62
256
6
ByLayer
370
18
48
0.05
60
0
100
AcDbLine
10
-3
20
0
30
0
11
53.8
21
0
31
0
39
0
210
0
220
0
230
1
0
LINE
5
2C2
100
AcDbEntity
8
1
62
256
6
ByLayer
370
18
48
1
60
0
100
AcDbLine
10
45.938442
20
19.023336
30
0
11
45.997368
21
18.543719
31
0
39
0
210
0
220
0
230
1
0
LINE
5
2C3
100
AcDbEntity
8
1
62
256
6
ByLayer
370
18
48
1
60
0
100
AcDbLine
10
44.138157
20
18.455423
30
0
11
44.0896
21
18.850647
31
0
39
0
210
0
220
0
230
1
0
LINE
5
2C4
100
AcDbEntity
8
1
62
256
6
ByLayer
370
18
48
1
60
0
100
AcDbLine
10
47.147197
20
18.795478
30
0
11
47.094701
21
19.222766
31
0
39
0
210
0
220
0
230
1
0
LINE
5
2C5
100
AcDbEntity
8
1
62
256
6
ByLayer
370
18
48
1
60
0
100
AcDbLine
10
42.926045
20
18.710606
30
0
11
42.978541
21
18.283318
31
0
39
0
210
0
220
0
230
1
0
LINE
5
2C6
100
AcDbEntity
8
1
62
256
6
ByLayer
370
18
48
1
60
0
100
AcDbLine
10
46.216743
20
-21.313383
30
0
11
46.355657
21
-21.295031
31
0
39
0
210
0
220
0
230
1
0
LINE
5
2C7
100
AcDbEntity
8
1
62
256
6
ByLayer
370
18
48
1
60
0
100
AcDbLine
10
45.244343
20
-21.295031
30
0
11
45.383257
21
-21.313383
31
0
39
0
210
0
220
0
230
1
0
LINE
5
2C8
100
AcDbEntity
8
1
62
256
6
ByLayer
370
18
48
1
60
0
100
AcDbLine
10
24.545605
20
-18.70595
30
0
11
40.5
21
-18.70595
31
0
39
0
210
0
220
0
230
1
0
LINE
5
2C9
100
AcDbEntity
8
1
62
256
6
ByLayer
370
18
48
1
60
0
100
AcDbLine
10
40.5
20
18.70595
30
0
11
24.545605
21
18.70595
31
0
39
0
210
0
220
0
230
1
0
LINE
5
2CA
100
AcDbEntity
8
1
62
256
6
ByLayer
370
18
48
1
60
0
100
AcDbLine
10
0
20
-24.5
30
0
11
0.4
21
-24.5
31
0
39
0
210
0
220
0
230
1
0
LINE
5
2CB
100
AcDbEntity
8
1
62
256
6
ByLayer
370
18
48
1
60
0
100
AcDbLine
10
0.4
20
24.5
30
0
11
0
21
24.5
31
0
39
0
210
0
220
0
230
1
0
LINE
5
2CC
100
AcDbEntity
8
1
62
256
6
ByLayer
370
18
48
1
60
0
100
AcDbLine
10
0.9
20
25.5
30
0
11
0.4
21
25
31
0
39
0
210
0
220
0
230
1
0
LINE
5
2CD
100
AcDbEntity
8
1
62
256
6
ByLayer
370
18
48
1
60
0
100
AcDbLine
10
0.4
20
-25
30
0
11
0.9
21
-25.5
31
0
39
0
210
0
220
0
230
1
0
LINE
5
2CE
100
AcDbEntity
8
1
62
256
6
ByLayer
370
18
48
1
60
0
100
AcDbLine
10
0.9
20
-25.5
30
0
11
20.421882
21
-25.5
31
0
39
0
210
0
220
0
230
1
0
LINE
5
2CF
100
AcDbEntity
8
1
62
256
6
ByLayer
370
18
48
1
60
0
100
AcDbLine
10
20.421882
20
25.5
30
0
11
0.9
21
25.5
31
0
39
0
210
0
220
0
230
1
0
LINE
5
2D0
100
AcDbEntity
8
1
62
256
6
ByLayer
370
18
48
1
60
0
100
AcDbLine
10
23.186144
20
19.572023
30
0
11
20.421882
21
25.5
31
0
39
0
210
0
220
0
230
1
0
LINE
5
2D1
100
AcDbEntity
8
1
62
256
6
ByLayer
370
18
48
1
60
0
100
AcDbLine
10
20.421882
20
-25.5
30
0
11
23.186144
21
-19.572023
31
0
39
0
210
0
220
0
230
1
0
LINE
5
2D2
100
AcDbEntity
8
1
62
256
6
ByLayer
370
18
48
1
60
0
100
AcDbLine
10
45.668683
20
35.031067
30
0
11
45.583237
21
35.319237
31
0
39
0
210
0
220
0
230
1
0
LINE
5
2D3
100
AcDbEntity
8
1
62
256
6
ByLayer
370
18
48
1
60
0
100
AcDbLine
10
46.772843
20
36.26284
30
0
11
46.866251
21
35.947819
31
0
39
0
210
0
220
0
230
1
0
LINE
5
2D4
100
AcDbEntity
8
1
62
256
6
ByLayer
370
18
48
1
60
0
100
AcDbLine
10
47.478
20
35.026824
30
0
11
47.563447
21
34.738653
31
0
39
0
210
0
220
0
230
1
0
LINE
5
2D5
100
AcDbEntity
8
1
62
256
6
ByLayer
370
18
48
1
60
0
100
AcDbLine
10
44.523774
20
34.55408
30
0
11
44.585871
21
34.344656
31
0
39
0
210
0
220
0
230
1
0
LINE
5
2D6
100
AcDbEntity
8
1
62
256
6
ByLayer
370
18
48
1
60
0
100
AcDbLine
10
48.612585
20
35.538632
30
0
11
48.550487
21
35.748057
31
0
39
0
210
0
220
0
230
1
0
LINE
5
2D7
100
AcDbEntity
8
1
62
256
6
ByLayer
370
18
48
1
60
0
100
AcDbLine
10
50.299899
20
4.361244
30
0
11
50.325
21
4.361244
31
0
39
0
210
0
220
0
230
1
0
LINE
5
2D8
100
AcDbEntity
8
1
62
256
6
ByLayer
370
18
48
1
60
0
100
AcDbLine
10
41.300101
20
-4.361244
30
0
11
41.275
21
-4.361244
31
0
39
0
210
0
220
0
230
1
0
LINE
5
2D9
100
AcDbEntity
8
1
62
256
6
ByLayer
370
18
48
1
60
0
100
AcDbLine
10
41.300101
20
-4.736814
30
0
11
41.275
21
-4.736814
31
0
39
0
210
0
220
0
230
1
0
LINE
5
2DA
100
AcDbEntity
8
1
62
256
6
ByLayer
370
18
48
1
60
0
100
AcDbLine
10
41.300101
20
-5.112384
30
0
11
41.275
21
-5.112384
31
0
39
0
210
0
220
0
230
1
0
LINE
5
2DB
100
AcDbEntity
8
1
62
256
6
ByLayer
370
18
48
1
60
0
100
AcDbLine
10
41.300101
20
-5.487954
30
0
11
41.275
21
-5.487954
31
0
39
0
210
0
220
0
230
1
0
LINE
5
2DC
100
AcDbEntity
8
1
62
256
6
ByLayer
370
18
48
1
60
0
100
AcDbLine
10
41.300101
20
-5.863524
30
0
11
41.275
21
-5.863524
31
0
39
0
210
0
220
0
230
1
0
LINE
5
2DD
100
AcDbEntity
8
1
62
256
6
ByLayer
370
18
48
1
60
0
100
AcDbLine
10
41.300101
20
-6.239094
30
0
11
41.275
21
-6.239094
31
0
39
0
210
0
220
0
230
1
0
LINE
5
2DE
100
AcDbEntity
8
1
62
256
6
ByLayer
370
18
48
1
60
0
100
AcDbLine
10
41.300101
20
-6.614664
30
0
11
41.275
21
-6.614664
31
0
39
0
210
0
220
0
230
1
0
LINE
5
2DF
100
AcDbEntity
8
1
62
256
6
ByLayer
370
18
48
1
60
0
100
AcDbLine
10
41.300037
20
-6.990234
30
0
11
41.275
21
-6.990234
31
0
39
0
210
0
220
0
230
1
0
LINE
5
2E0
100
AcDbEntity
8
1
62
256
6
ByLayer
370
18
48
1
60
0
100
AcDbLine
10
41.300015
20
-7.365804
30
0
11
41.275
21
-7.365804
31
0
39
0
210
0
220
0
230
1
0
LINE
5
2E1
100
AcDbEntity
8
1
62
256
6
ByLayer
370
18
48
1
60
0
100
AcDbLine
10
41.300101
20
-7.741374
30
0
11
41.275
21
-7.741374
31
0
39
0
210
0
220
0
230
1
0
LINE
5
2E2
100
AcDbEntity
8
1
62
256
6
ByLayer
370
18
48
1
60
0
100
AcDbLine
10
50.3
20
-8.116944
30
0
11
50.269118
21
-8.116944
31
0
39
0
210
0
220
0
230
1
0
LINE
5
2E3
100
AcDbEntity
8
1
62
256
6
ByLayer
370
18
48
1
60
0
100
AcDbLine
10
41.330701
20
-8.116944
30
0
11
41.275
21
-8.116944
31
0
39
0
210
0
220
0
230
1
0
LINE
5
2E4
100
AcDbEntity
8
1
62
256
6
ByLayer
370
18
48
1
60
0
100
AcDbLine
10
50.3
20
-8.492514
30
0
11
41.275
21
-8.492514
31
0
39
0
210
0
220
0
230
1
0
LINE
5
2E5
100
AcDbEntity
8
1
62
256
6
ByLayer
370
18
48
1
60
0
100
AcDbLine
10
50.325
20
28.634127
30
0
11
41.3
21
28.634127
31
0
39
0
210
0
220
0
230
1
0
LINE
5
2E6
100
AcDbEntity
8
1
62
256
6
ByLayer
370
18
48
1
60
0
100
AcDbLine
10
41.275
20
-28.634127
30
0
11
41.300101
21
-28.634127
31
0
39
0
210
0
220
0
230
1
0
LINE
5
2E7
100
AcDbEntity
8
1
62
256
6
ByLayer
370
18
48
1
60
0
100
AcDbLine
10
41.275
20
-27.564252
30
0
11
41.300101
21
-27.564252
31
0
39
0
210
0
220
0
230
1
0
LINE
5
2E8
100
AcDbEntity
8
1
62
256
6
ByLayer
370
18
48
1
60
0
100
AcDbLine
10
41.275
20
-26.494376
30
0
11
41.300101
21
-26.494376
31
0
39
0
210
0
220
0
230
1
0
LINE
5
2E9
100
AcDbEntity
8
1
62
256
6
ByLayer
370
18
48
1
60
0
100
AcDbLine
10
41.275
20
-25.4245
30
0
11
41.300063
21
-25.4245
31
0
39
0
210
0
220
0
230
1
0
LINE
5
2EA
100
AcDbEntity
8
1
62
256
6
ByLayer
370
18
48
1
60
0
100
AcDbLine
10
41.275
20
-24.354625
30
0
11
41.30002
21
-24.354625
31
0
39
0
210
0
220
0
230
1
0
LINE
5
2EB
100
AcDbEntity
8
1
62
256
6
ByLayer
370
18
48
1
60
0
100
AcDbLine
10
41.275
20
-23.284749
30
0
11
41.300101
21
-23.284749
31
0
39
0
210
0
220
0
230
1
0
LINE
5
2EC
100
AcDbEntity
8
1
62
256
6
ByLayer
370
18
48
1
60
0
100
AcDbLine
10
41.275
20
-22.214873
30
0
11
41.300101
21
-22.214873
31
0
39
0
210
0
220
0
230
1
0
LINE
5
2ED
100
AcDbEntity
8
1
62
256
6
ByLayer
370
18
48
1
60
0
100
AcDbLine
10
41.275
20
-21.144998
30
0
11
41.300101
21
-21.144998
31
0
39
0
210
0
220
0
230
1
0
LINE
5
2EE
100
AcDbEntity
8
1
62
256
6
ByLayer
370
18
48
1
60
0
100
AcDbLine
10
41.275
20
-20.075122
30
0
11
41.300101
21
-20.075122
31
0
39
0
210
0
220
0
230
1
0
LINE
5
2EF
100
AcDbEntity
8
81
62
256
6
ByLayer
370
18
48
1
60
0
100
AcDbLine
10
50.8
20
39.99995
30
0
11
55.8
21
39.99995
31
0
39
0
210
0
220
0
230
1
0
LINE
5
2F0
100
AcDbEntity
8
SK2
62
256
6
ByLayer
370
13
48
1
60
0
100
AcDbLine
10
51.366393
20
-40.566343
30
0
11
57.3768
21
-46.57675
31
0
39
0
210
0
220
0
230
1
0
LINE
5
2F2
100
AcDbEntity
8
1
62
256
6
ByLayer
370
18
48
1
60
1
100
AcDbLine
10
51.366393
20
-40.566343
30
0
11
54.167088
21
-42.715392
31
0
39
0
210
0
220
0
230
1
0
LINE
5
2F3
100
AcDbEntity
8
1
62
256
6
ByLayer
370
18
48
1
60
1
100
AcDbLine
10
54.167088
20
-42.715392
30
0
11
53.515444
21
-43.367041
31
0
39
0
210
0
220
0
230
1
0
LINE
5
2F4
100
AcDbEntity
8
1
62
256
6
ByLayer
370
18
48
1
60
1
100
AcDbLine
10
53.515444
20
-43.367041
30
0
11
51.366393
21
-40.566343
31
0
39
0
210
0
220
0
230
1
0
LINE
5
2F5
100
AcDbEntity
8
2
62
256
6
ByLayer
370
13
48
1
60
0
100
AcDbLine
10
79.15
20
39.99995
30
0
11
79.15
21
-39.99995
31
0
39
0
210
0
220
0
230
1
0
LINE
5
2F7
100
AcDbEntity
8
2
62
256
6
ByLayer
370
13
48
1
60
0
100
AcDbLine
10
52.3875
20
-39.99995
30
0
11
81.15
21
-39.99995
31
0
39
0
210
0
220
0
230
1
0
LINE
5
2F8
100
AcDbEntity
8
2
62
256
6
ByLayer
370
13
48
1
60
0
100
AcDbLine
10
52.3875
20
39.99995
30
0
11
81.15
21
39.99995
31
0
39
0
210
0
220
0
230
1
0
LINE
5
2F9
100
AcDbEntity
8
1
62
256
6
ByLayer
370
18
48
1
60
1
100
AcDbLine
10
79.15
20
-39.99995
30
0
11
78.689216
21
-36.499952
31
0
39
0
210
0
220
0
230
1
0
LINE
5
2FA
100
AcDbEntity
8
1
62
256
6
ByLayer
370
18
48
1
60
1
100
AcDbLine
10
78.689216
20
-36.499952
30
0
11
79.610784
21
-36.499948
31
0
39
0
210
0
220
0
230
1
0
LINE
5
2FB
100
AcDbEntity
8
1
62
256
6
ByLayer
370
18
48
1
60
1
100
AcDbLine
10
79.610784
20
-36.499948
30
0
11
79.15
21
-39.99995
31
0
39
0
210
0
220
0
230
1
0
LINE
5
2FC
100
AcDbEntity
8
1
62
256
6
ByLayer
370
18
48
1
60
1
100
AcDbLine
10
79.15
20
39.99995
30
0
11
79.610784
21
36.499952
31
0
39
0
210
0
220
0
230
1
0
LINE
5
2FD
100
AcDbEntity
8
1
62
256
6
ByLayer
370
18
48
1
60
1
100
AcDbLine
10
79.610784
20
36.499952
30
0
11
78.689216
21
36.499948
31
0
39
0
210
0
220
0
230
1
0
LINE
5
2FE
100
AcDbEntity
8
1
62
256
6
ByLayer
370
18
48
1
60
1
100
AcDbLine
10
78.689216
20
36.499948
30
0
11
79.15
21
39.99995
31
0
39
0
210
0
220
0
230
1
0
LINE
5
2FF
100
AcDbEntity
8
SK2
62
256
6
ByLayer
370
13
48
1
60
0
100
AcDbLine
10
-14.35
20
12.7
30
0
11
-14.35
21
-12.7
31
0
39
0
210
0
220
0
230
1
0
LINE
5
300
100
AcDbEntity
8
SK2
62
256
6
ByLayer
370
13
48
1
60
0
100
AcDbLine
10
-1.5875
20
-12.7
30
0
11
-16.35
21
-12.7
31
0
39
0
210
0
220
0
230
1
0
LINE
5
301
100
AcDbEntity
8
SK2
62
256
6
ByLayer
370
13
48
1
60
0
100
AcDbLine
10
-1.5875
20
12.7
30
0
11
-16.35
21
12.7
31
0
39
0
210
0
220
0
230
1
0
LINE
5
302
100
AcDbEntity
8
1
62
256
6
ByLayer
370
18
48
1
60
1
100
AcDbLine
10
-14.35
20
-12.7
30
0
11
-14.810784
21
-9.200002
31
0
39
0
210
0
220
0
230
1
0
LINE
5
303
100
AcDbEntity
8
1
62
256
6
ByLayer
370
18
48
1
60
1
100
AcDbLine
10
-14.810784
20
-9.200002
30
0
11
-13.889216
21
-9.199998
31
0
39
0
210
0
220
0
230
1
0
LINE
5
304
100
AcDbEntity
8
1
62
256
6
ByLayer
370
18
48
1
60
1
100
AcDbLine
10
-13.889216
20
-9.199998
30
0
11
-14.35
21
-12.7
31
0
39
0
210
0
220
0
230
1
0
LINE
5
305
100
AcDbEntity
8
1
62
256
6
ByLayer
370
18
48
1
60
1
100
AcDbLine
10
-14.35
20
12.7
30
0
11
-13.889216
21
9.200002
31
0
39
0
210
0
220
0
230
1
0
LINE
5
306
100
AcDbEntity
8
1
62
256
6
ByLayer
370
18
48
1
60
1
100
AcDbLine
10
-13.889216
20
9.200002
30
0
11
-14.810784
21
9.199998
31
0
39
0
210
0
220
0
230
1
0
LINE
5
307
100
AcDbEntity
8
1
62
256
6
ByLayer
370
18
48
1
60
1
100
AcDbLine
10
-14.810784
20
9.199998
30
0
11
-14.35
21
12.7
31
0
39
0
210
0
220
0
230
1
0
LINE
5
308
100
AcDbEntity
8
SK2
62
256
6
ByLayer
370
13
48
1
60
0
100
AcDbLine
10
-24.35
20
25.5
30
0
11
-24.35
21
-25.5
31
0
39
0
210
0
220
0
230
1
0
LINE
5
309
100
AcDbEntity
8
SK2
62
256
6
ByLayer
370
13
48
1
60
0
100
AcDbLine
10
-1.5875
20
-25.5
30
0
11
-26.35
21
-25.5
31
0
39
0
210
0
220
0
230
1
0
LINE
5
30A
100
AcDbEntity
8
SK2
62
256
6
ByLayer
370
13
48
1
60
0
100
AcDbLine
10
-1.5875
20
25.5
30
0
11
-26.35
21
25.5
31
0
39
0
210
0
220
0
230
1
0
LINE
5
30B
100
AcDbEntity
8
1
62
256
6
ByLayer
370
18
48
1
60
1
100
AcDbLine
10
-24.35
20
-25.5
30
0
11
-24.810784
21
-22.000002
31
0
39
0
210
0
220
0
230
1
0
LINE
5
30C
100
AcDbEntity
8
1
62
256
6
ByLayer
370
18
48
1
60
1
100
AcDbLine
10
-24.810784
20
-22.000002
30
0
11
-23.889216
21
-21.999998
31
0
39
0
210
0
220
0
230
1
0
LINE
5
30D
100
AcDbEntity
8
1
62
256
6
ByLayer
370
18
48
1
60
1
100
AcDbLine
10
-23.889216
20
-21.999998
30
0
11
-24.35
21
-25.5
31
0
39
0
210
0
220
0
230
1
0
LINE
5
30E
100
AcDbEntity
8
1
62
256
6
ByLayer
370
18
48
1
60
1
100
AcDbLine
10
-24.35
20
25.5
30
0
11
-23.889216
21
22.000002
31
0
39
0
210
0
220
0
230
1
0
LINE
5
30F
100
AcDbEntity
8
1
62
256
6
ByLayer
370
18
48
1
60
1
100
AcDbLine
10
-23.889216
20
22.000002
30
0
11
-24.810784
21
21.999998
31
0
39
0
210
0
220
0
230
1
0
LINE
5
310
100
AcDbEntity
8
1
62
256
6
ByLayer
370
18
48
1
60
1
100
AcDbLine
10
-24.810784
20
21.999998
30
0
11
-24.35
21
25.5
31
0
39
0
210
0
220
0
230
1
0
LINE
5
311
100
AcDbEntity
8
SK2
62
256
6
ByLayer
370
13
48
1
60
0
100
AcDbLine
10
69.15
20
18.70595
30
0
11
69.15
21
-18.70595
31
0
39
0
210
0
220
0
230
1
0
LINE
5
312
100
AcDbEntity
8
SK2
62
256
6
ByLayer
370
13
48
1
60
0
100
AcDbLine
10
42.3875
20
-18.70595
30
0
11
71.15
21
-18.70595
31
0
39
0
210
0
220
0
230
1
0
LINE
5
313
100
AcDbEntity
8
SK2
62
256
6
ByLayer
370
13
48
1
60
0
100
AcDbLine
10
42.3875
20
18.70595
30
0
11
71.15
21
18.70595
31
0
39
0
210
0
220
0
230
1
0
LINE
5
314
100
AcDbEntity
8
1
62
256
6
ByLayer
370
18
48
1
60
1
100
AcDbLine
10
69.15
20
-18.70595
30
0
11
68.689216
21
-15.205952
31
0
39
0
210
0
220
0
230
1
0
LINE
5
315
100
AcDbEntity
8
1
62
256
6
ByLayer
370
18
48
1
60
1
100
AcDbLine
10
68.689216
20
-15.205952
30
0
11
69.610784
21
-15.205948
31
0
39
0
210
0
220
0
230
1
0
LINE
5
316
100
AcDbEntity
8
1
62
256
6
ByLayer
370
18
48
1
60
1
100
AcDbLine
10
69.610784
20
-15.205948
30
0
11
69.15
21
-18.70595
31
0
39
0
210
0
220
0
230
1
0
LINE
5
317
100
AcDbEntity
8
1
62
256
6
ByLayer
370
18
48
1
60
1
100
AcDbLine
10
69.15
20
18.70595
30
0
11
69.610784
21
15.205952
31
0
39
0
210
0
220
0
230
1
0
LINE
5
318
100
AcDbEntity
8
1
62
256
6
ByLayer
370
18
48
1
60
1
100
AcDbLine
10
69.610784
20
15.205952
30
0
11
68.689216
21
15.205948
31
0
39
0
210
0
220
0
230
1
0
LINE
5
319
100
AcDbEntity
8
1
62
256
6
ByLayer
370
18
48
1
60
1
100
AcDbLine
10
68.689216
20
15.205948
30
0
11
69.15
21
18.70595
31
0
39
0
210
0
220
0
230
1
0
LINE
5
3E3
100
AcDbEntity
8
1
62
256
6
ByLayer
370
18
48
1
60
1
100
AcDbLine
10
51.366393
20
-40.566343
30
0
11
54.167088
21
-42.715392
31
0
39
0
210
0
220
0
230
1
0
LINE
5
3E4
100
AcDbEntity
8
1
62
256
6
ByLayer
370
18
48
1
60
1
100
AcDbLine
10
54.167088
20
-42.715392
30
0
11
53.515444
21
-43.367041
31
0
39
0
210
0
220
0
230
1
0
LINE
5
3E5
100
AcDbEntity
8
1
62
256
6
ByLayer
370
18
48
1
60
1
100
AcDbLine
10
53.515444
20
-43.367041
30
0
11
51.366393
21
-40.566343
31
0
39
0
210
0
220
0
230
1
0
LINE
5
3E9
100
AcDbEntity
8
1
62
256
6
ByLayer
370
18
48
1
60
1
100
AcDbLine
10
79.15
20
-39.99995
30
0
11
78.689216
21
-36.499952
31
0
39
0
210
0
220
0
230
1
0
LINE
5
3EA
100
AcDbEntity
8
1
62
256
6
ByLayer
370
18
48
1
60
1
100
AcDbLine
10
78.689216
20
-36.499952
30
0
11
79.610784
21
-36.499948
31
0
39
0
210
0
220
0
230
1
0
LINE
5
3EB
100
AcDbEntity
8
1
62
256
6
ByLayer
370
18
48
1
60
1
100
AcDbLine
10
79.610784
20
-36.499948
30
0
11
79.15
21
-39.99995
31
0
39
0
210
0
220
0
230
1
0
LINE
5
3ED
100
AcDbEntity
8
1
62
256
6
ByLayer
370
18
48
1
60
1
100
AcDbLine
10
79.15
20
39.99995
30
0
11
79.610784
21
36.499952
31
0
39
0
210
0
220
0
230
1
0
LINE
5
3EE
100
AcDbEntity
8
1
62
256
6
ByLayer
370
18
48
1
60
1
100
AcDbLine
10
79.610784
20
36.499952
30
0
11
78.689216
21
36.499948
31
0
39
0
210
0
220
0
230
1
0
LINE
5
3EF
100
AcDbEntity
8
1
62
256
6
ByLayer
370
18
48
1
60
1
100
AcDbLine
10
78.689216
20
36.499948
30
0
11
79.15
21
39.99995
31
0
39
0
210
0
220
0
230
1
0
LINE
5
3F3
100
AcDbEntity
8
1
62
256
6
ByLayer
370
18
48
1
60
1
100
AcDbLine
10
-14.35
20
-12.7
30
0
11
-14.810784
21
-9.200002
31
0
39
0
210
0
220
0
230
1
0
LINE
5
3F4
100
AcDbEntity
8
1
62
256
6
ByLayer
370
18
48
1
60
1
100
AcDbLine
10
-14.810784
20
-9.200002
30
0
11
-13.889216
21
-9.199998
31
0
39
0
210
0
220
0
230
1
0
LINE
5
3F5
100
AcDbEntity
8
1
62
256
6
ByLayer
370
18
48
1
60
1
100
AcDbLine
10
-13.889216
20
-9.199998
30
0
11
-14.35
21
-12.7
31
0
39
0
210
0
220
0
230
1
0
LINE
5
3F7
100
AcDbEntity
8
1
62
256
6
ByLayer
370
18
48
1
60
1
100
AcDbLine
10
-14.35
20
12.7
30
0
11
-13.889216
21
9.200002
31
0
39
0
210
0
220
0
230
1
0
LINE
5
3F8
100
AcDbEntity
8
1
62
256
6
ByLayer
370
18
48
1
60
1
100
AcDbLine
10
-13.889216
20
9.200002
30
0
11
-14.810784
21
9.199998
31
0
39
0
210
0
220
0
230
1
0
LINE
5
3F9
100
AcDbEntity
8
1
62
256
6
ByLayer
370
18
48
1
60
1
100
AcDbLine
10
-14.810784
20
9.199998
30
0
11
-14.35
21
12.7
31
0
39
0
210
0
220
0
230
1
0
LINE
5
3FD
100
AcDbEntity
8
1
62
256
6
ByLayer
370
18
48
1
60
1
100
AcDbLine
10
-24.35
20
-25.5
30
0
11
-24.810784
21
-22.000002
31
0
39
0
210
0
220
0
230
1
0
LINE
5
3FE
100
AcDbEntity
8
1
62
256
6
ByLayer
370
18
48
1
60
1
100
AcDbLine
10
-24.810784
20
-22.000002
30
0
11
-23.889216
21
-21.999998
31
0
39
0
210
0
220
0
230
1
0
LINE
5
3FF
100
AcDbEntity
8
1
62
256
6
ByLayer
370
18
48
1
60
1
100
AcDbLine
10
-23.889216
20
-21.999998
30
0
11
-24.35
21
-25.5
31
0
39
0
210
0
220
0
230
1
0
LINE
5
401
100
AcDbEntity
8
1
62
256
6
ByLayer
370
18
48
1
60
1
100
AcDbLine
10
-24.35
20
25.5
30
0
11
-23.889216
21
22.000002
31
0
39
0
210
0
220
0
230
1
0
LINE
5
402
100
AcDbEntity
8
1
62
256
6
ByLayer
370
18
48
1
60
1
100
AcDbLine
10
-23.889216
20
22.000002
30
0
11
-24.810784
21
21.999998
31
0
39
0
210
0
220
0
230
1
0
LINE
5
403
100
AcDbEntity
8
1
62
256
6
ByLayer
370
18
48
1
60
1
100
AcDbLine
10
-24.810784
20
21.999998
30
0
11
-24.35
21
25.5
31
0
39
0
210
0
220
0
230
1
0
LINE
5
407
100
AcDbEntity
8
1
62
256
6
ByLayer
370
18
48
1
60
1
100
AcDbLine
10
69.15
20
-18.70595
30
0
11
68.689216
21
-15.205952
31
0
39
0
210
0
220
0
230
1
0
LINE
5
408
100
AcDbEntity
8
1
62
256
6
ByLayer
370
18
48
1
60
1
100
AcDbLine
10
68.689216
20
-15.205952
30
0
11
69.610784
21
-15.205948
31
0
39
0
210
0
220
0
230
1
0
LINE
5
409
100
AcDbEntity
8
1
62
256
6
ByLayer
370
18
48
1
60
1
100
AcDbLine
10
69.610784
20
-15.205948
30
0
11
69.15
21
-18.70595
31
0
39
0
210
0
220
0
230
1
0
LINE
5
40B
100
AcDbEntity
8
1
62
256
6
ByLayer
370
18
48
1
60
1
100
AcDbLine
10
69.15
20
18.70595
30
0
11
69.610784
21
15.205952
31
0
39
0
210
0
220
0
230
1
0
LINE
5
40C
100
AcDbEntity
8
1
62
256
6
ByLayer
370
18
48
1
60
1
100
AcDbLine
10
69.610784
20
15.205952
30
0
11
68.689216
21
15.205948
31
0
39
0
210
0
220
0
230
1
0
LINE
5
40D
100
AcDbEntity
8
1
62
256
6
ByLayer
370
18
48
1
60
1
100
AcDbLine
10
68.689216
20
15.205948
30
0
11
69.15
21
18.70595
31
0
39
0
210
0
220
0
230
1
0
MTEXT
5
3DF
100
AcDbEntity
8
SK2
62
256
6
ByLayer
370
13
48
1
60
0
100
AcDbMText
10
56.766899
20
-49.335971
30
0
210
0
220
0
230
1
1
\W0.6380;R
40
3.5
41
0
44
1.084337
50
315
71
7
72
5
7
iso_b_vert
0
MTEXT
5
3E2
100
AcDbEntity
8
SK2
62
256
6
ByLayer
370
13
48
1
60
0
100
AcDbMText
10
59.371881
20
-51.940952
30
0
210
0
220
0
230
1
1
\W0.7121;0.8
40
3.5
41
0
44
1.084337
50
315
71
7
72
5
7
iso_b_vert
0
MTEXT
5
3E7
100
AcDbEntity
8
2
62
256
6
ByLayer
370
18
48
1
60
0
100
AcDbMText
10
77.361847
20
-5.177854
30
0
210
0
220
0
230
1
1
%%c
40
4
41
0
44
1.084337
50
90
71
7
72
5
7
iso_b_vert
0
MTEXT
5
3E8
100
AcDbEntity
8
2
62
256
6
ByLayer
370
18
48
1
60
0
100
AcDbMText
10
77.361847
20
2.790896
30
0
210
0
220
0
230
1
1
\W0.6740;80
40
4
41
0
44
1.084337
50
90
71
7
72
5
7
iso_b_vert
0
MTEXT
5
3F1
100
AcDbEntity
8
SK2
62
256
6
ByLayer
370
18
48
1
60
0
100
AcDbMText
10
-16.138153
20
-7.693282
30
0
210
0
220
0
230
1
1
%%c
40
4
41
0
44
1.084337
50
90
71
7
72
5
7
iso_b_vert
0
MTEXT
5
3F2
100
AcDbEntity
8
SK2
62
256
6
ByLayer
370
18
48
1
60
0
100
AcDbMText
10
-16.138153
20
0.275468
30
0
210
0
220
0
230
1
1
\W0.7528;25.4
40
4
41
0
44
1.084337
50
90
71
7
72
5
7
iso_b_vert
0
MTEXT
5
3FB
100
AcDbEntity
8
SK2
62
256
6
ByLayer
370
18
48
1
60
0
100
AcDbMText
10
-26.138153
20
-4.677931
30
0
210
0
220
0
230
1
1
%%c
40
4
41
0
44
1.084337
50
90
71
7
72
5
7
iso_b_vert
0
MTEXT
5
3FC
100
AcDbEntity
8
SK2
62
256
6
ByLayer
370
18
48
1
60
0
100
AcDbMText
10
-26.138153
20
3.290819
30
0
210
0
220
0
230
1
1
\W0.6351;51
40
4
41
0
44
1.084337
50
90
71
7
72
5
7
iso_b_vert
0
MTEXT
5
405
100
AcDbEntity
8
SK2
62
256
6
ByLayer
370
18
48
1
60
0
100
AcDbMText
10
67.361847
20
-8.687911
30
0
210
0
220
0
230
1
1
%%c
40
4
41
0
44
1.084337
50
90
71
7
72
5
7
iso_b_vert
0
MTEXT
5
406
100
AcDbEntity
8
SK2
62
256
6
ByLayer
370
18
48
1
60
0
100
AcDbMText
10
67.361847
20
-0.719161
30
0
210
0
220
0
230
1
1
\W0.7616;37.41
40
4
41
0
44
1.084337
50
90
71
7
72
5
7
iso_b_vert
0
MTEXT
5
40F
100
AcDbEntity
8
SK6
62
256
6
ByLayer
370
13
48
1
60
0
100
AcDbMText
10
25.5855
20
-74.216069
30
0
210
0
220
0
230
1
1
\W0.7601;R331.32C-080R25EM
40
3.5
41
0
44
1.084337
50
0
71
7
72
5
7
iso_b_vert
0
HATCH
5
3E6
100
AcDbEntity
8
SK2
62
256
6
ByLayer
370
13
48
1
60
0
100
AcDbHatch
10
0
20
0
30
0
210
0
220
0
230
1
2
ANSI31
70
0
71
0
91
1
92
5
93
3
72
1
10
51.3663925317304
20
-40.5663425317304
11
54.16708837738
21
-42.715391760755
72
1
10
54.16708837738
20
-42.715391760755
11
53.5154441543867
21
-43.3670407710117
72
1
10
53.5154441543867
20
-43.3670407710117
11
51.3663925317304
21
-40.5663425317304
97
0
75
0
76
1
52
0
41
0.0062
77
0
78
1
53
44.9999999999999
43
0
44
0
45
-0.0139193969876572
46
0.0139193969876572
79
0
47
0
98
1
10
0
20
0
0
HATCH
5
3EC
100
AcDbEntity
8
2
62
256
6
ByLayer
370
13
48
1
60
0
100
AcDbHatch
10
0
20
0
30
0
210
0
220
0
230
1
2
ANSI31
70
0
71
0
91
1
92
5
93
3
72
1
10
79.15
20
-39.99995
11
78.6892162584472
21
-36.4999516925532
72
1
10
78.6892162584472
20
-36.4999516925532
11
79.6107837415527
21
-36.4999483074467
72
1
10
79.6107837415527
20
-36.4999483074467
11
79.15
21
-39.99995
97
0
75
0
76
1
52
0
41
0.0062
77
0
78
1
53
44.9999999999999
43
0
44
0
45
-0.0139193969876572
46
0.0139193969876572
79
0
47
0
98
1
10
0
20
0
0
HATCH
5
3F0
100
AcDbEntity
8
2
62
256
6
ByLayer
370
13
48
1
60
0
100
AcDbHatch
10
0
20
0
30
0
210
0
220
0
230
1
2
ANSI31
70
0
71
0
91
1
92
5
93
3
72
1
10
79.15
20
39.99995
11
79.6107837415527
21
36.4999516925532
72
1
10
79.6107837415527
20
36.4999516925532
11
78.6892162584472
21
36.4999483074468
72
1
10
78.6892162584472
20
36.4999483074468
11
79.15
21
39.99995
97
0
75
0
76
1
52
0
41
0.0062
77
0
78
1
53
44.9999999999999
43
0
44
0
45
-0.0139193969876572
46
0.0139193969876572
79
0
47
0
98
1
10
0
20
0
0
HATCH
5
3F6
100
AcDbEntity
8
SK2
62
256
6
ByLayer
370
13
48
1
60
0
100
AcDbHatch
10
0
20
0
30
0
210
0
220
0
230
1
2
ANSI31
70
0
71
0
91
1
92
5
93
3
72
1
10
-14.35
20
-12.7
11
-14.8107837415528
21
-9.2000016925532
72
1
10
-14.8107837415528
20
-9.2000016925532
11
-13.8892162584473
21
-9.19999830744678
72
1
10
-13.8892162584473
20
-9.19999830744678
11
-14.35
21
-12.7
97
0
75
0
76
1
52
0
41
0.0062
77
0
78
1
53
44.9999999999999
43
0
44
0
45
-0.0139193969876572
46
0.0139193969876572
79
0
47
0
98
1
10
0
20
0
0
HATCH
5
3FA
100
AcDbEntity
8
SK2
62
256
6
ByLayer
370
13
48
1
60
0
100
AcDbHatch
10
0
20
0
30
0
210
0
220
0
230
1
2
ANSI31
70
0
71
0
91
1
92
5
93
3
72
1
10
-14.35
20
12.7000000000001
11
-13.8892162584473
21
9.20000169255326
72
1
10
-13.8892162584473
20
9.20000169255326
11
-14.8107837415528
21
9.19999830744683
72
1
10
-14.8107837415528
20
9.19999830744683
11
-14.35
21
12.7000000000001
97
0
75
0
76
1
52
0
41
0.0062
77
0
78
1
53
44.9999999999999
43
0
44
0
45
-0.0139193969876572
46
0.0139193969876572
79
0
47
0
98
1
10
0
20
0
0
HATCH
5
400
100
AcDbEntity
8
SK2
62
256
6
ByLayer
370
13
48
1
60
0
100
AcDbHatch
10
0
20
0
30
0
210
0
220
0
230
1
2
ANSI31
70
0
71
0
91
1
92
5
93
3
72
1
10
-24.35
20
-25.5
11
-24.8107837415528
21
-22.0000016925532
72
1
10
-24.8107837415528
20
-22.0000016925532
11
-23.8892162584473
21
-21.9999983074468
72
1
10
-23.8892162584473
20
-21.9999983074468
11
-24.35
21
-25.5
97
0
75
0
76
1
52
0
41
0.0062
77
0
78
1
53
44.9999999999999
43
0
44
0
45
-0.0139193969876572
46
0.0139193969876572
79
0
47
0
98
1
10
0
20
0
0
HATCH
5
404
100
AcDbEntity
8
SK2
62
256
6
ByLayer
370
13
48
1
60
0
100
AcDbHatch
10
0
20
0
30
0
210
0
220
0
230
1
2
ANSI31
70
0
71
0
91
1
92
5
93
3
72
1
10
-24.35
20
25.5
11
-23.8892162584473
21
22.0000016925532
72
1
10
-23.8892162584473
20
22.0000016925532
11
-24.8107837415528
21
21.9999983074468
72
1
10
-24.8107837415528
20
21.9999983074468
11
-24.35
21
25.5
97
0
75
0
76
1
52
0
41
0.0062
77
0
78
1
53
44.9999999999999
43
0
44
0
45
-0.0139193969876572
46
0.0139193969876572
79
0
47
0
98
1
10
0
20
0
0
HATCH
5
40A
100
AcDbEntity
8
SK2
62
256
6
ByLayer
370
13
48
1
60
0
100
AcDbHatch
10
0
20
0
30
0
210
0
220
0
230
1
2
ANSI31
70
0
71
0
91
1
92
5
93
3
72
1
10
69.15
20
-18.70595
11
68.6892162584472
21
-15.2059516925532
72
1
10
68.6892162584472
20
-15.2059516925532
11
69.6107837415527
21
-15.2059483074468
72
1
10
69.6107837415527
20
-15.2059483074468
11
69.15
21
-18.70595
97
0
75
0
76
1
52
0
41
0.0062
77
0
78
1
53
44.9999999999999
43
0
44
0
45
-0.0139193969876572
46
0.0139193969876572
79
0
47
0
98
1
10
0
20
0
0
HATCH
5
40E
100
AcDbEntity
8
SK2
62
256
6
ByLayer
370
13
48
1
60
0
100
AcDbHatch
10
0
20
0
30
0
210
0
220
0
230
1
2
ANSI31
70
0
71
0
91
1
92
5
93
3
72
1
10
69.15
20
18.70595
11
69.6107837415527
21
15.2059516925532
72
1
10
69.6107837415527
20
15.2059516925532
11
68.6892162584472
21
15.2059483074468
72
1
10
68.6892162584472
20
15.2059483074468
11
69.15
21
18.70595
97
0
75
0
76
1
52
0
41
0.0062
77
0
78
1
53
44.9999999999999
43
0
44
0
45
-0.0139193969876572
46
0.0139193969876572
79
0
47
0
98
1
10
0
20
0
0
DIMENSION
5
412
100
AcDbEntity
8
SK2
62
256
6
ByLayer
370
13
48
1
60
0
100
AcDbDimension
2
_U0
10
24.79
20
-53.370519
30
0
11
37.795
21
-53.370519
31
0
70
32
71
1
72
1
41
1
210
0
220
0
230
1
3
Standard
100
AcDbAlignedDimension
13
50.8
23
-39.99995
33
0
14
24.79
24
-18.70595
34
0
50
0
100
AcDbRotatedDimension
1001
ACAD
1000
DSTYLE
1002
{
1070
   371
1070
    13
1070
   372
1070
    13
1070
   170
1070
     0
1070
   144
1040
1.0
1070
   277
1070
     2
1070
   284
1070
     8
1070
   278
1070
    46
1070
   146
1040
0.875
1070
   345
1005
16
1070
   347
1005
16
1070
   346
1005
16
1070
   344
1005
0
1070
   343
1005
0
1070
   172
1070
     1
1070
    76
1070
     0
1070
    75
1070
     0
1070
   282
1070
     0
1070
   281
1070
     0
1070
    71
1070
     0
1070
    74
1070
     0
1070
   279
1070
     0
1070
   173
1070
     1
1070
   340
1005
3E0
1070
   271
1070
     2
1070
   272
1070
     2
1070
    77
1070
     1
1070
    73
1070
     1
1070
   171
1070
     3
1070
   274
1070
     4
1070
   177
1070
     2
1070
   176
1070
     2
1070
   178
1070
     2
1070
    78
1070
     8
1070
    48
1040
-0.1
1070
    41
1040
3.5
1070
   147
1040
2.0
1070
    42
1040
1.5875
1070
    44
1040
2.0
1070
   140
1040
4.0
1002
}
1001
ACAD_DSTYLE_DIM_LINETYPE
1070
   380
1005
16
1001
ACAD_DSTYLE_DIM_EXT1_LINETYPE
1070
   381
1005
16
1001
ACAD_DSTYLE_DIM_EXT2_LINETYPE
1070
   382
1005
16
0
DIMENSION
5
42B
100
AcDbEntity
8
2
62
256
6
ByLayer
370
13
48
1
60
0
100
AcDbDimension
2
_U1
10
0
20
-63.370519
30
0
11
25.4
21
-63.370519
31
0
70
32
71
1
72
1
41
1
210
0
220
0
230
1
3
Standard
100
AcDbAlignedDimension
13
50.8
23
-39.99995
33
0
14
0
24
-12.7
34
0
50
0
100
AcDbRotatedDimension
1001
ACAD
1000
DSTYLE
1002
{
1070
   371
1070
    13
1070
   372
1070
    13
1070
   170
1070
     0
1070
   144
1040
1.0
1070
   277
1070
     2
1070
   284
1070
     8
1070
   278
1070
    46
1070
   146
1040
0.875
1070
   345
1005
16
1070
   347
1005
16
1070
   346
1005
16
1070
   344
1005
0
1070
   343
1005
0
1070
   172
1070
     1
1070
    76
1070
     0
1070
    75
1070
     0
1070
   282
1070
     0
1070
   281
1070
     0
1070
    71
1070
     0
1070
    74
1070
     0
1070
   279
1070
     0
1070
   173
1070
     1
1070
   340
1005
3E0
1070
   271
1070
     2
1070
   272
1070
     2
1070
    77
1070
     1
1070
    73
1070
     1
1070
   171
1070
     3
1070
   274
1070
     4
1070
   177
1070
     2
1070
   176
1070
     2
1070
   178
1070
     2
1070
    78
1070
     8
1070
    48
1040
-0.1
1070
    41
1040
3.5
1070
   147
1040
2.0
1070
    42
1040
1.5875
1070
    44
1040
2.0
1070
   140
1040
4.0
1002
}
1001
ACAD_DSTYLE_DIM_LINETYPE
1070
   380
1005
16
1001
ACAD_DSTYLE_DIM_EXT1_LINETYPE
1070
   381
1005
16
1001
ACAD_DSTYLE_DIM_EXT2_LINETYPE
1070
   382
1005
16
0
DIMENSION
5
443
100
AcDbEntity
8
SK2
62
256
6
ByLayer
370
13
48
1
60
0
100
AcDbDimension
2
_U2
10
40.8
20
49.373013
30
0
11
66.752381
21
49.373013
31
0
70
32
71
1
72
1
41
1
210
0
220
0
230
1
3
Standard
100
AcDbAlignedDimension
13
50.8
23
39.99995
33
0
14
40.8
24
39.99995
34
0
50
0
100
AcDbRotatedDimension
1001
ACAD
1000
DSTYLE
1002
{
1070
   371
1070
    13
1070
   372
1070
    13
1070
     3
1000

1070
   170
1070
     0
1070
   144
1040
1.0
1070
   277
1070
     2
1070
   284
1070
     8
1070
   278
1070
    46
1070
   146
1040
0.875
1070
   345
1005
16
1070
   347
1005
16
1070
   346
1005
16
1070
   344
1005
0
1070
   343
1005
0
1070
   172
1070
     1
1070
    76
1070
     0
1070
    75
1070
     0
1070
   282
1070
     0
1070
   281
1070
     0
1070
    71
1070
     0
1070
    74
1070
     0
1070
   279
1070
     0
1070
   173
1070
     1
1070
   340
1005
3E0
1070
   271
1070
     2
1070
   272
1070
     2
1070
    77
1070
     1
1070
    73
1070
     1
1070
   171
1070
     3
1070
   274
1070
     4
1070
   177
1070
     2
1070
   176
1070
     2
1070
   178
1070
     2
1070
    78
1070
     8
1070
    48
1040
-0.1
1070
    41
1040
3.5
1070
   147
1040
2.0
1070
    42
1040
1.5875
1070
    44
1040
2.0
1070
   140
1040
4.0
1002
}
1001
ACAD_DSTYLE_DIM_LINETYPE
1070
   380
1005
16
1001
ACAD_DSTYLE_DIM_EXT1_LINETYPE
1070
   381
1005
16
1001
ACAD_DSTYLE_DIM_EXT2_LINETYPE
1070
   382
1005
16
0
ENDSEC
0
SECTION
2
OBJECTS
0
DICTIONARY
5
4cc
330
0
100
AcDbDictionary
280
0
281
1
3
ACAD_GROUP
350
4cd
3
ACAD_MLINESTYLE
350
4ce
0
DICTIONARY
5
4cd
330
0
100
AcDbDictionary
280
0
281
1
0
DICTIONARY
5
4ce
330
0
100
AcDbDictionary
280
0
281
1
3
Standard
350
18
0
MLINESTYLE
5
18
330
4ce
100
AcDbMlineStyle
2
Standard
70
0
3

62
256
51
90
52
90
71
2
49
-0.5
62
256
6
ByLayer
49
0.5
62
256
6
ByLayer
0
RASTERVARIABLES
5
4bb
330

100
AcDbRasterVariables
90
0
70
1
71
1
72
1
0
ENDSEC
0
EOF
