0
SECTION
2
HEADER
9
$ACADVER
1
AC1015
9
$DWGCODEPAGE
3
ANSI_1252
9
$HANDSEED
5
4dc
9
$ANGBASE
50
0
9
$ANGDIR
70
0
9
$ATTMODE
70
1
9
$AUNITS
70
0
9
$AUPREC
70
0
9
$CECOLOR
62
256
9
$CELTSCALE
40
1
9
$CELTYPE
6
ByLayer
9
$CELWEIGHT
370
18
9
$CLAYER
8
0
9
$CMLJUST
70
0
9
$CMLSCALE
40
1
9
$CMLSTYLE
2
Standard
9
$DIMSTYLE
2
Standard
9
$TEXTSIZE
40
0.2
9
$TEXTSTYLE
7
Standard
9
$LUNITS
70
2
9
$LUPREC
70
4
9
$EXTNAMES
290
1
9
$INSUNITS
70
4
9
$LTSCALE
40
1
9
$LWDISPLAY
290
1
9
$PDMODE
70
0
9
$PDSIZE
40
0
9
$PLINEGEN
70
0
0
ENDSEC
0
SECTION
2
CLASSES
0
CLASS
1
RASTERVARIABLES
2
AcDbRasterVariables
3
ISM
90
0
280
0
281
0
0
ENDSEC
0
SECTION
2
TABLES
0
TABLE
2
VPORT
5
4d2
100
AcDbSymbolTable
0
VPORT
5
1
100
AcDbSymbolTableRecord
100
AcDbViewportTableRecord
2
*Active
70
0
10
0
20
0
11
1
21
1
12
-1
22
1
13
0
23
0
14
0.5
24
0.5
15
10
25
10
16
0
26
0
36
1
17
0
27
0
37
0
0
ENDTAB
0
TABLE
2
LTYPE
5
4d3
100
AcDbSymbolTable
0
LTYPE
5
14
100
AcDbSymbolTableRecord
100
AcDbLinetypeTableRecord
70
0
2
ByBlock
3

72
65
73
0
40
0
0
LTYPE
5
15
100
AcDbSymbolTableRecord
100
AcDbLinetypeTableRecord
70
0
2
ByLayer
3

72
65
73
0
40
0
0
LTYPE
5
16
100
AcDbSymbolTableRecord
100
AcDbLinetypeTableRecord
70
0
2
Continuous
3
Solid line
72
65
73
0
40
0
0
LTYPE
5
6E
100
AcDbSymbolTableRecord
100
AcDbLinetypeTableRecord
70
0
2
CENTER
3
____ _ ____ _ ____ _ ____
72
65
73
4
40
47.5
49
22
74
0
49
-8.5
74
0
49
8.5
74
0
49
-8.5
74
0
0
LTYPE
5
6F
100
AcDbSymbolTableRecord
100
AcDbLinetypeTableRecord
70
0
2
DASHED
3
__ __ __ __ __ __ __ __ __
72
65
73
2
40
25.72
49
12.86
74
0
49
-12.86
74
0
0
ENDTAB
0
TABLE
2
LAYER
5
4d4
100
AcDbSymbolTable
0
LAYER
5
10
100
AcDbSymbolTableRecord
100
AcDbLayerTableRecord
2
0
70
0
62
7
6
Continuous
290
1
370
-3
390
0
0
LAYER
5
71
100
AcDbSymbolTableRecord
100
AcDbLayerTableRecord
2
80
70
0
62
-6
6
Continuous
290
1
370
-3
390
0
0
LAYER
5
73
100
AcDbSymbolTableRecord
100
AcDbLayerTableRecord
2
81
70
0
62
-3
6
Continuous
290
1
370
-3
390
0
0
LAYER
5
75
100
AcDbSymbolTableRecord
100
AcDbLayerTableRecord
2
1
70
0
62
4
6
Continuous
290
1
370
-3
390
0
0
LAYER
5
22E
100
AcDbSymbolTableRecord
100
AcDbLayerTableRecord
2
4
70
0
62
-2
6
CENTER
290
1
370
-3
390
0
0
LAYER
5
264
100
AcDbSymbolTableRecord
100
AcDbLayerTableRecord
2
2
70
0
62
7
6
Continuous
290
1
370
-3
390
0
0
LAYER
5
418
100
AcDbSymbolTableRecord
100
AcDbLayerTableRecord
2
Defpoints
70
0
62
7
6
Continuous
290
0
370
-3
390
0
0
LAYER
5
4bf
100
AcDbSymbolTableRecord
100
AcDbLayerTableRecord
2
SK4
70
0
62
2
6
CENTER
290
1
370
-3
390
0
0
LAYER
5
4c0
100
AcDbSymbolTableRecord
100
AcDbLayerTableRecord
2
SK2
70
0
62
7
6
Continuous
290
1
370
-3
390
0
0
LAYER
5
4c1
100
AcDbSymbolTableRecord
100
AcDbLayerTableRecord
2
SK6
70
0
62
5
6
Continuous
290
1
370
-3
390
0
0
ENDTAB
0
TABLE
2
STYLE
5
4d5
100
AcDbSymbolTable
0
STYLE
5
11
100
AcDbSymbolTableRecord
100
AcDbTextStyleTableRecord
2
Standard
3
txt
70
0
71
0
40
0
41
1
42
0
50
0
0
STYLE
5
3E9
100
AcDbSymbolTableRecord
100
AcDbTextStyleTableRecord
2
iso_b_vert
3
simplex.shx
70
0
71
0
40
0
41
1
42
0
50
0
0
STYLE
5
3EA
100
AcDbSymbolTableRecord
100
AcDbTextStyleTableRecord
2
DWGDirectTextStyle
3
simplex
70
0
71
0
40
0
41
1
42
0
50
0
0
ENDTAB
0
TABLE
2
DIMSTYLE
5
4d6
100
AcDbSymbolTable
100
AcDbDimStyleTable
0
DIMSTYLE
105
27
100
AcDbSymbolTableRecord
100
AcDbDimStyleTableRecord
2
Standard
70
0
3
<>
41
0.18
42
0.0625
44
0.18
140
0.18
147
0.09
73
0
74
0
77
1
271
2
275
0
278
52
280
0
340
11
0
ENDTAB
0
TABLE
2
VIEW
5
4d7
100
AcDbSymbolTable
0
ENDTAB
0
TABLE
2
UCS
5
4d8
100
AcDbSymbolTable
0
ENDTAB
0
TABLE
2
APPID
5
4d9
100
AcDbSymbolTable
0
APPID
5
12
100
AcDbSymbolTableRecord
100
AcDbRegAppTableRecord
2
ACAD
70
0
0
APPID
5
414
100
AcDbSymbolTableRecord
100
AcDbRegAppTableRecord
2
ACAD_DSTYLE_DIMBREAK
70
0
0
APPID
5
47E
100
AcDbSymbolTableRecord
100
AcDbRegAppTableRecord
2
ACAD_DSTYLE_DIM_LINETYPE
70
0
0
APPID
5
47F
100
AcDbSymbolTableRecord
100
AcDbRegAppTableRecord
2
ACAD_DSTYLE_DIM_EXT1_LINETYPE
70
0
0
APPID
5
480
100
AcDbSymbolTableRecord
100
AcDbRegAppTableRecord
2
ACAD_DSTYLE_DIM_EXT2_LINETYPE
70
0
0
APPID
5
4BB
100
AcDbSymbolTableRecord
100
AcDbRegAppTableRecord
2
ACAD_MLEADERVER
70
0
0
ENDTAB
0
TABLE
2
BLOCK_RECORD
5
4da
100
AcDbSymbolTable
0
BLOCK_RECORD
5
1F
100
AcDbSymbolTableRecord
100
AcDbBlockTableRecord
2
*Model_Space
340
0
70
0
0
BLOCK_RECORD
5
1B
100
AcDbSymbolTableRecord
100
AcDbBlockTableRecord
2
*Paper_Space
340
0
70
0
0
BLOCK_RECORD
5
23
100
AcDbSymbolTableRecord
100
AcDbBlockTableRecord
2
*Paper_Space0
340
0
70
0
0
BLOCK_RECORD
5
419
100
AcDbSymbolTableRecord
100
AcDbBlockTableRecord
2
*D1
340
0
70
0
0
BLOCK_RECORD
5
425
100
AcDbSymbolTableRecord
100
AcDbBlockTableRecord
2
_U0
340
0
70
0
0
BLOCK_RECORD
5
431
100
AcDbSymbolTableRecord
100
AcDbBlockTableRecord
2
*D3
340
0
70
0
0
BLOCK_RECORD
5
43D
100
AcDbSymbolTableRecord
100
AcDbBlockTableRecord
2
_U1
340
0
70
0
0
BLOCK_RECORD
5
449
100
AcDbSymbolTableRecord
100
AcDbBlockTableRecord
2
*D5
340
0
70
0
0
BLOCK_RECORD
5
457
100
AcDbSymbolTableRecord
100
AcDbBlockTableRecord
2
_U2
340
0
70
0
0
ENDTAB
0
ENDSEC
0
SECTION
2
BLOCKS
0
BLOCK
5
20
100
AcDbEntity
8
0
100
AcDbBlockBegin
2
*Model_Space
70
0
10
0
20
0
30
0
3
*Model_Space
0
ENDBLK
5
21
100
AcDbEntity
8
0
100
AcDbBlockEnd
0
BLOCK
5
1C
100
AcDbEntity
8
0
100
AcDbBlockBegin
2
*Paper_Space
70
0
10
0
20
0
30
0
3
*Paper_Space
0
ENDBLK
5
1D
100
AcDbEntity
8
0
100
AcDbBlockEnd
0
BLOCK
5
24
100
AcDbEntity
8
0
100
AcDbBlockBegin
2
*Paper_Space0
70
0
10
0
20
0
30
0
3
*Paper_Space0
0
ENDBLK
5
25
100
AcDbEntity
8
0
100
AcDbBlockEnd
0
BLOCK
5
41A
100
AcDbEntity
8
0
100
AcDbBlockBegin
2
*D1
70
1
10
0
20
0
30
0
3
*D1
0
LINE
5
41C
100
AcDbEntity
8
0
62
256
6
ByLayer
370
-2
48
1
60
0
100
AcDbLine
10
50.8
20
-42.58695
30
0
11
50.8
21
-56.318603
31
0
39
0
210
0
220
0
230
1
0
LINE
5
41D
100
AcDbEntity
8
0
62
256
6
ByLayer
370
-2
48
1
60
0
100
AcDbLine
10
24.79
20
-20.32195
30
0
11
24.79
21
-56.318603
31
0
39
0
210
0
220
0
230
1
0
LINE
5
41E
100
AcDbEntity
8
0
62
256
6
ByLayer
370
-2
48
1
60
0
100
AcDbLine
10
47.3
20
-54.318603
30
0
11
28.29
21
-54.318603
31
0
39
0
210
0
220
0
230
1
0
SOLID
5
41F
100
AcDbEntity
8
0
62
256
6
ByLayer
370
-1
48
1
60
0
100
AcDbTrace
10
47.3
20
-54.901936
30
0
11
47.3
21
-53.73527
31
0
12
50.8
22
-54.318603
32
0
13
50.8
23
-54.318603
33
0
39
0
210
0
220
0
230
1
0
SOLID
5
420
100
AcDbEntity
8
0
62
256
6
ByLayer
370
-1
48
1
60
0
100
AcDbTrace
10
28.29
20
-53.73527
30
0
11
28.29
21
-54.901936
31
0
12
24.79
22
-54.318603
32
0
13
24.79
23
-54.318603
33
0
39
0
210
0
220
0
230
1
0
MTEXT
5
421
100
AcDbEntity
8
0
62
256
6
ByLayer
370
18
48
1
60
0
100
AcDbMText
10
37.795
20
-46.318603
30
0
210
0
220
0
230
1
1
\A1;26.01
40
4
41
0
44
1
50
0
71
5
72
5
7
iso_b_vert
0
POINT
5
422
100
AcDbEntity
8
Defpoints
62
0
6
ByLayer
370
-1
48
1
60
0
100
AcDbPoint
10
50.8
20
-40.99945
30
0
39
0
210
0
220
0
230
1
50
360
0
POINT
5
423
100
AcDbEntity
8
Defpoints
62
0
6
ByLayer
370
-1
48
1
60
0
100
AcDbPoint
10
24.79
20
-18.73445
30
0
39
0
210
0
220
0
230
1
50
360
0
POINT
5
424
100
AcDbEntity
8
Defpoints
62
0
6
ByLayer
370
-1
48
1
60
0
100
AcDbPoint
10
24.79
20
-54.318603
30
0
39
0
210
0
220
0
230
1
50
360
0
ENDBLK
5
41B
100
AcDbEntity
8
0
100
AcDbBlockEnd
0
BLOCK
5
42C
100
AcDbEntity
8
0
100
AcDbBlockBegin
2
_U0
70
0
10
0
20
0
30
0
3
_U0
0
MTEXT
5
426
100
AcDbEntity
8
SK2
62
256
6
ByLayer
370
13
48
1
60
0
100
AcDbMText
10
32.31843
20
-53.13845
30
0
210
0
220
0
230
1
1
\W0.7373;26.01
40
4
41
0
44
1.084337
50
0
71
7
72
5
7
iso_b_vert
0
LINE
5
427
100
AcDbEntity
8
SK2
62
256
6
ByLayer
370
13
48
1
60
0
100
AcDbLine
10
50.8
20
-42.58695
30
0
11
50.8
21
-56.318603
31
0
39
0
210
0
220
0
230
1
0
LINE
5
428
100
AcDbEntity
8
SK2
62
256
6
ByLayer
370
13
48
1
60
0
100
AcDbLine
10
24.79
20
-20.32195
30
0
11
24.79
21
-56.318603
31
0
39
0
210
0
220
0
230
1
0
LINE
5
429
100
AcDbEntity
8
SK2
62
256
6
ByLayer
370
13
48
1
60
0
100
AcDbLine
10
50.8
20
-54.318603
30
0
11
24.79
21
-54.318603
31
0
39
0
210
0
220
0
230
1
0
SOLID
5
42A
100
AcDbEntity
8
SK2
62
256
6
ByLayer
370
18
48
1
60
0
100
AcDbTrace
10
50.8
20
-54.318603
30
0
11
47.300002
21
-54.779387
31
0
12
47.299998
22
-53.857819
32
0
13
47.299998
23
-53.857819
33
0
39
0
210
0
220
0
230
1
0
SOLID
5
42B
100
AcDbEntity
8
SK2
62
256
6
ByLayer
370
18
48
1
60
0
100
AcDbTrace
10
24.79
20
-54.318603
30
0
11
28.289998
21
-53.857819
31
0
12
28.290002
22
-54.779387
32
0
13
28.290002
23
-54.779387
33
0
39
0
210
0
220
0
230
1
0
ENDBLK
5
42D
100
AcDbEntity
8
0
100
AcDbBlockEnd
0
BLOCK
5
432
100
AcDbEntity
8
0
100
AcDbBlockBegin
2
*D3
70
1
10
0
20
0
30
0
3
*D3
0
LINE
5
434
100
AcDbEntity
8
0
62
256
6
ByLayer
370
-2
48
1
60
0
100
AcDbLine
10
50.8
20
-42.58695
30
0
11
50.8
21
-66.318603
31
0
39
0
210
0
220
0
230
1
0
LINE
5
435
100
AcDbEntity
8
0
62
256
6
ByLayer
370
-2
48
1
60
0
100
AcDbLine
10
0
20
-14.2875
30
0
11
0
21
-66.318603
31
0
39
0
210
0
220
0
230
1
0
LINE
5
436
100
AcDbEntity
8
0
62
256
6
ByLayer
370
-2
48
1
60
0
100
AcDbLine
10
47.3
20
-64.318603
30
0
11
3.5
21
-64.318603
31
0
39
0
210
0
220
0
230
1
0
SOLID
5
437
100
AcDbEntity
8
0
62
256
6
ByLayer
370
-1
48
1
60
0
100
AcDbTrace
10
47.3
20
-64.901936
30
0
11
47.3
21
-63.73527
31
0
12
50.8
22
-64.318603
32
0
13
50.8
23
-64.318603
33
0
39
0
210
0
220
0
230
1
0
SOLID
5
438
100
AcDbEntity
8
0
62
256
6
ByLayer
370
-1
48
1
60
0
100
AcDbTrace
10
3.5
20
-63.73527
30
0
11
3.5
21
-64.901936
31
0
12
0
22
-64.318603
32
0
13
0
23
-64.318603
33
0
39
0
210
0
220
0
230
1
0
MTEXT
5
439
100
AcDbEntity
8
0
62
256
6
ByLayer
370
18
48
1
60
0
100
AcDbMText
10
25.4
20
-56.318603
30
0
210
0
220
0
230
1
1
\A1;50.8
40
4
41
0
44
1
50
0
71
5
72
5
7
iso_b_vert
0
POINT
5
43A
100
AcDbEntity
8
Defpoints
62
0
6
ByLayer
370
-1
48
1
60
0
100
AcDbPoint
10
50.8
20
-40.99945
30
0
39
0
210
0
220
0
230
1
50
360
0
POINT
5
43B
100
AcDbEntity
8
Defpoints
62
0
6
ByLayer
370
-1
48
1
60
0
100
AcDbPoint
10
0
20
-12.7
30
0
39
0
210
0
220
0
230
1
50
360
0
POINT
5
43C
100
AcDbEntity
8
Defpoints
62
0
6
ByLayer
370
-1
48
1
60
0
100
AcDbPoint
10
0
20
-64.318603
30
0
39
0
210
0
220
0
230
1
50
360
0
ENDBLK
5
433
100
AcDbEntity
8
0
100
AcDbBlockEnd
0
BLOCK
5
444
100
AcDbEntity
8
0
100
AcDbBlockBegin
2
_U1
70
0
10
0
20
0
30
0
3
_U1
0
MTEXT
5
43E
100
AcDbEntity
8
2
62
256
6
ByLayer
370
13
48
1
60
0
100
AcDbMText
10
20.918058
20
-63.13845
30
0
210
0
220
0
230
1
1
\W0.7346;50.8
40
4
41
0
44
1.084337
50
0
71
7
72
5
7
iso_b_vert
0
LINE
5
43F
100
AcDbEntity
8
2
62
256
6
ByLayer
370
13
48
1
60
0
100
AcDbLine
10
50.8
20
-42.58695
30
0
11
50.8
21
-66.318603
31
0
39
0
210
0
220
0
230
1
0
LINE
5
440
100
AcDbEntity
8
2
62
256
6
ByLayer
370
13
48
1
60
0
100
AcDbLine
10
0
20
-14.2875
30
0
11
0
21
-66.318603
31
0
39
0
210
0
220
0
230
1
0
LINE
5
441
100
AcDbEntity
8
2
62
256
6
ByLayer
370
13
48
1
60
0
100
AcDbLine
10
50.8
20
-64.318603
30
0
11
0
21
-64.318603
31
0
39
0
210
0
220
0
230
1
0
SOLID
5
442
100
AcDbEntity
8
2
62
256
6
ByLayer
370
18
48
1
60
0
100
AcDbTrace
10
50.8
20
-64.318603
30
0
11
47.300002
21
-64.779387
31
0
12
47.299998
22
-63.857819
32
0
13
47.299998
23
-63.857819
33
0
39
0
210
0
220
0
230
1
0
SOLID
5
443
100
AcDbEntity
8
2
62
256
6
ByLayer
370
18
48
1
60
0
100
AcDbTrace
10
0
20
-64.318603
30
0
11
3.499998
21
-63.857819
31
0
12
3.500002
22
-64.779387
32
0
13
3.500002
23
-64.779387
33
0
39
0
210
0
220
0
230
1
0
ENDBLK
5
445
100
AcDbEntity
8
0
100
AcDbBlockEnd
0
BLOCK
5
44A
100
AcDbEntity
8
0
100
AcDbBlockBegin
2
*D5
70
1
10
0
20
0
30
0
3
*D5
0
LINE
5
44C
100
AcDbEntity
8
0
62
256
6
ByLayer
370
-2
48
1
60
0
100
AcDbLine
10
50.8
20
42.58695
30
0
11
50.8
21
52.34945
31
0
39
0
210
0
220
0
230
1
0
LINE
5
44D
100
AcDbEntity
8
0
62
256
6
ByLayer
370
-2
48
1
60
0
100
AcDbLine
10
41.275
20
42.58695
30
0
11
41.275
21
52.34945
31
0
39
0
210
0
220
0
230
1
0
LINE
5
44E
100
AcDbEntity
8
0
62
256
6
ByLayer
370
-2
48
1
60
0
100
AcDbLine
10
50.8
20
50.34945
30
0
11
81.990476
21
50.34945
31
0
39
0
210
0
220
0
230
1
0
LINE
5
44F
100
AcDbEntity
8
0
62
256
6
ByLayer
370
-2
48
1
60
0
100
AcDbLine
10
54.3
20
50.34945
30
0
11
57.8
21
50.34945
31
0
39
0
210
0
220
0
230
1
0
LINE
5
450
100
AcDbEntity
8
0
62
256
6
ByLayer
370
-2
48
1
60
0
100
AcDbLine
10
37.775
20
50.34945
30
0
11
34.275
21
50.34945
31
0
39
0
210
0
220
0
230
1
0
SOLID
5
451
100
AcDbEntity
8
0
62
256
6
ByLayer
370
-1
48
1
60
0
100
AcDbTrace
10
54.3
20
50.932783
30
0
11
54.3
21
49.766117
31
0
12
50.8
22
50.34945
32
0
13
50.8
23
50.34945
33
0
39
0
210
0
220
0
230
1
0
SOLID
5
452
100
AcDbEntity
8
0
62
256
6
ByLayer
370
-1
48
1
60
0
100
AcDbTrace
10
37.775
20
49.766117
30
0
11
37.775
21
50.932783
31
0
12
41.275
22
50.34945
32
0
13
41.275
23
50.34945
33
0
39
0
210
0
220
0
230
1
0
MTEXT
5
453
100
AcDbEntity
8
0
62
256
6
ByLayer
370
18
48
1
60
0
100
AcDbMText
10
69.895238
20
58.34945
30
0
210
0
220
0
230
1
1
\A1;9.53
40
4
41
0
44
1
50
0
71
5
72
5
7
iso_b_vert
0
POINT
5
454
100
AcDbEntity
8
Defpoints
62
0
6
ByLayer
370
-1
48
1
60
0
100
AcDbPoint
10
50.8
20
40.99945
30
0
39
0
210
0
220
0
230
1
50
360
0
POINT
5
455
100
AcDbEntity
8
Defpoints
62
0
6
ByLayer
370
-1
48
1
60
0
100
AcDbPoint
10
41.275
20
40.99945
30
0
39
0
210
0
220
0
230
1
50
360
0
POINT
5
456
100
AcDbEntity
8
Defpoints
62
0
6
ByLayer
370
-1
48
1
60
0
100
AcDbPoint
10
41.275
20
50.34945
30
0
39
0
210
0
220
0
230
1
50
360
0
ENDBLK
5
44B
100
AcDbEntity
8
0
100
AcDbBlockEnd
0
BLOCK
5
45E
100
AcDbEntity
8
0
100
AcDbBlockBegin
2
_U2
70
0
10
0
20
0
30
0
3
_U2
0
MTEXT
5
458
100
AcDbEntity
8
SK2
62
256
6
ByLayer
370
13
48
1
60
0
100
AcDbMText
10
59.985012
20
51.529603
30
0
210
0
220
0
230
1
1
\W0.7468;9.525
40
4
41
0
44
1.084337
50
0
71
7
72
5
7
iso_b_vert
0
LINE
5
459
100
AcDbEntity
8
SK2
62
256
6
ByLayer
370
13
48
1
60
0
100
AcDbLine
10
50.8
20
42.58695
30
0
11
50.8
21
52.34945
31
0
39
0
210
0
220
0
230
1
0
LINE
5
45A
100
AcDbEntity
8
SK2
62
256
6
ByLayer
370
13
48
1
60
0
100
AcDbLine
10
41.275
20
42.58695
30
0
11
41.275
21
52.34945
31
0
39
0
210
0
220
0
230
1
0
LINE
5
45B
100
AcDbEntity
8
SK2
62
256
6
ByLayer
370
13
48
1
60
0
100
AcDbLine
10
41.275
20
50.34945
30
0
11
72.15
21
50.34945
31
0
39
0
210
0
220
0
230
1
0
SOLID
5
45C
100
AcDbEntity
8
SK2
62
256
6
ByLayer
370
18
48
1
60
0
100
AcDbTrace
10
50.8
20
50.34945
30
0
11
47.300002
21
49.888666
31
0
12
47.299998
22
50.810234
32
0
13
47.299998
23
50.810234
33
0
39
0
210
0
220
0
230
1
0
SOLID
5
45D
100
AcDbEntity
8
SK2
62
256
6
ByLayer
370
18
48
1
60
0
100
AcDbTrace
10
41.275
20
50.34945
30
0
11
44.774998
21
50.810234
31
0
12
44.775002
22
49.888666
32
0
13
44.775002
23
49.888666
33
0
39
0
210
0
220
0
230
1
0
ENDBLK
5
45F
100
AcDbEntity
8
0
100
AcDbBlockEnd
0
ENDSEC
0
SECTION
2
ENTITIES
0
ARC
5
289
100
AcDbEntity
8
1
62
256
6
ByLayer
370
18
48
1
60
0
100
AcDbCircle
39
0
10
40.7375
20
19.53445
30
0
40
0.8
210
0
220
0
230
1
100
AcDbArc
50
270
51
0
0
ARC
5
28A
100
AcDbEntity
8
1
62
256
6
ByLayer
370
18
48
1
60
0
100
AcDbCircle
39
0
10
40.7375
20
-19.53445
30
0
40
0.8
210
0
220
0
230
1
100
AcDbArc
50
38.742193
51
90
0
ARC
5
28B
100
AcDbEntity
8
1
62
256
6
ByLayer
370
18
48
1
60
0
100
AcDbCircle
39
0
10
40.7375
20
-19.53445
30
0
40
0.8
210
0
220
0
230
1
100
AcDbArc
50
0
51
25.765339
0
ARC
5
28C
100
AcDbEntity
8
1
62
256
6
ByLayer
370
18
48
1
60
0
100
AcDbCircle
39
0
10
24.545605
20
-20.23445
30
0
40
1.5
210
0
220
0
230
1
100
AcDbArc
50
90
51
155
0
ARC
5
28D
100
AcDbEntity
8
1
62
256
6
ByLayer
370
18
48
1
60
0
100
AcDbCircle
39
0
10
24.545605
20
20.23445
30
0
40
1.5
210
0
220
0
230
1
100
AcDbArc
50
205
51
270
0
ELLIPSE
5
28E
100
AcDbEntity
8
1
62
256
6
ByLayer
370
18
48
1
60
0
100
AcDbEllipse
10
46.04
20
17.552214
30
0
11
-2.68492727783559
21
3.28797900398848E-16
31
0
210
0
220
0
230
1
40
0.615661
41
0
42
6.28318530717959
0
ELLIPSE
5
28F
100
AcDbEntity
8
1
62
256
6
ByLayer
370
18
48
1
60
0
100
AcDbEllipse
10
46.04
20
37.163946
30
0
11
0.254
21
0
31
0
210
0
220
0
230
1
40
0.990268
41
0.224800162019939
42
2.91679249156985
0
ELLIPSE
5
290
100
AcDbEntity
8
1
62
256
6
ByLayer
370
18
48
1
60
0
100
AcDbEllipse
10
46.845217
20
37.346279
30
0
11
0.572
21
0
31
0
210
0
220
0
230
1
40
0.990268
41
-2.91679249156985
42
-2.11200681424328
0
ELLIPSE
5
291
100
AcDbEntity
8
1
62
256
6
ByLayer
370
18
48
1
60
0
100
AcDbEllipse
10
46.845217
20
37.346279
30
0
11
0.572
21
0
31
0
210
0
220
0
230
1
40
0.990268
41
-2.11200681424328
42
-1.3072211369167
0
ELLIPSE
5
292
100
AcDbEntity
8
1
62
256
6
ByLayer
370
18
48
1
60
0
100
AcDbEllipse
10
47.060418
20
36.556566
30
0
11
0.254
21
0
31
0
210
0
220
0
230
1
40
0.990268
41
0.31631383927771
42
1.83437151667311
0
ELLIPSE
5
293
100
AcDbEntity
8
1
62
256
6
ByLayer
370
18
48
1
60
0
100
AcDbEllipse
10
45.019582
20
36.556566
30
0
11
0.254
21
0
31
0
210
0
220
0
230
1
40
0.990268
41
1.30722113691668
42
2.83802909869513
0
ELLIPSE
5
294
100
AcDbEntity
8
1
62
256
6
ByLayer
370
18
48
1
60
0
100
AcDbEllipse
10
44.396406
20
36.019692
30
0
11
0.572
21
0
31
0
210
0
220
0
230
1
40
0.990268
41
-0.715980242779878
42
3.16052695358574E-07
0
ELLIPSE
5
295
100
AcDbEntity
8
1
62
256
6
ByLayer
370
18
48
1
60
0
100
AcDbEllipse
10
47.683594
20
36.019692
30
0
11
0.572
21
0
31
0
210
0
220
0
230
1
40
0.990268
41
3.1415923375371
42
-2.42561241080991
0
ELLIPSE
5
296
100
AcDbEntity
8
1
62
256
6
ByLayer
370
18
48
1
60
0
100
AcDbEllipse
10
46.04
20
36.082319
30
0
11
2.4
21
0
31
0
210
0
220
0
230
1
40
0.990268
41
-0.950626317404047
42
0
0
ELLIPSE
5
297
100
AcDbEntity
8
1
62
256
6
ByLayer
370
18
48
1
60
0
100
AcDbEllipse
10
46.04
20
36.082319
30
0
11
2.4
21
0
31
0
210
0
220
0
230
1
40
0.990268
41
3.14159252807144
42
-2.19980201968948
0
ELLIPSE
5
298
100
AcDbEntity
8
1
62
256
6
ByLayer
370
18
48
1
60
0
100
AcDbEllipse
10
46.04
20
36.179741
30
0
11
1.4095
21
0
31
0
210
0
220
0
230
1
40
0.990268
41
-0.488375351898146
42
0.488375351898142
0
ELLIPSE
5
299
100
AcDbEntity
8
1
62
256
6
ByLayer
370
18
48
1
60
0
100
AcDbEllipse
10
47.060418
20
35.482817
30
0
11
0.254
21
0
31
0
210
0
220
0
230
1
40
0.990268
41
0.324223772398443
42
0.715980242779874
0
ELLIPSE
5
29A
100
AcDbEntity
8
1
62
256
6
ByLayer
370
18
48
1
60
0
100
AcDbEllipse
10
46.04
20
36.136543
30
0
11
2.4
21
0
31
0
210
0
220
0
230
1
40
0.990268
41
-0.980962347431154
42
0
0
ELLIPSE
5
29B
100
AcDbEntity
8
1
62
256
6
ByLayer
370
18
48
1
60
0
100
AcDbEllipse
10
46.04
20
36.136543
30
0
11
2.4
21
0
31
0
210
0
220
0
230
1
40
0.990268
41
0
42
-2.170349772911
0
ELLIPSE
5
29C
100
AcDbEntity
8
1
62
256
6
ByLayer
370
18
48
1
60
0
100
AcDbEllipse
10
46.04
20
36.179741
30
0
11
1.4095
21
0
31
0
210
0
220
0
230
1
40
0.990268
41
0.488375351898142
42
1.5707963267949
0
ELLIPSE
5
29D
100
AcDbEntity
8
1
62
256
6
ByLayer
370
18
48
1
60
0
100
AcDbEllipse
10
46.04
20
36.179741
30
0
11
1.4095
21
0
31
0
210
0
220
0
230
1
40
0.990268
41
1.5707963267949
42
2.65321730169165
0
ELLIPSE
5
29E
100
AcDbEntity
8
1
62
256
6
ByLayer
370
18
48
1
60
0
100
AcDbEllipse
10
46.04
20
36.179741
30
0
11
1.5
21
0
31
0
210
0
220
0
230
1
40
0.990268
41
0
42
6.28318530717959
0
ELLIPSE
5
29F
100
AcDbEntity
8
1
62
256
6
ByLayer
370
18
48
1
60
0
100
AcDbEllipse
10
46.04
20
36.179741
30
0
11
1.4095
21
0
31
0
210
0
220
0
230
1
40
0.990268
41
-1.5707963267949
42
-0.488375351898146
0
ELLIPSE
5
2A0
100
AcDbEntity
8
1
62
256
6
ByLayer
370
18
48
1
60
0
100
AcDbEllipse
10
46.04
20
36.179741
30
0
11
1.4095
21
0
31
0
210
0
220
0
230
1
40
0.990268
41
2.65321730169165
42
-2.65321730169165
0
ELLIPSE
5
2A1
100
AcDbEntity
8
1
62
256
6
ByLayer
370
18
48
1
60
0
100
AcDbEllipse
10
46.04
20
36.179741
30
0
11
1.4095
21
0
31
0
210
0
220
0
230
1
40
0.990268
41
-2.65321730169165
42
-1.5707963267949
0
ELLIPSE
5
2A2
100
AcDbEntity
8
1
62
256
6
ByLayer
370
18
48
1
60
0
100
AcDbEllipse
10
46.040122
20
-33.387828
30
0
11
1.48460847332989E-06
21
6.41916728419845
31
0
210
0
220
0
230
1
40
0.701007
41
-1.58252435343818
42
-1.57079599687144
0
ELLIPSE
5
2A3
100
AcDbEntity
8
1
62
256
6
ByLayer
370
18
48
1
60
0
100
AcDbEllipse
10
46.04
20
-33.572975
30
0
11
4.50000005560778
21
-4.50690001195624E-09
31
0
210
0
220
0
230
1
40
0.50076
41
-0.157355566127929
42
-0.0772377315893404
0
ELLIPSE
5
2A4
100
AcDbEntity
8
1
62
256
6
ByLayer
370
18
48
1
60
0
100
AcDbEllipse
10
46.04
20
-33.226525
30
0
11
4.5
21
0
31
0
210
0
220
0
230
1
40
0.96363
41
-0.238914101436054
42
-0.186656495865845
0
ELLIPSE
5
2A5
100
AcDbEntity
8
1
62
256
6
ByLayer
370
18
48
1
60
0
100
AcDbEllipse
10
46.04
20
-32.693521
30
0
11
3.58524534203761E-08
21
6.41925399355649
31
0
210
0
220
0
230
1
40
0.701016
41
-1.92310037694607
42
-1.8395346106747
0
ELLIPSE
5
2A6
100
AcDbEntity
8
1
62
256
6
ByLayer
370
18
48
1
60
0
100
AcDbEllipse
10
46.04
20
-34.267281
30
0
11
4.50000002292886
21
-6.86654846786341E-09
31
0
210
0
220
0
230
1
40
0.50076
41
-0.512136016367757
42
-0.42299606361432
0
ELLIPSE
5
2A7
100
AcDbEntity
8
1
62
256
6
ByLayer
370
18
48
1
60
0
100
AcDbEllipse
10
46.04
20
-33.226525
30
0
11
-4.5
21
5.5107285922007E-16
31
0
210
0
220
0
230
1
40
0.96363
41
2.53510986739829
42
2.59601982874716
0
ELLIPSE
5
2A8
100
AcDbEntity
8
1
62
256
6
ByLayer
370
18
48
1
60
0
100
AcDbEllipse
10
46.04
20
-31.999216
30
0
11
6.25890602025939E-09
21
-6.41925404887853
31
0
210
0
220
0
230
1
40
0.701016
41
0.825221023688192
42
0.928733742954821
0
ELLIPSE
5
2A9
100
AcDbEntity
8
1
62
256
6
ByLayer
370
18
48
1
60
0
100
AcDbEllipse
10
46.04
20
-34.961587
30
0
11
4.49999999675478
21
1.52653017692935E-09
31
0
210
0
220
0
230
1
40
0.50076
41
-0.967330420425533
42
-0.838779050323689
0
ELLIPSE
5
2AA
100
AcDbEntity
8
1
62
256
6
ByLayer
370
18
48
1
60
0
100
AcDbEllipse
10
46.04
20
-33.226525
30
0
11
-4.5
21
5.5107285922007E-16
31
0
210
0
220
0
230
1
40
0.96363
41
2.01415871276819
42
2.12133818049203
0
ELLIPSE
5
2AB
100
AcDbEntity
8
1
62
256
6
ByLayer
370
18
48
1
60
0
100
AcDbEllipse
10
46.04
20
-31.30491
30
0
11
3.93052964355198E-16
21
6.41925404238444
31
0
210
0
220
0
230
1
40
0.701016
41
2.7711906293615
42
-2.7711906293615
0
ELLIPSE
5
2AC
100
AcDbEntity
8
1
62
256
6
ByLayer
370
18
48
1
60
0
100
AcDbEllipse
10
46.04
20
-33.226525
30
0
11
-4.5
21
5.5107285922007E-16
31
0
210
0
220
0
230
1
40
0.96363
41
1.02025447309776
42
1.1274339408216
0
ELLIPSE
5
2AD
100
AcDbEntity
8
1
62
256
6
ByLayer
370
18
48
1
60
0
100
AcDbEllipse
10
46.04
20
-34.961587
30
0
11
4.49999999882833
21
5.2715491392488E-15
31
0
210
0
220
0
230
1
40
0.50076
41
-2.30281360369645
42
-2.17426223362597
0
ELLIPSE
5
2AE
100
AcDbEntity
8
1
62
256
6
ByLayer
370
18
48
1
60
0
100
AcDbEllipse
10
46.04
20
-31.999216
30
0
11
8.70420514992662E-09
21
6.41925405140949
31
0
210
0
220
0
230
1
40
0.701016
41
2.21285891105118
42
2.31637163028855
0
ELLIPSE
5
2AF
100
AcDbEntity
8
1
62
256
6
ByLayer
370
18
48
1
60
0
100
AcDbEllipse
10
46.04
20
-33.226525
30
0
11
-4.5
21
5.5107285922007E-16
31
0
210
0
220
0
230
1
40
0.96363
41
0.545572824842631
42
0.606482786191506
0
ELLIPSE
5
2B0
100
AcDbEntity
8
1
62
256
6
ByLayer
370
18
48
1
60
0
100
AcDbEllipse
10
46.04
20
-34.267281
30
0
11
4.50000000703358
21
2.19935697574691E-09
31
0
210
0
220
0
230
1
40
0.50076
41
-2.71859658874705
42
-2.62945663581921
0
ELLIPSE
5
2B1
100
AcDbEntity
8
1
62
256
6
ByLayer
370
18
48
1
60
0
100
AcDbEllipse
10
46.04
20
-32.693521
30
0
11
2.27670009097858E-08
21
6.41925407334695
31
0
210
0
220
0
230
1
40
0.701016
41
1.83953462086734
42
1.92310038618837
0
ELLIPSE
5
2B2
100
AcDbEntity
8
1
62
256
6
ByLayer
370
18
48
1
60
0
100
AcDbEllipse
10
46.04
20
-33.226525
30
0
11
4.5
21
0
31
0
210
0
220
0
230
1
40
0.96363
41
-2.95493615772395
42
-2.90267855215374
0
ELLIPSE
5
2B3
100
AcDbEntity
8
1
62
256
6
ByLayer
370
18
48
1
60
0
100
AcDbEllipse
10
46.04
20
-33.572975
30
0
11
4.5000000510445
21
4.18026245940713E-09
31
0
210
0
220
0
230
1
40
0.50076
41
-3.06435492192512
42
-2.98423708734566
0
ELLIPSE
5
2B4
100
AcDbEntity
8
1
62
256
6
ByLayer
370
18
48
1
60
0
100
AcDbEllipse
10
46.039879
20
-33.387828
30
0
11
1.47891129181817E-06
21
-6.41916766022489
31
0
210
0
220
0
230
1
40
0.701007
41
-1.57079665545224
42
-1.55906829957251
0
ELLIPSE
5
2B5
100
AcDbEntity
8
1
62
256
6
ByLayer
370
18
48
1
60
0
100
AcDbEllipse
10
46.04
20
-35.244354
30
0
11
4.5
21
5.27154914062136E-15
31
0
210
0
220
0
230
1
40
0.998813
41
-2.97819660562202
42
-0.163396047966423
0
ELLIPSE
5
2B6
100
AcDbEntity
8
1
62
256
6
ByLayer
370
18
48
1
60
0
100
AcDbEllipse
10
46.04
20
36.252451
30
0
11
-4.7625
21
5.83218776007907E-16
31
0
210
0
220
0
230
1
40
0.990268
41
0
42
0.725020589308667
0
ELLIPSE
5
2B7
100
AcDbEntity
8
1
62
256
6
ByLayer
370
18
48
1
60
0
100
AcDbEllipse
10
46.04
20
36.252451
30
0
11
-4.7625
21
5.83218776007907E-16
31
0
210
0
220
0
230
1
40
0.990268
41
2.41598287336822
42
0
0
ELLIPSE
5
2B8
100
AcDbEntity
8
1
62
256
6
ByLayer
370
18
48
1
60
0
100
AcDbEllipse
10
46.04
20
18.158723
30
0
11
-0.254
21
3.11050013870884E-17
31
0
210
0
220
0
230
1
40
0.615661
41
0.224800162019943
42
2.91679249156985
0
ELLIPSE
5
2B9
100
AcDbEntity
8
1
62
256
6
ByLayer
370
18
48
1
60
0
100
AcDbEllipse
10
46.04
20
-35.699934
30
0
11
4.27504529321547
21
0
31
0
210
0
220
0
230
1
40
0.990268
41
-2.64679177290583
42
-0.494899007037327
0
ELLIPSE
5
2BA
100
AcDbEntity
8
1
62
256
6
ByLayer
370
18
48
1
60
0
100
AcDbEllipse
10
46.04
20
17.986781
30
0
11
5.49999999999998
21
6.44300450520386E-15
31
0
210
0
220
0
230
1
40
0.719405
41
-2.52903791525056
42
-0.612554738339433
0
ELLIPSE
5
2BB
100
AcDbEntity
8
1
62
256
6
ByLayer
370
18
48
1
60
0
100
AcDbEllipse
10
46.04
20
20.582115
30
0
11
-4.57377405045311
21
5.60107276313279E-16
31
0
210
0
220
0
230
1
40
0.615661
41
2.88380433257776
42
2.96174078689338
0
ELLIPSE
5
2BC
100
AcDbEntity
8
1
62
256
6
ByLayer
370
18
48
1
60
0
100
AcDbEllipse
10
46.04
20
20.582115
30
0
11
-4.57377405045311
21
5.60107276313279E-16
31
0
210
0
220
0
230
1
40
0.615661
41
0.179851866695665
42
0.257788321011298
0
ELLIPSE
5
2BD
100
AcDbEntity
8
1
62
256
6
ByLayer
370
18
48
1
60
0
100
AcDbEllipse
10
46.04
20
17.883178
30
0
11
-5.5
21
6.73533494602307E-16
31
0
210
0
220
0
230
1
40
0.615661
41
0.61255473833924
42
2.52903791525036
0
ELLIPSE
5
2BE
100
AcDbEntity
8
1
62
256
6
ByLayer
370
18
48
1
60
0
100
AcDbEllipse
10
46.04
20
20.680616
30
0
11
4.44877405045311
21
0
31
0
210
0
220
0
230
1
40
0.615661
41
3.07900116538004
42
-2.95723643887864
0
ELLIPSE
5
2BF
100
AcDbEntity
8
1
62
256
6
ByLayer
370
18
48
1
60
0
100
AcDbEllipse
10
46.04
20
20.680616
30
0
11
4.44877405045311
21
0
31
0
210
0
220
0
230
1
40
0.615661
41
-0.184356214712486
42
0.0625914882083877
0
ELLIPSE
5
2C0
100
AcDbEntity
8
1
62
256
6
ByLayer
370
18
48
1
60
0
100
AcDbEllipse
10
46.04
20
24.781045
30
0
11
7.99742340638244E-09
21
8.67267412530484
31
0
210
0
220
0
230
1
40
0.518871
41
-1.49355859285417
42
-1.4134407582395
0
ELLIPSE
5
2C1
100
AcDbEntity
8
1
62
256
6
ByLayer
370
18
48
1
60
0
100
AcDbEllipse
10
46.04
20
25.689711
30
0
11
4.5
21
0
31
0
210
0
220
0
230
1
40
0.71325
41
0.186656495865847
42
0.238914101436054
0
ELLIPSE
5
2C2
100
AcDbEntity
8
1
62
256
6
ByLayer
370
18
48
1
60
0
100
AcDbEllipse
10
46.04
20
27.087665
30
0
11
4.4999999528744
21
9.64765984566436E-09
31
0
210
0
220
0
230
1
40
0.50076
41
-0.352304058703091
42
-0.268738292554181
0
ELLIPSE
5
2C3
100
AcDbEntity
8
1
62
256
6
ByLayer
370
18
48
1
60
0
100
AcDbEllipse
10
46.04
20
22.96003
30
0
11
5.31030588991416E-16
21
8.67267407741115
31
0
210
0
220
0
230
1
40
0.518871
41
-1.14780026136635
42
-1.05866030834316
0
ELLIPSE
5
2C4
100
AcDbEntity
8
1
62
256
6
ByLayer
370
18
48
1
60
0
100
AcDbEllipse
10
46.04
20
25.689711
30
0
11
-4.5
21
5.5107285922007E-16
31
0
210
0
220
0
230
1
40
0.71325
41
-2.59601982874716
42
-2.53510986739829
0
ELLIPSE
5
2C5
100
AcDbEntity
8
1
62
256
6
ByLayer
370
18
48
1
60
0
100
AcDbEllipse
10
46.04
20
28.908681
30
0
11
4.50000001366348
21
-5.66213987719377E-09
31
0
210
0
220
0
230
1
40
0.50076
41
-0.745575300442
42
-0.642062581298894
0
ELLIPSE
5
2C6
100
AcDbEntity
8
1
62
256
6
ByLayer
370
18
48
1
60
0
100
AcDbEllipse
10
46.04
20
21.139014
30
0
11
5.3103058877938E-16
21
8.67267407394822
31
0
210
0
220
0
230
1
40
0.518871
41
-0.732017276948525
42
-0.603465906849773
0
ELLIPSE
5
2C7
100
AcDbEntity
8
1
62
256
6
ByLayer
370
18
48
1
60
0
100
AcDbEllipse
10
46.04
20
25.689711
30
0
11
-4.5
21
5.5107285922007E-16
31
0
210
0
220
0
230
1
40
0.71325
41
-2.12133818049203
42
-2.01415871276819
0
ELLIPSE
5
2C8
100
AcDbEntity
8
1
62
256
6
ByLayer
370
18
48
1
60
0
100
AcDbEllipse
10
46.04
20
30.729697
30
0
11
4.50000000000268
21
5.27154914062449E-15
31
0
210
0
220
0
230
1
40
0.50076
41
-1.94119835102287
42
-1.20039430256692
0
ELLIPSE
5
2C9
100
AcDbEntity
8
1
62
256
6
ByLayer
370
18
48
1
60
0
100
AcDbEllipse
10
46.04
20
25.689711
30
0
11
-4.5
21
5.5107285922007E-16
31
0
210
0
220
0
230
1
40
0.71325
41
-1.1274339408216
42
-1.02025447309776
0
ELLIPSE
5
2CA
100
AcDbEntity
8
1
62
256
6
ByLayer
370
18
48
1
60
0
100
AcDbEllipse
10
46.04
20
21.139014
30
0
11
4.53811280357053E-09
21
-8.67267408947416
31
0
210
0
220
0
230
1
40
0.518871
41
-2.5381267473538
42
-2.40957537741636
0
ELLIPSE
5
2CB
100
AcDbEntity
8
1
62
256
6
ByLayer
370
18
48
1
60
0
100
AcDbEllipse
10
46.04
20
28.908681
30
0
11
4.50000001114587
21
4.60876265869914E-09
31
0
210
0
220
0
230
1
40
0.50076
41
-2.49953007202148
42
-2.39601735284165
0
ELLIPSE
5
2CC
100
AcDbEntity
8
1
62
256
6
ByLayer
370
18
48
1
60
0
100
AcDbEllipse
10
46.04
20
25.689711
30
0
11
-4.5
21
5.5107285922007E-16
31
0
210
0
220
0
230
1
40
0.71325
41
-0.606482786191505
42
-0.545572824842632
0
ELLIPSE
5
2CD
100
AcDbEntity
8
1
62
256
6
ByLayer
370
18
48
1
60
0
100
AcDbEllipse
10
46.04
20
22.96003
30
0
11
1.56193460471082E-08
21
8.67267404594282
31
0
210
0
220
0
230
1
40
0.518871
41
1.05866031044809
42
1.14780026373628
0
ELLIPSE
5
2CE
100
AcDbEntity
8
1
62
256
6
ByLayer
370
18
48
1
60
0
100
AcDbEllipse
10
46.04
20
27.087665
30
0
11
4.50000003183629
21
6.49150865234596E-09
31
0
210
0
220
0
230
1
40
0.50076
41
-2.87285436512521
42
-2.78928859974563
0
ELLIPSE
5
2CF
100
AcDbEntity
8
1
62
256
6
ByLayer
370
18
48
1
60
0
100
AcDbEllipse
10
46.04
20
25.689711
30
0
11
4.5
21
0
31
0
210
0
220
0
230
1
40
0.71325
41
2.90267855215374
42
2.95493615772395
0
ELLIPSE
5
2D0
100
AcDbEntity
8
1
62
256
6
ByLayer
370
18
48
1
60
0
100
AcDbEllipse
10
46.04
20
24.781045
30
0
11
7.75506743036279E-09
21
-8.67267412387635
31
0
210
0
220
0
230
1
40
0.518871
41
-1.72815189532179
42
-1.64803406069412
0
ELLIPSE
5
2D1
100
AcDbEntity
8
1
62
256
6
ByLayer
370
18
48
1
60
0
100
AcDbEllipse
10
46.039879
20
25.266649
30
0
11
4.49987948744509
21
-5.00480787675675E-07
31
0
210
0
220
0
230
1
40
0.500767
41
-3.14159259789559
42
-3.12986424278656
0
ELLIPSE
5
2D2
100
AcDbEntity
8
1
62
256
6
ByLayer
370
18
48
1
60
0
100
AcDbEllipse
10
46.04
20
20.397377
30
0
11
4.5
21
5.27154914062136E-15
31
0
210
0
220
0
230
1
40
0.620974
41
2.5608143699341
42
2.97819660562202
0
ELLIPSE
5
2D3
100
AcDbEntity
8
1
62
256
6
ByLayer
370
18
48
1
60
0
100
AcDbEllipse
10
46.04
20
20.397377
30
0
11
4.5
21
5.27154914062136E-15
31
0
210
0
220
0
230
1
40
0.620974
41
0.163396047966421
42
0.580778283654572
0
ELLIPSE
5
2D4
100
AcDbEntity
8
1
62
256
6
ByLayer
370
18
48
1
60
0
100
AcDbEllipse
10
46.040121
20
25.266649
30
0
11
4.49987873730852
21
5.03237263055596E-07
31
0
210
0
220
0
230
1
40
0.500767
41
-0.0117284120875808
42
-5.60009656702606E-08
0
ELLIPSE
5
2D5
100
AcDbEntity
8
1
62
256
6
ByLayer
370
18
48
1
60
0
100
AcDbEllipse
10
46.04
20
36.175701
30
0
11
5.49999999999999
21
6.44300450520387E-15
31
0
210
0
220
0
230
1
40
0.971946
41
-2.52903791525056
42
-2.40222057147213
0
ELLIPSE
5
2D6
100
AcDbEntity
8
1
62
256
6
ByLayer
370
18
48
1
60
0
100
AcDbEllipse
10
46.04
20
36.175701
30
0
11
5.49999999999999
21
6.44300450520387E-15
31
0
210
0
220
0
230
1
40
0.971946
41
-0.741498191267549
42
-0.612554738339433
0
ELLIPSE
5
2D7
100
AcDbEntity
8
1
62
256
6
ByLayer
370
18
48
1
60
0
100
AcDbEllipse
10
46.04
20
36.144389
30
0
11
2.6306317708204
21
0
31
0
210
0
220
0
230
1
40
0.990268
41
-0.502949389867923
42
0
0
ELLIPSE
5
2D8
100
AcDbEntity
8
1
62
256
6
ByLayer
370
18
48
1
60
0
100
AcDbEllipse
10
46.04
20
36.144389
30
0
11
2.6306317708204
21
0
31
0
210
0
220
0
230
1
40
0.990268
41
2.63275273566182
42
-2.63874152192354
0
ELLIPSE
5
2D9
100
AcDbEntity
8
1
62
256
6
ByLayer
370
13
48
1
60
0
100
AcDbEllipse
10
46.04
20
36.144389
30
0
11
2.6306317708204
21
0
31
0
210
0
220
0
230
1
40
0.990268
41
0.562836032552563
42
2.63275273566182
0
ELLIPSE
5
2DA
100
AcDbEntity
8
1
62
256
6
ByLayer
370
18
48
1
60
0
100
AcDbEllipse
10
46.04
20
36.144389
30
0
11
2.6306317708204
21
0
31
0
210
0
220
0
230
1
40
0.990268
41
0
42
0.562836072490352
0
ELLIPSE
5
2DB
100
AcDbEntity
8
1
62
256
6
ByLayer
370
18
48
1
60
0
100
AcDbEllipse
10
46.04
20
-17.552214
30
0
11
-4.7625
21
5.83218776007907E-16
31
0
210
0
220
0
230
1
40
0.615661
41
3.04557782646382
42
-2.80809294637145
0
ELLIPSE
5
2DC
100
AcDbEntity
8
1
62
256
6
ByLayer
370
18
48
1
60
0
100
AcDbEllipse
10
45.019582
20
18.536339
30
0
11
-0.254
21
3.11050013870884E-17
31
0
210
0
220
0
230
1
40
0.615661
41
1.3678976057881
42
1.83437151667311
0
ELLIPSE
5
2DD
100
AcDbEntity
8
1
62
256
6
ByLayer
370
18
48
1
60
0
100
AcDbEllipse
10
47.060418
20
18.536339
30
0
11
-0.254
21
3.11050013870884E-17
31
0
210
0
220
0
230
1
40
0.615661
41
1.30722113691669
42
1.77369504780169
0
ELLIPSE
5
2DE
100
AcDbEntity
8
1
62
256
6
ByLayer
370
18
48
1
60
0
100
AcDbEllipse
10
46.04
20
18.87012
30
0
11
0.991
21
0
31
0
210
0
220
0
230
1
40
0.615661
41
-2.11200681424327
42
-1.02958583934652
0
ELLIPSE
5
2DF
100
AcDbEntity
8
1
62
256
6
ByLayer
370
18
48
1
60
0
100
AcDbEllipse
10
46.04
20
18.87012
30
0
11
0.991
21
0
31
0
210
0
220
0
230
1
40
0.615661
41
-1.02958583934652
42
-0.537700738428568
0
ELLIPSE
5
2E0
100
AcDbEntity
8
1
62
256
6
ByLayer
370
18
48
1
60
0
100
AcDbEllipse
10
46.04
20
18.87012
30
0
11
0.991
21
0
31
0
210
0
220
0
230
1
40
0.615661
41
-2.60553200630034
42
-2.11200681424327
0
ELLIPSE
5
2E1
100
AcDbEntity
8
1
62
256
6
ByLayer
370
18
48
1
60
0
100
AcDbEllipse
10
46.04
20
17.963908
30
0
11
-1.4095
21
1.72608265571264E-16
31
0
210
0
220
0
230
1
40
0.615661
41
-2.65321730169166
42
-1.5707963267949
0
ELLIPSE
5
2E2
100
AcDbEntity
8
1
62
256
6
ByLayer
370
18
48
1
60
0
100
AcDbEllipse
10
46.04
20
17.963908
30
0
11
-1.4095
21
1.72608265571264E-16
31
0
210
0
220
0
230
1
40
0.615661
41
2.65321730169165
42
-2.65321730169166
0
ELLIPSE
5
2E3
100
AcDbEntity
8
1
62
256
6
ByLayer
370
18
48
1
60
0
100
AcDbEllipse
10
46.04
20
17.963908
30
0
11
-1.4095
21
1.72608265571264E-16
31
0
210
0
220
0
230
1
40
0.615661
41
1.5707963267949
42
2.65321730169165
0
ELLIPSE
5
2E4
100
AcDbEntity
8
1
62
256
6
ByLayer
370
18
48
1
60
0
100
AcDbEllipse
10
46.04
20
17.963908
30
0
11
-1.4095
21
1.72608265571264E-16
31
0
210
0
220
0
230
1
40
0.615661
41
0.488375351898145
42
1.5707963267949
0
ELLIPSE
5
2E5
100
AcDbEntity
8
1
62
256
6
ByLayer
370
18
48
1
60
0
100
AcDbEllipse
10
46.04
20
17.963908
30
0
11
-1.4095
21
1.72608265571264E-16
31
0
210
0
220
0
230
1
40
0.615661
41
-0.488375351898141
42
0.488375351898145
0
ELLIPSE
5
2E6
100
AcDbEntity
8
1
62
256
6
ByLayer
370
18
48
1
60
0
100
AcDbEllipse
10
46.04
20
17.963908
30
0
11
-1.4095
21
1.72608265571264E-16
31
0
210
0
220
0
230
1
40
0.615661
41
-1.5707963267949
42
-0.488375351898141
0
ELLIPSE
5
2E7
100
AcDbEntity
8
1
62
256
6
ByLayer
370
18
48
1
60
0
100
AcDbEllipse
10
46.04
20
17.963908
30
0
11
-1.5
21
1.83690953073357E-16
31
0
210
0
220
0
230
1
40
0.615661
41
0
42
6.28318530717959
0
ELLIPSE
5
2E8
100
AcDbEntity
8
1
62
256
6
ByLayer
370
18
48
1
60
0
100
AcDbEllipse
10
46.04
20
18.208494
30
0
11
-2.4
21
2.93905524917371E-16
31
0
210
0
220
0
230
1
40
0.615661
41
-0.06116310581628
42
0
0
ELLIPSE
5
2E9
100
AcDbEntity
8
1
62
256
6
ByLayer
370
18
48
1
60
0
100
AcDbEllipse
10
46.04
20
18.208494
30
0
11
-2.4
21
2.93905524917371E-16
31
0
210
0
220
0
230
1
40
0.615661
41
0
42
-3.08052802061678
0
ELLIPSE
5
2EA
100
AcDbEntity
8
1
62
256
6
ByLayer
370
18
48
1
60
0
100
AcDbEllipse
10
45.019582
20
35.482817
30
0
11
0.254
21
0
31
0
210
0
220
0
230
1
40
0.990268
41
2.42561241080992
42
2.83582249062885
0
ELLIPSE
5
2EB
100
AcDbEntity
8
1
62
256
6
ByLayer
370
18
48
1
60
0
100
AcDbEllipse
10
46.04
20
20.680616
30
0
11
4.27504529321547
21
0
31
0
210
0
220
0
230
1
40
0.615661
41
0.0961130343358721
42
3.0455777213818
0
ELLIPSE
5
2EC
100
AcDbEntity
8
1
62
256
6
ByLayer
370
18
48
1
60
0
100
AcDbEllipse
10
46.04
20
17.552214
30
0
11
4.7625
21
0
31
0
210
0
220
0
230
1
40
0.615661
41
0
42
6.28318530717959
0
ELLIPSE
5
2ED
100
AcDbEntity
8
1
62
256
6
ByLayer
370
18
48
1
60
0
100
AcDbEllipse
10
46.0375
20
-26.032671
30
0
11
1
21
0
31
0
210
0
220
0
230
1
40
0.566329
41
0
42
6.28318530717959
0
ELLIPSE
5
2EE
100
AcDbEntity
8
1
62
256
6
ByLayer
370
13
48
1
60
0
100
AcDbEllipse
10
46.0375
20
-26.032671
30
0
11
1.4
21
0
31
0
210
0
220
0
230
1
40
0.566329
41
-3.14159265358979
42
-4.48088059716992E-15
0
ELLIPSE
5
2EF
100
AcDbEntity
8
1
62
256
6
ByLayer
370
13
48
1
60
0
100
AcDbEllipse
10
44.6375
20
-26.115089
30
0
11
0.1
21
0
31
0
210
0
220
0
230
1
40
0.824179
41
1.5707963267949
42
-3.14159265358971
0
ELLIPSE
5
2F0
100
AcDbEntity
8
1
62
256
6
ByLayer
370
13
48
1
60
0
100
AcDbEllipse
10
47.4375
20
-26.115089
30
0
11
-0.1
21
1.22460635382238E-17
31
0
210
0
220
0
230
1
40
0.824179
41
3.14159265358975
42
-1.5707963267949
0
ELLIPSE
5
2F1
100
AcDbEntity
8
1
62
256
6
ByLayer
370
13
48
1
60
0
100
AcDbEllipse
10
46.0375
20
-26.115089
30
0
11
-1.5
21
1.83690953073357E-16
31
0
210
0
220
0
230
1
40
0.566329
41
0
42
3.14159265358979
0
ELLIPSE
5
2F2
100
AcDbEntity
8
1
62
256
6
ByLayer
370
18
48
1
60
0
100
AcDbEllipse
10
50.25252
20
26.504871
30
0
11
0.0427681553741768
21
0.14961274529031
31
0
210
0
220
0
230
1
40
0.251859
41
2.41934008727095
42
-2.81664766870688
0
ELLIPSE
5
2F3
100
AcDbEntity
8
1
62
256
6
ByLayer
370
18
48
1
60
0
100
AcDbEllipse
10
41.82248
20
26.504871
30
0
11
0.0427681553740677
21
-0.149612745289883
31
0
210
0
220
0
230
1
40
0.251859
41
-0.324944984883204
42
0.722252566319871
0
ELLIPSE
5
2F4
100
AcDbEntity
8
1
62
256
6
ByLayer
370
18
48
1
60
0
100
AcDbEllipse
10
46.04
20
-36.252451
30
0
11
4.7625
21
0
31
0
210
0
220
0
230
1
40
0.990268
41
2.80809304368256
42
0
0
ELLIPSE
5
2F5
100
AcDbEntity
8
1
62
256
6
ByLayer
370
18
48
1
60
0
100
AcDbEllipse
10
46.04
20
-36.252451
30
0
11
4.7625
21
0
31
0
210
0
220
0
230
1
40
0.990268
41
0
42
0.333597941245227
0
ELLIPSE
5
2F6
100
AcDbEntity
8
1
62
256
6
ByLayer
370
18
48
1
60
0
100
AcDbEllipse
10
46.0375
20
2.47526
30
0
11
-1
21
1.22460635382238E-16
31
0
210
0
220
0
230
1
40
0.996925
41
0
42
6.28318530717959
0
ELLIPSE
5
2F7
100
AcDbEntity
8
1
62
256
6
ByLayer
370
18
48
1
60
0
100
AcDbEllipse
10
46.04
20
36.252451
30
0
11
2.68492727783559
21
0
31
0
210
0
220
0
230
1
40
0.990268
41
-0.93403484409059
42
0
0
ELLIPSE
5
2F8
100
AcDbEntity
8
1
62
256
6
ByLayer
370
18
48
1
60
0
100
AcDbEllipse
10
46.04
20
36.252451
30
0
11
2.68492727783559
21
0
31
0
210
0
220
0
230
1
40
0.990268
41
0
42
-2.207361533216
0
ELLIPSE
5
2F9
100
AcDbEntity
8
1
62
256
6
ByLayer
370
13
48
1
60
0
100
AcDbEllipse
10
47.4375
20
2.483097
30
0
11
-0.1
21
1.22460635382238E-17
31
0
210
0
220
0
230
1
40
0.078365
41
1.5707963267949
42
2.33980055092353
0
ELLIPSE
5
2FA
100
AcDbEntity
8
1
62
256
6
ByLayer
370
13
48
1
60
0
100
AcDbEllipse
10
46.0375
20
2.47526
30
0
11
-1.4
21
1.71444889535133E-16
31
0
210
0
220
0
230
1
40
0.996925
41
0
42
0.266397256883645
0
ELLIPSE
5
2FB
100
AcDbEntity
8
1
62
256
6
ByLayer
370
13
48
1
60
0
100
AcDbEllipse
10
46.0375
20
2.47526
30
0
11
-1.4
21
1.71444889535133E-16
31
0
210
0
220
0
230
1
40
0.996925
41
2.89811925884851
42
3.14159265358979
0
ELLIPSE
5
2FC
100
AcDbEntity
8
1
62
256
6
ByLayer
370
13
48
1
60
0
100
AcDbEllipse
10
44.6375
20
2.483097
30
0
11
0.1
21
0
31
0
210
0
220
0
230
1
40
0.078365
41
-2.37656010871275
42
-1.5707963267949
0
ELLIPSE
5
2FD
100
AcDbEntity
8
1
62
256
6
ByLayer
370
18
48
1
60
0
100
AcDbEllipse
10
45.234783
20
18.045365
30
0
11
-0.572
21
7.004748343864E-17
31
0
210
0
220
0
230
1
40
0.615661
41
-2.11200681424327
42
-1.3072211369167
0
ELLIPSE
5
2FE
100
AcDbEntity
8
1
62
256
6
ByLayer
370
18
48
1
60
0
100
AcDbEllipse
10
46.845217
20
18.045365
30
0
11
-0.572
21
7.004748343864E-17
31
0
210
0
220
0
230
1
40
0.615661
41
-1.83437151667309
42
-1.02958583934652
0
ELLIPSE
5
2FF
100
AcDbEntity
8
1
62
256
6
ByLayer
370
18
48
1
60
0
100
AcDbEllipse
10
46.845217
20
18.045365
30
0
11
-0.572
21
7.004748343864E-17
31
0
210
0
220
0
230
1
40
0.615661
41
-1.02958583934652
42
-0.224800162019942
0
ELLIPSE
5
300
100
AcDbEntity
8
1
62
256
6
ByLayer
370
18
48
1
60
0
100
AcDbEllipse
10
45.234783
20
18.045365
30
0
11
-0.572
21
7.004748343864E-17
31
0
210
0
220
0
230
1
40
0.615661
41
-2.91679249156985
42
-2.11200681424327
0
ELLIPSE
5
301
100
AcDbEntity
8
1
62
256
6
ByLayer
370
18
48
1
60
0
100
AcDbEllipse
10
45.234783
20
37.346279
30
0
11
0.572
21
0
31
0
210
0
220
0
230
1
40
0.990268
41
-1.02958583934651
42
-0.224800162019939
0
ELLIPSE
5
302
100
AcDbEntity
8
1
62
256
6
ByLayer
370
18
48
1
60
0
100
AcDbEllipse
10
46.0375
20
-19.763374
30
0
11
2.25
21
0
31
0
210
0
220
0
230
1
40
0.700909
41
-2.79582138406099
42
-0.346557368617652
0
ELLIPSE
5
303
100
AcDbEntity
8
1
62
256
6
ByLayer
370
18
48
1
60
0
100
AcDbEllipse
10
46.0375
20
-19.228436
30
0
11
3
21
0
31
0
210
0
220
0
230
1
40
0.700909
41
-2.67486969387431
42
-1.7571318626286
0
ELLIPSE
5
304
100
AcDbEntity
8
1
62
256
6
ByLayer
370
18
48
1
60
0
100
AcDbEllipse
10
46.0375
20
-19.228436
30
0
11
3
21
0
31
0
210
0
220
0
230
1
40
0.700909
41
-1.38455866058503
42
-0.467606233864524
0
ELLIPSE
5
305
100
AcDbEntity
8
1
62
256
6
ByLayer
370
18
48
1
60
0
100
AcDbEllipse
10
46.040121
20
-8.121179
30
0
11
1.02747553724475E-06
21
8.67255761507437
31
0
210
0
220
0
230
1
40
0.518864
41
-1.58252445401176
42
-1.57079609845932
0
ELLIPSE
5
306
100
AcDbEntity
8
1
62
256
6
ByLayer
370
18
48
1
60
0
100
AcDbEllipse
10
46.04
20
-8.79193
30
0
11
1.18440482542066E-08
21
6.41925407795451
31
0
210
0
220
0
230
1
40
0.701016
41
-1.49355859201353
42
-1.41344075741372
0
ELLIPSE
5
307
100
AcDbEntity
8
1
62
256
6
ByLayer
370
18
48
1
60
0
100
AcDbEllipse
10
46.04
20
-7.536813
30
0
11
4.5
21
0
31
0
210
0
220
0
230
1
40
0.25038
41
-0.238914101436056
42
-0.186656495865844
0
ELLIPSE
5
308
100
AcDbEntity
8
1
62
256
6
ByLayer
370
18
48
1
60
0
100
AcDbEllipse
10
46.04
20
-5.605856
30
0
11
1.63952361066351E-08
21
-8.67267412220843
31
0
210
0
220
0
230
1
40
0.518871
41
1.218492268871
42
1.30205803417867
0
ELLIPSE
5
309
100
AcDbEntity
8
1
62
256
6
ByLayer
370
18
48
1
60
0
100
AcDbEllipse
10
46.04
20
-11.307251
30
0
11
3.93052964355289E-16
21
6.41925404238592
31
0
210
0
220
0
230
1
40
0.701016
41
-1.14780026140387
42
-1.05866030839779
0
ELLIPSE
5
30A
100
AcDbEntity
8
1
62
256
6
ByLayer
370
18
48
1
60
0
100
AcDbEllipse
10
46.04
20
-7.536813
30
0
11
-4.5
21
5.5107285922007E-16
31
0
210
0
220
0
230
1
40
0.25038
41
2.53510986739829
42
2.59601982874716
0
ELLIPSE
5
30B
100
AcDbEntity
8
1
62
256
6
ByLayer
370
18
48
1
60
0
100
AcDbEllipse
10
46.04
20
-3.090535
30
0
11
8.65943966960708E-09
21
-8.672674096349
31
0
210
0
220
0
230
1
40
0.518871
41
0.825221023537818
42
0.928733742730879
0
ELLIPSE
5
30C
100
AcDbEntity
8
1
62
256
6
ByLayer
370
18
48
1
60
0
100
AcDbEllipse
10
46.04
20
-13.822573
30
0
11
3.9305296442433E-16
21
6.41925404351349
31
0
210
0
220
0
230
1
40
0.701016
41
-0.732017276833333
42
-0.60346590681821
0
ELLIPSE
5
30D
100
AcDbEntity
8
1
62
256
6
ByLayer
370
18
48
1
60
0
100
AcDbEllipse
10
46.04
20
-7.536813
30
0
11
-4.5
21
5.5107285922007E-16
31
0
210
0
220
0
230
1
40
0.25038
41
2.01415871276819
42
2.12133818049203
0
ELLIPSE
5
30E
100
AcDbEntity
8
1
62
256
6
ByLayer
370
18
48
1
60
0
100
AcDbEllipse
10
46.04
20
-7.536813
30
0
11
-4.5
21
5.5107285922007E-16
31
0
210
0
220
0
230
1
40
0.25038
41
1.02025447309776
42
1.1274339408216
0
ELLIPSE
5
30F
100
AcDbEntity
8
1
62
256
6
ByLayer
370
18
48
1
60
0
100
AcDbEllipse
10
46.04
20
-13.822573
30
0
11
6.90253621165476E-09
21
-6.41925405070339
31
0
210
0
220
0
230
1
40
0.701016
41
-2.53812674785596
42
-2.40957537792428
0
ELLIPSE
5
310
100
AcDbEntity
8
1
62
256
6
ByLayer
370
18
48
1
60
0
100
AcDbEllipse
10
46.04
20
-3.090535
30
0
11
5.31030589385563E-16
21
8.67267408384828
31
0
210
0
220
0
230
1
40
0.518871
41
2.21285890954591
42
2.31637162882354
0
ELLIPSE
5
311
100
AcDbEntity
8
1
62
256
6
ByLayer
370
18
48
1
60
0
100
AcDbEllipse
10
46.04
20
-7.536813
30
0
11
-4.5
21
5.5107285922007E-16
31
0
210
0
220
0
230
1
40
0.25038
41
0.54557282484263
42
0.606482786191506
0
ELLIPSE
5
312
100
AcDbEntity
8
1
62
256
6
ByLayer
370
18
48
1
60
0
100
AcDbEllipse
10
46.04
20
-11.307251
30
0
11
2.33131647301766E-08
21
6.41925401704865
31
0
210
0
220
0
230
1
40
0.701016
41
1.05866031209993
42
1.14780026539941
0
ELLIPSE
5
313
100
AcDbEntity
8
1
62
256
6
ByLayer
370
18
48
1
60
0
100
AcDbEllipse
10
46.04
20
-5.605856
30
0
11
1.4030765414459E-08
21
8.67267411595733
31
0
210
0
220
0
230
1
40
0.518871
41
1.83953461905011
42
1.9231003844129
0
ELLIPSE
5
314
100
AcDbEntity
8
1
62
256
6
ByLayer
370
18
48
1
60
0
100
AcDbEllipse
10
46.04
20
-7.536813
30
0
11
4.5
21
0
31
0
210
0
220
0
230
1
40
0.25038
41
-2.95493615772395
42
-2.90267855215374
0
ELLIPSE
5
315
100
AcDbEntity
8
1
62
256
6
ByLayer
370
18
48
1
60
0
100
AcDbEllipse
10
46.04
20
-8.79193
30
0
11
1.12416535977542E-08
21
-6.41925407604999
31
0
210
0
220
0
230
1
40
0.701016
41
-1.72815189608798
42
-1.6480340614647
0
ELLIPSE
5
316
100
AcDbEntity
8
1
62
256
6
ByLayer
370
18
48
1
60
0
100
AcDbEllipse
10
46.039879
20
-8.121179
30
0
11
1.02689101316647E-06
21
-8.67255770878828
31
0
210
0
220
0
230
1
40
0.518864
41
-1.57079655500057
42
-1.55906819957486
0
ELLIPSE
5
317
100
AcDbEntity
8
1
62
256
6
ByLayer
370
18
48
1
60
0
100
AcDbEllipse
10
45.234783
20
37.346279
30
0
11
0.572
21
0
31
0
210
0
220
0
230
1
40
0.990268
41
-1.83437151667309
42
-1.02958583934651
0
ELLIPSE
5
318
100
AcDbEntity
8
1
62
256
6
ByLayer
370
18
48
1
60
0
100
AcDbEllipse
10
46.04
20
-14.846977
30
0
11
4.50000000000001
21
5.27154914062137E-15
31
0
210
0
220
0
230
1
40
0.377839
41
-2.97819660562202
42
-0.163396047966428
0
ELLIPSE
5
319
100
AcDbEntity
8
1
62
256
6
ByLayer
370
18
48
1
60
0
100
AcDbEllipse
10
46.04
20
-0.575213
30
0
11
5.31030589081528E-16
21
8.67267407888284
31
0
210
0
220
0
230
1
40
0.518871
41
2.77119062936171
42
-2.77119062936171
0
ELLIPSE
5
31A
100
AcDbEntity
8
1
62
256
6
ByLayer
370
18
48
1
60
0
100
AcDbEllipse
10
46.0375
20
9.222441
30
0
11
-3
21
3.67381906146713E-16
31
0
210
0
220
0
230
1
40
0.968148
41
-3.10998020780432
42
-0.0341647992051314
0
ELLIPSE
5
31B
100
AcDbEntity
8
1
62
256
6
ByLayer
370
18
48
1
60
0
100
AcDbEllipse
10
46.0375
20
9.410226
30
0
11
-2.25
21
2.75536429610035E-16
31
0
210
0
220
0
230
1
40
0.968148
41
0
42
6.28318530717959
0
ELLIPSE
5
31C
100
AcDbEntity
8
1
62
256
6
ByLayer
370
18
48
1
60
0
100
AcDbEllipse
10
46.04
20
36.019692
30
0
11
-0.991
21
1.21358489663798E-16
31
0
210
0
220
0
230
1
40
0.990268
41
1.24485231478093
42
1.88660941616948
0
ELLIPSE
5
31D
100
AcDbEntity
8
1
62
256
6
ByLayer
370
18
48
1
60
0
100
AcDbEllipse
10
46.04
20
36.019692
30
0
11
-0.991
21
1.21358489663798E-16
31
0
210
0
220
0
230
1
40
0.990268
41
2.42529033184124
42
-2.11200681424327
0
ELLIPSE
5
31E
100
AcDbEntity
8
1
62
256
6
ByLayer
370
13
48
1
60
0
100
AcDbEllipse
10
46.04
20
18.278075
30
0
11
2.581518143447
21
0
31
0
210
0
220
0
230
1
40
0.615661
41
-3.00228234903175
42
-0.139407653508753
0
ELLIPSE
5
31F
100
AcDbEntity
8
1
62
256
6
ByLayer
370
13
48
1
60
0
100
AcDbEllipse
10
46.04
20
18.164074
30
0
11
-2.6306317708204
21
3.22148838111367E-16
31
0
210
0
220
0
230
1
40
0.615661
41
0.134106777019353
42
3.00758407889312
0
ELLIPSE
5
320
100
AcDbEntity
8
1
62
256
6
ByLayer
370
18
48
1
60
0
100
AcDbEllipse
10
46.04
20
36.019692
30
0
11
-0.991
21
1.21358489663798E-16
31
0
210
0
220
0
230
1
40
0.990268
41
-2.11200681424327
42
-1.02958583934652
0
ELLIPSE
5
321
100
AcDbEntity
8
1
62
256
6
ByLayer
370
18
48
1
60
0
100
AcDbEllipse
10
46.04
20
-18.700238
30
0
11
4.7625
21
0
31
0
210
0
220
0
230
1
40
0.374607
41
3.09201424357608
42
0
0
ELLIPSE
5
322
100
AcDbEntity
8
1
62
256
6
ByLayer
370
18
48
1
60
0
100
AcDbEllipse
10
46.04
20
-18.700238
30
0
11
4.7625
21
0
31
0
210
0
220
0
230
1
40
0.374607
41
0
42
0.0496766450138686
0
ELLIPSE
5
323
100
AcDbEntity
8
1
62
256
6
ByLayer
370
18
48
1
60
0
100
AcDbEllipse
10
46.04
20
36.019692
30
0
11
-0.991
21
1.21358489663798E-16
31
0
210
0
220
0
230
1
40
0.990268
41
-1.02958583934652
42
0.723894948277822
0
ELLIPSE
5
324
100
AcDbEntity
8
1
62
256
6
ByLayer
370
18
48
1
60
0
100
AcDbEllipse
10
46.04
20
18.700238
30
0
11
-4.7625
21
5.83218776007907E-16
31
0
210
0
220
0
230
1
40
0.374607
41
2.93581818569635
42
-2.81859787178476
0
ELLIPSE
5
325
100
AcDbEntity
8
1
62
256
6
ByLayer
370
18
48
1
60
0
100
AcDbEllipse
10
46.04
20
18.700238
30
0
11
-4.7625
21
5.83218776007907E-16
31
0
210
0
220
0
230
1
40
0.374607
41
-0.276263846272597
42
-0.188102957779542
0
ELLIPSE
5
326
100
AcDbEntity
8
1
62
256
6
ByLayer
370
18
48
1
60
0
100
AcDbEllipse
10
46.04
20
-15.019318
30
0
11
4.27504529321547
21
0
31
0
210
0
220
0
230
1
40
0.374607
41
-2.64679194612594
42
-0.4948993353839
0
ELLIPSE
5
327
100
AcDbEntity
8
1
62
256
6
ByLayer
370
13
48
1
60
0
100
AcDbEllipse
10
46.04
20
36.124254
30
0
11
-2.581518143447
21
3.16134352097294E-16
31
0
210
0
220
0
230
1
40
0.990268
41
0
42
0.904091575733323
0
ELLIPSE
5
328
100
AcDbEntity
8
1
62
256
6
ByLayer
370
13
48
1
60
0
100
AcDbEllipse
10
46.04
20
36.124254
30
0
11
-2.581518143447
21
3.16134352097294E-16
31
0
210
0
220
0
230
1
40
0.990268
41
2.23386859520117
42
0
0
POINT
5
70
100
AcDbEntity
8
80
62
256
6
ByLayer
370
18
48
1
60
0
100
AcDbPoint
10
0
20
0
30
0
39
0
210
0
220
0
230
1
50
360
0
POINT
5
72
100
AcDbEntity
8
81
62
256
6
ByLayer
370
18
48
1
60
0
100
AcDbPoint
10
50.8
20
40.99945
30
0
39
0
210
0
220
0
230
1
50
360
0
POINT
5
74
100
AcDbEntity
8
1
62
256
6
ByLayer
370
18
48
1
60
0
100
AcDbPoint
10
0
20
0
30
0
39
0
210
0
220
0
230
1
50
360
0
POINT
5
76
100
AcDbEntity
8
1
62
256
6
ByLayer
370
18
48
1
60
1
100
AcDbPoint
10
50.8
20
-40.99945
30
0
39
0
210
0
220
0
230
1
50
360
0
POINT
5
77
100
AcDbEntity
8
1
62
256
6
ByLayer
370
18
48
1
60
1
100
AcDbPoint
10
24.79
20
-18.73445
30
0
39
0
210
0
220
0
230
1
50
360
0
POINT
5
78
100
AcDbEntity
8
1
62
256
6
ByLayer
370
18
48
1
60
1
100
AcDbPoint
10
50.8
20
-40.99945
30
0
39
0
210
0
220
0
230
1
50
360
0
POINT
5
79
100
AcDbEntity
8
1
62
256
6
ByLayer
370
18
48
1
60
1
100
AcDbPoint
10
0
20
-12.7
30
0
39
0
210
0
220
0
230
1
50
360
0
POINT
5
7A
100
AcDbEntity
8
1
62
256
6
ByLayer
370
18
48
1
60
1
100
AcDbPoint
10
50.8
20
40.99945
30
0
39
0
210
0
220
0
230
1
50
360
0
POINT
5
7B
100
AcDbEntity
8
1
62
256
6
ByLayer
370
18
48
1
60
1
100
AcDbPoint
10
41.275
20
40.99945
30
0
39
0
210
0
220
0
230
1
50
360
0
SPLINE
5
329
100
AcDbEntity
8
1
62
256
6
ByLayer
370
18
48
1
60
0
100
AcDbSpline
70
4
71
3
72
20
73
16
40
0
40
0
40
0
40
0
40
0.124999999999997
40
0.124999999999997
40
0.249999999999995
40
0.249999999999995
40
0.374999999999992
40
0.374999999999992
40
0.49999999999999
40
0.49999999999999
40
0.624999999999987
40
0.624999999999987
40
0.749999999999984
40
0.749999999999984
40
1
40
1
40
1
40
1
41
1
10
46.04
20
37.5755234134469
30
0
41
1
10
46.0550392131402
20
37.5755234134469
30
0
41
1
10
46.0699089520625
20
37.5741238646963
30
0
41
1
10
46.0993160132101
20
37.568581916018
30
0
41
1
10
46.1139738497411
20
37.5643667971431
30
0
41
1
10
46.1416929927846
20
37.5535715606538
30
0
41
1
10
46.1548983955001
20
37.5469871362968
30
0
41
1
10
46.1800541485555
20
37.5315514766257
30
0
41
1
10
46.1920965708889
20
37.5225928213379
30
0
41
1
10
46.2140024864228
20
37.5031799628858
30
0
41
1
10
46.2239778229294
20
37.492683033469
30
0
41
1
10
46.2420995589632
20
37.4702244131038
30
0
41
1
10
46.2503022176456
20
37.458155101973
30
0
41
1
10
46.271697812245
20
37.4205464704404
30
0
41
1
10
46.2816405167238
20
37.3940217459384
30
0
41
1
10
46.2876090228731
20
37.3662153648214
30
0
0
SPLINE
5
32A
100
AcDbEntity
8
1
62
256
6
ByLayer
370
18
48
1
60
0
100
AcDbSpline
70
4
71
3
72
27
73
23
40
0
40
0
40
0
40
0
40
0.12499999999997
40
0.12499999999997
40
0.249999999999941
40
0.249999999999941
40
0.312499999999936
40
0.312499999999936
40
0.374999999999931
40
0.437499999999926
40
0.437499999999926
40
0.499999999999922
40
0.499999999999922
40
0.624999999999931
40
0.624999999999931
40
0.749999999999939
40
0.749999999999939
40
0.812499999999953
40
0.812499999999953
40
0.874999999999966
40
0.874999999999966
40
1
40
1
40
1
40
1
41
1
10
46.9942421511778
20
36.9456085157243
30
0
41
1
10
46.959339467702
20
36.9336367444956
30
0
41
1
10
46.9231716059552
20
36.9249520143932
30
0
41
1
10
46.8493418417383
20
36.9150156923814
30
0
41
1
10
46.8119871300066
20
36.913749421144
30
0
41
1
10
46.7549869582118
20
36.9180945055623
30
0
41
1
10
46.735702992128
20
36.920618484039
30
0
41
1
10
46.6973445412762
20
36.9279117546062
30
0
41
1
10
46.6593570749047
20
36.937390153819
30
0
41
1
10
46.6220947122409
20
36.9514187902864
30
0
41
1
10
46.5852057594901
20
36.9678994098647
30
0
41
1
10
46.5671969524486
20
36.9772716598457
30
0
41
1
10
46.5154011024725
20
37.0081977512708
30
0
41
1
10
46.4832742932937
20
37.0328436501574
30
0
41
1
10
46.4246561855582
20
37.0893737152885
30
0
41
1
10
46.3992758464838
20
37.120098647348
30
0
41
1
10
46.3662074411571
20
37.1694392527465
30
0
41
1
10
46.3559806093018
20
37.1865352051706
30
0
41
1
10
46.3374957749149
20
37.2211820715323
30
0
41
1
10
46.3292112081843
20
37.2387486202762
30
0
41
1
10
46.3069908225015
20
37.2921573808289
30
0
41
1
10
46.2956607992681
20
37.3287033379415
30
0
41
1
10
46.2876090228731
20
37.3662153648214
30
0
0
SPLINE
5
32B
100
AcDbEntity
8
1
62
256
6
ByLayer
370
18
48
1
60
0
100
AcDbSpline
70
4
71
3
72
27
73
23
40
0
40
0
40
0
40
0
40
0.124999999999996
40
0.124999999999996
40
0.249999999999993
40
0.249999999999993
40
0.312499999999999
40
0.312499999999999
40
0.375000000000006
40
0.437500000000013
40
0.437500000000013
40
0.50000000000002
40
0.50000000000002
40
0.625000000000015
40
0.625000000000015
40
0.75000000000001
40
0.75000000000001
40
0.812500000000007
40
0.812500000000007
40
0.875000000000005
40
0.875000000000005
40
1
40
1
40
1
40
1
41
1
10
45.7923909771268
20
37.3662153648214
30
0
41
1
10
45.784332460198
20
37.3286719347984
30
0
41
1
10
45.7728432896991
20
37.2916204759633
30
0
41
1
10
45.7428929450595
20
37.2199114574078
30
0
41
1
10
45.7246030468522
20
37.1855240336156
30
0
41
1
10
45.691541566599
20
37.1362620314471
30
0
41
1
10
45.679491533289
20
37.1201351832617
30
0
41
1
10
45.653672235984
20
37.089228146917
30
0
41
1
10
45.6262667220941
20
37.0597829042347
30
0
41
1
10
45.5955596806259
20
37.033354345859
30
0
41
1
10
45.5630741163485
20
37.0085414092206
30
0
41
1
10
45.5461475577872
20
36.9971191986995
30
0
41
1
10
45.4942746920955
20
36.9663389148443
30
0
41
1
10
45.4577133567653
20
36.9500997949356
30
0
41
1
10
45.3816714242344
20
36.9264766310487
30
0
41
1
10
45.3436999250965
20
36.9194928680307
30
0
41
1
10
45.2866321330397
20
36.9151820033085
30
0
41
1
10
45.2674847449698
20
36.9147936341735
30
0
41
1
10
45.229806717338
20
36.9160108794142
30
0
41
1
10
45.2112498671497
20
36.9176007056582
30
0
41
1
10
45.1563045901278
20
36.9250784140406
30
0
41
1
10
45.1206313298903
20
36.9336467610476
30
0
41
1
10
45.0857578488221
20
36.9456085157243
30
0
0
SPLINE
5
32C
100
AcDbEntity
8
1
62
256
6
ByLayer
370
18
48
1
60
0
100
AcDbSpline
70
4
71
3
72
18
73
14
40
0
40
0
40
0
40
0
40
0.249999999999972
40
0.249999999999972
40
0.374999999999971
40
0.374999999999971
40
0.499999999999971
40
0.499999999999971
40
0.749999999999975
40
0.749999999999975
40
0.874999999999988
40
0.874999999999988
40
1
40
1
40
1
40
1
41
1
10
45.7923909771268
20
37.3662153648214
30
0
41
1
10
45.7983443432935
20
37.3939512110146
30
0
41
1
10
45.8083654145424
20
37.4206569649754
30
0
41
1
10
45.8296639306693
20
37.4580959202434
30
0
41
1
10
45.8378648488689
20
37.4701776284736
30
0
41
1
10
45.8560192023181
20
37.492682015687
30
0
41
1
10
45.8660232910297
20
37.5032103553227
30
0
41
1
10
45.8990276411323
20
37.5324358407888
30
0
41
1
10
45.9243592597095
20
37.548160381093
30
0
41
1
10
45.9662920518755
20
37.5644598805829
30
0
41
1
10
45.9806007783679
20
37.5685566367035
30
0
41
1
10
46.0098750351417
20
37.5740926562578
30
0
41
1
10
46.0250157679462
20
37.5755234134469
30
0
41
1
10
46.04
20
37.5755234134469
30
0
0
SPLINE
5
32D
100
AcDbEntity
8
1
62
256
6
ByLayer
370
18
48
1
60
0
100
AcDbSpline
70
4
71
3
72
20
73
16
40
0
40
0
40
0
40
0
40
0.249999999999961
40
0.249999999999961
40
0.374999999999967
40
0.374999999999967
40
0.499999999999974
40
0.499999999999974
40
0.62499999999998
40
0.62499999999998
40
0.749999999999987
40
0.749999999999987
40
0.874999999999993
40
0.874999999999993
40
1
40
1
40
1
40
1
41
1
10
46.9942421511778
20
36.9456085157243
30
0
41
1
10
47.0199509964458
20
36.9544267607259
30
0
41
1
10
47.0467613735283
20
36.9591872281479
30
0
41
1
10
47.0881151526223
20
36.9594632100715
30
0
41
1
10
47.1018292028688
20
36.9583982007771
30
0
41
1
10
47.1290931529986
20
36.9538825553968
30
0
41
1
10
47.1427500627221
20
36.9503928483044
30
0
41
1
10
47.1693278795348
20
36.9409541543905
30
0
41
1
10
47.1821589736635
20
36.9350608436008
30
0
41
1
10
47.20685671966
20
36.9208404742935
30
0
41
1
10
47.2188147442345
20
36.9124158596124
30
0
41
1
10
47.2408254508234
20
36.8935838360804
30
0
41
1
10
47.2509686288974
20
36.8831517117945
30
0
41
1
10
47.2694569997124
20
36.8601769610866
30
0
41
1
10
47.2777290917966
20
36.847668286611
30
0
41
1
10
47.2847242281962
20
36.8346304172858
30
0
0
SPLINE
5
32E
100
AcDbEntity
8
1
62
256
6
ByLayer
370
18
48
1
60
0
100
AcDbSpline
70
4
71
3
72
20
73
16
40
0
40
0
40
0
40
0
40
0.125000000000007
40
0.125000000000007
40
0.250000000000013
40
0.250000000000013
40
0.37500000000002
40
0.37500000000002
40
0.500000000000026
40
0.500000000000026
40
0.625000000000033
40
0.625000000000033
40
0.75000000000004
40
0.75000000000004
40
1
40
1
40
1
40
1
41
1
10
44.7952757718038
20
36.8346304172858
30
0
41
1
10
44.8022709082033
20
36.847668286611
30
0
41
1
10
44.8105430002875
20
36.8601769610866
30
0
41
1
10
44.8290313711026
20
36.8831517117945
30
0
41
1
10
44.8391745491766
20
36.8935838360804
30
0
41
1
10
44.8611852557654
20
36.9124158596124
30
0
41
1
10
44.87314328034
20
36.9208404742935
30
0
41
1
10
44.8978410263364
20
36.9350608436008
30
0
41
1
10
44.9106721204652
20
36.9409541543905
30
0
41
1
10
44.9372499372778
20
36.9503928483044
30
0
41
1
10
44.9509068470013
20
36.9538825553968
30
0
41
1
10
44.9781707971312
20
36.9583982007771
30
0
41
1
10
44.9918848473777
20
36.9594632100715
30
0
41
1
10
45.0332386264716
20
36.9591872281479
30
0
41
1
10
45.0600490035541
20
36.9544267607259
30
0
41
1
10
45.0857578488221
20
36.9456085157243
30
0
0
SPLINE
5
32F
100
AcDbEntity
8
1
62
256
6
ByLayer
370
18
48
1
60
0
100
AcDbSpline
70
4
71
3
72
18
73
14
40
0
40
0
40
0
40
0
40
0.249999999999996
40
0.249999999999996
40
0.499999999999992
40
0.499999999999992
40
0.624999999999994
40
0.624999999999994
40
0.749999999999996
40
0.749999999999996
40
0.874999999999998
40
0.874999999999998
40
1
40
1
40
1
40
1
41
1
10
44.8279518763725
20
36.5402227936864
30
0
41
1
10
44.8122102347151
20
36.5597793570337
30
0
41
1
10
44.7989961634734
20
36.5813499861812
30
0
41
1
10
44.7782778834764
20
36.6289306313007
30
0
41
1
10
44.7711912763036
20
36.6540971801192
30
0
41
1
10
44.7661226173023
20
36.6932380920917
30
0
41
1
10
44.7653680114374
20
36.7066933500884
30
0
41
1
10
44.7659040416448
20
36.7332665758964
30
0
41
1
10
44.7671668567037
20
36.7464382793499
30
0
41
1
10
44.7717221558834
20
36.772546556633
30
0
41
1
10
44.7750538431796
20
36.785593840846
30
0
41
1
10
44.7837503731532
20
36.8108984741472
30
0
41
1
10
44.7890480371863
20
36.8230228680548
30
0
41
1
10
44.7952757718038
20
36.8346304172858
30
0
0
SPLINE
5
330
100
AcDbEntity
8
1
62
256
6
ByLayer
370
18
48
1
60
0
100
AcDbSpline
70
4
71
3
72
18
73
14
40
0
40
0
40
0
40
0
40
0.125000000000002
40
0.125000000000002
40
0.250000000000004
40
0.250000000000004
40
0.375000000000006
40
0.375000000000006
40
0.500000000000008
40
0.500000000000008
40
0.750000000000004
40
0.750000000000004
40
1
40
1
40
1
40
1
41
1
10
47.2847242281962
20
36.8346304172858
30
0
41
1
10
47.2909519628137
20
36.8230228680548
30
0
41
1
10
47.2962496268468
20
36.8108984741472
30
0
41
1
10
47.3049461568204
20
36.785593840846
30
0
41
1
10
47.3082778441166
20
36.772546556633
30
0
41
1
10
47.3128331432963
20
36.7464382793499
30
0
41
1
10
47.3140959583551
20
36.7332665758964
30
0
41
1
10
47.3146319885626
20
36.7066933500884
30
0
41
1
10
47.3138773826976
20
36.6932380920917
30
0
41
1
10
47.3088087236963
20
36.6540971801192
30
0
41
1
10
47.3017221165235
20
36.6289306313007
30
0
41
1
10
47.2810038365266
20
36.5813499861812
30
0
41
1
10
47.2677897652849
20
36.5597793570337
30
0
41
1
10
47.2520481236275
20
36.5402227936864
30
0
0
SPLINE
5
331
100
AcDbEntity
8
1
62
256
6
ByLayer
370
18
48
1
60
0
100
AcDbSpline
70
4
71
3
72
27
73
23
40
0
40
0
40
0
40
0
40
0.124999999999996
40
0.124999999999996
40
0.249999999999993
40
0.249999999999993
40
0.374999999999989
40
0.374999999999989
40
0.43749999999999
40
0.43749999999999
40
0.49999999999999
40
0.562499999999991
40
0.562499999999991
40
0.624999999999991
40
0.624999999999991
40
0.750000000000016
40
0.750000000000016
40
0.812500000000017
40
0.812500000000017
40
0.875000000000018
40
0.875000000000018
40
1
40
1
40
1
40
1
41
1
10
47.2520481236274
20
35.7966575113418
30
0
41
1
10
47.230840017572
20
35.8185905621702
30
0
41
1
10
47.2116891440062
20
35.8424164649385
30
0
41
1
10
47.1776060812978
20
35.8942345976966
30
0
41
1
10
47.1625871538429
20
35.9224123629456
30
0
41
1
10
47.137738957749
20
35.9830742188557
30
0
41
1
10
47.1281235821175
20
36.0149460473825
30
0
41
1
10
47.1182598993802
20
36.0654183143946
30
0
41
1
10
47.1157385224882
20
36.0827800807797
30
0
41
1
10
47.1124185961949
20
36.1175276096324
30
0
41
1
10
47.1107687905522
20
36.1524837181655
30
0
41
1
10
47.1124184124866
20
36.1878562320205
30
0
41
1
10
47.1157407394816
20
36.223437649118
30
0
41
1
10
47.1182645357582
20
36.2414225624569
30
0
41
1
10
47.1281154521794
20
36.2942227128409
30
0
41
1
10
47.1377054807189
20
36.3283233850166
30
0
41
1
10
47.1562510785613
20
36.3780011325157
30
0
41
1
10
47.1631635545975
20
36.3943636624446
30
0
41
1
10
47.1780573806925
20
36.4259608127499
30
0
41
1
10
47.1860638885457
20
36.441276636808
30
0
41
1
10
47.2116684368872
20
36.485892833641
30
0
41
1
10
47.2308390357139
20
36.5138737711164
30
0
41
1
10
47.2520481236274
20
36.5402227936864
30
0
0
SPLINE
5
332
100
AcDbEntity
8
1
62
256
6
ByLayer
370
18
48
1
60
0
100
AcDbSpline
70
4
71
3
72
18
73
14
40
0
40
0
40
0
40
0
40
0.249999999999996
40
0.249999999999996
40
0.499999999999992
40
0.499999999999992
40
0.624999999999994
40
0.624999999999994
40
0.749999999999996
40
0.749999999999996
40
0.874999999999998
40
0.874999999999998
40
1
40
1
40
1
40
1
41
1
10
47.2520481236275
20
35.7966575113419
30
0
41
1
10
47.2677897652849
20
35.7803777819925
30
0
41
1
10
47.2810038365266
20
35.7618274484347
30
0
41
1
10
47.3017221165235
20
35.7197852999909
30
0
41
1
10
47.3088087236964
20
35.6970326926506
30
0
41
1
10
47.3138773826976
20
35.660914883978
30
0
41
1
10
47.3146319885626
20
35.6483775093032
30
0
41
1
10
47.3140959583552
20
35.6233767163848
30
0
41
1
10
47.3128331432963
20
35.6108662325248
30
0
41
1
10
47.3082778441166
20
35.5858319279445
30
0
41
1
10
47.3049461568204
20
35.5731996640547
30
0
41
1
10
47.2962496268468
20
35.548446573232
30
0
41
1
10
47.2909519628137
20
35.5364582730566
30
0
41
1
10
47.2847242281962
20
35.5248507238255
30
0
0
SPLINE
5
333
100
AcDbEntity
8
1
62
256
6
ByLayer
370
18
48
1
60
0
100
AcDbSpline
70
4
71
3
72
18
73
14
40
0
40
0
40
0
40
0
40
0.125000000000002
40
0.125000000000002
40
0.250000000000004
40
0.250000000000004
40
0.375000000000006
40
0.375000000000006
40
0.500000000000008
40
0.500000000000008
40
0.750000000000004
40
0.750000000000004
40
1
40
1
40
1
40
1
41
1
10
44.7952757718038
20
35.5248507238255
30
0
41
1
10
44.7890480371863
20
35.5364582730566
30
0
41
1
10
44.7837503731532
20
35.548446573232
30
0
41
1
10
44.7750538431796
20
35.5731996640547
30
0
41
1
10
44.7717221558834
20
35.5858319279445
30
0
41
1
10
44.7671668567037
20
35.6108662325248
30
0
41
1
10
44.7659040416448
20
35.6233767163849
30
0
41
1
10
44.7653680114374
20
35.6483775093032
30
0
41
1
10
44.7661226173023
20
35.660914883978
30
0
41
1
10
44.7711912763036
20
35.6970326926506
30
0
41
1
10
44.7782778834764
20
35.7197852999909
30
0
41
1
10
44.7989961634734
20
35.7618274484347
30
0
41
1
10
44.8122102347151
20
35.7803777819925
30
0
41
1
10
44.8279518763725
20
35.7966575113419
30
0
0
SPLINE
5
334
100
AcDbEntity
8
1
62
256
6
ByLayer
370
18
48
1
60
0
100
AcDbSpline
70
4
71
3
72
27
73
23
40
0
40
0
40
0
40
0
40
0.125000000000014
40
0.125000000000014
40
0.250000000000029
40
0.250000000000029
40
0.312500000000037
40
0.312500000000037
40
0.375000000000044
40
0.437500000000051
40
0.437500000000051
40
0.500000000000059
40
0.500000000000059
40
0.625000000000044
40
0.625000000000044
40
0.750000000000029
40
0.750000000000029
40
0.812500000000022
40
0.812500000000022
40
0.875000000000015
40
0.875000000000015
40
1
40
1
40
1
40
1
41
1
10
46.2876090228731
20
34.9655688219621
30
0
41
1
10
46.2956675398019
20
34.9978226012137
30
0
41
1
10
46.3071567103009
20
35.0297957988798
30
0
41
1
10
46.3371070549404
20
35.0921504839461
30
0
41
1
10
46.3553969531477
20
35.1222933410035
30
0
41
1
10
46.388458433401
20
35.1660772080355
30
0
41
1
10
46.400508466711
20
35.1805190163454
30
0
41
1
10
46.426327764016
20
35.2084704566362
30
0
41
1
10
46.4537332779058
20
35.2353825442345
30
0
41
1
10
46.484440319374
20
35.2602110059036
30
0
41
1
10
46.5169258836514
20
35.2839461459129
30
0
41
1
10
46.5338524422127
20
35.2951014264661
30
0
41
1
10
46.5857253079044
20
35.3259006541431
30
0
41
1
10
46.6222866432346
20
35.343240615817
30
0
41
1
10
46.6983285757656
20
35.3710651498785
30
0
41
1
10
46.7363000749034
20
35.3810462534366
30
0
41
1
10
46.7933678669602
20
35.3908480418292
30
0
41
1
10
46.8125152550301
20
35.3932474412649
30
0
41
1
10
46.8501932826619
20
35.396273706012
30
0
41
1
10
46.8687501328502
20
35.3969167594309
30
0
41
1
10
46.9236954098721
20
35.3964115392158
30
0
41
1
10
46.9593686701096
20
35.3928522021105
30
0
41
1
10
46.9942421511778
20
35.3861756710592
30
0
0
SPLINE
5
335
100
AcDbEntity
8
1
62
256
6
ByLayer
370
18
48
1
60
0
100
AcDbSpline
70
4
71
3
72
20
73
16
40
0
40
0
40
0
40
0
40
0.124999999999993
40
0.124999999999993
40
0.249999999999987
40
0.249999999999987
40
0.37499999999998
40
0.37499999999998
40
0.499999999999974
40
0.499999999999974
40
0.624999999999967
40
0.624999999999967
40
0.74999999999996
40
0.74999999999996
40
1
40
1
40
1
40
1
41
1
10
47.2847242281962
20
35.5248507238255
30
0
41
1
10
47.2777290917966
20
35.5118128545002
30
0
41
1
10
47.2694569997125
20
35.4991282731696
30
0
41
1
10
47.2509686288974
20
35.4754567713317
30
0
41
1
10
47.2408254508234
20
35.4645099858181
30
0
41
1
10
47.2188147442346
20
35.4443226347188
30
0
41
1
10
47.20685671966
20
35.4350484156569
30
0
41
1
10
47.1821589736635
20
35.4188639323963
30
0
41
1
10
47.1693278795348
20
35.4118517516093
30
0
41
1
10
47.1427500627221
20
35.3999005397694
30
0
41
1
10
47.1290931529986
20
35.395023904807
30
0
41
1
10
47.1018292028688
20
35.3875531723795
30
0
41
1
10
47.0881151526223
20
35.3849100336131
30
0
41
1
10
47.0467613735283
20
35.3801411079443
30
0
41
1
10
47.0199509964458
20
35.3812537103466
30
0
41
1
10
46.9942421511778
20
35.3861756710592
30
0
0
SPLINE
5
336
100
AcDbEntity
8
1
62
256
6
ByLayer
370
18
48
1
60
0
100
AcDbSpline
70
4
71
3
72
27
73
23
40
0
40
0
40
0
40
0
40
0.124999999999982
40
0.124999999999982
40
0.249999999999964
40
0.249999999999964
40
0.312499999999965
40
0.312499999999965
40
0.374999999999967
40
0.437499999999968
40
0.437499999999968
40
0.499999999999969
40
0.499999999999969
40
0.624999999999971
40
0.624999999999971
40
0.749999999999973
40
0.749999999999973
40
0.812499999999982
40
0.812499999999982
40
0.874999999999991
40
0.874999999999991
40
1
40
1
40
1
40
1
41
1
10
45.0857578488221
20
35.3861756710592
30
0
41
1
10
45.1206605322979
20
35.3928577929141
30
0
41
1
10
45.1568283940448
20
35.3964642609535
30
0
41
1
10
45.2306581582616
20
35.3970462518185
30
0
41
1
10
45.2680128699933
20
35.39406795632
30
0
41
1
10
45.3250130417882
20
35.3842447356742
30
0
41
1
10
45.3442970078719
20
35.3800357165938
30
0
41
1
10
45.3826554587238
20
35.3697868505161
30
0
41
1
10
45.4206429250953
20
35.3577752960997
30
0
41
1
10
45.457905287759
20
35.3421465621697
30
0
41
1
10
45.4947942405098
20
35.32458814535
30
0
41
1
10
45.5128030475513
20
35.314948965576
30
0
41
1
10
45.5645988975274
20
35.2840418171765
30
0
41
1
10
45.5967257067063
20
35.2604967613516
30
0
41
1
10
45.6553438144418
20
35.2081680641315
30
0
41
1
10
45.6807241535162
20
35.1804404716255
30
0
41
1
10
45.7137925588429
20
35.1365907910478
30
0
41
1
10
45.7240193906981
20
35.1215058696322
30
0
41
1
10
45.742504225085
20
35.0911025115939
30
0
41
1
10
45.7507887918157
20
35.07576884195
30
0
41
1
10
45.7730091774985
20
35.0293325688936
30
0
41
1
10
45.7843392007319
20
34.9977956225906
30
0
41
1
10
45.7923909771268
20
34.9655688219621
30
0
0
SPLINE
5
337
100
AcDbEntity
8
1
62
256
6
ByLayer
370
18
48
1
60
0
100
AcDbSpline
70
4
71
3
72
20
73
16
40
0
40
0
40
0
40
0
40
0.25000000000004
40
0.25000000000004
40
0.375000000000033
40
0.375000000000033
40
0.500000000000026
40
0.500000000000026
40
0.62500000000002
40
0.62500000000002
40
0.750000000000013
40
0.750000000000013
40
0.875000000000007
40
0.875000000000007
40
1
40
1
40
1
40
1
41
1
10
45.0857578488221
20
35.3861756710592
30
0
41
1
10
45.0600490035541
20
35.3812537103466
30
0
41
1
10
45.0332386264716
20
35.3801411079443
30
0
41
1
10
44.9918848473777
20
35.3849100336131
30
0
41
1
10
44.9781707971312
20
35.3875531723795
30
0
41
1
10
44.9509068470013
20
35.395023904807
30
0
41
1
10
44.9372499372778
20
35.3999005397694
30
0
41
1
10
44.9106721204651
20
35.4118517516093
30
0
41
1
10
44.8978410263364
20
35.4188639323963
30
0
41
1
10
44.87314328034
20
35.4350484156569
30
0
41
1
10
44.8611852557654
20
35.4443226347188
30
0
41
1
10
44.8391745491766
20
35.4645099858181
30
0
41
1
10
44.8290313711025
20
35.4754567713317
30
0
41
1
10
44.8105430002875
20
35.4991282731696
30
0
41
1
10
44.8022709082033
20
35.5118128545002
30
0
41
1
10
44.7952757718038
20
35.5248507238255
30
0
0
SPLINE
5
338
100
AcDbEntity
8
1
62
256
6
ByLayer
370
18
48
1
60
0
100
AcDbSpline
70
4
71
3
72
20
73
16
40
0
40
0
40
0
40
0
40
0.124999999999998
40
0.124999999999998
40
0.249999999999996
40
0.249999999999996
40
0.374999999999995
40
0.374999999999995
40
0.499999999999993
40
0.499999999999993
40
0.624999999999991
40
0.624999999999991
40
0.749999999999989
40
0.749999999999989
40
1
40
1
40
1
40
1
41
1
10
46.04
20
34.7839577276644
30
0
41
1
10
46.0249607868598
20
34.7839577276644
30
0
41
1
10
46.0100910479374
20
34.7851828811575
30
0
41
1
10
45.9806839867899
20
34.7900320298562
30
0
41
1
10
45.9660261502589
20
34.7937195883586
30
0
41
1
10
45.9383070072154
20
34.8031565593676
30
0
41
1
10
45.9251016044998
20
34.8089097740574
30
0
41
1
10
45.8999458514444
20
34.8223828896776
30
0
41
1
10
45.8879034291111
20
34.8301962766566
30
0
41
1
10
45.8659975135772
20
34.8471052240931
30
0
41
1
10
45.8560221770705
20
34.8562382444255
30
0
41
1
10
45.8379004410368
20
34.8757484902316
30
0
41
1
10
45.8296977823543
20
34.8862189197962
30
0
41
1
10
45.808302187755
20
34.9187858706865
30
0
41
1
10
45.7983594832762
20
34.9416801980994
30
0
41
1
10
45.7923909771268
20
34.9655688219621
30
0
0
SPLINE
5
339
100
AcDbEntity
8
1
62
256
6
ByLayer
370
18
48
1
60
0
100
AcDbSpline
70
4
71
3
72
18
73
14
40
0
40
0
40
0
40
0
40
0.249999999999958
40
0.249999999999958
40
0.374999999999951
40
0.374999999999951
40
0.499999999999944
40
0.499999999999944
40
0.749999999999972
40
0.749999999999972
40
0.874999999999986
40
0.874999999999986
40
1
40
1
40
1
40
1
41
1
10
46.2876090228731
20
34.9655688219621
30
0
41
1
10
46.2816556567064
20
34.941740795063
30
0
41
1
10
46.2716345854575
20
34.9186901834254
30
0
41
1
10
46.2503360693307
20
34.8862701704483
30
0
41
1
10
46.242135151131
20
34.8757891127469
30
0
41
1
10
46.2239807976818
20
34.8562391487642
30
0
41
1
10
46.2139767089702
20
34.8470787972183
30
0
41
1
10
46.1809723588676
20
34.8216227389794
30
0
41
1
10
46.1556407402904
20
34.8078869411056
30
0
41
1
10
46.1137079481244
20
34.7936381959826
30
0
41
1
10
46.099399221632
20
34.7900541439048
30
0
41
1
10
46.0701249648582
20
34.7852101932662
30
0
41
1
10
46.0549842320537
20
34.7839577276644
30
0
41
1
10
46.04
20
34.7839577276644
30
0
0
SPLINE
5
33A
100
AcDbEntity
8
1
62
256
6
ByLayer
370
18
48
1
60
0
100
AcDbSpline
70
4
71
3
72
8
73
4
40
0
40
0
40
0
40
0
40
1
40
1
40
1
40
1
41
1
10
50.5399999999997
20
-35.2642203641525
30
0
41
1
10
50.5399999999997
20
-35.5043229475785
30
0
41
1
10
50.5198027814986
20
-35.741385381971
30
0
41
1
10
50.48006242655
20
-35.9754994561794
30
0
0
SPLINE
5
33B
100
AcDbEntity
8
1
62
256
6
ByLayer
370
18
48
1
60
0
100
AcDbSpline
70
4
71
3
72
22
73
18
40
0
40
0
40
0
40
0
40
0.125
40
0.125
40
0.25
40
0.25
40
0.375
40
0.375
40
0.5
40
0.5
40
0.625
40
0.625
40
0.75
40
0.75
40
0.875
40
0.875
40
1
40
1
40
1
40
1
41
1
10
50.526583920149
20
-33.7468512669073
30
0
41
1
10
50.5271633648652
20
-33.7431019918216
30
0
41
1
10
50.5278419352333
20
-33.7375542826469
30
0
41
1
10
50.5293363741347
20
-33.7229732178154
30
0
41
1
10
50.5301509512361
20
-33.7139080372346
30
0
41
1
10
50.531772486878
20
-33.6932368802708
30
0
41
1
10
50.5326014729285
20
-33.6813328588281
30
0
41
1
10
50.5341519331508
20
-33.6558728210688
30
0
41
1
10
50.5348860854122
20
-33.6421406413698
30
0
41
1
10
50.5362119190429
20
-33.6134414014645
30
0
41
1
10
50.5367892409626
20
-33.5988257084636
30
0
41
1
10
50.5377879895327
20
-33.5690640409082
30
0
41
1
10
50.5381982622299
20
-33.5541977627946
30
0
41
1
10
50.5388543181133
20
-33.5255571349642
30
0
41
1
10
50.5391055774043
20
-33.5115137581548
30
0
41
1
10
50.539476761566
20
-33.485783161872
30
0
41
1
10
50.5396026353396
20
-33.4737998624202
30
0
41
1
10
50.5396905146304
20
-33.4631115931121
30
0
0
SPLINE
5
33C
100
AcDbEntity
8
1
62
256
6
ByLayer
370
18
48
1
60
0
100
AcDbSpline
70
4
71
3
72
14
73
10
40
0
40
0
40
0
40
0
40
0.25
40
0.25
40
0.5
40
0.5
40
0.75
40
0.75
40
1
40
1
40
1
40
1
41
1
10
50.4618358798377
20
-34.0312382903505
30
0
41
1
10
50.4643158604116
20
-34.0185842102917
30
0
41
1
10
50.4666840556747
20
-34.0066447025301
30
0
41
1
10
50.4712138336761
20
-33.984164687695
30
0
41
1
10
50.4733657846026
20
-33.9736803900479
30
0
41
1
10
50.4772386955933
20
-33.9553806592077
30
0
41
1
10
50.4790160014625
20
-33.9473037159691
30
0
41
1
10
50.4820612053595
20
-33.9343788983535
30
0
41
1
10
50.4833458188988
20
-33.9294387755019
30
0
41
1
10
50.4844031176804
20
-33.9261019007056
30
0
0
SPLINE
5
33D
100
AcDbEntity
8
1
62
256
6
ByLayer
370
18
48
1
60
0
100
AcDbSpline
70
4
71
3
72
14
73
10
40
0
40
0
40
0
40
0
40
0.25
40
0.25
40
0.5
40
0.5
40
0.75
40
0.75
40
1
40
1
40
1
40
1
41
1
10
50.4121798537381
20
-34.252708906733
30
0
41
1
10
50.4089791156702
20
-34.2653721178292
30
0
41
1
10
50.4057874722427
20
-34.2782049153715
30
0
41
1
10
50.3994325051183
20
-34.3042014051749
30
0
41
1
10
50.3962715589379
20
-34.3173650028332
30
0
41
1
10
50.390368318106
20
-34.3425539579151
30
0
41
1
10
50.3875405234119
20
-34.3549470080944
30
0
41
1
10
50.3825253177418
20
-34.3778367164122
30
0
41
1
10
50.3803262373818
20
-34.3883680330287
30
0
41
1
10
50.3784800008186
20
-34.3979310527897
30
0
0
SPLINE
5
33E
100
AcDbEntity
8
1
62
256
6
ByLayer
370
18
48
1
60
0
100
AcDbSpline
70
4
71
3
72
22
73
18
40
0
40
0
40
0
40
0
40
0.125
40
0.125
40
0.25
40
0.25
40
0.375
40
0.375
40
0.5
40
0.5
40
0.625
40
0.625
40
0.75
40
0.75
40
0.875
40
0.875
40
1
40
1
40
1
40
1
41
1
10
50.2636107400404
20
-34.908557272925
30
0
41
1
10
50.2607450217033
20
-34.9196766566275
30
0
41
1
10
50.257278085765
20
-34.9319115426295
30
0
41
1
10
50.2491702913997
20
-34.9584205997651
30
0
41
1
10
50.2445428192636
20
-34.9726182568255
30
0
41
1
10
50.234591228832
20
-35.0014136673825
30
0
41
1
10
50.2291463300575
20
-35.0163539102876
30
0
41
1
10
50.2179382330332
20
-35.0455529310314
30
0
41
1
10
50.2120668763285
20
-35.0601051105064
30
0
41
1
10
50.20017641086
20
-35.088121978701
30
0
41
1
10
50.1942438659683
20
-35.1013989107718
30
0
41
1
10
50.1824176126151
20
-35.1264951092246
30
0
41
1
10
50.1765958170649
20
-35.1381438651609
30
0
41
1
10
50.1656443043137
20
-35.1587055170384
30
0
41
1
10
50.1603726028206
20
-35.1678754380209
30
0
41
1
10
50.151000129723
20
-35.1826902801332
30
0
41
1
10
50.1468659103477
20
-35.1884240279838
30
0
41
1
10
50.1433842516403
20
-35.1922969467202
30
0
0
SPLINE
5
33F
100
AcDbEntity
8
1
62
256
6
ByLayer
370
18
48
1
60
0
100
AcDbSpline
70
4
71
3
72
14
73
10
40
0
40
0
40
0
40
0
40
0.25
40
0.25
40
0.5
40
0.5
40
0.75
40
0.75
40
1
40
1
40
1
40
1
41
1
10
49.9626489284443
20
-35.3715475805185
30
0
41
1
10
49.9586586571886
20
-35.375101987564
30
0
41
1
10
49.9538615834442
20
-35.3804071801
30
0
41
1
10
49.9428129734707
20
-35.3940260677857
30
0
41
1
10
49.9365925588079
20
-35.4023208834012
30
0
41
1
10
49.923393261425
20
-35.4208250320606
30
0
41
1
10
49.9162752316974
20
-35.4312314477826
30
0
41
1
10
49.9017948893514
20
-35.4530602653184
30
0
41
1
10
49.8943638188765
20
-35.4645749406317
30
0
41
1
10
49.8867358448293
20
-35.4766839701634
30
0
0
SPLINE
5
340
100
AcDbEntity
8
1
62
256
6
ByLayer
370
18
48
1
60
0
100
AcDbSpline
70
4
71
3
72
14
73
10
40
0
40
0
40
0
40
0
40
0.25
40
0.25
40
0.5
40
0.5
40
0.75
40
0.75
40
1
40
1
40
1
40
1
41
1
10
49.6438802940895
20
-35.8433767326026
30
0
41
1
10
49.6492896447529
20
-35.8330572477053
30
0
41
1
10
49.6556759928988
20
-35.821899468697
30
0
41
1
10
49.6699614625828
20
-35.7981948706195
30
0
41
1
10
49.6778337520796
20
-35.7857123359224
30
0
41
1
10
49.6941458345777
20
-35.7606476939953
30
0
41
1
10
49.7027535766182
20
-35.7478088283124
30
0
41
1
10
49.7199915080411
20
-35.7227080184196
30
0
41
1
10
49.7286884164357
20
-35.7103398027733
30
0
41
1
10
49.7374602853525
20
-35.6981545865459
30
0
0
SPLINE
5
341
100
AcDbEntity
8
1
62
256
6
ByLayer
370
18
48
1
60
0
100
AcDbSpline
70
4
71
3
72
20
73
16
40
0
40
0
40
0
40
0
40
0.125000000000004
40
0.125000000000004
40
0.250000000000009
40
0.250000000000009
40
0.375000000000013
40
0.375000000000013
40
0.500000000000018
40
0.500000000000018
40
0.625000000000022
40
0.625000000000022
40
0.750000000000026
40
0.750000000000026
40
1
40
1
40
1
40
1
41
1
10
49.04767175082
20
-36.6377426265332
30
0
41
1
10
49.057272581364
20
-36.6334226234096
30
0
41
1
10
49.0683207682077
20
-36.6270652421284
30
0
41
1
10
49.0922579889101
20
-36.6115449599466
30
0
41
1
10
49.1053034190325
20
-36.6022358896275
30
0
41
1
10
49.1317569684148
20
-36.5819872474181
30
0
41
1
10
49.1452907293334
20
-36.5709734789018
30
0
41
1
10
49.1728730970044
20
-36.5472986038453
30
0
41
1
10
49.1868846674544
20
-36.5346551834128
30
0
41
1
10
49.2144391727977
20
-36.5085900506098
30
0
41
1
10
49.2281047437792
20
-36.4950657719837
30
0
41
1
10
49.2552092910014
20
-36.4669475286888
30
0
41
1
10
49.2684099646532
20
-36.4525938831258
30
0
41
1
10
49.3061878442006
20
-36.4093743378675
30
0
41
1
10
49.3296261811299
20
-36.3795147864064
30
0
41
1
10
49.3461398396491
20
-36.3540029527379
30
0
0
SPLINE
5
342
100
AcDbEntity
8
1
62
256
6
ByLayer
370
18
48
1
60
0
100
AcDbSpline
70
4
71
3
72
12
73
8
40
0
40
0
40
0
40
0
40
0.500000000000018
40
0.500000000000018
40
0.750000000000009
40
0.750000000000009
40
1
40
1
40
1
40
1
41
1
10
48.3941709308311
20
-36.9221296499764
30
0
41
1
10
48.4306060757498
20
-36.9005773321508
30
0
41
1
10
48.4660868849771
20
-36.8801504298493
30
0
41
1
10
48.5175646933441
20
-36.8522653657864
30
0
41
1
10
48.534507051063
20
-36.8434120170591
30
0
41
1
10
48.56606590601
20
-36.828071141364
30
0
41
1
10
48.5810798801449
20
-36.8213656534605
30
0
41
1
10
48.5937482568266
20
-36.816993260323
30
0
0
SPLINE
5
343
100
AcDbEntity
8
1
62
256
6
ByLayer
370
18
48
1
60
0
100
AcDbSpline
70
4
71
3
72
12
73
8
40
0
40
0
40
0
40
0
40
0.249999999999991
40
0.249999999999991
40
0.499999999999982
40
0.499999999999982
40
1
40
1
40
1
40
1
41
1
10
43.4862517431809
20
-36.8169932603314
30
0
41
1
10
43.4989387051448
20
-36.8213720680361
30
0
41
1
10
43.5135933417258
20
-36.8279139615068
30
0
41
1
10
43.5452039040805
20
-36.8432632169454
30
0
41
1
10
43.5620298159744
20
-36.8520519878966
30
0
41
1
10
43.6132800613094
20
-36.8797952260333
30
0
41
1
10
43.6494000062862
20
-36.9005809298307
30
0
41
1
10
43.6858290691682
20
-36.9221296499764
30
0
0
SPLINE
5
344
100
AcDbEntity
8
1
62
256
6
ByLayer
370
18
48
1
60
0
100
AcDbSpline
70
4
71
3
72
22
73
18
40
0
40
0
40
0
40
0
40
0.125
40
0.125
40
0.25
40
0.25
40
0.375
40
0.375
40
0.5
40
0.5
40
0.625
40
0.625
40
0.75
40
0.75
40
0.875
40
0.875
40
1
40
1
40
1
40
1
41
1
10
42.7338601603502
20
-36.3540029527379
30
0
41
1
10
42.7421345385426
20
-36.3667859807937
30
0
41
1
10
42.7520023125892
20
-36.3804607142475
30
0
41
1
10
42.77418042204
20
-36.409033614262
30
0
41
1
10
42.7863093076028
20
-36.423668183873
30
0
41
1
10
42.8115129103686
20
-36.4525090671312
30
0
41
1
10
42.8248600166668
20
-36.4670195579154
30
0
41
1
10
42.8518339667718
20
-36.4950020608164
30
0
41
1
10
42.8654767409727
20
-36.5085085776885
30
0
41
1
10
42.8930677670015
20
-36.5346121113911
30
0
41
1
10
42.9071366205981
20
-36.5473061697409
30
0
41
1
10
42.9346469385191
20
-36.5709207506907
30
0
41
1
10
42.9481640631722
20
-36.5819242445882
30
0
41
1
10
42.974623077209
20
-36.6021821692501
30
0
41
1
10
42.987690245615
20
-36.6115095684471
30
0
41
1
10
43.0116528585661
20
-36.6270499645399
30
0
41
1
10
43.0227147400017
20
-36.633416918514
30
0
41
1
10
43.0323282491793
20
-36.6377426265332
30
0
0
SPLINE
5
345
100
AcDbEntity
8
1
62
256
6
ByLayer
370
18
48
1
60
0
100
AcDbSpline
70
4
71
3
72
14
73
10
40
0
40
0
40
0
40
0
40
0.25
40
0.25
40
0.5
40
0.5
40
0.75
40
0.75
40
1
40
1
40
1
40
1
41
1
10
42.3425397146468
20
-35.6981545865459
30
0
41
1
10
42.351322692925
20
-35.710355235057
30
0
41
1
10
42.3600134310827
20
-35.7227156090307
30
0
41
1
10
42.3772073615344
20
-35.7477515510932
30
0
41
1
10
42.3858231921535
20
-35.7606011199209
30
0
41
1
10
42.4021325660562
20
-35.7856595669495
30
0
41
1
10
42.4098337920281
20
-35.7978659155293
30
0
41
1
10
42.4241334320425
20
-35.8215727432865
30
0
41
1
10
42.430701898016
20
-35.8330411137428
30
0
41
1
10
42.4361197059099
20
-35.8433767326026
30
0
0
SPLINE
5
346
100
AcDbEntity
8
1
62
256
6
ByLayer
370
18
48
1
60
0
100
AcDbSpline
70
4
71
3
72
14
73
10
40
0
40
0
40
0
40
0
40
0.25
40
0.25
40
0.5
40
0.5
40
0.75
40
0.75
40
1
40
1
40
1
40
1
41
1
10
42.19326415517
20
-35.4766839701634
30
0
41
1
10
42.1856247301438
20
-35.4645567627718
30
0
41
1
10
42.1782042810843
20
-35.4530598455499
30
0
41
1
10
42.1637822667914
20
-35.4313172980467
30
0
41
1
10
42.1566846762086
20
-35.4209366643715
30
0
41
1
10
42.1434400816702
20
-35.4023642907167
30
0
41
1
10
42.137348219069
20
-35.3942364640778
30
0
41
1
10
42.1262857306502
20
-35.3805773818314
30
0
41
1
10
42.1213495719472
20
-35.3751093178155
30
0
41
1
10
42.117351071552
20
-35.3715475805134
30
0
0
SPLINE
5
347
100
AcDbEntity
8
1
62
256
6
ByLayer
370
18
48
1
60
0
100
AcDbSpline
70
4
71
3
72
22
73
18
40
0
40
0
40
0
40
0
40
0.125
40
0.125
40
0.25
40
0.25
40
0.375
40
0.375
40
0.5
40
0.5
40
0.625
40
0.625
40
0.75
40
0.75
40
0.875
40
0.875
40
1
40
1
40
1
40
1
41
1
10
41.936615748359
20
-35.1922969467202
30
0
41
1
10
41.9331350743386
20
-35.1884251233274
30
0
41
1
10
41.9289966459444
20
-35.182687162987
30
0
41
1
10
41.9195965574547
20
-35.1678247037485
30
0
41
1
10
41.9143398297429
20
-35.1586785063488
30
0
41
1
10
41.9033556667277
20
-35.1380499809356
30
0
41
1
10
41.8974894399671
20
-35.126303099964
30
0
41
1
10
41.8857143853948
20
-35.1013050246855
30
0
41
1
10
41.8797355573606
20
-35.0879229495877
30
0
41
1
10
41.8678090116042
20
-35.0598041257545
30
0
41
1
10
41.8620266110477
20
-35.0454648643749
30
0
41
1
10
41.8508081339437
20
-35.0162317352093
30
0
41
1
10
41.845374942171
20
-35.0013174131188
30
0
41
1
10
41.8354601462409
20
-34.9726252009916
30
0
41
1
10
41.8308333552645
20
-34.9584321513028
30
0
41
1
10
41.8227231993957
20
-34.9319161158506
30
0
41
1
10
41.8192554749398
20
-34.9196785836739
30
0
41
1
10
41.8163892599589
20
-34.908557272925
30
0
0
SPLINE
5
348
100
AcDbEntity
8
1
62
256
6
ByLayer
370
18
48
1
60
0
100
AcDbSpline
70
4
71
3
72
14
73
10
40
0
40
0
40
0
40
0
40
0.25
40
0.25
40
0.5
40
0.5
40
0.75
40
0.75
40
1
40
1
40
1
40
1
41
1
10
41.7015199991807
20
-34.3979310527897
30
0
41
1
10
41.6996737306332
20
-34.3883678673582
30
0
41
1
10
41.6974728502105
20
-34.377827418136
30
0
41
1
10
41.6924473386064
20
-34.3548925489081
30
0
41
1
10
41.6896246048052
20
-34.3425229456905
30
0
41
1
10
41.6837130257073
20
-34.3173000435732
30
0
41
1
10
41.6805427629908
20
-34.3040995202325
30
0
41
1
10
41.6742076666069
20
-34.2781857463543
30
0
41
1
10
41.6710210759433
20
-34.26537287592
30
0
41
1
10
41.6678201462612
20
-34.252708906733
30
0
0
SPLINE
5
349
100
AcDbEntity
8
1
62
256
6
ByLayer
370
18
48
1
60
0
100
AcDbSpline
70
4
71
3
72
14
73
10
40
0
40
0
40
0
40
0
40
0.25
40
0.25
40
0.5
40
0.5
40
0.75
40
0.75
40
1
40
1
40
1
40
1
41
1
10
41.5955968823189
20
-33.9261019007055
30
0
41
1
10
41.5966542089695
20
-33.9294388634573
30
0
41
1
10
41.5979407388071
20
-33.9343852699616
30
0
41
1
10
41.6009985146111
20
-33.9473672170322
30
0
41
1
10
41.6027704785936
20
-33.9554227646281
30
0
41
1
10
41.6066481430282
20
-33.9737474495037
30
0
41
1
10
41.6088098093631
20
-33.9842812008754
30
0
41
1
10
41.6133211974839
20
-34.0066715983371
30
0
41
1
10
41.6156840703825
20
-34.0185838571725
30
0
41
1
10
41.6181641201616
20
-34.0312382903505
30
0
0
SPLINE
5
34A
100
AcDbEntity
8
1
62
256
6
ByLayer
370
18
48
1
60
0
100
AcDbSpline
70
4
71
3
72
22
73
18
40
0
40
0
40
0
40
0
40
0.125
40
0.125
40
0.25
40
0.25
40
0.375
40
0.375
40
0.5
40
0.5
40
0.625
40
0.625
40
0.75
40
0.75
40
0.875
40
0.875
40
1
40
1
40
1
40
1
41
1
10
41.540309485369
20
-33.4631115931121
30
0
41
1
10
41.5403973626733
20
-33.4737996208224
30
0
41
1
10
41.5405211236859
20
-33.4856158649358
30
0
41
1
10
41.540893026725
20
-33.5114375036796
30
0
41
1
10
41.5411430782964
20
-33.5254219433426
30
0
41
1
10
41.5417972796921
20
-33.5540244408726
30
0
41
1
10
41.5422117939556
20
-33.5690445421257
30
0
41
1
10
41.5432034346791
20
-33.5986203984065
30
0
41
1
10
41.5437872194833
20
-33.6134202329761
30
0
41
1
10
41.5451124219223
20
-33.6421108472798
30
0
41
1
10
41.5458375364104
20
-33.6556918610797
30
0
41
1
10
41.5473978641469
20
-33.6813299556584
30
0
41
1
10
41.5482177940464
20
-33.6931037188322
30
0
41
1
10
41.5498414249747
20
-33.7138200153545
30
0
41
1
10
41.5506591274115
20
-33.7229223591739
30
0
41
1
10
41.5521482704018
20
-33.7374656213831
30
0
41
1
10
41.5528366514656
20
-33.7431020974941
30
0
41
1
10
41.5534160798503
20
-33.7468512669073
30
0
0
SPLINE
5
34B
100
AcDbEntity
8
1
62
256
6
ByLayer
370
18
48
1
60
0
100
AcDbSpline
70
4
71
3
72
12
73
8
40
0
40
0
40
0
40
0
40
0.249999999999994
40
0.249999999999994
40
0.499999999999987
40
0.499999999999987
40
1
40
1
40
1
40
1
41
1
10
41.5999375734503
20
-35.9754994561853
30
0
41
1
10
41.589983030086
20
-35.9168563286415
30
0
41
1
10
41.5812246088142
20
-35.8577663386636
30
0
41
1
10
41.5662415328663
20
-35.7395610094034
30
0
41
1
10
41.5600004032263
20
-35.6803647405333
30
0
41
1
10
41.5450141844282
20
-35.5024964508581
30
0
41
1
10
41.5399999999997
20
-35.3835453907176
30
0
41
1
10
41.5399999999997
20
-35.2642203641527
30
0
0
SPLINE
5
34C
100
AcDbEntity
8
1
62
256
6
ByLayer
370
18
48
1
60
0
100
AcDbSpline
70
4
71
3
72
12
73
8
40
0
40
0
40
0
40
0
40
0.500000000000001
40
0.500000000000001
40
0.75
40
0.75
40
1
40
1
40
1
40
1
41
1
10
47.9704062914543
20
-37.1436002663588
30
0
41
1
10
47.9187757416293
20
-37.1672275912763
30
0
41
1
10
47.8676023343368
20
-37.1909955071979
30
0
41
1
10
47.7916091751425
20
-37.2270242954914
30
0
41
1
10
47.7664105799824
20
-37.2391021758253
30
0
41
1
10
47.716513547539
20
-37.2637018878186
30
0
41
1
10
47.6917195068628
20
-37.2762126325064
30
0
41
1
10
47.6689559941111
20
-37.2888224124155
30
0
0
SPLINE
5
34D
100
AcDbEntity
8
1
62
256
6
ByLayer
370
18
48
1
60
0
100
AcDbSpline
70
4
71
3
72
12
73
8
40
0
40
0
40
0
40
0
40
0.250000000000014
40
0.250000000000014
40
0.500000000000028
40
0.500000000000028
40
1
40
1
40
1
40
1
41
1
10
44.4110440058882
20
-37.2888224124155
30
0
41
1
10
44.3883460468193
20
-37.2762489457733
30
0
41
1
10
44.3640979057983
20
-37.2640106348898
30
0
41
1
10
44.3144260802984
20
-37.2395075717904
30
0
41
1
10
44.2888553788179
20
-37.2272457564022
30
0
41
1
10
44.2123758368725
20
-37.1909827530159
30
0
41
1
10
44.1610995214838
20
-37.1671705088136
30
0
41
1
10
44.109593708545
20
-37.1436002663588
30
0
0
SPLINE
5
34E
100
AcDbEntity
8
1
62
256
6
ByLayer
370
18
48
1
60
0
100
AcDbSpline
70
4
71
3
72
8
73
4
40
0
40
0
40
0
40
0
40
1
40
1
40
1
40
1
41
1
10
41.5399999999997
20
20.0783966586567
30
0
41
1
10
41.5399999999997
20
20.1706331120661
30
0
41
1
10
41.5399999999997
20
20.259666703281
30
0
41
1
10
41.5399999999997
20
20.3452700842171
30
0
0
SPLINE
5
34F
100
AcDbEntity
8
1
62
256
6
ByLayer
370
18
48
1
60
0
100
AcDbSpline
70
4
71
3
72
8
73
4
40
0
40
0
40
0
40
0
40
1
40
1
40
1
40
1
41
1
10
50.5399999999997
20
20.0783966586546
30
0
41
1
10
50.5399999999997
20
20.1706331120649
30
0
41
1
10
50.5399999999997
20
20.2596667032807
30
0
41
1
10
50.5399999999997
20
20.3452700842175
30
0
0
SPLINE
5
350
100
AcDbEntity
8
1
62
256
6
ByLayer
370
18
48
1
60
0
100
AcDbSpline
70
4
71
3
72
8
73
4
40
0
40
0
40
0
40
0
40
1
40
1
40
1
40
1
41
1
10
50.5399999999997
20
20.3452700842175
30
0
41
1
10
50.5399999999997
20
20.5159598477276
30
0
41
1
10
50.5198027814986
20
20.6848229742442
30
0
41
1
10
50.48006242655
20
20.8519386934971
30
0
0
SPLINE
5
351
100
AcDbEntity
8
1
62
256
6
ByLayer
370
18
48
1
60
0
100
AcDbSpline
70
4
71
3
72
22
73
18
40
0
40
0
40
0
40
0
40
0.142176261148356
40
0.142176261148356
40
0.284352522296713
40
0.284352522296713
40
0.426528783445069
40
0.426528783445069
40
0.568705044593426
40
0.568705044593426
40
0.710881305741782
40
0.710881305741782
40
0.853057566890138
40
0.853057566890138
40
0.995233828038495
40
0.995233828038495
40
1
40
1
40
1
40
1
41
1
10
50.526583920149
20
25.4502372614573
30
0
41
1
10
50.5271633648652
20
25.4358075322794
30
0
41
1
10
50.5278419352333
20
25.4211820483066
30
0
41
1
10
50.5293363741347
20
25.3915492415381
30
0
41
1
10
50.5301509512361
20
25.3766008357638
30
0
41
1
10
50.531772486878
20
25.3480318690743
30
0
41
1
10
50.5326014729285
20
25.3340149939859
30
0
41
1
10
50.5341519331508
20
25.3082859123755
30
0
41
1
10
50.5348860854122
20
25.2963508754005
30
0
41
1
10
50.5362119190429
20
25.2750931401146
30
0
41
1
10
50.5367892409626
20
25.2659966310523
30
0
41
1
10
50.5377879895327
20
25.2508612696317
30
0
41
1
10
50.5381982622299
20
25.2450051743471
30
0
41
1
10
50.5388543181133
20
25.2370712175879
30
0
41
1
10
50.5391055774043
20
25.2349525516589
30
0
41
1
10
50.5392973910847
20
25.2348095521231
30
0
41
1
10
50.5393035455735
20
25.2348070851753
30
0
41
1
10
50.5393096337698
20
25.2348067905434
30
0
0
SPLINE
5
352
100
AcDbEntity
8
1
62
256
6
ByLayer
370
18
48
1
60
0
100
AcDbSpline
70
4
71
3
72
14
73
10
40
0
40
0
40
0
40
0
40
0.25
40
0.25
40
0.5
40
0.5
40
0.75
40
0.75
40
1
40
1
40
1
40
1
41
1
10
50.4618358798377
20
26.2853362614475
30
0
41
1
10
50.4643158604116
20
26.2759700897419
30
0
41
1
10
50.4666840556747
20
26.2656091782914
30
0
41
1
10
50.4712138336761
20
26.2429443181081
30
0
41
1
10
50.4733657846026
20
26.2306333708623
30
0
41
1
10
50.4772386955933
20
26.2054158030354
30
0
41
1
10
50.4790160014625
20
26.1921353379461
30
0
41
1
10
50.4820612053595
20
26.1659329984689
30
0
41
1
10
50.4833458188988
20
26.1529566512171
30
0
41
1
10
50.4844031176804
20
26.1401141153908
30
0
0
SPLINE
5
353
100
AcDbEntity
8
1
62
256
6
ByLayer
370
18
48
1
60
0
100
AcDbSpline
70
4
71
3
72
14
73
10
40
0
40
0
40
0
40
0
40
0.25
40
0.25
40
0.5
40
0.5
40
0.75
40
0.75
40
1
40
1
40
1
40
1
41
1
10
50.4121798537381
20
26.4492621897775
30
0
41
1
10
50.4089791156702
20
26.458635120004
30
0
41
1
10
50.4057874722427
20
26.4666079831132
30
0
41
1
10
50.3994325051183
20
26.4798451114065
30
0
41
1
10
50.3962715589379
20
26.4850537704791
30
0
41
1
10
50.390368318106
20
26.4920694786289
30
0
41
1
10
50.3875405234119
20
26.4939757109695
30
0
41
1
10
50.3825253177418
20
26.4942585050062
30
0
41
1
10
50.3803262373818
20
26.49270495624
30
0
41
1
10
50.3784800008186
20
26.4893479461892
30
0
0
SPLINE
5
354
100
AcDbEntity
8
1
62
256
6
ByLayer
370
18
48
1
60
0
100
AcDbSpline
70
4
71
3
72
22
73
18
40
0
40
0
40
0
40
0
40
0.125
40
0.125
40
0.25
40
0.25
40
0.375
40
0.375
40
0.5
40
0.5
40
0.625
40
0.625
40
0.75
40
0.75
40
0.875
40
0.875
40
1
40
1
40
1
40
1
41
1
10
50.2636107400404
20
26.310097312391
30
0
41
1
10
50.2607450217032
20
26.3061939551063
30
0
41
1
10
50.257278085765
20
26.3044542657009
30
0
41
1
10
50.2491702913997
20
26.3049573516112
30
0
41
1
10
50.2445428192636
20
26.3072662350071
30
0
41
1
10
50.234591228832
20
26.3155154256292
30
0
41
1
10
50.2291463300575
20
26.3215647590716
30
0
41
1
10
50.2179382330332
20
26.3366465333326
30
0
41
1
10
50.2120668763285
20
26.3458030890373
30
0
41
1
10
50.20017641086
20
26.3666956282794
30
0
41
1
10
50.1942438659683
20
26.3782530312242
30
0
41
1
10
50.1824176126151
20
26.4035941397872
30
0
41
1
10
50.1765958170649
20
26.4172553303238
30
0
41
1
10
50.1656443043137
20
26.445493542379
30
0
41
1
10
50.1603726028206
20
26.4604576371992
30
0
41
1
10
50.151000129723
20
26.4902988890311
30
0
41
1
10
50.1468659103477
20
26.5052073421828
30
0
41
1
10
50.1433842516403
20
26.5201129351885
30
0
0
SPLINE
5
355
100
AcDbEntity
8
1
62
256
6
ByLayer
370
18
48
1
60
0
100
AcDbSpline
70
4
71
3
72
14
73
10
40
0
40
0
40
0
40
0
40
0.25
40
0.25
40
0.5
40
0.5
40
0.75
40
0.75
40
1
40
1
40
1
40
1
41
1
10
49.9626489284443
20
27.2099897891221
30
0
41
1
10
49.9586586571886
20
27.2236695351748
30
0
41
1
10
49.9538615834442
20
27.2372642377725
30
0
41
1
10
49.9428129734707
20
27.2642840496126
30
0
41
1
10
49.9365925588079
20
27.2775708721828
30
0
41
1
10
49.923393261425
20
27.3025885241453
30
0
41
1
10
49.9162752316974
20
27.3145730389097
30
0
41
1
10
49.9017948893514
20
27.3363290566592
30
0
41
1
10
49.8943638188765
20
27.3462491935764
30
0
41
1
10
49.8867358448293
20
27.3552119351788
30
0
0
SPLINE
5
356
100
AcDbEntity
8
1
62
256
6
ByLayer
370
18
48
1
60
0
100
AcDbSpline
70
4
71
3
72
14
73
10
40
0
40
0
40
0
40
0
40
0.25
40
0.25
40
0.5
40
0.5
40
0.75
40
0.75
40
1
40
1
40
1
40
1
41
1
10
49.6438802940895
20
27.5592236199205
30
0
41
1
10
49.649289644753
20
27.5628461800935
30
0
41
1
10
49.6556759928988
20
27.5642862952222
30
0
41
1
10
49.6699614625828
20
27.5636272689982
30
0
41
1
10
49.6778337520796
20
27.5614684669823
30
0
41
1
10
49.6941458345778
20
27.5541353052043
30
0
41
1
10
49.7027535766182
20
27.5488799680231
30
0
41
1
10
49.7199915080411
20
27.5358973390872
30
0
41
1
10
49.7286884164357
20
27.5281569962253
30
0
41
1
10
49.7374602853525
20
27.5191378635088
30
0
0
SPLINE
5
357
100
AcDbEntity
8
1
62
256
6
ByLayer
370
18
48
1
60
0
100
AcDbSpline
70
4
71
3
72
20
73
16
40
0
40
0
40
0
40
0
40
0.124999999999998
40
0.124999999999998
40
0.249999999999996
40
0.249999999999996
40
0.374999999999994
40
0.374999999999994
40
0.499999999999992
40
0.499999999999992
40
0.62499999999999
40
0.62499999999999
40
0.749999999999988
40
0.749999999999988
40
1
40
1
40
1
40
1
41
1
10
49.04767175082
20
27.5899886089198
30
0
41
1
10
49.0572725813641
20
27.5733623348549
30
0
41
1
10
49.0683207682077
20
27.5576182559592
30
0
41
1
10
49.0922579889101
20
27.5272371751261
30
0
41
1
10
49.1053034190325
20
27.5125068490057
30
0
41
1
10
49.1317569684148
20
27.4852069773336
30
0
41
1
10
49.1452907293334
20
27.4724691817207
30
0
41
1
10
49.1728730970044
20
27.4486115544199
30
0
41
1
10
49.1868846674544
20
27.4375492129941
30
0
41
1
10
49.2144391727977
20
27.4178026974841
30
0
41
1
10
49.2281047437792
20
27.409007659433
30
0
41
1
10
49.2552092910014
20
27.3938230146735
30
0
41
1
10
49.2684099646532
20
27.3875779634045
30
0
41
1
10
49.3061878442006
20
27.3738358989467
30
0
41
1
10
49.3296261811298
20
27.3710172917726
30
0
41
1
10
49.3461398396491
20
27.3799729861222
30
0
0
SPLINE
5
358
100
AcDbEntity
8
1
62
256
6
ByLayer
370
18
48
1
60
0
100
AcDbSpline
70
4
71
3
72
12
73
8
40
0
40
0
40
0
40
0
40
0.499999999999985
40
0.499999999999985
40
0.749999999999992
40
0.749999999999992
40
1
40
1
40
1
40
1
41
1
10
48.3941709308311
20
28.4250876089101
30
0
41
1
10
48.4306060757498
20
28.4091352276645
30
0
41
1
10
48.4660868849771
20
28.3898038449042
30
0
41
1
10
48.5175646933441
20
28.3540049435953
30
0
41
1
10
48.534507051063
20
28.3408113441526
30
0
41
1
10
48.56606590601
20
28.3123066122417
30
0
41
1
10
48.5810798801449
20
28.2966933688878
30
0
41
1
10
48.5937482568266
20
28.2798654628588
30
0
0
SPLINE
5
359
100
AcDbEntity
8
1
62
256
6
ByLayer
370
18
48
1
60
0
100
AcDbSpline
70
4
71
3
72
12
73
8
40
0
40
0
40
0
40
0
40
0.499999999999992
40
0.499999999999992
40
0.749999999999996
40
0.749999999999996
40
1
40
1
40
1
40
1
41
1
10
47.9704062914543
20
28.58901353724
30
0
41
1
10
47.9187757416293
20
28.6065017766928
30
0
41
1
10
47.8676023343368
20
28.6190132776654
30
0
41
1
10
47.7916091751424
20
28.6303639601149
30
0
41
1
10
47.7664105799824
20
28.6328877183968
30
0
41
1
10
47.716513547539
20
28.634409302067
30
0
41
1
10
47.6917195068628
20
28.6335258408043
30
0
41
1
10
47.6689559941111
20
28.6290992936517
30
0
0
SPLINE
5
35A
100
AcDbEntity
8
1
62
256
6
ByLayer
370
18
48
1
60
0
100
AcDbSpline
70
4
71
3
72
12
73
8
40
0
40
0
40
0
40
0
40
0.250000000000015
40
0.250000000000015
40
0.50000000000003
40
0.50000000000003
40
1
40
1
40
1
40
1
41
1
10
44.4110440058882
20
28.6290992936517
30
0
41
1
10
44.3883460468193
20
28.6335130933663
30
0
41
1
10
44.3640979057983
20
28.6343922573246
30
0
41
1
10
44.3144260802984
20
28.6329478980073
30
0
41
1
10
44.2888553788179
20
28.6304229641343
30
0
41
1
10
44.2123758368725
20
28.6190306012866
30
0
41
1
10
44.1610995214838
20
28.6064595259606
30
0
41
1
10
44.109593708545
20
28.58901353724
30
0
0
SPLINE
5
35B
100
AcDbEntity
8
1
62
256
6
ByLayer
370
18
48
1
60
0
100
AcDbSpline
70
4
71
3
72
12
73
8
40
0
40
0
40
0
40
0
40
0.249999999999998
40
0.249999999999998
40
0.499999999999996
40
0.499999999999996
40
1
40
1
40
1
40
1
41
1
10
43.4862517431809
20
28.2798654628534
30
0
41
1
10
43.4989387051448
20
28.2967180564494
30
0
41
1
10
43.5135933417258
20
28.3119703122478
30
0
41
1
10
43.5452039040804
20
28.3405782337234
30
0
41
1
10
43.5620298159744
20
28.3536962718146
30
0
41
1
10
43.6132800613094
20
28.3894158604769
30
0
41
1
10
43.6494000062862
20
28.4091378905596
30
0
41
1
10
43.6858290691682
20
28.4250876089101
30
0
0
SPLINE
5
35C
100
AcDbEntity
8
1
62
256
6
ByLayer
370
18
48
1
60
0
100
AcDbSpline
70
4
71
3
72
22
73
18
40
0
40
0
40
0
40
0
40
0.125
40
0.125
40
0.25
40
0.25
40
0.375
40
0.375
40
0.5
40
0.5
40
0.625
40
0.625
40
0.75
40
0.75
40
0.875
40
0.875
40
1
40
1
40
1
40
1
41
1
10
42.7338601603502
20
27.3799729861223
30
0
41
1
10
42.7421345385426
20
27.3754856218027
30
0
41
1
10
42.7520023125891
20
27.3740125836362
30
0
41
1
10
42.77418042204
20
27.3754357929273
30
0
41
1
10
42.7863093076028
20
27.3783885306667
30
0
41
1
10
42.8115129103686
20
27.3875432805893
30
0
41
1
10
42.8248600166668
20
27.3938616151458
30
0
41
1
10
42.8518339667718
20
27.4089735510356
30
0
41
1
10
42.8654767409727
20
27.4177456872096
30
0
41
1
10
42.8930677670015
20
27.4375118925011
30
0
41
1
10
42.9071366205981
20
27.4486212960577
30
0
41
1
10
42.9346469385191
20
27.4724139331939
30
0
41
1
10
42.9481640631722
20
27.4851303119967
30
0
41
1
10
42.9746230772089
20
27.5124261919177
30
0
41
1
10
42.987690245615
20
27.527175426544
30
0
41
1
10
43.0116528585661
20
27.5575808439011
30
0
41
1
10
43.0227147400017
20
27.573340378584
30
0
41
1
10
43.0323282491793
20
27.5899886089198
30
0
0
SPLINE
5
35D
100
AcDbEntity
8
1
62
256
6
ByLayer
370
18
48
1
60
0
100
AcDbSpline
70
4
71
3
72
14
73
10
40
0
40
0
40
0
40
0
40
0.25
40
0.25
40
0.5
40
0.5
40
0.75
40
0.75
40
1
40
1
40
1
40
1
41
1
10
42.3425397146468
20
27.5191378635088
30
0
41
1
10
42.351322692925
20
27.5281684187403
30
0
41
1
10
42.3600134310827
20
27.5358994667543
30
0
41
1
10
42.3772073615344
20
27.5488521379068
30
0
41
1
10
42.3858231921535
20
27.554117765052
30
0
41
1
10
42.4021325660561
20
27.5614569268547
30
0
41
1
10
42.409833792028
20
27.5635845814212
30
0
41
1
10
42.4241334320425
20
27.564309838161
30
0
41
1
10
42.430701898016
20
27.5628518437725
30
0
41
1
10
42.4361197059099
20
27.5592236199205
30
0
0
SPLINE
5
35E
100
AcDbEntity
8
1
62
256
6
ByLayer
370
18
48
1
60
0
100
AcDbSpline
70
4
71
3
72
14
73
10
40
0
40
0
40
0
40
0
40
0.25
40
0.25
40
0.5
40
0.5
40
0.75
40
0.75
40
1
40
1
40
1
40
1
41
1
10
42.19326415517
20
27.3552119351788
30
0
41
1
10
42.1856247301438
20
27.346235738868
30
0
41
1
10
42.1782042810843
20
27.33632452422
30
0
41
1
10
42.1637822667914
20
27.3146627007966
30
0
41
1
10
42.1566846762086
20
27.3027279424398
30
0
41
1
10
42.1434400816702
20
27.2776409721146
30
0
41
1
10
42.137348219069
20
27.2646424374143
30
0
41
1
10
42.1262857306502
20
27.23765932888
30
0
41
1
10
42.1213495719472
20
27.2236977469264
30
0
41
1
10
42.117351071552
20
27.2099897891228
30
0
0
SPLINE
5
35F
100
AcDbEntity
8
1
62
256
6
ByLayer
370
18
48
1
60
0
100
AcDbSpline
70
4
71
3
72
22
73
18
40
0
40
0
40
0
40
0
40
0.125
40
0.125
40
0.25
40
0.25
40
0.375
40
0.375
40
0.5
40
0.5
40
0.625
40
0.625
40
0.75
40
0.75
40
0.875
40
0.875
40
1
40
1
40
1
40
1
41
1
10
41.936615748359
20
26.5201129351885
30
0
41
1
10
41.9331350743386
20
26.5052115578007
30
0
41
1
10
41.9289966459444
20
26.4902843015905
30
0
41
1
10
41.9195965574546
20
26.4603637829298
30
0
41
1
10
41.9143398297429
20
26.4454473829741
30
0
41
1
10
41.9033556667276
20
26.4171355127694
30
0
41
1
10
41.8974894399671
20
26.4033861292014
30
0
41
1
10
41.8857143853948
20
26.3781725190009
30
0
41
1
10
41.8797355573606
20
26.3665272902946
30
0
41
1
10
41.8678090116042
20
26.3455989177128
30
0
41
1
10
41.8620266110476
20
26.3365932421131
30
0
41
1
10
41.8508081339437
20
26.3215095133024
30
0
41
1
10
41.845374942171
20
26.3154842907144
30
0
41
1
10
41.8354601462409
20
26.3072717958322
30
0
41
1
10
41.8308333552644
20
26.3049583861048
30
0
41
1
10
41.8227231993957
20
26.3044535377168
30
0
41
1
10
41.8192554749398
20
26.3061932786344
30
0
41
1
10
41.8163892599589
20
26.310097312391
30
0
0
SPLINE
5
360
100
AcDbEntity
8
1
62
256
6
ByLayer
370
18
48
1
60
0
100
AcDbSpline
70
4
71
3
72
14
73
10
40
0
40
0
40
0
40
0
40
0.25
40
0.25
40
0.5
40
0.5
40
0.75
40
0.75
40
1
40
1
40
1
40
1
41
1
10
41.7015199991807
20
26.4893479461892
30
0
41
1
10
41.6996737306332
20
26.4927050143971
30
0
41
1
10
41.6974728502105
20
26.494261575232
30
0
41
1
10
41.6924473386064
20
26.4939718441761
30
0
41
1
10
41.6896246048052
20
26.4920646754744
30
0
41
1
10
41.6837130257073
20
26.485031828731
30
0
41
1
10
41.6805427629907
20
26.4797977507436
30
0
41
1
10
41.6742076666069
20
26.4665936832689
30
0
41
1
10
41.6710210759433
20
26.4586356811202
30
0
41
1
10
41.6678201462612
20
26.4492621897775
30
0
0
SPLINE
5
361
100
AcDbEntity
8
1
62
256
6
ByLayer
370
18
48
1
60
0
100
AcDbSpline
70
4
71
3
72
14
73
10
40
0
40
0
40
0
40
0
40
0.25
40
0.25
40
0.5
40
0.5
40
0.75
40
0.75
40
1
40
1
40
1
40
1
41
1
10
41.5955968823189
20
26.1401141153908
30
0
41
1
10
41.5966542089695
20
26.1529569897289
30
0
41
1
10
41.5979407388071
20
26.1659567823178
30
0
41
1
10
41.6009985146111
20
26.1922531475186
30
0
41
1
10
41.6027704785936
20
26.2054821323741
30
0
41
1
10
41.6066481430282
20
26.2307174242899
30
0
41
1
10
41.6088098093631
20
26.2430689871228
30
0
41
1
10
41.6133211974839
20
26.2656290512094
30
0
41
1
10
41.6156840703825
20
26.2759698283736
30
0
41
1
10
41.6181641201616
20
26.2853362614475
30
0
0
SPLINE
5
362
100
AcDbEntity
8
1
62
256
6
ByLayer
370
18
48
1
60
0
100
AcDbSpline
70
4
71
3
72
22
73
18
40
0
40
0
40
0
40
0
40
0.0047993526064866
40
0.0047993526064866
40
0.146970873662703
40
0.146970873662703
40
0.289142394718919
40
0.289142394718919
40
0.431313915775135
40
0.431313915775135
40
0.573485436831351
40
0.573485436831351
40
0.715656957887568
40
0.715656957887568
40
0.857828478943784
40
0.857828478943784
40
1
40
1
40
1
40
1
41
1
10
41.540688455039
20
25.2348066386234
30
0
41
1
10
41.5406945915655
20
25.2348065601429
30
0
41
1
10
41.5407007979504
20
25.2348086606857
30
0
41
1
10
41.540893026725
20
25.2349396454482
30
0
41
1
10
41.5411430782964
20
25.2370462125369
30
0
41
1
10
41.5417972796921
20
25.2449448492329
30
0
41
1
10
41.5422117939556
20
25.2508598546633
30
0
41
1
10
41.5432034346791
20
25.2658837833652
30
0
41
1
10
41.5437872194833
20
25.2750795442187
30
0
41
1
10
41.5451124219223
20
25.2963267266428
30
0
41
1
10
41.5458375364104
20
25.3081124599776
30
0
41
1
10
41.5473978641469
20
25.3340027076133
30
0
41
1
10
41.5482177940464
20
25.3478648679152
30
0
41
1
10
41.5498414249747
20
25.3764623273204
30
0
41
1
10
41.5506591274115
20
25.3914676318266
30
0
41
1
10
41.5521482704018
20
25.4209803223085
30
0
41
1
10
41.5528366514656
20
25.4358079389782
30
0
41
1
10
41.5534160798503
20
25.4502372614573
30
0
0
SPLINE
5
363
100
AcDbEntity
8
1
62
256
6
ByLayer
370
18
48
1
60
0
100
AcDbSpline
70
4
71
3
72
12
73
8
40
0
40
0
40
0
40
0
40
0.250000000000003
40
0.250000000000003
40
0.500000000000006
40
0.500000000000006
40
1
40
1
40
1
40
1
41
1
10
41.5999375734503
20
20.8519386935008
30
0
41
1
10
41.5899830300861
20
20.8100779532959
30
0
41
1
10
41.5812246088142
20
20.76792076832
30
0
41
1
10
41.5662415328663
20
20.6836327780056
30
0
41
1
10
41.5600004032263
20
20.6414441545862
30
0
41
1
10
41.5450141844282
20
20.5147440588881
30
0
41
1
10
41.5399999999997
20
20.4300986615467
30
0
41
1
10
41.5399999999997
20
20.3452700842171
30
0
0
SPLINE
5
364
100
AcDbEntity
8
1
62
256
6
ByLayer
370
18
48
1
60
0
100
AcDbSpline
70
4
71
3
72
27
73
23
40
0
40
0
40
0
40
0
40
0.124999999999987
40
0.124999999999987
40
0.249999999999975
40
0.249999999999975
40
0.312499999999973
40
0.312499999999973
40
0.374999999999971
40
0.437499999999968
40
0.437499999999968
40
0.499999999999966
40
0.499999999999966
40
0.624999999999976
40
0.624999999999976
40
0.749999999999985
40
0.749999999999985
40
0.812499999999988
40
0.812499999999988
40
0.874999999999991
40
0.874999999999991
40
1
40
1
40
1
40
1
41
1
10
46.2876090228731
20
17.2960638919266
30
0
41
1
10
46.2956675398019
20
17.3327360127249
30
0
41
1
10
46.3071567103009
20
17.3685695273082
30
0
41
1
10
46.3371070549404
20
17.436726572913
30
0
41
1
10
46.3553969531477
20
17.4688027571593
30
0
41
1
10
46.3884584334009
20
17.5132354704176
30
0
41
1
10
46.400508466711
20
17.5275083441827
30
0
41
1
10
46.426327764016
20
17.5541722796424
30
0
41
1
10
46.4537332779059
20
17.5788627692411
30
0
41
1
10
46.484440319374
20
17.5993262662803
30
0
41
1
10
46.5169258836515
20
17.6174690168343
30
0
41
1
10
46.5338524422127
20
17.6252430555206
30
0
41
1
10
46.5857253079044
20
17.6443317832773
30
0
41
1
10
46.6222866432346
20
17.6516535080482
30
0
41
1
10
46.6983285757656
20
17.6557520619269
30
0
41
1
10
46.7363000749034
20
17.6525400845709
30
0
41
1
10
46.7933678669602
20
17.6413820324206
30
0
41
1
10
46.8125152550301
20
17.6365553086945
30
0
41
1
10
46.8501932826619
20
17.6251040834807
30
0
41
1
10
46.8687501328503
20
17.6184883896475
30
0
41
1
10
46.9236954098721
20
17.5962674176326
30
0
41
1
10
46.9593686701096
20
17.578316719882
30
0
41
1
10
46.9942421511778
20
17.5575601891628
30
0
0
SPLINE
5
365
100
AcDbEntity
8
1
62
256
6
ByLayer
370
18
48
1
60
0
100
AcDbSpline
70
4
71
3
72
18
73
14
40
0
40
0
40
0
40
0
40
0.249999999999957
40
0.249999999999957
40
0.374999999999948
40
0.374999999999948
40
0.49999999999994
40
0.49999999999994
40
0.749999999999975
40
0.749999999999975
40
0.874999999999988
40
0.874999999999988
40
1
40
1
40
1
40
1
41
1
10
46.2876090228731
20
17.2960638919266
30
0
41
1
10
46.2816556567064
20
17.2689717402126
30
0
41
1
10
46.2716345854575
20
17.2431568029814
30
0
41
1
10
46.2503360693307
20
17.2072318720553
30
0
41
1
10
46.242135151131
20
17.1956865872174
30
0
41
1
10
46.2239807976818
20
17.174249634729
30
0
41
1
10
46.2139767089702
20
17.1642564511192
30
0
41
1
10
46.1809723588676
20
17.1365869471272
30
0
41
1
10
46.1556407402904
20
17.1217988049825
30
0
41
1
10
46.1137079481244
20
17.1064969220193
30
0
41
1
10
46.099399221632
20
17.1026578085054
30
0
41
1
10
46.0701249648583
20
17.0974718542709
30
0
41
1
10
46.0549842320537
20
17.0961330068663
30
0
41
1
10
46.04
20
17.0961330068663
30
0
0
SPLINE
5
366
100
AcDbEntity
8
1
62
256
6
ByLayer
370
18
48
1
60
0
100
AcDbSpline
70
4
71
3
72
27
73
23
40
0
40
0
40
0
40
0
40
0.124999999999978
40
0.124999999999978
40
0.249999999999956
40
0.249999999999956
40
0.312499999999955
40
0.312499999999955
40
0.374999999999954
40
0.437499999999952
40
0.437499999999952
40
0.499999999999951
40
0.499999999999951
40
0.624999999999966
40
0.624999999999966
40
0.749999999999982
40
0.749999999999982
40
0.812499999999986
40
0.812499999999986
40
0.874999999999989
40
0.874999999999989
40
1
40
1
40
1
40
1
41
1
10
45.0857578488221
20
17.5575601891627
30
0
41
1
10
45.1206605322979
20
17.5783341010166
30
0
41
1
10
45.1568283940447
20
17.5965316840965
30
0
41
1
10
45.2306581582616
20
17.6262839012156
30
0
41
1
10
45.2680128699933
20
17.6377682696825
30
0
41
1
10
45.3250130417882
20
17.6488728202597
30
0
41
1
10
45.3442970078719
20
17.6515502543613
30
0
41
1
10
45.3826554587238
20
17.6544646017957
30
0
41
1
10
45.4206429250952
20
17.6549557990491
30
0
41
1
10
45.457905287759
20
17.6502665771789
30
0
41
1
10
45.4947942405098
20
17.6427366326147
30
0
41
1
10
45.5128030475513
20
17.6375825066235
30
0
41
1
10
45.5645988975274
20
17.6183076465256
30
0
41
1
10
45.5967257067062
20
17.6002106639579
30
0
41
1
10
45.6553438144418
20
17.5544770045832
30
0
41
1
10
45.6807241535162
20
17.527821084001
30
0
41
1
10
45.7137925588428
20
17.4833072697482
30
0
41
1
10
45.7240193906981
20
17.4676103328821
30
0
41
1
10
45.742504225085
20
17.4353755174923
30
0
41
1
10
45.7507887918157
20
17.4188269060478
30
0
41
1
10
45.7730091774985
20
17.3680500524885
30
0
41
1
10
45.7843392007319
20
17.332705338387
30
0
41
1
10
45.7923909771268
20
17.2960638919266
30
0
0
SPLINE
5
367
100
AcDbEntity
8
1
62
256
6
ByLayer
370
18
48
1
60
0
100
AcDbSpline
70
4
71
3
72
20
73
16
40
0
40
0
40
0
40
0
40
0.250000000000046
40
0.250000000000046
40
0.375000000000038
40
0.375000000000038
40
0.50000000000003
40
0.50000000000003
40
0.625000000000023
40
0.625000000000023
40
0.750000000000015
40
0.750000000000015
40
0.875000000000008
40
0.875000000000008
40
1
40
1
40
1
40
1
41
1
10
45.0857578488221
20
17.5575601891627
30
0
41
1
10
45.0600490035541
20
17.5422584062545
30
0
41
1
10
45.0332386264716
20
17.5301054557241
30
0
41
1
10
44.9918848473777
20
17.5172197513161
30
0
41
1
10
44.9781707971312
20
17.5139046949757
30
0
41
1
10
44.9509068470013
20
17.5092647462409
30
0
41
1
10
44.9372499372778
20
17.5079390177253
30
0
41
1
10
44.9106721204652
20
17.5074751450642
30
0
41
1
10
44.8978410263364
20
17.5083193222867
30
0
41
1
10
44.87314328034
20
17.512210356213
30
0
41
1
10
44.8611852557654
20
17.5153068756508
30
0
41
1
10
44.8391745491765
20
17.5235992870985
30
0
41
1
10
44.8290313711025
20
17.5287880194318
30
0
41
1
10
44.8105430002875
20
17.5413157512243
30
0
41
1
10
44.8022709082033
20
17.5486492248037
30
0
41
1
10
44.7952757718038
20
17.5567550237457
30
0
0
SPLINE
5
368
100
AcDbEntity
8
1
62
256
6
ByLayer
370
18
48
1
60
0
100
AcDbSpline
70
4
71
3
72
20
73
16
40
0
40
0
40
0
40
0
40
0.125000000000003
40
0.125000000000003
40
0.250000000000007
40
0.250000000000007
40
0.37500000000001
40
0.37500000000001
40
0.500000000000014
40
0.500000000000014
40
0.625000000000017
40
0.625000000000017
40
0.75000000000002
40
0.75000000000002
40
1
40
1
40
1
40
1
41
1
10
46.04
20
17.0961330068663
30
0
41
1
10
46.0249607868598
20
17.0961330068663
30
0
41
1
10
46.0100910479374
20
17.0974426321226
30
0
41
1
10
45.9806839867899
20
17.1026341149842
30
0
41
1
10
45.9660261502589
20
17.1065842568008
30
0
41
1
10
45.9383070072154
20
17.1167188705513
30
0
41
1
10
45.9251016044998
20
17.1229072916237
30
0
41
1
10
45.8999458514444
20
17.1374498083511
30
0
41
1
10
45.8879034291111
20
17.1459058044167
30
0
41
1
10
45.8659975135772
20
17.1642853404277
30
0
41
1
10
45.8560221770705
20
17.1742487160632
30
0
41
1
10
45.8379004410368
20
17.1956419709572
30
0
41
1
10
45.8296977823543
20
17.2071750902496
30
0
41
1
10
45.808302187755
20
17.2432628158886
30
0
41
1
10
45.7983594832761
20
17.2689028422657
30
0
41
1
10
45.7923909771268
20
17.2960638919266
30
0
0
SPLINE
5
369
100
AcDbEntity
8
1
62
256
6
ByLayer
370
18
48
1
60
0
100
AcDbSpline
70
4
71
3
72
20
73
16
40
0
40
0
40
0
40
0
40
0.124999999999994
40
0.124999999999994
40
0.249999999999989
40
0.249999999999989
40
0.374999999999983
40
0.374999999999983
40
0.499999999999978
40
0.499999999999978
40
0.624999999999972
40
0.624999999999972
40
0.749999999999967
40
0.749999999999967
40
1
40
1
40
1
40
1
41
1
10
47.2847242281962
20
17.5567550237457
30
0
41
1
10
47.2777290917966
20
17.5486492248037
30
0
41
1
10
47.2694569997124
20
17.5413157512243
30
0
41
1
10
47.2509686288974
20
17.5287880194318
30
0
41
1
10
47.2408254508234
20
17.5235992870985
30
0
41
1
10
47.2188147442346
20
17.5153068756508
30
0
41
1
10
47.20685671966
20
17.512210356213
30
0
41
1
10
47.1821589736635
20
17.5083193222867
30
0
41
1
10
47.1693278795348
20
17.5074751450642
30
0
41
1
10
47.1427500627221
20
17.5079390177253
30
0
41
1
10
47.1290931529986
20
17.5092647462409
30
0
41
1
10
47.1018292028688
20
17.5139046949757
30
0
41
1
10
47.0881151526223
20
17.5172197513161
30
0
41
1
10
47.0467613735283
20
17.5301054557241
30
0
41
1
10
47.0199509964458
20
17.5422584062545
30
0
41
1
10
46.9942421511778
20
17.5575601891627
30
0
0
SPLINE
5
36A
100
AcDbEntity
8
1
62
256
6
ByLayer
370
18
48
1
60
0
100
AcDbSpline
70
4
71
3
72
27
73
23
40
0
40
0
40
0
40
0
40
0.124999999999993
40
0.124999999999993
40
0.249999999999986
40
0.249999999999986
40
0.374999999999979
40
0.374999999999979
40
0.437499999999982
40
0.437499999999982
40
0.499999999999984
40
0.562499999999987
40
0.562499999999987
40
0.62499999999999
40
0.62499999999999
40
0.750000000000001
40
0.750000000000001
40
0.812500000000006
40
0.812500000000006
40
0.875000000000012
40
0.875000000000012
40
1
40
1
40
1
40
1
41
1
10
47.2520481236274
20
17.7967501463698
30
0
41
1
10
47.230840017572
20
17.8242569012369
30
0
41
1
10
47.2116891440062
20
17.8520477347337
30
0
41
1
10
47.1776060812978
20
17.9079885272264
30
0
41
1
10
47.1625871538429
20
17.9363193007899
30
0
41
1
10
47.137738957749
20
17.9922949311067
30
0
41
1
10
47.1281235821175
20
18.0193906381509
30
0
41
1
10
47.1182598993802
20
18.0583020092597
30
0
41
1
10
47.1157385224882
20
18.0710379853664
30
0
41
1
10
47.1124185961949
20
18.0952028896696
30
0
41
1
10
47.1107687856016
20
18.1182154560317
30
0
41
1
10
47.1124184124866
20
18.1389271733623
30
0
41
1
10
47.1157407394816
20
18.1584847651093
30
0
41
1
10
47.1182645357582
20
18.1677224087741
30
0
41
1
10
47.1281154521794
20
18.1930264845961
30
0
41
1
10
47.1377054807189
20
18.2069661640268
30
0
41
1
10
47.1562510785613
20
18.2242202369445
30
0
41
1
10
47.1631635545974
20
18.2293676433335
30
0
41
1
10
47.1780573806925
20
18.2383437680113
30
0
41
1
10
47.1860638885457
20
18.2422040420345
30
0
41
1
10
47.2116684368872
20
18.252118415193
30
0
41
1
10
47.2308390357139
20
18.2565234113013
30
0
41
1
10
47.2520481236274
20
18.2590335554582
30
0
0
SPLINE
5
36B
100
AcDbEntity
8
1
62
256
6
ByLayer
370
18
48
1
60
0
100
AcDbSpline
70
4
71
3
72
27
73
23
40
0
40
0
40
0
40
0
40
0.125000000000005
40
0.125000000000005
40
0.250000000000011
40
0.250000000000011
40
0.375000000000017
40
0.375000000000017
40
0.437500000000022
40
0.437500000000022
40
0.500000000000027
40
0.562500000000032
40
0.562500000000032
40
0.625000000000028
40
0.625000000000028
40
0.75000000000002
40
0.75000000000002
40
0.812500000000011
40
0.812500000000011
40
0.875000000000003
40
0.875000000000003
40
1
40
1
40
1
40
1
41
1
10
44.8279518763725
20
18.2590335554582
30
0
41
1
10
44.849159982428
20
18.2565235275064
30
0
41
1
10
44.8683108559937
20
18.2521206121838
30
0
41
1
10
44.9023939187022
20
18.2389348869687
30
0
41
1
10
44.917412846157
20
18.2300892386007
30
0
41
1
10
44.9422610422509
20
18.207022941343
30
0
41
1
10
44.9518764178824
20
18.1930477862801
30
0
41
1
10
44.9617401006197
20
18.1677102901343
30
0
41
1
10
44.9642614775117
20
18.158473961407
30
0
41
1
10
44.9675814038051
20
18.1389260063183
30
0
41
1
10
44.9692312143984
20
18.1182200425539
30
0
41
1
10
44.9675815875133
20
18.0952019747678
30
0
41
1
10
44.9642592605184
20
18.0710241018786
30
0
41
1
10
44.9617354642418
20
18.0582835078881
30
0
41
1
10
44.9518845478205
20
18.0194231326141
30
0
41
1
10
44.9422945192811
20
17.9923980345341
30
0
41
1
10
44.9237489214386
20
17.9505789149628
30
0
41
1
10
44.9168364454025
20
17.9363751700459
30
0
41
1
10
44.9019426193075
20
17.9081736419439
30
0
41
1
10
44.8939361114543
20
17.8941101896337
30
0
41
1
10
44.8683315631127
20
17.8520746989329
30
0
41
1
10
44.8491609642861
20
17.8242581746995
30
0
41
1
10
44.8279518763725
20
17.7967501463698
30
0
0
SPLINE
5
36C
100
AcDbEntity
8
1
62
256
6
ByLayer
370
18
48
1
60
0
100
AcDbSpline
70
4
71
3
72
18
73
14
40
0
40
0
40
0
40
0
40
0.250000000000005
40
0.250000000000005
40
0.500000000000011
40
0.500000000000011
40
0.625000000000008
40
0.625000000000008
40
0.750000000000005
40
0.750000000000005
40
0.875000000000003
40
0.875000000000003
40
1
40
1
40
1
40
1
41
1
10
47.2520481236275
20
17.7967501463698
30
0
41
1
10
47.2677897652849
20
17.7763333549248
30
0
41
1
10
47.2810038365266
20
17.7553109201411
30
0
41
1
10
47.3017221165235
20
17.7117714041065
30
0
41
1
10
47.3088087236963
20
17.6900414704189
30
0
41
1
10
47.3138773826976
20
17.6580883051729
30
0
41
1
10
47.3146319885626
20
17.6474097708016
30
0
41
1
10
47.3140959583552
20
17.6269260503537
30
0
41
1
10
47.3128331432963
20
17.6170706464597
30
0
41
1
10
47.3082778441166
20
17.5981322041886
30
0
41
1
10
47.3049461568204
20
17.5889746220365
30
0
41
1
10
47.2962496268468
20
17.571852437986
30
0
41
1
10
47.2909519628137
20
17.563971575617
30
0
41
1
10
47.2847242281962
20
17.5567550237457
30
0
0
SPLINE
5
36D
100
AcDbEntity
8
1
62
256
6
ByLayer
370
18
48
1
60
0
100
AcDbSpline
70
4
71
3
72
18
73
14
40
0
40
0
40
0
40
0
40
0.124999999999997
40
0.124999999999997
40
0.249999999999995
40
0.249999999999995
40
0.374999999999992
40
0.374999999999992
40
0.499999999999989
40
0.499999999999989
40
0.749999999999995
40
0.749999999999995
40
1
40
1
40
1
40
1
41
1
10
44.7952757718038
20
17.5567550237457
30
0
41
1
10
44.7890480371863
20
17.563971575617
30
0
41
1
10
44.7837503731532
20
17.571852437986
30
0
41
1
10
44.7750538431796
20
17.5889746220365
30
0
41
1
10
44.7717221558834
20
17.5981322041886
30
0
41
1
10
44.7671668567037
20
17.6170706464597
30
0
41
1
10
44.7659040416448
20
17.6269260503537
30
0
41
1
10
44.7653680114374
20
17.6474097708016
30
0
41
1
10
44.7661226173023
20
17.6580883051729
30
0
41
1
10
44.7711912763036
20
17.6900414704189
30
0
41
1
10
44.7782778834764
20
17.7117714041065
30
0
41
1
10
44.7989961634734
20
17.7553109201411
30
0
41
1
10
44.8122102347151
20
17.7763333549248
30
0
41
1
10
44.8279518763725
20
17.7967501463698
30
0
0
SPLINE
5
36E
100
AcDbEntity
8
1
62
256
6
ByLayer
370
18
48
1
60
0
100
AcDbSpline
70
4
71
3
72
18
73
14
40
0
40
0
40
0
40
0
40
0.249999999999996
40
0.249999999999996
40
0.499999999999992
40
0.499999999999992
40
0.624999999999994
40
0.624999999999994
40
0.749999999999996
40
0.749999999999996
40
0.874999999999998
40
0.874999999999998
40
1
40
1
40
1
40
1
41
1
10
44.8279518763725
20
18.2590335554581
30
0
41
1
10
44.8122102347151
20
18.2608966148216
30
0
41
1
10
44.7989961634734
20
18.26481786132
30
0
41
1
10
44.7782778834764
20
18.2769979055233
30
0
41
1
10
44.7711912763036
20
18.2850598830448
30
0
41
1
10
44.7661226173023
20
18.2998959624953
30
0
41
1
10
44.7653680114374
20
18.3053773580292
30
0
41
1
10
44.7659040416448
20
18.3169578204625
30
0
41
1
10
44.7671668567037
20
18.3230693388899
30
0
41
1
10
44.7717221558834
20
18.3359268500538
30
0
41
1
10
44.7750538431796
20
18.3427345493945
30
0
41
1
10
44.7837503731532
20
18.3567338497767
30
0
41
1
10
44.7890480371863
20
18.3638441370588
30
0
41
1
10
44.7952757718037
20
18.37106068893
30
0
0
SPLINE
5
36F
100
AcDbEntity
8
1
62
256
6
ByLayer
370
18
48
1
60
0
100
AcDbSpline
70
4
71
3
72
18
73
14
40
0
40
0
40
0
40
0
40
0.125000000000002
40
0.125000000000002
40
0.250000000000004
40
0.250000000000004
40
0.375000000000006
40
0.375000000000006
40
0.500000000000008
40
0.500000000000008
40
0.750000000000004
40
0.750000000000004
40
1
40
1
40
1
40
1
41
1
10
47.2847242281962
20
18.37106068893
30
0
41
1
10
47.2909519628137
20
18.3638441370588
30
0
41
1
10
47.2962496268468
20
18.3567338497767
30
0
41
1
10
47.3049461568204
20
18.3427345493945
30
0
41
1
10
47.3082778441166
20
18.3359268500538
30
0
41
1
10
47.3128331432963
20
18.3230693388899
30
0
41
1
10
47.3140959583551
20
18.3169578204625
30
0
41
1
10
47.3146319885626
20
18.3053773580292
30
0
41
1
10
47.3138773826976
20
18.2998959624953
30
0
41
1
10
47.3088087236963
20
18.2850598830448
30
0
41
1
10
47.3017221165235
20
18.2769979055233
30
0
41
1
10
47.2810038365266
20
18.26481786132
30
0
41
1
10
47.2677897652849
20
18.2608966148216
30
0
41
1
10
47.2520481236275
20
18.2590335554581
30
0
0
SPLINE
5
370
100
AcDbEntity
8
1
62
256
6
ByLayer
370
18
48
1
60
0
100
AcDbSpline
70
4
71
3
72
27
73
23
40
0
40
0
40
0
40
0
40
0.124999999999991
40
0.124999999999991
40
0.249999999999982
40
0.249999999999982
40
0.312499999999978
40
0.312499999999978
40
0.374999999999973
40
0.437499999999969
40
0.437499999999969
40
0.499999999999964
40
0.499999999999964
40
0.624999999999974
40
0.624999999999974
40
0.749999999999983
40
0.749999999999983
40
0.812499999999988
40
0.812499999999988
40
0.874999999999992
40
0.874999999999992
40
1
40
1
40
1
40
1
41
1
10
45.7923909771268
20
18.7885744948286
30
0
41
1
10
45.784332460198
20
18.7818528577225
30
0
41
1
10
45.772843289699
20
18.7747729196793
30
0
41
1
10
45.7428929450595
20
18.759580960944
30
0
41
1
10
45.7246030468523
20
18.7515378995385
30
0
41
1
10
45.691541566599
20
18.7381228855871
30
0
41
1
10
45.6794915332889
20
18.7333908608296
30
0
41
1
10
45.6536722359839
20
18.7234617789996
30
0
41
1
10
45.6262663361419
20
18.7131144117243
30
0
41
1
10
45.5955596806259
20
18.7017106398653
30
0
41
1
10
45.5630741163485
20
18.6896704718373
30
0
41
1
10
45.5461475577872
20
18.6834078149026
30
0
41
1
10
45.4942746920955
20
18.6642118255041
30
0
41
1
10
45.4577133567653
20
18.6506570345519
30
0
41
1
10
45.3816714242344
20
18.6227699406843
30
0
41
1
10
45.3436999250965
20
18.6090107033341
30
0
41
1
10
45.2866321330397
20
18.5890786463344
30
0
41
1
10
45.2674847449698
20
18.5825187336212
30
0
41
1
10
45.229806717338
20
18.5699428193929
30
0
41
1
10
45.2112498671497
20
18.5639157455231
30
0
41
1
10
45.1563045901278
20
18.5466578554785
30
0
41
1
10
45.1206313298903
20
18.5362470836616
30
0
41
1
10
45.0857578488221
20
18.5270781975924
30
0
0
SPLINE
5
371
100
AcDbEntity
8
1
62
256
6
ByLayer
370
18
48
1
60
0
100
AcDbSpline
70
4
71
3
72
20
73
16
40
0
40
0
40
0
40
0
40
0.125000000000005
40
0.125000000000005
40
0.250000000000011
40
0.250000000000011
40
0.375000000000016
40
0.375000000000016
40
0.500000000000021
40
0.500000000000021
40
0.625000000000027
40
0.625000000000027
40
0.750000000000032
40
0.750000000000032
40
1
40
1
40
1
40
1
41
1
10
44.7952757718037
20
18.37106068893
30
0
41
1
10
44.8022709082033
20
18.379166487872
30
0
41
1
10
44.8105430002875
20
18.3874959620614
30
0
41
1
10
44.8290313711025
20
18.4039687621121
30
0
41
1
10
44.8391745491765
20
18.4120715531182
30
0
41
1
10
44.8611852557654
20
18.4280379525018
30
0
41
1
10
44.8731432803399
20
18.4359450092043
30
0
41
1
10
44.8978410263364
20
18.4509570349442
30
0
41
1
10
44.9106721204651
20
18.4581363558377
30
0
41
1
10
44.9372499372778
20
18.4718985881543
30
0
41
1
10
44.9509068470013
20
18.4784257713621
30
0
41
1
10
44.9781707971312
20
18.4905177942148
30
0
41
1
10
44.9918848473777
20
18.4961382504544
30
0
41
1
10
45.0332386264716
20
18.5118172716036
30
0
41
1
10
45.0600490035541
20
18.5203188645402
30
0
41
1
10
45.0857578488221
20
18.5270781975924
30
0
0
SPLINE
5
372
100
AcDbEntity
8
1
62
256
6
ByLayer
370
18
48
1
60
0
100
AcDbSpline
70
4
71
3
72
18
73
14
40
0
40
0
40
0
40
0
40
0.250000000000059
40
0.250000000000059
40
0.375000000000049
40
0.375000000000049
40
0.50000000000004
40
0.50000000000004
40
0.749999999999983
40
0.749999999999983
40
0.874999999999991
40
0.874999999999991
40
1
40
1
40
1
40
1
41
1
10
45.7923909771268
20
18.7885744948286
30
0
41
1
10
45.7983443432935
20
18.7935402183341
30
0
41
1
10
45.8083654145424
20
18.7986594073442
30
0
41
1
10
45.8296639306693
20
18.8061666306116
30
0
41
1
10
45.8378648488689
20
18.8086488865977
30
0
41
1
10
45.8560192023181
20
18.8133576260876
30
0
41
1
10
45.8660232910297
20
18.8156051367328
30
0
41
1
10
45.8990276411323
20
18.8219318009838
30
0
41
1
10
45.9243592597095
20
18.8254595026381
30
0
41
1
10
45.9662920518755
20
18.8291498278866
30
0
41
1
10
45.9806007783679
20
18.8300859644857
30
0
41
1
10
46.0098750351417
20
18.8313533615855
30
0
41
1
10
46.0250157679462
20
18.8316827058094
30
0
41
1
10
46.04
20
18.8316827058094
30
0
0
SPLINE
5
373
100
AcDbEntity
8
1
62
256
6
ByLayer
370
18
48
1
60
0
100
AcDbSpline
70
4
71
3
72
20
73
16
40
0
40
0
40
0
40
0
40
0.249999999999968
40
0.249999999999968
40
0.374999999999973
40
0.374999999999973
40
0.499999999999979
40
0.499999999999979
40
0.624999999999984
40
0.624999999999984
40
0.749999999999989
40
0.749999999999989
40
0.874999999999995
40
0.874999999999995
40
1
40
1
40
1
40
1
41
1
10
46.9942421511778
20
18.5270781975924
30
0
41
1
10
47.0199509964458
20
18.5203188645402
30
0
41
1
10
47.0467613735283
20
18.5118172716036
30
0
41
1
10
47.0881151526223
20
18.4961382504544
30
0
41
1
10
47.1018292028688
20
18.4905177942148
30
0
41
1
10
47.1290931529986
20
18.4784257713621
30
0
41
1
10
47.1427500627222
20
18.4718985881543
30
0
41
1
10
47.1693278795348
20
18.4581363558377
30
0
41
1
10
47.1821589736635
20
18.4509570349442
30
0
41
1
10
47.20685671966
20
18.4359450092043
30
0
41
1
10
47.2188147442346
20
18.4280379525018
30
0
41
1
10
47.2408254508234
20
18.4120715531182
30
0
41
1
10
47.2509686288974
20
18.4039687621121
30
0
41
1
10
47.2694569997125
20
18.3874959620614
30
0
41
1
10
47.2777290917966
20
18.379166487872
30
0
41
1
10
47.2847242281962
20
18.37106068893
30
0
0
SPLINE
5
374
100
AcDbEntity
8
1
62
256
6
ByLayer
370
18
48
1
60
0
100
AcDbSpline
70
4
71
3
72
20
73
16
40
0
40
0
40
0
40
0
40
0.12500000000001
40
0.12500000000001
40
0.25000000000002
40
0.25000000000002
40
0.375000000000031
40
0.375000000000031
40
0.500000000000041
40
0.500000000000041
40
0.625000000000051
40
0.625000000000051
40
0.750000000000062
40
0.750000000000062
40
1
40
1
40
1
40
1
41
1
10
46.04
20
18.8316827058094
30
0
41
1
10
46.0550392131402
20
18.8316827058094
30
0
41
1
10
46.0699089520625
20
18.8313605223598
30
0
41
1
10
46.0993160132101
20
18.830091735984
30
0
41
1
10
46.1139738497411
20
18.8291286889714
30
0
41
1
10
46.1416929927846
20
18.8266846978869
30
0
41
1
10
46.1548983955001
20
18.8252026615373
30
0
41
1
10
46.1800541485555
20
18.8217722476942
30
0
41
1
10
46.1920965708889
20
18.8198008649397
30
0
41
1
10
46.2140024864228
20
18.8155987007973
30
0
41
1
10
46.2239778229294
20
18.813357902427
30
0
41
1
10
46.2420995589632
20
18.8086586124029
30
0
41
1
10
46.2503022176456
20
18.8061785059354
30
0
41
1
10
46.271697812245
20
18.7986372345684
30
0
41
1
10
46.2816405167238
20
18.7935528466465
30
0
41
1
10
46.2876090228731
20
18.7885744948286
30
0
0
SPLINE
5
375
100
AcDbEntity
8
1
62
256
6
ByLayer
370
18
48
1
60
0
100
AcDbSpline
70
4
71
3
72
27
73
23
40
0
40
0
40
0
40
0
40
0.124999999999996
40
0.124999999999996
40
0.249999999999992
40
0.249999999999992
40
0.312499999999987
40
0.312499999999987
40
0.374999999999982
40
0.437499999999977
40
0.437499999999977
40
0.499999999999972
40
0.499999999999972
40
0.624999999999993
40
0.624999999999993
40
0.750000000000014
40
0.750000000000014
40
0.812500000000017
40
0.812500000000017
40
0.875000000000021
40
0.875000000000021
40
1
40
1
40
1
40
1
41
1
10
46.9942421511778
20
18.5270781975924
30
0
41
1
10
46.959339467702
20
18.5362547615171
30
0
41
1
10
46.9231716059552
20
18.5468107600398
30
0
41
1
10
46.8493418417384
20
18.5700236165271
30
0
41
1
10
46.8119871300066
20
18.5825723709069
30
0
41
1
10
46.7549869582118
20
18.6024855258145
30
0
41
1
10
46.735702992128
20
18.6093489448431
30
0
41
1
10
46.6973445412762
20
18.623169447962
30
0
41
1
10
46.6593570749047
20
18.6370212058289
30
0
41
1
10
46.6220947122409
20
18.6507703250399
30
0
41
1
10
46.5852057594901
20
18.6644028555962
30
0
41
1
10
46.5671969524487
20
18.6710683623493
30
0
41
1
10
46.5154011024726
20
18.6902359653141
30
0
41
1
10
46.4832742932937
20
18.702099874359
30
0
41
1
10
46.4246561855582
20
18.7240450065627
30
0
41
1
10
46.3992758464838
20
18.7337297180239
30
0
41
1
10
46.3662074411571
20
18.7471534166137
30
0
41
1
10
46.3559806093018
20
18.751463713032
30
0
41
1
10
46.3374957749149
20
18.7596713984038
30
0
41
1
10
46.3292112081842
20
18.7635772453334
30
0
41
1
10
46.3069908225015
20
18.7748752406317
30
0
41
1
10
46.2956607992681
20
18.7818584800253
30
0
41
1
10
46.2876090228731
20
18.7885744948286
30
0
0
SPLINE
5
376
100
AcDbEntity
8
1
62
256
6
ByLayer
370
18
48
1
60
0
100
AcDbSpline
70
4
71
3
72
8
73
4
40
0
40
0
40
0
40
0
40
1
40
1
40
1
40
1
41
1
10
41.5375
20
33.1007626600442
30
0
41
1
10
41.5375
20
33.1209243496809
30
0
41
1
10
41.5376636803879
20
33.1411811152915
30
0
41
1
10
41.5379894629165
20
33.1615320401299
30
0
0
SPLINE
5
377
100
AcDbEntity
8
1
62
256
6
ByLayer
370
18
48
1
60
0
100
AcDbSpline
70
2053
71
3
72
127
73
123
40
0
40
0
40
0
40
0
40
0.0312500000000003
40
0.0312500000000003
40
0.0468750000000004
40
0.0468750000000004
40
0.0625000000000005
40
0.0625000000000005
40
0.0937500000000005
40
0.0937500000000005
40
0.1015625
40
0.1015625
40
0.109375
40
0.109375
40
0.125
40
0.125
40
0.15625
40
0.15625
40
0.1640625
40
0.1640625
40
0.171875
40
0.171875
40
0.1875
40
0.203125
40
0.203125
40
0.2109375
40
0.2109375
40
0.21875
40
0.21875
40
0.25
40
0.25
40
0.265625
40
0.265625
40
0.273437500000001
40
0.273437500000001
40
0.281250000000001
40
0.281250000000001
40
0.312500000000003
40
0.312500000000003
40
0.320312500000004
40
0.320312500000004
40
0.328125000000004
40
0.328125000000004
40
0.343750000000006
40
0.343750000000006
40
0.37500000000001
40
0.37500000000001
40
0.406250000000013
40
0.406250000000013
40
0.421875000000015
40
0.421875000000015
40
0.429687500000015
40
0.429687500000015
40
0.437500000000016
40
0.437500000000016
40
0.468750000000016
40
0.468750000000016
40
0.476562500000016
40
0.476562500000016
40
0.484375000000015
40
0.484375000000015
40
0.500000000000014
40
0.500000000000014
40
0.531250000000013
40
0.531250000000013
40
0.539062500000013
40
0.539062500000013
40
0.546875000000012
40
0.546875000000012
40
0.562500000000013
40
0.578125000000013
40
0.578125000000013
40
0.585937500000013
40
0.585937500000013
40
0.593750000000012
40
0.593750000000012
40
0.625000000000012
40
0.625000000000012
40
0.640625000000011
40
0.640625000000011
40
0.648437500000011
40
0.648437500000011
40
0.656250000000011
40
0.656250000000011
40
0.68750000000001
40
0.68750000000001
40
0.70312500000001
40
0.70312500000001
40
0.718750000000009
40
0.718750000000009
40
0.750000000000008
40
0.750000000000008
40
0.781250000000006
40
0.781250000000006
40
0.796875000000006
40
0.796875000000006
40
0.804687500000006
40
0.804687500000006
40
0.812500000000005
40
0.812500000000005
40
0.843750000000004
40
0.843750000000004
40
0.851562500000005
40
0.851562500000005
40
0.859375000000005
40
0.859375000000005
40
0.875000000000005
40
0.875000000000005
40
0.906250000000004
40
0.906250000000004
40
0.914062500000003
40
0.914062500000003
40
0.921875000000003
40
0.921875000000003
40
0.937500000000002
40
0.953125000000002
40
0.953125000000002
40
0.960937500000002
40
0.960937500000002
40
0.968750000000001
40
0.968750000000001
40
1
40
1
40
1
40
1
41
1
10
48.2670085345386
20
11.4047753387006
30
0
41
1
10
48.4002385096378
20
11.2617504156194
30
0
41
1
10
48.5166944212897
20
11.1087823693954
30
0
41
1
10
48.6672421709249
20
10.865300727795
30
0
41
1
10
48.7133721144299
20
10.7817836914663
30
0
41
1
10
48.7973404682979
20
10.6099698381257
30
0
41
1
10
48.8352025784842
20
10.5214460476945
30
0
41
1
10
48.9337695170377
20
10.2545595527971
30
0
41
1
10
48.9806005860815
20
10.0730814161759
30
0
41
1
10
49.0157909090087
20
9.84197142378849
30
0
41
1
10
49.0216510810829
20
9.79553399849925
30
0
41
1
10
49.0309792173407
20
9.70222344297395
30
0
41
1
10
49.0344507689103
20
9.65521896762766
30
0
41
1
10
49.0411506815575
20
9.51479747735118
30
0
41
1
10
49.0407161637489
20
9.42188144827395
30
0
41
1
10
49.0251874951753
20
9.14516150351074
30
0
41
1
10
48.9960031141205
20
8.96337264729863
30
0
41
1
10
48.9354821021154
20
8.73948557357994
30
0
41
1
10
48.9221359736774
20
8.69480781285023
30
0
41
1
10
48.8932931541586
20
8.606733778376
30
0
41
1
10
48.877770865357
20
8.56322728075389
30
0
41
1
10
48.827960669024
20
8.43426327105993
30
0
41
1
10
48.7529134620506
20
8.26645193281348
30
0
41
1
10
48.6608377479761
20
8.1067131195079
30
0
41
1
10
48.5852958518466
20
7.9899403115661
30
0
41
1
10
48.5590324110404
20
7.9515221085228
30
0
41
1
10
48.5042984633657
20
7.87570920185988
30
0
41
1
10
48.4758262921291
20
7.83832686601306
30
0
41
1
10
48.3294944125425
20
7.65598935463908
30
0
41
1
10
48.1986695019259
20
7.52295076304688
30
0
41
1
10
47.9820968563384
20
7.34190652624176
30
0
41
1
10
47.9064922606623
20
7.28466665523956
30
0
41
1
10
47.7877711472177
20
7.20358715868895
30
0
41
1
10
47.747344927067
20
7.17739235554666
30
0
41
1
10
47.6656146930305
20
7.12717482034225
30
0
41
1
10
47.6242025897913
20
7.10307648228826
30
0
41
1
10
47.4144423094743
20
6.98754866150642
30
0
41
1
10
47.2380725870889
20
6.91086328930538
30
0
41
1
10
47.0066828938765
20
6.83476906292793
30
0
41
1
10
46.9598536692983
20
6.8205476234092
30
0
41
1
10
46.8650664270308
20
6.7941405461242
30
0
41
1
10
46.8171991898383
20
6.7819876325326
30
0
41
1
10
46.673531536171
20
6.74898493801999
30
0
41
1
10
46.5771606139503
20
6.73143741456511
30
0
41
1
10
46.2863069796321
20
6.69183318923319
30
0
41
1
10
46.0901001941251
20
6.68268116406711
30
0
41
1
10
45.6928732970945
20
6.70033987434931
30
0
41
1
10
45.4982785605649
20
6.7269052791151
30
0
41
1
10
45.2131267115272
20
6.79217195633856
30
0
41
1
10
45.1191502113967
20
6.81819957273399
30
0
41
1
10
44.9798258317432
20
6.86380132090392
30
0
41
1
10
44.9335436414183
20
6.88014186885965
30
0
41
1
10
44.8421129784356
20
6.91484313932455
30
0
41
1
10
44.7970596974592
20
6.93316056730163
30
0
41
1
10
44.5750286417216
20
7.0294914980841
30
0
41
1
10
44.4076639220467
20
7.12159520871217
30
0
41
1
10
44.2110564053622
20
7.25554668383899
30
0
41
1
10
44.1723705852474
20
7.28328685594408
30
0
41
1
10
44.0962880951483
20
7.34070350981614
30
0
41
1
10
44.0588190801288
20
7.37044654558258
30
0
41
1
10
43.9494921373409
20
7.46169956579149
30
0
41
1
10
43.8803821065767
20
7.52544919223556
30
0
41
1
10
43.6840213756528
20
7.72527881271651
30
0
41
1
10
43.5676329716938
20
7.8698557185063
30
0
41
1
10
43.4407648874635
20
8.06549996375742
30
0
41
1
10
43.4163270357453
20
8.10540448166824
30
0
41
1
10
43.3698642599926
20
8.18586044484255
30
0
41
1
10
43.3477675758272
20
8.22651784627101
30
0
41
1
10
43.2848264104023
20
8.34976743886938
30
0
41
1
10
43.209820069608
20
8.51750181578228
30
0
41
1
10
43.152457960041
20
8.69206067099316
30
0
41
1
10
43.1161784471627
20
8.82561518982567
30
0
41
1
10
43.1052109817175
20
8.87057330395265
30
0
41
1
10
43.0855742648968
20
8.96139129431913
30
0
41
1
10
43.07691469223
20
9.00724971485585
30
0
41
1
10
43.0398574030086
20
9.23623880979926
30
0
41
1
10
43.0295272343424
20
9.42050952094536
30
0
41
1
10
43.0425295939843
20
9.6985382033053
30
0
41
1
10
43.0516468957258
20
9.79148532983294
30
0
41
1
10
43.0727543433936
20
9.93131724156581
30
0
41
1
10
43.0810315469487
20
9.97794351300462
30
0
41
1
10
43.0998801703197
20
10.0702808620835
30
0
41
1
10
43.1104696399016
20
10.1161216939858
30
0
41
1
10
43.1691552723848
20
10.3437039330879
30
0
41
1
10
43.234302936506
20
10.5206313800874
30
0
41
1
10
43.3596404039508
20
10.7780187681911
30
0
41
1
10
43.4063445855837
20
10.8628824907842
30
0
41
1
10
43.5073434892856
20
11.0264908679101
30
0
41
1
10
43.561717135308
20
11.1055147068962
30
0
41
1
10
43.7362057582044
20
11.334363002747
30
0
41
1
10
43.8677214771868
20
11.4761766790293
30
0
41
1
10
44.1615712473223
20
11.7361812820543
30
0
41
1
10
44.3192575761937
20
11.8503067744393
30
0
41
1
10
44.57130890591
20
11.9983553122037
30
0
41
1
10
44.6579322678521
20
12.0438201564572
30
0
41
1
10
44.7918723691721
20
12.1060209038114
30
0
41
1
10
44.8373053797849
20
12.1257999262903
30
0
41
1
10
44.9289456054105
20
12.1630669466477
30
0
41
1
10
44.9750588784597
20
12.1805245054793
30
0
41
1
10
45.207062716706
20
12.2620378086853
30
0
41
1
10
45.3972246630336
20
12.3089309436399
30
0
41
1
10
45.6405979942974
20
12.3446688966151
30
0
41
1
10
45.6895587612244
20
12.3506625369117
30
0
41
1
10
45.7880622824525
20
12.3603012102096
30
0
41
1
10
45.8377430259898
20
12.3639501245453
30
0
41
1
10
45.9863086234689
20
12.3712358526275
30
0
41
1
10
46.0848577865152
20
12.3712657960421
30
0
41
1
10
46.3790652808507
20
12.3573005463652
30
0
41
1
10
46.5732973662946
20
12.3293805885514
30
0
41
1
10
46.8136388480276
20
12.270632802106
30
0
41
1
10
46.8616710358482
20
12.2576484759022
30
0
41
1
10
46.9564603571526
20
12.2295414238054
30
0
41
1
10
47.0033310889477
20
12.2143955764093
30
0
41
1
10
47.1423991072765
20
12.1657431664302
30
0
41
1
10
47.3237124751586
20
12.0923151649103
30
0
41
1
10
47.4969140156708
20
12.0020555087837
30
0
41
1
10
47.6237254722429
20
11.9279754006806
30
0
41
1
10
47.6654800878126
20
11.9022159391539
30
0
41
1
10
47.7479379127931
20
11.8485289286613
30
0
41
1
10
47.7886300231148
20
11.8205997188303
30
0
41
1
10
47.9875338794413
20
11.6768405579874
30
0
41
1
10
48.1337785594394
20
11.5478002617819
30
0
41
1
10
48.2670085345386
20
11.4047753387006
30
0
0
SPLINE
5
378
100
AcDbEntity
8
1
62
256
6
ByLayer
370
18
48
1
60
0
100
AcDbSpline
70
4
71
3
72
18
73
14
40
0
40
0
40
0
40
0
40
0.0625000000000005
40
0.0625000000000005
40
0.125000000000001
40
0.125000000000001
40
0.250000000000001
40
0.250000000000001
40
0.500000000000001
40
0.500000000000001
40
0.75
40
0.75
40
1
40
1
40
1
40
1
41
1
10
47.6601683431714
20
-36.8655538051017
30
0
41
1
10
47.6388785328624
20
-36.8684994160877
30
0
41
1
10
47.6170118156608
20
-36.8720786168909
30
0
41
1
10
47.572646169808
20
-36.8796653684916
30
0
41
1
10
47.5501320519928
20
-36.8836967851933
30
0
41
1
10
47.481890170295
20
-36.8960201863402
30
0
41
1
10
47.4353096997705
20
-36.9045548745237
30
0
41
1
10
47.2954987509724
20
-36.9290844811111
30
0
41
1
10
47.2017444164861
20
-36.944088713215
30
0
41
1
10
47.0133692218316
20
-36.9687778905886
30
0
41
1
10
46.9187431253056
20
-36.9785274355491
30
0
41
1
10
46.7287058918932
20
-36.9916834237634
30
0
41
1
10
46.6332945734587
20
-36.9950940025288
30
0
41
1
10
46.5375000000001
20
-36.9950940025288
30
0
0
SPLINE
5
379
100
AcDbEntity
8
1
62
256
6
ByLayer
370
18
48
1
60
0
100
AcDbSpline
70
4
71
3
72
10
73
6
40
0
40
0
40
0
40
0
40
0.5
40
0.5
40
1
40
1
40
1
40
1
41
1
10
48.5356072587239
20
-36.6863031713035
30
0
41
1
10
48.408427056558
20
-36.7219120765531
30
0
41
1
10
48.2731047320677
20
-36.7550279458932
30
0
41
1
10
47.982790828632
20
-36.8152371568207
30
0
41
1
10
47.8278673320537
20
-36.8423513445435
30
0
41
1
10
47.6601683431714
20
-36.8655538051017
30
0
0
SPLINE
5
37A
100
AcDbEntity
8
1
62
256
6
ByLayer
370
18
48
1
60
0
100
AcDbSpline
70
4
71
3
72
12
73
8
40
0
40
0
40
0
40
0
40
0.250000000000016
40
0.250000000000016
40
0.500000000000033
40
0.500000000000033
40
1
40
1
40
1
40
1
41
1
10
48.5356072587239
20
-36.6863031713035
30
0
41
1
10
48.5504739856815
20
-36.6821406691012
30
0
41
1
10
48.5669418322197
20
-36.6760328461139
30
0
41
1
10
48.6015091218077
20
-36.6615298298941
30
0
41
1
10
48.6194202108564
20
-36.6531721465244
30
0
41
1
10
48.6734512701441
20
-36.6260057111529
30
0
41
1
10
48.7106471889729
20
-36.6047424280143
30
0
41
1
10
48.7475501774285
20
-36.5811667816548
30
0
0
SPLINE
5
37B
100
AcDbEntity
8
1
62
256
6
ByLayer
370
18
48
1
60
0
100
AcDbSpline
70
4
71
3
72
8
73
4
40
0
40
0
40
0
40
0
40
1
40
1
40
1
40
1
41
1
10
49.0601615737882
20
-36.3596961652761
30
0
41
1
10
48.9596777233376
20
-36.4383955719887
30
0
41
1
10
48.8554739663372
20
-36.5122191655523
30
0
41
1
10
48.7475501774283
20
-36.5811667816548
30
0
0
SPLINE
5
37C
100
AcDbEntity
8
1
62
256
6
ByLayer
370
18
48
1
60
0
100
AcDbSpline
70
4
71
3
72
12
73
8
40
0
40
0
40
0
40
0
40
0.5
40
0.5
40
0.75
40
0.75
40
1
40
1
40
1
40
1
41
1
10
49.0601615737882
20
-36.3596961652761
30
0
41
1
10
49.0886110128779
20
-36.3374144357481
30
0
41
1
10
49.1160321018042
20
-36.3138937241363
30
0
41
1
10
49.1553425750013
20
-36.2764041006236
30
0
41
1
10
49.1679561206664
20
-36.2636850610825
30
0
41
1
10
49.1911343318296
20
-36.2386085677527
30
0
41
1
10
49.2018620401545
20
-36.2260698208916
30
0
41
1
10
49.2106209550429
20
-36.2144740192085
30
0
0
SPLINE
5
37D
100
AcDbEntity
8
1
62
256
6
ByLayer
370
18
48
1
60
0
100
AcDbSpline
70
4
71
3
72
8
73
4
40
0
40
0
40
0
40
0
40
1
40
1
40
1
40
1
41
1
10
49.5474815441978
20
-35.7038477990841
30
0
41
1
10
49.4471573177426
20
-35.8780713135684
30
0
41
1
10
49.3358959693674
20
-36.0486242260797
30
0
41
1
10
49.210620955018
20
-36.2144740192192
30
0
0
SPLINE
5
37E
100
AcDbEntity
8
1
62
256
6
ByLayer
370
18
48
1
60
0
100
AcDbSpline
70
4
71
3
72
22
73
18
40
0
40
0
40
0
40
0
40
0.125
40
0.125
40
0.25
40
0.25
40
0.375
40
0.375
40
0.5
40
0.5
40
0.625
40
0.625
40
0.75
40
0.75
40
0.875
40
0.875
40
1
40
1
40
1
40
1
41
1
10
49.7815433013511
20
-35.4201081252888
30
0
41
1
10
49.7751067942727
20
-35.4243206031332
30
0
41
1
10
49.7675018357999
20
-35.4306401176821
30
0
41
1
10
49.7503100424066
20
-35.4466314349522
30
0
41
1
10
49.7407963678049
20
-35.4562591165377
30
0
41
1
10
49.7208431303308
20
-35.477520601783
30
0
41
1
10
49.7102385391664
20
-35.4893323420117
30
0
41
1
10
49.6887546953034
20
-35.5140337955277
30
0
41
1
10
49.6777025485944
20
-35.5271171575426
30
0
41
1
10
49.6554551919778
20
-35.554128014696
30
0
41
1
10
49.6444182039182
20
-35.5678584804182
30
0
41
1
10
49.6225329737579
20
-35.5957801672527
30
0
41
1
10
49.6115852978816
20
-35.6101090019766
30
0
41
1
10
49.5908462557182
20
-35.638154822725
30
0
41
1
10
49.5809483236437
20
-35.6519981878145
30
0
41
1
10
49.5625238461306
20
-35.6791470234958
30
0
41
1
10
49.5543262540577
20
-35.6919612443649
30
0
41
1
10
49.5474815441978
20
-35.7038477990841
30
0
0
SPLINE
5
37F
100
AcDbEntity
8
1
62
256
6
ByLayer
370
18
48
1
60
0
100
AcDbSpline
70
4
71
3
72
8
73
4
40
0
40
0
40
0
40
0
40
1
40
1
40
1
40
1
41
1
10
50.0213199674631
20
-35.2408574914905
30
0
41
1
10
49.9508863849022
20
-35.3014036851861
30
0
41
1
10
49.8715479123866
20
-35.3612031283291
30
0
41
1
10
49.7815433013511
20
-35.4201081252888
30
0
0
SPLINE
5
380
100
AcDbEntity
8
1
62
256
6
ByLayer
370
18
48
1
60
0
100
AcDbSpline
70
4
71
3
72
14
73
10
40
0
40
0
40
0
40
0
40
0.25
40
0.25
40
0.5
40
0.5
40
0.75
40
0.75
40
1
40
1
40
1
40
1
41
1
10
50.0213199674631
20
-35.2408574914905
30
0
41
1
10
50.0253845693727
20
-35.2373634739272
30
0
41
1
10
50.0301645901981
20
-35.2321730192859
30
0
41
1
10
50.0409097400436
20
-35.2188198173778
30
0
41
1
10
50.0468616595715
20
-35.2106469256448
30
0
41
1
10
50.0592266757847
20
-35.1922983587432
30
0
41
1
10
50.0657873004674
20
-35.1819000575492
30
0
41
1
10
50.078906337941
20
-35.1598500134701
30
0
41
1
10
50.0855122612728
20
-35.1481405733145
30
0
41
1
10
50.0921616949706
20
-35.1357211018455
30
0
0
SPLINE
5
381
100
AcDbEntity
8
1
62
256
6
ByLayer
370
18
48
1
60
0
100
AcDbSpline
70
4
71
3
72
8
73
4
40
0
40
0
40
0
40
0
40
1
40
1
40
1
40
1
41
1
10
50.1955195415
20
-34.9276189578187
30
0
41
1
10
50.1632235982683
20
-34.9979761614605
30
0
41
1
10
50.1287712438938
20
-35.067343662653
30
0
41
1
10
50.0921616949707
20
-35.1357211018455
30
0
0
SPLINE
5
382
100
AcDbEntity
8
1
62
256
6
ByLayer
370
18
48
1
60
0
100
AcDbSpline
70
4
71
3
72
8
73
4
40
0
40
0
40
0
40
0
40
1
40
1
40
1
40
1
41
1
10
50.2945448913587
20
-34.6161756534044
30
0
41
1
10
50.2631923511552
20
-34.7228684761974
30
0
41
1
10
50.2299675225569
20
-34.8268603285097
30
0
41
1
10
50.1955195415
20
-34.9276189578187
30
0
0
SPLINE
5
383
100
AcDbEntity
8
1
62
256
6
ByLayer
370
18
48
1
60
0
100
AcDbSpline
70
4
71
3
72
8
73
4
40
0
40
0
40
0
40
0
40
1
40
1
40
1
40
1
41
1
10
50.3729883098787
20
-34.2584021192711
30
0
41
1
10
50.3497595825633
20
-34.3780023558778
30
0
41
1
10
50.323708886866
20
-34.4972715911136
30
0
41
1
10
50.2945448913587
20
-34.6161756534044
30
0
0
SPLINE
5
384
100
AcDbEntity
8
1
62
256
6
ByLayer
370
18
48
1
60
0
100
AcDbSpline
70
4
71
3
72
22
73
18
40
0
40
0
40
0
40
0
40
0.125
40
0.125
40
0.25
40
0.25
40
0.375
40
0.375
40
0.5
40
0.5
40
0.625
40
0.625
40
0.75
40
0.75
40
0.875
40
0.875
40
1
40
1
40
1
40
1
41
1
10
50.4480681490038
20
-33.9746624454759
30
0
41
1
10
50.4463278959644
20
-33.9784731867705
30
0
41
1
10
50.4442395340473
20
-33.9841299981713
30
0
41
1
10
50.4393332381318
20
-33.9989551472628
30
0
41
1
10
50.4365181113316
20
-34.0081363793252
30
0
41
1
10
50.4304108340042
20
-34.0289838930211
30
0
41
1
10
50.4270363163845
20
-34.040931842058
30
0
41
1
10
50.4200279068826
20
-34.0663544045702
30
0
41
1
10
50.4163317181305
20
-34.0800480811016
30
0
41
1
10
50.4087888639919
20
-34.1084899998499
30
0
41
1
10
50.4050118505632
20
-34.1229701100835
30
0
41
1
10
50.3974663954038
20
-34.1524532222058
30
0
41
1
10
50.3937654761538
20
-34.1672004779865
30
0
41
1
10
50.386813909261
20
-34.195676847961
30
0
41
1
10
50.3834903256508
20
-34.2097160980373
30
0
41
1
10
50.3776586280445
20
-34.2355426152498
30
0
41
1
10
50.3750908181776
20
-34.24757670957
30
0
41
1
10
50.3729883098787
20
-34.2584021192712
30
0
0
SPLINE
5
385
100
AcDbEntity
8
1
62
256
6
ByLayer
370
18
48
1
60
0
100
AcDbSpline
70
4
71
3
72
8
73
4
40
0
40
0
40
0
40
0
40
1
40
1
40
1
40
1
41
1
10
50.4510265495617
20
-33.9681246727629
30
0
41
1
10
50.4500493828434
20
-33.970304125476
30
0
41
1
10
50.44906326235
20
-33.9724833833305
30
0
41
1
10
50.4480681490038
20
-33.9746624454759
30
0
0
SPLINE
5
386
100
AcDbEntity
8
1
62
256
6
ByLayer
370
18
48
1
60
0
100
AcDbSpline
70
4
71
3
72
12
73
8
40
0
40
0
40
0
40
0
40
0.25
40
0.25
40
0.5
40
0.5
40
1
40
1
40
1
40
1
41
1
10
50.5375
20
-33.1007626600443
30
0
41
1
10
50.5375
20
-33.1713508614794
30
0
41
1
10
50.5354936484665
20
-33.2431044794238
30
0
41
1
10
50.5276037053169
20
-33.388863862819
30
0
41
1
10
50.5216549502838
20
-33.4632720121501
30
0
41
1
10
50.4989817568298
20
-33.6828621726759
30
0
41
1
10
50.4774567967376
20
-33.8265346283846
30
0
41
1
10
50.4510265495617
20
-33.968124672763
30
0
0
SPLINE
5
387
100
AcDbEntity
8
1
62
256
6
ByLayer
370
18
48
1
60
0
100
AcDbSpline
70
4
71
3
72
8
73
4
40
0
40
0
40
0
40
0
40
1
40
1
40
1
40
1
41
1
10
41.6269318509962
20
-33.9746624454759
30
0
41
1
10
41.6259367376505
20
-33.9724833833316
30
0
41
1
10
41.6249506171575
20
-33.9703041254783
30
0
41
1
10
41.6239734504397
20
-33.9681246727662
30
0
0
SPLINE
5
388
100
AcDbEntity
8
1
62
256
6
ByLayer
370
18
48
1
60
0
100
AcDbSpline
70
4
71
3
72
8
73
4
40
0
40
0
40
0
40
0
40
1
40
1
40
1
40
1
41
1
10
41.7804551086413
20
-34.6161756534044
30
0
41
1
10
41.751291113134
20
-34.4972715911136
30
0
41
1
10
41.7252404174367
20
-34.3780023558778
30
0
41
1
10
41.7020116901213
20
-34.2584021192711
30
0
0
SPLINE
5
389
100
AcDbEntity
8
1
62
256
6
ByLayer
370
18
48
1
60
0
100
AcDbSpline
70
4
71
3
72
8
73
4
40
0
40
0
40
0
40
0
40
1
40
1
40
1
40
1
41
1
10
41.8794804585031
20
-34.9276189578277
30
0
41
1
10
41.8450530149157
20
-34.8269203995949
30
0
41
1
10
41.8119429835682
20
-34.7233290208157
30
0
41
1
10
41.7804551086413
20
-34.6161756534044
30
0
0
SPLINE
5
38A
100
AcDbEntity
8
1
62
256
6
ByLayer
370
18
48
1
60
0
100
AcDbSpline
70
4
71
3
72
8
73
4
40
0
40
0
40
0
40
0
40
1
40
1
40
1
40
1
41
1
10
41.9828383050293
20
-35.1357211018455
30
0
41
1
10
41.9462287561084
20
-35.0673436626572
30
0
41
1
10
41.911776401736
20
-34.997976161469
30
0
41
1
10
41.879480458506
20
-34.9276189578317
30
0
0
SPLINE
5
38B
100
AcDbEntity
8
1
62
256
6
ByLayer
370
18
48
1
60
0
100
AcDbSpline
70
4
71
3
72
12
73
8
40
0
40
0
40
0
40
0
40
0.249999999999981
40
0.249999999999981
40
0.499999999999961
40
0.499999999999961
40
1
40
1
40
1
40
1
41
1
10
41.9828383050293
20
-35.1357211018455
30
0
41
1
10
41.989488785055
20
-35.1481425275919
30
0
41
1
10
41.9960946160872
20
-35.1598516048704
30
0
41
1
10
42.0092113579398
20
-35.1818978147426
30
0
41
1
10
42.0157773261387
20
-35.1923033242733
30
0
41
1
10
42.0342710312021
20
-35.219749227304
30
0
41
1
10
42.04554968665
20
-35.2338684746541
30
0
41
1
10
42.0536800325621
20
-35.2408574915495
30
0
0
SPLINE
5
38C
100
AcDbEntity
8
1
62
256
6
ByLayer
370
18
48
1
60
0
100
AcDbSpline
70
4
71
3
72
8
73
4
40
0
40
0
40
0
40
0
40
1
40
1
40
1
40
1
41
1
10
42.2934566986489
20
-35.4201081252888
30
0
41
1
10
42.2034520876135
20
-35.3612031283291
30
0
41
1
10
42.1241136150978
20
-35.3014036851861
30
0
41
1
10
42.0536800325369
20
-35.2408574914905
30
0
0
SPLINE
5
38D
100
AcDbEntity
8
1
62
256
6
ByLayer
370
18
48
1
60
0
100
AcDbSpline
70
4
71
3
72
22
73
18
40
0
40
0
40
0
40
0
40
0.125
40
0.125
40
0.25
40
0.25
40
0.375
40
0.375
40
0.5
40
0.5
40
0.625
40
0.625
40
0.75
40
0.75
40
0.875
40
0.875
40
1
40
1
40
1
40
1
41
1
10
42.5275184558022
20
-35.7038477990842
30
0
41
1
10
42.5206663330581
20
-35.691948371116
30
0
41
1
10
42.5124931872797
20
-35.6791771432313
30
0
41
1
10
42.4942172209482
20
-35.6522371502946
30
0
41
1
10
42.4841759115675
20
-35.6381861259645
30
0
41
1
10
42.4634797397821
20
-35.6101956333066
30
0
41
1
10
42.4525913261742
20
-35.5959401134809
30
0
41
1
10
42.4305809445325
20
-35.5678560401287
30
0
41
1
10
42.4195249241466
20
-35.5541039946909
30
0
41
1
10
42.3973293334491
20
-35.5271557447731
30
0
41
1
10
42.3862199085322
20
-35.5140051908216
30
0
41
1
10
42.3648376612632
20
-35.4894193612897
30
0
41
1
10
42.3544458928811
20
-35.4778354399788
30
0
41
1
10
42.3343116237064
20
-35.4563674577371
30
0
41
1
10
42.3249045140169
20
-35.4468437599596
30
0
41
1
10
42.3077030419599
20
-35.4308182459528
30
0
41
1
10
42.2998960001767
20
-35.4243224319989
30
0
41
1
10
42.2934566986415
20
-35.4201081252761
30
0
0
SPLINE
5
38E
100
AcDbEntity
8
1
62
256
6
ByLayer
370
18
48
1
60
0
100
AcDbSpline
70
4
71
3
72
8
73
4
40
0
40
0
40
0
40
0
40
1
40
1
40
1
40
1
41
1
10
42.8643790449821
20
-36.2144740192194
30
0
41
1
10
42.7391040306327
20
-36.0486242260798
30
0
41
1
10
42.6278426822574
20
-35.8780713135685
30
0
41
1
10
42.5275184558022
20
-35.7038477990842
30
0
0
SPLINE
5
38F
100
AcDbEntity
8
1
62
256
6
ByLayer
370
18
48
1
60
0
100
AcDbSpline
70
4
71
3
72
14
73
10
40
0
40
0
40
0
40
0
40
0.25
40
0.25
40
0.5
40
0.5
40
0.75
40
0.75
40
1
40
1
40
1
40
1
41
1
10
42.8643790449821
20
-36.2144740192193
30
0
41
1
10
42.8731397340426
20
-36.2260721697044
30
0
41
1
10
42.8835792509634
20
-36.2382842025916
30
0
41
1
10
42.9067974565974
20
-36.2634326185535
30
0
41
1
10
42.9193594551453
20
-36.2761048929049
30
0
41
1
10
42.9453127339118
20
-36.3008856187324
30
0
41
1
10
42.9589186145642
20
-36.3131947996427
30
0
41
1
10
42.9865873928684
20
-36.337040775846
30
0
41
1
10
43.0006182371453
20
-36.3485588488084
30
0
41
1
10
43.0148384262101
20
-36.3596961652797
30
0
0
SPLINE
5
390
100
AcDbEntity
8
1
62
256
6
ByLayer
370
18
48
1
60
0
100
AcDbSpline
70
4
71
3
72
8
73
4
40
0
40
0
40
0
40
0
40
1
40
1
40
1
40
1
41
1
10
43.3274498225776
20
-36.5811667816585
30
0
41
1
10
43.2195260336665
20
-36.5122191655551
30
0
41
1
10
43.1153222766642
20
-36.4383955719901
30
0
41
1
10
43.0148384262118
20
-36.3596961652761
30
0
0
SPLINE
5
391
100
AcDbEntity
8
1
62
256
6
ByLayer
370
18
48
1
60
0
100
AcDbSpline
70
4
71
3
72
12
73
8
40
0
40
0
40
0
40
0
40
0.499999999999988
40
0.499999999999988
40
0.749999999999994
40
0.749999999999994
40
1
40
1
40
1
40
1
41
1
10
43.3274498225776
20
-36.5811667816584
30
0
41
1
10
43.3644594060036
20
-36.6048105267117
30
0
41
1
10
43.4011781013476
20
-36.6258164113781
30
0
41
1
10
43.4556747017941
20
-36.6532213394547
30
0
41
1
10
43.4737236248672
20
-36.6616301804946
30
0
41
1
10
43.5079909025608
20
-36.676001911675
30
0
41
1
10
43.5244225409999
20
-36.6821116978344
30
0
41
1
10
43.5393927412799
20
-36.6863031713045
30
0
0
SPLINE
5
392
100
AcDbEntity
8
1
62
256
6
ByLayer
370
18
48
1
60
0
100
AcDbSpline
70
4
71
3
72
10
73
6
40
0
40
0
40
0
40
0
40
0.5
40
0.5
40
1
40
1
40
1
40
1
41
1
10
44.4148316568201
20
-36.8655538051006
30
0
41
1
10
44.2471326679406
20
-36.8423513445425
30
0
41
1
10
44.0922091713645
20
-36.81523715682
30
0
41
1
10
43.8018952679328
20
-36.7550279458933
30
0
41
1
10
43.6665729434442
20
-36.7219120765536
30
0
41
1
10
43.5393927412799
20
-36.6863031713045
30
0
0
SPLINE
5
393
100
AcDbEntity
8
1
62
256
6
ByLayer
370
18
48
1
60
0
100
AcDbSpline
70
4
71
3
72
18
73
14
40
0
40
0
40
0
40
0
40
0.250000000000004
40
0.250000000000004
40
0.500000000000008
40
0.500000000000008
40
0.750000000000012
40
0.750000000000012
40
0.875000000000006
40
0.875000000000006
40
0.937500000000003
40
0.937500000000003
40
1
40
1
40
1
40
1
41
1
10
45.5375
20
-36.9950940025279
30
0
41
1
10
45.4418783651869
20
-36.9950940025279
30
0
41
1
10
45.3464034226734
20
-36.9916954922426
30
0
41
1
10
45.1557435102334
20
-36.9784873857628
30
0
41
1
10
45.0607116113421
20
-36.9686746335719
30
0
41
1
10
44.8723073102089
20
-36.943947044863
30
0
41
1
10
44.778798087145
20
-36.9289616074025
30
0
41
1
10
44.6399615537232
20
-36.9046022178418
30
0
41
1
10
44.5939205354576
20
-36.8961680671961
30
0
41
1
10
44.5253579971864
20
-36.8837845546266
30
0
41
1
10
44.5025703621681
20
-36.8797029356281
30
0
41
1
10
44.4579577096432
20
-36.8720728687418
30
0
41
1
10
44.4360429730322
20
-36.868488555817
30
0
41
1
10
44.4148316568187
20
-36.8655538051004
30
0
0
SPLINE
5
394
100
AcDbEntity
8
1
62
256
6
ByLayer
370
18
48
1
60
0
100
AcDbSpline
70
4
71
3
72
14
73
10
40
0
40
0
40
0
40
0
40
0.25
40
0.25
40
0.5
40
0.5
40
0.75
40
0.75
40
1
40
1
40
1
40
1
41
1
10
47.4375
20
-24.900014016555
30
0
41
1
10
47.4532305386526
20
-24.900014016555
30
0
41
1
10
47.4684208208636
20
-24.9051684728113
30
0
41
1
10
47.4943075492544
20
-24.9222191535711
30
0
41
1
10
47.5049228318493
20
-24.9338114998218
30
0
41
1
10
47.5216281168675
20
-24.9599433141877
30
0
41
1
10
47.5275376939977
20
-24.9740402338121
30
0
41
1
10
47.5355522024769
20
-25.0038429255807
30
0
41
1
10
47.5375000000039
20
-25.0191212705238
30
0
41
1
10
47.537500000004
20
-25.0345781961563
30
0
0
SPLINE
5
395
100
AcDbEntity
8
1
62
256
6
ByLayer
370
18
48
1
60
0
100
AcDbSpline
70
4
71
3
72
66
73
62
40
0
40
0
40
0
40
0
40
0.0625000000000039
40
0.0625000000000039
40
0.125000000000008
40
0.125000000000008
40
0.187500000000012
40
0.187500000000012
40
0.250000000000015
40
0.250000000000015
40
0.312500000000019
40
0.312500000000019
40
0.343750000000022
40
0.343750000000022
40
0.375000000000024
40
0.375000000000024
40
0.406250000000028
40
0.406250000000028
40
0.437500000000033
40
0.437500000000033
40
0.453125000000035
40
0.453125000000035
40
0.468750000000037
40
0.468750000000037
40
0.48437500000004
40
0.48437500000004
40
0.49218750000004
40
0.49218750000004
40
0.50000000000004
40
0.50000000000004
40
0.50781250000004
40
0.50781250000004
40
0.51562500000004
40
0.51562500000004
40
0.52343750000004
40
0.52343750000004
40
0.531250000000041
40
0.531250000000041
40
0.54687500000004
40
0.54687500000004
40
0.562500000000039
40
0.562500000000039
40
0.578125000000037
40
0.578125000000037
40
0.593750000000036
40
0.593750000000036
40
0.625000000000033
40
0.625000000000033
40
0.687500000000027
40
0.687500000000027
40
0.718750000000025
40
0.718750000000025
40
0.750000000000022
40
0.750000000000022
40
0.812500000000017
40
0.812500000000017
40
0.875000000000011
40
0.875000000000011
40
0.937500000000006
40
0.937500000000006
40
1
40
1
40
1
40
1
41
1
10
44.5375
20
-28.2638894019764
30
0
41
1
10
44.5375
20
-28.4484724454887
30
0
41
1
10
44.5459934067316
20
-28.6312186959138
30
0
41
1
10
44.5768574709275
20
-28.9935658586383
30
0
41
1
10
44.5992494670859
20
-29.173163225214
30
0
41
1
10
44.6563577199006
20
-29.5294869347355
30
0
41
1
10
44.6910751641769
20
-29.7062129108732
30
0
41
1
10
44.7724317411699
20
-30.0568838355023
30
0
41
1
10
44.8190488754884
20
-30.2308319338622
30
0
41
1
10
44.925230172435
20
-30.5758158257196
30
0
41
1
10
44.9843327348754
20
-30.7455393705648
30
0
41
1
10
45.084087140841
20
-30.9949392646645
30
0
41
1
10
45.1192155951949
20
-31.0772198228295
30
0
41
1
10
45.1941022026708
20
-31.2397829208712
30
0
41
1
10
45.2337268274968
20
-31.3197937291749
30
0
41
1
10
45.3184181792092
20
-31.4760418273417
30
0
41
1
10
45.3634807487094
20
-31.5523821264378
30
0
41
1
10
45.4617174058243
20
-31.6999945345462
30
0
41
1
10
45.5147289706826
20
-31.7713594443654
30
0
41
1
10
45.6051177169928
20
-31.8718964207892
30
0
41
1
10
45.6372036814764
20
-31.9043519144381
30
0
41
1
10
45.7052370723768
20
-31.9644166612117
30
0
41
1
10
45.7414424584459
20
-31.9923235837354
30
0
41
1
10
45.8195996508269
20
-32.0408842982262
30
0
41
1
10
45.8607622840211
20
-32.0610814050597
30
0
41
1
10
45.9271146346985
20
-32.082398296775
30
0
41
1
10
45.9500021655052
20
-32.0879369500009
30
0
41
1
10
45.995854270762
20
-32.0951218910599
30
0
41
1
10
46.0190116533121
20
-32.0968391900749
30
0
41
1
10
46.0658192127411
20
-32.0962806944161
30
0
41
1
10
46.0893048927195
20
-32.0939643709191
30
0
41
1
10
46.1349671462691
20
-32.085694732787
30
0
41
1
10
46.1573665542309
20
-32.0797452434411
30
0
41
1
10
46.2013945892439
20
-32.0646018245558
30
0
41
1
10
46.2227900594659
20
-32.0554741227537
30
0
41
1
10
46.2638443572327
20
-32.0350177869809
30
0
41
1
10
46.2836361340863
20
-32.0236418864295
30
0
41
1
10
46.3412204321845
20
-31.9867091386258
30
0
41
1
10
46.3773920726569
20
-31.9581978626325
30
0
41
1
10
46.4446082446559
20
-31.897696711158
30
0
41
1
10
46.4759464584239
20
-31.8655180304717
30
0
41
1
10
46.5354999434157
20
-31.7984672511306
30
0
41
1
10
46.5636993480064
20
-31.7635820173892
30
0
41
1
10
46.6177440380273
20
-31.6917458033512
30
0
41
1
10
46.6435180855376
20
-31.6548651042473
30
0
41
1
10
46.717293158365
20
-31.5429807196643
30
0
41
1
10
46.7621414343194
20
-31.4663211748534
30
0
41
1
10
46.8881914621469
20
-31.2320541836638
30
0
41
1
10
46.961053656181
20
-31.0702253113776
30
0
41
1
10
47.0600666240627
20
-30.8217069669801
30
0
41
1
10
47.091271167214
20
-30.737867773126
30
0
41
1
10
47.1505036649836
20
-30.568356277519
30
0
41
1
10
47.1784982011554
20
-30.482746846985
30
0
41
1
10
47.2574900388145
20
-30.2252611287348
30
0
41
1
10
47.3037804270668
20
-30.0520790031405
30
0
41
1
10
47.3846170478907
20
-29.7027993002443
30
0
41
1
10
47.4191427007248
20
-29.5266985744925
30
0
41
1
10
47.4759676275688
20
-29.1714704496795
30
0
41
1
10
47.4982687157263
20
-28.9923435546847
30
0
41
1
10
47.5290238800527
20
-28.63075539672
30
0
41
1
10
47.5375000000001
20
-28.4482980742443
30
0
41
1
10
47.5375000000001
20
-28.2638894019764
30
0
0
SPLINE
5
396
100
AcDbEntity
8
1
62
256
6
ByLayer
370
18
48
1
60
0
100
AcDbSpline
70
4
71
3
72
14
73
10
40
0
40
0
40
0
40
0
40
0.25
40
0.25
40
0.5
40
0.5
40
0.75
40
0.75
40
1
40
1
40
1
40
1
41
1
10
44.5375
20
-25.0345781961572
30
0
41
1
10
44.5375
20
-25.0191219940966
30
0
41
1
10
44.5394324127701
20
-25.0039390228843
30
0
41
1
10
44.5474210638247
20
-24.974154983355
30
0
41
1
10
44.5533801494749
20
-24.9599456754048
30
0
41
1
10
44.5699930035833
20
-24.9339279346841
30
0
41
1
10
44.5806442077925
20
-24.9222590308744
30
0
41
1
10
44.6065601955791
20
-24.9051728962403
30
0
41
1
10
44.6217725004733
20
-24.900014016555
30
0
41
1
10
44.6375
20
-24.900014016555
30
0
0
SPLINE
5
397
100
AcDbEntity
8
1
62
256
6
ByLayer
370
18
48
1
60
0
100
AcDbSpline
70
4
71
3
72
38
73
34
40
0
40
0
40
0
40
0
40
0.12500000000001
40
0.12500000000001
40
0.187500000000016
40
0.187500000000016
40
0.218750000000017
40
0.218750000000017
40
0.250000000000018
40
0.250000000000018
40
0.37500000000002
40
0.37500000000002
40
0.40625000000002
40
0.40625000000002
40
0.43750000000002
40
0.43750000000002
40
0.50000000000002
40
0.50000000000002
40
0.562500000000019
40
0.562500000000019
40
0.593750000000018
40
0.593750000000018
40
0.625000000000018
40
0.625000000000018
40
0.75000000000001
40
0.75000000000001
40
0.812500000000008
40
0.812500000000008
40
0.843750000000006
40
0.843750000000006
40
0.875000000000005
40
0.875000000000005
40
1
40
1
40
1
40
1
41
1
10
46.5375
20
-32.9154578258723
30
0
41
1
10
46.8102523464621
20
-32.9154578258723
30
0
41
1
10
47.0782547580114
20
-32.8897298120875
30
0
41
1
10
47.4734090318868
20
-32.8137821355243
30
0
41
1
10
47.603976200622
20
-32.7821844763467
30
0
41
1
10
47.7980508524499
20
-32.7250139992595
30
0
41
1
10
47.8626130916891
20
-32.7042601191637
30
0
41
1
10
47.9898019500664
20
-32.6598696777438
30
0
41
1
10
48.0525351366786
20
-32.6362112747396
30
0
41
1
10
48.3619720471157
20
-32.5106910778768
30
0
41
1
10
48.5961145159977
20
-32.3873760990142
30
0
41
1
10
48.8719612686669
20
-32.2036335060338
30
0
41
1
10
48.9262812236133
20
-32.1653905494616
30
0
41
1
10
49.0331884671171
20
-32.0858313737641
30
0
41
1
10
49.0855069873771
20
-32.0447067472799
30
0
41
1
10
49.2382339250807
20
-31.9180371318964
30
0
41
1
10
49.3348048574989
20
-31.8289221881124
30
0
41
1
10
49.5177530813247
20
-31.641451832301
30
0
41
1
10
49.6041293359377
20
-31.5430957797947
30
0
41
1
10
49.7260653292775
20
-31.3885179118277
30
0
41
1
10
49.7654372141801
20
-31.3358161341663
30
0
41
1
10
49.8416126121598
20
-31.2280195679398
30
0
41
1
10
49.8785143686864
20
-31.1727624583523
30
0
41
1
10
50.0549945302112
20
-30.8928158884463
30
0
41
1
10
50.1709441864697
20
-30.6572170938643
30
0
41
1
10
50.3099874401771
20
-30.287062560865
30
0
41
1
10
50.3504832825769
20
-30.1608692018941
30
0
41
1
10
50.4025150482143
20
-29.9673254107977
30
0
41
1
10
50.4183564744923
20
-29.9022528559364
30
0
41
1
10
50.4469009863424
20
-29.7719490589366
30
0
41
1
10
50.45964199816
20
-29.706580113479
30
0
41
1
10
50.515953037513
20
-29.3786720549505
30
0
41
1
10
50.5375
20
-29.1129590705774
30
0
41
1
10
50.5375
20
-28.8439993735494
30
0
0
SPLINE
5
398
100
AcDbEntity
8
1
62
256
6
ByLayer
370
18
48
1
60
0
100
AcDbSpline
70
4
71
3
72
22
73
18
40
0
40
0
40
0
40
0
40
0.125
40
0.125
40
0.25
40
0.25
40
0.375
40
0.375
40
0.5
40
0.5
40
0.625
40
0.625
40
0.75
40
0.75
40
0.875
40
0.875
40
1
40
1
40
1
40
1
41
1
10
41.7020116901213
20
-34.2584021192711
30
0
41
1
10
41.6999082534324
20
-34.2475719294695
30
0
41
1
10
41.6973629527949
20
-34.2356393103064
30
0
41
1
10
41.6915027524793
20
-34.2096843251495
30
0
41
1
10
41.6881916940757
20
-34.1956998893021
30
0
41
1
10
41.6812311282778
20
-34.167186480567
30
0
41
1
10
41.6774893768587
20
-34.1522791797548
30
0
41
1
10
41.6699837425395
20
-34.1229541255358
30
0
41
1
10
41.6661614586864
20
-34.1083002514469
30
0
41
1
10
41.6586063028962
20
-34.0798168421204
30
0
41
1
10
41.6549597225121
20
-34.066307896293
30
0
41
1
10
41.6479167743095
20
-34.0407633300175
30
0
41
1
10
41.6445667568196
20
-34.0289055645356
30
0
41
1
10
41.6384644367153
20
-34.0080786517537
30
0
41
1
10
41.6356343012662
20
-33.9988539430919
30
0
41
1
10
41.6307581479551
20
-33.9841261356224
30
0
41
1
10
41.6286734474464
20
-33.9784761285215
30
0
41
1
10
41.6269318509962
20
-33.9746624454759
30
0
0
SPLINE
5
399
100
AcDbEntity
8
1
62
256
6
ByLayer
370
18
48
1
60
0
100
AcDbSpline
70
4
71
3
72
35
73
31
40
0
40
0
40
0
40
0
40
0.124999999999998
40
0.124999999999998
40
0.187499999999998
40
0.187499999999998
40
0.218749999999998
40
0.218749999999998
40
0.249999999999999
40
0.249999999999999
40
0.374999999999999
40
0.374999999999999
40
0.406249999999998
40
0.406249999999998
40
0.437499999999999
40
0.437499999999999
40
0.499999999999997
40
0.499999999999997
40
0.624999999999993
40
0.624999999999993
40
0.656249999999995
40
0.656249999999995
40
0.687499999999996
40
0.687499999999996
40
0.749999999999996
40
0.812499999999997
40
0.812499999999997
40
0.874999999999997
40
0.874999999999997
40
1
40
1
40
1
40
1
41
1
10
41.5375
20
-28.8439993735492
30
0
41
1
10
41.5375
20
-29.1124453467481
30
0
41
1
10
41.5589658114486
20
-29.3776248515071
30
0
41
1
10
41.626249217126
20
-29.7702860753724
30
0
41
1
10
41.6545528864364
20
-29.9003188554404
30
0
41
1
10
41.7065074556126
20
-30.0940276670909
30
0
41
1
10
41.7253555084897
20
-30.1581344541283
30
0
41
1
10
41.7658566493412
20
-30.2845306191501
30
0
41
1
10
41.7875457834342
20
-30.3469571959603
30
0
41
1
10
41.9031860911167
20
-30.6552641077591
30
0
41
1
10
42.0185521943646
20
-30.8897461594252
30
0
41
1
10
42.1929754593984
20
-31.1673749767136
30
0
41
1
10
42.2293819027804
20
-31.2221219104524
30
0
41
1
10
42.3053278634075
20
-31.3300291225805
30
0
41
1
10
42.3449995266802
20
-31.3833525101255
30
0
41
1
10
42.4677578326216
20
-31.5394806238237
30
0
41
1
10
42.5544502121005
20
-31.6383794446909
30
0
41
1
10
42.8287876118573
20
-31.9201081776649
30
0
41
1
10
43.0305575596337
20
-32.0881091538116
30
0
41
1
10
43.3073216866451
20
-32.2732442783243
30
0
41
1
10
43.364041925013
20
-32.3090841244526
30
0
41
1
10
43.4786920989327
20
-32.3774452621953
30
0
41
1
10
43.5367498543217
20
-32.4100610371094
30
0
41
1
10
43.7130828441016
20
-32.5033297595481
30
0
41
1
10
43.9539422216731
20
-32.6155026568701
30
0
41
1
10
44.2061582264459
20
-32.7039251498189
30
0
41
1
10
44.4641587780934
20
-32.7803859226869
30
0
41
1
10
44.5966092482191
20
-32.8126955711854
30
0
41
1
10
44.9952494653627
20
-32.8896950209457
30
0
41
1
10
45.2645690598049
20
-32.9154578258736
30
0
41
1
10
45.5374999999998
20
-32.9154578258736
30
0
0
SPLINE
5
39A
100
AcDbEntity
8
1
62
256
6
ByLayer
370
18
48
1
60
0
100
AcDbSpline
70
4
71
3
72
16
73
12
40
0
40
0
40
0
40
0
40
0.25
40
0.25
40
0.5
40
0.5
40
0.75
40
0.75
40
0.875
40
0.875
40
1
40
1
40
1
40
1
41
1
10
41.6239734504381
20
-33.9681246727623
30
0
41
1
10
41.6109407907752
20
-33.8983071319817
30
0
41
1
10
41.5990121559084
20
-33.8274424468474
30
0
41
1
10
41.577773528089
20
-33.6832293496691
30
0
41
1
10
41.5684313519075
20
-33.6094182205551
30
0
41
1
10
41.5533255371512
20
-33.4630477350998
30
0
41
1
10
41.5474912579297
20
-33.3901310952286
30
0
41
1
10
41.541555479206
20
-33.2811961892943
30
0
41
1
10
41.5400468264439
20
-33.2449580005077
30
0
41
1
10
41.5380180797096
20
-33.1726361239029
30
0
41
1
10
41.5375
20
-33.1363933023782
30
0
41
1
10
41.5375
20
-33.1007626600442
30
0
0
SPLINE
5
39B
100
AcDbEntity
8
1
62
256
6
ByLayer
370
18
48
1
60
0
100
AcDbSpline
70
4
71
3
72
8
73
4
40
0
40
0
40
0
40
0
40
1
40
1
40
1
40
1
41
1
10
0.899999999999977
20
5.09750000000003
30
0
41
1
10
0.732429657767113
20
5.26507034223289
30
0
41
1
10
0.565750062281325
20
5.43174993771868
30
0
41
1
10
0.399999999999977
20
5.59750000000003
30
0
0
SPLINE
5
39C
100
AcDbEntity
8
1
62
256
6
ByLayer
370
18
48
1
60
0
100
AcDbSpline
70
4
71
3
72
8
73
4
40
0
40
0
40
0
40
0
40
1
40
1
40
1
40
1
41
1
10
0.399999999999977
20
-5.59750000000003
30
0
41
1
10
0.565750062281325
20
-5.43174993771868
30
0
41
1
10
0.732429657767113
20
-5.26507034223289
30
0
41
1
10
0.899999999999977
20
-5.09750000000003
30
0
0
SPLINE
5
39D
100
AcDbEntity
8
1
62
256
6
ByLayer
370
18
48
1
60
0
100
AcDbSpline
70
4
71
3
72
35
73
31
40
0
40
0
40
0
40
0
40
0.124999999999997
40
0.124999999999997
40
0.187499999999996
40
0.187499999999996
40
0.218749999999995
40
0.218749999999995
40
0.249999999999995
40
0.249999999999995
40
0.374999999999996
40
0.374999999999996
40
0.406249999999997
40
0.406249999999997
40
0.437499999999997
40
0.437499999999997
40
0.5
40
0.5
40
0.625000000000003
40
0.625000000000003
40
0.656250000000003
40
0.656250000000003
40
0.687500000000003
40
0.687500000000003
40
0.750000000000003
40
0.812500000000002
40
0.812500000000002
40
0.875000000000001
40
0.875000000000001
40
1
40
1
40
1
40
1
41
1
10
41.5375
20
31.290560751193
30
0
41
1
10
41.5375
20
31.452123360446
30
0
41
1
10
41.5589657929222
20
31.6180888826805
30
0
41
1
10
41.6262492130435
20
31.8730193006858
30
0
41
1
10
41.6545528943503
20
31.958991757595
30
0
41
1
10
41.7065075040549
20
32.0893458744778
30
0
41
1
10
41.7253555340845
20
32.1328703159738
30
0
41
1
10
41.7658566535403
20
32.2194177943822
30
0
41
1
10
41.7875457772053
20
32.2625329672581
30
0
41
1
10
41.903186038082
20
32.4772192952179
30
0
41
1
10
42.0185521201023
20
32.6461730752858
30
0
41
1
10
42.1929754473804
20
32.8518663293098
30
0
41
1
10
42.22938190772
20
32.8927265589122
30
0
41
1
10
42.3053279134004
20
32.9738239496453
30
0
41
1
10
42.3449996103084
20
33.0141859041411
30
0
41
1
10
42.4677578524996
20
33.1331530551118
30
0
41
1
10
42.5544501991351
20
33.2095792620676
30
0
41
1
10
42.828787544105
20
33.42981261567
30
0
41
1
10
43.030557512635
20
33.5646671553723
30
0
41
1
10
43.3073217924055
20
33.7157691177408
30
0
41
1
10
43.3640420328717
20
33.7451648250094
30
0
41
1
10
43.4786921569471
20
33.801471031207
30
0
41
1
10
43.5367498917811
20
33.8284580795982
30
0
41
1
10
43.7130828339021
20
33.9059234739147
30
0
41
1
10
43.9539421852459
20
33.9999025132258
30
0
41
1
10
44.2061582488963
20
34.0749396035872
30
0
41
1
10
44.4641589086807
20
34.1400952130804
30
0
41
1
10
44.5966094007525
20
34.1677846488821
30
0
41
1
10
44.9952494959194
20
34.233939567245
30
0
41
1
10
45.2645690516298
20
34.2562921798113
30
0
41
1
10
45.5374999999998
20
34.2562921798113
30
0
0
SPLINE
5
39E
100
AcDbEntity
8
1
62
256
6
ByLayer
370
18
48
1
60
0
100
AcDbSpline
70
4
71
3
72
16
73
12
40
0
40
0
40
0
40
0
40
0.250000000000011
40
0.250000000000011
40
0.37500000000001
40
0.37500000000001
40
0.500000000000009
40
0.500000000000009
40
0.750000000000005
40
0.750000000000005
40
1
40
1
40
1
40
1
41
1
10
41.6239734504379
20
26.3037225438184
30
0
41
1
10
41.6109149441368
20
26.2828269505901
30
0
41
1
10
41.5989496733247
20
26.2585097069611
30
0
41
1
10
41.582962285532
20
26.2158977356893
30
0
41
1
10
41.577957215002
20
26.2006367221226
30
0
41
1
10
41.5687892897289
20
26.1683166626639
30
0
41
1
10
41.5646083843361
20
26.1512159994445
30
0
41
1
10
41.5533312616164
20
26.0969604352984
30
0
41
1
10
41.5474972418767
20
26.0568598849875
30
0
41
1
10
41.5395703644635
20
25.9679278599467
30
0
41
1
10
41.5375
20
25.9186304606546
30
0
41
1
10
41.5375
20
25.8662393566649
30
0
0
SPLINE
5
39F
100
AcDbEntity
8
1
62
256
6
ByLayer
370
18
48
1
60
0
100
AcDbSpline
70
4
71
3
72
8
73
4
40
0
40
0
40
0
40
0
40
1
40
1
40
1
40
1
41
1
10
41.6269318509962
20
26.3288842850926
30
0
41
1
10
41.6259367376505
20
26.3204977901343
30
0
41
1
10
41.6249506171575
20
26.312110541956
30
0
41
1
10
41.6239734504397
20
26.3037225438306
30
0
0
SPLINE
5
3A0
100
AcDbEntity
8
1
62
256
6
ByLayer
370
18
48
1
60
0
100
AcDbSpline
70
4
71
3
72
20
73
16
40
0
40
0
40
0
40
0
40
0.107007520488769
40
0.107007520488769
40
0.255839600407308
40
0.255839600407308
40
0.404671680325846
40
0.404671680325846
40
0.553503760244385
40
0.553503760244385
40
0.702335840162923
40
0.702335840162923
40
0.851167920081461
40
0.851167920081461
40
1
40
1
40
1
40
1
41
1
10
41.691877043114
20
26.5437024596484
30
0
41
1
10
41.6896284334994
20
26.5427930632926
30
0
41
1
10
41.6872135626625
20
26.5408802628476
30
0
41
1
10
41.6812311214675
20
26.5340649415882
30
0
41
1
10
41.6774894732737
20
26.5281701768261
30
0
41
1
10
41.6699837195515
20
26.5132637825603
30
0
41
1
10
41.6661619601455
20
26.5041710208461
30
0
41
1
10
41.658606369403
20
26.4831265382535
30
0
41
1
10
41.6549598071576
20
26.4714450036812
30
0
41
1
10
41.6479172771836
20
26.4457589084349
30
0
41
1
10
41.644566921518
20
26.4318726918115
30
0
41
1
10
41.6384647079911
20
26.4032579044508
30
0
41
1
10
41.6356346234647
20
26.388134930791
30
0
41
1
10
41.630758166501
20
26.3583523093513
30
0
41
1
10
41.6286734308754
20
26.3435617597128
30
0
41
1
10
41.6269318509962
20
26.3288842850926
30
0
0
SPLINE
5
3A1
100
AcDbEntity
8
1
62
256
6
ByLayer
370
18
48
1
60
0
100
AcDbSpline
70
4
71
3
72
8
73
4
40
0
40
0
40
0
40
0
40
1
40
1
40
1
40
1
41
1
10
41.7804551086413
20
26.4133068023644
30
0
41
1
10
41.7512911130547
20
26.4550469789247
30
0
41
1
10
41.7252404173755
20
26.4969153459691
30
0
41
1
10
41.7020116901213
20
26.5388999078901
30
0
0
SPLINE
5
3A2
100
AcDbEntity
8
1
62
256
6
ByLayer
370
18
48
1
60
0
100
AcDbSpline
70
4
71
3
72
8
73
4
40
0
40
0
40
0
40
0
40
1
40
1
40
1
40
1
41
1
10
41.8794804585031
20
26.4096299740266
30
0
41
1
10
41.8450605886803
20
26.4165163083441
30
0
41
1
10
41.8119504099239
20
26.4181499174048
30
0
41
1
10
41.780455108641
20
26.4133068023654
30
0
0
SPLINE
5
3A3
100
AcDbEntity
8
1
62
256
6
ByLayer
370
18
48
1
60
0
100
AcDbSpline
70
4
71
3
72
8
73
4
40
0
40
0
40
0
40
0
40
1
40
1
40
1
40
1
41
1
10
41.9223975270456
20
26.4764910280056
30
0
41
1
10
41.9076920054066
20
26.4543398359326
30
0
41
1
10
41.8933863367359
20
26.4320528108626
30
0
41
1
10
41.879480458506
20
26.4096299740368
30
0
0
SPLINE
5
3A4
100
AcDbEntity
8
1
62
256
6
ByLayer
370
18
48
1
60
0
100
AcDbSpline
70
4
71
3
72
16
73
12
40
0
40
0
40
0
40
0
40
0.238989182836096
40
0.238989182836096
40
0.477978365672192
40
0.477978365672192
40
0.716967548508288
40
0.716967548508288
40
0.955956731344384
40
0.955956731344384
40
1
40
1
40
1
40
1
41
1
10
42.5275184558022
20
27.6087755816213
30
0
41
1
10
42.5206657380318
20
27.6129531290039
30
0
41
1
10
42.5124923546314
20
27.6145407745707
30
0
41
1
10
42.4942173106313
20
27.6137174282611
30
0
41
1
10
42.4841751273358
20
27.611236961175
30
0
41
1
10
42.4634790155661
20
27.6030320631229
30
0
41
1
10
42.4525916005712
20
27.5972185168067
30
0
41
1
10
42.4305802293714
20
27.5827758460125
30
0
41
1
10
42.4195242553541
20
27.5742197268608
30
0
41
1
10
42.4063819480368
20
27.5625330249967
30
0
41
1
10
42.4043363941453
20
27.5606695407298
30
0
41
1
10
42.4022930956175
20
27.5587637366762
30
0
0
SPLINE
5
3A5
100
AcDbEntity
8
1
62
256
6
ByLayer
370
18
48
1
60
0
100
AcDbSpline
70
4
71
3
72
8
73
4
40
0
40
0
40
0
40
0
40
1
40
1
40
1
40
1
41
1
10
42.8643790449815
20
27.4295249478234
30
0
41
1
10
42.7391040257895
20
27.4877449931569
30
0
41
1
10
42.6278426786852
20
27.5476160229258
30
0
41
1
10
42.5275184558022
20
27.6087755816213
30
0
0
SPLINE
5
3A6
100
AcDbEntity
8
1
62
256
6
ByLayer
370
18
48
1
60
0
100
AcDbSpline
70
4
71
3
72
8
73
4
40
0
40
0
40
0
40
0
40
1
40
1
40
1
40
1
41
1
10
45.5375
20
28.6406058144669
30
0
41
1
10
45.4620005110873
20
28.6406058144669
30
0
41
1
10
45.3865924720276
20
28.6392167030147
30
0
41
1
10
45.3112750430822
20
28.6362330941563
30
0
0
SPLINE
5
3A7
100
AcDbEntity
8
1
62
256
6
ByLayer
370
18
48
1
60
0
100
AcDbSpline
70
4
71
3
72
38
73
34
40
0
40
0
40
0
40
0
40
0.125000000000001
40
0.125000000000001
40
0.187500000000001
40
0.187500000000001
40
0.21875
40
0.21875
40
0.249999999999999
40
0.249999999999999
40
0.375000000000003
40
0.375000000000003
40
0.406250000000003
40
0.406250000000003
40
0.437500000000002
40
0.437500000000002
40
0.500000000000002
40
0.500000000000002
40
0.562500000000002
40
0.562500000000002
40
0.593750000000003
40
0.593750000000003
40
0.625000000000004
40
0.625000000000004
40
0.75
40
0.75
40
0.812499999999998
40
0.812499999999998
40
0.843749999999999
40
0.843749999999999
40
0.875
40
0.875
40
1
40
1
40
1
40
1
41
1
10
46.5375
20
34.2562921798102
30
0
41
1
10
46.8102523464622
20
34.2562921798102
30
0
41
1
10
47.0782547580114
20
34.2339722093249
30
0
41
1
10
47.4734090318868
20
34.1687168093948
30
0
41
1
10
47.603976200622
20
34.141633244602
30
0
41
1
10
47.7980508524499
20
34.0929078136326
30
0
41
1
10
47.8626130916891
20
34.0752593232102
30
0
41
1
10
47.9898019500664
20
34.0376255064651
30
0
41
1
10
48.0525351366786
20
34.0176213363595
30
0
41
1
10
48.3619720471157
20
33.9118479939733
30
0
41
1
10
48.5961145159977
20
33.8089633760928
30
0
41
1
10
48.8719612686668
20
33.6589447223311
30
0
41
1
10
48.9262812236133
20
33.6278616837047
30
0
41
1
10
49.033188467117
20
33.5635381431048
30
0
41
1
10
49.0855069873772
20
33.5304534210986
30
0
41
1
10
49.2382339250807
20
33.4291133619247
30
0
41
1
10
49.3348048574989
20
33.3585491445208
30
0
41
1
10
49.5177530813247
20
33.2119630678963
30
0
41
1
10
49.6041293359377
20
33.1359399893686
30
0
41
1
10
49.7260653292775
20
33.018106716676
30
0
41
1
10
49.7654372141801
20
32.9781947538579
30
0
41
1
10
49.8416126121598
20
32.8971394998562
30
0
41
1
10
49.8785143686863
20
32.8558764732357
30
0
41
1
10
50.0549945302112
20
32.6483770817326
30
0
41
1
10
50.1709441864697
20
32.4786075262405
30
0
41
1
10
50.3099874401771
20
32.2208120134341
30
0
41
1
10
50.3504832825769
20
32.1343449609786
30
0
41
1
10
50.4025150482143
20
32.0040737536026
30
0
41
1
10
50.4183564744923
20
31.9606586064116
30
0
41
1
10
50.4469009863424
20
31.8745009056824
30
0
41
1
10
50.45964199816
20
31.8316654237648
30
0
41
1
10
50.515953037513
20
31.6187436120733
30
0
41
1
10
50.5375
20
31.4524326080999
30
0
41
1
10
50.5375
20
31.2905607511931
30
0
0
SPLINE
5
3A8
100
AcDbEntity
8
1
62
256
6
ByLayer
370
18
48
1
60
0
100
AcDbSpline
70
4
71
3
72
8
73
4
40
0
40
0
40
0
40
0
40
1
40
1
40
1
40
1
41
1
10
46.6987519884122
20
28.6384153802485
30
0
41
1
10
46.6451236566728
20
28.6398981183183
30
0
41
1
10
46.5913724337872
20
28.6406058144675
30
0
41
1
10
46.5375000000001
20
28.6406058144675
30
0
0
SPLINE
5
3A9
100
AcDbEntity
8
1
62
256
6
ByLayer
370
18
48
1
60
0
100
AcDbSpline
70
4
71
3
72
8
73
4
40
0
40
0
40
0
40
0
40
1
40
1
40
1
40
1
41
1
10
49.5474815441979
20
27.6087755816213
30
0
41
1
10
49.4471573213147
20
27.5476160229257
30
0
41
1
10
49.3358959742103
20
27.4877449931568
30
0
41
1
10
49.2106209550179
20
27.4295249478232
30
0
0
SPLINE
5
3AA
100
AcDbEntity
8
1
62
256
6
ByLayer
370
18
48
1
60
0
100
AcDbSpline
70
4
71
3
72
16
73
12
40
0
40
0
40
0
40
0
40
0.0031457634946667
40
0.0031457634946667
40
0.252359322621
40
0.252359322621
40
0.501572881747333
40
0.501572881747333
40
0.750786440873667
40
0.750786440873667
40
1
40
1
40
1
40
1
41
1
10
49.6670006145293
20
27.5639706786222
30
0
41
1
10
49.6668602269163
20
27.5640959381305
30
0
41
1
10
49.6667198274278
20
27.5642210009523
30
0
41
1
10
49.6554557906978
20
27.5742379741964
30
0
41
1
10
49.6444188465318
20
27.5827714928914
30
0
41
1
10
49.6225336864421
20
27.5971412416075
30
0
41
1
10
49.6115860429413
20
27.6030020720028
30
0
41
1
10
49.5908470469336
20
27.611232351553
30
0
41
1
10
49.5809491341764
20
27.6136962720738
30
0
41
1
10
49.5625246089026
20
27.6145535323168
30
0
41
1
10
49.5543266891062
20
27.6129485124428
30
0
41
1
10
49.5474815441978
20
27.6087755816214
30
0
0
SPLINE
5
3AB
100
AcDbEntity
8
1
62
256
6
ByLayer
370
18
48
1
60
0
100
AcDbSpline
70
4
71
3
72
8
73
4
40
0
40
0
40
0
40
0
40
1
40
1
40
1
40
1
41
1
10
50.1955195415
20
26.4096299740272
30
0
41
1
10
50.184434475949
20
26.4275043298891
30
0
41
1
10
50.1730953645552
20
26.445292384508
30
0
41
1
10
50.1615021756452
20
26.4629941271242
30
0
0
SPLINE
5
3AC
100
AcDbEntity
8
1
62
256
6
ByLayer
370
18
48
1
60
0
100
AcDbSpline
70
4
71
3
72
8
73
4
40
0
40
0
40
0
40
0
40
1
40
1
40
1
40
1
41
1
10
50.2945448913587
20
26.4133068023644
30
0
41
1
10
50.2631925868874
20
26.4181279284093
30
0
41
1
10
50.2299721266775
20
26.4165228536588
30
0
41
1
10
50.1955195415
20
26.4096299740272
30
0
0
SPLINE
5
3AD
100
AcDbEntity
8
1
62
256
6
ByLayer
370
18
48
1
60
0
100
AcDbSpline
70
4
71
3
72
8
73
4
40
0
40
0
40
0
40
0
40
1
40
1
40
1
40
1
41
1
10
50.3729883098787
20
26.5388999078901
30
0
41
1
10
50.3497595826244
20
26.4969153459691
30
0
41
1
10
50.3237088869453
20
26.4550469789247
30
0
41
1
10
50.2945448913587
20
26.4133068023644
30
0
0
SPLINE
5
3AE
100
AcDbEntity
8
1
62
256
6
ByLayer
370
18
48
1
60
0
100
AcDbSpline
70
4
71
3
72
20
73
16
40
0
40
0
40
0
40
0
40
0.153572863129396
40
0.153572863129396
40
0.307145726258792
40
0.307145726258792
40
0.460718589388187
40
0.460718589388187
40
0.614291452517583
40
0.614291452517583
40
0.767864315646979
40
0.767864315646979
40
0.921437178776374
40
0.921437178776374
40
1
40
1
40
1
40
1
41
1
10
50.4480681490038
20
26.3288842850926
30
0
41
1
10
50.4463278979694
20
26.343550560636
30
0
41
1
10
50.4442395373835
20
26.3583762048928
30
0
41
1
10
50.4393332394507
20
26.3883212640713
30
0
41
1
10
50.436518115874
20
26.4033461555892
30
0
41
1
10
50.4304108387893
20
26.4319692213135
30
0
41
1
10
50.4270363210268
20
26.4459371776899
30
0
41
1
10
50.4200279146383
20
26.4714806810065
30
0
41
1
10
50.4163317207874
20
26.4833139910287
30
0
41
1
10
50.4087888733293
20
26.5042927246619
30
0
41
1
10
50.4050118602732
20
26.5132790355578
30
0
41
1
10
50.3974663998994
20
26.5282512961741
30
0
41
1
10
50.3937654865854
20
26.5340684863689
30
0
41
1
10
50.388511605363
20
26.5400542996914
30
0
41
1
10
50.3867733395331
20
26.5416074086
30
0
41
1
10
50.3851091151069
20
26.5426630336579
30
0
0
SPLINE
5
3AF
100
AcDbEntity
8
1
62
256
6
ByLayer
370
18
48
1
60
0
100
AcDbSpline
70
4
71
3
72
12
73
8
40
0
40
0
40
0
40
0
40
0.249999999999996
40
0.249999999999996
40
0.499999999999992
40
0.499999999999992
40
1
40
1
40
1
40
1
41
1
10
50.5375
20
25.8662393566649
30
0
41
1
10
50.5375
20
25.9185178544988
30
0
41
1
10
50.5354912905943
20
25.9668912210779
30
0
41
1
10
50.5276000178943
20
26.0561067962425
30
0
41
1
10
50.5216513378093
20
26.0971068608857
30
0
41
1
10
50.4989733724519
20
26.2060243591361
30
0
41
1
10
50.477448285805
20
26.2614437532585
30
0
41
1
10
50.4510265495617
20
26.3037225438181
30
0
0
SPLINE
5
3B0
100
AcDbEntity
8
1
62
256
6
ByLayer
370
18
48
1
60
0
100
AcDbSpline
70
4
71
3
72
23
73
19
40
0
40
0
40
0
40
0
40
0.0690640422825333
40
0.0690640422825333
40
0.155285768106412
40
0.155285768106412
40
0.32772921975417
40
0.32772921975417
40
0.500172671401928
40
0.500172671401928
40
0.672616123049686
40
0.672616123049686
40
0.758837848873566
40
0.758837848873566
40
0.845059574697445
40
0.931281300521324
40
0.931281300521324
40
1
40
1
40
1
40
1
41
1
10
45.4976146658498
20
1.65933802126176
30
0
41
1
10
45.5195844694583
20
1.67329787319568
30
0
41
1
10
45.542146857709
20
1.68642950337068
30
0
41
1
10
45.5942345905296
20
1.71406100243462
30
0
41
1
10
45.6242036383034
20
1.72811648557297
30
0
41
1
10
45.7150328930284
20
1.7654014863553
30
0
41
1
10
45.7773633773585
20
1.78413944383965
30
0
41
1
10
45.9055538768107
20
1.80950018361455
30
0
41
1
10
45.9718564945172
20
1.81599673260007
30
0
41
1
10
46.1024109610827
20
1.81604404550291
30
0
41
1
10
46.1673135398784
20
1.80980490719975
30
0
41
1
10
46.2640928057921
20
1.79083192243166
30
0
41
1
10
46.2962323199681
20
1.78287442683722
30
0
41
1
10
46.3588959585769
20
1.76407600726361
30
0
41
1
10
46.420311915104
20
1.7423324038225
30
0
41
1
10
46.4792734579161
20
1.71478586945591
30
0
41
1
10
46.5311342527843
20
1.687391268841
30
0
41
1
10
46.5538331757336
20
1.67424304858906
30
0
41
1
10
46.5759472527414
20
1.66024810609594
30
0
0
SPLINE
5
3B1
100
AcDbEntity
8
1
62
256
6
ByLayer
370
18
48
1
60
0
100
AcDbSpline
70
4
71
3
72
18
73
14
40
0
40
0
40
0
40
0
40
0.0625000000000065
40
0.0625000000000065
40
0.125000000000013
40
0.125000000000013
40
0.25000000000002
40
0.25000000000002
40
0.500000000000014
40
0.500000000000014
40
0.750000000000007
40
0.750000000000007
40
1
40
1
40
1
40
1
41
1
10
47.6601683431713
20
-8.39691817254658
30
0
41
1
10
47.6388794519863
20
-8.38852745594727
30
0
41
1
10
47.6170130080111
20
-8.38228121356508
30
0
41
1
10
47.5726471502064
20
-8.37188385319439
30
0
41
1
10
47.5501325353178
20
-8.36779606576295
30
0
41
1
10
47.4818883379859
20
-8.35761600080713
30
0
41
1
10
47.4353057326561
20
-8.35356906698212
30
0
41
1
10
47.295496749293
20
-8.345547740087
30
0
41
1
10
47.2017432435024
20
-8.345524042813
30
0
41
1
10
47.0133691629708
20
-8.34758125841302
30
0
41
1
10
46.9187433421871
20
-8.34986724367718
30
0
41
1
10
46.7287062760944
20
-8.35331527028075
30
0
41
1
10
46.6332948490312
20
-8.35448818806128
30
0
41
1
10
46.5375000000001
20
-8.35448818806128
30
0
0
SPLINE
5
3B2
100
AcDbEntity
8
1
62
256
6
ByLayer
370
18
48
1
60
0
100
AcDbSpline
70
4
71
3
72
8
73
4
40
0
40
0
40
0
40
0
40
1
40
1
40
1
40
1
41
1
10
47.8627907378868
20
-8.4848836920134
30
0
41
1
10
47.7973113084373
20
-8.4537638157567
30
0
41
1
10
47.7298424387956
20
-8.42437923595384
30
0
41
1
10
47.6601683431713
20
-8.39691817254658
30
0
0
SPLINE
5
3B3
100
AcDbEntity
8
1
62
256
6
ByLayer
370
18
48
1
60
0
100
AcDbSpline
70
4
71
3
72
22
73
18
40
0
40
0
40
0
40
0
40
0.125
40
0.125
40
0.25
40
0.25
40
0.375
40
0.375
40
0.5
40
0.5
40
0.625
40
0.625
40
0.75
40
0.75
40
0.875
40
0.875
40
1
40
1
40
1
40
1
41
1
10
41.7020116901213
20
-7.71950221138098
30
0
41
1
10
41.6999080949047
20
-7.70486908039271
30
0
41
1
10
41.6973627011883
20
-7.69117319647353
30
0
41
1
10
41.6915027229252
20
-7.66553919167291
30
0
41
1
10
41.6881914380932
20
-7.6537044922153
30
0
41
1
10
41.6812309183662
20
-7.63312098009982
30
0
41
1
10
41.6774892320635
20
-7.62410883176835
30
0
41
1
10
41.6699834156383
20
-7.60968975380257
30
0
41
1
10
41.6661616107265
20
-7.60413067269991
30
0
41
1
10
41.6586059814397
20
-7.59669027688801
30
0
41
1
10
41.6549593988041
20
-7.59486306711648
30
0
41
1
10
41.6479168273294
20
-7.59500639544285
30
0
41
1
10
41.6445664769431
20
-7.59703380667503
30
0
41
1
10
41.6384642623399
20
-7.60482243753069
30
0
41
1
10
41.6356341685657
20
-7.61072114258866
30
0
41
1
10
41.6307578829695
20
-7.62577500477039
30
0
41
1
10
41.6286732891891
20
-7.63491521634984
30
0
41
1
10
41.6269318509962
20
-7.64577816038331
30
0
0
SPLINE
5
3B4
100
AcDbEntity
8
1
62
256
6
ByLayer
370
18
48
1
60
0
100
AcDbSpline
70
4
71
3
72
8
73
4
40
0
40
0
40
0
40
0
40
1
40
1
40
1
40
1
41
1
10
41.7804551086413
20
-8.20286885103997
30
0
41
1
10
41.7512911130558
20
-8.0422246118714
30
0
41
1
10
41.7252404173764
20
-7.88108700959958
30
0
41
1
10
41.7020116901213
20
-7.71950221138098
30
0
0
SPLINE
5
3B5
100
AcDbEntity
8
1
62
256
6
ByLayer
370
18
48
1
60
0
100
AcDbSpline
70
4
71
3
72
8
73
4
40
0
40
0
40
0
40
0
40
1
40
1
40
1
40
1
41
1
10
41.7804551086413
20
-8.20286885103997
30
0
41
1
10
41.8118760035931
20
-8.30496261193832
30
0
41
1
10
41.8449843920894
20
-8.41018812835756
30
0
41
1
10
41.8794804585029
20
-8.51798898380076
30
0
0
SPLINE
5
3B6
100
AcDbEntity
8
1
62
256
6
ByLayer
370
18
48
1
60
0
100
AcDbSpline
70
4
71
3
72
8
73
4
40
0
40
0
40
0
40
0
40
1
40
1
40
1
40
1
41
1
10
41.9828383050293
20
-8.57206014301204
30
0
41
1
10
41.9462287561038
20
-8.55429363984024
30
0
41
1
10
41.9117764017318
20
-8.53626988896036
30
0
41
1
10
41.8794804585055
20
-8.51798898379468
30
0
0
SPLINE
5
3B7
100
AcDbEntity
8
1
62
256
6
ByLayer
370
18
48
1
60
0
100
AcDbSpline
70
4
71
3
72
14
73
10
40
0
40
0
40
0
40
0
40
0.25
40
0.25
40
0.5
40
0.5
40
0.75
40
0.75
40
1
40
1
40
1
40
1
41
1
10
42.8643790449814
20
-8.78494907139492
30
0
41
1
10
42.873140589804
20
-8.80062017647271
30
0
41
1
10
42.8835802856715
20
-8.81404052603125
30
0
41
1
10
42.906796690741
20
-8.8378445114235
30
0
41
1
10
42.9193603015682
20
-8.84791409460547
30
0
41
1
10
42.9453130911616
20
-8.8648546980362
30
0
41
1
10
42.9589175675638
20
-8.87185063698905
30
0
41
1
10
42.986587261937
20
-8.88301534125304
30
0
41
1
10
43.0006183017373
20
-8.88719166637566
30
0
41
1
10
43.0148384262101
20
-8.89008546105345
30
0
0
SPLINE
5
3B8
100
AcDbEntity
8
1
62
256
6
ByLayer
370
18
48
1
60
0
100
AcDbSpline
70
4
71
3
72
8
73
4
40
0
40
0
40
0
40
0
40
1
40
1
40
1
40
1
41
1
10
43.1475820107976
20
-8.91595832645214
30
0
41
1
10
43.1026354295374
20
-8.90757199972035
30
0
41
1
10
43.0583875714112
20
-8.89894771009131
30
0
41
1
10
43.0148384262118
20
-8.89008546104122
30
0
0
SPLINE
5
3B9
100
AcDbEntity
8
1
62
256
6
ByLayer
370
18
48
1
60
0
100
AcDbSpline
70
4
71
3
72
8
73
4
40
0
40
0
40
0
40
0
40
1
40
1
40
1
40
1
41
1
10
44.4148316568218
20
-8.39691817254925
30
0
41
1
10
44.3449009534424
20
-8.42448037428898
30
0
41
1
10
44.2771917446073
20
-8.45398028915281
30
0
41
1
10
44.2114858526375
20
-8.48522761023537
30
0
0
SPLINE
5
3BA
100
AcDbEntity
8
1
62
256
6
ByLayer
370
18
48
1
60
0
100
AcDbSpline
70
4
71
3
72
8
73
4
40
0
40
0
40
0
40
0
40
1
40
1
40
1
40
1
41
1
10
42.2934566986489
20
-8.02134816646497
30
0
41
1
10
42.2766499517662
20
-8.05268199406953
30
0
41
1
10
42.2602151209678
20
-8.08410466706493
30
0
41
1
10
42.2441407385332
20
-8.11561344597806
30
0
0
SPLINE
5
3BB
100
AcDbEntity
8
1
62
256
6
ByLayer
370
18
48
1
60
0
100
AcDbSpline
70
4
71
3
72
18
73
14
40
0
40
0
40
0
40
0
40
0.250000000000004
40
0.250000000000004
40
0.500000000000009
40
0.500000000000009
40
0.750000000000013
40
0.750000000000013
40
0.875000000000006
40
0.875000000000006
40
0.937500000000003
40
0.937500000000003
40
1
40
1
40
1
40
1
41
1
10
45.5375
20
-8.354488188061
30
0
41
1
10
45.4418782317482
20
-8.354488188061
30
0
41
1
10
45.3464031562057
20
-8.35331791131688
30
0
41
1
10
45.1557429785114
20
-8.34985726660437
30
0
41
1
10
45.060710950076
20
-8.34756213813728
30
0
41
1
10
44.8723063939815
20
-8.34552282870163
30
0
41
1
10
44.7787970456397
20
-8.34558585598433
30
0
41
1
10
44.6399603307759
20
-8.35355500389971
30
0
41
1
10
44.5939192530604
20
-8.35752207516282
30
0
41
1
10
44.5253566291457
20
-8.36771008249428
30
0
41
1
10
44.5025689659995
20
-8.37183663667525
30
0
41
1
10
44.4579567001178
20
-8.38228489548845
30
0
41
1
10
44.436042330219
20
-8.38855828438864
30
0
41
1
10
44.4148316568207
20
-8.39691817254976
30
0
0
SPLINE
5
3BC
100
AcDbEntity
8
1
62
256
6
ByLayer
370
18
48
1
60
0
100
AcDbSpline
70
4
71
3
72
14
73
10
40
0
40
0
40
0
40
0
40
0.25
40
0.25
40
0.5
40
0.5
40
0.75
40
0.75
40
1
40
1
40
1
40
1
41
1
10
47.4375
20
4.46910984124816
30
0
41
1
10
47.4532305386526
20
4.46910984124816
30
0
41
1
10
47.4684208208636
20
4.46587181748544
30
0
41
1
10
47.4943075492544
20
4.45517905178343
30
0
41
1
10
47.5049228318493
20
4.4479162750024
30
0
41
1
10
47.5216281168675
20
4.43158024538849
30
0
41
1
10
47.5275376939977
20
4.42278306299005
30
0
41
1
10
47.5355522024769
20
4.40422683412419
30
0
41
1
10
47.5375000000039
20
4.39473396921289
30
0
41
1
10
47.537500000004
20
4.38515186118696
30
0
0
SPLINE
5
3BD
100
AcDbEntity
8
1
62
256
6
ByLayer
370
18
48
1
60
0
100
AcDbSpline
70
4
71
3
72
22
73
18
40
0
40
0
40
0
40
0
40
0.125
40
0.125
40
0.25
40
0.25
40
0.375
40
0.375
40
0.5
40
0.5
40
0.625
40
0.625
40
0.75
40
0.75
40
0.875
40
0.875
40
1
40
1
40
1
40
1
41
1
10
42.5275184558022
20
-8.09507221746281
30
0
41
1
10
42.5206657315653
20
-8.07899419361502
30
0
41
1
10
42.5124923321966
20
-8.06463507870092
30
0
41
1
10
42.4942172324416
20
-8.03851977302031
30
0
41
1
10
42.4841750368536
20
-8.02694798023191
30
0
41
1
10
42.4634788759022
20
-8.00716249462573
30
0
41
1
10
42.4525914216156
20
-7.9987218110756
30
0
41
1
10
42.4305800171736
20
-7.98507917488678
30
0
41
1
10
42.4195240198862
20
-7.97988335173818
30
0
41
1
10
42.3973295486928
20
-7.97267278944139
30
0
41
1
10
42.3862190283266
20
-7.97071087876861
30
0
41
1
10
42.3648364891823
20
-7.97032629099067
30
0
41
1
10
42.3544452169161
20
-7.97184935257434
30
0
41
1
10
42.3343131864659
20
-7.97892227148378
30
0
41
1
10
42.3249037283637
20
-7.98436811695512
30
0
41
1
10
42.3077030664091
20
-7.99953879248659
30
0
41
1
10
42.2998957015437
20
-8.00934354660058
30
0
41
1
10
42.2934566986349
20
-8.02134816643979
30
0
0
SPLINE
5
3BE
100
AcDbEntity
8
1
62
256
6
ByLayer
370
18
48
1
60
0
100
AcDbSpline
70
4
71
3
72
12
73
8
40
0
40
0
40
0
40
0
40
0.499999999999991
40
0.499999999999991
40
0.749999999999995
40
0.749999999999995
40
1
40
1
40
1
40
1
41
1
10
49.0601615737882
20
-8.89008546104122
30
0
41
1
10
49.0886109375426
20
-8.88429601682242
30
0
41
1
10
49.1160319383305
20
-8.8736844725961
30
0
41
1
10
49.155342263466
20
-8.84814897041161
30
0
41
1
10
49.1679557683614
20
-8.83805453838977
30
0
41
1
10
49.1911337372278
20
-8.81437652247541
30
0
41
1
10
49.2018615666625
20
-8.80061631940333
30
0
41
1
10
49.2106209550316
20
-8.78494907141135
30
0
0
SPLINE
5
3BF
100
AcDbEntity
8
1
62
256
6
ByLayer
370
18
48
1
60
0
100
AcDbSpline
70
4
71
3
72
8
73
4
40
0
40
0
40
0
40
0
40
1
40
1
40
1
40
1
41
1
10
42.8643790449815
20
-8.78494907139526
30
0
41
1
10
42.739104025853
20
-8.56087922662448
30
0
41
1
10
42.627842678732
20
-8.33045528454898
30
0
41
1
10
42.5275184558022
20
-8.09507221746281
30
0
0
SPLINE
5
3C0
100
AcDbEntity
8
1
62
256
6
ByLayer
370
18
48
1
60
0
100
AcDbSpline
70
4
71
3
72
8
73
4
40
0
40
0
40
0
40
0
40
1
40
1
40
1
40
1
41
1
10
49.5474815441979
20
-8.09507221746276
30
0
41
1
10
49.4471573212679
20
-8.33045528454926
30
0
41
1
10
49.3358959741467
20
-8.5608792266251
30
0
41
1
10
49.2106209550179
20
-8.78494907139617
30
0
0
SPLINE
5
3C1
100
AcDbEntity
8
1
62
256
6
ByLayer
370
18
48
1
60
0
100
AcDbSpline
70
4
71
3
72
22
73
18
40
0
40
0
40
0
40
0
40
0.125
40
0.125
40
0.25
40
0.25
40
0.375
40
0.375
40
0.5
40
0.5
40
0.625
40
0.625
40
0.75
40
0.75
40
0.875
40
0.875
40
1
40
1
40
1
40
1
41
1
10
49.7815433013511
20
-8.02134816646515
30
0
41
1
10
49.7751073725432
20
-8.00934927785511
30
0
41
1
10
49.7675026541603
20
-7.99976790273212
30
0
41
1
10
49.7503099316389
20
-7.98451004041465
30
0
41
1
10
49.7407970538415
20
-7.97898969762986
30
0
41
1
10
49.7208433984898
20
-7.9719226227154
30
0
41
1
10
49.7102390462945
20
-7.97032766489701
30
0
41
1
10
49.6887554234947
20
-7.97070861213797
30
0
41
1
10
49.6777018559796
20
-7.97266314792023
30
0
41
1
10
49.655456011181
20
-7.97988927829323
30
0
41
1
10
49.6444191670215
20
-7.98508596864303
30
0
41
1
10
49.6225330624716
20
-7.99863840333217
30
0
41
1
10
49.6115853058703
20
-8.00710660544928
30
0
41
1
10
49.5908470790767
20
-8.02692139169972
30
0
41
1
10
49.5809472559705
20
-8.03830323218142
30
0
41
1
10
49.5625243917974
20
-8.06459284645217
30
0
41
1
10
49.5543267537503
20
-8.07901182474563
30
0
41
1
10
49.5474815441978
20
-8.09507221746276
30
0
0
SPLINE
5
3C2
100
AcDbEntity
8
1
62
256
6
ByLayer
370
18
48
1
60
0
100
AcDbSpline
70
4
71
3
72
8
73
4
40
0
40
0
40
0
40
0
40
1
40
1
40
1
40
1
41
1
10
49.8308592614669
20
-8.11561344597811
30
0
41
1
10
49.8147848790323
20
-8.08410466706493
30
0
41
1
10
49.7983500482339
20
-8.05268199406959
30
0
41
1
10
49.7815433013511
20
-8.02134816646509
30
0
0
SPLINE
5
3C3
100
AcDbEntity
8
1
62
256
6
ByLayer
370
18
48
1
60
0
100
AcDbSpline
70
4
71
3
72
8
73
4
40
0
40
0
40
0
40
0
40
1
40
1
40
1
40
1
41
1
10
50.1955195415
20
-8.5179889837915
30
0
41
1
10
50.1632235982722
20
-8.53626988895832
30
0
41
1
10
50.1287712438983
20
-8.55429363983922
30
0
41
1
10
50.0921616949707
20
-8.57206014301204
30
0
0
SPLINE
5
3C4
100
AcDbEntity
8
1
62
256
6
ByLayer
370
18
48
1
60
0
100
AcDbSpline
70
4
71
3
72
8
73
4
40
0
40
0
40
0
40
0
40
1
40
1
40
1
40
1
41
1
10
50.1955195415
20
-8.5179889837915
30
0
41
1
10
50.2299469850863
20
-8.41040257597217
30
0
41
1
10
50.2630570164327
20
-8.30518024537901
30
0
41
1
10
50.2945448913587
20
-8.20286885103997
30
0
0
SPLINE
5
3C5
100
AcDbEntity
8
1
62
256
6
ByLayer
370
18
48
1
60
0
100
AcDbSpline
70
4
71
3
72
8
73
4
40
0
40
0
40
0
40
0
40
1
40
1
40
1
40
1
41
1
10
50.3729883098787
20
-7.71950221138098
30
0
41
1
10
50.3497595826236
20
-7.88108700959958
30
0
41
1
10
50.3237088869443
20
-8.0422246118714
30
0
41
1
10
50.2945448913587
20
-8.20286885103997
30
0
0
SPLINE
5
3C6
100
AcDbEntity
8
1
62
256
6
ByLayer
370
18
48
1
60
0
100
AcDbSpline
70
4
71
3
72
22
73
18
40
0
40
0
40
0
40
0
40
0.125
40
0.125
40
0.25
40
0.25
40
0.375
40
0.375
40
0.5
40
0.5
40
0.625
40
0.625
40
0.75
40
0.75
40
0.875
40
0.875
40
1
40
1
40
1
40
1
41
1
10
50.4480681490038
20
-7.64577816038331
30
0
41
1
10
50.4463280360714
20
-7.63492348321262
30
0
41
1
10
50.4442397578387
20
-7.62575455439361
30
0
41
1
10
50.4393332608033
20
-7.61063385320165
30
0
41
1
10
50.4365183544872
20
-7.6047906176446
30
0
41
1
10
50.4304110344005
20
-7.59701479880482
30
0
41
1
10
50.4270364731801
20
-7.59499473666801
30
0
41
1
10
50.4200282359848
20
-7.59487361446844
30
0
41
1
10
50.4163316194927
20
-7.59673421912561
30
0
41
1
10
50.4087892187844
20
-7.60419685932851
30
0
41
1
10
50.4050122056635
20
-7.60969041145484
30
0
41
1
10
50.3974662977196
20
-7.6242020658724
30
0
41
1
10
50.3937658251487
20
-7.63313104847174
30
0
41
1
10
50.3868140997487
20
-7.65368767760373
30
0
41
1
10
50.3834905074449
20
-7.66557319142976
30
0
41
1
10
50.3776589078934
20
-7.69107429387503
30
0
41
1
10
50.3750908353854
20
-7.70487652156061
30
0
41
1
10
50.3729883098787
20
-7.71950221138098
30
0
0
SPLINE
5
3C7
100
AcDbEntity
8
1
62
256
6
ByLayer
370
18
48
1
60
0
100
AcDbSpline
70
4
71
3
72
8
73
4
40
0
40
0
40
0
40
0
40
1
40
1
40
1
40
1
41
1
10
50.4510265495617
20
-7.66440212894486
30
0
41
1
10
50.4500493828433
20
-7.65819358352775
30
0
41
1
10
50.4490632623499
20
-7.6519855931997
30
0
41
1
10
50.4480681490038
20
-7.64577816038331
30
0
0
SPLINE
5
3C8
100
AcDbEntity
8
1
62
256
6
ByLayer
370
18
48
1
60
0
100
AcDbSpline
70
4
71
3
72
16
73
12
40
0
40
0
40
0
40
0
40
0.25
40
0.25
40
0.500000000000001
40
0.500000000000001
40
0.750000000000001
40
0.750000000000001
40
0.875
40
0.875
40
1
40
1
40
1
40
1
41
1
10
50.4510265495617
20
-7.66440212894486
30
0
41
1
10
50.4640592092247
20
-7.61543882284633
30
0
41
1
10
50.4759878440915
20
-7.56881448828517
30
0
41
1
10
50.4972264719109
20
-7.48111363740503
30
0
41
1
10
50.5065686480925
20
-7.43984077907811
30
0
41
1
10
50.5216744628488
20
-7.36608365657662
30
0
41
1
10
50.5275087420703
20
-7.33333949226193
30
0
41
1
10
50.533444520794
20
-7.29099665619367
30
0
41
1
10
50.5349531735561
20
-7.27801288330414
30
0
41
1
10
50.5369819202904
20
-7.25442345196223
30
0
41
1
10
50.5375
20
-7.24378120960506
30
0
41
1
10
50.5375
20
-7.23452330337938
30
0
0
SPLINE
5
3C9
100
AcDbEntity
8
1
62
256
6
ByLayer
370
18
48
1
60
0
100
AcDbSpline
70
4
71
3
72
14
73
10
40
0
40
0
40
0
40
0
40
0.25000000000002
40
0.25000000000002
40
0.375000000000019
40
0.375000000000019
40
0.500000000000019
40
0.500000000000019
40
1
40
1
40
1
40
1
41
1
10
41.5375
20
-7.23452330337938
30
0
41
1
10
41.5375
20
-7.25300138487455
30
0
41
1
10
41.5395355405744
20
-7.27649697004574
30
0
41
1
10
41.5454436865275
20
-7.31877737066787
30
0
41
1
10
41.5478894325164
20
-7.33404505051203
30
0
41
1
10
41.5537068555209
20
-7.36686278294661
30
0
41
1
10
41.5570905275592
20
-7.38447053553676
30
0
41
1
10
41.5761244584896
20
-7.4773895659896
30
0
41
1
10
41.5977158505019
20
-7.56575312434046
30
0
41
1
10
41.6239734504384
20
-7.66440212894526
30
0
0
SPLINE
5
3CA
100
AcDbEntity
8
1
62
256
6
ByLayer
370
18
48
1
60
0
100
AcDbSpline
70
4
71
3
72
8
73
4
40
0
40
0
40
0
40
0
40
1
40
1
40
1
40
1
41
1
10
41.6269318509962
20
-7.64577816038331
30
0
41
1
10
41.6259367376506
20
-7.65198559319657
30
0
41
1
10
41.6249506171577
20
-7.65819358352149
30
0
41
1
10
41.6239734504397
20
-7.66440212893548
30
0
0
SPLINE
5
3CB
100
AcDbEntity
8
1
62
256
6
ByLayer
370
18
48
1
60
0
100
AcDbSpline
70
4
71
3
72
8
73
4
40
0
40
0
40
0
40
0
40
1
40
1
40
1
40
1
41
1
10
49.0601615737882
20
-8.89008546104122
30
0
41
1
10
49.0179941285846
20
-8.89866653420552
30
0
41
1
10
48.9751716037635
20
-8.90702450806748
30
0
41
1
10
48.9316939900586
20
-8.91515937947139
30
0
0
SPLINE
5
3CC
100
AcDbEntity
8
1
62
256
6
ByLayer
370
18
48
1
60
0
100
AcDbSpline
70
4
71
3
72
66
73
62
40
0
40
0
40
0
40
0
40
0.0624999999999947
40
0.0624999999999947
40
0.124999999999989
40
0.124999999999989
40
0.187499999999984
40
0.187499999999984
40
0.249999999999979
40
0.249999999999979
40
0.312499999999974
40
0.312499999999974
40
0.343749999999971
40
0.343749999999971
40
0.374999999999969
40
0.374999999999969
40
0.406249999999967
40
0.406249999999967
40
0.437499999999965
40
0.437499999999965
40
0.453124999999963
40
0.453124999999963
40
0.468749999999961
40
0.468749999999961
40
0.484374999999959
40
0.484374999999959
40
0.49218749999996
40
0.49218749999996
40
0.49999999999996
40
0.49999999999996
40
0.507812499999961
40
0.507812499999961
40
0.515624999999961
40
0.515624999999961
40
0.523437499999962
40
0.523437499999962
40
0.531249999999962
40
0.531249999999962
40
0.546874999999963
40
0.546874999999963
40
0.562499999999965
40
0.562499999999965
40
0.578124999999966
40
0.578124999999966
40
0.593749999999967
40
0.593749999999967
40
0.624999999999971
40
0.624999999999971
40
0.68749999999998
40
0.68749999999998
40
0.718749999999983
40
0.718749999999983
40
0.749999999999986
40
0.749999999999986
40
0.81249999999999
40
0.81249999999999
40
0.874999999999993
40
0.874999999999993
40
0.937499999999997
40
0.937499999999997
40
1
40
1
40
1
40
1
41
1
10
44.5375
20
2.68741096992551
30
0
41
1
10
44.5375
20
2.60764562249676
30
0
41
1
10
44.5459934067315
20
2.53164802082261
30
0
41
1
10
44.5768574709275
20
2.38670269020275
30
0
41
1
10
44.5992494670858
20
2.31775780250621
30
0
41
1
10
44.6563577199006
20
2.18661033275197
30
0
41
1
10
44.6910751641769
20
2.12440895904564
30
0
41
1
10
44.7724317411699
20
2.00655174233293
30
0
41
1
10
44.8190488754884
20
1.95089610273402
30
0
41
1
10
44.9252301724349
20
1.84602458620105
30
0
41
1
10
44.9843327348754
20
1.79721427499777
30
0
41
1
10
45.0840871408409
20
1.72939000317029
30
0
41
1
10
45.1192155951949
20
1.70767638844592
30
0
41
1
10
45.1941022026708
20
1.66604541858044
30
0
41
1
10
45.2337268274967
20
1.64620002271391
30
0
41
1
10
45.3184181792092
20
1.60862548518588
30
0
41
1
10
45.3634807487093
20
1.59087205366774
30
0
41
1
10
45.4617174058243
20
1.55760370465009
30
0
41
1
10
45.5147289706826
20
1.54207275777185
30
0
41
1
10
45.6051177169927
20
1.52084644629053
30
0
41
1
10
45.6372036814764
20
1.51411084100823
30
0
41
1
10
45.7052370723768
20
1.50182072936707
30
0
41
1
10
45.7414424584459
20
1.49620485033114
30
0
41
1
10
45.8195996508269
20
1.48654133197181
30
0
41
1
10
45.8607622840211
20
1.48258302444071
30
0
41
1
10
45.9271146346985
20
1.47842688332878
30
0
41
1
10
45.9500021655052
20
1.47735207302588
30
0
41
1
10
45.995854270762
20
1.47595926126206
30
0
41
1
10
46.0190116533121
20
1.47562732879277
30
0
41
1
10
46.0658192127411
20
1.47573540044454
30
0
41
1
10
46.0893048927194
20
1.47618326366279
30
0
41
1
10
46.1349671462691
20
1.47778731393828
30
0
41
1
10
46.1573665542309
20
1.47894285736436
30
0
41
1
10
46.2013945892439
20
1.48189860991926
30
0
41
1
10
46.222790059466
20
1.48368618671282
30
0
41
1
10
46.2638443572327
20
1.48771678941495
30
0
41
1
10
46.2836361340863
20
1.48996905526593
30
0
41
1
10
46.3412204321845
20
1.4973319623042
30
0
41
1
10
46.3773920726568
20
1.50308133854367
30
0
41
1
10
46.4446082446559
20
1.51548725908424
30
0
41
1
10
46.4759464584239
20
1.52218000419873
30
0
41
1
10
46.5354999434157
20
1.53636537308677
30
0
41
1
10
46.5636993480064
20
1.54386035947653
30
0
41
1
10
46.6177440380273
20
1.5595629673694
30
0
41
1
10
46.6435180855376
20
1.56775586830366
30
0
41
1
10
46.717293158365
20
1.59303622061526
30
0
41
1
10
46.7621414343194
20
1.61091652331521
30
0
41
1
10
46.8881914621468
20
1.66740203482254
30
0
41
1
10
46.961053656181
20
1.70884088119487
30
0
41
1
10
47.0600666240626
20
1.77654057446449
30
0
41
1
10
47.091271167214
20
1.80003678585518
30
0
41
1
10
47.1505036649836
20
1.84891591207639
30
0
41
1
10
47.1784982011554
20
1.87428365795449
30
0
41
1
10
47.2574900388145
20
1.95265925956784
30
0
41
1
10
47.3037804270668
20
2.0081234401265
30
0
41
1
10
47.3846170478907
20
2.12560043073762
30
0
41
1
10
47.4191427007247
20
2.18761297871526
30
0
41
1
10
47.4759676275688
20
2.31840477034507
30
0
41
1
10
47.4982687157263
20
2.38718268084051
30
0
41
1
10
47.5290238800526
20
2.53184234335322
30
0
41
1
10
47.5375000000001
20
2.60772097493776
30
0
41
1
10
47.5375000000001
20
2.68741096992551
30
0
0
SPLINE
5
3CD
100
AcDbEntity
8
1
62
256
6
ByLayer
370
18
48
1
60
0
100
AcDbSpline
70
4
71
3
72
14
73
10
40
0
40
0
40
0
40
0
40
0.25
40
0.25
40
0.5
40
0.5
40
0.75
40
0.75
40
1
40
1
40
1
40
1
41
1
10
44.5375
20
4.38515186118639
30
0
41
1
10
44.5375
20
4.39473352065335
30
0
41
1
10
44.5394324127701
20
4.40416709419583
30
0
41
1
10
44.5474210638247
20
4.42271152274185
30
0
41
1
10
44.5533801494749
20
4.43157881541987
30
0
41
1
10
44.5699930035833
20
4.44784344105841
30
0
41
1
10
44.5806442077924
20
4.4551540553577
30
0
41
1
10
44.6065601955791
20
4.46586903221384
30
0
41
1
10
44.6217725004732
20
4.46910984124816
30
0
41
1
10
44.6375
20
4.46910984124816
30
0
0
SPLINE
5
3CE
100
AcDbEntity
8
1
62
256
6
ByLayer
370
18
48
1
60
0
100
AcDbSpline
70
4
71
3
72
35
73
31
40
0
40
0
40
0
40
0
40
0.125000000000005
40
0.125000000000005
40
0.187500000000006
40
0.187500000000006
40
0.218750000000009
40
0.218750000000009
40
0.250000000000011
40
0.250000000000011
40
0.375000000000021
40
0.375000000000021
40
0.406250000000022
40
0.406250000000022
40
0.437500000000023
40
0.437500000000023
40
0.500000000000023
40
0.500000000000023
40
0.62500000000002
40
0.62500000000002
40
0.65625000000002
40
0.65625000000002
40
0.687500000000019
40
0.687500000000019
40
0.750000000000016
40
0.812500000000012
40
0.812500000000012
40
0.875000000000008
40
0.875000000000008
40
1
40
1
40
1
40
1
41
1
10
41.5375
20
2.44656137764366
30
0
41
1
10
41.5375
20
2.33967825845576
30
0
41
1
10
41.5589657354466
20
2.24046429839274
30
0
41
1
10
41.6262492003945
20
2.10273325430774
30
0
41
1
10
41.6545529189264
20
2.05867280620555
30
0
41
1
10
41.7065076543847
20
1.99531786169433
30
0
41
1
10
41.7253556134882
20
1.97473569817635
30
0
41
1
10
41.7658566665656
20
1.93488715498035
30
0
41
1
10
41.7875457578785
20
1.91557580806392
30
0
41
1
10
41.9031858735473
20
1.82195544400753
30
0
41
1
10
42.0185518897187
20
1.75642714161404
30
0
41
1
10
42.1929754101358
20
1.68449138395164
30
0
41
1
10
42.2293819230925
20
1.67060463300817
30
0
41
1
10
42.3053280685643
20
1.64379470426439
30
0
41
1
10
42.3449998697629
20
1.63083320324137
30
0
41
1
10
42.4677579141733
20
1.5936723990809
30
0
41
1
10
42.5544501589163
20
1.57119984411133
30
0
41
1
10
42.828787333927
20
1.50970454588685
30
0
41
1
10
43.0305573668628
20
1.47655803745329
30
0
41
1
10
43.3073221206069
20
1.44252473167984
30
0
41
1
10
43.3640423675065
20
1.43608059770247
30
0
41
1
10
43.4786923369446
20
1.42402571885168
30
0
41
1
10
43.5367500080091
20
1.41839701146819
30
0
41
1
10
43.7130828022772
20
1.40259372417648
30
0
41
1
10
43.9539420722642
20
1.38439987679942
30
0
41
1
10
44.2061583186058
20
1.37101443990889
30
0
41
1
10
44.464159313913
20
1.35970923808753
30
0
41
1
10
44.5966098740001
20
1.35508902987607
30
0
41
1
10
44.9952495907248
20
1.3442445487857
30
0
41
1
10
45.2645690262664
20
1.34083435393768
30
0
41
1
10
45.5374999999998
20
1.34083435393768
30
0
0
SPLINE
5
3CF
100
AcDbEntity
8
1
62
256
6
ByLayer
370
18
48
1
60
0
100
AcDbSpline
70
4
71
3
72
38
73
34
40
0
40
0
40
0
40
0
40
0.125
40
0.125
40
0.1875
40
0.1875
40
0.218749999999999
40
0.218749999999999
40
0.249999999999997
40
0.249999999999997
40
0.374999999999999
40
0.374999999999999
40
0.406249999999997
40
0.406249999999997
40
0.437499999999995
40
0.437499999999995
40
0.499999999999992
40
0.499999999999992
40
0.562499999999989
40
0.562499999999989
40
0.593749999999988
40
0.593749999999988
40
0.624999999999988
40
0.624999999999988
40
0.749999999999991
40
0.749999999999991
40
0.812499999999993
40
0.812499999999993
40
0.843749999999994
40
0.843749999999994
40
0.874999999999995
40
0.874999999999995
40
1
40
1
40
1
40
1
41
1
10
46.5375
20
1.34083435393785
30
0
41
1
10
46.8102523464622
20
1.34083435393785
30
0
41
1
10
47.0782547580114
20
1.34424239723734
30
0
41
1
10
47.4734090318868
20
1.35493467387045
30
0
41
1
10
47.603976200622
20
1.35944876825516
30
0
41
1
10
47.79805085245
20
1.36789381437302
30
0
41
1
10
47.8626130916891
20
1.37099920404631
30
0
41
1
10
47.9898019500664
20
1.37775582872132
30
0
41
1
10
48.0525351366786
20
1.38141006161987
30
0
41
1
10
48.3619720471157
20
1.40115691609651
30
0
41
1
10
48.5961145159977
20
1.42158727707851
30
0
41
1
10
48.8719612686668
20
1.45531121629728
30
0
41
1
10
48.9262812236133
20
1.46247113424306
30
0
41
1
10
49.033188467117
20
1.47770676934067
30
0
41
1
10
49.0855069873771
20
1.48574667381865
30
0
41
1
10
49.2382339250807
20
1.51107623002832
30
0
41
1
10
49.3348048574989
20
1.52962695640826
30
0
41
1
10
49.5177530813247
20
1.57051123559523
30
0
41
1
10
49.6041293359377
20
1.59284420957374
30
0
41
1
10
49.7260653292775
20
1.62958880484825
30
0
41
1
10
49.76543721418
20
1.64237861969156
30
0
41
1
10
49.8416126121598
20
1.66911993191638
30
0
41
1
10
49.8785143686864
20
1.68311401488341
30
0
41
1
10
50.0549945302112
20
1.75556119328627
30
0
41
1
10
50.1709441864697
20
1.82139043237623
30
0
41
1
10
50.3099874401771
20
1.93374945256903
30
0
41
1
10
50.3504832825769
20
1.97347575908452
30
0
41
1
10
50.4025150482143
20
2.03674834280497
30
0
41
1
10
50.4183564744923
20
2.05840575047529
30
0
41
1
10
50.4469009863424
20
2.10255184674577
30
0
41
1
10
50.45964199816
20
2.12508531028584
30
0
41
1
10
50.515953037513
20
2.24007155712275
30
0
41
1
10
50.5375
20
2.3394735375224
30
0
41
1
10
50.5375
20
2.4465613776436
30
0
0
SPLINE
5
3D0
100
AcDbEntity
8
1
62
256
6
ByLayer
370
18
48
1
60
0
100
AcDbSpline
70
4
71
3
72
68
73
64
40
0
40
0
40
0
40
0
40
0.0640467465753575
40
0.0640467465753575
40
0.0801794221489624
40
0.0801794221489624
40
0.0963120977225673
40
0.0963120977225673
40
0.128577448869777
40
0.160842800016986
40
0.160842800016986
40
0.176975475590591
40
0.176975475590591
40
0.193108151164196
40
0.193108151164196
40
0.257638853458613
40
0.257638853458613
40
0.289904204605822
40
0.289904204605822
40
0.306036880179426
40
0.306036880179426
40
0.32216955575303
40
0.32216955575303
40
0.386700258047447
40
0.386700258047447
40
0.402832933621053
40
0.402832933621053
40
0.418965609194658
40
0.418965609194658
40
0.45123096034187
40
0.45123096034187
40
0.515761662636293
40
0.515761662636293
40
0.580292364930716
40
0.580292364930716
40
0.612557716077927
40
0.612557716077927
40
0.628690391651534
40
0.628690391651534
40
0.644823067225141
40
0.644823067225141
40
0.709353769519575
40
0.709353769519575
40
0.725486445093184
40
0.725486445093184
40
0.741619120666793
40
0.741619120666793
40
0.773884471814011
40
0.773884471814011
40
0.838415174108447
40
0.838415174108447
40
0.854547849682057
40
0.854547849682057
40
0.870680525255667
40
0.870680525255667
40
0.902945876402888
40
0.935211227550109
40
0.935211227550109
40
0.951343903123719
40
0.951343903123719
40
0.967476578697329
40
0.967476578697329
40
1
40
1
40
1
40
1
41
1
10
49.0353038449413
20
-20.0869331647182
30
0
41
1
10
49.0247486699492
20
-20.2357187039632
30
0
41
1
10
48.9956400064667
20
-20.3845968813569
30
0
41
1
10
48.9354821021154
20
-20.5709375632183
30
0
41
1
10
48.9221359736774
20
-20.6084865985231
30
0
41
1
10
48.8932931541586
20
-20.6827754166297
30
0
41
1
10
48.877770865357
20
-20.7196070325911
30
0
41
1
10
48.827960669024
20
-20.8291684822736
30
0
41
1
10
48.7529134620506
20
-20.9727658137509
30
0
41
1
10
48.6608377479761
20
-21.1113132441149
30
0
41
1
10
48.5852958518465
20
-21.2132324815314
30
0
41
1
10
48.5590324110404
20
-21.2468729668138
30
0
41
1
10
48.5042984633657
20
-21.3134633416583
30
0
41
1
10
48.4758262921291
20
-21.3464030537353
30
0
41
1
10
48.3294944125425
20
-21.5075479982723
30
0
41
1
10
48.198669501926
20
-21.6266656118027
30
0
41
1
10
47.9820968563384
20
-21.7902346033489
30
0
41
1
10
47.9064922606623
20
-21.8422219025218
30
0
41
1
10
47.7877711472177
20
-21.9161743198461
30
0
41
1
10
47.747344927067
20
-21.9401221784824
30
0
41
1
10
47.6656146930305
20
-21.9861247507072
30
0
41
1
10
47.6242025897913
20
-22.0082483644184
30
0
41
1
10
47.4144423094744
20
-22.1145048853452
30
0
41
1
10
47.2380725870889
20
-22.1856729735493
30
0
41
1
10
47.0066828938765
20
-22.2565611744327
30
0
41
1
10
46.9598536692983
20
-22.2698276132886
30
0
41
1
10
46.8650664270308
20
-22.2944865557952
30
0
41
1
10
46.8171991898383
20
-22.3058485377656
30
0
41
1
10
46.673531536171
20
-22.3367290027006
30
0
41
1
10
46.5771606139503
20
-22.3531844242813
30
0
41
1
10
46.2863069796321
20
-22.3903511382501
30
0
41
1
10
46.0901001941251
20
-22.3989709790061
30
0
41
1
10
45.6928732970945
20
-22.3823743587532
30
0
41
1
10
45.4982785605649
20
-22.3573901384458
30
0
41
1
10
45.2131267115272
20
-22.2963184752052
30
0
41
1
10
45.1191502113967
20
-22.2719992926296
30
0
41
1
10
44.9798258317431
20
-22.2295141290655
30
0
41
1
10
44.9335436414183
20
-22.2143083576696
30
0
41
1
10
44.8421129784355
20
-22.1820665803969
30
0
41
1
10
44.7970596974592
20
-22.1650707229959
30
0
41
1
10
44.5750286417215
20
-22.0758404713772
30
0
41
1
10
44.4076639220467
20
-21.9909691275702
30
0
41
1
10
44.2110564053622
20
-21.8687797326529
30
0
41
1
10
44.1723705852475
20
-21.8435297017983
30
0
41
1
10
44.0962880951483
20
-21.7913955483926
30
0
41
1
10
44.0588190801289
20
-21.7644515623128
30
0
41
1
10
43.9494921373409
20
-21.6820003773525
30
0
41
1
10
43.8803821065766
20
-21.6246767456975
30
0
41
1
10
43.6840213756527
20
-21.4460183107736
30
0
41
1
10
43.5676329716938
20
-21.3180611286916
30
0
41
1
10
43.4407648874635
20
-21.1472795271141
30
0
41
1
10
43.4163270357453
20
-21.1125572202684
30
0
41
1
10
43.3698642599926
20
-21.042784724356
30
0
41
1
10
43.3477675758272
20
-21.0076417977172
30
0
41
1
10
43.2848265538153
20
-20.9014720351424
30
0
41
1
10
43.209820069608
20
-20.7579409939182
30
0
41
1
10
43.152457960041
20
-20.6106606372341
30
0
41
1
10
43.1161784471626
20
-20.4988131497101
30
0
41
1
10
43.1052109817175
20
-20.4612989005535
30
0
41
1
10
43.0855742648968
20
-20.385803158127
30
0
41
1
10
43.07691469223
20
-20.347823962241
30
0
41
1
10
43.0545617595611
20
-20.2338629719295
30
0
41
1
10
43.044526756229
20
-20.1580408402013
30
0
41
1
10
43.039357608404
20
-20.082574097574
30
0
0
SPLINE
5
3D1
100
AcDbEntity
8
1
62
256
6
ByLayer
370
18
48
1
60
0
100
AcDbSpline
70
4
71
3
72
27
73
23
40
0
40
0
40
0
40
0
40
0.125000000000001
40
0.125000000000001
40
0.250000000000001
40
0.250000000000001
40
0.375000000000002
40
0.375000000000002
40
0.437500000000005
40
0.437500000000005
40
0.500000000000007
40
0.56250000000001
40
0.56250000000001
40
0.625000000000012
40
0.625000000000012
40
0.749999999999994
40
0.749999999999994
40
0.812499999999996
40
0.812499999999996
40
0.874999999999997
40
0.874999999999997
40
1
40
1
40
1
40
1
41
1
10
44.8279518763725
20
36.5402227936864
30
0
41
1
10
44.849159982428
20
36.5138749909238
30
0
41
1
10
44.8683108559937
20
36.4859184730815
30
0
41
1
10
44.9023939187022
20
36.4265492310682
30
0
41
1
10
44.917412846157
20
36.3949301355028
30
0
41
1
10
44.9422610422509
20
36.3284560569658
30
0
41
1
10
44.9518764178824
20
36.2942669657656
30
0
41
1
10
44.9617401006197
20
36.2413973732577
30
0
41
1
10
44.9642614775117
20
36.2234175229494
30
0
41
1
10
44.9675814038051
20
36.187854579921
30
0
41
1
10
44.9692312143984
20
36.1524910951669
30
0
41
1
10
44.9675815875133
20
36.1175259130012
30
0
41
1
10
44.9642592605184
20
36.0827604985419
30
0
41
1
10
44.9617354642418
20
36.0653942524701
30
0
41
1
10
44.9518845478205
20
36.0149883235147
30
0
41
1
10
44.9422945192811
20
35.9831987090022
30
0
41
1
10
44.9237489214386
20
35.9378594730048
30
0
41
1
10
44.9168364454025
20
35.9230964120051
30
0
41
1
10
44.9019426193075
20
35.8948947217231
30
0
41
1
10
44.8939361114543
20
35.8813809136341
30
0
41
1
10
44.8683315631127
20
35.8424377301631
30
0
41
1
10
44.8491609642861
20
35.8185915775906
30
0
41
1
10
44.8279518763725
20
35.7966575113418
30
0
0
SPLINE
5
3D2
100
AcDbEntity
8
1
62
256
6
ByLayer
370
18
48
1
60
0
100
AcDbSpline
70
4
71
3
72
8
73
4
40
0
40
0
40
0
40
0
40
1
40
1
40
1
40
1
41
1
10
50.5399999999997
20
-14.918950279935
30
0
41
1
10
50.5399999999997
20
-14.9883630998509
30
0
41
1
10
50.5198027814986
20
-15.0565624077267
30
0
41
1
10
50.48006242655
20
-15.1235607626822
30
0
0
SPLINE
5
3D3
100
AcDbEntity
8
1
62
256
6
ByLayer
370
18
48
1
60
0
100
AcDbSpline
70
4
71
3
72
14
73
10
40
0
40
0
40
0
40
0
40
0.329649618493655
40
0.329649618493655
40
0.65929923698731
40
0.65929923698731
40
0.988948855480965
40
0.988948855480965
40
1
40
1
40
1
40
1
41
1
10
50.526583920149
20
-8.29661400545001
30
0
41
1
10
50.5271633648652
20
-8.30729445954216
30
0
41
1
10
50.5278419352333
20
-8.31637223434041
30
0
41
1
10
50.5293363741347
20
-8.33142397627722
30
0
41
1
10
50.5301509512361
20
-8.33730720147076
30
0
41
1
10
50.531772486878
20
-8.34520501119641
30
0
41
1
10
50.5326014729285
20
-8.34731786484213
30
0
41
1
10
50.533402691785
20
-8.34745689646883
30
0
41
1
10
50.5334286343649
20
-8.34745923526356
30
0
41
1
10
50.5334545296432
20
-8.34745940345539
30
0
0
SPLINE
5
3D4
100
AcDbEntity
8
1
62
256
6
ByLayer
370
18
48
1
60
0
100
AcDbSpline
70
4
71
3
72
16
73
12
40
0
40
0
40
0
40
0
40
0.0314090538709103
40
0.0314090538709103
40
0.273556790403183
40
0.273556790403183
40
0.515704526935455
40
0.515704526935455
40
0.757852263467728
40
0.757852263467728
40
1
40
1
40
1
40
1
41
1
10
50.5352875110808
20
-8.34341976288874
30
0
41
1
10
50.5353758294395
20
-8.34300188913483
30
0
41
1
10
50.5354630150932
20
-8.34255163353214
30
0
41
1
10
50.5362119190429
20
-8.33834826134995
30
0
41
1
10
50.5367892409626
20
-8.3328290774113
30
0
41
1
10
50.5377879895327
20
-8.31820277127656
30
0
41
1
10
50.5381982622299
20
-8.30919258844756
30
0
41
1
10
50.5388543181133
20
-8.28848591737631
30
0
41
1
10
50.5391055774043
20
-8.2765612064959
30
0
41
1
10
50.539476761566
20
-8.25110733272152
30
0
41
1
10
50.5396026353396
20
-8.23733024230586
30
0
41
1
10
50.5396905146304
20
-8.22288995445234
30
0
0
SPLINE
5
3D5
100
AcDbEntity
8
1
62
256
6
ByLayer
370
18
48
1
60
0
100
AcDbSpline
70
4
71
3
72
12
73
8
40
0
40
0
40
0
40
0
40
0.256502010758549
40
0.256502010758549
40
0.628251005379275
40
0.628251005379275
40
1
40
1
40
1
40
1
41
1
10
50.4710197606724
20
-7.74171088499952
30
0
41
1
10
50.472527387936
20
-7.74250981356118
30
0
41
1
10
50.4739661107863
20
-7.74411932853826
30
0
41
1
10
50.4772386955933
20
-7.74996485617226
30
0
41
1
10
50.4790160014625
20
-7.75516837802303
30
0
41
1
10
50.4820612053595
20
-7.76844589988463
30
0
41
1
10
50.4833458188988
20
-7.77648212428477
30
0
41
1
10
50.4844031176804
20
-7.78598778531472
30
0
0
SPLINE
5
3D6
100
AcDbEntity
8
1
62
256
6
ByLayer
370
18
48
1
60
0
100
AcDbSpline
70
4
71
3
72
14
73
10
40
0
40
0
40
0
40
0
40
0.25
40
0.25
40
0.5
40
0.5
40
0.75
40
0.75
40
1
40
1
40
1
40
1
41
1
10
50.4121798537381
20
-7.80344671695548
30
0
41
1
10
50.4089791156702
20
-7.80673699782517
30
0
41
1
10
50.4057874722427
20
-7.81159693225828
30
0
41
1
10
50.3994325051183
20
-7.8243562937684
30
0
41
1
10
50.3962715589379
20
-7.83231123235419
30
0
41
1
10
50.390368318106
20
-7.8504844792862
30
0
41
1
10
50.3875405234119
20
-7.86097129712482
30
0
41
1
10
50.3825253177418
20
-7.88357821140602
30
0
41
1
10
50.3803262373818
20
-7.89566307678871
30
0
41
1
10
50.3784800008186
20
-7.90858310660047
30
0
0
SPLINE
5
3D7
100
AcDbEntity
8
1
62
256
6
ByLayer
370
18
48
1
60
0
100
AcDbSpline
70
4
71
3
72
22
73
18
40
0
40
0
40
0
40
0
40
0.125
40
0.125
40
0.25
40
0.25
40
0.375
40
0.375
40
0.5
40
0.5
40
0.625
40
0.625
40
0.75
40
0.75
40
0.875
40
0.875
40
1
40
1
40
1
40
1
41
1
10
50.2636107400404
20
-8.598459960534
30
0
41
1
10
50.2607450217033
20
-8.61348270152132
30
0
41
1
10
50.257278085765
20
-8.62745727692862
30
0
41
1
10
50.2491702913997
20
-8.65346324815386
30
0
41
1
10
50.2445428192636
20
-8.66535202181842
30
0
41
1
10
50.234591228832
20
-8.68589824175331
30
0
41
1
10
50.2291463300575
20
-8.69478915121607
30
0
41
1
10
50.2179382330332
20
-8.70890639769868
30
0
41
1
10
50.2120668763285
20
-8.71430202146905
30
0
41
1
10
50.20017641086
20
-8.72142635042167
30
0
41
1
10
50.1942438659684
20
-8.72314587954759
30
0
41
1
10
50.1824176126151
20
-8.72290096943743
30
0
41
1
10
50.1765958170649
20
-8.72088853483706
30
0
41
1
10
50.1656443043137
20
-8.71321197465937
30
0
41
1
10
50.1603726028206
20
-8.7074178008217
30
0
41
1
10
50.151000129723
20
-8.69239139110215
30
0
41
1
10
50.1468659103477
20
-8.68321668580103
30
0
41
1
10
50.1433842516403
20
-8.67218401153173
30
0
0
SPLINE
5
3D8
100
AcDbEntity
8
1
62
256
6
ByLayer
370
18
48
1
60
0
100
AcDbSpline
70
4
71
3
72
14
73
10
40
0
40
0
40
0
40
0
40
0.25
40
0.25
40
0.5
40
0.5
40
0.75
40
0.75
40
1
40
1
40
1
40
1
41
1
10
49.9626489284443
20
-8.16155779139638
30
0
41
1
10
49.9586586571886
20
-8.1514324523892
30
0
41
1
10
49.9538615834442
20
-8.14314294232753
30
0
41
1
10
49.9428129734707
20
-8.12974201817315
30
0
41
1
10
49.9365925588079
20
-8.12475001121834
30
0
41
1
10
49.9233932614251
20
-8.1182365079153
30
0
41
1
10
49.9162752316974
20
-8.11665840887287
30
0
41
1
10
49.9017948893514
20
-8.11673120865919
30
0
41
1
10
49.8943638188765
20
-8.11832574705534
30
0
41
1
10
49.8867358448293
20
-8.12147203498466
30
0
0
SPLINE
5
3D9
100
AcDbEntity
8
1
62
256
6
ByLayer
370
18
48
1
60
0
100
AcDbSpline
70
4
71
3
72
14
73
10
40
0
40
0
40
0
40
0
40
0.25
40
0.25
40
0.5
40
0.5
40
0.75
40
0.75
40
1
40
1
40
1
40
1
41
1
10
49.6438802940895
20
-8.28415311268213
30
0
41
1
10
49.649289644753
20
-8.27021106761185
30
0
41
1
10
49.6556759928988
20
-8.25761317347485
30
0
41
1
10
49.6699614625828
20
-8.23456760162128
30
0
41
1
10
49.6778337520796
20
-8.22424386894011
30
0
41
1
10
49.6941458345778
20
-8.206512388791
30
0
41
1
10
49.7027535766182
20
-8.19892886028936
30
0
41
1
10
49.7199915080411
20
-8.18681067933233
30
0
41
1
10
49.7286884164357
20
-8.18218280654798
30
0
41
1
10
49.7374602853525
20
-8.17901672303714
30
0
0
SPLINE
5
3DA
100
AcDbEntity
8
1
62
256
6
ByLayer
370
18
48
1
60
0
100
AcDbSpline
70
4
71
3
72
20
73
16
40
0
40
0
40
0
40
0
40
0.125
40
0.125
40
0.25
40
0.25
40
0.375
40
0.375
40
0.5
40
0.5
40
0.625
40
0.625
40
0.75
40
0.75
40
1
40
1
40
1
40
1
41
1
10
49.04767175082
20
-9.04775401761339
30
0
41
1
10
49.057272581364
20
-9.06006028855467
30
0
41
1
10
49.0683207682077
20
-9.06944698616923
30
0
41
1
10
49.0922579889101
20
-9.08430778482057
30
0
41
1
10
49.1053034190325
20
-9.08972904062193
30
0
41
1
10
49.1317569684149
20
-9.09678027008454
30
0
41
1
10
49.1452907293334
20
-9.09850429718119
30
0
41
1
10
49.1728730970044
20
-9.09868704942539
30
0
41
1
10
49.1868846674544
20
-9.09710597041868
30
0
41
1
10
49.2144391727977
20
-9.09078735312573
30
0
41
1
10
49.2281047437792
20
-9.08605811255069
30
0
41
1
10
49.2552092910014
20
-9.07312451401532
30
0
41
1
10
49.2684099646532
20
-9.0650159197213
30
0
41
1
10
49.3061878442006
20
-9.03553843892075
30
0
41
1
10
49.3296261811299
20
-9.00849749463379
30
0
41
1
10
49.3461398396491
20
-8.97402996661572
30
0
0
SPLINE
5
3DB
100
AcDbEntity
8
1
62
256
6
ByLayer
370
18
48
1
60
0
100
AcDbSpline
70
4
71
3
72
12
73
8
40
0
40
0
40
0
40
0
40
0.499999999999977
40
0.499999999999977
40
0.749999999999988
40
0.749999999999988
40
1
40
1
40
1
40
1
41
1
10
48.3941709308311
20
-8.49704204106632
30
0
41
1
10
48.4306060757498
20
-8.49144210448628
30
0
41
1
10
48.4660868849771
20
-8.49034658494503
30
0
41
1
10
48.5175646933441
20
-8.49826042219115
30
0
41
1
10
48.534507051063
20
-8.50260067290651
30
0
41
1
10
48.56606590601
20
-8.51576452912229
30
0
41
1
10
48.5810798801449
20
-8.52467228457272
30
0
41
1
10
48.5937482568266
20
-8.53712779746428
30
0
0
SPLINE
5
3DC
100
AcDbEntity
8
1
62
256
6
ByLayer
370
18
48
1
60
0
100
AcDbSpline
70
4
71
3
72
12
73
8
40
0
40
0
40
0
40
0
40
0.499999999999988
40
0.499999999999988
40
0.749999999999994
40
0.749999999999994
40
1
40
1
40
1
40
1
41
1
10
47.9704062914543
20
-8.55458672911885
30
0
41
1
10
47.9187757416293
20
-8.56072581458358
30
0
41
1
10
47.8676023343368
20
-8.57198222953252
30
0
41
1
10
47.7916091751425
20
-8.59666033537655
30
0
41
1
10
47.7664105799824
20
-8.60621445742845
30
0
41
1
10
47.716513547539
20
-8.62929258575167
30
0
41
1
10
47.6917195068628
20
-8.64268679170215
30
0
41
1
10
47.6689559941111
20
-8.65972311876379
30
0
0
SPLINE
5
3DD
100
AcDbEntity
8
1
62
256
6
ByLayer
370
18
48
1
60
0
100
AcDbSpline
70
4
71
3
72
12
73
8
40
0
40
0
40
0
40
0
40
0.250000000000015
40
0.250000000000015
40
0.50000000000003
40
0.50000000000003
40
1
40
1
40
1
40
1
41
1
10
44.4110440058882
20
-8.65972311876379
30
0
41
1
10
44.3883460468193
20
-8.64273585240699
30
0
41
1
10
44.3640979057983
20
-8.62961837756518
30
0
41
1
10
44.3144260802984
20
-8.60655967378312
30
0
41
1
10
44.2888553788179
20
-8.59682279226797
30
0
41
1
10
44.2123758368725
20
-8.57195215172942
30
0
41
1
10
44.1610995214838
20
-8.56071098285298
30
0
41
1
10
44.109593708545
20
-8.55458672911885
30
0
0
SPLINE
5
3DE
100
AcDbEntity
8
1
62
256
6
ByLayer
370
18
48
1
60
0
100
AcDbSpline
70
4
71
3
72
12
73
8
40
0
40
0
40
0
40
0
40
0.250000000000012
40
0.250000000000012
40
0.500000000000025
40
0.500000000000025
40
1
40
1
40
1
40
1
41
1
10
43.4862517431809
20
-8.53712779747809
30
0
41
1
10
43.4989387051448
20
-8.52465401158662
30
0
41
1
10
43.5135933417258
20
-8.51594364925899
30
0
41
1
10
43.5452039040805
20
-8.50268498322208
30
0
41
1
10
43.5620298159744
20
-8.49835571608202
30
0
41
1
10
43.6132800613094
20
-8.49037936555635
30
0
41
1
10
43.6494000062862
20
-8.49144303927113
30
0
41
1
10
43.6858290691682
20
-8.49704204106632
30
0
0
SPLINE
5
3DF
100
AcDbEntity
8
1
62
256
6
ByLayer
370
18
48
1
60
0
100
AcDbSpline
70
4
71
3
72
22
73
18
40
0
40
0
40
0
40
0
40
0.125
40
0.125
40
0.25
40
0.25
40
0.375
40
0.375
40
0.5
40
0.5
40
0.625
40
0.625
40
0.75
40
0.75
40
0.875
40
0.875
40
1
40
1
40
1
40
1
41
1
10
42.7338601603502
20
-8.97402996661572
30
0
41
1
10
42.7421345385426
20
-8.99130035899111
30
0
41
1
10
42.7520023125891
20
-9.00644813061137
30
0
41
1
10
42.77418042204
20
-9.03359782133469
30
0
41
1
10
42.7863093076028
20
-9.04527965320625
30
0
41
1
10
42.8115129103686
20
-9.0649657865419
30
0
41
1
10
42.8248600166668
20
-9.07315794276963
30
0
41
1
10
42.8518339667718
20
-9.08602850978087
30
0
41
1
10
42.8654767409727
20
-9.09076289047897
30
0
41
1
10
42.8930677670015
20
-9.09710021889009
30
0
41
1
10
42.9071366205981
20
-9.09868487368323
30
0
41
1
10
42.9346469385191
20
-9.09850681749685
30
0
41
1
10
42.9481640631722
20
-9.09679393259154
30
0
41
1
10
42.9746230772089
20
-9.0897559773324
30
0
41
1
10
42.987690245615
20
-9.08433414190313
30
0
41
1
10
43.0116528585661
20
-9.06946912063881
30
0
41
1
10
43.0227147400017
20
-9.06007653993004
30
0
41
1
10
43.0323282491793
20
-9.04775401761339
30
0
0
SPLINE
5
3E0
100
AcDbEntity
8
1
62
256
6
ByLayer
370
18
48
1
60
0
100
AcDbSpline
70
4
71
3
72
14
73
10
40
0
40
0
40
0
40
0
40
0.25
40
0.25
40
0.5
40
0.5
40
0.75
40
0.75
40
1
40
1
40
1
40
1
41
1
10
42.3425397146468
20
-8.17901672303714
30
0
41
1
10
42.351322692925
20
-8.18218681631674
30
0
41
1
10
42.3600134310827
20
-8.18681614227637
30
0
41
1
10
42.3772073615344
20
-8.19889941318644
30
0
41
1
10
42.3858231921535
20
-8.20648335486896
30
0
41
1
10
42.4021325660562
20
-8.2242026400948
30
0
41
1
10
42.409833792028
20
-8.23428133410812
30
0
41
1
10
42.4241334320425
20
-8.25726290512557
30
0
41
1
10
42.430701898016
20
-8.27018926997027
30
0
41
1
10
42.4361197059099
20
-8.28415311268213
30
0
0
SPLINE
5
3E1
100
AcDbEntity
8
1
62
256
6
ByLayer
370
18
48
1
60
0
100
AcDbSpline
70
4
71
3
72
14
73
10
40
0
40
0
40
0
40
0
40
0.25
40
0.25
40
0.5
40
0.5
40
0.75
40
0.75
40
1
40
1
40
1
40
1
41
1
10
42.19326415517
20
-8.12147203498466
30
0
41
1
10
42.1856247301438
20
-8.11832102390383
30
0
41
1
10
42.1782042810843
20
-8.11673532133
30
0
41
1
10
42.1637822667914
20
-8.11665459725015
30
0
41
1
10
42.1566846762086
20
-8.11820872193175
30
0
41
1
10
42.1434400816702
20
-8.12472331860221
30
0
41
1
10
42.137348219069
20
-8.12959402666348
30
0
41
1
10
42.1262857306502
20
-8.14291805295142
30
0
41
1
10
42.1213495719472
20
-8.1514115708892
30
0
41
1
10
42.117351071552
20
-8.16155779139069
30
0
0
SPLINE
5
3E2
100
AcDbEntity
8
1
62
256
6
ByLayer
370
18
48
1
60
0
100
AcDbSpline
70
4
71
3
72
22
73
18
40
0
40
0
40
0
40
0
40
0.125
40
0.125
40
0.25
40
0.25
40
0.375
40
0.375
40
0.5
40
0.5
40
0.625
40
0.625
40
0.75
40
0.75
40
0.875
40
0.875
40
1
40
1
40
1
40
1
41
1
10
41.936615748359
20
-8.67218401153173
30
0
41
1
10
41.9331350743386
20
-8.68321356552667
30
0
41
1
10
41.9289966459444
20
-8.69240286139643
30
0
41
1
10
41.9195965574546
20
-8.70746092081873
30
0
41
1
10
41.9143398297429
20
-8.71323112337473
30
0
41
1
10
41.9033556667276
20
-8.72091446816626
30
0
41
1
10
41.8974894399671
20
-8.72291697076264
30
0
41
1
10
41.8857143853948
20
-8.72313250568459
30
0
41
1
10
41.8797355573606
20
-8.72139565929314
30
0
41
1
10
41.8678090116042
20
-8.71420520804179
30
0
41
1
10
41.8620266110476
20
-8.70887162226177
30
0
41
1
10
41.8508081339437
20
-8.694722221907
30
0
41
1
10
41.845374942171
20
-8.68583312240435
30
0
41
1
10
41.8354601462409
20
-8.66535340515941
30
0
41
1
10
41.8308333552644
20
-8.65347376519799
30
0
41
1
10
41.8227231993957
20
-8.62746257813393
30
0
41
1
10
41.8192554749398
20
-8.6134853050396
30
0
41
1
10
41.8163892599589
20
-8.598459960534
30
0
0
SPLINE
5
3E3
100
AcDbEntity
8
1
62
256
6
ByLayer
370
18
48
1
60
0
100
AcDbSpline
70
4
71
3
72
14
73
10
40
0
40
0
40
0
40
0
40
0.25
40
0.25
40
0.5
40
0.5
40
0.75
40
0.75
40
1
40
1
40
1
40
1
41
1
10
41.7015199991807
20
-7.90858310660047
30
0
41
1
10
41.6996737306332
20
-7.89566285296121
30
0
41
1
10
41.6974728502105
20
-7.88356584290398
30
0
41
1
10
41.6924473386064
20
-7.860920704732
30
0
41
1
10
41.6896246048052
20
-7.85045827021605
30
0
41
1
10
41.6837130257073
20
-7.8322682148422
30
0
41
1
10
41.6805427629908
20
-7.8243017694889
30
0
41
1
10
41.6742076666069
20
-7.81159206308547
30
0
41
1
10
41.6710210759433
20
-7.80673719479984
30
0
41
1
10
41.6678201462612
20
-7.80344671695548
30
0
0
SPLINE
5
3E4
100
AcDbEntity
8
1
62
256
6
ByLayer
370
18
48
1
60
0
100
AcDbSpline
70
4
71
3
72
12
73
8
40
0
40
0
40
0
40
0
40
0.390193354320901
40
0.390193354320901
40
0.780386708641802
40
0.780386708641802
40
1
40
1
40
1
40
1
41
1
10
41.5955968823189
20
-7.78598778531472
30
0
41
1
10
41.5966542089695
20
-7.77648187372847
30
0
41
1
10
41.5979407388071
20
-7.7684284876438
30
0
41
1
10
41.6009985146111
20
-7.75511406951364
30
0
41
1
10
41.6027704785936
20
-7.74994063225404
30
0
41
1
10
41.6058005475526
20
-7.7445405734727
30
0
41
1
10
41.6069623736456
20
-7.7431145426479
30
0
41
1
10
41.6081718237078
20
-7.74222426083793
30
0
0
SPLINE
5
3E5
100
AcDbEntity
8
1
62
256
6
ByLayer
370
18
48
1
60
0
100
AcDbSpline
70
4
71
3
72
14
73
10
40
0
40
0
40
0
40
0
40
0.259019568278384
40
0.259019568278384
40
0.518039136556767
40
0.518039136556767
40
0.777058704835151
40
0.777058704835151
40
1
40
1
40
1
40
1
41
1
10
41.540309485369
20
-8.22288995445234
30
0
41
1
10
41.5403973626733
20
-8.23732991589736
30
0
41
1
10
41.5405211236859
20
-8.2509296343643
30
0
41
1
10
41.540893026725
20
-8.27649785823155
30
0
41
1
10
41.5411430782964
20
-8.28837573080568
30
0
41
1
10
41.5417972796921
20
-8.30907959163977
30
0
41
1
10
41.5422117939556
20
-8.31818468746235
30
0
41
1
10
41.5431343729377
20
-8.33172316184744
30
0
41
1
10
41.5436262978552
20
-8.33674709373906
30
0
41
1
10
41.5441775559447
20
-8.34039824483204
30
0
0
SPLINE
5
3E6
100
AcDbEntity
8
1
62
256
6
ByLayer
370
18
48
1
60
0
100
AcDbSpline
70
4
71
3
72
14
73
10
40
0
40
0
40
0
40
0
40
0.011389540289289
40
0.011389540289289
40
0.340926360192859
40
0.340926360192859
40
0.67046318009643
40
0.67046318009643
40
1
40
1
40
1
40
1
41
1
10
41.5465370051636
20
-8.34745951136318
30
0
41
1
10
41.5465638375706
20
-8.34745974439767
30
0
41
1
10
41.546590736045
20
-8.3474576820646
30
0
41
1
10
41.5473978641469
20
-8.34732724804508
30
0
41
1
10
41.5482177940464
20
-8.3452388509171
30
0
41
1
10
41.5498414249747
20
-8.3373576880341
30
0
41
1
10
41.5506591274115
20
-8.33145472734731
30
0
41
1
10
41.5521482704018
20
-8.31648529907466
30
0
41
1
10
41.5528366514656
20
-8.3072941585159
30
0
41
1
10
41.5534160798503
20
-8.29661400545001
30
0
0
SPLINE
5
3E7
100
AcDbEntity
8
1
62
256
6
ByLayer
370
18
48
1
60
0
100
AcDbSpline
70
4
71
3
72
12
73
8
40
0
40
0
40
0
40
0
40
0.250000000000001
40
0.250000000000001
40
0.500000000000001
40
0.500000000000001
40
1
40
1
40
1
40
1
41
1
10
41.5999375734503
20
-15.1235607626845
30
0
41
1
10
41.5899830300861
20
-15.1067783753455
30
0
41
1
10
41.5812246088142
20
-15.0898455703436
30
0
41
1
10
41.5662415328663
20
-15.0559282313979
30
0
41
1
10
41.5600004032263
20
-15.0389205859471
30
0
41
1
10
41.5450141844282
20
-14.9877523919699
30
0
41
1
10
41.5399999999996
20
-14.9534467291709
30
0
41
1
10
41.5399999999997
20
-14.9189502799356
30
0
0
LINE
5
7C
100
AcDbEntity
8
1
62
256
6
ByLayer
370
13
48
1
60
0
100
AcDbLine
10
50.54
20
4.405858
30
0
11
50.537469
21
4.405858
31
0
39
0
210
0
220
0
230
1
0
LINE
5
7D
100
AcDbEntity
8
1
62
256
6
ByLayer
370
13
48
1
60
0
100
AcDbLine
10
50.54
20
4.916484
30
0
11
50.537469
21
4.916484
31
0
39
0
210
0
220
0
230
1
0
LINE
5
7E
100
AcDbEntity
8
1
62
256
6
ByLayer
370
18
48
1
60
0
100
AcDbLine
10
50.54
20
-4.423317
30
0
11
50.54
21
-4.365772
31
0
39
0
210
0
220
0
230
1
0
LINE
5
7F
100
AcDbEntity
8
1
62
256
6
ByLayer
370
18
48
1
60
0
100
AcDbLine
10
50.54
20
-4.365772
30
0
11
50.54
21
-4.360994
31
0
39
0
210
0
220
0
230
1
0
LINE
5
80
100
AcDbEntity
8
1
62
256
6
ByLayer
370
18
48
1
60
0
100
AcDbLine
10
50.5125
20
13.54266
30
0
11
50.5125
21
13.712354
31
0
39
0
210
0
220
0
230
1
0
LINE
5
81
100
AcDbEntity
8
1
62
256
6
ByLayer
370
18
48
1
60
0
100
AcDbLine
10
41.5625
20
4.617451
30
0
11
41.5625
21
4.834462
31
0
39
0
210
0
220
0
230
1
0
LINE
5
82
100
AcDbEntity
8
1
62
256
6
ByLayer
370
13
48
1
60
0
100
AcDbLine
10
45.792391
20
37.366215
30
0
11
45.792391
21
37.220015
31
0
39
0
210
0
220
0
230
1
0
LINE
5
83
100
AcDbEntity
8
1
62
256
6
ByLayer
370
13
48
1
60
0
100
AcDbLine
10
46.287609
20
37.366215
30
0
11
46.287609
21
37.220015
31
0
39
0
210
0
220
0
230
1
0
LINE
5
84
100
AcDbEntity
8
1
62
256
6
ByLayer
370
13
48
1
60
0
100
AcDbLine
10
46.994242
20
36.945609
30
0
11
46.994242
21
36.799408
31
0
39
0
210
0
220
0
230
1
0
LINE
5
85
100
AcDbEntity
8
1
62
256
6
ByLayer
370
13
48
1
60
0
100
AcDbLine
10
45.085758
20
36.945609
30
0
11
45.085758
21
36.799408
31
0
39
0
210
0
220
0
230
1
0
LINE
5
86
100
AcDbEntity
8
1
62
256
6
ByLayer
370
13
48
1
60
0
100
AcDbLine
10
44.827952
20
35.796658
30
0
11
44.827952
21
35.647909
31
0
39
0
210
0
220
0
230
1
0
LINE
5
87
100
AcDbEntity
8
1
62
256
6
ByLayer
370
13
48
1
60
0
100
AcDbLine
10
47.252048
20
35.796658
30
0
11
47.252048
21
35.647909
31
0
39
0
210
0
220
0
230
1
0
LINE
5
88
100
AcDbEntity
8
1
62
256
6
ByLayer
370
18
48
1
60
0
100
AcDbLine
10
50.54
20
4.916484
30
0
11
50.54
21
4.405858
31
0
39
0
210
0
220
0
230
1
0
LINE
5
89
100
AcDbEntity
8
1
62
256
6
ByLayer
370
18
48
1
60
0
100
AcDbLine
10
50.54
20
4.405858
30
0
11
50.54
21
4.360994
31
0
39
0
210
0
220
0
230
1
0
LINE
5
8A
100
AcDbEntity
8
1
62
256
6
ByLayer
370
18
48
1
60
0
100
AcDbLine
10
50.54
20
-20.917091
30
0
11
50.54
21
-21.022227
31
0
39
0
210
0
220
0
230
1
0
LINE
5
8B
100
AcDbEntity
8
1
62
256
6
ByLayer
370
18
48
1
60
0
100
AcDbLine
10
50.54
20
-23.344992
30
0
11
50.54
21
-23.628732
31
0
39
0
210
0
220
0
230
1
0
LINE
5
8C
100
AcDbEntity
8
1
62
256
6
ByLayer
370
18
48
1
60
0
100
AcDbLine
10
50.54
20
-21.899546
30
0
11
50.54
21
-21.38892
31
0
39
0
210
0
220
0
230
1
0
LINE
5
8D
100
AcDbEntity
8
1
62
256
6
ByLayer
370
18
48
1
60
0
100
AcDbLine
10
50.54
20
-21.243698
30
0
11
50.54
21
-21.022227
31
0
39
0
210
0
220
0
230
1
0
LINE
5
8E
100
AcDbEntity
8
1
62
256
6
ByLayer
370
18
48
1
60
0
100
AcDbLine
10
50.54
20
-21.38892
30
0
11
50.54
21
-21.243698
31
0
39
0
210
0
220
0
230
1
0
LINE
5
8F
100
AcDbEntity
8
1
62
256
6
ByLayer
370
18
48
1
60
0
100
AcDbLine
10
50.54
20
-22.362536
30
0
11
50.54
21
-22.183286
31
0
39
0
210
0
220
0
230
1
0
LINE
5
90
100
AcDbEntity
8
1
62
256
6
ByLayer
370
13
48
1
60
0
100
AcDbLine
10
50.54
20
-20.73784
30
0
11
50.537469
21
-20.73784
31
0
39
0
210
0
220
0
230
1
0
LINE
5
91
100
AcDbEntity
8
1
62
256
6
ByLayer
370
18
48
1
60
0
100
AcDbLine
10
50.54
20
-22.467673
30
0
11
50.54
21
-22.362536
31
0
39
0
210
0
220
0
230
1
0
LINE
5
92
100
AcDbEntity
8
1
62
256
6
ByLayer
370
13
48
1
60
0
100
AcDbLine
10
50.54
20
-20.917091
30
0
11
50.537469
21
-20.917091
31
0
39
0
210
0
220
0
230
1
0
LINE
5
93
100
AcDbEntity
8
1
62
256
6
ByLayer
370
18
48
1
60
0
100
AcDbLine
10
50.54
20
-25.074177
30
0
11
50.54
21
-24.790438
31
0
39
0
210
0
220
0
230
1
0
LINE
5
94
100
AcDbEntity
8
1
62
256
6
ByLayer
370
18
48
1
60
0
100
AcDbLine
10
50.54
20
-22.834366
30
0
11
50.54
21
-23.344992
31
0
39
0
210
0
220
0
230
1
0
LINE
5
95
100
AcDbEntity
8
1
62
256
6
ByLayer
370
13
48
1
60
0
100
AcDbLine
10
50.54
20
-21.899546
30
0
11
50.537469
21
-21.899546
31
0
39
0
210
0
220
0
230
1
0
LINE
5
96
100
AcDbEntity
8
1
62
256
6
ByLayer
370
18
48
1
60
0
100
AcDbLine
10
50.54
20
-22.467673
30
0
11
50.54
21
-22.689143
31
0
39
0
210
0
220
0
230
1
0
LINE
5
97
100
AcDbEntity
8
1
62
256
6
ByLayer
370
13
48
1
60
0
100
AcDbLine
10
50.54
20
-21.022227
30
0
11
50.537469
21
-21.022227
31
0
39
0
210
0
220
0
230
1
0
LINE
5
98
100
AcDbEntity
8
1
62
256
6
ByLayer
370
18
48
1
60
0
100
AcDbLine
10
50.54
20
-22.689143
30
0
11
50.54
21
-22.834366
31
0
39
0
210
0
220
0
230
1
0
LINE
5
99
100
AcDbEntity
8
1
62
256
6
ByLayer
370
13
48
1
60
0
100
AcDbLine
10
50.54
20
-21.243698
30
0
11
50.537469
21
-21.243698
31
0
39
0
210
0
220
0
230
1
0
LINE
5
9A
100
AcDbEntity
8
1
62
256
6
ByLayer
370
13
48
1
60
0
100
AcDbLine
10
50.54
20
-21.38892
30
0
11
50.537469
21
-21.38892
31
0
39
0
210
0
220
0
230
1
0
LINE
5
9B
100
AcDbEntity
8
1
62
256
6
ByLayer
370
18
48
1
60
0
100
AcDbLine
10
50.54
20
-23.628732
30
0
11
50.54
21
-23.807982
31
0
39
0
210
0
220
0
230
1
0
LINE
5
9C
100
AcDbEntity
8
1
62
256
6
ByLayer
370
13
48
1
60
0
100
AcDbLine
10
50.54
20
-22.183286
30
0
11
50.537469
21
-22.183286
31
0
39
0
210
0
220
0
230
1
0
LINE
5
9D
100
AcDbEntity
8
1
62
256
6
ByLayer
370
18
48
1
60
0
100
AcDbLine
10
50.54
20
-23.807982
30
0
11
50.54
21
-23.913119
31
0
39
0
210
0
220
0
230
1
0
LINE
5
9E
100
AcDbEntity
8
1
62
256
6
ByLayer
370
13
48
1
60
0
100
AcDbLine
10
50.54
20
-22.362536
30
0
11
50.537469
21
-22.362536
31
0
39
0
210
0
220
0
230
1
0
LINE
5
9F
100
AcDbEntity
8
1
62
256
6
ByLayer
370
18
48
1
60
0
100
AcDbLine
10
50.54
20
-26.235883
30
0
11
50.54
21
-26.519623
31
0
39
0
210
0
220
0
230
1
0
LINE
5
A0
100
AcDbEntity
8
1
62
256
6
ByLayer
370
18
48
1
60
0
100
AcDbLine
10
50.54
20
-24.790438
30
0
11
50.54
21
-24.279811
31
0
39
0
210
0
220
0
230
1
0
LINE
5
A1
100
AcDbEntity
8
1
62
256
6
ByLayer
370
13
48
1
60
0
100
AcDbLine
10
50.54
20
-23.344992
30
0
11
50.537469
21
-23.344992
31
0
39
0
210
0
220
0
230
1
0
LINE
5
A2
100
AcDbEntity
8
1
62
256
6
ByLayer
370
18
48
1
60
0
100
AcDbLine
10
50.54
20
-24.134589
30
0
11
50.54
21
-23.913119
31
0
39
0
210
0
220
0
230
1
0
LINE
5
A3
100
AcDbEntity
8
1
62
256
6
ByLayer
370
13
48
1
60
0
100
AcDbLine
10
50.54
20
-22.467673
30
0
11
50.537469
21
-22.467673
31
0
39
0
210
0
220
0
230
1
0
LINE
5
A4
100
AcDbEntity
8
1
62
256
6
ByLayer
370
18
48
1
60
0
100
AcDbLine
10
50.54
20
-24.279811
30
0
11
50.54
21
-24.134589
31
0
39
0
210
0
220
0
230
1
0
LINE
5
A5
100
AcDbEntity
8
1
62
256
6
ByLayer
370
13
48
1
60
0
100
AcDbLine
10
50.54
20
-22.689143
30
0
11
50.537469
21
-22.689143
31
0
39
0
210
0
220
0
230
1
0
LINE
5
A6
100
AcDbEntity
8
1
62
256
6
ByLayer
370
13
48
1
60
0
100
AcDbLine
10
50.54
20
-22.834366
30
0
11
50.537469
21
-22.834366
31
0
39
0
210
0
220
0
230
1
0
LINE
5
A7
100
AcDbEntity
8
1
62
256
6
ByLayer
370
18
48
1
60
0
100
AcDbLine
10
50.54
20
-25.253428
30
0
11
50.54
21
-25.074177
31
0
39
0
210
0
220
0
230
1
0
LINE
5
A8
100
AcDbEntity
8
1
62
256
6
ByLayer
370
13
48
1
60
0
100
AcDbLine
10
50.54
20
-23.628732
30
0
11
50.537469
21
-23.628732
31
0
39
0
210
0
220
0
230
1
0
LINE
5
A9
100
AcDbEntity
8
1
62
256
6
ByLayer
370
18
48
1
60
0
100
AcDbLine
10
50.54
20
-25.358564
30
0
11
50.54
21
-25.253428
31
0
39
0
210
0
220
0
230
1
0
LINE
5
AA
100
AcDbEntity
8
1
62
256
6
ByLayer
370
13
48
1
60
0
100
AcDbLine
10
50.54
20
-23.807982
30
0
11
50.537469
21
-23.807982
31
0
39
0
210
0
220
0
230
1
0
LINE
5
AB
100
AcDbEntity
8
1
62
256
6
ByLayer
370
18
48
1
60
0
100
AcDbLine
10
50.54
20
-27.965069
30
0
11
50.54
21
-27.681329
31
0
39
0
210
0
220
0
230
1
0
LINE
5
AC
100
AcDbEntity
8
1
62
256
6
ByLayer
370
18
48
1
60
0
100
AcDbLine
10
50.54
20
-25.725257
30
0
11
50.54
21
-26.235883
31
0
39
0
210
0
220
0
230
1
0
LINE
5
AD
100
AcDbEntity
8
1
62
256
6
ByLayer
370
13
48
1
60
0
100
AcDbLine
10
50.54
20
-24.790438
30
0
11
50.537469
21
-24.790438
31
0
39
0
210
0
220
0
230
1
0
LINE
5
AE
100
AcDbEntity
8
1
62
256
6
ByLayer
370
18
48
1
60
0
100
AcDbLine
10
50.54
20
-25.580035
30
0
11
50.54
21
-25.358564
31
0
39
0
210
0
220
0
230
1
0
LINE
5
AF
100
AcDbEntity
8
1
62
256
6
ByLayer
370
13
48
1
60
0
100
AcDbLine
10
50.54
20
-23.913119
30
0
11
50.537469
21
-23.913119
31
0
39
0
210
0
220
0
230
1
0
LINE
5
B0
100
AcDbEntity
8
1
62
256
6
ByLayer
370
18
48
1
60
0
100
AcDbLine
10
50.54
20
-25.580035
30
0
11
50.54
21
-25.725257
31
0
39
0
210
0
220
0
230
1
0
LINE
5
B1
100
AcDbEntity
8
1
62
256
6
ByLayer
370
13
48
1
60
0
100
AcDbLine
10
50.54
20
-24.134589
30
0
11
50.537469
21
-24.134589
31
0
39
0
210
0
220
0
230
1
0
LINE
5
B2
100
AcDbEntity
8
1
62
256
6
ByLayer
370
13
48
1
60
0
100
AcDbLine
10
50.54
20
-24.279811
30
0
11
50.537469
21
-24.279811
31
0
39
0
210
0
220
0
230
1
0
LINE
5
B3
100
AcDbEntity
8
1
62
256
6
ByLayer
370
18
48
1
60
0
100
AcDbLine
10
50.54
20
-26.519623
30
0
11
50.54
21
-26.698874
31
0
39
0
210
0
220
0
230
1
0
LINE
5
B4
100
AcDbEntity
8
1
62
256
6
ByLayer
370
13
48
1
60
0
100
AcDbLine
10
50.54
20
-25.074177
30
0
11
50.537469
21
-25.074177
31
0
39
0
210
0
220
0
230
1
0
LINE
5
B5
100
AcDbEntity
8
1
62
256
6
ByLayer
370
18
48
1
60
0
100
AcDbLine
10
50.54
20
-26.698874
30
0
11
50.54
21
-26.80401
31
0
39
0
210
0
220
0
230
1
0
LINE
5
B6
100
AcDbEntity
8
1
62
256
6
ByLayer
370
13
48
1
60
0
100
AcDbLine
10
50.54
20
-25.253428
30
0
11
50.537469
21
-25.253428
31
0
39
0
210
0
220
0
230
1
0
LINE
5
B7
100
AcDbEntity
8
1
62
256
6
ByLayer
370
18
48
1
60
0
100
AcDbLine
10
50.54
20
-27.681329
30
0
11
50.54
21
-27.170703
31
0
39
0
210
0
220
0
230
1
0
LINE
5
B8
100
AcDbEntity
8
1
62
256
6
ByLayer
370
18
48
1
60
0
100
AcDbLine
10
50.54
20
-27.025481
30
0
11
50.54
21
-26.80401
31
0
39
0
210
0
220
0
230
1
0
LINE
5
B9
100
AcDbEntity
8
1
62
256
6
ByLayer
370
13
48
1
60
0
100
AcDbLine
10
50.54
20
-26.235883
30
0
11
50.537469
21
-26.235883
31
0
39
0
210
0
220
0
230
1
0
LINE
5
BA
100
AcDbEntity
8
1
62
256
6
ByLayer
370
13
48
1
60
0
100
AcDbLine
10
50.54
20
-25.358564
30
0
11
50.537469
21
-25.358564
31
0
39
0
210
0
220
0
230
1
0
LINE
5
BB
100
AcDbEntity
8
1
62
256
6
ByLayer
370
18
48
1
60
0
100
AcDbLine
10
50.54
20
-27.170703
30
0
11
50.54
21
-27.025481
31
0
39
0
210
0
220
0
230
1
0
LINE
5
BC
100
AcDbEntity
8
1
62
256
6
ByLayer
370
13
48
1
60
0
100
AcDbLine
10
50.54
20
-25.580035
30
0
11
50.537469
21
-25.580035
31
0
39
0
210
0
220
0
230
1
0
LINE
5
BD
100
AcDbEntity
8
1
62
256
6
ByLayer
370
13
48
1
60
0
100
AcDbLine
10
50.54
20
-25.725257
30
0
11
50.537469
21
-25.725257
31
0
39
0
210
0
220
0
230
1
0
LINE
5
BE
100
AcDbEntity
8
1
62
256
6
ByLayer
370
18
48
1
60
0
100
AcDbLine
10
50.54
20
-28.144319
30
0
11
50.54
21
-27.965069
31
0
39
0
210
0
220
0
230
1
0
LINE
5
BF
100
AcDbEntity
8
1
62
256
6
ByLayer
370
13
48
1
60
0
100
AcDbLine
10
50.54
20
-26.519623
30
0
11
50.537469
21
-26.519623
31
0
39
0
210
0
220
0
230
1
0
LINE
5
C0
100
AcDbEntity
8
1
62
256
6
ByLayer
370
18
48
1
60
0
100
AcDbLine
10
50.54
20
-28.249456
30
0
11
50.54
21
-28.144319
31
0
39
0
210
0
220
0
230
1
0
LINE
5
C1
100
AcDbEntity
8
1
62
256
6
ByLayer
370
13
48
1
60
0
100
AcDbLine
10
50.54
20
-26.698874
30
0
11
50.537469
21
-26.698874
31
0
39
0
210
0
220
0
230
1
0
LINE
5
C2
100
AcDbEntity
8
1
62
256
6
ByLayer
370
18
48
1
60
0
100
AcDbLine
10
50.54
20
-30.85596
30
0
11
50.54
21
-30.57222
31
0
39
0
210
0
220
0
230
1
0
LINE
5
C3
100
AcDbEntity
8
1
62
256
6
ByLayer
370
18
48
1
60
0
100
AcDbLine
10
50.54
20
-28.249456
30
0
11
50.54
21
-28.470926
31
0
39
0
210
0
220
0
230
1
0
LINE
5
C4
100
AcDbEntity
8
1
62
256
6
ByLayer
370
13
48
1
60
0
100
AcDbLine
10
50.54
20
-27.681329
30
0
11
50.537469
21
-27.681329
31
0
39
0
210
0
220
0
230
1
0
LINE
5
C5
100
AcDbEntity
8
1
62
256
6
ByLayer
370
18
48
1
60
0
100
AcDbLine
10
50.54
20
-28.470926
30
0
11
50.54
21
-28.616148
31
0
39
0
210
0
220
0
230
1
0
LINE
5
C6
100
AcDbEntity
8
1
62
256
6
ByLayer
370
13
48
1
60
0
100
AcDbLine
10
50.54
20
-26.80401
30
0
11
50.537469
21
-26.80401
31
0
39
0
210
0
220
0
230
1
0
LINE
5
C7
100
AcDbEntity
8
1
62
256
6
ByLayer
370
13
48
1
60
0
100
AcDbLine
10
50.54
20
-27.025481
30
0
11
50.537469
21
-27.025481
31
0
39
0
210
0
220
0
230
1
0
LINE
5
C8
100
AcDbEntity
8
1
62
256
6
ByLayer
370
13
48
1
60
0
100
AcDbLine
10
50.54
20
-27.170703
30
0
11
50.537469
21
-27.170703
31
0
39
0
210
0
220
0
230
1
0
LINE
5
C9
100
AcDbEntity
8
1
62
256
6
ByLayer
370
18
48
1
60
0
100
AcDbLine
10
50.54
20
-29.589765
30
0
11
50.54
21
-29.694901
31
0
39
0
210
0
220
0
230
1
0
LINE
5
CA
100
AcDbEntity
8
1
62
256
6
ByLayer
370
13
48
1
60
0
100
AcDbLine
10
50.54
20
-27.965069
30
0
11
50.537469
21
-27.965069
31
0
39
0
210
0
220
0
230
1
0
LINE
5
CB
100
AcDbEntity
8
1
62
256
6
ByLayer
370
18
48
1
60
0
100
AcDbLine
10
50.54
20
-32.017666
30
0
11
50.54
21
-32.301406
31
0
39
0
210
0
220
0
230
1
0
LINE
5
CC
100
AcDbEntity
8
1
62
256
6
ByLayer
370
13
48
1
60
0
100
AcDbLine
10
50.54
20
-28.144319
30
0
11
50.537469
21
-28.144319
31
0
39
0
210
0
220
0
230
1
0
LINE
5
CD
100
AcDbEntity
8
1
62
256
6
ByLayer
370
18
48
1
60
0
100
AcDbLine
10
50.54
20
-30.57222
30
0
11
50.54
21
-30.061594
31
0
39
0
210
0
220
0
230
1
0
LINE
5
CE
100
AcDbEntity
8
1
62
256
6
ByLayer
370
18
48
1
60
0
100
AcDbLine
10
50.54
20
-29.410514
30
0
11
50.54
21
-29.589765
31
0
39
0
210
0
220
0
230
1
0
LINE
5
CF
100
AcDbEntity
8
1
62
256
6
ByLayer
370
18
48
1
60
0
100
AcDbLine
10
50.54
20
-29.916372
30
0
11
50.54
21
-29.694901
31
0
39
0
210
0
220
0
230
1
0
LINE
5
D0
100
AcDbEntity
8
1
62
256
6
ByLayer
370
13
48
1
60
0
100
AcDbLine
10
50.54
20
-28.249456
30
0
11
50.537469
21
-28.249456
31
0
39
0
210
0
220
0
230
1
0
LINE
5
D1
100
AcDbEntity
8
1
62
256
6
ByLayer
370
18
48
1
60
0
100
AcDbLine
10
50.54
20
-30.061594
30
0
11
50.54
21
-29.916372
31
0
39
0
210
0
220
0
230
1
0
LINE
5
D2
100
AcDbEntity
8
1
62
256
6
ByLayer
370
13
48
1
60
0
100
AcDbLine
10
50.54
20
-28.470926
30
0
11
50.537469
21
-28.470926
31
0
39
0
210
0
220
0
230
1
0
LINE
5
D3
100
AcDbEntity
8
1
62
256
6
ByLayer
370
13
48
1
60
0
100
AcDbLine
10
50.54
20
-28.616148
30
0
11
50.537469
21
-28.616148
31
0
39
0
210
0
220
0
230
1
0
LINE
5
D4
100
AcDbEntity
8
1
62
256
6
ByLayer
370
18
48
1
60
0
100
AcDbLine
10
50.54
20
-31.035211
30
0
11
50.54
21
-30.85596
31
0
39
0
210
0
220
0
230
1
0
LINE
5
D5
100
AcDbEntity
8
1
62
256
6
ByLayer
370
13
48
1
60
0
100
AcDbLine
10
50.54
20
-29.410514
30
0
11
50.537469
21
-29.410514
31
0
39
0
210
0
220
0
230
1
0
LINE
5
D6
100
AcDbEntity
8
1
62
256
6
ByLayer
370
18
48
1
60
0
100
AcDbLine
10
50.54
20
-31.140347
30
0
11
50.54
21
-31.035211
31
0
39
0
210
0
220
0
230
1
0
LINE
5
D7
100
AcDbEntity
8
1
62
256
6
ByLayer
370
13
48
1
60
0
100
AcDbLine
10
50.54
20
-29.589765
30
0
11
50.537469
21
-29.589765
31
0
39
0
210
0
220
0
230
1
0
LINE
5
D8
100
AcDbEntity
8
1
62
256
6
ByLayer
370
18
48
1
60
0
100
AcDbLine
10
50.54
20
-31.50704
30
0
11
50.54
21
-32.017666
31
0
39
0
210
0
220
0
230
1
0
LINE
5
D9
100
AcDbEntity
8
1
62
256
6
ByLayer
370
18
48
1
60
0
100
AcDbLine
10
50.54
20
-31.361818
30
0
11
50.54
21
-31.140347
31
0
39
0
210
0
220
0
230
1
0
LINE
5
DA
100
AcDbEntity
8
1
62
256
6
ByLayer
370
13
48
1
60
0
100
AcDbLine
10
50.54
20
-30.57222
30
0
11
50.537469
21
-30.57222
31
0
39
0
210
0
220
0
230
1
0
LINE
5
DB
100
AcDbEntity
8
1
62
256
6
ByLayer
370
18
48
1
60
0
100
AcDbLine
10
50.54
20
-31.361818
30
0
11
50.54
21
-31.50704
31
0
39
0
210
0
220
0
230
1
0
LINE
5
DC
100
AcDbEntity
8
1
62
256
6
ByLayer
370
13
48
1
60
0
100
AcDbLine
10
50.54
20
-29.694901
30
0
11
50.537469
21
-29.694901
31
0
39
0
210
0
220
0
230
1
0
LINE
5
DD
100
AcDbEntity
8
1
62
256
6
ByLayer
370
18
48
1
60
0
100
AcDbLine
10
50.54
20
-32.301406
30
0
11
50.54
21
-32.480656
31
0
39
0
210
0
220
0
230
1
0
LINE
5
DE
100
AcDbEntity
8
1
62
256
6
ByLayer
370
13
48
1
60
0
100
AcDbLine
10
50.54
20
-29.916372
30
0
11
50.537469
21
-29.916372
31
0
39
0
210
0
220
0
230
1
0
LINE
5
DF
100
AcDbEntity
8
1
62
256
6
ByLayer
370
13
48
1
60
0
100
AcDbLine
10
50.54
20
-30.061594
30
0
11
50.537469
21
-30.061594
31
0
39
0
210
0
220
0
230
1
0
LINE
5
E0
100
AcDbEntity
8
1
62
256
6
ByLayer
370
18
48
1
60
0
100
AcDbLine
10
50.54
20
-32.480656
30
0
11
50.54
21
-32.585793
31
0
39
0
210
0
220
0
230
1
0
LINE
5
E1
100
AcDbEntity
8
1
62
256
6
ByLayer
370
13
48
1
60
0
100
AcDbLine
10
50.54
20
-30.85596
30
0
11
50.537469
21
-30.85596
31
0
39
0
210
0
220
0
230
1
0
LINE
5
E2
100
AcDbEntity
8
1
62
256
6
ByLayer
370
18
48
1
60
0
100
AcDbLine
10
50.54
20
-33.387827
30
0
11
50.54
21
-32.952485
31
0
39
0
210
0
220
0
230
1
0
LINE
5
E3
100
AcDbEntity
8
1
62
256
6
ByLayer
370
13
48
1
60
0
100
AcDbLine
10
50.54
20
-31.035211
30
0
11
50.537469
21
-31.035211
31
0
39
0
210
0
220
0
230
1
0
LINE
5
E4
100
AcDbEntity
8
1
62
256
6
ByLayer
370
13
48
1
60
0
100
AcDbLine
10
50.54
20
-32.017666
30
0
11
50.537469
21
-32.017666
31
0
39
0
210
0
220
0
230
1
0
LINE
5
E5
100
AcDbEntity
8
1
62
256
6
ByLayer
370
18
48
1
60
0
100
AcDbLine
10
50.54
20
-32.807263
30
0
11
50.54
21
-32.585793
31
0
39
0
210
0
220
0
230
1
0
LINE
5
E6
100
AcDbEntity
8
1
62
256
6
ByLayer
370
13
48
1
60
0
100
AcDbLine
10
50.54
20
-31.140347
30
0
11
50.537469
21
-31.140347
31
0
39
0
210
0
220
0
230
1
0
LINE
5
E7
100
AcDbEntity
8
1
62
256
6
ByLayer
370
13
48
1
60
0
100
AcDbLine
10
50.54
20
-31.361818
30
0
11
50.537469
21
-31.361818
31
0
39
0
210
0
220
0
230
1
0
LINE
5
E8
100
AcDbEntity
8
1
62
256
6
ByLayer
370
13
48
1
60
0
100
AcDbLine
10
50.54
20
-31.50704
30
0
11
50.537469
21
-31.50704
31
0
39
0
210
0
220
0
230
1
0
LINE
5
E9
100
AcDbEntity
8
1
62
256
6
ByLayer
370
18
48
1
60
0
100
AcDbLine
10
50.54
20
-32.952485
30
0
11
50.54
21
-32.807263
31
0
39
0
210
0
220
0
230
1
0
LINE
5
EA
100
AcDbEntity
8
1
62
256
6
ByLayer
370
13
48
1
60
0
100
AcDbLine
10
50.54
20
-32.301406
30
0
11
50.537469
21
-32.301406
31
0
39
0
210
0
220
0
230
1
0
LINE
5
EB
100
AcDbEntity
8
1
62
256
6
ByLayer
370
18
48
1
60
0
100
AcDbLine
10
50.54
20
-33.387827
30
0
11
50.54
21
-35.26422
31
0
39
0
210
0
220
0
230
1
0
LINE
5
EC
100
AcDbEntity
8
1
62
256
6
ByLayer
370
13
48
1
60
0
100
AcDbLine
10
50.54
20
-32.480656
30
0
11
50.537496
21
-32.480656
31
0
39
0
210
0
220
0
230
1
0
LINE
5
ED
100
AcDbEntity
8
1
62
256
6
ByLayer
370
13
48
1
60
0
100
AcDbLine
10
50.54
20
-32.585793
30
0
11
50.537484
21
-32.585793
31
0
39
0
210
0
220
0
230
1
0
LINE
5
EE
100
AcDbEntity
8
1
62
256
6
ByLayer
370
13
48
1
60
0
100
AcDbLine
10
50.54
20
-32.807263
30
0
11
50.537497
21
-32.807263
31
0
39
0
210
0
220
0
230
1
0
LINE
5
EF
100
AcDbEntity
8
1
62
256
6
ByLayer
370
13
48
1
60
0
100
AcDbLine
10
50.54
20
-32.952485
30
0
11
50.537457
21
-32.952485
31
0
39
0
210
0
220
0
230
1
0
LINE
5
F0
100
AcDbEntity
8
1
62
256
6
ByLayer
370
13
48
1
60
0
100
AcDbLine
10
41.589335
20
-33.746851
30
0
11
41.553416
21
-33.746851
31
0
39
0
210
0
220
0
230
1
0
LINE
5
F1
100
AcDbEntity
8
1
62
256
6
ByLayer
370
13
48
1
60
0
100
AcDbLine
10
50.526584
20
-33.746851
30
0
11
50.486734
21
-33.746851
31
0
39
0
210
0
220
0
230
1
0
LINE
5
F2
100
AcDbEntity
8
1
62
256
6
ByLayer
370
13
48
1
60
0
100
AcDbLine
10
50.484403
20
-33.926102
30
0
11
50.457795
21
-33.926102
31
0
39
0
210
0
220
0
230
1
0
LINE
5
F3
100
AcDbEntity
8
1
62
256
6
ByLayer
370
13
48
1
60
0
100
AcDbLine
10
41.873426
20
-34.908557
30
0
11
41.816389
21
-34.908557
31
0
39
0
210
0
220
0
230
1
0
LINE
5
F4
100
AcDbEntity
8
1
62
256
6
ByLayer
370
13
48
1
60
0
100
AcDbLine
10
50.263611
20
-34.908557
30
0
11
50.20187
21
-34.908557
31
0
39
0
210
0
220
0
230
1
0
LINE
5
F5
100
AcDbEntity
8
1
62
256
6
ByLayer
370
13
48
1
60
0
100
AcDbLine
10
50.461836
20
-34.031238
30
0
11
50.429858
21
-34.031238
31
0
39
0
210
0
220
0
230
1
0
LINE
5
F6
100
AcDbEntity
8
1
62
256
6
ByLayer
370
13
48
1
60
0
100
AcDbLine
10
41.645085
20
-34.031238
30
0
11
41.618164
21
-34.031238
31
0
39
0
210
0
220
0
230
1
0
LINE
5
F7
100
AcDbEntity
8
1
62
256
6
ByLayer
370
13
48
1
60
0
100
AcDbLine
10
41.700817
20
-34.252709
30
0
11
41.66782
21
-34.252709
31
0
39
0
210
0
220
0
230
1
0
LINE
5
F8
100
AcDbEntity
8
1
62
256
6
ByLayer
370
13
48
1
60
0
100
AcDbLine
10
41.732634
20
-34.397931
30
0
11
41.70152
21
-34.397931
31
0
39
0
210
0
220
0
230
1
0
LINE
5
F9
100
AcDbEntity
8
1
62
256
6
ByLayer
370
13
48
1
60
0
100
AcDbLine
10
50.37848
20
-34.397931
30
0
11
50.342379
21
-34.397931
31
0
39
0
210
0
220
0
230
1
0
LINE
5
FA
100
AcDbEntity
8
1
62
256
6
ByLayer
370
13
48
1
60
0
100
AcDbLine
10
50.41218
20
-34.252709
30
0
11
50.374104
21
-34.252709
31
0
39
0
210
0
220
0
230
1
0
LINE
5
FB
100
AcDbEntity
8
1
62
256
6
ByLayer
370
13
48
1
60
0
100
AcDbLine
10
42.016288
20
-35.192297
30
0
11
41.936616
21
-35.192297
31
0
39
0
210
0
220
0
230
1
0
LINE
5
FC
100
AcDbEntity
8
1
62
256
6
ByLayer
370
13
48
1
60
0
100
AcDbLine
10
50.143384
20
-35.192297
30
0
11
50.058769
21
-35.192297
31
0
39
0
210
0
220
0
230
1
0
LINE
5
FD
100
AcDbEntity
8
1
62
256
6
ByLayer
370
13
48
1
60
0
100
AcDbLine
10
49.962649
20
-35.371548
30
0
11
49.84648
21
-35.371548
31
0
39
0
210
0
220
0
230
1
0
LINE
5
FE
100
AcDbEntity
8
1
62
256
6
ByLayer
370
13
48
1
60
0
100
AcDbLine
10
42.228529
20
-35.371548
30
0
11
42.117351
21
-35.371548
31
0
39
0
210
0
220
0
230
1
0
LINE
5
FF
100
AcDbEntity
8
1
62
256
6
ByLayer
370
13
48
1
60
0
100
AcDbLine
10
43.008021
20
-36.354003
30
0
11
42.73386
21
-36.354003
31
0
39
0
210
0
220
0
230
1
0
LINE
5
100
100
AcDbEntity
8
1
62
256
6
ByLayer
370
13
48
1
60
0
100
AcDbLine
10
49.34614
20
-36.354003
30
0
11
49.0667
21
-36.354003
31
0
39
0
210
0
220
0
230
1
0
LINE
5
101
100
AcDbEntity
8
1
62
256
6
ByLayer
370
13
48
1
60
0
100
AcDbLine
10
49.886736
20
-35.476684
30
0
11
49.72196
21
-35.476684
31
0
39
0
210
0
220
0
230
1
0
LINE
5
102
100
AcDbEntity
8
1
62
256
6
ByLayer
370
13
48
1
60
0
100
AcDbLine
10
42.352754
20
-35.476684
30
0
11
42.193264
21
-35.476684
31
0
39
0
210
0
220
0
230
1
0
LINE
5
103
100
AcDbEntity
8
1
62
256
6
ByLayer
370
13
48
1
60
0
100
AcDbLine
10
42.619579
20
-35.843377
30
0
11
42.43612
21
-35.843377
31
0
39
0
210
0
220
0
230
1
0
LINE
5
104
100
AcDbEntity
8
1
62
256
6
ByLayer
370
13
48
1
60
0
100
AcDbLine
10
42.523866
20
-35.698155
30
0
11
42.34254
21
-35.698155
31
0
39
0
210
0
220
0
230
1
0
LINE
5
105
100
AcDbEntity
8
1
62
256
6
ByLayer
370
13
48
1
60
0
100
AcDbLine
10
49.73746
20
-35.698155
30
0
11
49.551073
21
-35.698155
31
0
39
0
210
0
220
0
230
1
0
LINE
5
106
100
AcDbEntity
8
1
62
256
6
ByLayer
370
13
48
1
60
0
100
AcDbLine
10
49.64388
20
-35.843377
30
0
11
49.455397
21
-35.843377
31
0
39
0
210
0
220
0
230
1
0
LINE
5
107
100
AcDbEntity
8
1
62
256
6
ByLayer
370
13
48
1
60
0
100
AcDbLine
10
49.047672
20
-36.637743
30
0
11
48.645584
21
-36.637743
31
0
39
0
210
0
220
0
230
1
0
LINE
5
108
100
AcDbEntity
8
1
62
256
6
ByLayer
370
13
48
1
60
0
100
AcDbLine
10
43.428307
20
-36.637743
30
0
11
43.032328
21
-36.637743
31
0
39
0
210
0
220
0
230
1
0
LINE
5
109
100
AcDbEntity
8
1
62
256
6
ByLayer
370
13
48
1
60
0
100
AcDbLine
10
48.593748
20
-36.816993
30
0
11
47.944937
21
-36.816993
31
0
39
0
210
0
220
0
230
1
0
LINE
5
10A
100
AcDbEntity
8
1
62
256
6
ByLayer
370
13
48
1
60
0
100
AcDbLine
10
44.128519
20
-36.816993
30
0
11
43.486252
21
-36.816993
31
0
39
0
210
0
220
0
230
1
0
LINE
5
10B
100
AcDbEntity
8
1
62
256
6
ByLayer
370
13
48
1
60
0
100
AcDbLine
10
48.394171
20
-36.92213
30
0
11
47.315299
21
-36.92213
31
0
39
0
210
0
220
0
230
1
0
LINE
5
10C
100
AcDbEntity
8
1
62
256
6
ByLayer
370
13
48
1
60
0
100
AcDbLine
10
44.748664
20
-36.92213
30
0
11
43.685829
21
-36.92213
31
0
39
0
210
0
220
0
230
1
0
LINE
5
10D
100
AcDbEntity
8
1
62
256
6
ByLayer
370
18
48
1
60
0
100
AcDbLine
10
41.54
20
-35.26422
30
0
11
41.54
21
-33.387827
31
0
39
0
210
0
220
0
230
1
0
LINE
5
10E
100
AcDbEntity
8
1
62
256
6
ByLayer
370
13
48
1
60
0
100
AcDbLine
10
47.668956
20
-37.288822
30
0
11
44.411044
21
-37.288822
31
0
39
0
210
0
220
0
230
1
0
LINE
5
10F
100
AcDbEntity
8
1
62
256
6
ByLayer
370
13
48
1
60
0
100
AcDbLine
10
47.970406
20
-37.1436
30
0
11
44.109594
21
-37.1436
31
0
39
0
210
0
220
0
230
1
0
LINE
5
110
100
AcDbEntity
8
1
62
256
6
ByLayer
370
18
48
1
60
0
100
AcDbLine
10
50.54
20
25.26665
30
0
11
50.54
21
25.419472
31
0
39
0
210
0
220
0
230
1
0
LINE
5
111
100
AcDbEntity
8
1
62
256
6
ByLayer
370
18
48
1
60
0
100
AcDbLine
10
41.54
20
25.26665
30
0
11
41.54
21
25.419472
31
0
39
0
210
0
220
0
230
1
0
LINE
5
112
100
AcDbEntity
8
1
62
256
6
ByLayer
370
13
48
1
60
0
100
AcDbLine
10
50.263611
20
26.310097
30
0
11
50.250974
21
26.310097
31
0
39
0
210
0
220
0
230
1
0
LINE
5
113
100
AcDbEntity
8
1
62
256
6
ByLayer
370
13
48
1
60
0
100
AcDbLine
10
41.551999
20
25.419472
30
0
11
41.54
21
25.419472
31
0
39
0
210
0
220
0
230
1
0
LINE
5
114
100
AcDbEntity
8
1
62
256
6
ByLayer
370
13
48
1
60
0
100
AcDbLine
10
50.54
20
25.419472
30
0
11
50.528001
21
25.419472
31
0
39
0
210
0
220
0
230
1
0
LINE
5
115
100
AcDbEntity
8
1
62
256
6
ByLayer
370
18
48
1
60
0
100
AcDbLine
10
50.54
20
13.684076
30
0
11
50.54
21
10.732196
31
0
39
0
210
0
220
0
230
1
0
LINE
5
116
100
AcDbEntity
8
1
62
256
6
ByLayer
370
13
48
1
60
0
100
AcDbLine
10
50.37848
20
26.489348
30
0
11
50.342028
21
26.489348
31
0
39
0
210
0
220
0
230
1
0
LINE
5
117
100
AcDbEntity
8
1
62
256
6
ByLayer
370
13
48
1
60
0
100
AcDbLine
10
41.732986
20
26.489348
30
0
11
41.70152
21
26.489348
31
0
39
0
210
0
220
0
230
1
0
LINE
5
118
100
AcDbEntity
8
1
62
256
6
ByLayer
370
18
48
1
60
0
100
AcDbLine
10
41.54
20
13.684076
30
0
11
41.54
21
10.732196
31
0
39
0
210
0
220
0
230
1
0
LINE
5
119
100
AcDbEntity
8
1
62
256
6
ByLayer
370
13
48
1
60
0
100
AcDbLine
10
41.829541
20
26.310097
30
0
11
41.816389
21
26.310097
31
0
39
0
210
0
220
0
230
1
0
LINE
5
11A
100
AcDbEntity
8
1
62
256
6
ByLayer
370
13
48
1
60
0
100
AcDbLine
10
49.64388
20
27.559224
30
0
11
49.454326
21
27.559224
31
0
39
0
210
0
220
0
230
1
0
LINE
5
11B
100
AcDbEntity
8
1
62
256
6
ByLayer
370
13
48
1
60
0
100
AcDbLine
10
42.62065
20
27.559224
30
0
11
42.43612
21
27.559224
31
0
39
0
210
0
220
0
230
1
0
LINE
5
11C
100
AcDbEntity
8
1
62
256
6
ByLayer
370
13
48
1
60
0
100
AcDbLine
10
49.34614
20
27.379973
30
0
11
49.295003
21
27.379973
31
0
39
0
210
0
220
0
230
1
0
LINE
5
11D
100
AcDbEntity
8
1
62
256
6
ByLayer
370
13
48
1
60
0
100
AcDbLine
10
42.78267
20
27.379973
30
0
11
42.73386
21
27.379973
31
0
39
0
210
0
220
0
230
1
0
LINE
5
11E
100
AcDbEntity
8
1
62
256
6
ByLayer
370
18
48
1
60
0
100
AcDbLine
10
41.54
20
13.684076
30
0
11
41.54
21
15.711822
31
0
39
0
210
0
220
0
230
1
0
LINE
5
11F
100
AcDbEntity
8
1
62
256
6
ByLayer
370
13
48
1
60
0
100
AcDbLine
10
47.668956
20
28.629099
30
0
11
44.411044
21
28.629099
31
0
39
0
210
0
220
0
230
1
0
LINE
5
120
100
AcDbEntity
8
1
62
256
6
ByLayer
370
18
48
1
60
0
100
AcDbLine
10
41.54
20
13.684076
30
0
11
41.562641
21
13.684076
31
0
39
0
210
0
220
0
230
1
0
LINE
5
121
100
AcDbEntity
8
1
62
256
6
ByLayer
370
18
48
1
60
0
100
AcDbLine
10
50.512437
20
13.684076
30
0
11
50.54
21
13.684076
31
0
39
0
210
0
220
0
230
1
0
LINE
5
122
100
AcDbEntity
8
1
62
256
6
ByLayer
370
18
48
1
60
0
100
AcDbLine
10
41.54
20
20.078397
30
0
11
41.54
21
19.370074
31
0
39
0
210
0
220
0
230
1
0
LINE
5
123
100
AcDbEntity
8
1
62
256
6
ByLayer
370
18
48
1
60
0
100
AcDbLine
10
50.54
20
13.684076
30
0
11
50.54
21
15.711822
31
0
39
0
210
0
220
0
230
1
0
LINE
5
124
100
AcDbEntity
8
1
62
256
6
ByLayer
370
18
48
1
60
0
100
AcDbLine
10
50.54
20
20.078397
30
0
11
50.54
21
19.370074
31
0
39
0
210
0
220
0
230
1
0
LINE
5
125
100
AcDbEntity
8
1
62
256
6
ByLayer
370
18
48
1
60
0
100
AcDbLine
10
41.54
20
16.592211
30
0
11
41.54
21
15.936286
31
0
39
0
210
0
220
0
230
1
0
LINE
5
126
100
AcDbEntity
8
1
62
256
6
ByLayer
370
18
48
1
60
0
100
AcDbLine
10
50.54
20
16.592211
30
0
11
50.54
21
15.936286
31
0
39
0
210
0
220
0
230
1
0
LINE
5
127
100
AcDbEntity
8
1
62
256
6
ByLayer
370
18
48
1
60
0
100
AcDbLine
10
50.54
20
25.26665
30
0
11
50.54
21
20.34527
31
0
39
0
210
0
220
0
230
1
0
LINE
5
128
100
AcDbEntity
8
1
62
256
6
ByLayer
370
18
48
1
60
0
100
AcDbLine
10
50.539613
20
25.237658
30
0
11
50.539691
21
25.240222
31
0
39
0
210
0
220
0
230
1
0
LINE
5
129
100
AcDbEntity
8
1
62
256
6
ByLayer
370
18
48
1
60
0
100
AcDbLine
10
41.54
20
20.34527
30
0
11
41.54
21
25.26665
31
0
39
0
210
0
220
0
230
1
0
LINE
5
12A
100
AcDbEntity
8
1
62
256
6
ByLayer
370
18
48
1
60
0
100
AcDbLine
10
50.54
20
34.708304
30
0
11
50.54
21
33.102141
31
0
39
0
210
0
220
0
230
1
0
LINE
5
12B
100
AcDbEntity
8
1
62
256
6
ByLayer
370
18
48
1
60
0
100
AcDbLine
10
41.54
20
34.708304
30
0
11
41.54
21
33.102141
31
0
39
0
210
0
220
0
230
1
0
LINE
5
12C
100
AcDbEntity
8
1
62
256
6
ByLayer
370
18
48
1
60
0
100
AcDbLine
10
50.54
20
30.36257
30
0
11
50.54
21
25.424259
31
0
39
0
210
0
220
0
230
1
0
LINE
5
12D
100
AcDbEntity
8
1
62
256
6
ByLayer
370
18
48
1
60
0
100
AcDbLine
10
50.54
20
30.36257
30
0
11
50.54
21
33.102139
31
0
39
0
210
0
220
0
230
1
0
LINE
5
12E
100
AcDbEntity
8
1
62
256
6
ByLayer
370
18
48
1
60
0
100
AcDbLine
10
41.54
20
31.315127
30
0
11
41.54
21
33.102139
31
0
39
0
210
0
220
0
230
1
0
LINE
5
12F
100
AcDbEntity
8
1
62
256
6
ByLayer
370
18
48
1
60
0
100
AcDbLine
10
41.5375
20
33.100763
30
0
11
41.5375
21
31.290396
31
0
39
0
210
0
220
0
230
1
0
LINE
5
130
100
AcDbEntity
8
1
62
256
6
ByLayer
370
18
48
1
60
0
100
AcDbLine
10
50.537469
20
8.201203
30
0
11
50.54
21
8.201203
31
0
39
0
210
0
220
0
230
1
0
LINE
5
131
100
AcDbEntity
8
1
62
256
6
ByLayer
370
18
48
1
60
0
100
AcDbLine
10
50.537469
20
30.36257
30
0
11
50.54
21
30.36257
31
0
39
0
210
0
220
0
230
1
0
LINE
5
132
100
AcDbEntity
8
1
62
256
6
ByLayer
370
13
48
1
60
0
100
AcDbLine
10
46.287609
20
17.296064
30
0
11
46.287609
21
18.123865
31
0
39
0
210
0
220
0
230
1
0
LINE
5
133
100
AcDbEntity
8
1
62
256
6
ByLayer
370
13
48
1
60
0
100
AcDbLine
10
45.792391
20
17.296064
30
0
11
45.792391
21
18.123865
31
0
39
0
210
0
220
0
230
1
0
LINE
5
134
100
AcDbEntity
8
1
62
256
6
ByLayer
370
13
48
1
60
0
100
AcDbLine
10
45.085758
20
17.55756
30
0
11
45.085758
21
18.385361
31
0
39
0
210
0
220
0
230
1
0
LINE
5
135
100
AcDbEntity
8
1
62
256
6
ByLayer
370
13
48
1
60
0
100
AcDbLine
10
46.994242
20
17.55756
30
0
11
46.994242
21
18.385361
31
0
39
0
210
0
220
0
230
1
0
LINE
5
136
100
AcDbEntity
8
1
62
256
6
ByLayer
370
13
48
1
60
0
100
AcDbLine
10
44.827952
20
18.259034
30
0
11
44.827952
21
18.401186
31
0
39
0
210
0
220
0
230
1
0
LINE
5
137
100
AcDbEntity
8
1
62
256
6
ByLayer
370
13
48
1
60
0
100
AcDbLine
10
47.252048
20
18.259034
30
0
11
47.252048
21
18.401186
31
0
39
0
210
0
220
0
230
1
0
LINE
5
138
100
AcDbEntity
8
1
62
256
6
ByLayer
370
18
48
1
60
0
100
AcDbLine
10
50.54
20
-20.030008
30
0
11
50.54
21
-20.074872
31
0
39
0
210
0
220
0
230
1
0
LINE
5
139
100
AcDbEntity
8
1
62
256
6
ByLayer
370
18
48
1
60
0
100
AcDbLine
10
41.5625
20
13.54266
30
0
11
41.5625
21
4.834462
31
0
39
0
210
0
220
0
230
1
0
LINE
5
13A
100
AcDbEntity
8
1
62
256
6
ByLayer
370
18
48
1
60
0
100
AcDbLine
10
41.5625
20
13.54266
30
0
11
50.5125
21
13.54266
31
0
39
0
210
0
220
0
230
1
0
LINE
5
13B
100
AcDbEntity
8
1
62
256
6
ByLayer
370
18
48
1
60
0
100
AcDbLine
10
50.5125
20
4.834462
30
0
11
41.5625
21
4.834462
31
0
39
0
210
0
220
0
230
1
0
LINE
5
13C
100
AcDbEntity
8
1
62
256
6
ByLayer
370
18
48
1
60
0
100
AcDbLine
10
50.5125
20
13.54266
30
0
11
50.5125
21
4.834462
31
0
39
0
210
0
220
0
230
1
0
LINE
5
13D
100
AcDbEntity
8
1
62
256
6
ByLayer
370
18
48
1
60
0
100
AcDbLine
10
50.54
20
-20.030008
30
0
11
50.54
21
-19.866082
31
0
39
0
210
0
220
0
230
1
0
LINE
5
13E
100
AcDbEntity
8
1
62
256
6
ByLayer
370
18
48
1
60
0
100
AcDbLine
10
50.54
20
-19.72086
30
0
11
50.54
21
-19.284362
31
0
39
0
210
0
220
0
230
1
0
LINE
5
13F
100
AcDbEntity
8
1
62
256
6
ByLayer
370
18
48
1
60
0
100
AcDbLine
10
50.54
20
-19.866082
30
0
11
50.54
21
-19.72086
31
0
39
0
210
0
220
0
230
1
0
LINE
5
140
100
AcDbEntity
8
1
62
256
6
ByLayer
370
18
48
1
60
0
100
AcDbLine
10
46.903525
20
-20.814738
30
0
11
46.903525
21
-20.454724
31
0
39
0
210
0
220
0
230
1
0
LINE
5
141
100
AcDbEntity
8
1
62
256
6
ByLayer
370
13
48
1
60
0
100
AcDbLine
10
50.54
20
-20.100859
30
0
11
50.537469
21
-20.100859
31
0
39
0
210
0
220
0
230
1
0
LINE
5
142
100
AcDbEntity
8
1
62
256
6
ByLayer
370
18
48
1
60
0
100
AcDbLine
10
45.171475
20
-20.814738
30
0
11
45.171475
21
-20.454368
31
0
39
0
210
0
220
0
230
1
0
LINE
5
143
100
AcDbEntity
8
1
62
256
6
ByLayer
370
18
48
1
60
0
100
AcDbLine
10
46.903525
20
-20.814738
30
0
11
47.221668
21
-20.428509
31
0
39
0
210
0
220
0
230
1
0
LINE
5
144
100
AcDbEntity
8
1
62
256
6
ByLayer
370
18
48
1
60
0
100
AcDbLine
10
41.5375
20
-15.310161
30
0
11
41.5375
21
-16.190783
31
0
39
0
210
0
220
0
230
1
0
LINE
5
145
100
AcDbEntity
8
1
62
256
6
ByLayer
370
13
48
1
60
0
100
AcDbLine
10
50.54
20
-20.030008
30
0
11
50.537469
21
-20.030008
31
0
39
0
210
0
220
0
230
1
0
LINE
5
146
100
AcDbEntity
8
1
62
256
6
ByLayer
370
18
48
1
60
0
100
AcDbLine
10
41.5375
20
16.339617
30
0
11
41.5375
21
15.265044
31
0
39
0
210
0
220
0
230
1
0
LINE
5
147
100
AcDbEntity
8
1
62
256
6
ByLayer
370
13
48
1
60
0
100
AcDbLine
10
50.54
20
-19.72086
30
0
11
50.537469
21
-19.72086
31
0
39
0
210
0
220
0
230
1
0
LINE
5
148
100
AcDbEntity
8
1
62
256
6
ByLayer
370
13
48
1
60
0
100
AcDbLine
10
50.54
20
-19.866082
30
0
11
50.537469
21
-19.866082
31
0
39
0
210
0
220
0
230
1
0
LINE
5
149
100
AcDbEntity
8
1
62
256
6
ByLayer
370
18
48
1
60
0
100
AcDbLine
10
41.5375
20
15.265044
30
0
11
41.5375
21
13.026224
31
0
39
0
210
0
220
0
230
1
0
LINE
5
14A
100
AcDbEntity
8
1
62
256
6
ByLayer
370
18
48
1
60
0
100
AcDbLine
10
50.5375
20
-23.949961
30
0
11
50.5375
21
-19.287059
31
0
39
0
210
0
220
0
230
1
0
LINE
5
14B
100
AcDbEntity
8
1
62
256
6
ByLayer
370
18
48
1
60
0
100
AcDbLine
10
41.5375
20
-16.190783
30
0
11
41.5375
21
-16.69513
31
0
39
0
210
0
220
0
230
1
0
LINE
5
14C
100
AcDbEntity
8
1
62
256
6
ByLayer
370
18
48
1
60
0
100
AcDbLine
10
41.5375
20
-19.281724
30
0
11
41.5375
21
-23.949961
31
0
39
0
210
0
220
0
230
1
0
LINE
5
14D
100
AcDbEntity
8
1
62
256
6
ByLayer
370
18
48
1
60
0
100
AcDbLine
10
41.5375
20
-16.190783
30
0
11
41.540031
21
-16.190783
31
0
39
0
210
0
220
0
230
1
0
LINE
5
14E
100
AcDbEntity
8
1
62
256
6
ByLayer
370
18
48
1
60
0
100
AcDbLine
10
41.5375
20
13.026224
30
0
11
41.5375
21
4.723789
31
0
39
0
210
0
220
0
230
1
0
LINE
5
14F
100
AcDbEntity
8
1
62
256
6
ByLayer
370
13
48
1
60
0
100
AcDbLine
10
41.5375
20
15.265044
30
0
11
41.540001
21
15.26043
31
0
39
0
210
0
220
0
230
1
0
LINE
5
150
100
AcDbEntity
8
1
62
256
6
ByLayer
370
18
48
1
60
0
100
AcDbLine
10
41.5375
20
13.026224
30
0
11
41.540004
21
13.026224
31
0
39
0
210
0
220
0
230
1
0
LINE
5
151
100
AcDbEntity
8
1
62
256
6
ByLayer
370
18
48
1
60
0
100
AcDbLine
10
50.5375
20
-24.900014
30
0
11
50.5375
21
-23.949961
31
0
39
0
210
0
220
0
230
1
0
LINE
5
152
100
AcDbEntity
8
1
62
256
6
ByLayer
370
18
48
1
60
0
100
AcDbLine
10
41.5375
20
-23.949961
30
0
11
41.5375
21
-24.900014
31
0
39
0
210
0
220
0
230
1
0
LINE
5
153
100
AcDbEntity
8
1
62
256
6
ByLayer
370
18
48
1
60
0
100
AcDbLine
10
41.5375
20
-23.949961
30
0
11
41.562531
21
-23.949961
31
0
39
0
210
0
220
0
230
1
0
LINE
5
154
100
AcDbEntity
8
1
62
256
6
ByLayer
370
18
48
1
60
0
100
AcDbLine
10
50.512469
20
-23.949961
30
0
11
50.5375
21
-23.949961
31
0
39
0
210
0
220
0
230
1
0
LINE
5
155
100
AcDbEntity
8
1
62
256
6
ByLayer
370
13
48
1
60
0
100
AcDbLine
10
40.7375
20
-18.73445
30
0
11
40.7375
21
18.73445
31
0
39
0
210
0
220
0
230
1
0
LINE
5
156
100
AcDbEntity
8
1
62
256
6
ByLayer
370
18
48
1
60
0
100
AcDbLine
10
44.6375
20
-24.900014
30
0
11
47.4375
21
-24.900014
31
0
39
0
210
0
220
0
230
1
0
LINE
5
157
100
AcDbEntity
8
1
62
256
6
ByLayer
370
18
48
1
60
0
100
AcDbLine
10
41.5375
20
-7.972764
30
0
11
41.5375
21
-15.098037
31
0
39
0
210
0
220
0
230
1
0
LINE
5
158
100
AcDbEntity
8
1
62
256
6
ByLayer
370
18
48
1
60
0
100
AcDbLine
10
41.5375
20
-15.098037
30
0
11
41.540031
21
-15.098037
31
0
39
0
210
0
220
0
230
1
0
LINE
5
159
100
AcDbEntity
8
1
62
256
6
ByLayer
370
18
48
1
60
0
100
AcDbLine
10
41.5375
20
-7.234496
30
0
11
41.5375
21
-7.972764
31
0
39
0
210
0
220
0
230
1
0
LINE
5
15A
100
AcDbEntity
8
1
62
256
6
ByLayer
370
18
48
1
60
0
100
AcDbLine
10
41.5375
20
-7.972764
30
0
11
41.540004
21
-7.972764
31
0
39
0
210
0
220
0
230
1
0
LINE
5
15B
100
AcDbEntity
8
1
62
256
6
ByLayer
370
13
48
1
60
0
100
AcDbLine
10
44.6375
20
-24.900014
30
0
11
44.6375
21
-26.032671
31
0
39
0
210
0
220
0
230
1
0
LINE
5
15C
100
AcDbEntity
8
1
62
256
6
ByLayer
370
13
48
1
60
0
100
AcDbLine
10
47.4375
20
-26.032671
30
0
11
47.4375
21
-24.900014
31
0
39
0
210
0
220
0
230
1
0
LINE
5
15D
100
AcDbEntity
8
1
62
256
6
ByLayer
370
13
48
1
60
0
100
AcDbLine
10
24.545605
20
18.73445
30
0
11
24.545605
21
-18.73445
31
0
39
0
210
0
220
0
230
1
0
LINE
5
15E
100
AcDbEntity
8
1
62
256
6
ByLayer
370
18
48
1
60
0
100
AcDbLine
10
46.5375
20
-36.995094
30
0
11
45.5375
21
-36.995094
31
0
39
0
210
0
220
0
230
1
0
LINE
5
15F
100
AcDbEntity
8
1
62
256
6
ByLayer
370
18
48
1
60
0
100
AcDbLine
10
50.5375
20
-28.843999
30
0
11
50.5375
21
-33.100763
31
0
39
0
210
0
220
0
230
1
0
LINE
5
160
100
AcDbEntity
8
1
62
256
6
ByLayer
370
13
48
1
60
0
100
AcDbLine
10
46.5375
20
-36.995094
30
0
11
46.5375
21
-32.915458
31
0
39
0
210
0
220
0
230
1
0
LINE
5
161
100
AcDbEntity
8
1
62
256
6
ByLayer
370
18
48
1
60
0
100
AcDbLine
10
50.5375
20
-28.843999
30
0
11
50.5375
21
-24.900014
31
0
39
0
210
0
220
0
230
1
0
LINE
5
162
100
AcDbEntity
8
1
62
256
6
ByLayer
370
18
48
1
60
0
100
AcDbLine
10
41.5375
20
-24.900014
30
0
11
41.5375
21
-28.843999
31
0
39
0
210
0
220
0
230
1
0
LINE
5
163
100
AcDbEntity
8
1
62
256
6
ByLayer
370
18
48
1
60
0
100
AcDbLine
10
47.4375
20
-24.900014
30
0
11
50.5375
21
-24.900014
31
0
39
0
210
0
220
0
230
1
0
LINE
5
164
100
AcDbEntity
8
1
62
256
6
ByLayer
370
18
48
1
60
0
100
AcDbLine
10
0.4
20
-5.5975
30
0
11
0
21
-5.9975
31
0
39
0
210
0
220
0
230
1
0
LINE
5
165
100
AcDbEntity
8
1
62
256
6
ByLayer
370
18
48
1
60
0
100
AcDbLine
10
0
20
-24.5
30
0
11
0
21
-5.9975
31
0
39
0
210
0
220
0
230
1
0
LINE
5
166
100
AcDbEntity
8
1
62
256
6
ByLayer
370
18
48
1
60
0
100
AcDbLine
10
47.5375
20
-28.263889
30
0
11
47.5375
21
-25.034578
31
0
39
0
210
0
220
0
230
1
0
LINE
5
167
100
AcDbEntity
8
1
62
256
6
ByLayer
370
13
48
1
60
0
100
AcDbLine
10
45.5375
20
-32.915458
30
0
11
45.5375
21
-36.995094
31
0
39
0
210
0
220
0
230
1
0
LINE
5
168
100
AcDbEntity
8
1
62
256
6
ByLayer
370
18
48
1
60
0
100
AcDbLine
10
44.5375
20
-25.034578
30
0
11
44.5375
21
-28.263889
31
0
39
0
210
0
220
0
230
1
0
LINE
5
169
100
AcDbEntity
8
1
62
256
6
ByLayer
370
18
48
1
60
0
100
AcDbLine
10
41.5375
20
-24.900014
30
0
11
44.6375
21
-24.900014
31
0
39
0
210
0
220
0
230
1
0
LINE
5
16A
100
AcDbEntity
8
1
62
256
6
ByLayer
370
18
48
1
60
0
100
AcDbLine
10
45.5375
20
-32.915458
30
0
11
46.5375
21
-32.915458
31
0
39
0
210
0
220
0
230
1
0
LINE
5
16B
100
AcDbEntity
8
1
62
256
6
ByLayer
370
18
48
1
60
0
100
AcDbLine
10
41.5375
20
-33.100763
30
0
11
41.5375
21
-28.843999
31
0
39
0
210
0
220
0
230
1
0
LINE
5
16C
100
AcDbEntity
8
1
62
256
6
ByLayer
370
18
48
1
60
0
100
AcDbLine
10
50.5375
20
25.424145
30
0
11
50.5375
21
25.866239
31
0
39
0
210
0
220
0
230
1
0
LINE
5
16D
100
AcDbEntity
8
1
62
256
6
ByLayer
370
18
48
1
60
0
100
AcDbLine
10
41.5375
20
16.339617
30
0
11
41.5375
21
16.596687
31
0
39
0
210
0
220
0
230
1
0
LINE
5
16E
100
AcDbEntity
8
1
62
256
6
ByLayer
370
18
48
1
60
0
100
AcDbLine
10
41.5375
20
19.354197
30
0
11
41.5375
21
25.866239
31
0
39
0
210
0
220
0
230
1
0
LINE
5
16F
100
AcDbEntity
8
1
62
256
6
ByLayer
370
18
48
1
60
0
100
AcDbLine
10
0
20
5.9975
30
0
11
0.4
21
5.5975
31
0
39
0
210
0
220
0
230
1
0
LINE
5
170
100
AcDbEntity
8
1
62
256
6
ByLayer
370
18
48
1
60
0
100
AcDbLine
10
0
20
5.9975
30
0
11
0
21
24.5
31
0
39
0
210
0
220
0
230
1
0
LINE
5
171
100
AcDbEntity
8
1
62
256
6
ByLayer
370
18
48
1
60
0
100
AcDbLine
10
0.4
20
25
30
0
11
0.4
21
5.5975
31
0
39
0
210
0
220
0
230
1
0
LINE
5
172
100
AcDbEntity
8
1
62
256
6
ByLayer
370
18
48
1
60
0
100
AcDbLine
10
0.4
20
-5.5975
30
0
11
0.4
21
-25
31
0
39
0
210
0
220
0
230
1
0
LINE
5
173
100
AcDbEntity
8
1
62
256
6
ByLayer
370
18
48
1
60
0
100
AcDbLine
10
50.5125
20
-24.231104
30
0
11
41.5625
21
-24.231104
31
0
39
0
210
0
220
0
230
1
0
LINE
5
174
100
AcDbEntity
8
1
62
256
6
ByLayer
370
13
48
1
60
0
100
AcDbLine
10
41.5375
20
16.339617
30
0
11
41.540006
21
16.334995
31
0
39
0
210
0
220
0
230
1
0
LINE
5
175
100
AcDbEntity
8
1
62
256
6
ByLayer
370
13
48
1
60
0
100
AcDbLine
10
41.63024
20
26.328884
30
0
11
41.626932
21
26.328884
31
0
39
0
210
0
220
0
230
1
0
LINE
5
176
100
AcDbEntity
8
1
62
256
6
ByLayer
370
18
48
1
60
0
100
AcDbLine
10
50.294545
20
26.413307
30
0
11
50.22402
21
26.359649
31
0
39
0
210
0
220
0
230
1
0
LINE
5
177
100
AcDbEntity
8
1
62
256
6
ByLayer
370
18
48
1
60
0
100
AcDbLine
10
41.85098
20
26.359649
30
0
11
41.780455
21
26.413307
31
0
39
0
210
0
220
0
230
1
0
LINE
5
178
100
AcDbEntity
8
1
62
256
6
ByLayer
370
18
48
1
60
0
100
AcDbLine
10
41.87948
20
26.40963
30
0
11
41.87948
21
26.399735
31
0
39
0
210
0
220
0
230
1
0
LINE
5
179
100
AcDbEntity
8
1
62
256
6
ByLayer
370
18
48
1
60
0
100
AcDbLine
10
50.19552
20
26.399735
30
0
11
50.19552
21
26.40963
31
0
39
0
210
0
220
0
230
1
0
LINE
5
17A
100
AcDbEntity
8
1
62
256
6
ByLayer
370
18
48
1
60
0
100
AcDbLine
10
20.435172
20
25.5
30
0
11
20.435172
21
-25.5
31
0
39
0
210
0
220
0
230
1
0
LINE
5
17B
100
AcDbEntity
8
1
62
256
6
ByLayer
370
18
48
1
60
0
100
AcDbLine
10
0.9
20
25.5
30
0
11
0.9
21
5.0975
31
0
39
0
210
0
220
0
230
1
0
LINE
5
17C
100
AcDbEntity
8
1
62
256
6
ByLayer
370
18
48
1
60
0
100
AcDbLine
10
0.9
20
5.0975
30
0
11
1.1
21
4.8975
31
0
39
0
210
0
220
0
230
1
0
LINE
5
17D
100
AcDbEntity
8
1
62
256
6
ByLayer
370
13
48
1
60
0
100
AcDbLine
10
41.87948
20
26.399735
30
0
11
41.895333
21
26.399735
31
0
39
0
210
0
220
0
230
1
0
LINE
5
17E
100
AcDbEntity
8
1
62
256
6
ByLayer
370
18
48
1
60
0
100
AcDbLine
10
1.1
20
-4.8975
30
0
11
0.9
21
-5.0975
31
0
39
0
210
0
220
0
230
1
0
LINE
5
17F
100
AcDbEntity
8
1
62
256
6
ByLayer
370
13
48
1
60
0
100
AcDbLine
10
23.186144
20
-19.600523
30
0
11
23.186144
21
19.600523
31
0
39
0
210
0
220
0
230
1
0
LINE
5
180
100
AcDbEntity
8
1
62
256
6
ByLayer
370
18
48
1
60
0
100
AcDbLine
10
5
20
4.8975
30
0
11
1.1
21
4.8975
31
0
39
0
210
0
220
0
230
1
0
LINE
5
181
100
AcDbEntity
8
1
62
256
6
ByLayer
370
18
48
1
60
0
100
AcDbLine
10
5.8
20
4.0975
30
0
11
5
21
4.8975
31
0
39
0
210
0
220
0
230
1
0
LINE
5
182
100
AcDbEntity
8
1
62
256
6
ByLayer
370
18
48
1
60
0
100
AcDbLine
10
5.8
20
4.0975
30
0
11
5.8
21
-4.0975
31
0
39
0
210
0
220
0
230
1
0
LINE
5
183
100
AcDbEntity
8
1
62
256
6
ByLayer
370
18
48
1
60
0
100
AcDbLine
10
5
20
-4.8975
30
0
11
5.8
21
-4.0975
31
0
39
0
210
0
220
0
230
1
0
LINE
5
184
100
AcDbEntity
8
1
62
256
6
ByLayer
370
18
48
1
60
0
100
AcDbLine
10
1.1
20
-4.8975
30
0
11
5
21
-4.8975
31
0
39
0
210
0
220
0
230
1
0
LINE
5
185
100
AcDbEntity
8
1
62
256
6
ByLayer
370
18
48
1
60
0
100
AcDbLine
10
0.9
20
-5.0975
30
0
11
0.9
21
-25.5
31
0
39
0
210
0
220
0
230
1
0
LINE
5
186
100
AcDbEntity
8
1
62
256
6
ByLayer
370
18
48
1
60
0
100
AcDbLine
10
45.5375
20
34.256292
30
0
11
46.5375
21
34.256292
31
0
39
0
210
0
220
0
230
1
0
LINE
5
187
100
AcDbEntity
8
1
62
256
6
ByLayer
370
18
48
1
60
0
100
AcDbLine
10
46.5375
20
28.640606
30
0
11
45.5375
21
28.640606
31
0
39
0
210
0
220
0
230
1
0
LINE
5
188
100
AcDbEntity
8
1
62
256
6
ByLayer
370
18
48
1
60
0
100
AcDbLine
10
41.5375
20
25.866239
30
0
11
41.5375
21
31.290561
31
0
39
0
210
0
220
0
230
1
0
LINE
5
189
100
AcDbEntity
8
1
62
256
6
ByLayer
370
18
48
1
60
0
100
AcDbLine
10
41.702012
20
26.5389
30
0
11
41.694772
21
26.544315
31
0
39
0
210
0
220
0
230
1
0
LINE
5
18A
100
AcDbEntity
8
1
62
256
6
ByLayer
370
18
48
1
60
0
100
AcDbLine
10
50.5375
20
31.290561
30
0
11
50.5375
21
25.866239
31
0
39
0
210
0
220
0
230
1
0
LINE
5
18B
100
AcDbEntity
8
1
62
256
6
ByLayer
370
13
48
1
60
0
100
AcDbLine
10
45.5375
20
34.256292
30
0
11
45.5375
21
28.640606
31
0
39
0
210
0
220
0
230
1
0
LINE
5
18C
100
AcDbEntity
8
1
62
256
6
ByLayer
370
13
48
1
60
0
100
AcDbLine
10
46.5375
20
28.640606
30
0
11
46.5375
21
34.256292
31
0
39
0
210
0
220
0
230
1
0
LINE
5
18D
100
AcDbEntity
8
1
62
256
6
ByLayer
370
18
48
1
60
0
100
AcDbLine
10
50.380239
20
26.544315
30
0
11
50.372988
21
26.5389
31
0
39
0
210
0
220
0
230
1
0
LINE
5
18E
100
AcDbEntity
8
1
62
256
6
ByLayer
370
18
48
1
60
0
100
AcDbLine
10
50.5375
20
4.46911
30
0
11
50.5375
21
4.723676
31
0
39
0
210
0
220
0
230
1
0
LINE
5
18F
100
AcDbEntity
8
1
62
256
6
ByLayer
370
18
48
1
60
0
100
AcDbLine
10
41.5375
20
4.723676
30
0
11
41.5375
21
4.46911
31
0
39
0
210
0
220
0
230
1
0
LINE
5
190
100
AcDbEntity
8
1
62
256
6
ByLayer
370
18
48
1
60
0
100
AcDbLine
10
41.5375
20
4.723676
30
0
11
41.562531
21
4.723676
31
0
39
0
210
0
220
0
230
1
0
LINE
5
191
100
AcDbEntity
8
1
62
256
6
ByLayer
370
18
48
1
60
0
100
AcDbLine
10
50.512469
20
4.723676
30
0
11
50.5375
21
4.723676
31
0
39
0
210
0
220
0
230
1
0
LINE
5
192
100
AcDbEntity
8
1
62
256
6
ByLayer
370
18
48
1
60
0
100
AcDbLine
10
50.54
20
-20.100859
30
0
11
50.54
21
-20.706355
31
0
39
0
210
0
220
0
230
1
0
LINE
5
193
100
AcDbEntity
8
1
62
256
6
ByLayer
370
18
48
1
60
0
100
AcDbLine
10
44.6375
20
4.46911
30
0
11
47.4375
21
4.46911
31
0
39
0
210
0
220
0
230
1
0
LINE
5
194
100
AcDbEntity
8
1
62
256
6
ByLayer
370
18
48
1
60
0
100
AcDbLine
10
50.451027
20
-7.664402
30
0
11
50.415624
21
-7.741131
31
0
39
0
210
0
220
0
230
1
0
LINE
5
195
100
AcDbEntity
8
1
62
256
6
ByLayer
370
18
48
1
60
0
100
AcDbLine
10
41.659376
20
-7.741131
30
0
11
41.623973
21
-7.664402
31
0
39
0
210
0
220
0
230
1
0
LINE
5
196
100
AcDbEntity
8
1
62
256
6
ByLayer
370
18
48
1
60
0
100
AcDbLine
10
50.54
20
-20.074866
30
0
11
50.54
21
-20.100859
31
0
39
0
210
0
220
0
230
1
0
LINE
5
197
100
AcDbEntity
8
1
62
256
6
ByLayer
370
18
48
1
60
0
100
AcDbLine
10
46.5375
20
-8.354488
30
0
11
45.5375
21
-8.354488
31
0
39
0
210
0
220
0
230
1
0
LINE
5
198
100
AcDbEntity
8
1
62
256
6
ByLayer
370
13
48
1
60
0
100
AcDbLine
10
44.6375
20
4.46911
30
0
11
44.6375
21
2.47526
31
0
39
0
210
0
220
0
230
1
0
LINE
5
199
100
AcDbEntity
8
1
62
256
6
ByLayer
370
13
48
1
60
0
100
AcDbLine
10
47.4375
20
2.47526
30
0
11
47.4375
21
4.46911
31
0
39
0
210
0
220
0
230
1
0
LINE
5
19A
100
AcDbEntity
8
1
62
256
6
ByLayer
370
13
48
1
60
0
100
AcDbLine
10
50.448068
20
-7.645778
30
0
11
50.390317
21
-7.645778
31
0
39
0
210
0
220
0
230
1
0
LINE
5
19B
100
AcDbEntity
8
1
62
256
6
ByLayer
370
13
48
1
60
0
100
AcDbLine
10
41.684683
20
-7.645778
30
0
11
41.626932
21
-7.645778
31
0
39
0
210
0
220
0
230
1
0
LINE
5
19C
100
AcDbEntity
8
1
62
256
6
ByLayer
370
13
48
1
60
0
100
AcDbLine
10
49.781543
20
-8.021348
30
0
11
49.59984
21
-8.021348
31
0
39
0
210
0
220
0
230
1
0
LINE
5
19D
100
AcDbEntity
8
1
62
256
6
ByLayer
370
13
48
1
60
0
100
AcDbLine
10
42.474809
20
-8.021348
30
0
11
42.293457
21
-8.021348
31
0
39
0
210
0
220
0
230
1
0
LINE
5
19E
100
AcDbEntity
8
1
62
256
6
ByLayer
370
13
48
1
60
0
100
AcDbLine
10
47.660168
20
-8.396918
30
0
11
44.414832
21
-8.396918
31
0
39
0
210
0
220
0
230
1
0
LINE
5
19F
100
AcDbEntity
8
1
62
256
6
ByLayer
370
18
48
1
60
0
100
AcDbLine
10
47.4375
20
4.46911
30
0
11
50.5375
21
4.46911
31
0
39
0
210
0
220
0
230
1
0
LINE
5
1A0
100
AcDbEntity
8
1
62
256
6
ByLayer
370
18
48
1
60
0
100
AcDbLine
10
47.5375
20
2.687411
30
0
11
47.5375
21
4.385152
31
0
39
0
210
0
220
0
230
1
0
LINE
5
1A1
100
AcDbEntity
8
1
62
256
6
ByLayer
370
18
48
1
60
0
100
AcDbLine
10
50.5375
20
2.446561
30
0
11
50.5375
21
-7.234523
31
0
39
0
210
0
220
0
230
1
0
LINE
5
1A2
100
AcDbEntity
8
1
62
256
6
ByLayer
370
18
48
1
60
0
100
AcDbLine
10
41.5375
20
-7.234523
30
0
11
41.5375
21
2.446561
31
0
39
0
210
0
220
0
230
1
0
LINE
5
1A3
100
AcDbEntity
8
1
62
256
6
ByLayer
370
18
48
1
60
0
100
AcDbLine
10
44.5375
20
4.385152
30
0
11
44.5375
21
2.687411
31
0
39
0
210
0
220
0
230
1
0
LINE
5
1A4
100
AcDbEntity
8
1
62
256
6
ByLayer
370
13
48
1
60
0
100
AcDbLine
10
45.5375
20
1.340834
30
0
11
45.5375
21
-8.354488
31
0
39
0
210
0
220
0
230
1
0
LINE
5
1A5
100
AcDbEntity
8
1
62
256
6
ByLayer
370
13
48
1
60
0
100
AcDbLine
10
46.5375
20
-8.354488
30
0
11
46.5375
21
1.340834
31
0
39
0
210
0
220
0
230
1
0
LINE
5
1A6
100
AcDbEntity
8
1
62
256
6
ByLayer
370
18
48
1
60
0
100
AcDbLine
10
41.5375
20
4.46911
30
0
11
44.6375
21
4.46911
31
0
39
0
210
0
220
0
230
1
0
LINE
5
1A7
100
AcDbEntity
8
1
62
256
6
ByLayer
370
18
48
1
60
0
100
AcDbLine
10
41.5375
20
4.46911
30
0
11
41.5375
21
2.446561
31
0
39
0
210
0
220
0
230
1
0
LINE
5
1A8
100
AcDbEntity
8
1
62
256
6
ByLayer
370
18
48
1
60
0
100
AcDbLine
10
45.5375
20
1.340834
30
0
11
46.5375
21
1.340834
31
0
39
0
210
0
220
0
230
1
0
LINE
5
1A9
100
AcDbEntity
8
1
62
256
6
ByLayer
370
18
48
1
60
0
100
AcDbLine
10
50.5375
20
2.446561
30
0
11
50.5375
21
4.46911
31
0
39
0
210
0
220
0
230
1
0
LINE
5
1AA
100
AcDbEntity
8
1
62
256
6
ByLayer
370
18
48
1
60
0
100
AcDbLine
10
50.5125
20
-19.313315
30
0
11
50.5125
21
-24.231104
31
0
39
0
210
0
220
0
230
1
0
LINE
5
1AB
100
AcDbEntity
8
1
62
256
6
ByLayer
370
18
48
1
60
0
100
AcDbLine
10
41.5625
20
-19.30815
30
0
11
41.5625
21
-24.231104
31
0
39
0
210
0
220
0
230
1
0
LINE
5
1AC
100
AcDbEntity
8
1
62
256
6
ByLayer
370
18
48
1
60
0
100
AcDbLine
10
45.171475
20
-20.814738
30
0
11
44.852899
21
-20.427984
31
0
39
0
210
0
220
0
230
1
0
LINE
5
1AD
100
AcDbEntity
8
1
62
256
6
ByLayer
370
18
48
1
60
0
100
AcDbLine
10
45.171475
20
-20.814738
30
0
11
46.903525
21
-20.814738
31
0
39
0
210
0
220
0
230
1
0
LINE
5
1AE
100
AcDbEntity
8
1
62
256
6
ByLayer
370
18
48
1
60
0
100
AcDbLine
10
41.54
20
-33.387827
30
0
11
41.54
21
-33.195406
31
0
39
0
210
0
220
0
230
1
0
LINE
5
1AF
100
AcDbEntity
8
1
62
256
6
ByLayer
370
18
48
1
60
0
100
AcDbLine
10
50.54
20
-20.73784
30
0
11
50.54
21
-20.917091
31
0
39
0
210
0
220
0
230
1
0
LINE
5
1B0
100
AcDbEntity
8
1
62
256
6
ByLayer
370
18
48
1
60
0
100
AcDbLine
10
50.54
20
-20.706357
30
0
11
50.54
21
-20.73784
31
0
39
0
210
0
220
0
230
1
0
LINE
5
1B1
100
AcDbEntity
8
1
62
256
6
ByLayer
370
18
48
1
60
0
100
AcDbLine
10
50.537469
20
-20.706357
30
0
11
50.54
21
-20.706357
31
0
39
0
210
0
220
0
230
1
0
LINE
5
1B2
100
AcDbEntity
8
1
62
256
6
ByLayer
370
18
48
1
60
0
100
AcDbLine
10
50.54
20
-22.183286
30
0
11
50.54
21
-21.899546
31
0
39
0
210
0
220
0
230
1
0
LINE
5
1B3
100
AcDbEntity
8
1
62
256
6
ByLayer
370
18
48
1
60
0
100
AcDbLine
10
50.54
20
-4.528453
30
0
11
50.54
21
-4.423317
31
0
39
0
210
0
220
0
230
1
0
LINE
5
1B4
100
AcDbEntity
8
1
62
256
6
ByLayer
370
18
48
1
60
0
100
AcDbLine
10
50.54
20
-4.736569
30
0
11
50.54
21
-4.528453
31
0
39
0
210
0
220
0
230
1
0
LINE
5
1B5
100
AcDbEntity
8
1
62
256
6
ByLayer
370
18
48
1
60
0
100
AcDbLine
10
50.5125
20
4.617451
30
0
11
50.5125
21
4.834462
31
0
39
0
210
0
220
0
230
1
0
LINE
5
1B6
100
AcDbEntity
8
1
62
256
6
ByLayer
370
18
48
1
60
0
100
AcDbLine
10
50.54
20
-4.736564
30
0
11
50.54
21
-4.741342
31
0
39
0
210
0
220
0
230
1
0
LINE
5
1B7
100
AcDbEntity
8
1
62
256
6
ByLayer
370
18
48
1
60
0
100
AcDbLine
10
50.54
20
-4.741342
30
0
11
50.54
21
-4.798887
31
0
39
0
210
0
220
0
230
1
0
LINE
5
1B8
100
AcDbEntity
8
1
62
256
6
ByLayer
370
18
48
1
60
0
100
AcDbLine
10
50.54
20
-4.798887
30
0
11
50.54
21
-4.904023
31
0
39
0
210
0
220
0
230
1
0
LINE
5
1B9
100
AcDbEntity
8
1
62
256
6
ByLayer
370
13
48
1
60
0
100
AcDbLine
10
50.54
20
-4.365772
30
0
11
50.537469
21
-4.365772
31
0
39
0
210
0
220
0
230
1
0
LINE
5
1BA
100
AcDbEntity
8
1
62
256
6
ByLayer
370
18
48
1
60
0
100
AcDbLine
10
50.54
20
-4.904023
30
0
11
50.54
21
-5.11214
31
0
39
0
210
0
220
0
230
1
0
LINE
5
1BB
100
AcDbEntity
8
1
62
256
6
ByLayer
370
13
48
1
60
0
100
AcDbLine
10
50.54
20
-4.423317
30
0
11
50.537469
21
-4.423317
31
0
39
0
210
0
220
0
230
1
0
LINE
5
1BC
100
AcDbEntity
8
1
62
256
6
ByLayer
370
18
48
1
60
0
100
AcDbLine
10
50.54
20
-5.116912
30
0
11
50.54
21
-5.112134
31
0
39
0
210
0
220
0
230
1
0
LINE
5
1BD
100
AcDbEntity
8
1
62
256
6
ByLayer
370
13
48
1
60
0
100
AcDbLine
10
50.54
20
-4.528453
30
0
11
50.537469
21
-4.528453
31
0
39
0
210
0
220
0
230
1
0
LINE
5
1BE
100
AcDbEntity
8
1
62
256
6
ByLayer
370
18
48
1
60
0
100
AcDbLine
10
50.54
20
-5.174457
30
0
11
50.54
21
-5.116912
31
0
39
0
210
0
220
0
230
1
0
LINE
5
1BF
100
AcDbEntity
8
1
62
256
6
ByLayer
370
18
48
1
60
0
100
AcDbLine
10
50.54
20
-5.279593
30
0
11
50.54
21
-5.174457
31
0
39
0
210
0
220
0
230
1
0
LINE
5
1C0
100
AcDbEntity
8
1
62
256
6
ByLayer
370
13
48
1
60
0
100
AcDbLine
10
50.54
20
-4.741342
30
0
11
50.537469
21
-4.741342
31
0
39
0
210
0
220
0
230
1
0
LINE
5
1C1
100
AcDbEntity
8
1
62
256
6
ByLayer
370
18
48
1
60
0
100
AcDbLine
10
50.54
20
-5.48771
30
0
11
50.54
21
-5.279593
31
0
39
0
210
0
220
0
230
1
0
LINE
5
1C2
100
AcDbEntity
8
1
62
256
6
ByLayer
370
13
48
1
60
0
100
AcDbLine
10
50.54
20
-4.798887
30
0
11
50.537469
21
-4.798887
31
0
39
0
210
0
220
0
230
1
0
LINE
5
1C3
100
AcDbEntity
8
1
62
256
6
ByLayer
370
18
48
1
60
0
100
AcDbLine
10
50.54
20
-5.487704
30
0
11
50.54
21
-5.492482
31
0
39
0
210
0
220
0
230
1
0
LINE
5
1C4
100
AcDbEntity
8
1
62
256
6
ByLayer
370
13
48
1
60
0
100
AcDbLine
10
50.54
20
-4.904023
30
0
11
50.537469
21
-4.904023
31
0
39
0
210
0
220
0
230
1
0
LINE
5
1C5
100
AcDbEntity
8
1
62
256
6
ByLayer
370
18
48
1
60
0
100
AcDbLine
10
50.54
20
-5.550027
30
0
11
50.54
21
-5.492482
31
0
39
0
210
0
220
0
230
1
0
LINE
5
1C6
100
AcDbEntity
8
1
62
256
6
ByLayer
370
18
48
1
60
0
100
AcDbLine
10
50.54
20
-5.550027
30
0
11
50.54
21
-5.655163
31
0
39
0
210
0
220
0
230
1
0
LINE
5
1C7
100
AcDbEntity
8
1
62
256
6
ByLayer
370
13
48
1
60
0
100
AcDbLine
10
50.54
20
-5.116912
30
0
11
50.537469
21
-5.116912
31
0
39
0
210
0
220
0
230
1
0
LINE
5
1C8
100
AcDbEntity
8
1
62
256
6
ByLayer
370
18
48
1
60
0
100
AcDbLine
10
50.54
20
-5.655163
30
0
11
50.54
21
-5.86328
31
0
39
0
210
0
220
0
230
1
0
LINE
5
1C9
100
AcDbEntity
8
1
62
256
6
ByLayer
370
13
48
1
60
0
100
AcDbLine
10
50.54
20
-5.174457
30
0
11
50.537469
21
-5.174457
31
0
39
0
210
0
220
0
230
1
0
LINE
5
1CA
100
AcDbEntity
8
1
62
256
6
ByLayer
370
18
48
1
60
0
100
AcDbLine
10
50.54
20
-5.868052
30
0
11
50.54
21
-5.863274
31
0
39
0
210
0
220
0
230
1
0
LINE
5
1CB
100
AcDbEntity
8
1
62
256
6
ByLayer
370
13
48
1
60
0
100
AcDbLine
10
50.54
20
-5.279593
30
0
11
50.537469
21
-5.279593
31
0
39
0
210
0
220
0
230
1
0
LINE
5
1CC
100
AcDbEntity
8
1
62
256
6
ByLayer
370
18
48
1
60
0
100
AcDbLine
10
50.54
20
-5.925597
30
0
11
50.54
21
-5.868052
31
0
39
0
210
0
220
0
230
1
0
LINE
5
1CD
100
AcDbEntity
8
1
62
256
6
ByLayer
370
18
48
1
60
0
100
AcDbLine
10
50.54
20
-6.030733
30
0
11
50.54
21
-5.925597
31
0
39
0
210
0
220
0
230
1
0
LINE
5
1CE
100
AcDbEntity
8
1
62
256
6
ByLayer
370
13
48
1
60
0
100
AcDbLine
10
50.54
20
-5.492482
30
0
11
50.537469
21
-5.492482
31
0
39
0
210
0
220
0
230
1
0
LINE
5
1CF
100
AcDbEntity
8
1
62
256
6
ByLayer
370
18
48
1
60
0
100
AcDbLine
10
50.54
20
-6.23885
30
0
11
50.54
21
-6.030733
31
0
39
0
210
0
220
0
230
1
0
LINE
5
1D0
100
AcDbEntity
8
1
62
256
6
ByLayer
370
13
48
1
60
0
100
AcDbLine
10
50.54
20
-5.550027
30
0
11
50.537469
21
-5.550027
31
0
39
0
210
0
220
0
230
1
0
LINE
5
1D1
100
AcDbEntity
8
1
62
256
6
ByLayer
370
18
48
1
60
0
100
AcDbLine
10
50.54
20
-6.238844
30
0
11
50.54
21
-6.243622
31
0
39
0
210
0
220
0
230
1
0
LINE
5
1D2
100
AcDbEntity
8
1
62
256
6
ByLayer
370
13
48
1
60
0
100
AcDbLine
10
50.54
20
-5.655163
30
0
11
50.537469
21
-5.655163
31
0
39
0
210
0
220
0
230
1
0
LINE
5
1D3
100
AcDbEntity
8
1
62
256
6
ByLayer
370
18
48
1
60
0
100
AcDbLine
10
50.54
20
-6.243622
30
0
11
50.54
21
-6.301167
31
0
39
0
210
0
220
0
230
1
0
LINE
5
1D4
100
AcDbEntity
8
1
62
256
6
ByLayer
370
18
48
1
60
0
100
AcDbLine
10
50.54
20
-6.301167
30
0
11
50.54
21
-6.406303
31
0
39
0
210
0
220
0
230
1
0
LINE
5
1D5
100
AcDbEntity
8
1
62
256
6
ByLayer
370
13
48
1
60
0
100
AcDbLine
10
50.54
20
-5.868052
30
0
11
50.537469
21
-5.868052
31
0
39
0
210
0
220
0
230
1
0
LINE
5
1D6
100
AcDbEntity
8
1
62
256
6
ByLayer
370
18
48
1
60
0
100
AcDbLine
10
50.54
20
-6.406303
30
0
11
50.54
21
-6.61442
31
0
39
0
210
0
220
0
230
1
0
LINE
5
1D7
100
AcDbEntity
8
1
62
256
6
ByLayer
370
13
48
1
60
0
100
AcDbLine
10
50.54
20
-5.925597
30
0
11
50.537469
21
-5.925597
31
0
39
0
210
0
220
0
230
1
0
LINE
5
1D8
100
AcDbEntity
8
1
62
256
6
ByLayer
370
18
48
1
60
0
100
AcDbLine
10
50.54
20
-6.619192
30
0
11
50.54
21
-6.614414
31
0
39
0
210
0
220
0
230
1
0
LINE
5
1D9
100
AcDbEntity
8
1
62
256
6
ByLayer
370
13
48
1
60
0
100
AcDbLine
10
50.54
20
-6.030733
30
0
11
50.537469
21
-6.030733
31
0
39
0
210
0
220
0
230
1
0
LINE
5
1DA
100
AcDbEntity
8
1
62
256
6
ByLayer
370
18
48
1
60
0
100
AcDbLine
10
50.54
20
-6.676737
30
0
11
50.54
21
-6.619192
31
0
39
0
210
0
220
0
230
1
0
LINE
5
1DB
100
AcDbEntity
8
1
62
256
6
ByLayer
370
18
48
1
60
0
100
AcDbLine
10
50.54
20
-6.781873
30
0
11
50.54
21
-6.676737
31
0
39
0
210
0
220
0
230
1
0
LINE
5
1DC
100
AcDbEntity
8
1
62
256
6
ByLayer
370
13
48
1
60
0
100
AcDbLine
10
50.54
20
-6.243622
30
0
11
50.537469
21
-6.243622
31
0
39
0
210
0
220
0
230
1
0
LINE
5
1DD
100
AcDbEntity
8
1
62
256
6
ByLayer
370
18
48
1
60
0
100
AcDbLine
10
50.54
20
-6.98999
30
0
11
50.54
21
-6.781873
31
0
39
0
210
0
220
0
230
1
0
LINE
5
1DE
100
AcDbEntity
8
1
62
256
6
ByLayer
370
13
48
1
60
0
100
AcDbLine
10
50.54
20
-6.301167
30
0
11
50.537469
21
-6.301167
31
0
39
0
210
0
220
0
230
1
0
LINE
5
1DF
100
AcDbEntity
8
1
62
256
6
ByLayer
370
18
48
1
60
0
100
AcDbLine
10
50.54
20
-14.918962
30
0
11
50.54
21
-16.676177
31
0
39
0
210
0
220
0
230
1
0
LINE
5
1E0
100
AcDbEntity
8
1
62
256
6
ByLayer
370
13
48
1
60
0
100
AcDbLine
10
50.54
20
-6.406303
30
0
11
50.537469
21
-6.406303
31
0
39
0
210
0
220
0
230
1
0
LINE
5
1E1
100
AcDbEntity
8
1
62
256
6
ByLayer
370
18
48
1
60
0
100
AcDbLine
10
41.54
20
-14.918962
30
0
11
41.54
21
-16.676177
31
0
39
0
210
0
220
0
230
1
0
LINE
5
1E2
100
AcDbEntity
8
1
62
256
6
ByLayer
370
18
48
1
60
0
100
AcDbLine
10
50.54
20
-6.989984
30
0
11
50.54
21
-6.994762
31
0
39
0
210
0
220
0
230
1
0
LINE
5
1E3
100
AcDbEntity
8
1
62
256
6
ByLayer
370
13
48
1
60
0
100
AcDbLine
10
50.54
20
-6.619192
30
0
11
50.537469
21
-6.619192
31
0
39
0
210
0
220
0
230
1
0
LINE
5
1E4
100
AcDbEntity
8
1
62
256
6
ByLayer
370
18
48
1
60
0
100
AcDbLine
10
50.54
20
-7.052307
30
0
11
50.54
21
-6.994762
31
0
39
0
210
0
220
0
230
1
0
LINE
5
1E5
100
AcDbEntity
8
1
62
256
6
ByLayer
370
13
48
1
60
0
100
AcDbLine
10
50.54
20
-6.676737
30
0
11
50.537469
21
-6.676737
31
0
39
0
210
0
220
0
230
1
0
LINE
5
1E6
100
AcDbEntity
8
1
62
256
6
ByLayer
370
18
48
1
60
0
100
AcDbLine
10
50.54
20
-7.052307
30
0
11
50.54
21
-7.157443
31
0
39
0
210
0
220
0
230
1
0
LINE
5
1E7
100
AcDbEntity
8
1
62
256
6
ByLayer
370
13
48
1
60
0
100
AcDbLine
10
50.54
20
-6.781873
30
0
11
50.537469
21
-6.781873
31
0
39
0
210
0
220
0
230
1
0
LINE
5
1E8
100
AcDbEntity
8
1
62
256
6
ByLayer
370
18
48
1
60
0
100
AcDbLine
10
50.54
20
-7.157443
30
0
11
50.54
21
-7.36556
31
0
39
0
210
0
220
0
230
1
0
LINE
5
1E9
100
AcDbEntity
8
1
62
256
6
ByLayer
370
18
48
1
60
0
100
AcDbLine
10
41.54
20
10.732196
30
0
11
41.562641
21
10.732196
31
0
39
0
210
0
220
0
230
1
0
LINE
5
1EA
100
AcDbEntity
8
1
62
256
6
ByLayer
370
18
48
1
60
0
100
AcDbLine
10
50.512437
20
10.732196
30
0
11
50.54
21
10.732196
31
0
39
0
210
0
220
0
230
1
0
LINE
5
1EB
100
AcDbEntity
8
1
62
256
6
ByLayer
370
18
48
1
60
0
100
AcDbLine
10
50.54
20
-7.370332
30
0
11
50.54
21
-7.365554
31
0
39
0
210
0
220
0
230
1
0
LINE
5
1EC
100
AcDbEntity
8
1
62
256
6
ByLayer
370
18
48
1
60
0
100
AcDbLine
10
41.54
20
-7.370332
30
0
11
41.54
21
-7.365554
31
0
39
0
210
0
220
0
230
1
0
LINE
5
1ED
100
AcDbEntity
8
1
62
256
6
ByLayer
370
18
48
1
60
0
100
AcDbLine
10
50.54
20
-7.427877
30
0
11
50.54
21
-7.370332
31
0
39
0
210
0
220
0
230
1
0
LINE
5
1EE
100
AcDbEntity
8
1
62
256
6
ByLayer
370
18
48
1
60
0
100
AcDbLine
10
50.54
20
-7.533013
30
0
11
50.54
21
-7.427877
31
0
39
0
210
0
220
0
230
1
0
LINE
5
1EF
100
AcDbEntity
8
1
62
256
6
ByLayer
370
13
48
1
60
0
100
AcDbLine
10
50.54
20
-6.994762
30
0
11
50.537469
21
-6.994762
31
0
39
0
210
0
220
0
230
1
0
LINE
5
1F0
100
AcDbEntity
8
1
62
256
6
ByLayer
370
18
48
1
60
0
100
AcDbLine
10
41.54
20
-7.427877
30
0
11
41.54
21
-7.370332
31
0
39
0
210
0
220
0
230
1
0
LINE
5
1F1
100
AcDbEntity
8
1
62
256
6
ByLayer
370
13
48
1
60
0
100
AcDbLine
10
50.54
20
-7.052307
30
0
11
50.537469
21
-7.052307
31
0
39
0
210
0
220
0
230
1
0
LINE
5
1F2
100
AcDbEntity
8
1
62
256
6
ByLayer
370
18
48
1
60
0
100
AcDbLine
10
41.54
20
-7.533013
30
0
11
41.54
21
-7.427877
31
0
39
0
210
0
220
0
230
1
0
LINE
5
1F3
100
AcDbEntity
8
1
62
256
6
ByLayer
370
13
48
1
60
0
100
AcDbLine
10
50.54
20
-7.157443
30
0
11
50.537469
21
-7.157443
31
0
39
0
210
0
220
0
230
1
0
LINE
5
1F4
100
AcDbEntity
8
1
62
256
6
ByLayer
370
18
48
1
60
0
100
AcDbLine
10
50.54
20
-8.121177
30
0
11
50.54
21
-7.533013
31
0
39
0
210
0
220
0
230
1
0
LINE
5
1F5
100
AcDbEntity
8
1
62
256
6
ByLayer
370
18
48
1
60
0
100
AcDbLine
10
41.54
20
-8.121177
30
0
11
41.54
21
-7.533013
31
0
39
0
210
0
220
0
230
1
0
LINE
5
1F6
100
AcDbEntity
8
1
62
256
6
ByLayer
370
13
48
1
60
0
100
AcDbLine
10
41.567258
20
-7.427877
30
0
11
41.54
21
-7.427877
31
0
39
0
210
0
220
0
230
1
0
LINE
5
1F7
100
AcDbEntity
8
1
62
256
6
ByLayer
370
13
48
1
60
0
100
AcDbLine
10
50.54
20
-7.427877
30
0
11
50.508245
21
-7.427877
31
0
39
0
210
0
220
0
230
1
0
LINE
5
1F8
100
AcDbEntity
8
1
62
256
6
ByLayer
370
13
48
1
60
0
100
AcDbLine
10
41.592458
20
-7.533013
30
0
11
41.54
21
-7.533013
31
0
39
0
210
0
220
0
230
1
0
LINE
5
1F9
100
AcDbEntity
8
1
62
256
6
ByLayer
370
13
48
1
60
0
100
AcDbLine
10
50.54
20
-7.533013
30
0
11
50.483661
21
-7.533013
31
0
39
0
210
0
220
0
230
1
0
LINE
5
1FA
100
AcDbEntity
8
1
62
256
6
ByLayer
370
18
48
1
60
0
100
AcDbLine
10
50.54
20
-8.121177
30
0
11
50.54
21
-14.91895
31
0
39
0
210
0
220
0
230
1
0
LINE
5
1FB
100
AcDbEntity
8
1
62
256
6
ByLayer
370
13
48
1
60
0
100
AcDbLine
10
50.539691
20
-8.22289
30
0
11
50.522256
21
-8.22289
31
0
39
0
210
0
220
0
230
1
0
LINE
5
1FC
100
AcDbEntity
8
1
62
256
6
ByLayer
370
13
48
1
60
0
100
AcDbLine
10
41.557744
20
-8.22289
30
0
11
41.540309
21
-8.22289
31
0
39
0
210
0
220
0
230
1
0
LINE
5
1FD
100
AcDbEntity
8
1
62
256
6
ByLayer
370
13
48
1
60
0
100
AcDbLine
10
41.706313
20
-7.745902
30
0
11
41.618164
21
-7.745902
31
0
39
0
210
0
220
0
230
1
0
LINE
5
1FE
100
AcDbEntity
8
1
62
256
6
ByLayer
370
13
48
1
60
0
100
AcDbLine
10
50.461836
20
-7.745902
30
0
11
50.368703
21
-7.745902
31
0
39
0
210
0
220
0
230
1
0
LINE
5
1FF
100
AcDbEntity
8
1
62
256
6
ByLayer
370
13
48
1
60
0
100
AcDbLine
10
50.41218
20
-7.803447
30
0
11
50.359364
21
-7.803447
31
0
39
0
210
0
220
0
230
1
0
LINE
5
200
100
AcDbEntity
8
1
62
256
6
ByLayer
370
13
48
1
60
0
100
AcDbLine
10
41.715664
20
-7.803447
30
0
11
41.66782
21
-7.803447
31
0
39
0
210
0
220
0
230
1
0
LINE
5
201
100
AcDbEntity
8
1
62
256
6
ByLayer
370
13
48
1
60
0
100
AcDbLine
10
50.37848
20
-7.908583
30
0
11
50.342274
21
-7.908583
31
0
39
0
210
0
220
0
230
1
0
LINE
5
202
100
AcDbEntity
8
1
62
256
6
ByLayer
370
13
48
1
60
0
100
AcDbLine
10
41.732705
20
-7.908583
30
0
11
41.70152
21
-7.908583
31
0
39
0
210
0
220
0
230
1
0
LINE
5
203
100
AcDbEntity
8
1
62
256
6
ByLayer
370
13
48
1
60
0
100
AcDbLine
10
50.263611
20
-8.59846
30
0
11
50.119698
21
-8.59846
31
0
39
0
210
0
220
0
230
1
0
LINE
5
204
100
AcDbEntity
8
1
62
256
6
ByLayer
370
13
48
1
60
0
100
AcDbLine
10
41.960302
20
-8.59846
30
0
11
41.816389
21
-8.59846
31
0
39
0
210
0
220
0
230
1
0
LINE
5
205
100
AcDbEntity
8
1
62
256
6
ByLayer
370
13
48
1
60
0
100
AcDbLine
10
42.540414
20
-8.121472
30
0
11
42.193264
21
-8.121472
31
0
39
0
210
0
220
0
230
1
0
LINE
5
206
100
AcDbEntity
8
1
62
256
6
ByLayer
370
13
48
1
60
0
100
AcDbLine
10
49.886736
20
-8.121472
30
0
11
49.534578
21
-8.121472
31
0
39
0
210
0
220
0
230
1
0
LINE
5
207
100
AcDbEntity
8
1
62
256
6
ByLayer
370
13
48
1
60
0
100
AcDbLine
10
42.568516
20
-8.179017
30
0
11
42.34254
21
-8.179017
31
0
39
0
210
0
220
0
230
1
0
LINE
5
208
100
AcDbEntity
8
1
62
256
6
ByLayer
370
13
48
1
60
0
100
AcDbLine
10
49.73746
20
-8.179017
30
0
11
49.506459
21
-8.179017
31
0
39
0
210
0
220
0
230
1
0
LINE
5
209
100
AcDbEntity
8
1
62
256
6
ByLayer
370
13
48
1
60
0
100
AcDbLine
10
42.619875
20
-8.284153
30
0
11
42.43612
21
-8.284153
31
0
39
0
210
0
220
0
230
1
0
LINE
5
20A
100
AcDbEntity
8
1
62
256
6
ByLayer
370
13
48
1
60
0
100
AcDbLine
10
49.64388
20
-8.284153
30
0
11
49.455139
21
-8.284153
31
0
39
0
210
0
220
0
230
1
0
LINE
5
20B
100
AcDbEntity
8
1
62
256
6
ByLayer
370
13
48
1
60
0
100
AcDbLine
10
49.34614
20
-8.97403
30
0
11
48.989123
21
-8.97403
31
0
39
0
210
0
220
0
230
1
0
LINE
5
20C
100
AcDbEntity
8
1
62
256
6
ByLayer
370
13
48
1
60
0
100
AcDbLine
10
43.090877
20
-8.97403
30
0
11
42.73386
21
-8.97403
31
0
39
0
210
0
220
0
230
1
0
LINE
5
20D
100
AcDbEntity
8
1
62
256
6
ByLayer
370
18
48
1
60
0
100
AcDbLine
10
50.461836
20
-7.745902
30
0
11
50.468767
21
-7.741124
31
0
39
0
210
0
220
0
230
1
0
LINE
5
20E
100
AcDbEntity
8
1
62
256
6
ByLayer
370
13
48
1
60
0
100
AcDbLine
10
48.394171
20
-8.497042
30
0
11
43.685829
21
-8.497042
31
0
39
0
210
0
220
0
230
1
0
LINE
5
20F
100
AcDbEntity
8
1
62
256
6
ByLayer
370
13
48
1
60
0
100
AcDbLine
10
47.970406
20
-8.554587
30
0
11
44.109594
21
-8.554587
31
0
39
0
210
0
220
0
230
1
0
LINE
5
210
100
AcDbEntity
8
1
62
256
6
ByLayer
370
13
48
1
60
0
100
AcDbLine
10
47.668956
20
-8.659723
30
0
11
44.411044
21
-8.659723
31
0
39
0
210
0
220
0
230
1
0
LINE
5
211
100
AcDbEntity
8
1
62
256
6
ByLayer
370
18
48
1
60
0
100
AcDbLine
10
41.54
20
15.936286
30
0
11
41.54
21
15.711822
31
0
39
0
210
0
220
0
230
1
0
LINE
5
212
100
AcDbEntity
8
1
62
256
6
ByLayer
370
18
48
1
60
0
100
AcDbLine
10
50.54
20
15.936286
30
0
11
50.54
21
15.711822
31
0
39
0
210
0
220
0
230
1
0
LINE
5
213
100
AcDbEntity
8
1
62
256
6
ByLayer
370
18
48
1
60
0
100
AcDbLine
10
45.171475
20
10.361687
30
0
11
44.454771
21
9.15986
31
0
39
0
210
0
220
0
230
1
0
LINE
5
214
100
AcDbEntity
8
1
62
256
6
ByLayer
370
18
48
1
60
0
100
AcDbLine
10
41.611254
20
-7.741124
30
0
11
41.618164
21
-7.745902
31
0
39
0
210
0
220
0
230
1
0
LINE
5
215
100
AcDbEntity
8
1
62
256
6
ByLayer
370
18
48
1
60
0
100
AcDbLine
10
41.54
20
-14.91895
30
0
11
41.54
21
-8.121177
31
0
39
0
210
0
220
0
230
1
0
LINE
5
216
100
AcDbEntity
8
1
62
256
6
ByLayer
370
18
48
1
60
0
100
AcDbLine
10
45.171475
20
10.361687
30
0
11
46.903525
21
10.361687
31
0
39
0
210
0
220
0
230
1
0
LINE
5
217
100
AcDbEntity
8
1
62
256
6
ByLayer
370
18
48
1
60
0
100
AcDbLine
10
45.171475
20
10.862447
30
0
11
45.171475
21
10.361687
31
0
39
0
210
0
220
0
230
1
0
LINE
5
218
100
AcDbEntity
8
1
62
256
6
ByLayer
370
18
48
1
60
0
100
AcDbLine
10
46.903525
20
10.862447
30
0
11
46.903525
21
10.361687
31
0
39
0
210
0
220
0
230
1
0
LINE
5
219
100
AcDbEntity
8
1
62
256
6
ByLayer
370
18
48
1
60
0
100
AcDbLine
10
47.620229
20
9.15986
30
0
11
46.903525
21
10.361687
31
0
39
0
210
0
220
0
230
1
0
LINE
5
21A
100
AcDbEntity
8
1
62
256
6
ByLayer
370
18
48
1
60
0
100
AcDbLine
10
46.903525
20
10.862447
30
0
11
45.171475
21
10.862447
31
0
39
0
210
0
220
0
230
1
0
LINE
5
21B
100
AcDbEntity
8
1
62
256
6
ByLayer
370
18
48
1
60
0
100
AcDbLine
10
46.903525
20
10.862447
30
0
11
47.769551
21
9.410226
31
0
39
0
210
0
220
0
230
1
0
LINE
5
21C
100
AcDbEntity
8
1
62
256
6
ByLayer
370
18
48
1
60
0
100
AcDbLine
10
46.903525
20
7.958004
30
0
11
47.769551
21
9.410226
31
0
39
0
210
0
220
0
230
1
0
LINE
5
21D
100
AcDbEntity
8
1
62
256
6
ByLayer
370
18
48
1
60
0
100
AcDbLine
10
45.171475
20
7.958004
30
0
11
46.903525
21
7.958004
31
0
39
0
210
0
220
0
230
1
0
LINE
5
21E
100
AcDbEntity
8
1
62
256
6
ByLayer
370
18
48
1
60
0
100
AcDbLine
10
45.171475
20
7.958004
30
0
11
44.305449
21
9.410226
31
0
39
0
210
0
220
0
230
1
0
LINE
5
21F
100
AcDbEntity
8
1
62
256
6
ByLayer
370
18
48
1
60
0
100
AcDbLine
10
44.305449
20
9.410226
30
0
11
45.171475
21
10.862447
31
0
39
0
210
0
220
0
230
1
0
LINE
5
220
100
AcDbEntity
8
1
62
256
6
ByLayer
370
18
48
1
60
0
100
AcDbLine
10
50.54
20
25.42425
30
0
11
50.54
21
25.419472
31
0
39
0
210
0
220
0
230
1
0
LINE
5
221
100
AcDbEntity
8
1
62
256
6
ByLayer
370
18
48
1
60
0
100
AcDbLine
10
41.54
20
25.42425
30
0
11
41.54
21
25.419472
31
0
39
0
210
0
220
0
230
1
0
LINE
5
222
100
AcDbEntity
8
1
62
256
6
ByLayer
370
18
48
1
60
0
100
AcDbLine
10
50.537469
20
10.286636
30
0
11
50.54
21
10.286636
31
0
39
0
210
0
220
0
230
1
0
LINE
5
223
100
AcDbEntity
8
1
62
256
6
ByLayer
370
18
48
1
60
0
100
AcDbLine
10
50.537469
20
4.955466
30
0
11
50.54
21
4.955466
31
0
39
0
210
0
220
0
230
1
0
LINE
5
224
100
AcDbEntity
8
1
62
256
6
ByLayer
370
18
48
1
60
0
100
AcDbLine
10
50.5375
20
4.723789
30
0
11
50.5375
21
10.7321
31
0
39
0
210
0
220
0
230
1
0
LINE
5
225
100
AcDbEntity
8
1
62
256
6
ByLayer
370
18
48
1
60
0
100
AcDbLine
10
41.540031
20
-15.310161
30
0
11
41.5375
21
-15.310161
31
0
39
0
210
0
220
0
230
1
0
LINE
5
226
100
AcDbEntity
8
1
62
256
6
ByLayer
370
18
48
1
60
0
100
AcDbLine
10
41.5375
20
-15.098037
30
0
11
41.5375
21
-15.310161
31
0
39
0
210
0
220
0
230
1
0
LINE
5
227
100
AcDbEntity
8
1
62
256
6
ByLayer
370
18
48
1
60
0
100
AcDbLine
10
50.54
20
10.732269
30
0
11
50.54
21
10.286636
31
0
39
0
210
0
220
0
230
1
0
LINE
5
228
100
AcDbEntity
8
1
62
256
6
ByLayer
370
18
48
1
60
0
100
AcDbLine
10
50.54
20
4.955466
30
0
11
50.54
21
4.916484
31
0
39
0
210
0
220
0
230
1
0
LINE
5
229
100
AcDbEntity
8
1
62
256
6
ByLayer
370
18
48
1
60
0
100
AcDbLine
10
41.5625
20
13.54266
30
0
11
41.5625
21
13.712354
31
0
39
0
210
0
220
0
230
1
0
LINE
5
22A
100
AcDbEntity
8
1
62
256
6
ByLayer
370
18
48
1
60
0
100
AcDbLine
10
50.54
20
8.201203
30
0
11
50.54
21
10.286636
31
0
39
0
210
0
220
0
230
1
0
LINE
5
22B
100
AcDbEntity
8
1
62
256
6
ByLayer
370
18
48
1
60
0
100
AcDbLine
10
50.54
20
8.201203
30
0
11
50.54
21
4.955466
31
0
39
0
210
0
220
0
230
1
0
LINE
5
22C
100
AcDbEntity
8
80
62
256
6
ByLayer
370
18
48
1
60
0
100
AcDbLine
10
0
20
0
30
0
11
-5
21
0
31
0
39
0
210
0
220
0
230
1
0
LINE
5
22D
100
AcDbEntity
8
4
62
256
6
ByLayer
370
18
48
0.05
60
0
100
AcDbLine
10
0
20
0
30
0
11
53.8
21
0
31
0
39
0
210
0
220
0
230
1
0
LINE
5
22F
100
AcDbEntity
8
SK4
62
256
6
ByLayer
370
18
48
0.05
60
0
100
AcDbLine
10
-3
20
0
30
0
11
53.8
21
0
31
0
39
0
210
0
220
0
230
1
0
LINE
5
231
100
AcDbEntity
8
1
62
256
6
ByLayer
370
18
48
1
60
0
100
AcDbLine
10
50.539995
20
-19.370122
30
0
11
50.556204
21
-19.266575
31
0
39
0
210
0
220
0
230
1
0
LINE
5
232
100
AcDbEntity
8
1
62
256
6
ByLayer
370
18
48
1
60
0
100
AcDbLine
10
50.73338
20
-18.134732
30
0
11
50.780536
21
-17.833488
31
0
39
0
210
0
220
0
230
1
0
LINE
5
233
100
AcDbEntity
8
1
62
256
6
ByLayer
370
18
48
1
60
0
100
AcDbLine
10
50.537469
20
4.360994
30
0
11
50.54
21
4.360994
31
0
39
0
210
0
220
0
230
1
0
LINE
5
234
100
AcDbEntity
8
1
62
256
6
ByLayer
370
18
48
1
60
0
100
AcDbLine
10
41.719494
20
-15.322434
30
0
11
41.283364
21
-18.611733
31
0
39
0
210
0
220
0
230
1
0
LINE
5
235
100
AcDbEntity
8
1
62
256
6
ByLayer
370
18
48
1
60
0
100
AcDbLine
10
50.796636
20
-18.611733
30
0
11
50.360506
21
-15.322434
31
0
39
0
210
0
220
0
230
1
0
LINE
5
236
100
AcDbEntity
8
1
62
256
6
ByLayer
370
18
48
1
60
0
100
AcDbLine
10
44.968406
20
36.019692
30
0
11
44.968406
21
36.15328
31
0
39
0
210
0
220
0
230
1
0
LINE
5
237
100
AcDbEntity
8
1
62
256
6
ByLayer
370
18
48
1
60
0
100
AcDbLine
10
47.111594
20
36.15328
30
0
11
47.111594
21
36.019692
31
0
39
0
210
0
220
0
230
1
0
LINE
5
238
100
AcDbEntity
8
1
62
256
6
ByLayer
370
18
48
1
60
0
100
AcDbLine
10
43.64
20
36.136543
30
0
11
43.64
21
36.082319
31
0
39
0
210
0
220
0
230
1
0
LINE
5
239
100
AcDbEntity
8
1
62
256
6
ByLayer
370
18
48
1
60
0
100
AcDbLine
10
48.44
20
36.082319
30
0
11
48.44
21
36.136543
31
0
39
0
210
0
220
0
230
1
0
LINE
5
23A
100
AcDbEntity
8
1
62
256
6
ByLayer
370
18
48
1
60
0
100
AcDbLine
10
50.54
20
25.42425
30
0
11
50.527785
21
25.42425
31
0
39
0
210
0
220
0
230
1
0
LINE
5
23B
100
AcDbEntity
8
1
62
256
6
ByLayer
370
18
48
1
60
0
100
AcDbLine
10
41.552258
20
25.42425
30
0
11
41.54
21
25.42425
31
0
39
0
210
0
220
0
230
1
0
LINE
5
23C
100
AcDbEntity
8
1
62
256
6
ByLayer
370
18
48
1
60
0
100
AcDbLine
10
41.730008
20
26.494126
30
0
11
41.69496
21
26.494126
31
0
39
0
210
0
220
0
230
1
0
LINE
5
23D
100
AcDbEntity
8
1
62
256
6
ByLayer
370
18
48
1
60
0
100
AcDbLine
10
50.385086
20
26.494126
30
0
11
50.345005
21
26.494126
31
0
39
0
210
0
220
0
230
1
0
LINE
5
23E
100
AcDbEntity
8
1
62
256
6
ByLayer
370
18
48
1
60
0
100
AcDbLine
10
49.661862
20
27.564001
30
0
11
49.463331
21
27.564001
31
0
39
0
210
0
220
0
230
1
0
LINE
5
23F
100
AcDbEntity
8
1
62
256
6
ByLayer
370
18
48
1
60
0
100
AcDbLine
10
42.611677
20
27.564001
30
0
11
42.418491
21
27.564001
31
0
39
0
210
0
220
0
230
1
0
LINE
5
240
100
AcDbEntity
8
1
62
256
6
ByLayer
370
18
48
1
60
0
100
AcDbLine
10
47.727702
20
28.633877
30
0
11
44.348316
21
28.633877
31
0
39
0
210
0
220
0
230
1
0
LINE
5
241
100
AcDbEntity
8
1
62
256
6
ByLayer
370
18
48
1
60
0
100
AcDbLine
10
47.111594
20
18.484965
30
0
11
47.111594
21
18.113732
31
0
39
0
210
0
220
0
230
1
0
LINE
5
242
100
AcDbEntity
8
1
62
256
6
ByLayer
370
18
48
1
60
0
100
AcDbLine
10
44.968406
20
18.113732
30
0
11
44.968406
21
18.484965
31
0
39
0
210
0
220
0
230
1
0
LINE
5
243
100
AcDbEntity
8
1
62
256
6
ByLayer
370
18
48
1
60
0
100
AcDbLine
10
48.44
20
18.208494
30
0
11
48.44
21
18.293275
31
0
39
0
210
0
220
0
230
1
0
LINE
5
244
100
AcDbEntity
8
1
62
256
6
ByLayer
370
18
48
1
60
0
100
AcDbLine
10
43.64
20
18.293275
30
0
11
43.64
21
18.208494
31
0
39
0
210
0
220
0
230
1
0
LINE
5
245
100
AcDbEntity
8
1
62
256
6
ByLayer
370
18
48
1
60
0
100
AcDbLine
10
50.733383
20
18.134678
30
0
11
50.796636
21
18.611733
31
0
39
0
210
0
220
0
230
1
0
LINE
5
246
100
AcDbEntity
8
1
62
256
6
ByLayer
370
18
48
1
60
0
100
AcDbLine
10
50.537469
20
-20.074872
30
0
11
50.54
21
-20.074872
31
0
39
0
210
0
220
0
230
1
0
LINE
5
247
100
AcDbEntity
8
1
62
256
6
ByLayer
370
18
48
1
60
0
100
AcDbLine
10
24.545605
20
-18.73445
30
0
11
40.7375
21
-18.73445
31
0
39
0
210
0
220
0
230
1
0
LINE
5
248
100
AcDbEntity
8
1
62
256
6
ByLayer
370
18
48
1
60
0
100
AcDbLine
10
40.7375
20
18.73445
30
0
11
24.545605
21
18.73445
31
0
39
0
210
0
220
0
230
1
0
LINE
5
249
100
AcDbEntity
8
1
62
256
6
ByLayer
370
18
48
1
60
0
100
AcDbLine
10
0.4
20
24.5
30
0
11
0
21
24.5
31
0
39
0
210
0
220
0
230
1
0
LINE
5
24A
100
AcDbEntity
8
1
62
256
6
ByLayer
370
18
48
1
60
0
100
AcDbLine
10
0
20
-24.5
30
0
11
0.4
21
-24.5
31
0
39
0
210
0
220
0
230
1
0
LINE
5
24B
100
AcDbEntity
8
1
62
256
6
ByLayer
370
18
48
1
60
0
100
AcDbLine
10
0.9
20
25.5
30
0
11
0.4
21
25
31
0
39
0
210
0
220
0
230
1
0
LINE
5
24C
100
AcDbEntity
8
1
62
256
6
ByLayer
370
18
48
1
60
0
100
AcDbLine
10
0.4
20
-25
30
0
11
0.9
21
-25.5
31
0
39
0
210
0
220
0
230
1
0
LINE
5
24D
100
AcDbEntity
8
1
62
256
6
ByLayer
370
18
48
1
60
0
100
AcDbLine
10
23.186144
20
19.600523
30
0
11
20.435172
21
25.5
31
0
39
0
210
0
220
0
230
1
0
LINE
5
24E
100
AcDbEntity
8
1
62
256
6
ByLayer
370
18
48
1
60
0
100
AcDbLine
10
20.435172
20
-25.5
30
0
11
23.186144
21
-19.600523
31
0
39
0
210
0
220
0
230
1
0
LINE
5
24F
100
AcDbEntity
8
1
62
256
6
ByLayer
370
18
48
1
60
0
100
AcDbLine
10
0.9
20
-25.5
30
0
11
20.435172
21
-25.5
31
0
39
0
210
0
220
0
230
1
0
LINE
5
250
100
AcDbEntity
8
1
62
256
6
ByLayer
370
18
48
1
60
0
100
AcDbLine
10
20.435172
20
25.5
30
0
11
0.9
21
25.5
31
0
39
0
210
0
220
0
230
1
0
LINE
5
251
100
AcDbEntity
8
1
62
256
6
ByLayer
370
18
48
1
60
0
100
AcDbLine
10
46.454243
20
-21.313132
30
0
11
46.593157
21
-21.294781
31
0
39
0
210
0
220
0
230
1
0
LINE
5
252
100
AcDbEntity
8
1
62
256
6
ByLayer
370
18
48
1
60
0
100
AcDbLine
10
45.481843
20
-21.294781
30
0
11
45.620757
21
-21.313132
31
0
39
0
210
0
220
0
230
1
0
LINE
5
253
100
AcDbEntity
8
1
62
256
6
ByLayer
370
18
48
1
60
0
100
AcDbLine
10
50.54
20
-4.360994
30
0
11
50.537469
21
-4.360994
31
0
39
0
210
0
220
0
230
1
0
LINE
5
254
100
AcDbEntity
8
1
62
256
6
ByLayer
370
18
48
1
60
0
100
AcDbLine
10
50.54
20
-4.736564
30
0
11
50.537469
21
-4.736564
31
0
39
0
210
0
220
0
230
1
0
LINE
5
255
100
AcDbEntity
8
1
62
256
6
ByLayer
370
18
48
1
60
0
100
AcDbLine
10
50.54
20
-5.112134
30
0
11
50.537469
21
-5.112134
31
0
39
0
210
0
220
0
230
1
0
LINE
5
256
100
AcDbEntity
8
1
62
256
6
ByLayer
370
18
48
1
60
0
100
AcDbLine
10
50.54
20
-5.487704
30
0
11
50.537469
21
-5.487704
31
0
39
0
210
0
220
0
230
1
0
LINE
5
257
100
AcDbEntity
8
1
62
256
6
ByLayer
370
18
48
1
60
0
100
AcDbLine
10
50.54
20
-5.863274
30
0
11
50.537469
21
-5.863274
31
0
39
0
210
0
220
0
230
1
0
LINE
5
258
100
AcDbEntity
8
1
62
256
6
ByLayer
370
18
48
1
60
0
100
AcDbLine
10
50.54
20
-6.238844
30
0
11
50.537469
21
-6.238844
31
0
39
0
210
0
220
0
230
1
0
LINE
5
259
100
AcDbEntity
8
1
62
256
6
ByLayer
370
18
48
1
60
0
100
AcDbLine
10
50.54
20
-6.614414
30
0
11
50.537469
21
-6.614414
31
0
39
0
210
0
220
0
230
1
0
LINE
5
25A
100
AcDbEntity
8
1
62
256
6
ByLayer
370
18
48
1
60
0
100
AcDbLine
10
50.54
20
-6.989984
30
0
11
50.537469
21
-6.989984
31
0
39
0
210
0
220
0
230
1
0
LINE
5
25B
100
AcDbEntity
8
1
62
256
6
ByLayer
370
18
48
1
60
0
100
AcDbLine
10
41.705551
20
-7.741124
30
0
11
41.61139
21
-7.741124
31
0
39
0
210
0
220
0
230
1
0
LINE
5
25C
100
AcDbEntity
8
1
62
256
6
ByLayer
370
18
48
1
60
0
100
AcDbLine
10
50.468657
20
-7.741124
30
0
11
50.369455
21
-7.741124
31
0
39
0
210
0
220
0
230
1
0
LINE
5
25D
100
AcDbEntity
8
1
62
256
6
ByLayer
370
18
48
1
60
0
100
AcDbLine
10
49.908875
20
-8.116694
30
0
11
49.53689
21
-8.116694
31
0
39
0
210
0
220
0
230
1
0
LINE
5
25E
100
AcDbEntity
8
1
62
256
6
ByLayer
370
18
48
1
60
0
100
AcDbLine
10
42.538093
20
-8.116694
30
0
11
42.171365
21
-8.116694
31
0
39
0
210
0
220
0
230
1
0
LINE
5
25F
100
AcDbEntity
8
1
62
256
6
ByLayer
370
18
48
1
60
0
100
AcDbLine
10
48.450524
20
-8.492264
30
0
11
43.626819
21
-8.492264
31
0
39
0
210
0
220
0
230
1
0
LINE
5
260
100
AcDbEntity
8
1
62
256
6
ByLayer
370
18
48
1
60
0
100
AcDbLine
10
41.784671
20
20.933102
30
0
11
41.299464
21
17.833488
31
0
39
0
210
0
220
0
230
1
0
LINE
5
261
100
AcDbEntity
8
1
62
256
6
ByLayer
370
18
48
1
60
0
100
AcDbLine
10
50.780536
20
17.833488
30
0
11
50.295329
21
20.933102
31
0
39
0
210
0
220
0
230
1
0
LINE
5
262
100
AcDbEntity
8
81
62
256
6
ByLayer
370
18
48
1
60
0
100
AcDbLine
10
50.8
20
40.99945
30
0
11
55.8
21
40.99945
31
0
39
0
210
0
220
0
230
1
0
LINE
5
263
100
AcDbEntity
8
2
62
256
6
ByLayer
370
13
48
1
60
0
100
AcDbLine
10
79.15
20
40.99945
30
0
11
79.15
21
-40.99945
31
0
39
0
210
0
220
0
230
1
0
LINE
5
265
100
AcDbEntity
8
2
62
256
6
ByLayer
370
13
48
1
60
0
100
AcDbLine
10
52.3875
20
-40.99945
30
0
11
81.15
21
-40.99945
31
0
39
0
210
0
220
0
230
1
0
LINE
5
266
100
AcDbEntity
8
2
62
256
6
ByLayer
370
13
48
1
60
0
100
AcDbLine
10
52.3875
20
40.99945
30
0
11
81.15
21
40.99945
31
0
39
0
210
0
220
0
230
1
0
LINE
5
267
100
AcDbEntity
8
1
62
256
6
ByLayer
370
18
48
1
60
1
100
AcDbLine
10
79.15
20
-40.99945
30
0
11
78.689216
21
-37.499452
31
0
39
0
210
0
220
0
230
1
0
LINE
5
268
100
AcDbEntity
8
1
62
256
6
ByLayer
370
18
48
1
60
1
100
AcDbLine
10
78.689216
20
-37.499452
30
0
11
79.610784
21
-37.499448
31
0
39
0
210
0
220
0
230
1
0
LINE
5
269
100
AcDbEntity
8
1
62
256
6
ByLayer
370
18
48
1
60
1
100
AcDbLine
10
79.610784
20
-37.499448
30
0
11
79.15
21
-40.99945
31
0
39
0
210
0
220
0
230
1
0
LINE
5
26A
100
AcDbEntity
8
1
62
256
6
ByLayer
370
18
48
1
60
1
100
AcDbLine
10
79.15
20
40.99945
30
0
11
79.610784
21
37.499452
31
0
39
0
210
0
220
0
230
1
0
LINE
5
26B
100
AcDbEntity
8
1
62
256
6
ByLayer
370
18
48
1
60
1
100
AcDbLine
10
79.610784
20
37.499452
30
0
11
78.689216
21
37.499448
31
0
39
0
210
0
220
0
230
1
0
LINE
5
26C
100
AcDbEntity
8
1
62
256
6
ByLayer
370
18
48
1
60
1
100
AcDbLine
10
78.689216
20
37.499448
30
0
11
79.15
21
40.99945
31
0
39
0
210
0
220
0
230
1
0
LINE
5
26D
100
AcDbEntity
8
SK2
62
256
6
ByLayer
370
13
48
1
60
0
100
AcDbLine
10
-14.35
20
12.7
30
0
11
-14.35
21
-12.7
31
0
39
0
210
0
220
0
230
1
0
LINE
5
26F
100
AcDbEntity
8
SK2
62
256
6
ByLayer
370
13
48
1
60
0
100
AcDbLine
10
-1.5875
20
-12.7
30
0
11
-16.35
21
-12.7
31
0
39
0
210
0
220
0
230
1
0
LINE
5
270
100
AcDbEntity
8
SK2
62
256
6
ByLayer
370
13
48
1
60
0
100
AcDbLine
10
-1.5875
20
12.7
30
0
11
-16.35
21
12.7
31
0
39
0
210
0
220
0
230
1
0
LINE
5
271
100
AcDbEntity
8
1
62
256
6
ByLayer
370
18
48
1
60
1
100
AcDbLine
10
-14.35
20
-12.7
30
0
11
-14.810784
21
-9.200002
31
0
39
0
210
0
220
0
230
1
0
LINE
5
272
100
AcDbEntity
8
1
62
256
6
ByLayer
370
18
48
1
60
1
100
AcDbLine
10
-14.810784
20
-9.200002
30
0
11
-13.889216
21
-9.199998
31
0
39
0
210
0
220
0
230
1
0
LINE
5
273
100
AcDbEntity
8
1
62
256
6
ByLayer
370
18
48
1
60
1
100
AcDbLine
10
-13.889216
20
-9.199998
30
0
11
-14.35
21
-12.7
31
0
39
0
210
0
220
0
230
1
0
LINE
5
274
100
AcDbEntity
8
1
62
256
6
ByLayer
370
18
48
1
60
1
100
AcDbLine
10
-14.35
20
12.7
30
0
11
-13.889216
21
9.200002
31
0
39
0
210
0
220
0
230
1
0
LINE
5
275
100
AcDbEntity
8
1
62
256
6
ByLayer
370
18
48
1
60
1
100
AcDbLine
10
-13.889216
20
9.200002
30
0
11
-14.810784
21
9.199998
31
0
39
0
210
0
220
0
230
1
0
LINE
5
276
100
AcDbEntity
8
1
62
256
6
ByLayer
370
18
48
1
60
1
100
AcDbLine
10
-14.810784
20
9.199998
30
0
11
-14.35
21
12.7
31
0
39
0
210
0
220
0
230
1
0
LINE
5
277
100
AcDbEntity
8
SK2
62
256
6
ByLayer
370
13
48
1
60
0
100
AcDbLine
10
-24.35
20
25.5
30
0
11
-24.35
21
-25.5
31
0
39
0
210
0
220
0
230
1
0
LINE
5
278
100
AcDbEntity
8
SK2
62
256
6
ByLayer
370
13
48
1
60
0
100
AcDbLine
10
-1.5875
20
-25.5
30
0
11
-26.35
21
-25.5
31
0
39
0
210
0
220
0
230
1
0
LINE
5
279
100
AcDbEntity
8
SK2
62
256
6
ByLayer
370
13
48
1
60
0
100
AcDbLine
10
-1.5875
20
25.5
30
0
11
-26.35
21
25.5
31
0
39
0
210
0
220
0
230
1
0
LINE
5
27A
100
AcDbEntity
8
1
62
256
6
ByLayer
370
18
48
1
60
1
100
AcDbLine
10
-24.35
20
-25.5
30
0
11
-24.810784
21
-22.000002
31
0
39
0
210
0
220
0
230
1
0
LINE
5
27B
100
AcDbEntity
8
1
62
256
6
ByLayer
370
18
48
1
60
1
100
AcDbLine
10
-24.810784
20
-22.000002
30
0
11
-23.889216
21
-21.999998
31
0
39
0
210
0
220
0
230
1
0
LINE
5
27C
100
AcDbEntity
8
1
62
256
6
ByLayer
370
18
48
1
60
1
100
AcDbLine
10
-23.889216
20
-21.999998
30
0
11
-24.35
21
-25.5
31
0
39
0
210
0
220
0
230
1
0
LINE
5
27D
100
AcDbEntity
8
1
62
256
6
ByLayer
370
18
48
1
60
1
100
AcDbLine
10
-24.35
20
25.5
30
0
11
-23.889216
21
22.000002
31
0
39
0
210
0
220
0
230
1
0
LINE
5
27E
100
AcDbEntity
8
1
62
256
6
ByLayer
370
18
48
1
60
1
100
AcDbLine
10
-23.889216
20
22.000002
30
0
11
-24.810784
21
21.999998
31
0
39
0
210
0
220
0
230
1
0
LINE
5
27F
100
AcDbEntity
8
1
62
256
6
ByLayer
370
18
48
1
60
1
100
AcDbLine
10
-24.810784
20
21.999998
30
0
11
-24.35
21
25.5
31
0
39
0
210
0
220
0
230
1
0
LINE
5
280
100
AcDbEntity
8
SK2
62
256
6
ByLayer
370
13
48
1
60
0
100
AcDbLine
10
69.15
20
18.73445
30
0
11
69.15
21
-18.73445
31
0
39
0
210
0
220
0
230
1
0
LINE
5
281
100
AcDbEntity
8
SK2
62
256
6
ByLayer
370
13
48
1
60
0
100
AcDbLine
10
42.8625
20
-18.73445
30
0
11
71.15
21
-18.73445
31
0
39
0
210
0
220
0
230
1
0
LINE
5
282
100
AcDbEntity
8
SK2
62
256
6
ByLayer
370
13
48
1
60
0
100
AcDbLine
10
42.8625
20
18.73445
30
0
11
71.15
21
18.73445
31
0
39
0
210
0
220
0
230
1
0
LINE
5
283
100
AcDbEntity
8
1
62
256
6
ByLayer
370
18
48
1
60
1
100
AcDbLine
10
69.15
20
-18.73445
30
0
11
68.689216
21
-15.234452
31
0
39
0
210
0
220
0
230
1
0
LINE
5
284
100
AcDbEntity
8
1
62
256
6
ByLayer
370
18
48
1
60
1
100
AcDbLine
10
68.689216
20
-15.234452
30
0
11
69.610784
21
-15.234448
31
0
39
0
210
0
220
0
230
1
0
LINE
5
285
100
AcDbEntity
8
1
62
256
6
ByLayer
370
18
48
1
60
1
100
AcDbLine
10
69.610784
20
-15.234448
30
0
11
69.15
21
-18.73445
31
0
39
0
210
0
220
0
230
1
0
LINE
5
286
100
AcDbEntity
8
1
62
256
6
ByLayer
370
18
48
1
60
1
100
AcDbLine
10
69.15
20
18.73445
30
0
11
69.610784
21
15.234452
31
0
39
0
210
0
220
0
230
1
0
LINE
5
287
100
AcDbEntity
8
1
62
256
6
ByLayer
370
18
48
1
60
1
100
AcDbLine
10
69.610784
20
15.234452
30
0
11
68.689216
21
15.234448
31
0
39
0
210
0
220
0
230
1
0
LINE
5
288
100
AcDbEntity
8
1
62
256
6
ByLayer
370
18
48
1
60
1
100
AcDbLine
10
68.689216
20
15.234448
30
0
11
69.15
21
18.73445
31
0
39
0
210
0
220
0
230
1
0
LINE
5
3EC
100
AcDbEntity
8
1
62
256
6
ByLayer
370
18
48
1
60
1
100
AcDbLine
10
79.15
20
-40.99945
30
0
11
78.689216
21
-37.499452
31
0
39
0
210
0
220
0
230
1
0
LINE
5
3ED
100
AcDbEntity
8
1
62
256
6
ByLayer
370
18
48
1
60
1
100
AcDbLine
10
78.689216
20
-37.499452
30
0
11
79.610784
21
-37.499448
31
0
39
0
210
0
220
0
230
1
0
LINE
5
3EE
100
AcDbEntity
8
1
62
256
6
ByLayer
370
18
48
1
60
1
100
AcDbLine
10
79.610784
20
-37.499448
30
0
11
79.15
21
-40.99945
31
0
39
0
210
0
220
0
230
1
0
LINE
5
3F0
100
AcDbEntity
8
1
62
256
6
ByLayer
370
18
48
1
60
1
100
AcDbLine
10
79.15
20
40.99945
30
0
11
79.610784
21
37.499452
31
0
39
0
210
0
220
0
230
1
0
LINE
5
3F1
100
AcDbEntity
8
1
62
256
6
ByLayer
370
18
48
1
60
1
100
AcDbLine
10
79.610784
20
37.499452
30
0
11
78.689216
21
37.499448
31
0
39
0
210
0
220
0
230
1
0
LINE
5
3F2
100
AcDbEntity
8
1
62
256
6
ByLayer
370
18
48
1
60
1
100
AcDbLine
10
78.689216
20
37.499448
30
0
11
79.15
21
40.99945
31
0
39
0
210
0
220
0
230
1
0
LINE
5
3F6
100
AcDbEntity
8
1
62
256
6
ByLayer
370
18
48
1
60
1
100
AcDbLine
10
-14.35
20
-12.7
30
0
11
-14.810784
21
-9.200002
31
0
39
0
210
0
220
0
230
1
0
LINE
5
3F7
100
AcDbEntity
8
1
62
256
6
ByLayer
370
18
48
1
60
1
100
AcDbLine
10
-14.810784
20
-9.200002
30
0
11
-13.889216
21
-9.199998
31
0
39
0
210
0
220
0
230
1
0
LINE
5
3F8
100
AcDbEntity
8
1
62
256
6
ByLayer
370
18
48
1
60
1
100
AcDbLine
10
-13.889216
20
-9.199998
30
0
11
-14.35
21
-12.7
31
0
39
0
210
0
220
0
230
1
0
LINE
5
3FA
100
AcDbEntity
8
1
62
256
6
ByLayer
370
18
48
1
60
1
100
AcDbLine
10
-14.35
20
12.7
30
0
11
-13.889216
21
9.200002
31
0
39
0
210
0
220
0
230
1
0
LINE
5
3FB
100
AcDbEntity
8
1
62
256
6
ByLayer
370
18
48
1
60
1
100
AcDbLine
10
-13.889216
20
9.200002
30
0
11
-14.810784
21
9.199998
31
0
39
0
210
0
220
0
230
1
0
LINE
5
3FC
100
AcDbEntity
8
1
62
256
6
ByLayer
370
18
48
1
60
1
100
AcDbLine
10
-14.810784
20
9.199998
30
0
11
-14.35
21
12.7
31
0
39
0
210
0
220
0
230
1
0
LINE
5
400
100
AcDbEntity
8
1
62
256
6
ByLayer
370
18
48
1
60
1
100
AcDbLine
10
-24.35
20
-25.5
30
0
11
-24.810784
21
-22.000002
31
0
39
0
210
0
220
0
230
1
0
LINE
5
401
100
AcDbEntity
8
1
62
256
6
ByLayer
370
18
48
1
60
1
100
AcDbLine
10
-24.810784
20
-22.000002
30
0
11
-23.889216
21
-21.999998
31
0
39
0
210
0
220
0
230
1
0
LINE
5
402
100
AcDbEntity
8
1
62
256
6
ByLayer
370
18
48
1
60
1
100
AcDbLine
10
-23.889216
20
-21.999998
30
0
11
-24.35
21
-25.5
31
0
39
0
210
0
220
0
230
1
0
LINE
5
404
100
AcDbEntity
8
1
62
256
6
ByLayer
370
18
48
1
60
1
100
AcDbLine
10
-24.35
20
25.5
30
0
11
-23.889216
21
22.000002
31
0
39
0
210
0
220
0
230
1
0
LINE
5
405
100
AcDbEntity
8
1
62
256
6
ByLayer
370
18
48
1
60
1
100
AcDbLine
10
-23.889216
20
22.000002
30
0
11
-24.810784
21
21.999998
31
0
39
0
210
0
220
0
230
1
0
LINE
5
406
100
AcDbEntity
8
1
62
256
6
ByLayer
370
18
48
1
60
1
100
AcDbLine
10
-24.810784
20
21.999998
30
0
11
-24.35
21
25.5
31
0
39
0
210
0
220
0
230
1
0
LINE
5
40A
100
AcDbEntity
8
1
62
256
6
ByLayer
370
18
48
1
60
1
100
AcDbLine
10
69.15
20
-18.73445
30
0
11
68.689216
21
-15.234452
31
0
39
0
210
0
220
0
230
1
0
LINE
5
40B
100
AcDbEntity
8
1
62
256
6
ByLayer
370
18
48
1
60
1
100
AcDbLine
10
68.689216
20
-15.234452
30
0
11
69.610784
21
-15.234448
31
0
39
0
210
0
220
0
230
1
0
LINE
5
40C
100
AcDbEntity
8
1
62
256
6
ByLayer
370
18
48
1
60
1
100
AcDbLine
10
69.610784
20
-15.234448
30
0
11
69.15
21
-18.73445
31
0
39
0
210
0
220
0
230
1
0
LINE
5
40E
100
AcDbEntity
8
1
62
256
6
ByLayer
370
18
48
1
60
1
100
AcDbLine
10
69.15
20
18.73445
30
0
11
69.610784
21
15.234452
31
0
39
0
210
0
220
0
230
1
0
LINE
5
40F
100
AcDbEntity
8
1
62
256
6
ByLayer
370
18
48
1
60
1
100
AcDbLine
10
69.610784
20
15.234452
30
0
11
68.689216
21
15.234448
31
0
39
0
210
0
220
0
230
1
0
LINE
5
410
100
AcDbEntity
8
1
62
256
6
ByLayer
370
18
48
1
60
1
100
AcDbLine
10
68.689216
20
15.234448
30
0
11
69.15
21
18.73445
31
0
39
0
210
0
220
0
230
1
0
MTEXT
5
3E8
100
AcDbEntity
8
2
62
256
6
ByLayer
370
18
48
1
60
0
100
AcDbMText
10
77.361847
20
-5.177854
30
0
210
0
220
0
230
1
1
%%c
40
4
41
0
44
1.084337
50
90
71
7
72
5
7
iso_b_vert
0
MTEXT
5
3EB
100
AcDbEntity
8
2
62
256
6
ByLayer
370
18
48
1
60
0
100
AcDbMText
10
77.361847
20
2.790896
30
0
210
0
220
0
230
1
1
\W0.6740;82
40
4
41
0
44
1.084337
50
90
71
7
72
5
7
iso_b_vert
0
MTEXT
5
3F4
100
AcDbEntity
8
SK2
62
256
6
ByLayer
370
18
48
1
60
0
100
AcDbMText
10
-16.138153
20
-7.693282
30
0
210
0
220
0
230
1
1
%%c
40
4
41
0
44
1.084337
50
90
71
7
72
5
7
iso_b_vert
0
MTEXT
5
3F5
100
AcDbEntity
8
SK2
62
256
6
ByLayer
370
18
48
1
60
0
100
AcDbMText
10
-16.138153
20
0.275468
30
0
210
0
220
0
230
1
1
\W0.7528;25.4
40
4
41
0
44
1.084337
50
90
71
7
72
5
7
iso_b_vert
0
MTEXT
5
3FE
100
AcDbEntity
8
SK2
62
256
6
ByLayer
370
18
48
1
60
0
100
AcDbMText
10
-26.138153
20
-4.677931
30
0
210
0
220
0
230
1
1
%%c
40
4
41
0
44
1.084337
50
90
71
7
72
5
7
iso_b_vert
0
MTEXT
5
3FF
100
AcDbEntity
8
SK2
62
256
6
ByLayer
370
18
48
1
60
0
100
AcDbMText
10
-26.138153
20
3.290819
30
0
210
0
220
0
230
1
1
\W0.6351;51
40
4
41
0
44
1.084337
50
90
71
7
72
5
7
iso_b_vert
0
MTEXT
5
408
100
AcDbEntity
8
SK2
62
256
6
ByLayer
370
18
48
1
60
0
100
AcDbMText
10
67.361847
20
-9.187834
30
0
210
0
220
0
230
1
1
%%c
40
4
41
0
44
1.084337
50
90
71
7
72
5
7
iso_b_vert
0
MTEXT
5
409
100
AcDbEntity
8
SK2
62
256
6
ByLayer
370
18
48
1
60
0
100
AcDbMText
10
67.361847
20
-1.219084
30
0
210
0
220
0
230
1
1
\W0.7694;37.47
40
4
41
0
44
1.084337
50
90
71
7
72
5
7
iso_b_vert
0
MTEXT
5
412
100
AcDbEntity
8
SK6
62
256
6
ByLayer
370
13
48
1
60
0
100
AcDbMText
10
25.5855
20
-75.201393
30
0
210
0
220
0
230
1
1
\W0.7680;R331.32C-082R25EMQ
40
3.5
41
0
44
1.084337
50
0
71
7
72
5
7
iso_b_vert
0
HATCH
5
3EF
100
AcDbEntity
8
2
62
256
6
ByLayer
370
13
48
1
60
0
100
AcDbHatch
10
0
20
0
30
0
210
0
220
0
230
1
2
ANSI31
70
0
71
0
91
1
92
5
93
3
72
1
10
79.15
20
-40.99945
11
78.6892162584472
21
-37.4994516925532
72
1
10
78.6892162584472
20
-37.4994516925532
11
79.6107837415527
21
-37.4994483074468
72
1
10
79.6107837415527
20
-37.4994483074468
11
79.15
21
-40.99945
97
0
75
0
76
1
52
0
41
0.0062
77
0
78
1
53
44.9999999999999
43
0
44
0
45
-0.0139193969876572
46
0.0139193969876572
79
0
47
0
98
1
10
0
20
0
0
HATCH
5
3F3
100
AcDbEntity
8
2
62
256
6
ByLayer
370
13
48
1
60
0
100
AcDbHatch
10
0
20
0
30
0
210
0
220
0
230
1
2
ANSI31
70
0
71
0
91
1
92
5
93
3
72
1
10
79.15
20
40.99945
11
79.6107837415527
21
37.4994516925532
72
1
10
79.6107837415527
20
37.4994516925532
11
78.6892162584472
21
37.4994483074468
72
1
10
78.6892162584472
20
37.4994483074468
11
79.15
21
40.99945
97
0
75
0
76
1
52
0
41
0.0062
77
0
78
1
53
44.9999999999999
43
0
44
0
45
-0.0139193969876572
46
0.0139193969876572
79
0
47
0
98
1
10
0
20
0
0
HATCH
5
3F9
100
AcDbEntity
8
SK2
62
256
6
ByLayer
370
13
48
1
60
0
100
AcDbHatch
10
0
20
0
30
0
210
0
220
0
230
1
2
ANSI31
70
0
71
0
91
1
92
5
93
3
72
1
10
-14.35
20
-12.7000000000001
11
-14.8107837415528
21
-9.20000169255326
72
1
10
-14.8107837415528
20
-9.20000169255326
11
-13.8892162584473
21
-9.19999830744683
72
1
10
-13.8892162584473
20
-9.19999830744683
11
-14.35
21
-12.7000000000001
97
0
75
0
76
1
52
0
41
0.0062
77
0
78
1
53
44.9999999999999
43
0
44
0
45
-0.0139193969876572
46
0.0139193969876572
79
0
47
0
98
1
10
0
20
0
0
HATCH
5
3FD
100
AcDbEntity
8
SK2
62
256
6
ByLayer
370
13
48
1
60
0
100
AcDbHatch
10
0
20
0
30
0
210
0
220
0
230
1
2
ANSI31
70
0
71
0
91
1
92
5
93
3
72
1
10
-14.35
20
12.7
11
-13.8892162584473
21
9.2000016925532
72
1
10
-13.8892162584473
20
9.2000016925532
11
-14.8107837415528
21
9.19999830744678
72
1
10
-14.8107837415528
20
9.19999830744678
11
-14.35
21
12.7
97
0
75
0
76
1
52
0
41
0.0062
77
0
78
1
53
44.9999999999999
43
0
44
0
45
-0.0139193969876572
46
0.0139193969876572
79
0
47
0
98
1
10
0
20
0
0
HATCH
5
403
100
AcDbEntity
8
SK2
62
256
6
ByLayer
370
13
48
1
60
0
100
AcDbHatch
10
0
20
0
30
0
210
0
220
0
230
1
2
ANSI31
70
0
71
0
91
1
92
5
93
3
72
1
10
-24.35
20
-25.5
11
-24.8107837415528
21
-22.0000016925532
72
1
10
-24.8107837415528
20
-22.0000016925532
11
-23.8892162584473
21
-21.9999983074468
72
1
10
-23.8892162584473
20
-21.9999983074468
11
-24.35
21
-25.5
97
0
75
0
76
1
52
0
41
0.0062
77
0
78
1
53
44.9999999999999
43
0
44
0
45
-0.0139193969876572
46
0.0139193969876572
79
0
47
0
98
1
10
0
20
0
0
HATCH
5
407
100
AcDbEntity
8
SK2
62
256
6
ByLayer
370
13
48
1
60
0
100
AcDbHatch
10
0
20
0
30
0
210
0
220
0
230
1
2
ANSI31
70
0
71
0
91
1
92
5
93
3
72
1
10
-24.35
20
25.5
11
-23.8892162584473
21
22.0000016925532
72
1
10
-23.8892162584473
20
22.0000016925532
11
-24.8107837415528
21
21.9999983074468
72
1
10
-24.8107837415528
20
21.9999983074468
11
-24.35
21
25.5
97
0
75
0
76
1
52
0
41
0.0062
77
0
78
1
53
44.9999999999999
43
0
44
0
45
-0.0139193969876572
46
0.0139193969876572
79
0
47
0
98
1
10
0
20
0
0
HATCH
5
40D
100
AcDbEntity
8
SK2
62
256
6
ByLayer
370
13
48
1
60
0
100
AcDbHatch
10
0
20
0
30
0
210
0
220
0
230
1
2
ANSI31
70
0
71
0
91
1
92
5
93
3
72
1
10
69.15
20
-18.73445
11
68.6892162584472
21
-15.2344516925533
72
1
10
68.6892162584472
20
-15.2344516925533
11
69.6107837415527
21
-15.2344483074468
72
1
10
69.6107837415527
20
-15.2344483074468
11
69.15
21
-18.73445
97
0
75
0
76
1
52
0
41
0.0062
77
0
78
1
53
44.9999999999999
43
0
44
0
45
-0.0139193969876572
46
0.0139193969876572
79
0
47
0
98
1
10
0
20
0
0
HATCH
5
411
100
AcDbEntity
8
SK2
62
256
6
ByLayer
370
13
48
1
60
0
100
AcDbHatch
10
0
20
0
30
0
210
0
220
0
230
1
2
ANSI31
70
0
71
0
91
1
92
5
93
3
72
1
10
69.15
20
18.73445
11
69.6107837415527
21
15.2344516925532
72
1
10
69.6107837415527
20
15.2344516925532
11
68.6892162584472
21
15.2344483074468
72
1
10
68.6892162584472
20
15.2344483074468
11
69.15
21
18.73445
97
0
75
0
76
1
52
0
41
0.0062
77
0
78
1
53
44.9999999999999
43
0
44
0
45
-0.0139193969876572
46
0.0139193969876572
79
0
47
0
98
1
10
0
20
0
0
DIMENSION
5
415
100
AcDbEntity
8
SK2
62
256
6
ByLayer
370
13
48
1
60
0
100
AcDbDimension
2
_U0
10
24.79
20
-54.318603
30
0
11
37.795
21
-54.318603
31
0
70
32
71
1
72
1
41
1
210
0
220
0
230
1
3
Standard
100
AcDbAlignedDimension
13
50.8
23
-40.99945
33
0
14
24.79
24
-18.73445
34
0
50
0
100
AcDbRotatedDimension
1001
ACAD
1000
DSTYLE
1002
{
1070
   371
1070
    13
1070
   372
1070
    13
1070
   170
1070
     0
1070
   144
1040
1.0
1070
   277
1070
     2
1070
   284
1070
     8
1070
   278
1070
    46
1070
   146
1040
0.875
1070
   345
1005
16
1070
   347
1005
16
1070
   346
1005
16
1070
   344
1005
0
1070
   343
1005
0
1070
   172
1070
     1
1070
    76
1070
     0
1070
    75
1070
     0
1070
   282
1070
     0
1070
   281
1070
     0
1070
    71
1070
     0
1070
    74
1070
     0
1070
   279
1070
     0
1070
   173
1070
     1
1070
   340
1005
3E9
1070
   271
1070
     2
1070
   272
1070
     2
1070
    77
1070
     1
1070
    73
1070
     1
1070
   171
1070
     3
1070
   274
1070
     4
1070
   177
1070
     2
1070
   176
1070
     2
1070
   178
1070
     2
1070
    78
1070
     8
1070
    48
1040
-0.1
1070
    41
1040
3.5
1070
   147
1040
2.0
1070
    42
1040
1.5875
1070
    44
1040
2.0
1070
   140
1040
4.0
1002
}
1001
ACAD_DSTYLE_DIM_LINETYPE
1070
   380
1005
16
1001
ACAD_DSTYLE_DIM_EXT1_LINETYPE
1070
   381
1005
16
1001
ACAD_DSTYLE_DIM_EXT2_LINETYPE
1070
   382
1005
16
0
DIMENSION
5
42E
100
AcDbEntity
8
2
62
256
6
ByLayer
370
13
48
1
60
0
100
AcDbDimension
2
_U1
10
0
20
-64.318603
30
0
11
25.4
21
-64.318603
31
0
70
32
71
1
72
1
41
1
210
0
220
0
230
1
3
Standard
100
AcDbAlignedDimension
13
50.8
23
-40.99945
33
0
14
0
24
-12.7
34
0
50
0
100
AcDbRotatedDimension
1001
ACAD
1000
DSTYLE
1002
{
1070
   371
1070
    13
1070
   372
1070
    13
1070
   170
1070
     0
1070
   144
1040
1.0
1070
   277
1070
     2
1070
   284
1070
     8
1070
   278
1070
    46
1070
   146
1040
0.875
1070
   345
1005
16
1070
   347
1005
16
1070
   346
1005
16
1070
   344
1005
0
1070
   343
1005
0
1070
   172
1070
     1
1070
    76
1070
     0
1070
    75
1070
     0
1070
   282
1070
     0
1070
   281
1070
     0
1070
    71
1070
     0
1070
    74
1070
     0
1070
   279
1070
     0
1070
   173
1070
     1
1070
   340
1005
3E9
1070
   271
1070
     2
1070
   272
1070
     2
1070
    77
1070
     1
1070
    73
1070
     1
1070
   171
1070
     3
1070
   274
1070
     4
1070
   177
1070
     2
1070
   176
1070
     2
1070
   178
1070
     2
1070
    78
1070
     8
1070
    48
1040
-0.1
1070
    41
1040
3.5
1070
   147
1040
2.0
1070
    42
1040
1.5875
1070
    44
1040
2.0
1070
   140
1040
4.0
1002
}
1001
ACAD_DSTYLE_DIM_LINETYPE
1070
   380
1005
16
1001
ACAD_DSTYLE_DIM_EXT1_LINETYPE
1070
   381
1005
16
1001
ACAD_DSTYLE_DIM_EXT2_LINETYPE
1070
   382
1005
16
0
DIMENSION
5
446
100
AcDbEntity
8
SK2
62
256
6
ByLayer
370
13
48
1
60
0
100
AcDbDimension
2
_U2
10
41.275
20
50.34945
30
0
11
69.895238
21
50.34945
31
0
70
32
71
1
72
1
41
1
210
0
220
0
230
1
3
Standard
100
AcDbAlignedDimension
13
50.8
23
40.99945
33
0
14
41.275
24
40.99945
34
0
50
0
100
AcDbRotatedDimension
1001
ACAD
1000
DSTYLE
1002
{
1070
   371
1070
    13
1070
   372
1070
    13
1070
     3
1000

1070
   170
1070
     0
1070
   144
1040
1.0
1070
   277
1070
     2
1070
   284
1070
     8
1070
   278
1070
    46
1070
   146
1040
0.875
1070
   345
1005
16
1070
   347
1005
16
1070
   346
1005
16
1070
   344
1005
0
1070
   343
1005
0
1070
   172
1070
     1
1070
    76
1070
     0
1070
    75
1070
     0
1070
   282
1070
     0
1070
   281
1070
     0
1070
    71
1070
     0
1070
    74
1070
     0
1070
   279
1070
     0
1070
   173
1070
     1
1070
   340
1005
3E9
1070
   271
1070
     2
1070
   272
1070
     2
1070
    77
1070
     1
1070
    73
1070
     1
1070
   171
1070
     3
1070
   274
1070
     4
1070
   177
1070
     2
1070
   176
1070
     2
1070
   178
1070
     2
1070
    78
1070
     8
1070
    48
1040
-0.1
1070
    41
1040
3.5
1070
   147
1040
2.0
1070
    42
1040
1.5875
1070
    44
1040
2.0
1070
   140
1040
4.0
1002
}
1001
ACAD_DSTYLE_DIM_LINETYPE
1070
   380
1005
16
1001
ACAD_DSTYLE_DIM_EXT1_LINETYPE
1070
   381
1005
16
1001
ACAD_DSTYLE_DIM_EXT2_LINETYPE
1070
   382
1005
16
0
ENDSEC
0
SECTION
2
OBJECTS
0
DICTIONARY
5
4cf
330
0
100
AcDbDictionary
280
0
281
1
3
ACAD_GROUP
350
4d0
3
ACAD_MLINESTYLE
350
4d1
0
DICTIONARY
5
4d0
330
0
100
AcDbDictionary
280
0
281
1
0
DICTIONARY
5
4d1
330
0
100
AcDbDictionary
280
0
281
1
3
Standard
350
18
0
MLINESTYLE
5
18
330
4d1
100
AcDbMlineStyle
2
Standard
70
0
3

62
256
51
90
52
90
71
2
49
-0.5
62
256
6
ByLayer
49
0.5
62
256
6
ByLayer
0
RASTERVARIABLES
5
4be
330

100
AcDbRasterVariables
90
0
70
1
71
1
72
1
0
ENDSEC
0
EOF
