0
SECTION
2
HEADER
9
$ACADVER
1
AC1015
9
$DWGCODEPAGE
3
ANSI_1252
9
$HANDSEED
5
4ac
9
$ANGBASE
50
0
9
$ANGDIR
70
0
9
$ATTMODE
70
1
9
$AUNITS
70
0
9
$AUPREC
70
0
9
$CECOLOR
62
256
9
$CELTSCALE
40
1
9
$CELTYPE
6
ByLayer
9
$CELWEIGHT
370
18
9
$CLAYER
8
0
9
$CMLJUST
70
0
9
$CMLSCALE
40
1
9
$CMLSTYLE
2
Standard
9
$DIMSTYLE
2
Standard
9
$TEXTSIZE
40
0.2
9
$TEXTSTYLE
7
Standard
9
$LUNITS
70
2
9
$LUPREC
70
4
9
$EXTNAMES
290
1
9
$INSUNITS
70
4
9
$LTSCALE
40
1
9
$LWDISPLAY
290
1
9
$PDMODE
70
0
9
$PDSIZE
40
0
9
$PLINEGEN
70
0
0
ENDSEC
0
SECTION
2
CLASSES
0
CLASS
1
RASTERVARIABLES
2
AcDbRasterVariables
3
ISM
90
0
280
0
281
0
0
ENDSEC
0
SECTION
2
TABLES
0
TABLE
2
VPORT
5
4a2
100
AcDbSymbolTable
0
VPORT
5
1
100
AcDbSymbolTableRecord
100
AcDbViewportTableRecord
2
*Active
70
0
10
0
20
0
11
1
21
1
12
-1
22
1
13
0
23
0
14
0.5
24
0.5
15
10
25
10
16
0
26
0
36
1
17
0
27
0
37
0
0
ENDTAB
0
TABLE
2
LTYPE
5
4a3
100
AcDbSymbolTable
0
LTYPE
5
14
100
AcDbSymbolTableRecord
100
AcDbLinetypeTableRecord
70
0
2
ByBlock
3

72
65
73
0
40
0
0
LTYPE
5
15
100
AcDbSymbolTableRecord
100
AcDbLinetypeTableRecord
70
0
2
ByLayer
3

72
65
73
0
40
0
0
LTYPE
5
16
100
AcDbSymbolTableRecord
100
AcDbLinetypeTableRecord
70
0
2
CONTINUOUS
3
Solid line
72
65
73
0
40
0
0
LTYPE
5
6A
100
AcDbSymbolTableRecord
100
AcDbLinetypeTableRecord
70
0
2
CENTER
3
____ _ ____ _ ____ _ ____
72
65
73
4
40
47.5
49
22
74
0
49
-8.5
74
0
49
8.5
74
0
49
-8.5
74
0
0
LTYPE
5
6B
100
AcDbSymbolTableRecord
100
AcDbLinetypeTableRecord
70
0
2
DASHED
3
__ __ __ __ __ __ __ __ __
72
65
73
2
40
25.72
49
12.86
74
0
49
-12.86
74
0
0
ENDTAB
0
TABLE
2
LAYER
5
4a4
100
AcDbSymbolTable
0
LAYER
5
10
100
AcDbSymbolTableRecord
100
AcDbLayerTableRecord
2
0
70
0
62
7
6
CONTINUOUS
290
1
370
-3
390
0
0
LAYER
5
6D
100
AcDbSymbolTableRecord
100
AcDbLayerTableRecord
2
81
70
0
62
-3
6
CONTINUOUS
290
1
370
-3
390
0
0
LAYER
5
6F
100
AcDbSymbolTableRecord
100
AcDbLayerTableRecord
2
80
70
0
62
-6
6
CONTINUOUS
290
1
370
-3
390
0
0
LAYER
5
72
100
AcDbSymbolTableRecord
100
AcDbLayerTableRecord
2
1
70
0
62
4
6
CONTINUOUS
290
1
370
-3
390
0
0
LAYER
5
8C
100
AcDbSymbolTableRecord
100
AcDbLayerTableRecord
2
4
70
0
62
-2
6
CENTER
290
1
370
-3
390
0
0
LAYER
5
401
100
AcDbSymbolTableRecord
100
AcDbLayerTableRecord
2
2
70
0
62
7
6
CONTINUOUS
290
1
370
-3
390
0
0
LAYER
5
48f
100
AcDbSymbolTableRecord
100
AcDbLayerTableRecord
2
SK4
70
0
62
2
6
CENTER
290
1
370
-3
390
0
0
LAYER
5
490
100
AcDbSymbolTableRecord
100
AcDbLayerTableRecord
2
SK6
70
0
62
5
6
CONTINUOUS
290
1
370
-3
390
0
0
LAYER
5
491
100
AcDbSymbolTableRecord
100
AcDbLayerTableRecord
2
SK2
70
0
62
7
6
CONTINUOUS
290
1
370
-3
390
0
0
ENDTAB
0
TABLE
2
STYLE
5
4a5
100
AcDbSymbolTable
0
STYLE
5
11
100
AcDbSymbolTableRecord
100
AcDbTextStyleTableRecord
2
Standard
3
txt
70
0
71
0
40
0
41
1
42
0
50
0
0
STYLE
5
3F3
100
AcDbSymbolTableRecord
100
AcDbTextStyleTableRecord
2
iso_b_vert
3
simplex.shx
70
0
71
0
40
0
41
1
42
0
50
0
0
STYLE
5
3F4
100
AcDbSymbolTableRecord
100
AcDbTextStyleTableRecord
2
DWGDirectTextStyle
3
simplex
70
0
71
0
40
0
41
1
42
0
50
0
0
ENDTAB
0
TABLE
2
DIMSTYLE
5
4a6
100
AcDbSymbolTable
100
AcDbDimStyleTable
0
DIMSTYLE
105
27
100
AcDbSymbolTableRecord
100
AcDbDimStyleTableRecord
2
Standard
70
0
3
<>
41
0.18
42
0.0625
44
0.18
140
0.18
147
0.09
73
0
74
0
77
1
271
2
275
0
278
52
280
0
340
11
0
ENDTAB
0
TABLE
2
VIEW
5
4a7
100
AcDbSymbolTable
0
ENDTAB
0
TABLE
2
UCS
5
4a8
100
AcDbSymbolTable
0
ENDTAB
0
TABLE
2
APPID
5
4a9
100
AcDbSymbolTable
0
APPID
5
12
100
AcDbSymbolTableRecord
100
AcDbRegAppTableRecord
2
ACAD
70
0
0
ENDTAB
0
TABLE
2
BLOCK_RECORD
5
4aa
100
AcDbSymbolTable
0
BLOCK_RECORD
5
1F
100
AcDbSymbolTableRecord
100
AcDbBlockTableRecord
2
*Model_Space
340
0
70
0
0
BLOCK_RECORD
5
1B
100
AcDbSymbolTableRecord
100
AcDbBlockTableRecord
2
*Paper_Space
340
0
70
0
0
BLOCK_RECORD
5
23
100
AcDbSymbolTableRecord
100
AcDbBlockTableRecord
2
*Paper_Space0
340
0
70
0
0
BLOCK_RECORD
5
3F6
100
AcDbSymbolTableRecord
100
AcDbBlockTableRecord
2
DimnDraft3D1
340
0
70
0
0
BLOCK_RECORD
5
3FF
100
AcDbSymbolTableRecord
100
AcDbBlockTableRecord
2
DimnDraft3D2
340
0
70
0
0
BLOCK_RECORD
5
40B
100
AcDbSymbolTableRecord
100
AcDbBlockTableRecord
2
DimnDraft3D3
340
0
70
0
0
BLOCK_RECORD
5
416
100
AcDbSymbolTableRecord
100
AcDbBlockTableRecord
2
DimnDraft3D4
340
0
70
0
0
BLOCK_RECORD
5
421
100
AcDbSymbolTableRecord
100
AcDbBlockTableRecord
2
DimnDraft3D5
340
0
70
0
0
BLOCK_RECORD
5
42B
100
AcDbSymbolTableRecord
100
AcDbBlockTableRecord
2
DimnDraft3D6
340
0
70
0
0
ENDTAB
0
ENDSEC
0
SECTION
2
BLOCKS
0
BLOCK
5
20
100
AcDbEntity
8
0
100
AcDbBlockBegin
2
*Model_Space
70
0
10
0
20
0
30
0
3
*Model_Space
0
ENDBLK
5
21
100
AcDbEntity
8
0
100
AcDbBlockEnd
0
BLOCK
5
1C
100
AcDbEntity
8
0
100
AcDbBlockBegin
2
*Paper_Space
70
0
10
0
20
0
30
0
3
*Paper_Space
0
ENDBLK
5
1D
100
AcDbEntity
8
0
100
AcDbBlockEnd
0
BLOCK
5
24
100
AcDbEntity
8
0
100
AcDbBlockBegin
2
*Paper_Space0
70
0
10
0
20
0
30
0
3
*Paper_Space0
0
ENDBLK
5
25
100
AcDbEntity
8
0
100
AcDbBlockEnd
0
BLOCK
5
3FC
100
AcDbEntity
8
0
100
AcDbBlockBegin
2
DimnDraft3D1
70
0
10
0
20
0
30
0
3
DimnDraft3D1
0
MTEXT
5
3F7
100
AcDbEntity
8
SK2
62
256
6
ByLayer
370
13
48
1
60
0
100
AcDbMText
10
18.792315
20
-62.504625
30
0
210
0
220
0
230
1
1
\W0.7121;0.5
40
3.5
41
0
44
1.084337
50
315
71
7
72
5
7
iso_b_vert
0
MTEXT
5
3F9
100
AcDbEntity
8
SK2
62
256
6
ByLayer
370
13
48
1
60
0
100
AcDbMText
10
16.187184
20
-59.899495
30
0
210
0
220
0
230
1
1
\W0.6380;R
40
3.5
41
0
44
1.084337
50
315
71
7
72
5
7
iso_b_vert
0
LINE
5
3FA
100
AcDbEntity
8
SK2
62
256
6
ByLayer
370
13
48
1
60
0
100
AcDbLine
10
10.353553
20
-50.353553
30
0
11
16.363961
21
-56.363961
31
0
39
0
210
0
220
0
230
1
0
SOLID
5
3FB
100
AcDbEntity
8
SK2
62
256
6
ByLayer
370
13
48
1
60
0
100
AcDbTrace
10
10.353553
20
-50.353553
30
0
11
13.154249
21
-52.502603
31
0
12
12.502605
22
-53.154252
32
0
13
10.353553
23
-50.353553
33
0
39
0
210
0
220
0
230
1
0
ENDBLK
5
3FD
100
AcDbEntity
8
0
100
AcDbBlockEnd
0
BLOCK
5
408
100
AcDbEntity
8
0
100
AcDbBlockBegin
2
DimnDraft3D2
70
0
10
0
20
0
30
0
3
DimnDraft3D2
0
MTEXT
5
400
100
AcDbEntity
8
2
62
256
6
ByLayer
370
13
48
1
60
0
100
AcDbMText
10
41.35
20
2.615789
30
0
210
0
220
0
230
1
1
\W0.6217;100
40
4
41
0
44
1.084337
50
90
71
7
72
5
7
iso_b_vert
0
MTEXT
5
402
100
AcDbEntity
8
2
62
256
6
ByLayer
370
13
48
1
60
0
100
AcDbMText
10
41.35
20
-5.352961
30
0
210
0
220
0
230
1
1
%%c
40
4
41
0
44
1.084337
50
90
71
7
72
5
7
iso_b_vert
0
LINE
5
403
100
AcDbEntity
8
2
62
256
6
ByLayer
370
13
48
1
60
0
100
AcDbLine
10
11.5875
20
50
30
0
11
45.35
21
50
31
0
39
0
210
0
220
0
230
1
0
LINE
5
404
100
AcDbEntity
8
2
62
256
6
ByLayer
370
13
48
1
60
0
100
AcDbLine
10
11.5875
20
-50
30
0
11
45.35
21
-50
31
0
39
0
210
0
220
0
230
1
0
LINE
5
405
100
AcDbEntity
8
2
62
256
6
ByLayer
370
13
48
1
60
0
100
AcDbLine
10
43.35
20
50
30
0
11
43.35
21
-50
31
0
39
0
210
0
220
0
230
1
0
SOLID
5
406
100
AcDbEntity
8
2
62
256
6
ByLayer
370
13
48
1
60
0
100
AcDbTrace
10
43.35
20
50
30
0
11
43.810784
21
46.500002
31
0
12
42.889216
22
46.499998
32
0
13
43.35
23
50
33
0
39
0
210
0
220
0
230
1
0
SOLID
5
407
100
AcDbEntity
8
2
62
256
6
ByLayer
370
13
48
1
60
0
100
AcDbTrace
10
43.35
20
-50
30
0
11
42.889216
21
-46.500002
31
0
12
43.810784
22
-46.499998
32
0
13
43.35
23
-50
33
0
39
0
210
0
220
0
230
1
0
ENDBLK
5
409
100
AcDbEntity
8
0
100
AcDbBlockEnd
0
BLOCK
5
413
100
AcDbEntity
8
0
100
AcDbBlockBegin
2
DimnDraft3D3
70
0
10
0
20
0
30
0
3
DimnDraft3D3
0
MTEXT
5
40C
100
AcDbEntity
8
SK2
62
256
6
ByLayer
370
13
48
1
60
0
100
AcDbMText
10
-16.35
20
1.305263
30
0
210
0
220
0
230
1
1
\W0.7346;32.0
40
4
41
0
44
1.084337
50
90
71
7
72
5
7
iso_b_vert
0
MTEXT
5
40D
100
AcDbEntity
8
SK2
62
256
6
ByLayer
370
13
48
1
60
0
100
AcDbMText
10
-16.35
20
-6.663487
30
0
210
0
220
0
230
1
1
%%c
40
4
41
0
44
1.084337
50
90
71
7
72
5
7
iso_b_vert
0
LINE
5
40E
100
AcDbEntity
8
SK2
62
256
6
ByLayer
370
13
48
1
60
0
100
AcDbLine
10
-1.5875
20
16
30
0
11
-16.35
21
16
31
0
39
0
210
0
220
0
230
1
0
LINE
5
40F
100
AcDbEntity
8
SK2
62
256
6
ByLayer
370
13
48
1
60
0
100
AcDbLine
10
-1.5875
20
-16
30
0
11
-16.35
21
-16
31
0
39
0
210
0
220
0
230
1
0
LINE
5
410
100
AcDbEntity
8
SK2
62
256
6
ByLayer
370
13
48
1
60
0
100
AcDbLine
10
-14.35
20
16
30
0
11
-14.35
21
-16
31
0
39
0
210
0
220
0
230
1
0
SOLID
5
411
100
AcDbEntity
8
SK2
62
256
6
ByLayer
370
13
48
1
60
0
100
AcDbTrace
10
-14.35
20
16
30
0
11
-13.889216
21
12.500002
31
0
12
-14.810784
22
12.499998
32
0
13
-14.35
23
16
33
0
39
0
210
0
220
0
230
1
0
SOLID
5
412
100
AcDbEntity
8
SK2
62
256
6
ByLayer
370
13
48
1
60
0
100
AcDbTrace
10
-14.35
20
-16
30
0
11
-14.810784
21
-12.500002
31
0
12
-13.889216
22
-12.499998
32
0
13
-14.35
23
-16
33
0
39
0
210
0
220
0
230
1
0
ENDBLK
5
414
100
AcDbEntity
8
0
100
AcDbBlockEnd
0
BLOCK
5
41E
100
AcDbEntity
8
0
100
AcDbBlockBegin
2
DimnDraft3D4
70
0
10
0
20
0
30
0
3
DimnDraft3D4
0
MTEXT
5
417
100
AcDbEntity
8
SK2
62
256
6
ByLayer
370
13
48
1
60
0
100
AcDbMText
10
-31.35
20
3.4
30
0
210
0
220
0
230
1
1
\W0.7361;47
40
4
41
0
44
1.084337
50
90
71
7
72
5
7
iso_b_vert
0
MTEXT
5
418
100
AcDbEntity
8
SK2
62
256
6
ByLayer
370
13
48
1
60
0
100
AcDbMText
10
-31.35
20
-4.56875
30
0
210
0
220
0
230
1
1
%%c
40
4
41
0
44
1.084337
50
90
71
7
72
5
7
iso_b_vert
0
LINE
5
419
100
AcDbEntity
8
SK2
62
256
6
ByLayer
370
13
48
1
60
0
100
AcDbLine
10
-1.5875
20
23.5
30
0
11
-31.35
21
23.5
31
0
39
0
210
0
220
0
230
1
0
LINE
5
41A
100
AcDbEntity
8
SK2
62
256
6
ByLayer
370
13
48
1
60
0
100
AcDbLine
10
-1.5875
20
-23.5
30
0
11
-31.35
21
-23.5
31
0
39
0
210
0
220
0
230
1
0
LINE
5
41B
100
AcDbEntity
8
SK2
62
256
6
ByLayer
370
13
48
1
60
0
100
AcDbLine
10
-29.35
20
23.5
30
0
11
-29.35
21
-23.5
31
0
39
0
210
0
220
0
230
1
0
SOLID
5
41C
100
AcDbEntity
8
SK2
62
256
6
ByLayer
370
13
48
1
60
0
100
AcDbTrace
10
-29.35
20
23.5
30
0
11
-28.889216
21
20.000002
31
0
12
-29.810784
22
19.999998
32
0
13
-29.35
23
23.5
33
0
39
0
210
0
220
0
230
1
0
SOLID
5
41D
100
AcDbEntity
8
SK2
62
256
6
ByLayer
370
13
48
1
60
0
100
AcDbTrace
10
-29.35
20
-23.5
30
0
11
-29.810784
21
-20.000002
31
0
12
-28.889216
22
-19.999998
32
0
13
-29.35
23
-23.5
33
0
39
0
210
0
220
0
230
1
0
ENDBLK
5
41F
100
AcDbEntity
8
0
100
AcDbBlockEnd
0
BLOCK
5
428
100
AcDbEntity
8
0
100
AcDbBlockBegin
2
DimnDraft3D5
70
0
10
0
20
0
30
0
3
DimnDraft3D5
0
MTEXT
5
422
100
AcDbEntity
8
SK2
62
256
6
ByLayer
370
13
48
1
60
0
100
AcDbMText
10
-16.989474
20
54
30
0
210
0
220
0
230
1
1
\W0.7229;6.0-8.0
40
4
41
0
44
1.084337
50
0
71
7
72
5
7
iso_b_vert
0
LINE
5
423
100
AcDbEntity
8
SK2
62
256
6
ByLayer
370
13
48
1
60
0
100
AcDbLine
10
10
20
51.5875
30
0
11
10
21
55
31
0
39
0
210
0
220
0
230
1
0
LINE
5
424
100
AcDbEntity
8
SK2
62
256
6
ByLayer
370
13
48
1
60
0
100
AcDbLine
10
4
20
51.5875
30
0
11
4
21
55
31
0
39
0
210
0
220
0
230
1
0
LINE
5
425
100
AcDbEntity
8
SK2
62
256
6
ByLayer
370
13
48
1
60
0
100
AcDbLine
10
-17.989474
20
53
30
0
11
20
21
53
31
0
39
0
210
0
220
0
230
1
0
SOLID
5
426
100
AcDbEntity
8
SK2
62
256
6
ByLayer
370
13
48
1
60
0
100
AcDbTrace
10
10
20
53
30
0
11
13.499998
21
53.460784
31
0
12
13.500002
22
52.539216
32
0
13
10
23
53
33
0
39
0
210
0
220
0
230
1
0
SOLID
5
427
100
AcDbEntity
8
SK2
62
256
6
ByLayer
370
13
48
1
60
0
100
AcDbTrace
10
4
20
53
30
0
11
0.500002
21
52.539216
31
0
12
0.499998
22
53.460784
32
0
13
4
23
53
33
0
39
0
210
0
220
0
230
1
0
ENDBLK
5
429
100
AcDbEntity
8
0
100
AcDbBlockEnd
0
BLOCK
5
433
100
AcDbEntity
8
0
100
AcDbBlockBegin
2
DimnDraft3D6
70
0
10
0
20
0
30
0
3
DimnDraft3D6
0
MTEXT
5
42C
100
AcDbEntity
8
SK2
62
256
6
ByLayer
370
13
48
1
60
0
100
AcDbMText
10
-19
20
-63
30
0
210
0
220
0
230
1
1
\W0.5785;14
40
4
41
0
44
1.084337
50
0
71
7
72
5
7
iso_b_vert
0
MTEXT
5
42D
100
AcDbEntity
8
SK2
62
256
6
ByLayer
370
13
48
1
60
0
100
AcDbMText
10
-11.425
20
-62.625
30
0
210
0
220
0
230
1
1
\W0.8221;\W0.4110;%%p\W0.8221;0.05
40
3.5
41
0
44
1.084337
50
0
71
7
72
5
7
iso_b_vert
0
LINE
5
42E
100
AcDbEntity
8
SK2
62
256
6
ByLayer
370
13
48
1
60
0
100
AcDbLine
10
0
20
-25.0875
30
0
11
0
21
-66
31
0
39
0
210
0
220
0
230
1
0
LINE
5
42F
100
AcDbEntity
8
SK2
62
256
6
ByLayer
370
13
48
1
60
0
100
AcDbLine
10
14
20
-25.0875
30
0
11
14
21
-66
31
0
39
0
210
0
220
0
230
1
0
LINE
5
430
100
AcDbEntity
8
SK2
62
256
6
ByLayer
370
13
48
1
60
0
100
AcDbLine
10
14
20
-64
30
0
11
-20
21
-64
31
0
39
0
210
0
220
0
230
1
0
SOLID
5
431
100
AcDbEntity
8
SK2
62
256
6
ByLayer
370
13
48
1
60
0
100
AcDbTrace
10
0
20
-64
30
0
11
3.499998
21
-63.539216
31
0
12
3.500002
22
-64.460784
32
0
13
0
23
-64
33
0
39
0
210
0
220
0
230
1
0
SOLID
5
432
100
AcDbEntity
8
SK2
62
256
6
ByLayer
370
13
48
1
60
0
100
AcDbTrace
10
14
20
-64
30
0
11
10.500002
21
-64.460784
31
0
12
10.499998
22
-63.539216
32
0
13
14
23
-64
33
0
39
0
210
0
220
0
230
1
0
ENDBLK
5
434
100
AcDbEntity
8
0
100
AcDbBlockEnd
0
ENDSEC
0
SECTION
2
ENTITIES
0
ARC
5
2C0
100
AcDbEntity
8
1
62
256
6
ByLayer
370
18
48
1
60
0
100
AcDbCircle
39
0
10
-10.4
20
24.3
30
0
40
0.8
210
0
220
0
230
-1
100
AcDbArc
50
270
51
345.637949
0
ARC
5
2C1
100
AcDbEntity
8
1
62
256
6
ByLayer
370
18
48
1
60
0
100
AcDbCircle
39
0
10
-10.4
20
-24.3
30
0
40
0.8
210
0
220
0
230
-1
100
AcDbArc
50
14.362051
51
90
0
ARC
5
2C2
100
AcDbEntity
8
1
62
256
6
ByLayer
370
18
48
1
60
0
100
AcDbCircle
39
0
10
-3.6
20
-24.3
30
0
40
0.8
210
0
220
0
230
-1
100
AcDbArc
50
90
51
180
0
ARC
5
2C3
100
AcDbEntity
8
1
62
256
6
ByLayer
370
18
48
1
60
0
100
AcDbCircle
39
0
10
-3.6
20
24.3
30
0
40
0.8
210
0
220
0
230
-1
100
AcDbArc
50
180
51
270
0
ARC
5
2C4
100
AcDbEntity
8
1
62
256
6
ByLayer
370
18
48
1
60
0
100
AcDbCircle
39
0
10
7.678232
20
4.090078
30
0
40
3.5
210
0
220
0
230
1
100
AcDbArc
50
273.043463
51
285.126165
0
ARC
5
2C5
100
AcDbEntity
8
1
62
256
6
ByLayer
370
18
48
1
60
0
100
AcDbCircle
39
0
10
7.678232
20
4.090078
30
0
40
3.5
210
0
220
0
230
1
100
AcDbArc
50
244.799831
51
256.882534
0
ELLIPSE
5
2C6
100
AcDbEntity
8
1
62
256
6
ByLayer
370
18
48
1
60
0
100
AcDbEllipse
10
7.501871
20
45.79644
30
0
11
0.177367131910567
21
0.052591829382704
31
0
210
0
220
0
230
1
40
0.955145
41
0.0469536190273065
42
2.57023949613326
0
ELLIPSE
5
2C7
100
AcDbEntity
8
1
62
256
6
ByLayer
370
18
48
1
60
0
100
AcDbEllipse
10
6.923218
20
45.951878
30
0
11
0.404588809006807
21
0.11996622702433
31
0
210
0
220
0
230
1
40
0.955145
41
-1.34625288530897
42
-0.571353157456515
0
ELLIPSE
5
2C8
100
AcDbEntity
8
1
62
256
6
ByLayer
370
18
48
1
60
0
100
AcDbEllipse
10
7.482697
20
44.981421
30
0
11
-0.717138457670834
21
-0.21264155880142
31
0
210
0
220
0
230
1
40
0.955145
41
-0.336357696199455
42
-0.260894992365374
0
ELLIPSE
5
2C9
100
AcDbEntity
8
1
62
256
6
ByLayer
370
18
48
1
60
0
100
AcDbEllipse
10
6.611032
20
32.658046
30
0
11
-1.6866084392648
21
-0.29915766559817
31
0
210
0
220
0
230
1
40
0.876151
41
0
42
6.28318530717959
0
ELLIPSE
5
2CA
100
AcDbEntity
8
1
62
256
6
ByLayer
370
13
48
1
60
0
100
AcDbEllipse
10
7
20
-37.34128
30
0
11
1.4
21
0
31
0
210
0
220
0
230
1
40
0.413382
41
3.14159265358978
42
-2.33444881767356
0
ELLIPSE
5
2CB
100
AcDbEntity
8
1
62
256
6
ByLayer
370
18
48
1
60
0
100
AcDbEllipse
10
7
20
-37.34128
30
0
11
1.4
21
0
31
0
210
0
220
0
230
1
40
0.413382
41
-2.33444913995386
42
-0.754669700358331
0
ELLIPSE
5
2CC
100
AcDbEntity
8
1
62
256
6
ByLayer
370
13
48
1
60
0
100
AcDbEllipse
10
7
20
-37.34128
30
0
11
1.4
21
0
31
0
210
0
220
0
230
1
40
0.413382
41
-0.754669700358332
42
1.22775187488311E-14
0
ELLIPSE
5
2CD
100
AcDbEntity
8
1
62
256
6
ByLayer
370
18
48
1
60
0
100
AcDbEllipse
10
6.923218
20
45.951878
30
0
11
0.404588809006807
21
0.11996622702433
31
0
210
0
220
0
230
1
40
0.955145
41
-2.12115261316145
42
-1.34625288530897
0
ELLIPSE
5
2CE
100
AcDbEntity
8
1
62
256
6
ByLayer
370
18
48
1
60
0
100
AcDbEllipse
10
6.596962
20
32.737365
30
0
11
-1.50156262503445
21
-0.266335658708418
31
0
210
0
220
0
230
1
40
0.876151
41
0
42
6.28318530717959
0
ELLIPSE
5
2CF
100
AcDbEntity
8
1
62
256
6
ByLayer
370
18
48
1
60
0
100
AcDbEllipse
10
6.611472
20
32.655562
30
0
11
-1.08309435248387
21
-0.19211096693722
31
0
210
0
220
0
230
1
40
0.876151
41
0
42
6.28318530717959
0
ELLIPSE
5
2D0
100
AcDbEntity
8
1
62
256
6
ByLayer
370
18
48
1
60
0
100
AcDbEllipse
10
6.535705
20
33.082728
30
0
11
-1.50156262503445
21
-0.266335658708418
31
0
210
0
220
0
230
1
40
0.876151
41
-0.246342897369295
42
0
0
ELLIPSE
5
2D1
100
AcDbEntity
8
1
62
256
6
ByLayer
370
18
48
1
60
0
100
AcDbEllipse
10
6.535705
20
33.082728
30
0
11
-1.50156262503445
21
-0.266335658708418
31
0
210
0
220
0
230
1
40
0.876151
41
-3.01006104096837
42
-2.89519628267342
0
ELLIPSE
5
2D2
100
AcDbEntity
8
1
62
256
6
ByLayer
370
18
48
1
60
0
100
AcDbEllipse
10
6.535705
20
33.082728
30
0
11
-1.50156262503445
21
-0.266335658708418
31
0
210
0
220
0
230
1
40
0.876151
41
3.14157026649181
42
-3.01006104096837
0
ELLIPSE
5
2D3
100
AcDbEntity
8
1
62
256
6
ByLayer
370
18
48
1
60
0
100
AcDbEllipse
10
6.611472
20
32.655562
30
0
11
-1.01909332256437
21
-0.180758955254566
31
0
210
0
220
0
230
1
40
0.876151
41
-1.70232816377188
42
-0.655988592235178
0
ELLIPSE
5
2D4
100
AcDbEntity
8
1
62
256
6
ByLayer
370
18
48
1
60
0
100
AcDbEllipse
10
6.611472
20
32.655562
30
0
11
-1.01909332256437
21
-0.180758955254566
31
0
210
0
220
0
230
1
40
0.876151
41
-0.655988592235178
42
0.39292491828123
0
ELLIPSE
5
2D5
100
AcDbEntity
8
1
62
256
6
ByLayer
370
18
48
1
60
0
100
AcDbEllipse
10
6.611472
20
32.655562
30
0
11
-1.01909332256437
21
-0.180758955254566
31
0
210
0
220
0
230
1
40
0.876151
41
0.39292491828123
42
1.43926448981792
0
ELLIPSE
5
2D6
100
AcDbEntity
8
1
62
256
6
ByLayer
370
18
48
1
60
0
100
AcDbEllipse
10
6.611472
20
32.655562
30
0
11
-1.01909332256437
21
-0.180758955254566
31
0
210
0
220
0
230
1
40
0.876151
41
1.43926448981792
42
2.48560406135461
0
ELLIPSE
5
2D7
100
AcDbEntity
8
1
62
256
6
ByLayer
370
18
48
1
60
0
100
AcDbEllipse
10
6.611472
20
32.655562
30
0
11
-1.01909332256437
21
-0.180758955254566
31
0
210
0
220
0
230
1
40
0.876151
41
2.48560406135461
42
-2.74866773530856
0
ELLIPSE
5
2D8
100
AcDbEntity
8
1
62
256
6
ByLayer
370
18
48
1
60
0
100
AcDbEllipse
10
6.611472
20
32.655562
30
0
11
-1.01909332256437
21
-0.180758955254566
31
0
210
0
220
0
230
1
40
0.876151
41
-2.74866773530856
42
-1.70232816377188
0
ELLIPSE
5
2D9
100
AcDbEntity
8
1
62
256
6
ByLayer
370
18
48
1
60
0
100
AcDbEllipse
10
6.597522
20
32.734208
30
0
11
0.736504159689029
21
0.130635457517312
31
0
210
0
220
0
230
1
40
0.876151
41
2.97232946469576
42
3.04779216852984
0
ELLIPSE
5
2DA
100
AcDbEntity
8
1
62
256
6
ByLayer
370
18
48
1
60
0
100
AcDbEllipse
10
6.597522
20
32.734208
30
0
11
0.736504159689029
21
0.130635457517312
31
0
210
0
220
0
230
1
40
0.876151
41
-0.169263188894026
42
-0.0938004850599317
0
ELLIPSE
5
2DB
100
AcDbEntity
8
1
62
256
6
ByLayer
370
18
48
1
60
0
100
AcDbEllipse
10
7.691363
20
33.200295
30
0
11
-0.415514378861992
21
-0.0737007527704607
31
0
210
0
220
0
230
1
40
0.876151
41
-0.363872055542748
42
-0.198445159293135
0
ELLIPSE
5
2DC
100
AcDbEntity
8
1
62
256
6
ByLayer
370
18
48
1
60
0
100
AcDbEllipse
10
6.527286
20
33.130191
30
0
11
0.736504159689029
21
0.130635457517312
31
0
210
0
220
0
230
1
40
0.876151
41
-0.169263188894015
42
-0.0938004850599317
0
ELLIPSE
5
2DD
100
AcDbEntity
8
1
62
256
6
ByLayer
370
18
48
1
60
0
100
AcDbEllipse
10
7.691363
20
33.200295
30
0
11
-0.415514378861992
21
-0.0737007527704607
31
0
210
0
220
0
230
1
40
0.876151
41
-0.0646185146608077
42
5.9553687709082E-06
0
ELLIPSE
5
2DE
100
AcDbEntity
8
1
62
256
6
ByLayer
370
18
48
1
60
0
100
AcDbEllipse
10
7.269844
20
32.800568
30
0
11
-0.182156777463196
21
-0.0323095717121688
31
0
210
0
220
0
230
1
40
0.876151
41
1.18753454773386
42
1.97058523852195
0
ELLIPSE
5
2DF
100
AcDbEntity
8
1
62
256
6
ByLayer
370
18
48
1
60
0
100
AcDbEllipse
10
5.967807
20
32.205126
30
0
11
-0.415514378861992
21
-0.0737007527704607
31
0
210
0
220
0
230
1
40
0.876151
41
-2.22549794954022
42
-1.45059822168775
0
ELLIPSE
5
2E0
100
AcDbEntity
8
1
62
256
6
ByLayer
370
18
48
1
60
0
100
AcDbEllipse
10
5.967807
20
32.205126
30
0
11
-0.415514378861992
21
-0.0737007527704607
31
0
210
0
220
0
230
1
40
0.876151
41
-3.00039767739269
42
-2.22549794954022
0
ELLIPSE
5
2E1
100
AcDbEntity
8
1
62
256
6
ByLayer
370
18
48
1
60
0
100
AcDbEllipse
10
6.543338
20
33.039692
30
0
11
-1.63124477032422
21
-0.289337682741668
31
0
210
0
220
0
230
1
40
0.876151
41
2.65607256346316
42
3.13732559545963
0
ELLIPSE
5
2E2
100
AcDbEntity
8
1
62
256
6
ByLayer
370
18
48
1
60
0
100
AcDbEllipse
10
6.543338
20
33.039692
30
0
11
-1.63124477032422
21
-0.289337682741668
31
0
210
0
220
0
230
1
40
0.876151
41
0.00427447227897807
42
0.485429179587211
0
ELLIPSE
5
2E3
100
AcDbEntity
8
1
62
256
6
ByLayer
370
18
48
1
60
0
100
AcDbEllipse
10
7.132489
20
32.275267
30
0
11
-0.415514378861992
21
-0.0737007527704607
31
0
210
0
220
0
230
1
40
0.876151
41
-1.17915837800353
42
-0.404258650151047
0
ELLIPSE
5
2E4
100
AcDbEntity
8
1
62
256
6
ByLayer
370
18
48
1
60
0
100
AcDbEllipse
10
7.132489
20
32.275267
30
0
11
-0.415514378861992
21
-0.0737007527704607
31
0
210
0
220
0
230
1
40
0.876151
41
-1.95405810585599
42
-1.17915837800353
0
ELLIPSE
5
2E5
100
AcDbEntity
8
1
62
256
6
ByLayer
370
18
48
1
60
0
100
AcDbEllipse
10
6.54646
20
32.383773
30
0
11
-0.182156777463196
21
-0.0323095717121688
31
0
210
0
220
0
230
1
40
0.876151
41
0.141194976197187
42
2.73733400343867
0
ELLIPSE
5
2E6
100
AcDbEntity
8
1
62
256
6
ByLayer
370
18
48
1
60
0
100
AcDbEllipse
10
6.527286
20
33.130191
30
0
11
0.736504159689029
21
0.130635457517312
31
0
210
0
220
0
230
1
40
0.876151
41
-2.22549794954023
42
-1.17915837800353
0
ELLIPSE
5
2E7
100
AcDbEntity
8
1
62
256
6
ByLayer
370
18
48
1
60
0
100
AcDbEllipse
10
6.527286
20
33.130191
30
0
11
0.736504159689029
21
0.130635457517312
31
0
210
0
220
0
230
1
40
0.876151
41
-2.96546643577546
42
-2.22549794954023
0
ELLIPSE
5
2E8
100
AcDbEntity
8
1
62
256
6
ByLayer
370
18
48
1
60
0
100
AcDbEllipse
10
7
20
-6.139057
30
0
11
-1.6
21
1.9593701661158E-16
31
0
210
0
220
0
230
1
40
0.953717
41
0
42
6.28318530717959
0
ELLIPSE
5
2E9
100
AcDbEntity
8
1
62
256
6
ByLayer
370
18
48
1
60
0
100
AcDbEllipse
10
7
20
-6.139057
30
0
11
1.4097
21
0
31
0
210
0
220
0
230
1
40
0.953717
41
1.04719755119659
42
2.09439510239319
0
ELLIPSE
5
2EA
100
AcDbEntity
8
1
62
256
6
ByLayer
370
18
48
1
60
0
100
AcDbEllipse
10
7
20
-6.139057
30
0
11
1.4097
21
0
31
0
210
0
220
0
230
1
40
0.953717
41
2.09439510239319
42
3.14159265358979
0
ELLIPSE
5
2EB
100
AcDbEntity
8
1
62
256
6
ByLayer
370
18
48
1
60
0
100
AcDbEllipse
10
7
20
-6.139057
30
0
11
1.4097
21
0
31
0
210
0
220
0
230
1
40
0.953717
41
3.14159265358979
42
-2.09439510239319
0
ELLIPSE
5
2EC
100
AcDbEntity
8
1
62
256
6
ByLayer
370
18
48
1
60
0
100
AcDbEllipse
10
7
20
-6.139057
30
0
11
1.4097
21
0
31
0
210
0
220
0
230
1
40
0.953717
41
-2.09439510239319
42
-1.0471975511966
0
ELLIPSE
5
2ED
100
AcDbEntity
8
1
62
256
6
ByLayer
370
18
48
1
60
0
100
AcDbEllipse
10
7
20
-6.139057
30
0
11
1.4097
21
0
31
0
210
0
220
0
230
1
40
0.953717
41
-1.0471975511966
42
0
0
ELLIPSE
5
2EE
100
AcDbEntity
8
1
62
256
6
ByLayer
370
18
48
1
60
0
100
AcDbEllipse
10
7
20
-6.139057
30
0
11
1.4097
21
0
31
0
210
0
220
0
230
1
40
0.953717
41
0
42
1.04719755119659
0
ELLIPSE
5
2EF
100
AcDbEntity
8
1
62
256
6
ByLayer
370
18
48
1
60
0
100
AcDbEllipse
10
7.398952
20
45.263855
30
0
11
1.64226061579838
21
0.486953186746866
31
0
210
0
220
0
230
1
40
0.955145
41
-0.685163605474853
42
-0.301005766092405
0
ELLIPSE
5
2F0
100
AcDbEntity
8
1
62
256
6
ByLayer
370
18
48
1
60
0
100
AcDbEllipse
10
7.398952
20
45.263855
30
0
11
1.64226061579838
21
0.486953186746866
31
0
210
0
220
0
230
1
40
0.955145
41
-0.301005766092409
42
0
0
ELLIPSE
5
2F1
100
AcDbEntity
8
1
62
256
6
ByLayer
370
18
48
1
60
0
100
AcDbEllipse
10
7.398952
20
45.263855
30
0
11
1.64226061579838
21
0.486953186746866
31
0
210
0
220
0
230
1
40
0.955145
41
0
42
-3.10006668107262
0
ELLIPSE
5
2F2
100
AcDbEntity
8
1
62
256
6
ByLayer
370
18
48
1
60
0
100
AcDbEllipse
10
8.2421
20
-5.537645
30
0
11
-1.92591300425909E-17
21
0.314535850356765
31
0
210
0
220
0
230
-1
40
0.532849
41
2.7881667818254
42
-3.01821701165397
0
ELLIPSE
5
2F3
100
AcDbEntity
8
1
62
256
6
ByLayer
370
18
48
1
60
0
100
AcDbEllipse
10
5.7579
20
-5.537645
30
0
11
-1.9259130042591E-17
21
0.314535850356766
31
0
210
0
220
0
230
-1
40
0.532849
41
3.01821701165392
42
-2.78959487693238
0
ELLIPSE
5
2F4
100
AcDbEntity
8
1
62
256
6
ByLayer
370
18
48
1
60
0
100
AcDbEllipse
10
8.07569
20
-6.129951
30
0
11
0.169072737960783
21
0.26994317449672
31
0
210
0
220
0
230
-1
40
0.519602
41
-2.47508933432866
42
-0.152613971507091
0
ELLIPSE
5
2F5
100
AcDbEntity
8
1
62
256
6
ByLayer
370
18
48
1
60
0
100
AcDbEllipse
10
5.92431
20
-6.129951
30
0
11
0.169072737960783
21
-0.269943174496722
31
0
210
0
220
0
230
-1
40
0.519602
41
-2.98897868208264
42
-0.66650331926114
0
ELLIPSE
5
2F6
100
AcDbEntity
8
1
62
256
6
ByLayer
370
18
48
1
60
0
100
AcDbEllipse
10
7.62105
20
-6.563549
30
0
11
0.287772259182953
21
0.153475645370217
31
0
210
0
220
0
230
-1
40
0.495604
41
0.919455911269603
42
-3.04520197527256
0
ELLIPSE
5
2F7
100
AcDbEntity
8
1
62
256
6
ByLayer
370
18
48
1
60
0
100
AcDbEllipse
10
6.37895
20
-6.563549
30
0
11
0.287772259182952
21
-0.153475645370217
31
0
210
0
220
0
230
-1
40
0.495604
41
-0.0963906783136241
42
2.22213674232229
0
ELLIPSE
5
2F8
100
AcDbEntity
8
1
62
256
6
ByLayer
370
18
48
1
60
0
100
AcDbEllipse
10
7
20
-6.722257
30
0
11
0.329800000000001
21
3.33308760366164E-16
31
0
210
0
220
0
230
-1
40
0.484666
41
-3.01821701165425
42
-0.123375641939176
0
ELLIPSE
5
2F9
100
AcDbEntity
8
1
62
256
6
ByLayer
370
18
48
1
60
0
100
AcDbEllipse
10
7
20
23.256105
30
0
11
1.6
21
0
31
0
210
0
220
0
230
1
40
0.887011
41
-0.435699828777607
42
0
0
ELLIPSE
5
2FA
100
AcDbEntity
8
1
62
256
6
ByLayer
370
18
48
1
60
0
100
AcDbEllipse
10
7
20
23.256105
30
0
11
1.6
21
0
31
0
210
0
220
0
230
1
40
0.887011
41
0
42
-2.6891053982904
0
ELLIPSE
5
2FB
100
AcDbEntity
8
1
62
256
6
ByLayer
370
18
48
1
60
0
100
AcDbEllipse
10
7
20
23.256105
30
0
11
-1.4097
21
1.72632757698341E-16
31
0
210
0
220
0
230
1
40
0.887011
41
-2.0943951023932
42
-1.0471975511966
0
ELLIPSE
5
2FC
100
AcDbEntity
8
1
62
256
6
ByLayer
370
18
48
1
60
0
100
AcDbEllipse
10
7
20
23.256105
30
0
11
-1.4097
21
1.72632757698341E-16
31
0
210
0
220
0
230
1
40
0.887011
41
-1.0471975511966
42
-2.84121764246807E-15
0
ELLIPSE
5
2FD
100
AcDbEntity
8
1
62
256
6
ByLayer
370
18
48
1
60
0
100
AcDbEllipse
10
7
20
23.256105
30
0
11
-1.4097
21
1.72632757698341E-16
31
0
210
0
220
0
230
1
40
0.887011
41
0
42
1.0471975511966
0
ELLIPSE
5
2FE
100
AcDbEntity
8
1
62
256
6
ByLayer
370
18
48
1
60
0
100
AcDbEllipse
10
7
20
23.256105
30
0
11
-1.4097
21
1.72632757698341E-16
31
0
210
0
220
0
230
1
40
0.887011
41
3.14159265358979
42
-2.0943951023932
0
ELLIPSE
5
2FF
100
AcDbEntity
8
1
62
256
6
ByLayer
370
18
48
1
60
0
100
AcDbEllipse
10
8.07569
20
22.883486
30
0
11
0.175725795497164
21
-0.246769203332861
31
0
210
0
220
0
230
-1
40
0.534233
41
1.3884363569606
42
2.52398139405601
0
ELLIPSE
5
300
100
AcDbEntity
8
1
62
256
6
ByLayer
370
18
48
1
60
0
100
AcDbEllipse
10
5.92431
20
22.883486
30
0
11
0.175725795497159
21
0.246769203332861
31
0
210
0
220
0
230
-1
40
0.534233
41
0.61760727106242
42
1.7531533720283
0
ELLIPSE
5
301
100
AcDbEntity
8
1
62
256
6
ByLayer
370
18
48
1
60
0
100
AcDbEllipse
10
7.62105
20
23.286757
30
0
11
0.290386224352969
21
-0.137742428066572
31
0
210
0
220
0
230
-1
40
0.474641
41
3.08215959936304
42
-0.882498334520394
0
ELLIPSE
5
302
100
AcDbEntity
8
1
62
256
6
ByLayer
370
18
48
1
60
0
100
AcDbEllipse
10
6.37895
20
23.286757
30
0
11
0.290386224352969
21
0.137742428066572
31
0
210
0
220
0
230
-1
40
0.474641
41
-2.25909431906979
42
0.0594330542261245
0
ELLIPSE
5
303
100
AcDbEntity
8
1
62
256
6
ByLayer
370
18
48
1
60
0
100
AcDbEllipse
10
7
20
23.256105
30
0
11
-1.4097
21
1.72632757698341E-16
31
0
210
0
220
0
230
1
40
0.887011
41
2.0943951023932
42
3.14159265358979
0
ELLIPSE
5
304
100
AcDbEntity
8
1
62
256
6
ByLayer
370
18
48
1
60
0
100
AcDbEllipse
10
7
20
23.434364
30
0
11
0.329800000000003
21
3.33308760366166E-16
31
0
210
0
220
0
230
-1
40
0.450767
41
0.123375641936296
42
3.01821701165412
0
ELLIPSE
5
305
100
AcDbEntity
8
1
62
256
6
ByLayer
370
18
48
1
60
0
100
AcDbEllipse
10
7.398952
20
0.921462
30
0
11
-1.70631913016687
21
0.150394023524765
31
0
210
0
220
0
230
1
40
0.283919
41
0
42
6.28318530717959
0
ELLIPSE
5
306
100
AcDbEntity
8
1
62
256
6
ByLayer
370
18
48
1
60
0
100
AcDbEllipse
10
7.482697
20
44.981421
30
0
11
-0.717138457670834
21
-0.21264155880142
31
0
210
0
220
0
230
1
40
0.955145
41
-2.39259245684568
42
-1.34625288530899
0
ELLIPSE
5
307
100
AcDbEntity
8
1
62
256
6
ByLayer
370
18
48
1
60
0
100
AcDbEllipse
10
7.482697
20
44.981421
30
0
11
-0.717138457670834
21
-0.21264155880142
31
0
210
0
220
0
230
1
40
0.955145
41
-0.260894992365384
42
0.0839679780289952
0
ELLIPSE
5
308
100
AcDbEntity
8
1
62
256
6
ByLayer
370
18
48
1
60
0
100
AcDbEllipse
10
7.482697
20
44.981421
30
0
11
-0.717138457670834
21
-0.21264155880142
31
0
210
0
220
0
230
1
40
0.955145
41
2.45560665062238
42
2.76217250977199
0
ELLIPSE
5
309
100
AcDbEntity
8
1
62
256
6
ByLayer
370
18
48
1
60
0
100
AcDbEllipse
10
6.31862
20
44.978755
30
0
11
0.404588809006807
21
0.11996622702433
31
0
210
0
220
0
230
1
40
0.955145
41
-0.23171302196627
42
4.22016276918973E-06
0
ELLIPSE
5
30A
100
AcDbEntity
8
1
62
256
6
ByLayer
370
18
48
1
60
0
100
AcDbEllipse
10
7.482697
20
44.981421
30
0
11
-0.717138457670834
21
-0.21264155880142
31
0
210
0
220
0
230
1
40
0.955145
41
-1.34625288530899
42
-0.336357696199476
0
ELLIPSE
5
30B
100
AcDbEntity
8
1
62
256
6
ByLayer
370
18
48
1
60
0
100
AcDbEllipse
10
7.398511
20
0.916464
30
0
11
-1.0957520254224
21
0.0965789769189128
31
0
210
0
220
0
230
1
40
0.283919
41
0
42
6.28318530717959
0
ELLIPSE
5
30C
100
AcDbEntity
8
1
62
256
6
ByLayer
370
18
48
1
60
0
100
AcDbEllipse
10
7.398511
20
0.916464
30
0
11
-1.03100304210199
21
0.0908720373737043
31
0
210
0
220
0
230
1
40
0.283919
41
-1.56841693717611
42
-0.522077365639422
0
ELLIPSE
5
30D
100
AcDbEntity
8
1
62
256
6
ByLayer
370
18
48
1
60
0
100
AcDbEllipse
10
7.398511
20
0.916464
30
0
11
-1.03100304210199
21
0.0908720373737043
31
0
210
0
220
0
230
1
40
0.283919
41
-0.522077365639422
42
0.526836144876988
0
ELLIPSE
5
30E
100
AcDbEntity
8
1
62
256
6
ByLayer
370
18
48
1
60
0
100
AcDbEllipse
10
7.398511
20
0.916464
30
0
11
-1.03100304210199
21
0.0908720373737043
31
0
210
0
220
0
230
1
40
0.283919
41
0.526836144876988
42
1.57317571641368
0
ELLIPSE
5
30F
100
AcDbEntity
8
1
62
256
6
ByLayer
370
18
48
1
60
0
100
AcDbEllipse
10
7.398511
20
0.916464
30
0
11
-1.03100304210199
21
0.0908720373737043
31
0
210
0
220
0
230
1
40
0.283919
41
1.57317571641368
42
2.61951528795037
0
ELLIPSE
5
310
100
AcDbEntity
8
1
62
256
6
ByLayer
370
18
48
1
60
0
100
AcDbEllipse
10
7.398511
20
0.916464
30
0
11
-1.03100304210199
21
0.0908720373737043
31
0
210
0
220
0
230
1
40
0.283919
41
2.61951528795037
42
-2.6147565087128
0
ELLIPSE
5
311
100
AcDbEntity
8
1
62
256
6
ByLayer
370
18
48
1
60
0
100
AcDbEllipse
10
7.398511
20
0.916464
30
0
11
-1.03100304210199
21
0.0908720373737043
31
0
210
0
220
0
230
1
40
0.283919
41
-2.6147565087128
42
-1.56841693717611
0
ELLIPSE
5
312
100
AcDbEntity
8
1
62
256
6
ByLayer
370
18
48
1
60
0
100
AcDbEllipse
10
7.412461
20
1.074731
30
0
11
0.745111377287233
21
-0.0656737043048612
31
0
210
0
220
0
230
1
40
0.283919
41
-0.035351962298262
42
0.0401107415358171
0
ELLIPSE
5
313
100
AcDbEntity
8
1
62
256
6
ByLayer
370
18
48
1
60
0
100
AcDbEllipse
10
7.412461
20
1.074731
30
0
11
0.745111377287233
21
-0.0656737043048612
31
0
210
0
220
0
230
1
40
0.283919
41
3.10624069129153
42
-3.10148191205397
0
ELLIPSE
5
314
100
AcDbEntity
8
1
62
256
6
ByLayer
370
13
48
1
60
0
100
AcDbEllipse
10
5.6
20
-14.452211
30
0
11
0.1
21
0
31
0
210
0
220
0
230
1
40
0.351556
41
1.5707963267949
42
3.14159265358979
0
ELLIPSE
5
315
100
AcDbEntity
8
1
62
256
6
ByLayer
370
13
48
1
60
0
100
AcDbEllipse
10
8.4
20
-14.452211
30
0
11
-0.1
21
1.22460635382238E-17
31
0
210
0
220
0
230
1
40
0.351556
41
3.14159265358979
42
-1.5707963267949
0
ELLIPSE
5
316
100
AcDbEntity
8
1
62
256
6
ByLayer
370
13
48
1
60
0
100
AcDbEllipse
10
7
20
-14.417055
30
0
11
1.4
21
0
31
0
210
0
220
0
230
1
40
0.936167
41
3.14159265358979
42
0
0
ELLIPSE
5
317
100
AcDbEntity
8
1
62
256
6
ByLayer
370
18
48
1
60
0
100
AcDbEllipse
10
7
20
-14.452211
30
0
11
-1.5
21
1.83690953073357E-16
31
0
210
0
220
0
230
1
40
0.936167
41
0
42
-3.14159265358979
0
ELLIPSE
5
318
100
AcDbEntity
8
1
62
256
6
ByLayer
370
18
48
1
60
0
100
AcDbEllipse
10
7
20
-14.417055
30
0
11
-1
21
1.22460635382238E-16
31
0
210
0
220
0
230
1
40
0.936167
41
0
42
6.28318530717959
0
ELLIPSE
5
319
100
AcDbEntity
8
1
62
256
6
ByLayer
370
18
48
1
60
0
100
AcDbEllipse
10
7
20
-3.38823
30
0
11
3
21
0
31
0
210
0
220
0
230
1
40
0.953717
41
-2.61927783178374
42
-2.5867749619825
0
ELLIPSE
5
31A
100
AcDbEntity
8
1
62
256
6
ByLayer
370
18
48
1
60
0
100
AcDbEllipse
10
7
20
-3.456794
30
0
11
3
21
3.03191716524709E-15
31
0
210
0
220
0
230
-1
40
0.969476
41
2.5867747583382
42
2.61927783178375
0
ELLIPSE
5
31B
100
AcDbEntity
8
1
62
256
6
ByLayer
370
13
48
1
60
0
100
AcDbEllipse
10
5.6
20
-37.432336
30
0
11
0.1
21
0
31
0
210
0
220
0
230
1
40
0.910558
41
1.5707963267949
42
3.14159265358979
0
ELLIPSE
5
31C
100
AcDbEntity
8
1
62
256
6
ByLayer
370
13
48
1
60
0
100
AcDbEllipse
10
8.4
20
-37.432336
30
0
11
-0.1
21
1.22460635382238E-17
31
0
210
0
220
0
230
1
40
0.910558
41
3.14159265358979
42
-1.5707963267949
0
ELLIPSE
5
31D
100
AcDbEntity
8
1
62
256
6
ByLayer
370
13
48
1
60
0
100
AcDbEllipse
10
7
20
-37.432336
30
0
11
-1.5
21
1.83690953073357E-16
31
0
210
0
220
0
230
1
40
0.413382
41
0
42
-3.14159265358978
0
ELLIPSE
5
31E
100
AcDbEntity
8
1
62
256
6
ByLayer
370
18
48
1
60
0
100
AcDbEllipse
10
7
20
-37.34128
30
0
11
-1
21
1.22460635382238E-16
31
0
210
0
220
0
230
1
40
0.413382
41
0
42
6.28318530717959
0
ELLIPSE
5
31F
100
AcDbEntity
8
1
62
256
6
ByLayer
370
18
48
1
60
0
100
AcDbEllipse
10
7.482697
20
44.981421
30
0
11
-0.717138457670834
21
-0.21264155880142
31
0
210
0
220
0
230
1
40
0.955145
41
-2.99942968441094
42
-2.39259245684568
0
ELLIPSE
5
320
100
AcDbEntity
8
1
62
256
6
ByLayer
370
13
48
1
60
0
100
AcDbEllipse
10
6.529607
20
33.117106
30
0
11
1.56985660769988
21
0.278449121414385
31
0
210
0
220
0
230
1
40
0.876151
41
0
42
0.0643569619570652
0
ELLIPSE
5
321
100
AcDbEntity
8
1
62
256
6
ByLayer
370
13
48
1
60
0
100
AcDbEllipse
10
6.529607
20
33.117106
30
0
11
1.56985660769988
21
0.278449121414385
31
0
210
0
220
0
230
1
40
0.876151
41
3.07724296506249
42
-3.01243954539351
0
ELLIPSE
5
322
100
AcDbEntity
8
1
62
256
6
ByLayer
370
13
48
1
60
0
100
AcDbEllipse
10
6.529607
20
33.117106
30
0
11
1.56985660769988
21
0.278449121414385
31
0
210
0
220
0
230
1
40
0.876151
41
-3.01244025947394
42
-2.8450520722908
0
ELLIPSE
5
323
100
AcDbEntity
8
1
62
256
6
ByLayer
370
13
48
1
60
0
100
AcDbEllipse
10
6.529607
20
33.117106
30
0
11
1.56985660769988
21
0.278449121414385
31
0
210
0
220
0
230
1
40
0.876151
41
-0.29643515061885
42
0
0
ELLIPSE
5
324
100
AcDbEntity
8
1
62
256
6
ByLayer
370
18
48
1
60
0
100
AcDbEllipse
10
7.413021
20
1.081085
30
0
11
-1.51911076251742
21
0.133893581637584
31
0
210
0
220
0
230
1
40
0.283919
41
-0.169351813425594
42
-1.02566590910063E-15
0
ELLIPSE
5
325
100
AcDbEntity
8
1
62
256
6
ByLayer
370
18
48
1
60
0
100
AcDbEllipse
10
7.413021
20
1.081085
30
0
11
-1.51911076251742
21
0.133893581637584
31
0
210
0
220
0
230
1
40
0.283919
41
2.48342850960225
42
-2.9723403941505
0
ELLIPSE
5
326
100
AcDbEntity
8
1
62
256
6
ByLayer
370
18
48
1
60
0
100
AcDbEllipse
10
7.413021
20
1.081085
30
0
11
-1.51911076251742
21
0.133893581637584
31
0
210
0
220
0
230
1
40
0.283919
41
0
42
0.658262162459854
0
ELLIPSE
5
327
100
AcDbEntity
8
1
62
256
6
ByLayer
370
18
48
1
60
0
100
AcDbEllipse
10
7
20
22.332608
30
0
11
1.0744
21
0
31
0
210
0
220
0
230
1
40
0.887011
41
0.43255768258572
42
2.70186700081307
0
ELLIPSE
5
328
100
AcDbEntity
8
1
62
256
6
ByLayer
370
18
48
1
60
0
100
AcDbEllipse
10
7
20
21.963209
30
0
11
1.0744
21
0
31
0
210
0
220
0
230
1
40
0.887011
41
0.613199404593188
42
2.52426966751984
0
ELLIPSE
5
329
100
AcDbEntity
8
1
62
256
6
ByLayer
370
13
48
1
60
0
100
AcDbEllipse
10
7.466645
20
45.035557
30
0
11
1.5883526838027
21
0.470968732742613
31
0
210
0
220
0
230
1
40
0.955145
41
2.36620617737454
42
3.04557547958384
0
ELLIPSE
5
32A
100
AcDbEntity
8
1
62
256
6
ByLayer
370
13
48
1
60
0
100
AcDbEllipse
10
7.466645
20
45.035557
30
0
11
1.5883526838027
21
0.470968732742613
31
0
210
0
220
0
230
1
40
0.955145
41
-0.154725288082423
42
0
0
ELLIPSE
5
32B
100
AcDbEntity
8
1
62
256
6
ByLayer
370
13
48
1
60
0
100
AcDbEllipse
10
7.466645
20
45.035557
30
0
11
1.5883526838027
21
0.470968732742613
31
0
210
0
220
0
230
1
40
0.955145
41
0
42
0.77548064044938
0
ELLIPSE
5
32C
100
AcDbEntity
8
1
62
256
6
ByLayer
370
13
48
1
60
0
100
AcDbEllipse
10
7.480376
20
44.989248
30
0
11
-1.52857866666443
21
-0.453244902645164
31
0
210
0
220
0
230
1
40
0.955145
41
-0.301005840736568
42
-0.118597338322937
0
ELLIPSE
5
32D
100
AcDbEntity
8
1
62
256
6
ByLayer
370
13
48
1
60
0
100
AcDbEllipse
10
7.480376
20
44.989248
30
0
11
-1.52857866666443
21
-0.453244902645164
31
0
210
0
220
0
230
1
40
0.955145
41
2.82006851724821
42
-2.7826673765535
0
ELLIPSE
5
32E
100
AcDbEntity
8
1
62
256
6
ByLayer
370
13
48
1
60
0
100
AcDbEllipse
10
7.480376
20
44.989248
30
0
11
-1.52857866666443
21
-0.453244902645164
31
0
210
0
220
0
230
1
40
0.955145
41
-0.359026974613321
42
-0.301005840736563
0
ELLIPSE
5
32F
100
AcDbEntity
8
1
62
256
6
ByLayer
370
18
48
1
60
0
100
AcDbEllipse
10
7
20
-5.537645
30
0
11
-1.0744
21
1.31571706654676E-16
31
0
210
0
220
0
230
1
40
0.953717
41
0.167192017372669
42
2.97371419364119
0
ELLIPSE
5
330
100
AcDbEntity
8
1
62
256
6
ByLayer
370
18
48
1
60
0
100
AcDbEllipse
10
7
20
-5.297081
30
0
11
-1.0744
21
1.31571706654676E-16
31
0
210
0
220
0
230
1
40
0.953717
41
0.362853714085077
42
2.78148732194612
0
ELLIPSE
5
331
100
AcDbEntity
8
1
62
256
6
ByLayer
370
18
48
1
60
0
100
AcDbEllipse
10
8.646774
20
44.984087
30
0
11
0.404588809006807
21
0.11996622702433
31
0
210
0
220
0
230
1
40
0.955145
41
-3.14159015372194
42
-2.90961803667035
0
ELLIPSE
5
332
100
AcDbEntity
8
1
62
256
6
ByLayer
370
18
48
1
60
0
100
AcDbEllipse
10
6.527286
20
33.130191
30
0
11
0.736504159689029
21
0.130635457517312
31
0
210
0
220
0
230
1
40
0.876151
41
-0.0938004850599317
42
-0.0159748025574695
0
ELLIPSE
5
333
100
AcDbEntity
8
1
62
256
6
ByLayer
370
18
48
1
60
0
100
AcDbEllipse
10
6.527286
20
33.130191
30
0
11
0.736504159689029
21
0.130635457517312
31
0
210
0
220
0
230
1
40
0.876151
41
-1.17915837800353
42
-0.169263188894015
0
ELLIPSE
5
334
100
AcDbEntity
8
1
62
256
6
ByLayer
370
18
48
1
60
0
100
AcDbEllipse
10
7.398511
20
45.26534
30
0
11
1.0546153789277
21
0.31270817470797
31
0
210
0
220
0
230
1
40
0.955145
41
-0.853238953295394
42
-0.301005823569853
0
ELLIPSE
5
335
100
AcDbEntity
8
1
62
256
6
ByLayer
370
18
48
1
60
0
100
AcDbEllipse
10
7.398511
20
45.26534
30
0
11
1.0546153789277
21
0.31270817470797
31
0
210
0
220
0
230
1
40
0.955145
41
-0.301005823569861
42
0
0
ELLIPSE
5
336
100
AcDbEntity
8
1
62
256
6
ByLayer
370
18
48
1
60
0
100
AcDbEllipse
10
7.398511
20
45.26534
30
0
11
1.0546153789277
21
0.31270817470797
31
0
210
0
220
0
230
1
40
0.955145
41
0
42
-2.89046305713521
0
ELLIPSE
5
337
100
AcDbEntity
8
1
62
256
6
ByLayer
370
18
48
1
60
0
100
AcDbEllipse
10
7.398511
20
45.26534
30
0
11
0.992297197445606
21
0.294229964384317
31
0
210
0
220
0
230
1
40
0.955145
41
1.27216998251247
42
2.31850955404915
0
ELLIPSE
5
338
100
AcDbEntity
8
1
62
256
6
ByLayer
370
18
48
1
60
0
100
AcDbEllipse
10
7.398511
20
45.26534
30
0
11
0.992297197445606
21
0.294229964384317
31
0
210
0
220
0
230
1
40
0.955145
41
2.31850955404915
42
-2.91576224261401
0
ELLIPSE
5
339
100
AcDbEntity
8
1
62
256
6
ByLayer
370
18
48
1
60
0
100
AcDbEllipse
10
7.398511
20
45.26534
30
0
11
0.992297197445606
21
0.294229964384317
31
0
210
0
220
0
230
1
40
0.955145
41
-2.91576224261401
42
-2.85123237031646
0
ELLIPSE
5
33A
100
AcDbEntity
8
1
62
256
6
ByLayer
370
18
48
1
60
0
100
AcDbEllipse
10
7.398511
20
45.26534
30
0
11
0.992297197445606
21
0.294229964384317
31
0
210
0
220
0
230
1
40
0.955145
41
-0.892370720542517
42
-0.823083099540629
0
ELLIPSE
5
33B
100
AcDbEntity
8
1
62
256
6
ByLayer
370
18
48
1
60
0
100
AcDbEllipse
10
7.398511
20
45.26534
30
0
11
0.992297197445606
21
0.294229964384317
31
0
210
0
220
0
230
1
40
0.955145
41
-0.823083099540629
42
0.225830410975783
0
ELLIPSE
5
33C
100
AcDbEntity
8
1
62
256
6
ByLayer
370
18
48
1
60
0
100
AcDbEllipse
10
7.398511
20
45.26534
30
0
11
0.992297197445606
21
0.294229964384317
31
0
210
0
220
0
230
1
40
0.955145
41
0.225830410975783
42
1.27216998251247
0
ELLIPSE
5
33D
100
AcDbEntity
8
1
62
256
6
ByLayer
370
18
48
1
60
0
100
AcDbEllipse
10
7.413021
20
45.216406
30
0
11
1.46208041169522
21
0.433527242208776
31
0
210
0
220
0
230
1
40
0.955145
41
-0.676916736631395
42
-0.301005621582461
0
ELLIPSE
5
33E
100
AcDbEntity
8
1
62
256
6
ByLayer
370
18
48
1
60
0
100
AcDbEllipse
10
7.413021
20
45.216406
30
0
11
1.46208041169522
21
0.433527242208776
31
0
210
0
220
0
230
1
40
0.955145
41
-0.301005621582466
42
0
0
ELLIPSE
5
33F
100
AcDbEntity
8
1
62
256
6
ByLayer
370
18
48
1
60
0
100
AcDbEllipse
10
7.413021
20
45.216406
30
0
11
1.46208041169522
21
0.433527242208776
31
0
210
0
220
0
230
1
40
0.955145
41
0
42
-3.09054384585798
0
ELLIPSE
5
340
100
AcDbEntity
8
1
62
256
6
ByLayer
370
18
48
1
60
0
100
AcDbEllipse
10
7.474279
20
45.009813
30
0
11
1.46208041169522
21
0.433527242208776
31
0
210
0
220
0
230
1
40
0.955145
41
-0.540061638213183
42
-0.301006305232067
0
ELLIPSE
5
341
100
AcDbEntity
8
1
62
256
6
ByLayer
370
18
48
1
60
0
100
AcDbEllipse
10
7.474279
20
45.009813
30
0
11
1.46208041169522
21
0.433527242208776
31
0
210
0
220
0
230
1
40
0.955145
41
-0.301005621582471
42
0
0
ELLIPSE
5
342
100
AcDbEntity
8
1
62
256
6
ByLayer
370
18
48
1
60
0
100
AcDbEllipse
10
7.412461
20
45.218295
30
0
11
-0.717138457670834
21
-0.21264155880142
31
0
210
0
220
0
230
1
40
0.955145
41
2.80523495739033
42
2.88069766122442
0
ELLIPSE
5
343
100
AcDbEntity
8
1
62
256
6
ByLayer
370
18
48
1
60
0
100
AcDbEllipse
10
7.412461
20
45.218295
30
0
11
-0.717138457670834
21
-0.21264155880142
31
0
210
0
220
0
230
1
40
0.955145
41
-0.336357696199476
42
-0.260894992365384
0
ELLIPSE
5
344
100
AcDbEntity
8
1
62
256
6
ByLayer
370
18
48
1
60
0
100
AcDbEllipse
10
6.31862
20
44.978755
30
0
11
0.404588809006807
21
0.11996622702433
31
0
210
0
220
0
230
1
40
0.955145
41
-1.02055132322466
42
-0.365539666598593
0
ELLIPSE
5
345
100
AcDbEntity
8
1
62
256
6
ByLayer
370
18
48
1
60
0
100
AcDbEllipse
10
8.225255
20
45.391215
30
0
11
0.177367131910567
21
0.052591829382704
31
0
210
0
220
0
230
1
40
0.955145
41
1.00791589831545
42
1.52389992459658
0
ELLIPSE
5
346
100
AcDbEntity
8
1
62
256
6
ByLayer
370
18
48
1
60
0
100
AcDbEllipse
10
8.0879
20
45.954545
30
0
11
0.404588809006807
21
0.11996622702433
31
0
210
0
220
0
230
1
40
0.955145
41
-2.39259245684567
42
-1.61769272899322
0
ELLIPSE
5
347
100
AcDbEntity
8
1
62
256
6
ByLayer
370
18
48
1
60
0
100
AcDbEllipse
10
8.0879
20
45.954545
30
0
11
0.404588809006807
21
0.11996622702433
31
0
210
0
220
0
230
1
40
0.955145
41
-3.14158082392992
42
-2.39259245684567
0
ELLIPSE
5
348
100
AcDbEntity
8
1
62
256
6
ByLayer
370
18
48
1
60
0
100
AcDbEllipse
10
6.759341
20
45.387857
30
0
11
0.177367131910567
21
0.052591829382704
31
0
210
0
220
0
230
1
40
0.955145
41
1.02044004042839
42
2.40485526131006
0
POINT
5
6C
100
AcDbEntity
8
81
62
256
6
ByLayer
370
18
48
1
60
0
100
AcDbPoint
10
10
20
50
30
0
39
0
210
0
220
0
230
1
50
360
0
POINT
5
6E
100
AcDbEntity
8
80
62
256
6
ByLayer
370
18
48
1
60
0
100
AcDbPoint
10
0
20
0
30
0
39
0
210
0
220
0
230
1
50
360
0
SPLINE
5
349
100
AcDbEntity
8
1
62
256
6
ByLayer
370
18
48
1
60
0
100
AcDbSpline
70
4
71
1
72
4
73
2
40
0
40
0
40
1
40
1
41
1
10
9.78926300799219
20
-41.1684876905797
30
0
41
1
10
9.60000312273019
20
-40.5078602168552
30
0
0
SPLINE
5
34A
100
AcDbEntity
8
1
62
256
6
ByLayer
370
18
48
1
60
0
100
AcDbSpline
70
4
71
1
72
4
73
2
40
0
40
0
40
1
40
1
41
1
10
10.006183432152
20
1.51873072843489
30
0
41
1
10
9.6930943381729
20
4.84546070775673
30
0
0
SPLINE
5
34B
100
AcDbEntity
8
1
62
256
6
ByLayer
370
18
48
1
60
0
100
AcDbSpline
70
4
71
1
72
4
73
2
40
0
40
0
40
1
40
1
41
1
10
5.80529758711839
20
5.18592400657218
30
0
41
1
10
4.91581419982623
20
1.96402272768751
30
0
0
SPLINE
5
34C
100
AcDbEntity
8
1
62
256
6
ByLayer
370
18
48
1
60
0
100
AcDbSpline
70
4
71
1
72
4
73
2
40
0
40
0
40
1
40
1
41
1
10
4.32700169351352
20
37.9277140773738
30
0
41
1
10
4.01747609287128
20
36.1539056186247
30
0
0
SPLINE
5
34D
100
AcDbEntity
8
1
62
256
6
ByLayer
370
18
48
1
60
0
100
AcDbSpline
70
4
71
1
72
4
73
2
40
0
40
0
40
1
40
1
41
1
10
9.06261985263103
20
36.5002507194378
30
0
41
1
10
8.1781650806854
20
38.1903299301712
30
0
0
SPLINE
5
34E
100
AcDbEntity
8
1
62
256
6
ByLayer
370
18
48
1
60
0
100
AcDbSpline
70
4
71
1
72
4
73
2
40
0
40
0
40
1
40
1
41
1
10
9.62500145732031
20
40.5951189965207
30
0
41
1
10
9.78926300799219
20
41.1684876905797
30
0
0
SPLINE
5
34F
100
AcDbEntity
8
1
62
256
6
ByLayer
370
18
48
1
60
0
100
AcDbSpline
70
4
71
2
72
6
73
3
40
0
40
0
40
0
40
1
40
1
40
1
41
1
10
9.09813943956061
20
44.8579498163129
30
0
41
1
10
9.1152658076918
20
44.9454213180872
30
0
41
1
10
9.11698114467157
20
45.0338582771278
30
0
0
SPLINE
5
350
100
AcDbEntity
8
1
62
256
6
ByLayer
370
18
48
1
60
0
100
AcDbSpline
70
4
71
1
72
4
73
2
40
0
40
0
40
1
40
1
41
1
10
4.01747609287128
20
-36.1539056186246
30
0
41
1
10
4.32700169351352
20
-37.9277140773738
30
0
0
SPLINE
5
351
100
AcDbEntity
8
1
62
256
6
ByLayer
370
18
48
1
60
0
100
AcDbSpline
70
4
71
3
72
12
73
8
40
0
40
0
40
0
40
0
40
0.499999999999977
40
0.499999999999977
40
0.749999999999988
40
0.749999999999988
40
1
40
1
40
1
40
1
41
1
10
8.26193741723984
20
44.9642017580548
30
0
41
1
10
8.23171050170578
20
44.9895325807696
30
0
41
1
10
8.20649187888591
20
45.0213499499836
30
0
41
1
10
8.1790064162937
20
45.0788395407404
30
0
41
1
10
8.1714891758603
20
45.0999494917405
30
0
41
1
10
8.16078648896604
20
45.1444310101112
30
0
41
1
10
8.15748607504355
20
45.1679443709276
30
0
41
1
10
8.15644750238403
20
45.1929453467031
30
0
0
SPLINE
5
352
100
AcDbEntity
8
1
62
256
6
ByLayer
370
18
48
1
60
0
100
AcDbSpline
70
4
71
3
72
24
73
20
40
0
40
0
40
0
40
0
40
0.124999999999998
40
0.124999999999998
40
0.249999999999996
40
0.249999999999996
40
0.374999999999994
40
0.374999999999994
40
0.499999999999992
40
0.499999999999992
40
0.62499999999999
40
0.62499999999999
40
0.68749999999999
40
0.68749999999999
40
0.74999999999999
40
0.74999999999999
40
0.874999999999995
40
0.874999999999995
40
1
40
1
40
1
40
1
41
1
10
4.19687910163941
20
28.5519243249547
30
0
41
1
10
4.19827275749617
20
28.5209021164483
30
0
41
1
10
4.20263854029201
20
28.4905570576844
30
0
41
1
10
4.21714966851903
20
28.4311837174845
30
0
41
1
10
4.22743401917484
20
28.4018765597201
30
0
41
1
10
4.25357873319848
20
28.3460882347818
30
0
41
1
10
4.26926274479104
20
28.319819195021
30
0
41
1
10
4.30582886370843
20
28.2705156716599
30
0
41
1
10
4.32698127508826
20
28.2472921706843
30
0
41
1
10
4.3729852958852
20
28.2060823309361
30
0
41
1
10
4.39791593458409
20
28.1878839951873
30
0
41
1
10
4.43825089891601
20
28.1642538471999
30
0
41
1
10
4.45226544214563
20
28.1569634959287
30
0
41
1
10
4.48072920269203
20
28.1439305826899
30
0
41
1
10
4.49521882755693
20
28.1381548071902
30
0
41
1
10
4.53944310403017
20
28.1229982804914
30
0
41
1
10
4.56997198125993
20
28.115761417193
30
0
41
1
10
4.63292000318893
20
28.1072857760553
30
0
41
1
10
4.66457827952524
20
28.1061405872271
30
0
41
1
10
4.69641904034296
20
28.1080581404299
30
0
0
SPLINE
5
353
100
AcDbEntity
8
1
62
256
6
ByLayer
370
18
48
1
60
0
100
AcDbSpline
70
4
71
3
72
18
73
14
40
0
40
0
40
0
40
0
40
0.25
40
0.25
40
0.5
40
0.5
40
0.625
40
0.625
40
0.75
40
0.75
40
0.875
40
0.875
40
1
40
1
40
1
40
1
41
1
10
7.27916087391412
20
33.2602911067222
30
0
41
1
10
7.29800092805289
20
33.2608979485448
30
0
41
1
10
7.31752660310241
20
33.2594706431803
30
0
41
1
10
7.35762594004928
20
33.252027366905
30
0
41
1
10
7.37757829344969
20
33.2461148178545
30
0
41
1
10
7.40666318155235
20
33.2336694174303
30
0
41
1
10
7.41602925390049
20
33.2290011373336
30
0
41
1
10
7.43408055170909
20
33.2185837779808
30
0
41
1
10
7.44284592402818
20
33.212769711068
30
0
41
1
10
7.45914598368222
20
33.2003040549888
30
0
41
1
10
7.46668498212898
20
33.1936709388865
30
0
41
1
10
7.48051702016653
20
33.1795821832175
30
0
41
1
10
7.48683979624468
20
33.1720620701434
30
0
41
1
10
7.49226395737162
20
33.1644225808376
30
0
0
SPLINE
5
354
100
AcDbEntity
8
1
62
256
6
ByLayer
370
18
48
1
60
0
100
AcDbSpline
70
4
71
3
72
22
73
18
40
0
40
0
40
0
40
0
40
0.125
40
0.125
40
0.25
40
0.25
40
0.375
40
0.375
40
0.5
40
0.5
40
0.625
40
0.625
40
0.75
40
0.75
40
0.875
40
0.875
40
1
40
1
40
1
40
1
41
1
10
7.27916087391412
20
33.2602911067222
30
0
41
1
10
7.25338438835348
20
33.2594608410892
30
0
41
1
10
7.22668515066494
20
33.2602474691591
30
0
41
1
10
7.1726879677372
20
33.2650052114364
30
0
41
1
10
7.14532933915262
20
33.2689501719868
30
0
41
1
10
7.08963008638085
20
33.2801215945308
30
0
41
1
10
7.06150233873217
20
33.2873440957692
30
0
41
1
10
7.00686728478985
20
33.3045404327902
30
0
41
1
10
6.97979534409649
20
33.3147226220814
30
0
41
1
10
6.92994878145879
20
33.3368073788284
30
0
41
1
10
6.90659453445653
20
33.3489172765279
30
0
41
1
10
6.86426759774395
20
33.374706714031
30
0
41
1
10
6.84582523775288
20
33.3880235205851
30
0
41
1
10
6.81360435419288
20
33.4157387103378
30
0
41
1
10
6.79994983111931
20
33.4301033058774
30
0
41
1
10
6.77787946460415
20
33.4589802104976
30
0
41
1
10
6.76927585197348
20
33.4736506819837
30
0
41
1
10
6.7629376406843
20
33.4886811514581
30
0
0
SPLINE
5
355
100
AcDbEntity
8
1
62
256
6
ByLayer
370
18
48
1
60
0
100
AcDbSpline
70
4
71
3
72
18
73
14
40
0
40
0
40
0
40
0
40
0.125000000000002
40
0.125000000000002
40
0.250000000000004
40
0.250000000000004
40
0.375000000000006
40
0.375000000000006
40
0.500000000000008
40
0.500000000000008
40
0.750000000000004
40
0.750000000000004
40
1
40
1
40
1
40
1
41
1
10
6.58812494103358
20
33.564436251468
30
0
41
1
10
6.59858346051277
20
33.5650660972069
30
0
41
1
10
6.60895225890027
20
33.5651118068
30
0
41
1
10
6.62950970318468
20
33.5640369306838
30
0
41
1
10
6.63969802115207
20
33.5628984644731
30
0
41
1
10
6.65899453577191
20
33.5595822605642
30
0
41
1
10
6.66822558821815
20
33.5574018468874
30
0
41
1
10
6.68587315092577
20
33.5520405345833
30
0
41
1
10
6.69431849140273
20
33.5488313274885
30
0
41
1
10
6.71742199338235
20
33.5381732487791
30
0
41
1
10
6.73040466232681
20
33.5295050609713
30
0
41
1
10
6.75094111514824
20
33.5101292436445
30
0
41
1
10
6.75829025966442
20
33.4997019766357
30
0
41
1
10
6.7629376406843
20
33.4886811514581
30
0
0
SPLINE
5
356
100
AcDbEntity
8
1
62
256
6
ByLayer
370
18
48
1
60
0
100
AcDbSpline
70
4
71
3
72
18
73
14
40
0
40
0
40
0
40
0
40
0.125
40
0.125
40
0.25
40
0.25
40
0.375
40
0.375
40
0.5
40
0.5
40
0.75
40
0.75
40
1
40
1
40
1
40
1
41
1
10
5.70729831895528
20
33.0569261991839
30
0
41
1
10
5.71233035531486
20
33.065221618242
30
0
41
1
10
5.71806632424898
20
33.0733134582263
30
0
41
1
10
5.73094626511511
20
33.0890921897923
30
0
41
1
10
5.73811324337208
20
33.0967748104185
30
0
41
1
10
5.75319672314174
20
33.1110690980247
30
0
41
1
10
5.76118531648939
20
33.1177758861389
30
0
41
1
10
5.77802343947957
20
33.130344158643
30
0
41
1
10
5.78692626202269
20
33.1362221134507
30
0
41
1
10
5.81377333899894
20
33.1519222581019
30
0
41
1
10
5.83241371799619
20
33.1602034426401
30
0
41
1
10
5.86956609248875
20
33.1722726779149
30
0
41
1
10
5.88759087609958
20
33.1759571793903
30
0
41
1
10
5.90505587755433
20
33.1775380766683
30
0
0
SPLINE
5
357
100
AcDbEntity
8
1
62
256
6
ByLayer
370
18
48
1
60
0
100
AcDbSpline
70
4
71
3
72
22
73
18
40
0
40
0
40
0
40
0
40
0.125
40
0.125
40
0.25
40
0.25
40
0.375
40
0.375
40
0.5
40
0.5
40
0.625
40
0.625
40
0.75
40
0.75
40
0.875
40
0.875
40
1
40
1
40
1
40
1
41
1
10
6.40796876876726
20
33.4673037823333
30
0
41
1
10
6.40051304183663
20
33.4514323390196
30
0
41
1
10
6.39073411828093
20
33.435421498615
30
0
41
1
10
6.36676962817626
20
33.4036909917701
30
0
41
1
10
6.352599384597
20
33.3879296487738
30
0
41
1
10
6.31924540418635
20
33.3562210705782
30
0
41
1
10
6.30012717985016
20
33.3403949179785
30
0
41
1
10
6.25804515130488
20
33.309735580266
30
0
41
1
10
6.23458664927142
20
33.2945773678077
30
0
41
1
10
6.18597461362504
20
33.2665971003158
30
0
41
1
10
6.1603353159897
20
33.2534500980714
30
0
41
1
10
6.1078172024005
20
33.2296837717896
30
0
41
1
10
6.08166953775651
20
33.2193696713155
30
0
41
1
10
6.02938916960369
20
33.2017274724178
30
0
41
1
10
6.0033553270689
20
33.1944777355071
30
0
41
1
10
5.95324949908053
20
33.1835136503727
30
0
41
1
10
5.92887506064267
20
33.1796941418601
30
0
41
1
10
5.90505587755433
20
33.1775380766683
30
0
0
SPLINE
5
358
100
AcDbEntity
8
1
62
256
6
ByLayer
370
18
48
1
60
0
100
AcDbSpline
70
4
71
3
72
18
73
14
40
0
40
0
40
0
40
0
40
0.250000000000038
40
0.250000000000038
40
0.500000000000076
40
0.500000000000076
40
0.625000000000057
40
0.625000000000057
40
0.750000000000038
40
0.750000000000038
40
0.875000000000019
40
0.875000000000019
40
1
40
1
40
1
40
1
41
1
10
6.40796876876635
20
33.4673037823314
30
0
41
1
10
6.41341810197616
20
33.4789040976246
30
0
41
1
10
6.42153196894498
20
33.4903181999844
30
0
41
1
10
6.44342676110523
20
33.5122715054102
30
0
41
1
10
6.45690735764231
20
33.5224916435205
30
0
41
1
10
6.48088379441413
20
33.5360553858577
30
0
41
1
10
6.48935687194518
20
33.5401968763027
30
0
41
1
10
6.50729067005983
20
33.5476798674815
30
0
41
1
10
6.51685253133735
20
33.5510477393016
30
0
41
1
10
6.53647107484255
20
33.5567150428749
30
0
41
1
10
6.54651783492949
20
33.559026784064
30
0
41
1
10
6.56709603874964
20
33.5625764599996
30
0
41
1
10
6.57770333291063
20
33.5638086286499
30
0
41
1
10
6.58812494103358
20
33.564436251468
30
0
0
SPLINE
5
359
100
AcDbEntity
8
1
62
256
6
ByLayer
370
18
48
1
60
0
100
AcDbSpline
70
4
71
3
72
18
73
14
40
0
40
0
40
0
40
0
40
0.250000000000028
40
0.250000000000028
40
0.500000000000056
40
0.500000000000056
40
0.625000000000042
40
0.625000000000042
40
0.750000000000028
40
0.750000000000028
40
0.875000000000014
40
0.875000000000014
40
1
40
1
40
1
40
1
41
1
10
5.73469579445162
20
32.8957673575935
30
0
41
1
10
5.72205157467778
20
32.902155307445
30
0
41
1
10
5.71132782305489
20
32.9107178514842
30
0
41
1
10
5.69442160150646
20
32.9323070444492
30
0
41
1
10
5.6885139216588
20
32.9450104975311
30
0
41
1
10
5.68416009079766
20
32.966710183723
30
0
41
1
10
5.68349245257286
20
32.9742482936539
30
0
41
1
10
5.68377399523257
20
32.9899323672958
30
0
41
1
10
5.68474546465376
20
32.9981635584488
30
0
41
1
10
5.68836747072657
20
33.0147840009749
30
0
41
1
10
5.69099563751718
20
33.0231647651278
30
0
41
1
10
5.69792142784985
20
33.0400614310233
30
0
41
1
10
5.70226944450513
20
33.0486359926008
30
0
41
1
10
5.70729831895528
20
33.0569261991839
30
0
0
SPLINE
5
35A
100
AcDbEntity
8
1
62
256
6
ByLayer
370
18
48
1
60
0
100
AcDbSpline
70
4
71
3
72
18
73
14
40
0
40
0
40
0
40
0
40
0.125000000000018
40
0.125000000000018
40
0.250000000000036
40
0.250000000000036
40
0.375000000000054
40
0.375000000000054
40
0.500000000000072
40
0.500000000000072
40
0.750000000000036
40
0.750000000000036
40
1
40
1
40
1
40
1
41
1
10
5.73068008654985
20
32.1467018550263
30
0
41
1
10
5.72522111212544
20
32.1543903760272
30
0
41
1
10
5.72052682435782
20
32.1626613770297
30
0
41
1
10
5.71266543729314
20
32.1803693839056
30
0
41
1
10
5.70951772941959
20
32.1898346529861
30
0
41
1
10
5.70500385885299
20
32.2090813207724
30
0
41
1
10
5.70358548252426
20
32.2189639814022
30
0
41
1
10
5.70237076773077
20
32.2392384079467
30
0
41
1
10
5.70259702846755
20
32.2496911065102
30
0
41
1
10
5.70559595737762
20
32.2805132495814
30
0
41
1
10
5.71067178441791
20
32.3009998625566
30
0
41
1
10
5.72599618378888
20
32.3404110013016
30
0
41
1
10
5.73597724185987
20
32.3588251715811
30
0
41
1
10
5.74804574556333
20
32.3760696723762
30
0
0
SPLINE
5
35B
100
AcDbEntity
8
1
62
256
6
ByLayer
370
18
48
1
60
0
100
AcDbSpline
70
4
71
3
72
12
73
8
40
0
40
0
40
0
40
0
40
0.499999999999998
40
0.499999999999998
40
0.749999999999999
40
0.749999999999999
40
1
40
1
40
1
40
1
41
1
10
5.73469579445162
20
32.8957673575935
30
0
41
1
10
5.76644421317127
20
32.8797278304202
30
0
41
1
10
5.79346322581068
20
32.8570412459105
30
0
41
1
10
5.82400787792358
20
32.8118419958283
30
0
41
1
10
5.83262046295164
20
32.7946396921206
30
0
41
1
10
5.84556810066732
20
32.7570649187048
30
0
41
1
10
5.85002613832506
20
32.7365913952717
30
0
41
1
10
5.85226267582954
20
32.714142229047
30
0
0
SPLINE
5
35C
100
AcDbEntity
8
1
62
256
6
ByLayer
370
18
48
1
60
0
100
AcDbSpline
70
4
71
3
72
14
73
10
40
0
40
0
40
0
40
0
40
0.25
40
0.25
40
0.5
40
0.5
40
0.75
40
0.75
40
1
40
1
40
1
40
1
41
1
10
5.85353566041914
20
32.6645864562204
30
0
41
1
10
5.85249602364729
20
32.6403754979207
30
0
41
1
10
5.84910128444295
20
32.615187003339
30
0
41
1
10
5.83827903914721
20
32.5651729384261
30
0
41
1
10
5.83089129726028
20
32.5402641430018
30
0
41
1
10
5.8124228552428
20
32.4907317411896
30
0
41
1
10
5.8014624195917
20
32.4665032521524
30
0
41
1
10
5.77686150538102
20
32.4200519245573
30
0
41
1
10
5.76315182564451
20
32.3976545197087
30
0
41
1
10
5.74804574556333
20
32.3760696723762
30
0
0
SPLINE
5
35D
100
AcDbEntity
8
1
62
256
6
ByLayer
370
18
48
1
60
0
100
AcDbSpline
70
4
71
3
72
18
73
14
40
0
40
0
40
0
40
0
40
0.124999999999971
40
0.124999999999971
40
0.249999999999941
40
0.249999999999941
40
0.374999999999912
40
0.374999999999912
40
0.499999999999883
40
0.499999999999883
40
0.749999999999941
40
0.749999999999941
40
1
40
1
40
1
40
1
41
1
10
7.49226395737162
20
33.1644225808376
30
0
41
1
10
7.49772293179603
20
33.1567340598368
30
0
41
1
10
7.50234602514297
20
33.1488644428683
30
0
41
1
10
7.50992189304384
20
33.1327661524952
30
0
41
1
10
7.51285285929089
20
33.1245228419285
30
0
41
1
10
7.51680892576508
20
33.1084209944088
30
0
41
1
10
7.51788505747959
20
33.1004678603163
30
0
41
1
10
7.51828881928458
20
33.0847654715686
30
0
41
1
10
7.51758969242928
20
33.0769787250356
30
0
41
1
10
7.51303988741392
20
33.0549002012269
30
0
41
1
10
7.5067261748622
20
33.0413926109898
30
0
41
1
10
7.4886071256509
20
33.0177373112139
30
0
41
1
10
7.47711034636865
20
33.007868561896
30
0
41
1
10
7.46340088493258
20
32.999875547787
30
0
0
SPLINE
5
35E
100
AcDbEntity
8
1
62
256
6
ByLayer
370
18
48
1
60
0
100
AcDbSpline
70
4
71
3
72
14
73
10
40
0
40
0
40
0
40
0
40
0.25
40
0.25
40
0.5
40
0.5
40
0.75
40
0.75
40
1
40
1
40
1
40
1
41
1
10
7.34150922838927
20
32.8038294545852
30
0
41
1
10
7.34281936869093
20
32.8265153523938
30
0
41
1
10
7.3468725270335
20
32.8479917733673
30
0
41
1
10
7.35961254069889
20
32.8871937325287
30
0
41
1
10
7.36825265461715
20
32.9050418322731
30
0
41
1
10
7.3896909624022
20
32.9378305525988
30
0
41
1
10
7.40234760418332
20
32.9524960723301
30
0
41
1
10
7.43058219185457
20
32.9784612649245
30
0
41
1
10
7.44624082703206
20
32.9898707357418
30
0
41
1
10
7.46340088493258
20
32.999875547787
30
0
0
SPLINE
5
35F
100
AcDbEntity
8
1
62
256
6
ByLayer
370
18
48
1
60
0
100
AcDbSpline
70
4
71
3
72
18
73
14
40
0
40
0
40
0
40
0
40
0.249999999999995
40
0.249999999999995
40
0.49999999999999
40
0.49999999999999
40
0.624999999999992
40
0.624999999999992
40
0.749999999999995
40
0.749999999999995
40
0.874999999999997
40
0.874999999999997
40
1
40
1
40
1
40
1
41
1
10
7.47675083604429
20
32.4801778625697
30
0
41
1
10
7.49103190149441
20
32.4645616092216
30
0
41
1
10
7.50327803967497
20
32.447416065944
30
0
41
1
10
7.52298263018525
20
32.4100500661311
30
0
41
1
10
7.5301224668039
20
32.3903998881365
30
0
41
1
10
7.53603638501875
20
32.3599046509716
30
0
41
1
10
7.53716581021723
20
32.3497630516553
30
0
41
1
10
7.5376927494957
20
32.3295208716477
30
0
41
1
10
7.537070489651
20
32.319320886489
30
0
41
1
10
7.53400720745003
20
32.29955043811
30
0
41
1
10
7.53159011318428
20
32.2899796770339
30
0
41
1
10
7.52494963963477
20
32.2714744356287
30
0
41
1
10
7.52067459941628
20
32.2624884432631
30
0
41
1
10
7.51564572496619
20
32.25419823668
30
0
0
SPLINE
5
360
100
AcDbEntity
8
1
62
256
6
ByLayer
370
18
48
1
60
0
100
AcDbSpline
70
4
71
3
72
12
73
8
40
0
40
0
40
0
40
0
40
0.5
40
0.5
40
0.75
40
0.75
40
1
40
1
40
1
40
1
41
1
10
7.47675083604429
20
32.4801778625697
30
0
41
1
10
7.44089245539413
20
32.5193887715064
30
0
41
1
10
7.41008831909124
20
32.5634153457572
30
0
41
1
10
7.3751215922087
20
32.6335456254702
30
0
41
1
10
7.36523411098545
20
32.6579356128955
30
0
41
1
10
7.35038769124935
20
32.7062154497218
30
0
41
1
10
7.34528897714142
20
32.7303010160064
30
0
41
1
10
7.34278221297888
20
32.7542736817585
30
0
0
SPLINE
5
361
100
AcDbEntity
8
1
62
256
6
ByLayer
370
18
48
1
60
0
100
AcDbSpline
70
4
71
3
72
18
73
14
40
0
40
0
40
0
40
0
40
0.249999999999986
40
0.249999999999986
40
0.499999999999971
40
0.499999999999971
40
0.624999999999978
40
0.624999999999978
40
0.749999999999986
40
0.749999999999986
40
0.874999999999993
40
0.874999999999993
40
1
40
1
40
1
40
1
41
1
10
5.93234154434015
20
32.115339589981
30
0
41
1
10
5.9151316719155
20
32.1055420151347
30
0
41
1
10
5.89712171629157
20
32.0984239096048
30
0
41
1
10
5.8598076652674
20
32.090164139349
30
0
41
1
10
5.84108113861259
20
32.089165651271
30
0
41
1
10
5.81354841999468
20
32.0928601405431
30
0
41
1
10
5.80464169637196
20
32.0949386777514
30
0
41
1
10
5.78739445833878
20
32.1008228622643
30
0
41
1
10
5.77897630744746
20
32.1046793440718
30
0
41
1
10
5.76323196572116
20
32.1140119413843
30
0
41
1
10
5.75590282706258
20
32.1194618978001
30
0
41
1
10
5.74235442905774
20
32.1319515312407
30
0
41
1
10
5.73610424767674
20
32.1390623657205
30
0
41
1
10
5.73068008654985
20
32.1467018550263
30
0
0
SPLINE
5
362
100
AcDbEntity
8
1
62
256
6
ByLayer
370
18
48
1
60
0
100
AcDbSpline
70
4
71
3
72
18
73
14
40
0
40
0
40
0
40
0
40
0.125
40
0.125
40
0.25
40
0.25
40
0.375
40
0.375
40
0.5
40
0.5
40
0.75
40
0.75
40
1
40
1
40
1
40
1
41
1
10
6.63481910288783
20
31.7466881843959
30
0
41
1
10
6.62436058340865
20
31.746058338657
30
0
41
1
10
6.61392102897798
20
31.7464115415884
30
0
41
1
10
6.59307959141904
20
31.74908753146
30
0
41
1
10
6.58267580538785
20
31.7514407760187
30
0
41
1
10
6.56282468464809
20
31.7578837704794
30
0
41
1
10
6.55325327266189
20
31.7619830829127
30
0
41
1
10
6.53479895993723
20
31.7718927372571
30
0
41
1
10
6.52588329994313
20
31.7777535390056
30
0
41
1
10
6.50123716765097
20
31.797108748369
30
0
41
1
10
6.4870223950665
20
31.8127233615448
30
0
41
1
10
6.46370466205542
20
31.8477796416483
30
0
41
1
10
6.45484645228254
20
31.8667148042923
30
0
41
1
10
6.44856477756991
20
31.886949545245
30
0
0
SPLINE
5
363
100
AcDbEntity
8
1
62
256
6
ByLayer
370
18
48
1
60
0
100
AcDbSpline
70
4
71
3
72
22
73
18
40
0
40
0
40
0
40
0
40
0.125
40
0.125
40
0.25
40
0.25
40
0.375
40
0.375
40
0.5
40
0.5
40
0.625
40
0.625
40
0.75
40
0.75
40
0.875
40
0.875
40
1
40
1
40
1
40
1
41
1
10
5.93234154433731
20
32.1153395899793
30
0
41
1
10
5.95588765650808
20
32.128744384079
30
0
41
1
10
5.98045063611215
20
32.1400016757484
30
0
41
1
10
6.03055370847488
20
32.1571983758878
30
0
41
1
10
6.05614562883414
20
32.1632138654459
30
0
41
1
10
6.10881001765233
20
32.1691525749332
30
0
41
1
10
6.13569066580402
20
32.168961043576
30
0
41
1
10
6.18862905939869
20
32.1613302366769
30
0
41
1
10
6.21524564056279
20
32.153715299753
30
0
41
1
10
6.26510006418687
20
32.1315862238835
30
0
41
1
10
6.2889053980627
20
32.1169331624447
30
0
41
1
10
6.33294971767566
20
32.0814613640139
30
0
41
1
10
6.35262332065992
20
32.0612029842973
30
0
41
1
10
6.3878760582399
20
32.0163946320944
30
0
41
1
10
6.40333170201092
20
31.9918755738162
30
0
41
1
10
6.42928958063419
20
31.9410814279446
30
0
41
1
10
6.43999767678611
20
31.9145461771956
30
0
41
1
10
6.44856477756991
20
31.886949545245
30
0
0
SPLINE
5
364
100
AcDbEntity
8
1
62
256
6
ByLayer
370
18
48
1
60
0
100
AcDbSpline
70
4
71
3
72
18
73
14
40
0
40
0
40
0
40
0
40
0.125
40
0.125
40
0.25
40
0.25
40
0.375
40
0.375
40
0.5
40
0.5
40
0.75
40
0.75
40
1
40
1
40
1
40
1
41
1
10
7.51564572496619
20
32.25419823668
30
0
41
1
10
7.51061368860655
20
32.2459028176219
30
0
41
1
10
7.50480696368794
20
32.2382098898311
30
0
41
1
10
7.49164302938982
20
32.2240322729089
30
0
41
1
10
7.48426058319058
20
32.2175644299454
30
0
41
1
10
7.46862249756373
20
32.2063969314098
30
0
41
1
10
7.46029354472546
20
32.2016090417735
30
0
41
1
10
7.44264867131329
20
32.1935891135928
30
0
41
1
10
7.43327552941787
20
32.1903627525095
30
0
41
1
10
7.40488582303072
20
32.1833597334291
30
0
41
1
10
7.38501333863132
20
32.1820249841934
30
0
41
1
10
7.34507968600485
20
32.1856362001053
30
0
41
1
10
7.32554583720946
20
32.1904595938581
30
0
41
1
10
7.30644654069994
20
32.1980926200349
30
0
0
SPLINE
5
365
100
AcDbEntity
8
1
62
256
6
ByLayer
370
18
48
1
60
0
100
AcDbSpline
70
4
71
3
72
18
73
14
40
0
40
0
40
0
40
0
40
0.250000000000033
40
0.250000000000033
40
0.500000000000065
40
0.500000000000065
40
0.625000000000049
40
0.625000000000049
40
0.750000000000033
40
0.750000000000033
40
0.875000000000016
40
0.875000000000016
40
1
40
1
40
1
40
1
41
1
10
6.80353364948792
20
31.9083269143717
30
0
41
1
10
6.79971447871321
20
31.887535974747
30
0
41
1
10
6.79311756186593
20
31.8675695230036
30
0
41
1
10
6.77400682602519
20
31.8299201033751
30
0
41
1
10
6.7617528545432
20
31.812784427381
30
0
41
1
10
6.73932790439824
20
31.7904736237472
30
0
41
1
10
6.73131411843724
20
31.7837427126484
30
0
41
1
10
6.7141844417971
20
31.7717261987785
30
0
41
1
10
6.70496988900084
20
31.7664002510576
30
0
41
1
10
6.68590685410862
20
31.7576010688046
30
0
41
1
10
6.67606996971841
20
31.754106078239
30
0
41
1
10
6.65577545583608
20
31.7489569987173
30
0
41
1
10
6.64524071101079
20
31.747315807214
30
0
41
1
10
6.63481910288783
20
31.7466881843959
30
0
0
SPLINE
5
366
100
AcDbEntity
8
1
62
256
6
ByLayer
370
18
48
1
60
0
100
AcDbSpline
70
4
71
3
72
22
73
18
40
0
40
0
40
0
40
0
40
0.125
40
0.125
40
0.25
40
0.25
40
0.375
40
0.375
40
0.5
40
0.5
40
0.625
40
0.625
40
0.75
40
0.75
40
0.875
40
0.875
40
1
40
1
40
1
40
1
41
1
10
6.80353364948729
20
31.9083269143684
30
0
41
1
10
6.80875900336099
20
31.9367728842712
30
0
41
1
10
6.81640166893015
20
31.9648276438628
30
0
41
1
10
6.83647204897716
20
32.0185125902625
30
0
41
1
10
6.8488755842277
20
32.0442343839495
30
0
41
1
10
6.87919470006881
20
32.0930530976474
30
0
41
1
10
6.89706582522962
20
32.1159102183138
30
0
41
1
10
6.9374511930867
20
32.1561350880667
30
0
41
1
10
6.96045433555435
20
32.1738605530972
30
0
41
1
10
7.00907423185276
20
32.2017965033495
30
0
41
1
10
7.03516461671848
20
32.2124003398415
30
0
41
1
10
7.08940011252196
20
32.226484309062
30
0
41
1
10
7.11677901986843
20
32.2298568380118
30
0
41
1
10
7.17209124259165
20
32.2304058713545
30
0
41
1
10
7.19992620519923
20
32.227501149048
30
0
41
1
10
7.25391954501413
20
32.216547994518
30
0
41
1
10
7.28039846726585
20
32.2085027221177
30
0
41
1
10
7.30644654069994
20
32.1980926200349
30
0
0
SPLINE
5
367
100
AcDbEntity
8
1
62
256
6
ByLayer
370
18
48
1
60
0
100
AcDbSpline
70
4
71
3
72
24
73
20
40
0
40
0
40
0
40
0
40
0.125000000000013
40
0.125000000000013
40
0.187500000000016
40
0.187500000000016
40
0.25000000000002
40
0.25000000000002
40
0.375000000000017
40
0.375000000000017
40
0.500000000000013
40
0.500000000000013
40
0.62500000000001
40
0.62500000000001
40
0.750000000000007
40
0.750000000000007
40
0.875000000000003
40
0.875000000000003
40
1
40
1
40
1
40
1
41
1
10
5.39410893778233
20
49.9657892205138
30
0
41
1
10
5.36228011956092
20
49.9657163265928
30
0
41
1
10
5.33098212293669
20
49.9625137822615
30
0
41
1
10
5.28480753435895
20
49.9531559651758
30
0
41
1
10
5.26954565097094
20
49.9492723172006
30
0
41
1
10
5.23928832813266
20
49.9399341047891
30
0
41
1
10
5.22425887985452
20
49.9344551985873
30
0
41
1
10
5.18057732874371
20
49.9160026928832
30
0
41
1
10
5.15298605992797
20
49.9009483620554
30
0
41
1
10
5.10084235982077
20
49.8653716146632
30
0
41
1
10
5.07622295115902
20
49.8446791637045
30
0
41
1
10
5.03221882719856
20
49.7995396066352
30
0
41
1
10
5.01252627954591
20
49.774923193096
30
0
41
1
10
4.97784346977306
20
49.7215233158043
30
0
41
1
10
4.9632378701927
20
49.6932643626619
30
0
41
1
10
4.93977429730182
20
49.6347683609274
30
0
41
1
10
4.93077548070744
20
49.6041401999911
30
0
41
1
10
4.91877727678587
20
49.541625604272
30
0
41
1
10
4.91578241284776
20
49.5100313017278
30
0
41
1
10
4.91578093219204
20
49.478101212145
30
0
0
SPLINE
5
368
100
AcDbEntity
8
1
62
256
6
ByLayer
370
18
48
1
60
0
100
AcDbSpline
70
4
71
3
72
18
73
14
40
0
40
0
40
0
40
0
40
0.125
40
0.125
40
0.25
40
0.25
40
0.375000000000001
40
0.375000000000001
40
0.500000000000001
40
0.500000000000001
40
0.75
40
0.75
40
1
40
1
40
1
40
1
41
1
10
7.32729314883414
20
-4.94891831146697
30
0
41
1
10
7.33172122620908
20
-4.93720461247005
30
0
41
1
10
7.34039935339848
20
-4.92656928923429
30
0
41
1
10
7.36463662735281
20
-4.91034768680322
30
0
41
1
10
7.38011822421959
20
-4.9046821527848
30
0
41
1
10
7.41320830953873
20
-4.89799444230198
30
0
41
1
10
7.43060734036487
20
-4.89683159782788
30
0
41
1
10
7.4664320612315
20
-4.89746768649286
30
0
41
1
10
7.48427573172211
20
-4.89926877636185
30
0
41
1
10
7.53763183923445
20
-4.9077861657239
30
0
41
1
10
7.57313443809846
20
-4.91769801232584
30
0
41
1
10
7.64077219624869
20
-4.94243710474916
30
0
41
1
10
7.67336904282581
20
-4.95739058223114
30
0
41
1
10
7.70485000000002
20
-4.97472490195872
30
0
0
SPLINE
5
369
100
AcDbEntity
8
1
62
256
6
ByLayer
370
18
48
1
60
0
100
AcDbSpline
70
4
71
3
72
32
73
28
40
0
40
0
40
0
40
0
40
0.0625000000000059
40
0.0625000000000059
40
0.125000000000012
40
0.125000000000012
40
0.250000000000009
40
0.250000000000009
40
0.375000000000006
40
0.375000000000006
40
0.500000000000003
40
0.500000000000003
40
0.625000000000001
40
0.625000000000001
40
0.687499999999997
40
0.687499999999997
40
0.749999999999994
40
0.749999999999994
40
0.812499999999991
40
0.812499999999991
40
0.874999999999988
40
0.874999999999988
40
0.937499999999984
40
0.937499999999984
40
0.968749999999992
40
0.968749999999992
40
1
40
1
40
1
40
1
41
1
10
7.32729314883409
20
-4.94891831146714
30
0
41
1
10
7.32386204695331
20
-4.95981636430702
30
0
41
1
10
7.31696588168586
20
-4.96996175806777
30
0
41
1
10
7.29924478490841
20
-4.98771798202
30
0
41
1
10
7.28822781892728
20
-4.99560353470082
30
0
41
1
10
7.25224975463397
20
-5.01614752040211
30
0
41
1
10
7.22359857218714
20
-5.02635523389694
30
0
41
1
10
7.16373112211608
20
-5.0418388402847
30
0
41
1
10
7.13179880827346
20
-5.04726478375153
30
0
41
1
10
7.06650647666947
20
-5.05439766125011
30
0
41
1
10
7.03343268245754
20
-5.05609500680316
30
0
41
1
10
6.96645788819495
20
-5.05609119394978
30
0
41
1
10
6.93326085945165
20
-5.05436999048533
30
0
41
1
10
6.88472525481143
20
-5.04907108298272
30
0
41
1
10
6.86871466479664
20
-5.04684393662706
30
0
41
1
10
6.83706105085906
20
-5.0413108931827
30
0
41
1
10
6.82141010756811
20
-5.03799431515284
30
0
41
1
10
6.79135816817995
20
-5.03022509202521
30
0
41
1
10
6.77685207599598
20
-5.02576158568314
30
0
41
1
10
6.74908703598612
20
-5.01532300219799
30
0
41
1
10
6.73577114375746
20
-5.00930777920883
30
0
41
1
10
6.7117473209284
20
-4.99558884300995
30
0
41
1
10
6.7007899692332
20
-4.98775174562905
30
0
41
1
10
6.68745372931653
20
-4.97439065903853
30
0
41
1
10
6.68354803895443
20
-4.96969573597522
30
0
41
1
10
6.6770357454036
20
-4.95971527794217
30
0
41
1
10
6.67442744240645
20
-4.95438334716323
30
0
41
1
10
6.67270685116586
20
-4.94891831146697
30
0
0
SPLINE
5
36A
100
AcDbEntity
8
1
62
256
6
ByLayer
370
18
48
1
60
0
100
AcDbSpline
70
4
71
3
72
18
73
14
40
0
40
0
40
0
40
0
40
0.125000000000002
40
0.125000000000002
40
0.250000000000003
40
0.250000000000003
40
0.375000000000005
40
0.375000000000005
40
0.500000000000007
40
0.500000000000007
40
0.750000000000003
40
0.750000000000003
40
1
40
1
40
1
40
1
41
1
10
6.67270685116586
20
-4.94891831146697
30
0
41
1
10
6.66827877379092
20
-4.93720461247005
30
0
41
1
10
6.65960064660152
20
-4.92656928923429
30
0
41
1
10
6.63536337264719
20
-4.91034768680322
30
0
41
1
10
6.61988177578041
20
-4.9046821527848
30
0
41
1
10
6.58679169046127
20
-4.89799444230198
30
0
41
1
10
6.56939265963513
20
-4.89683159782788
30
0
41
1
10
6.5335679387685
20
-4.89746768649286
30
0
41
1
10
6.51572426827789
20
-4.89926877636185
30
0
41
1
10
6.46236816076555
20
-4.9077861657239
30
0
41
1
10
6.42686556190154
20
-4.91769801232584
30
0
41
1
10
6.35922780375131
20
-4.94243710474916
30
0
41
1
10
6.32663095717419
20
-4.95739058223114
30
0
41
1
10
6.29514999999998
20
-4.97472490195872
30
0
0
SPLINE
5
36B
100
AcDbEntity
8
1
62
256
6
ByLayer
370
18
48
1
60
0
100
AcDbSpline
70
4
71
3
72
20
73
16
40
0
40
0
40
0
40
0
40
0.250000000000004
40
0.250000000000004
40
0.375000000000003
40
0.375000000000003
40
0.500000000000002
40
0.500000000000002
40
0.625000000000002
40
0.625000000000002
40
0.750000000000001
40
0.750000000000001
40
0.875000000000001
40
0.875000000000001
40
1
40
1
40
1
40
1
41
1
10
7.70485000000002
20
-4.97472490195872
30
0
41
1
10
7.73633333290769
20
-4.99206052983345
30
0
41
1
10
7.76611170473768
20
-5.01148124130339
30
0
41
1
10
7.80736363290117
20
-5.04355160034322
30
0
41
1
10
7.82056952047333
20
-5.05475727533297
30
0
41
1
10
7.84567900689734
20
-5.07837050615814
30
0
41
1
10
7.85766431997604
20
-5.09086999687889
30
0
41
1
10
7.87939160682907
20
-5.11684227418334
30
0
41
1
10
7.88922030617152
20
-5.13039676433277
30
0
41
1
10
7.90549297749033
20
-5.15836712124229
30
0
41
1
10
7.91187685760815
20
-5.17258700923543
30
0
41
1
10
7.91921059878712
20
-5.20158122007666
30
0
41
1
10
7.91989343471738
20
-5.21606058989119
30
0
41
1
10
7.91289199304799
20
-5.24182440187354
30
0
41
1
10
7.90506153733236
20
-5.25294265636529
30
0
41
1
10
7.89418151158401
20
-5.26106333537399
30
0
0
SPLINE
5
36C
100
AcDbEntity
8
1
62
256
6
ByLayer
370
18
48
1
60
0
100
AcDbSpline
70
4
71
3
72
32
73
28
40
0
40
0
40
0
40
0
40
0.0624999999999981
40
0.0624999999999981
40
0.124999999999996
40
0.124999999999996
40
0.249999999999995
40
0.249999999999995
40
0.374999999999993
40
0.374999999999993
40
0.499999999999992
40
0.499999999999992
40
0.624999999999991
40
0.624999999999991
40
0.687499999999992
40
0.687499999999992
40
0.749999999999994
40
0.749999999999994
40
0.812499999999995
40
0.812499999999995
40
0.874999999999997
40
0.874999999999997
40
0.937499999999998
40
0.937499999999998
40
0.968749999999999
40
0.968749999999999
40
1
40
1
40
1
40
1
41
1
10
6.10581848841599
20
-5.26106333537399
30
0
41
1
10
6.11628011895067
20
-5.26809017709201
30
0
41
1
10
6.12435327711944
20
-5.27758748473661
30
0
41
1
10
6.13591900493952
20
-5.29873303173122
30
0
41
1
10
6.13962614222754
20
-5.31064358616214
30
0
41
1
10
6.14591336973717
20
-5.34753619985906
30
0
41
1
10
6.14403692929608
20
-5.37455329982629
30
0
41
1
10
6.13321786745206
20
-5.42895893108079
30
0
41
1
10
6.12411101163309
20
-5.45698222075703
30
0
41
1
10
6.10052303841235
20
-5.5130551483561
30
0
41
1
10
6.08617448791949
20
-5.5408645997386
30
0
41
1
10
6.05268220067904
20
-5.59618084920834
30
0
41
1
10
6.03386514070598
20
-5.62310009778474
30
0
41
1
10
6.00286806741633
20
-5.66159416838002
30
0
41
1
10
5.99204436106101
20
-5.67414275677629
30
0
41
1
10
5.96927448025502
20
-5.69857685357351
30
0
41
1
10
5.95731135159861
20
-5.71046537713778
30
0
41
1
10
5.93269401001339
20
-5.73279863121331
30
0
41
1
10
5.91997264125479
20
-5.74332734733571
30
0
41
1
10
5.89345943039939
20
-5.76277592863858
30
0
41
1
10
5.87959169932339
20
-5.77172878985067
30
0
41
1
10
5.85136856447349
20
-5.78677853003563
30
0
41
1
10
5.83673048636871
20
-5.79303501187041
30
0
41
1
10
5.81469206368467
20
-5.79915223111357
30
0
41
1
10
5.80737415375711
20
-5.80063734491625
30
0
41
1
10
5.79280018068334
20
-5.80226759126901
30
0
41
1
10
5.78549211426019
20
-5.80239589847196
30
0
41
1
10
5.77852533958173
20
-5.8017143761104
30
0
0
SPLINE
5
36D
100
AcDbEntity
8
1
62
256
6
ByLayer
370
18
48
1
60
0
100
AcDbSpline
70
4
71
3
72
18
73
14
40
0
40
0
40
0
40
0
40
0.125000000000001
40
0.125000000000001
40
0.250000000000003
40
0.250000000000003
40
0.375000000000004
40
0.375000000000004
40
0.500000000000005
40
0.500000000000005
40
0.750000000000003
40
0.750000000000003
40
1
40
1
40
1
40
1
41
1
10
5.77852533958173
20
-5.8017143761104
30
0
41
1
10
5.76318609428881
20
-5.80088513305259
30
0
41
1
10
5.74670321546358
20
-5.80410418281161
30
0
41
1
10
5.71547614177695
20
-5.81842284413972
30
0
41
1
10
5.70068229636467
20
-5.82942783870323
30
0
41
1
10
5.67492449212153
20
-5.85514346739848
30
0
41
1
10
5.66392412227418
20
-5.86961814908409
30
0
41
1
10
5.64447707143063
20
-5.90068846366648
30
0
41
1
10
5.63636071056823
20
-5.91678389284414
30
0
41
1
10
5.61533020852573
20
-5.96626068716773
30
0
41
1
10
5.60572169764924
20
-6.0010120072069
30
0
41
1
10
5.59326692359974
20
-6.06985234957824
30
0
41
1
10
5.59030000000001
20
-6.10438826095992
30
0
41
1
10
5.59030000000001
20
-6.13905690041508
30
0
0
SPLINE
5
36E
100
AcDbEntity
8
1
62
256
6
ByLayer
370
18
48
1
60
0
100
AcDbSpline
70
4
71
3
72
20
73
16
40
0
40
0
40
0
40
0
40
0.250000000000004
40
0.250000000000004
40
0.375000000000003
40
0.375000000000003
40
0.500000000000002
40
0.500000000000002
40
0.625000000000002
40
0.625000000000002
40
0.750000000000001
40
0.750000000000001
40
0.875000000000001
40
0.875000000000001
40
1
40
1
40
1
40
1
41
1
10
6.29514999999998
20
-4.97472490195872
30
0
41
1
10
6.26366666709231
20
-4.99206052983345
30
0
41
1
10
6.23388829526232
20
-5.01148124130339
30
0
41
1
10
6.19263636709883
20
-5.04355160034322
30
0
41
1
10
6.17943047952667
20
-5.05475727533297
30
0
41
1
10
6.1543209931026
20
-5.07837050615808
30
0
41
1
10
6.14233568002396
20
-5.09086999687889
30
0
41
1
10
6.12060839317093
20
-5.11684227418334
30
0
41
1
10
6.11077969382848
20
-5.13039676433272
30
0
41
1
10
6.09450702250967
20
-5.15836712124229
30
0
41
1
10
6.08812314239185
20
-5.17258700923543
30
0
41
1
10
6.08078940121288
20
-5.20158122007666
30
0
41
1
10
6.08010656528262
20
-5.21606058989113
30
0
41
1
10
6.08710800695201
20
-5.24182440187354
30
0
41
1
10
6.09493846266764
20
-5.25294265636529
30
0
41
1
10
6.10581848841599
20
-5.26106333537399
30
0
0
SPLINE
5
36F
100
AcDbEntity
8
1
62
256
6
ByLayer
370
18
48
1
60
0
100
AcDbSpline
70
4
71
3
72
22
73
18
40
0
40
0
40
0
40
0
40
0.0624999999999999
40
0.0624999999999999
40
0.125
40
0.125
40
0.25
40
0.25
40
0.374999999999999
40
0.374999999999999
40
0.499999999999999
40
0.499999999999999
40
0.624999999999999
40
0.624999999999999
40
0.749999999999998
40
0.749999999999998
40
1
40
1
40
1
40
1
41
1
10
8.2214746604181
20
-5.80171437611045
30
0
41
1
10
8.22913037128416
20
-5.80130050665554
30
0
41
1
10
8.23714552835298
20
-5.80185367418909
30
0
41
1
10
8.25313902978388
20
-5.80505734885009
30
0
41
1
10
8.26105783258595
20
-5.80766423951428
30
0
41
1
10
8.28456882543384
20
-5.8184407557394
30
0
41
1
10
8.29933451108121
20
-5.82944995597938
30
0
41
1
10
8.32500136592552
20
-5.85506412140387
30
0
41
1
10
8.33610844820964
20
-5.86967283668042
30
0
41
1
10
8.35546621554175
20
-5.90059520712742
30
0
41
1
10
8.36358364455037
20
-5.91666582685093
30
0
41
1
10
8.37762832430275
20
-5.94968201975718
30
0
41
1
10
8.38356377907553
20
-5.96674228938917
30
0
41
1
10
8.39341466532812
20
-6.00090994906435
30
0
41
1
10
8.39735472471335
20
-6.01804997754653
30
0
41
1
10
8.40670623679387
20
-6.06963676809181
30
0
41
1
10
8.40969999999999
20
-6.10442417902948
30
0
41
1
10
8.40969999999999
20
-6.13905690041514
30
0
0
SPLINE
5
370
100
AcDbEntity
8
1
62
256
6
ByLayer
370
18
48
1
60
0
100
AcDbSpline
70
4
71
3
72
32
73
28
40
0
40
0
40
0
40
0
40
0.0624999999999902
40
0.0624999999999902
40
0.12499999999998
40
0.12499999999998
40
0.24999999999998
40
0.24999999999998
40
0.374999999999979
40
0.374999999999979
40
0.499999999999978
40
0.499999999999978
40
0.624999999999977
40
0.624999999999977
40
0.68749999999998
40
0.68749999999998
40
0.749999999999983
40
0.749999999999983
40
0.812499999999986
40
0.812499999999986
40
0.874999999999989
40
0.874999999999989
40
0.937499999999992
40
0.937499999999992
40
0.968749999999996
40
0.968749999999996
40
1
40
1
40
1
40
1
41
1
10
7.89418151158401
20
-5.26106333537399
30
0
41
1
10
7.88371988104933
20
-5.26809017709201
30
0
41
1
10
7.87564672288056
20
-5.27758748473661
30
0
41
1
10
7.86408099506048
20
-5.29873303173122
30
0
41
1
10
7.86037385777246
20
-5.31064358616214
30
0
41
1
10
7.85408663026283
20
-5.34753619985906
30
0
41
1
10
7.85596307070392
20
-5.37455329982629
30
0
41
1
10
7.86678213254794
20
-5.42895893108079
30
0
41
1
10
7.87588898836691
20
-5.45698222075703
30
0
41
1
10
7.89947696158765
20
-5.5130551483561
30
0
41
1
10
7.91382551208051
20
-5.5408645997386
30
0
41
1
10
7.94731779932096
20
-5.59618084920834
30
0
41
1
10
7.96613485929402
20
-5.62310009778474
30
0
41
1
10
7.99713193258367
20
-5.66159416838002
30
0
41
1
10
8.007955638939
20
-5.67414275677629
30
0
41
1
10
8.03072551974498
20
-5.69857685357351
30
0
41
1
10
8.04268864840139
20
-5.71046537713778
30
0
41
1
10
8.06730598998661
20
-5.73279863121331
30
0
41
1
10
8.08002735874521
20
-5.74332734733571
30
0
41
1
10
8.10654056960061
20
-5.76277592863858
30
0
41
1
10
8.12040830067662
20
-5.77172878985067
30
0
41
1
10
8.14863143552651
20
-5.78677853003563
30
0
41
1
10
8.16326951363129
20
-5.79303501187041
30
0
41
1
10
8.18530793631533
20
-5.79915223111357
30
0
41
1
10
8.19262584624283
20
-5.80063734491625
30
0
41
1
10
8.20719981931666
20
-5.80226759126901
30
0
41
1
10
8.21450788573981
20
-5.80239589847196
30
0
41
1
10
8.22147466041827
20
-5.8017143761104
30
0
0
SPLINE
5
371
100
AcDbEntity
8
1
62
256
6
ByLayer
370
18
48
1
60
0
100
AcDbSpline
70
4
71
3
72
20
73
16
40
0
40
0
40
0
40
0
40
0.25
40
0.25
40
0.499999999999999
40
0.499999999999999
40
0.624999999999997
40
0.624999999999997
40
0.749999999999994
40
0.749999999999994
40
0.812499999999993
40
0.812499999999993
40
0.874999999999992
40
0.874999999999992
40
1
40
1
40
1
40
1
41
1
10
8.40969999999999
20
-6.13905690041514
30
0
41
1
10
8.40969999999999
20
-6.17371370244695
30
0
41
1
10
8.40673523107944
20
-6.20770328534127
30
0
41
1
10
8.3942786912811
20
-6.27413471566308
30
0
41
1
10
8.38469915234492
20
-6.30696713301535
30
0
41
1
10
8.36354160073142
20
-6.35206903804533
30
0
41
1
10
8.35525471174202
20
-6.36654389129143
30
0
41
1
10
8.33603238061431
20
-6.39258621399676
30
0
41
1
10
8.32507088574835
20
-6.40431311749592
30
0
41
1
10
8.30565035666939
20
-6.41846581421464
30
0
41
1
10
8.29883429597413
20
-6.42247439291771
30
0
41
1
10
8.28439658862675
20
-6.42877973460304
30
0
41
1
10
8.27668780056678
20
-6.43107017651005
30
0
41
1
10
8.25334720103064
20
-6.43456390951962
30
0
41
1
10
8.23684464931625
20
-6.43232738020242
30
0
41
1
10
8.22147466041827
20
-6.42600442392421
30
0
0
SPLINE
5
372
100
AcDbEntity
8
1
62
256
6
ByLayer
370
18
48
1
60
0
100
AcDbSpline
70
4
71
3
72
20
73
16
40
0
40
0
40
0
40
0
40
0.249999999999996
40
0.249999999999996
40
0.374999999999997
40
0.374999999999997
40
0.499999999999997
40
0.499999999999997
40
0.624999999999998
40
0.624999999999998
40
0.749999999999999
40
0.749999999999999
40
0.874999999999999
40
0.874999999999999
40
1
40
1
40
1
40
1
41
1
10
5.59030000000001
20
-6.13905690041508
30
0
41
1
10
5.59030000000001
20
-6.17372815616454
30
0
41
1
10
5.59329537836669
20
-6.20789635353157
30
0
41
1
10
5.60261430817314
20
-6.25754993916513
30
0
41
1
10
5.60653786833808
20
-6.27386673038313
30
0
41
1
10
5.6163326197053
20
-6.30591269444915
30
0
41
1
10
5.62225051419688
20
-6.32175308021095
30
0
41
1
10
5.63637203018249
20
-6.35191331353155
30
0
41
1
10
5.6446088366821
20
-6.36634434562842
30
0
41
1
10
5.66397528303349
20
-6.39261118109539
30
0
41
1
10
5.6749359943945
20
-6.40431093427588
30
0
41
1
10
5.70074385162758
20
-6.42313276590403
30
0
41
1
10
5.71544716234445
20
-6.42989205937721
30
0
41
1
10
5.74672877372171
20
-6.43457612216429
30
0
41
1
10
5.76322987487993
20
-6.43229672219508
30
0
41
1
10
5.7785253395819
20
-6.42600442392416
30
0
0
SPLINE
5
373
100
AcDbEntity
8
1
62
256
6
ByLayer
370
18
48
1
60
0
100
AcDbSpline
70
4
71
3
72
32
73
28
40
0
40
0
40
0
40
0
40
0.062499999999998
40
0.062499999999998
40
0.124999999999996
40
0.124999999999996
40
0.249999999999992
40
0.249999999999992
40
0.374999999999987
40
0.374999999999987
40
0.499999999999983
40
0.499999999999983
40
0.624999999999979
40
0.624999999999979
40
0.687499999999982
40
0.687499999999982
40
0.749999999999986
40
0.749999999999986
40
0.812499999999989
40
0.812499999999989
40
0.874999999999993
40
0.874999999999993
40
0.937499999999996
40
0.937499999999996
40
0.968749999999998
40
0.968749999999998
40
1
40
1
40
1
40
1
41
1
10
6.10581848841599
20
-6.96665546466062
30
0
41
1
10
6.11628011895067
20
-6.95460430433837
30
0
41
1
10
6.12435327711938
20
-6.94002207907096
30
0
41
1
10
6.13591900493952
20
-6.9093998011972
30
0
41
1
10
6.13962614222754
20
-6.89296281066328
30
0
41
1
10
6.14591336973717
20
-6.8436893434735
30
0
41
1
10
6.14403692929608
20
-6.80966822974597
30
0
41
1
10
6.13321786745206
20
-6.7441294797664
30
0
41
1
10
6.12411101163309
20
-6.71185036377898
30
0
41
1
10
6.10052303841229
20
-6.65009238656995
30
0
41
1
10
6.08617448791949
20
-6.6208577601559
30
0
41
1
10
6.05268220067904
20
-6.56554465551778
30
0
41
1
10
6.03386514070598
20
-6.5400693798735
30
0
41
1
10
6.00286806741627
20
-6.50579881420623
30
0
41
1
10
5.99204436106101
20
-6.49500352623596
30
0
41
1
10
5.96927448025497
20
-6.47479556649625
30
0
41
1
10
5.95731135159861
20
-6.46538713830904
30
0
41
1
10
5.93269401001339
20
-6.44864057798816
30
0
41
1
10
5.91997264125479
20
-6.44122891162255
30
0
41
1
10
5.89345943039939
20
-6.42872244881392
30
0
41
1
10
5.87959169932339
20
-6.42361880080938
30
0
41
1
10
5.85136856447349
20
-6.41683665024914
30
0
41
1
10
5.83673048636871
20
-6.41507969408445
30
0
41
1
10
5.81469206368467
20
-6.41609362324544
30
0
41
1
10
5.80737415375711
20
-6.41703529864395
30
0
41
1
10
5.79280018068334
20
-6.42037181788248
30
0
41
1
10
5.78549211426019
20
-6.42280336151953
30
0
41
1
10
5.77852533958173
20
-6.42600442392421
30
0
0
SPLINE
5
374
100
AcDbEntity
8
1
62
256
6
ByLayer
370
18
48
1
60
0
100
AcDbSpline
70
4
71
3
72
20
73
16
40
0
40
0
40
0
40
0
40
0.250000000000004
40
0.250000000000004
40
0.375000000000003
40
0.375000000000003
40
0.500000000000002
40
0.500000000000002
40
0.625000000000002
40
0.625000000000002
40
0.750000000000001
40
0.750000000000001
40
0.875000000000001
40
0.875000000000001
40
1
40
1
40
1
40
1
41
1
10
6.29514999999998
20
-7.3033888988715
30
0
41
1
10
6.26366666709231
20
-7.28605327099677
30
0
41
1
10
6.23388829526232
20
-7.26608296220871
30
0
41
1
10
6.19263636709883
20
-7.23219924469441
30
0
41
1
10
6.17943047952667
20
-7.22022013732942
30
0
41
1
10
6.15432099310266
20
-7.19460827215221
30
0
41
1
10
6.14233568002396
20
-7.18087459612923
30
0
41
1
10
6.12060839317093
20
-7.1518166862258
30
0
41
1
10
6.11077969382848
20
-7.13640555825998
30
0
41
1
10
6.09450702250967
20
-7.10380062654218
30
0
41
1
10
6.08812314239185
20
-7.08684908815866
30
0
41
1
10
6.08078940121288
20
-7.05092477023567
30
0
41
1
10
6.08010656528262
20
-7.03226790016441
30
0
41
1
10
6.08710800695201
20
-6.99684388531966
30
0
41
1
10
6.09493846266764
20
-6.98024156567101
30
0
41
1
10
6.10581848841599
20
-6.96665546466062
30
0
0
SPLINE
5
375
100
AcDbEntity
8
1
62
256
6
ByLayer
370
18
48
1
60
0
100
AcDbSpline
70
4
71
3
72
32
73
28
40
0
40
0
40
0
40
0
40
0.0625000000000005
40
0.0625000000000005
40
0.125000000000001
40
0.125000000000001
40
0.249999999999999
40
0.249999999999999
40
0.374999999999996
40
0.374999999999996
40
0.499999999999994
40
0.499999999999994
40
0.624999999999992
40
0.624999999999992
40
0.687499999999992
40
0.687499999999992
40
0.749999999999993
40
0.749999999999993
40
0.812499999999993
40
0.812499999999993
40
0.874999999999994
40
0.874999999999994
40
0.937499999999994
40
0.937499999999994
40
0.968749999999997
40
0.968749999999997
40
1
40
1
40
1
40
1
41
1
10
7.89418151158401
20
-6.96665546466062
30
0
41
1
10
7.88371988104933
20
-6.95460430433837
30
0
41
1
10
7.87564672288062
20
-6.94002207907096
30
0
41
1
10
7.86408099506048
20
-6.9093998011972
30
0
41
1
10
7.86037385777246
20
-6.89296281066328
30
0
41
1
10
7.85408663026283
20
-6.8436893434735
30
0
41
1
10
7.85596307070392
20
-6.80966822974597
30
0
41
1
10
7.86678213254794
20
-6.7441294797664
30
0
41
1
10
7.87588898836691
20
-6.71185036377898
30
0
41
1
10
7.89947696158771
20
-6.65009238656995
30
0
41
1
10
7.91382551208051
20
-6.6208577601559
30
0
41
1
10
7.94731779932096
20
-6.56554465551778
30
0
41
1
10
7.96613485929402
20
-6.5400693798735
30
0
41
1
10
7.99713193258367
20
-6.50579881420623
30
0
41
1
10
8.007955638939
20
-6.49500352623596
30
0
41
1
10
8.03072551974503
20
-6.47479556649625
30
0
41
1
10
8.04268864840139
20
-6.46538713830904
30
0
41
1
10
8.06730598998661
20
-6.44864057798816
30
0
41
1
10
8.08002735874521
20
-6.44122891162255
30
0
41
1
10
8.10654056960061
20
-6.42872244881392
30
0
41
1
10
8.12040830067662
20
-6.42361880080938
30
0
41
1
10
8.14863143552651
20
-6.41683665024914
30
0
41
1
10
8.16326951363129
20
-6.41507969408445
30
0
41
1
10
8.18530793631533
20
-6.41609362324544
30
0
41
1
10
8.19262584624289
20
-6.41703529864395
30
0
41
1
10
8.20719981931666
20
-6.42037181788248
30
0
41
1
10
8.21450788573981
20
-6.42280336151953
30
0
41
1
10
8.22147466041827
20
-6.42600442392421
30
0
0
SPLINE
5
376
100
AcDbEntity
8
1
62
256
6
ByLayer
370
18
48
1
60
0
100
AcDbSpline
70
4
71
3
72
20
73
16
40
0
40
0
40
0
40
0
40
0.249999999999994
40
0.249999999999994
40
0.374999999999995
40
0.374999999999995
40
0.499999999999996
40
0.499999999999996
40
0.624999999999997
40
0.624999999999997
40
0.749999999999998
40
0.749999999999998
40
0.874999999999999
40
0.874999999999999
40
1
40
1
40
1
40
1
41
1
10
7.70485000000002
20
-7.3033888988715
30
0
41
1
10
7.73633333290769
20
-7.28605327099677
30
0
41
1
10
7.76611170473768
20
-7.26608296220871
30
0
41
1
10
7.80736363290117
20
-7.23219924469441
30
0
41
1
10
7.82056952047333
20
-7.22022013732942
30
0
41
1
10
7.8456790068974
20
-7.19460827215221
30
0
41
1
10
7.85766431997604
20
-7.18087459612923
30
0
41
1
10
7.87939160682907
20
-7.15181668622586
30
0
41
1
10
7.88922030617152
20
-7.13640555825998
30
0
41
1
10
7.90549297749033
20
-7.10380062654218
30
0
41
1
10
7.91187685760815
20
-7.08684908815866
30
0
41
1
10
7.91921059878712
20
-7.05092477023567
30
0
41
1
10
7.91989343471738
20
-7.03226790016441
30
0
41
1
10
7.91289199304799
20
-6.99684388531966
30
0
41
1
10
7.90506153733236
20
-6.98024156567101
30
0
41
1
10
7.89418151158401
20
-6.96665546466062
30
0
0
SPLINE
5
377
100
AcDbEntity
8
1
62
256
6
ByLayer
370
18
48
1
60
0
100
AcDbSpline
70
4
71
3
72
18
73
14
40
0
40
0
40
0
40
0
40
0.124999999999998
40
0.124999999999998
40
0.249999999999996
40
0.249999999999996
40
0.374999999999994
40
0.374999999999994
40
0.499999999999992
40
0.499999999999992
40
0.749999999999996
40
0.749999999999996
40
1
40
1
40
1
40
1
41
1
10
7.32729314883414
20
-7.27880048856764
30
0
41
1
10
7.33172122620908
20
-7.29599525338023
30
0
41
1
10
7.34039935339848
20
-7.3121068647759
30
0
41
1
10
7.36463662735281
20
-7.33797187992559
30
0
41
1
10
7.38011822421959
20
-7.34784078734225
30
0
41
1
10
7.41320830953873
20
-7.36144432200547
30
0
41
1
10
7.43060734036487
20
-7.36534914382747
30
0
41
1
10
7.4664320612315
20
-7.36936541106911
30
0
41
1
10
7.48427573172211
20
-7.36939243156559
30
0
41
1
10
7.53763183923445
20
-7.36547100383058
30
0
41
1
10
7.57313443809846
20
-7.35744823688003
30
0
41
1
10
7.64077219624869
20
-7.33513256852734
30
0
41
1
10
7.67336904282581
20
-7.32072321859908
30
0
41
1
10
7.70485000000002
20
-7.3033888988715
30
0
0
SPLINE
5
378
100
AcDbEntity
8
1
62
256
6
ByLayer
370
18
48
1
60
0
100
AcDbSpline
70
4
71
3
72
18
73
14
40
0
40
0
40
0
40
0
40
0.124999999999999
40
0.124999999999999
40
0.249999999999999
40
0.249999999999999
40
0.374999999999998
40
0.374999999999998
40
0.499999999999998
40
0.499999999999998
40
0.749999999999999
40
0.749999999999999
40
1
40
1
40
1
40
1
41
1
10
6.67270685116586
20
-7.27880048856764
30
0
41
1
10
6.66827877379092
20
-7.29599525338023
30
0
41
1
10
6.65960064660152
20
-7.3121068647759
30
0
41
1
10
6.63536337264719
20
-7.33797187992559
30
0
41
1
10
6.61988177578041
20
-7.34784078734225
30
0
41
1
10
6.58679169046127
20
-7.36144432200547
30
0
41
1
10
6.56939265963513
20
-7.36534914382747
30
0
41
1
10
6.5335679387685
20
-7.36936541106911
30
0
41
1
10
6.51572426827789
20
-7.36939243156559
30
0
41
1
10
6.46236816076555
20
-7.36547100383058
30
0
41
1
10
6.42686556190154
20
-7.35744823688003
30
0
41
1
10
6.35922780375131
20
-7.33513256852734
30
0
41
1
10
6.32663095717419
20
-7.32072321859908
30
0
41
1
10
6.29514999999998
20
-7.3033888988715
30
0
0
SPLINE
5
379
100
AcDbEntity
8
1
62
256
6
ByLayer
370
18
48
1
60
0
100
AcDbSpline
70
4
71
3
72
32
73
28
40
0
40
0
40
0
40
0
40
0.0624999999999994
40
0.0624999999999994
40
0.124999999999999
40
0.124999999999999
40
0.25
40
0.25
40
0.375000000000001
40
0.375000000000001
40
0.500000000000002
40
0.500000000000002
40
0.625000000000003
40
0.625000000000003
40
0.687500000000001
40
0.687500000000001
40
0.75
40
0.75
40
0.812499999999998
40
0.812499999999998
40
0.874999999999997
40
0.874999999999997
40
0.937499999999995
40
0.937499999999995
40
0.968749999999998
40
0.968749999999998
40
1
40
1
40
1
40
1
41
1
10
7.32729314883409
20
-7.27880048856747
30
0
41
1
10
7.32386204695331
20
-7.26287811712336
30
0
41
1
10
7.31696588168586
20
-7.2476478057398
30
0
41
1
10
7.29924478490841
20
-7.22041485090841
30
0
41
1
10
7.28822781892728
20
-7.2080028621246
30
0
41
1
10
7.25224975463391
20
-7.17507802293045
30
0
41
1
10
7.22359857218714
20
-7.15786629567532
30
0
41
1
10
7.16373112211602
20
-7.13124957056255
30
0
41
1
10
7.13179880827346
20
-7.12156780078448
30
0
41
1
10
7.06650647666947
20
-7.10874987367595
30
0
41
1
10
7.03343268245754
20
-7.10562735309134
30
0
41
1
10
6.96645788819495
20
-7.1056343107764
30
0
41
1
10
6.93326085945165
20
-7.10879948717297
30
0
41
1
10
6.88472525481143
20
-7.11832189960353
30
0
41
1
10
6.86871466479664
20
-7.1223023463852
30
0
41
1
10
6.83706105085906
20
-7.13206152688701
30
0
41
1
10
6.82141010756811
20
-7.13785820029398
30
0
41
1
10
6.79135816817995
20
-7.15121411717627
30
0
41
1
10
6.77685207599598
20
-7.15879467327505
30
0
41
1
10
6.74908703598612
20
-7.17617537525456
30
0
41
1
10
6.73577114375746
20
-7.18603981145122
30
0
41
1
10
6.7117473209284
20
-7.20802633727487
30
0
41
1
10
6.7007899692332
20
-7.22036296032582
30
0
41
1
10
6.68745372931653
20
-7.24085519532048
30
0
41
1
10
6.68354803895443
20
-7.24797690758504
30
0
41
1
10
6.6770357454036
20
-7.26292413120939
30
0
41
1
10
6.67442744240645
20
-7.27081591282831
30
0
41
1
10
6.67270685116586
20
-7.27880048856764
30
0
0
SPLINE
5
37A
100
AcDbEntity
8
1
62
256
6
ByLayer
370
18
48
1
60
0
100
AcDbSpline
70
4
71
3
72
18
73
14
40
0
40
0
40
0
40
0
40
0.12500000000001
40
0.12500000000001
40
0.25000000000002
40
0.25000000000002
40
0.37500000000003
40
0.37500000000003
40
0.50000000000004
40
0.50000000000004
40
0.75000000000002
40
0.75000000000002
40
1
40
1
40
1
40
1
41
1
10
7.37516405991533
20
0.623527443258297
30
0
41
1
10
7.36470554043615
20
0.624442131601711
30
0
41
1
10
7.35437676970088
20
0.626002818093752
30
0
41
1
10
7.33397947404848
20
0.630421902055389
30
0
41
1
10
7.32391251928129
20
0.633300762304998
30
0
41
1
10
7.30492677911985
20
0.640094908858089
30
0
41
1
10
7.29588583324573
20
0.644032254313174
30
0
41
1
10
7.27868570760705
20
0.652974960777101
30
0
41
1
10
7.27049981302747
20
0.658018482333375
30
0
41
1
10
7.24823985405885
20
0.674112718732772
30
0
41
1
10
7.23592200590241
20
0.68643325410352
30
0
41
1
10
7.21684937856804
20
0.713248025476219
30
0
41
1
10
7.21027836286669
20
0.727365013005056
30
0
41
1
10
7.20644951331525
20
0.742213283681679
30
0
0
SPLINE
5
37B
100
AcDbEntity
8
1
62
256
6
ByLayer
370
18
48
1
60
0
100
AcDbSpline
70
4
71
3
72
22
73
18
40
0
40
0
40
0
40
0
40
0.125
40
0.125
40
0.25
40
0.25
40
0.375
40
0.375
40
0.5
40
0.5
40
0.625
40
0.625
40
0.75
40
0.75
40
0.875
40
0.875
40
1
40
1
40
1
40
1
41
1
10
6.70353662210005
20
0.870282165750098
30
0
41
1
10
6.72960202722601
20
0.882577756810178
30
0
41
1
10
6.75649063837329
20
0.893634477903277
30
0
41
1
10
6.81064606337293
20
0.912158680656034
30
0
41
1
10
6.83797600892524
20
0.919686732153423
30
0
41
1
10
6.89337367121703
20
0.930285479117799
30
0
41
1
10
6.92122629493872
20
0.933240615106399
30
0
41
1
10
6.97505841630158
20
0.933159259041986
30
0
41
1
10
7.00159096370282
20
0.930034363382561
30
0
41
1
10
7.05014951929115
20
0.917605893340294
30
0
41
1
10
7.07274449990445
20
0.908254624692802
30
0
41
1
10
7.11336678305247
20
0.884115608009267
30
0
41
1
10
7.13088912397342
20
0.869732662671026
30
0
41
1
10
7.16114568530821
20
0.837345575311531
30
0
41
1
10
7.17375794699564
20
0.819362084446198
30
0
41
1
10
7.19371070598606
20
0.78201639292331
30
0
41
1
10
7.20122763515474
20
0.762463716435946
30
0
41
1
10
7.20644951331525
20
0.742213283681679
30
0
0
SPLINE
5
37C
100
AcDbEntity
8
1
62
256
6
ByLayer
370
13
48
1
60
0
100
AcDbSpline
70
4
71
3
72
8
73
4
40
0
40
0
40
0
40
0
40
1
40
1
40
1
40
1
41
1
10
4.39999783415601
20
27.8821058814183
30
0
41
1
10
4.38816826166516
20
27.9955558062296
30
0
41
1
10
4.3763386891743
20
28.1090057310408
30
0
41
1
10
4.36450911668345
20
28.2224556558521
30
0
0
SPLINE
5
37D
100
AcDbEntity
8
1
62
256
6
ByLayer
370
18
48
1
60
0
100
AcDbSpline
70
4
71
3
72
24
73
20
40
0
40
0
40
0
40
0
40
0.124999999999997
40
0.124999999999997
40
0.249999999999995
40
0.249999999999995
40
0.374999999999992
40
0.374999999999992
40
0.49999999999999
40
0.49999999999999
40
0.624999999999987
40
0.624999999999987
40
0.687499999999992
40
0.687499999999992
40
0.749999999999997
40
0.749999999999997
40
0.874999999999999
40
0.874999999999999
40
1
40
1
40
1
40
1
41
1
10
4.72269599026043
20
-0.458789396449674
30
0
41
1
10
4.72130529625287
20
-0.475420936953128
30
0
41
1
10
4.72293131999839
20
-0.492048016925025
30
0
41
1
10
4.73204964089143
20
-0.525293502966747
30
0
41
1
10
4.73965523136099
20
-0.5420765235977
30
0
41
1
10
4.76066532463534
20
-0.574808564228306
30
0
41
1
10
4.77391341411004
20
-0.590623936792383
30
0
41
1
10
4.80586919685692
20
-0.621158702480273
30
0
41
1
10
4.82482881788337
20
-0.636010697331471
30
0
41
1
10
4.86689610188313
20
-0.663376818132463
30
0
41
1
10
4.89006339200085
20
-0.676012899812235
30
0
41
1
10
4.92806575993109
20
-0.693371547953291
30
0
41
1
10
4.94135218699927
20
-0.698914567182896
30
0
41
1
10
4.96849591662317
20
-0.709231022765266
30
0
41
1
10
4.9823904359186
20
-0.714026912837198
30
0
41
1
10
5.02501963460867
20
-0.727352638001776
30
0
41
1
10
5.05473616034612
20
-0.734839448015691
30
0
41
1
10
5.11658618572767
20
-0.7468553107758
30
0
41
1
10
5.14797129585992
20
-0.751243826298492
30
0
41
1
10
5.17981205667763
20
-0.754028577316376
30
0
0
SPLINE
5
37E
100
AcDbEntity
8
1
62
256
6
ByLayer
370
13
48
1
60
0
100
AcDbSpline
70
4
71
3
72
8
73
4
40
0
40
0
40
0
40
0
40
1
40
1
40
1
40
1
41
1
10
6.11491375474191
20
-48.9730482453661
30
0
41
1
10
5.87464548242207
20
-49.3039619037486
30
0
41
1
10
5.63437721010217
20
-49.6348755621312
30
0
41
1
10
5.39410893778233
20
-49.9657892205138
30
0
0
SPLINE
5
37F
100
AcDbEntity
8
1
62
256
6
ByLayer
370
13
48
1
60
0
100
AcDbSpline
70
4
71
3
72
8
73
4
40
0
40
0
40
0
40
0
40
1
40
1
40
1
40
1
41
1
10
4.91578093219204
20
-49.478101212145
30
0
41
1
10
5.1831265313262
20
-49.242814379975
30
0
41
1
10
5.45047213046041
20
-49.007527547805
30
0
41
1
10
5.71781772959457
20
-48.772240715635
30
0
0
SPLINE
5
380
100
AcDbEntity
8
1
62
256
6
ByLayer
370
18
48
1
60
0
100
AcDbSpline
70
4
71
3
72
10
73
6
40
0
40
0
40
0
40
0
40
0.19368012711138
40
0.19368012711138
40
1
40
1
40
1
40
1
41
1
10
4.01762813523146
20
-36.154334435584
30
0
41
1
10
4.01584468139515
20
-36.1488421874336
30
0
41
1
10
4.01423060612996
20
-36.1433259659655
30
0
41
1
10
4.00679050430125
20
-36.1147612094267
30
0
41
1
10
4.00379564036314
20
-36.0916602726217
30
0
41
1
10
4.00379415970741
20
-36.0684909777559
30
0
0
SPLINE
5
381
100
AcDbEntity
8
1
62
256
6
ByLayer
370
18
48
1
60
0
100
AcDbSpline
70
4
71
3
72
24
73
20
40
0
40
0
40
0
40
0
40
0.125000000000013
40
0.125000000000013
40
0.187500000000016
40
0.187500000000016
40
0.25000000000002
40
0.25000000000002
40
0.375000000000017
40
0.375000000000017
40
0.500000000000013
40
0.500000000000013
40
0.62500000000001
40
0.62500000000001
40
0.750000000000007
40
0.750000000000007
40
0.875000000000003
40
0.875000000000003
40
1
40
1
40
1
40
1
41
1
10
5.39410893778233
20
-49.9657892205138
30
0
41
1
10
5.36228011956092
20
-49.9657163265928
30
0
41
1
10
5.33098212293669
20
-49.9625137822615
30
0
41
1
10
5.28480753435895
20
-49.9531559651758
30
0
41
1
10
5.26954565097094
20
-49.9492723172006
30
0
41
1
10
5.23928832813266
20
-49.9399341047891
30
0
41
1
10
5.22425887985452
20
-49.9344551985873
30
0
41
1
10
5.18057732874371
20
-49.9160026928831
30
0
41
1
10
5.15298605992797
20
-49.9009483620554
30
0
41
1
10
5.10084235982077
20
-49.8653716146632
30
0
41
1
10
5.07622295115902
20
-49.8446791637046
30
0
41
1
10
5.03221882719856
20
-49.7995396066352
30
0
41
1
10
5.01252627954591
20
-49.774923193096
30
0
41
1
10
4.97784346977306
20
-49.7215233158043
30
0
41
1
10
4.9632378701927
20
-49.6932643626619
30
0
41
1
10
4.93977429730182
20
-49.6347683609274
30
0
41
1
10
4.93077548070744
20
-49.6041401999912
30
0
41
1
10
4.91877727678587
20
-49.541625604272
30
0
41
1
10
4.91578241284776
20
-49.5100313017278
30
0
41
1
10
4.91578093219204
20
-49.478101212145
30
0
0
SPLINE
5
382
100
AcDbEntity
8
1
62
256
6
ByLayer
370
18
48
1
60
0
100
AcDbSpline
70
4
71
3
72
18
73
14
40
0
40
0
40
0
40
0
40
0.0878551350241699
40
0.0878551350241699
40
0.239879279186809
40
0.239879279186809
40
0.391903423349449
40
0.391903423349449
40
0.543927567512088
40
0.543927567512088
40
0.695951711674728
40
0.695951711674728
40
1
40
1
40
1
40
1
41
1
10
5.82192224182796
20
-48.7726704314858
30
0
41
1
10
5.82567701969737
20
-48.7828418371946
30
0
41
1
10
5.83002105192639
20
-48.7928562166264
30
0
41
1
10
5.84337481864486
20
-48.8194322013234
30
0
41
1
10
5.85338432314632
20
-48.8353503478693
30
0
41
1
10
5.87643721802351
20
-48.8653730878501
30
0
41
1
10
5.88961889591997
20
-48.879565197264
30
0
41
1
10
5.91804573383695
20
-48.9049907995058
30
0
41
1
10
5.93336610407584
20
-48.9163662652334
30
0
41
1
10
5.9662436778695
20
-48.9364148226861
30
0
41
1
10
5.9837523094663
20
-48.9450071057113
30
0
41
1
10
6.03748980815323
20
-48.9656165416084
30
0
41
1
10
6.07614607258228
20
-48.9729594601545
30
0
41
1
10
6.11491375474191
20
-48.9730482453661
30
0
0
SPLINE
5
383
100
AcDbEntity
8
1
62
256
6
ByLayer
370
13
48
1
60
0
100
AcDbSpline
70
4
71
3
72
8
73
4
40
0
40
0
40
0
40
0
40
1
40
1
40
1
40
1
41
1
10
9.52786100049309
20
-49.9752562825356
30
0
41
1
10
9.48402668711253
20
-49.6436919763254
30
0
41
1
10
9.44019237373197
20
-49.3121276701153
30
0
41
1
10
9.39635806035142
20
-48.9805633639052
30
0
0
SPLINE
5
384
100
AcDbEntity
8
1
62
256
6
ByLayer
370
13
48
1
60
0
100
AcDbSpline
70
4
71
3
72
8
73
4
40
0
40
0
40
0
40
0
40
1
40
1
40
1
40
1
41
1
10
9.69311447548796
20
-48.7043059487389
30
0
41
1
10
9.79747265135711
20
-48.9661236983529
30
0
41
1
10
9.90183082722632
20
-49.2279414479669
30
0
41
1
10
10.0061890030955
20
-49.4897591975809
30
0
0
SPLINE
5
385
100
AcDbEntity
8
1
62
256
6
ByLayer
370
18
48
1
60
0
100
AcDbSpline
70
4
71
3
72
20
73
16
40
0
40
0
40
0
40
0
40
0.124999999999995
40
0.124999999999995
40
0.24999999999999
40
0.24999999999999
40
0.374999999999985
40
0.374999999999985
40
0.49999999999998
40
0.49999999999998
40
0.624999999999974
40
0.624999999999974
40
0.749999999999969
40
0.749999999999969
40
1
40
1
40
1
40
1
41
1
10
9.39635806035142
20
-48.9805633639052
30
0
41
1
10
9.41574534786605
20
-48.9806077644039
30
0
41
1
10
9.4347762838463
20
-48.9788742768299
30
0
41
1
10
9.47215819668293
20
-48.9720148897122
30
0
41
1
10
9.49067915713022
20
-48.9668178371506
30
0
41
1
10
9.52614425865812
20
-48.953162079206
30
0
41
1
10
9.54295791183358
20
-48.9447955357492
30
0
41
1
10
9.57478065149877
20
-48.9250407599076
30
0
41
1
10
9.58990974529883
20
-48.9135118279722
30
0
41
1
10
9.61717980295253
20
-48.888207840059
30
0
41
1
10
9.62944241191326
20
-48.8743973538082
30
0
41
1
10
9.65119599396144
20
-48.8444367774574
30
0
41
1
10
9.66064879894219
20
-48.8282489718569
30
0
41
1
10
9.68355138405411
20
-48.7781760637616
30
0
41
1
10
9.69215958827982
20
-48.7415855331026
30
0
41
1
10
9.69311447548796
20
-48.7043059487389
30
0
0
SPLINE
5
386
100
AcDbEntity
8
1
62
256
6
ByLayer
370
13
48
1
60
0
100
AcDbSpline
70
4
71
3
72
8
73
4
40
0
40
0
40
0
40
0
40
1
40
1
40
1
40
1
41
1
10
9.81310406129671
20
-41.282374153579
30
0
41
1
10
9.74206979660431
20
-41.031807846799
30
0
41
1
10
9.67103553191191
20
-40.781241540019
30
0
41
1
10
9.60000126721945
20
-40.5306752332389
30
0
0
SPLINE
5
387
100
AcDbEntity
8
1
62
256
6
ByLayer
370
18
48
1
60
0
100
AcDbSpline
70
4
71
3
72
24
73
20
40
0
40
0
40
0
40
0
40
0.125
40
0.125
40
0.25
40
0.25
40
0.375
40
0.375
40
0.5
40
0.5
40
0.625
40
0.625
40
0.6875
40
0.6875
40
0.75
40
0.75
40
0.875
40
0.875
40
1
40
1
40
1
40
1
41
1
10
10.0061890030955
20
-49.4897591975809
30
0
41
1
10
10.0061875221709
20
-49.5216950787296
30
0
41
1
10
10.0031916188998
20
-49.553112655199
30
0
41
1
10
9.99137689433877
20
-49.6149399190272
30
0
41
1
10
9.98243192377532
20
-49.645644227385
30
0
41
1
10
9.95885452012419
20
-49.7044832087773
30
0
41
1
10
9.94438846958928
20
-49.7323895732505
30
0
41
1
10
9.91012751875405
20
-49.785190657771
30
0
41
1
10
9.89007150254912
20
-49.81029555197
30
0
41
1
10
9.84603585014696
20
-49.8553482129795
30
0
41
1
10
9.82198688573652
20
-49.8755183592917
30
0
41
1
10
9.78281821960201
20
-49.902183026788
30
0
41
1
10
9.76916773445191
20
-49.9105030979078
30
0
41
1
10
9.74136398936434
20
-49.9255798883965
30
0
41
1
10
9.72717191728293
20
-49.9323731167545
30
0
41
1
10
9.6837451796975
20
-49.9505688550743
30
0
41
1
10
9.65362247821128
20
-49.9598173625897
30
0
41
1
10
9.59122345455063
20
-49.9722682376832
30
0
41
1
10
9.55970176131359
20
-49.9753292038073
30
0
41
1
10
9.52786100049309
20
-49.9752562825356
30
0
0
SPLINE
5
388
100
AcDbEntity
8
1
62
256
6
ByLayer
370
18
48
1
60
0
100
AcDbSpline
70
4
71
3
72
20
73
16
40
0
40
0
40
0
40
0
40
0.163188269722203
40
0.163188269722203
40
0.326376539444406
40
0.326376539444406
40
0.489564809166609
40
0.489564809166609
40
0.652753078888813
40
0.652753078888813
40
0.815941348611016
40
0.815941348611016
40
0.979129618333219
40
0.979129618333219
40
1
40
1
40
1
40
1
41
1
10
7.8950694080612
20
38.3348638552158
30
0
41
1
10
7.91445669557584
20
38.336031420133
30
0
41
1
10
7.93357124998568
20
38.3355524593971
30
0
41
1
10
7.97127995312366
20
38.331452780342
30
0
41
1
10
7.99004745179809
20
38.3277768762471
30
0
41
1
10
8.02615893382705
20
38.3173507512345
30
0
41
1
10
8.04336807862302
20
38.3106772237857
30
0
41
1
10
8.07612378976091
20
38.2944620512502
30
0
41
1
10
8.09179699682886
20
38.2847987176495
30
0
41
1
10
8.12026064823874
20
38.2632443582596
30
0
41
1
10
8.13317441793436
20
38.2513280039277
30
0
41
1
10
8.15634011060587
20
38.2251947039018
30
0
41
1
10
8.16655563602905
20
38.2109410501392
30
0
41
1
10
8.17605292785623
20
38.194226272265
30
0
41
1
10
8.17710320484514
20
38.1923174053014
30
0
41
1
10
8.17812657168065
20
38.1903955447755
30
0
0
SPLINE
5
389
100
AcDbEntity
8
1
62
256
6
ByLayer
370
18
48
1
60
0
100
AcDbSpline
70
4
71
3
72
16
73
12
40
0
40
0
40
0
40
0
40
0.248061738075394
40
0.248061738075394
40
0.496123476150787
40
0.496123476150787
40
0.744185214226181
40
0.744185214226181
40
0.992246952301575
40
0.992246952301575
40
1
40
1
40
1
40
1
41
1
10
6.67270685116586
20
22.1339521012698
30
0
41
1
10
6.66827877379092
20
22.1247170698377
30
0
41
1
10
6.65960064660152
20
22.1164835425819
30
0
41
1
10
6.63536337264719
20
22.1043160407594
30
0
41
1
10
6.61988177578041
20
22.1003193289182
30
0
41
1
10
6.58679169046127
20
22.096193119613
30
0
41
1
10
6.56939265963513
20
22.0959417319854
30
0
41
1
10
6.5335679387685
20
22.0979418143167
30
0
41
1
10
6.51572426827789
20
22.1001703837607
30
0
41
1
10
6.49738302613537
20
22.1033717640671
30
0
41
1
10
6.49682716980402
20
22.1034696638739
30
0
41
1
10
6.49627133627877
20
22.1035684326627
30
0
0
SPLINE
5
38A
100
AcDbEntity
8
1
62
256
6
ByLayer
370
18
48
1
60
0
100
AcDbSpline
70
4
71
3
72
32
73
28
40
0
40
0
40
0
40
0
40
0.0624999999999995
40
0.0624999999999995
40
0.124999999999999
40
0.124999999999999
40
0.249999999999998
40
0.249999999999998
40
0.374999999999997
40
0.374999999999997
40
0.499999999999996
40
0.499999999999996
40
0.624999999999995
40
0.624999999999995
40
0.687499999999997
40
0.687499999999997
40
0.749999999999999
40
0.749999999999999
40
0.8125
40
0.8125
40
0.875000000000002
40
0.875000000000002
40
0.937500000000004
40
0.937500000000004
40
0.968750000000002
40
0.968750000000002
40
1
40
1
40
1
40
1
41
1
10
7.32729314883409
20
22.1339521012699
30
0
41
1
10
7.32386204695331
20
22.1425668140898
30
0
41
1
10
7.31696588168586
20
22.1504631651634
30
0
41
1
10
7.29924478490841
20
22.1641084143228
30
0
41
1
10
7.28822781892728
20
22.1700720633218
30
0
41
1
10
7.25224975463391
20
22.1854308764068
30
0
41
1
10
7.22359857218714
20
22.1928041889982
30
0
41
1
10
7.16373112211602
20
22.203834309592
30
0
41
1
10
7.13179880827346
20
22.2075923087087
30
0
41
1
10
7.06650647666947
20
22.2125051610962
30
0
41
1
10
7.03343268245754
20
22.2136523221364
30
0
41
1
10
6.96645788819495
20
22.2136497280529
30
0
41
1
10
6.93326085945165
20
22.2124860687985
30
0
41
1
10
6.88472525481143
20
22.2088364351495
30
0
41
1
10
6.86871466479664
20
22.2072958680953
30
0
41
1
10
6.83706105085906
20
22.2034292716143
30
0
41
1
10
6.82141010756811
20
22.2010955058653
30
0
41
1
10
6.79135816817995
20
22.1955610390894
30
0
41
1
10
6.77685207599598
20
22.1923534006065
30
0
41
1
10
6.74908703598612
20
22.1847466272691
30
0
41
1
10
6.73577114375746
20
22.180317464152
30
0
41
1
10
6.7117473209284
20
22.1700610583766
30
0
41
1
10
6.7007899692332
20
22.1641343285181
30
0
41
1
10
6.68745372931653
20
22.1538666897244
30
0
41
1
10
6.68354803895443
20
22.1502348467012
30
0
41
1
10
6.6770357454036
20
22.1424561251077
30
0
41
1
10
6.67442744240645
20
22.1382721127218
30
0
41
1
10
6.67270685116586
20
22.1339521012698
30
0
0
SPLINE
5
38B
100
AcDbEntity
8
1
62
256
6
ByLayer
370
18
48
1
60
0
100
AcDbSpline
70
4
71
3
72
20
73
16
40
0
40
0
40
0
40
0
40
0.249999999999987
40
0.249999999999987
40
0.374999999999989
40
0.374999999999989
40
0.499999999999991
40
0.499999999999991
40
0.624999999999993
40
0.624999999999993
40
0.749999999999996
40
0.749999999999996
40
0.874999999999998
40
0.874999999999998
40
1
40
1
40
1
40
1
41
1
10
7.70485000000002
20
22.1732105964762
30
0
41
1
10
7.73633333290769
20
22.1893337132068
30
0
41
1
10
7.76611170473768
20
22.2072296873034
30
0
41
1
10
7.80736363290117
20
22.2365079516966
30
0
41
1
10
7.82056952047333
20
22.2466957108839
30
0
41
1
10
7.8456790068974
20
22.268052274981
30
0
41
1
10
7.85766431997604
20
22.2793038648772
30
0
41
1
10
7.87939160682907
20
22.3025253911799
30
0
41
1
10
7.88922030617152
20
22.3145697451234
30
0
41
1
10
7.90549297749033
20
22.3391806621217
30
0
41
1
10
7.91187685760815
20
22.3515789669125
30
0
41
1
10
7.91921059878712
20
22.3764471620749
30
0
41
1
10
7.91989343471738
20
22.3886490738878
30
0
41
1
10
7.91289199304799
20
22.4096862884137
30
0
41
1
10
7.90506153733236
20
22.4183666146588
30
0
41
1
10
7.89418151158401
20
22.4242646699108
30
0
0
SPLINE
5
38C
100
AcDbEntity
8
1
62
256
6
ByLayer
370
18
48
1
60
0
100
AcDbSpline
70
4
71
3
72
20
73
16
40
0
40
0
40
0
40
0
40
0.250000000000013
40
0.250000000000013
40
0.375000000000011
40
0.375000000000011
40
0.500000000000009
40
0.500000000000009
40
0.625000000000007
40
0.625000000000007
40
0.750000000000004
40
0.750000000000004
40
0.875000000000002
40
0.875000000000002
40
1
40
1
40
1
40
1
41
1
10
6.29514999999998
20
22.1732105964762
30
0
41
1
10
6.26366666709231
20
22.1893337132068
30
0
41
1
10
6.23388829526232
20
22.2072296873034
30
0
41
1
10
6.19263636709883
20
22.2365079516966
30
0
41
1
10
6.17943047952667
20
22.2466957108839
30
0
41
1
10
6.1543209931026
20
22.268052274981
30
0
41
1
10
6.14233568002396
20
22.2793038648772
30
0
41
1
10
6.12060839317093
20
22.3025253911799
30
0
41
1
10
6.11077969382848
20
22.3145697451234
30
0
41
1
10
6.09450702250967
20
22.3391806621217
30
0
41
1
10
6.08812314239185
20
22.3515789669125
30
0
41
1
10
6.08078940121288
20
22.3764471620749
30
0
41
1
10
6.08010656528262
20
22.3886490738878
30
0
41
1
10
6.08710800695201
20
22.4096862884137
30
0
41
1
10
6.09493846266764
20
22.4183666146588
30
0
41
1
10
6.10581848841599
20
22.4242646699108
30
0
0
SPLINE
5
38D
100
AcDbEntity
8
1
62
256
6
ByLayer
370
18
48
1
60
0
100
AcDbSpline
70
4
71
3
72
20
73
16
40
0
40
0
40
0
40
0
40
0.249999999999986
40
0.249999999999986
40
0.374999999999989
40
0.374999999999989
40
0.499999999999991
40
0.499999999999991
40
0.624999999999993
40
0.624999999999993
40
0.749999999999995
40
0.749999999999995
40
0.874999999999998
40
0.874999999999998
40
1
40
1
40
1
40
1
41
1
10
5.59030000000001
20
23.2561053644014
30
0
41
1
10
5.59030000000001
20
23.2238591309404
30
0
41
1
10
5.59329537836669
20
23.1914032250436
30
0
41
1
10
5.60261430817314
20
23.1429870615372
30
0
41
1
10
5.60653786833808
20
23.1268580308656
30
0
41
1
10
5.6163326197053
20
23.0945895449768
30
0
41
1
10
5.62225051419688
20
23.0783355807737
30
0
41
1
10
5.63637203018249
20
23.0464808766297
30
0
41
1
10
5.6446088366821
20
23.0307703298763
30
0
41
1
10
5.66397528303349
20
23.0006271657813
30
0
41
1
10
5.6749359943945
20
22.9863781450927
30
0
41
1
10
5.70074385162758
20
22.9603293174544
30
0
41
1
10
5.71544716234445
20
22.9488927562549
30
0
41
1
10
5.74672877372171
20
22.9326271847398
30
0
41
1
10
5.76322987487993
20
22.9279863836752
30
0
41
1
10
5.7785253395819
20
22.9271007888726
30
0
0
SPLINE
5
38E
100
AcDbEntity
8
1
62
256
6
ByLayer
370
18
48
1
60
0
100
AcDbSpline
70
4
71
3
72
32
73
28
40
0
40
0
40
0
40
0
40
0.0624999999999971
40
0.0624999999999971
40
0.124999999999994
40
0.124999999999994
40
0.249999999999988
40
0.249999999999988
40
0.374999999999983
40
0.374999999999983
40
0.499999999999977
40
0.499999999999977
40
0.624999999999971
40
0.624999999999971
40
0.687499999999975
40
0.687499999999975
40
0.749999999999979
40
0.749999999999979
40
0.812499999999983
40
0.812499999999983
40
0.874999999999987
40
0.874999999999987
40
0.93749999999999
40
0.93749999999999
40
0.968749999999995
40
0.968749999999995
40
1
40
1
40
1
40
1
41
1
10
6.10581848841599
20
22.4242646699108
30
0
41
1
10
6.11628011895067
20
22.4292789369171
30
0
41
1
10
6.12435327711944
20
22.4365725311608
30
0
41
1
10
6.13591900493952
20
22.4533700429001
30
0
41
1
10
6.13962614222754
20
22.4630771717158
30
0
41
1
10
6.14591336973717
20
22.493641135688
30
0
41
1
10
6.14403692929608
20
22.5166481306716
30
0
41
1
10
6.13321786745206
20
22.563877940994
30
0
41
1
10
6.12411101163309
20
22.5886527531947
30
0
41
1
10
6.10052303841229
20
22.6390826267291
30
0
41
1
10
6.08617448791949
20
22.6645155265617
30
0
41
1
10
6.05268220067904
20
22.7159637266937
30
0
41
1
10
6.03386514070598
20
22.7414373115477
30
0
41
1
10
6.00286806741633
20
22.7785176302807
30
0
41
1
10
5.99204436106101
20
22.7907193342252
30
0
41
1
10
5.96927448025497
20
22.8147238770929
30
0
41
1
10
5.95731135159861
20
22.8265317178478
30
0
41
1
10
5.93269401001339
20
22.8489942614677
30
0
41
1
10
5.91997264125479
20
22.8597302398294
30
0
41
1
10
5.89345943039939
20
22.8799202241349
30
0
41
1
10
5.87959169932339
20
22.8894122279091
30
0
41
1
10
5.85136856447349
20
22.9059123221505
30
0
41
1
10
5.83673048636871
20
22.9130934199685
30
0
41
1
10
5.81469206368467
20
22.9209417098817
30
0
41
1
10
5.80737415375711
20
22.9230576515082
30
0
41
1
10
5.79280018068334
20
22.9260775432381
30
0
41
1
10
5.78549211426019
20
22.9269718617321
30
0
41
1
10
5.77852533958173
20
22.9271007888726
30
0
0
SPLINE
5
38F
100
AcDbEntity
8
1
62
256
6
ByLayer
370
18
48
1
60
0
100
AcDbSpline
70
4
71
3
72
32
73
28
40
0
40
0
40
0
40
0
40
0.0625000000000008
40
0.0625000000000008
40
0.125000000000001
40
0.125000000000001
40
0.250000000000003
40
0.250000000000003
40
0.375000000000005
40
0.375000000000005
40
0.500000000000006
40
0.500000000000006
40
0.625000000000008
40
0.625000000000008
40
0.687500000000005
40
0.687500000000005
40
0.750000000000001
40
0.750000000000001
40
0.812499999999998
40
0.812499999999998
40
0.874999999999995
40
0.874999999999995
40
0.937499999999992
40
0.937499999999992
40
0.968749999999996
40
0.968749999999996
40
1
40
1
40
1
40
1
41
1
10
7.89418151158401
20
22.4242646699108
30
0
41
1
10
7.88371988104933
20
22.4292789369171
30
0
41
1
10
7.87564672288056
20
22.4365725311608
30
0
41
1
10
7.86408099506048
20
22.4533700429001
30
0
41
1
10
7.86037385777246
20
22.4630771717158
30
0
41
1
10
7.85408663026283
20
22.493641135688
30
0
41
1
10
7.85596307070392
20
22.5166481306716
30
0
41
1
10
7.86678213254794
20
22.563877940994
30
0
41
1
10
7.87588898836691
20
22.5886527531947
30
0
41
1
10
7.89947696158771
20
22.6390826267291
30
0
41
1
10
7.91382551208051
20
22.6645155265618
30
0
41
1
10
7.94731779932096
20
22.7159637266937
30
0
41
1
10
7.96613485929402
20
22.7414373115477
30
0
41
1
10
7.99713193258367
20
22.7785176302807
30
0
41
1
10
8.007955638939
20
22.7907193342252
30
0
41
1
10
8.03072551974503
20
22.8147238770929
30
0
41
1
10
8.04268864840139
20
22.8265317178478
30
0
41
1
10
8.06730598998661
20
22.8489942614677
30
0
41
1
10
8.08002735874521
20
22.8597302398293
30
0
41
1
10
8.10654056960061
20
22.8799202241349
30
0
41
1
10
8.12040830067662
20
22.8894122279091
30
0
41
1
10
8.14863143552651
20
22.9059123221505
30
0
41
1
10
8.16326951363129
20
22.9130934199685
30
0
41
1
10
8.18530793631533
20
22.9209417098817
30
0
41
1
10
8.19262584624289
20
22.9230576515083
30
0
41
1
10
8.20719981931666
20
22.9260775432381
30
0
41
1
10
8.21450788573981
20
22.9269718617321
30
0
41
1
10
8.22147466041827
20
22.9271007888726
30
0
0
SPLINE
5
390
100
AcDbEntity
8
1
62
256
6
ByLayer
370
18
48
1
60
0
100
AcDbSpline
70
4
71
3
72
20
73
16
40
0
40
0
40
0
40
0
40
0.250000000000004
40
0.250000000000004
40
0.500000000000009
40
0.500000000000009
40
0.625000000000013
40
0.625000000000013
40
0.750000000000018
40
0.750000000000018
40
0.812500000000011
40
0.812500000000011
40
0.875000000000005
40
0.875000000000005
40
1
40
1
40
1
40
1
41
1
10
8.40969999999999
20
23.2561053644014
30
0
41
1
10
8.40969999999999
20
23.2238725737171
30
0
41
1
10
8.40673523107944
20
23.1915900417128
30
0
41
1
10
8.3942786912811
20
23.1268170325541
30
0
41
1
10
8.38469915234492
20
23.0939607550051
30
0
41
1
10
8.36354160073142
20
23.0463121007709
30
0
41
1
10
8.35525471174202
20
23.0305451298671
30
0
41
1
10
8.33603238061431
20
23.000651998288
30
0
41
1
10
8.32507088574835
20
22.9863789089002
30
0
41
1
10
8.30565035666939
20
22.9667863323507
30
0
41
1
10
8.29883429597413
20
22.9607329378832
30
0
41
1
10
8.28439658862675
20
22.9497557435774
30
0
41
1
10
8.27668780056678
20
22.9448028073252
30
0
41
1
10
8.25334720103064
20
22.9326673847637
30
0
41
1
10
8.23684464931625
20
22.9279906985647
30
0
41
1
10
8.22147466041827
20
22.9271007888726
30
0
0
SPLINE
5
391
100
AcDbEntity
8
1
62
256
6
ByLayer
370
18
48
1
60
0
100
AcDbSpline
70
4
71
3
72
18
73
14
40
0
40
0
40
0
40
0
40
0.125
40
0.125
40
0.25
40
0.25
40
0.375
40
0.375
40
0.5
40
0.5
40
0.75
40
0.75
40
1
40
1
40
1
40
1
41
1
10
5.77852533958173
20
23.5077259261544
30
0
41
1
10
5.76318609428881
20
23.5152542438751
30
0
41
1
10
5.74670321546358
20
23.5190115298582
30
0
41
1
10
5.71547614177695
20
23.517582791686
30
0
41
1
10
5.70068229636467
20
23.5125294543902
30
0
41
1
10
5.67492449212153
20
23.4971383109655
30
0
41
1
10
5.66392412227418
20
23.4870563544286
30
0
41
1
10
5.64447707143063
20
23.4638946389605
30
0
41
1
10
5.63636071056823
20
23.4511786773662
30
0
41
1
10
5.61533020852573
20
23.4108283691821
30
0
41
1
10
5.60572169764924
20
23.3808365345519
30
0
41
1
10
5.59326692359974
20
23.3197987179778
30
0
41
1
10
5.59030000000001
20
23.2883491645606
30
0
41
1
10
5.59030000000001
20
23.2561053644014
30
0
0
SPLINE
5
392
100
AcDbEntity
8
1
62
256
6
ByLayer
370
18
48
1
60
0
100
AcDbSpline
70
4
71
3
72
22
73
18
40
0
40
0
40
0
40
0
40
0.0625000000000005
40
0.0625000000000005
40
0.125000000000001
40
0.125000000000001
40
0.250000000000001
40
0.250000000000001
40
0.375000000000001
40
0.375000000000001
40
0.500000000000001
40
0.500000000000001
40
0.625000000000001
40
0.625000000000001
40
0.750000000000002
40
0.750000000000002
40
1
40
1
40
1
40
1
41
1
10
8.2214746604181
20
23.5077259261544
30
0
41
1
10
8.22913037128416
20
23.5114832572797
30
0
41
1
10
8.23714552835298
20
23.5143786699178
30
0
41
1
10
8.25313902978388
20
23.5179545016254
30
0
41
1
10
8.26105783258595
20
23.5186550308295
30
0
41
1
10
8.28456882543384
20
23.5175835428038
30
0
41
1
10
8.29933451108121
20
23.5125140408655
30
0
41
1
10
8.32500136592552
20
23.4971879717784
30
0
41
1
10
8.33610844820964
20
23.4870149755307
30
0
41
1
10
8.35546621554175
20
23.4639647687485
30
0
41
1
10
8.36358364455043
20
23.4512731849968
30
0
41
1
10
8.37762832430275
20
23.4243507056423
30
0
41
1
10
8.38356377907547
20
23.4100108193831
30
0
41
1
10
8.39341466532812
20
23.3807117355792
30
0
41
1
10
8.39735472471335
20
23.3657281140472
30
0
41
1
10
8.40670623679387
20
23.3199929868169
30
0
41
1
10
8.40969999999999
20
23.2883157587196
30
0
41
1
10
8.40969999999999
20
23.2561053644014
30
0
0
SPLINE
5
393
100
AcDbEntity
8
1
62
256
6
ByLayer
370
18
48
1
60
0
100
AcDbSpline
70
4
71
3
72
32
73
28
40
0
40
0
40
0
40
0
40
0.0624999999999996
40
0.0624999999999996
40
0.124999999999999
40
0.124999999999999
40
0.249999999999997
40
0.249999999999997
40
0.374999999999995
40
0.374999999999995
40
0.499999999999993
40
0.499999999999993
40
0.62499999999999
40
0.62499999999999
40
0.687499999999991
40
0.687499999999991
40
0.749999999999992
40
0.749999999999992
40
0.812499999999993
40
0.812499999999993
40
0.874999999999994
40
0.874999999999994
40
0.937499999999995
40
0.937499999999995
40
0.968749999999997
40
0.968749999999997
40
1
40
1
40
1
40
1
41
1
10
7.89418151158401
20
24.0105620451162
30
0
41
1
10
7.88371988104933
20
23.9978326886377
30
0
41
1
10
7.87564672288062
20
23.9827309521347
30
0
41
1
10
7.86408099506048
20
23.9513814518781
30
0
41
1
10
7.86037385777246
20
23.9347237567718
30
0
41
1
10
7.85408663026283
20
23.8851483805141
30
0
41
1
10
7.85596307070392
20
23.8513863763281
30
0
41
1
10
7.86678213254794
20
23.7870611121077
30
0
41
1
10
7.87588898836691
20
23.7557512683227
30
0
41
1
10
7.89947696158765
20
23.6965917202096
30
0
41
1
10
7.91382551208051
20
23.6689703936971
30
0
41
1
10
7.94731779932096
20
23.6175270226095
30
0
41
1
10
7.96613485929402
20
23.5942707295405
30
0
41
1
10
7.99713193258367
20
23.563675811311
30
0
41
1
10
8.007955638939
20
23.5541663868025
30
0
41
1
10
8.03072551974498
20
23.5366512862031
30
0
41
1
10
8.04268864840134
20
23.5286517544431
30
0
41
1
10
8.06730598998661
20
23.5147678551261
30
0
41
1
10
8.08002735874521
20
23.5088182606817
30
0
41
1
10
8.10654056960061
20
23.4992882423393
30
0
41
1
10
8.12040830067662
20
23.4957068956378
30
0
41
1
10
8.14863143552651
20
23.4919020937728
30
0
41
1
10
8.16326951363129
20
23.4916302399462
30
0
41
1
10
8.18530793631533
20
23.4947321807628
30
0
41
1
10
8.19262584624283
20
23.4963426938643
30
0
41
1
10
8.20719981931666
20
23.5009495161114
30
0
41
1
10
8.21450788573981
20
23.5039859750663
30
0
41
1
10
8.22147466041827
20
23.5077259261544
30
0
0
SPLINE
5
394
100
AcDbEntity
8
1
62
256
6
ByLayer
370
18
48
1
60
0
100
AcDbSpline
70
4
71
3
72
20
73
16
40
0
40
0
40
0
40
0
40
0.249999999999995
40
0.249999999999995
40
0.374999999999996
40
0.374999999999996
40
0.499999999999996
40
0.499999999999996
40
0.624999999999997
40
0.624999999999997
40
0.749999999999998
40
0.749999999999998
40
0.874999999999999
40
0.874999999999999
40
1
40
1
40
1
40
1
41
1
10
7.70485000000002
20
24.3390001323267
30
0
41
1
10
7.73633333290769
20
24.3228770155961
30
0
41
1
10
7.76611170473768
20
24.3041371076615
30
0
41
1
10
7.80736363290117
20
24.2720743417314
30
0
41
1
10
7.82056952047333
20
24.2606989389161
30
0
41
1
10
7.8456790068974
20
24.2362733730174
30
0
41
1
10
7.85766431997604
20
24.2231266306076
30
0
41
1
10
7.87939160682907
20
24.1951669629859
30
0
41
1
10
7.88922030617152
20
24.1802716499373
30
0
41
1
10
7.90549297749033
20
24.1485441143232
30
0
41
1
10
7.91187685760815
20
24.1319512253851
30
0
41
1
10
7.91921059878712
20
24.0964415083769
30
0
41
1
10
7.91989343471738
20
24.0778248385064
30
0
41
1
10
7.91289199304799
20
24.0419539051675
30
0
41
1
10
7.90506153733236
20
24.0248525259023
30
0
41
1
10
7.89418151158401
20
24.0105620451162
30
0
0
SPLINE
5
395
100
AcDbEntity
8
1
62
256
6
ByLayer
370
18
48
1
60
0
100
AcDbSpline
70
4
71
3
72
20
73
16
40
0
40
0
40
0
40
0
40
0.249999999999986
40
0.249999999999986
40
0.374999999999988
40
0.374999999999988
40
0.499999999999991
40
0.499999999999991
40
0.624999999999993
40
0.624999999999993
40
0.749999999999995
40
0.749999999999995
40
0.874999999999998
40
0.874999999999998
40
1
40
1
40
1
40
1
41
1
10
6.29515000000004
20
24.3390001323267
30
0
41
1
10
6.26366666709231
20
24.3228770155961
30
0
41
1
10
6.23388829526232
20
24.3041371076615
30
0
41
1
10
6.19263636709883
20
24.2720743417314
30
0
41
1
10
6.17943047952667
20
24.2606989389161
30
0
41
1
10
6.15432099310266
20
24.2362733730174
30
0
41
1
10
6.14233568002396
20
24.2231266306076
30
0
41
1
10
6.12060839317093
20
24.1951669629859
30
0
41
1
10
6.11077969382848
20
24.1802716499373
30
0
41
1
10
6.09450702250967
20
24.1485441143232
30
0
41
1
10
6.08812314239185
20
24.1319512253851
30
0
41
1
10
6.08078940121288
20
24.0964415083769
30
0
41
1
10
6.08010656528262
20
24.0778248385064
30
0
41
1
10
6.08710800695201
20
24.0419539051675
30
0
41
1
10
6.09493846266764
20
24.0248525259023
30
0
41
1
10
6.10581848841599
20
24.0105620451162
30
0
0
SPLINE
5
396
100
AcDbEntity
8
1
62
256
6
ByLayer
370
18
48
1
60
0
100
AcDbSpline
70
4
71
3
72
32
73
28
40
0
40
0
40
0
40
0
40
0.0625000000000026
40
0.0625000000000026
40
0.125000000000005
40
0.125000000000005
40
0.250000000000009
40
0.250000000000009
40
0.375000000000012
40
0.375000000000012
40
0.500000000000015
40
0.500000000000015
40
0.625000000000019
40
0.625000000000019
40
0.687500000000015
40
0.687500000000015
40
0.750000000000012
40
0.750000000000012
40
0.812500000000009
40
0.812500000000009
40
0.875000000000005
40
0.875000000000005
40
0.937500000000002
40
0.937500000000002
40
0.968750000000001
40
0.968750000000001
40
1
40
1
40
1
40
1
41
1
10
6.10581848841599
20
24.0105620451162
30
0
41
1
10
6.11628011895067
20
23.9978326886377
30
0
41
1
10
6.12435327711944
20
23.9827309521347
30
0
41
1
10
6.13591900493952
20
23.9513814518781
30
0
41
1
10
6.13962614222754
20
23.9347237567718
30
0
41
1
10
6.14591336973717
20
23.8851483805141
30
0
41
1
10
6.14403692929608
20
23.8513863763281
30
0
41
1
10
6.13321786745206
20
23.7870611121077
30
0
41
1
10
6.12411101163309
20
23.7557512683227
30
0
41
1
10
6.10052303841229
20
23.6965917202096
30
0
41
1
10
6.08617448791949
20
23.6689703936971
30
0
41
1
10
6.05268220067904
20
23.6175270226095
30
0
41
1
10
6.03386514070598
20
23.5942707295405
30
0
41
1
10
6.00286806741633
20
23.563675811311
30
0
41
1
10
5.99204436106101
20
23.5541663868025
30
0
41
1
10
5.96927448025502
20
23.5366512862031
30
0
41
1
10
5.95731135159861
20
23.5286517544431
30
0
41
1
10
5.93269401001339
20
23.5147678551261
30
0
41
1
10
5.91997264125479
20
23.5088182606817
30
0
41
1
10
5.89345943039939
20
23.4992882423393
30
0
41
1
10
5.87959169932339
20
23.4957068956378
30
0
41
1
10
5.85136856447349
20
23.4919020937729
30
0
41
1
10
5.83673048636871
20
23.4916302399462
30
0
41
1
10
5.81469206368467
20
23.4947321807628
30
0
41
1
10
5.80737415375711
20
23.4963426938643
30
0
41
1
10
5.79280018068334
20
23.5009495161115
30
0
41
1
10
5.78549211426019
20
23.5039859750663
30
0
41
1
10
5.77852533958173
20
23.5077259261544
30
0
0
SPLINE
5
397
100
AcDbEntity
8
1
62
256
6
ByLayer
370
18
48
1
60
0
100
AcDbSpline
70
4
71
3
72
18
73
14
40
0
40
0
40
0
40
0
40
0.124999999999998
40
0.124999999999998
40
0.249999999999996
40
0.249999999999996
40
0.374999999999994
40
0.374999999999994
40
0.499999999999992
40
0.499999999999992
40
0.749999999999996
40
0.749999999999996
40
1
40
1
40
1
40
1
41
1
10
7.32729314883414
20
24.3008746137572
30
0
41
1
10
7.33172122620908
20
24.3185260925727
30
0
41
1
10
7.34039935339848
20
24.3351687308855
30
0
41
1
10
7.36463662735281
20
24.3621441694256
30
0
41
1
10
7.38011822421959
20
24.3725953688116
30
0
41
1
10
7.41320830953873
20
24.3873411678619
30
0
41
1
10
7.43060734036487
20
24.3918029971903
30
0
41
1
10
7.4664320612315
20
24.39694683723
30
0
41
1
10
7.48427573172211
20
24.3975254215803
30
0
41
1
10
7.53763183923445
20
24.3952696821181
30
0
41
1
10
7.57313443809846
20
24.3883799660063
30
0
41
1
10
7.64077219624869
20
24.3683588121117
30
0
41
1
10
7.67336904282581
20
24.3551220324063
30
0
41
1
10
7.70485000000002
20
24.3390001323267
30
0
0
SPLINE
5
398
100
AcDbEntity
8
1
62
256
6
ByLayer
370
18
48
1
60
0
100
AcDbSpline
70
4
71
3
72
18
73
14
40
0
40
0
40
0
40
0
40
0.124999999999999
40
0.124999999999999
40
0.249999999999999
40
0.249999999999999
40
0.374999999999998
40
0.374999999999998
40
0.499999999999997
40
0.499999999999997
40
0.749999999999999
40
0.749999999999999
40
1
40
1
40
1
40
1
41
1
10
6.67270685116586
20
24.3008746137572
30
0
41
1
10
6.66827877379092
20
24.3185260925727
30
0
41
1
10
6.65960064660152
20
24.3351687308855
30
0
41
1
10
6.63536337264719
20
24.3621441694256
30
0
41
1
10
6.61988177578041
20
24.3725953688116
30
0
41
1
10
6.58679169046127
20
24.3873411678619
30
0
41
1
10
6.56939265963513
20
24.3918029971903
30
0
41
1
10
6.5335679387685
20
24.39694683723
30
0
41
1
10
6.51572426827789
20
24.3975254215803
30
0
41
1
10
6.46236816076555
20
24.395269682118
30
0
41
1
10
6.42686556190154
20
24.3883799660063
30
0
41
1
10
6.35922780375131
20
24.3683588121117
30
0
41
1
10
6.32663095717425
20
24.3551220324063
30
0
41
1
10
6.29515000000004
20
24.3390001323267
30
0
0
SPLINE
5
399
100
AcDbEntity
8
1
62
256
6
ByLayer
370
18
48
1
60
0
100
AcDbSpline
70
4
71
3
72
32
73
28
40
0
40
0
40
0
40
0
40
0.0624999999999991
40
0.0624999999999991
40
0.124999999999998
40
0.124999999999998
40
0.249999999999996
40
0.249999999999996
40
0.374999999999995
40
0.374999999999995
40
0.499999999999993
40
0.499999999999993
40
0.624999999999991
40
0.624999999999991
40
0.687499999999991
40
0.687499999999991
40
0.749999999999991
40
0.749999999999991
40
0.812499999999991
40
0.812499999999991
40
0.874999999999991
40
0.874999999999991
40
0.937499999999991
40
0.937499999999991
40
0.968749999999996
40
0.968749999999996
40
1
40
1
40
1
40
1
41
1
10
7.32729314883409
20
24.3008746137571
30
0
41
1
10
7.32386204695331
20
24.284544811465
30
0
41
1
10
7.31696588168586
20
24.2688403181321
30
0
41
1
10
7.29924478490841
20
24.2406430804555
30
0
41
1
10
7.28822781892728
20
24.2277288651658
30
0
41
1
10
7.25224975463397
20
24.1933586397953
30
0
41
1
10
7.22359857218714
20
24.1752303180015
30
0
41
1
10
7.16373112211608
20
24.1471047435098
30
0
41
1
10
7.13179880827346
20
24.1368117128086
30
0
41
1
10
7.06650647666947
20
24.1231691858425
30
0
41
1
10
7.03343268245754
20
24.1198335981225
30
0
41
1
10
6.96645788819495
20
24.1198410212503
30
0
41
1
10
6.93326085945165
20
24.1232219722897
30
0
41
1
10
6.88472525481143
20
24.1333570064422
30
0
41
1
10
6.86871466479664
20
24.1375898529323
30
0
41
1
10
6.83706105085906
20
24.1479458916817
30
0
41
1
10
6.82141010756811
20
24.1540879664256
30
0
41
1
10
6.79135816817995
20
24.1682010775044
30
0
41
1
10
6.77685207599598
20
24.1761950999045
30
0
41
1
10
6.74908703598612
20
24.1944618392052
30
0
41
1
10
6.73577114375746
20
24.2048016593949
30
0
41
1
10
6.7117473209284
20
24.2277533575468
30
0
41
1
10
6.7007899692332
20
24.2405893313966
30
0
41
1
10
6.68745372931653
20
24.2618072009201
30
0
41
1
10
6.68354803895443
20
24.2691654986713
30
0
41
1
10
6.6770357454036
20
24.2845709342418
30
0
41
1
10
6.67442744240645
20
24.2926857240766
30
0
41
1
10
6.67270685116586
20
24.3008746137572
30
0
0
SPLINE
5
39A
100
AcDbEntity
8
1
62
256
6
ByLayer
370
18
48
1
60
0
100
AcDbSpline
70
4
71
3
72
24
73
20
40
0
40
0
40
0
40
0
40
0.124999999999998
40
0.124999999999998
40
0.249999999999996
40
0.249999999999996
40
0.374999999999994
40
0.374999999999994
40
0.499999999999992
40
0.499999999999992
40
0.624999999999989
40
0.624999999999989
40
0.687499999999991
40
0.687499999999991
40
0.749999999999993
40
0.749999999999993
40
0.874999999999996
40
0.874999999999996
40
1
40
1
40
1
40
1
41
1
10
10.0061890030955
20
1.51865567533037
30
0
41
1
10
10.0061875221709
20
1.51949207541787
30
0
41
1
10
10.0031916188998
20
1.52057697103208
30
0
41
1
10
9.99137689433877
20
1.52322998370431
30
0
41
1
10
9.98243192377532
20
1.52481685609928
30
0
41
1
10
9.95885452012419
20
1.52842107168317
30
0
41
1
10
9.94438846958928
20
1.53041787482584
30
0
41
1
10
9.91012751875405
20
1.53479899218513
30
0
41
1
10
9.89007150254912
20
1.53721166251813
30
0
41
1
10
9.84603585014696
20
1.54224534899129
30
0
41
1
10
9.82198688573652
20
1.54487825585556
30
0
41
1
10
9.78281821960206
20
1.54900448368568
30
0
41
1
10
9.76916773445191
20
1.550417024502
30
0
41
1
10
9.74136398936434
20
1.55324517050099
30
0
41
1
10
9.72717191728293
20
1.55466512849137
30
0
41
1
10
9.6837451796975
20
1.55894225028828
30
0
41
1
10
9.65362247821133
20
1.56182072926947
30
0
41
1
10
9.59122345455063
20
1.56760784546878
30
0
41
1
10
9.55970176131359
20
1.57044673585102
30
0
41
1
10
9.52786100049309
20
1.57323148686908
30
0
0
SPLINE
5
39B
100
AcDbEntity
8
1
62
256
6
ByLayer
370
13
48
1
60
0
100
AcDbSpline
70
4
71
3
72
8
73
4
40
0
40
0
40
0
40
0
40
1
40
1
40
1
40
1
41
1
10
9.52786100049309
20
1.57323148686908
30
0
41
1
10
9.48402668711253
20
2.69999135348559
30
0
41
1
10
9.44019237373197
20
3.8267512201021
30
0
41
1
10
9.39635806035142
20
4.95351108671861
30
0
0
SPLINE
5
39C
100
AcDbEntity
8
1
62
256
6
ByLayer
370
13
48
1
60
0
100
AcDbSpline
70
4
71
3
72
8
73
4
40
0
40
0
40
0
40
0
40
1
40
1
40
1
40
1
41
1
10
6.11491375474191
20
5.24050188516048
30
0
41
1
10
5.87464548242207
20
4.13858925662453
30
0
41
1
10
5.63437721010217
20
3.03667662808857
30
0
41
1
10
5.39410893778233
20
1.93476399955267
30
0
0
SPLINE
5
39D
100
AcDbEntity
8
1
62
256
6
ByLayer
370
18
48
1
60
0
100
AcDbSpline
70
4
71
3
72
24
73
20
40
0
40
0
40
0
40
0
40
0.125000000000005
40
0.125000000000005
40
0.187500000000004
40
0.187500000000004
40
0.250000000000004
40
0.250000000000004
40
0.375000000000003
40
0.375000000000003
40
0.500000000000003
40
0.500000000000003
40
0.625000000000002
40
0.625000000000002
40
0.750000000000001
40
0.750000000000001
40
0.875000000000001
40
0.875000000000001
40
1
40
1
40
1
40
1
41
1
10
5.39410893778233
20
1.93476399955267
30
0
41
1
10
5.36228011956092
20
1.93754770608677
30
0
41
1
10
5.33098212293669
20
1.94020300304788
30
0
41
1
10
5.28480753435895
20
1.94399909782419
30
0
41
1
10
5.26954565097094
20
1.94523310041535
30
0
41
1
10
5.23928832813266
20
1.94763665088544
30
0
41
1
10
5.22425887985452
20
1.94880853776078
30
0
41
1
10
5.18057732874371
20
1.95214829245077
30
0
41
1
10
5.15298605992797
20
1.95416883163284
30
0
41
1
10
5.10084235982077
20
1.957800768163
30
0
41
1
10
5.07622295115897
20
1.95941357477307
30
0
41
1
10
5.03221882719856
20
1.96208273557067
30
0
41
1
10
5.01252627954591
20
1.96316159736051
30
0
41
1
10
4.97784346977306
20
1.96479866518962
30
0
41
1
10
4.9632378701927
20
1.96533694087486
30
0
41
1
10
4.93977429730182
20
1.96585866947839
30
0
41
1
10
4.93077548070744
20
1.96584420717409
30
0
41
1
10
4.91877727678587
20
1.96525727153107
30
0
41
1
10
4.91578241284776
20
1.96469205206336
30
0
41
1
10
4.91578093219204
20
1.96385606282683
30
0
0
SPLINE
5
39E
100
AcDbEntity
8
1
62
256
6
ByLayer
370
18
48
1
60
0
100
AcDbSpline
70
4
71
3
72
20
73
16
40
0
40
0
40
0
40
0
40
0.124999999999994
40
0.124999999999994
40
0.249999999999989
40
0.249999999999989
40
0.374999999999983
40
0.374999999999983
40
0.499999999999977
40
0.499999999999977
40
0.624999999999972
40
0.624999999999972
40
0.749999999999966
40
0.749999999999966
40
1
40
1
40
1
40
1
41
1
10
9.39635806035142
20
4.95351108671861
30
0
41
1
10
9.41574534786605
20
4.95181550007891
30
0
41
1
10
9.4347762838463
20
4.94962284079577
30
0
41
1
10
9.47215819668293
20
4.94428905128166
30
0
41
1
10
9.49067915713022
20
4.94111178839484
30
0
41
1
10
9.52614425865812
20
4.93392670889295
30
0
41
1
10
9.54295791183358
20
4.92995778875161
30
0
41
1
10
9.57478065149877
20
4.92128079807588
30
0
41
1
10
9.58990974529877
20
4.9165203269024
30
0
41
1
10
9.61717980295253
20
4.90659509119808
30
0
41
1
10
9.62944241191326
20
4.90140907320563
30
0
41
1
10
9.65119599396144
20
4.89058587511045
30
0
41
1
10
9.66064879894219
20
4.8849408481052
30
0
41
1
10
9.68355138405411
20
4.86803794119277
30
0
41
1
10
9.69215958827982
20
4.85640260043476
30
0
41
1
10
9.69311447548796
20
4.84523699602198
30
0
0
SPLINE
5
39F
100
AcDbEntity
8
1
62
256
6
ByLayer
370
18
48
1
60
0
100
AcDbSpline
70
4
71
3
72
20
73
16
40
0
40
0
40
0
40
0
40
0.125
40
0.125
40
0.25
40
0.25
40
0.375
40
0.375
40
0.5
40
0.5
40
0.625
40
0.625
40
0.75
40
0.75
40
1
40
1
40
1
40
1
41
1
10
5.80512633066377
20
5.18527532002048
30
0
41
1
10
5.80648075220927
20
5.19069729126056
30
0
41
1
10
5.80968591906719
20
5.19584062399628
30
0
41
1
10
5.81962297338799
20
5.20559632491791
30
0
41
1
10
5.82644884685101
20
5.21025130051027
30
0
41
1
10
5.84337481864486
20
5.21877245842825
30
0
41
1
10
5.85338432314632
20
5.22262193148293
30
0
41
1
10
5.87643721802351
20
5.2295143897868
30
0
41
1
10
5.88961889591997
20
5.23257120077409
30
0
41
1
10
5.91804573383695
20
5.23762349307191
30
0
41
1
10
5.93336610407584
20
5.23965454716256
30
0
41
1
10
5.9662436778695
20
5.24271621527936
30
0
41
1
10
5.9837523094663
20
5.24372708984123
30
0
41
1
10
6.03748980815323
20
5.24511689811823
30
0
41
1
10
6.07614607258228
20
5.24389245559854
30
0
41
1
10
6.11491375474191
20
5.24050188516048
30
0
0
SPLINE
5
3A0
100
AcDbEntity
8
1
62
256
6
ByLayer
370
18
48
1
60
0
100
AcDbSpline
70
4
71
3
72
24
73
20
40
0
40
0
40
0
40
0
40
0.125000000000013
40
0.125000000000013
40
0.187500000000016
40
0.187500000000016
40
0.250000000000019
40
0.250000000000019
40
0.375000000000016
40
0.375000000000016
40
0.500000000000013
40
0.500000000000013
40
0.62500000000001
40
0.62500000000001
40
0.750000000000006
40
0.750000000000006
40
0.875000000000003
40
0.875000000000003
40
1
40
1
40
1
40
1
41
1
10
9.31356411943045
20
-1.11556109000361
30
0
41
1
10
9.34539293765187
20
-1.11834479653771
30
0
41
1
10
9.37682741752508
20
-1.1194516012564
30
0
41
1
10
9.42340532977062
20
-1.11867172370432
30
0
41
1
10
9.43883498860527
20
-1.11800220348653
30
0
41
1
10
9.46949636959909
20
-1.11582144838138
30
0
41
1
10
9.48476315831704
20
-1.11430055183837
30
0
41
1
10
9.52924474501839
20
-1.108563376468
30
0
41
1
10
9.55748951981838
20
-1.10316946036494
30
0
41
1
10
9.61117890449844
20
-1.0892645886226
30
0
41
1
10
9.63669789733905
20
-1.08067102095254
30
0
41
1
10
9.6826653882332
20
-1.0610644923313
30
0
41
1
10
9.70342906849447
20
-1.04999065005569
30
0
41
1
10
9.74043626636671
20
-1.02525600585182
30
0
41
1
10
9.75627229494967
20
-1.01183425509282
30
0
41
1
10
9.78228353040197
20
-0.983451076015285
30
0
41
1
10
9.79261661617994
20
-0.968298452104875
30
0
41
1
10
9.80733880911771
20
-0.93680606915899
30
0
41
1
10
9.81171065847502
20
-0.920618044292098
30
0
41
1
10
9.81310406129671
20
-0.903989782438202
30
0
0
SPLINE
5
3A1
100
AcDbEntity
8
1
62
256
6
ByLayer
370
18
48
1
60
0
100
AcDbSpline
70
4
71
3
72
18
73
14
40
0
40
0
40
0
40
0
40
0.249999999999999
40
0.249999999999999
40
0.499999999999998
40
0.499999999999998
40
0.624999999999999
40
0.624999999999999
40
0.749999999999999
40
0.749999999999999
40
0.875
40
0.875
40
1
40
1
40
1
40
1
41
1
10
6.54658227787058
20
1.14103353244803
30
0
41
1
10
6.53290717080955
20
1.13670040739885
30
0
41
1
10
6.52135587954245
20
1.13339737963128
30
0
41
1
10
6.50321993569338
20
1.1288960222376
30
0
41
1
10
6.49693006619157
20
1.12777188632475
30
0
41
1
10
6.49237071561981
20
1.12780945583415
30
0
41
1
10
6.49169751961154
20
1.12811061523115
30
0
41
1
10
6.49209240452285
20
1.12927774058915
30
0
41
1
10
6.49318492987993
20
1.13015669855167
30
0
41
1
10
6.49717124812634
20
1.13244513401241
30
0
41
1
10
6.50004097439518
20
1.13384693350719
30
0
41
1
10
6.5075684898124
20
1.13716122378946
30
0
41
1
10
6.51228060797541
20
1.13909306554149
30
0
41
1
10
6.51771920543155
20
1.14120573638746
30
0
0
SPLINE
5
3A2
100
AcDbEntity
8
1
62
256
6
ByLayer
370
18
48
1
60
0
100
AcDbSpline
70
4
71
3
72
18
73
14
40
0
40
0
40
0
40
0
40
0.12499999999998
40
0.12499999999998
40
0.249999999999961
40
0.249999999999961
40
0.374999999999941
40
0.374999999999941
40
0.499999999999921
40
0.499999999999921
40
0.749999999999961
40
0.749999999999961
40
1
40
1
40
1
40
1
41
1
10
8.30268484384789
20
0.985094991833705
30
0
41
1
10
8.3077325601439
20
0.982055504039067
30
0
41
1
10
8.31199847767226
20
0.979383276874728
30
0
41
1
10
8.31896894805385
20
0.974777690579003
30
0
41
1
10
8.32165307280246
20
0.972853385342148
30
0
41
1
10
8.32524723336417
20
0.969917724649065
30
0
41
1
10
8.32620429989845
20
0.968876271991292
30
0
41
1
10
8.32649377279887
20
0.967641829010802
30
0
41
1
10
8.32580113178409
20
0.967459331520217
30
0
41
1
10
8.32145705384107
20
0.968207287240148
30
0
41
1
10
8.31552692785317
20
0.970405551281488
30
0
41
1
10
8.29863664279083
20
0.977966437705334
30
0
41
1
10
8.28796335272261
20
0.983191614337841
30
0
41
1
10
8.27528736835154
20
0.98984326134098
30
0
0
SPLINE
5
3A3
100
AcDbEntity
8
1
62
256
6
ByLayer
370
18
48
1
60
0
100
AcDbSpline
70
4
71
3
72
14
73
10
40
0
40
0
40
0
40
0
40
0.25
40
0.25
40
0.5
40
0.5
40
0.75
40
0.75
40
1
40
1
40
1
40
1
41
1
10
8.15772048697363
20
1.01759377870377
30
0
41
1
10
8.15995931601452
20
1.02342722405996
30
0
41
1
10
8.16453942396436
20
1.02675103539229
30
0
41
1
10
8.17761350845456
20
1.02886999389369
30
0
41
1
10
8.18607313247384
20
1.02774221802741
30
0
41
1
10
8.20659132557114
20
1.02191910700975
30
0
41
1
10
8.21851284465998
20
1.01725141161853
30
0
41
1
10
8.24488950434727
20
1.00539026907478
30
0
41
1
10
8.25942090804097
20
0.998169091516047
30
0
41
1
10
8.27528736835154
20
0.98984326134098
30
0
0
SPLINE
5
3A4
100
AcDbEntity
8
1
62
256
6
ByLayer
370
18
48
1
60
0
100
AcDbSpline
70
4
71
3
72
18
73
14
40
0
40
0
40
0
40
0
40
0.249999999999999
40
0.249999999999999
40
0.499999999999998
40
0.499999999999998
40
0.624999999999999
40
0.624999999999999
40
0.749999999999999
40
0.749999999999999
40
0.875
40
0.875
40
1
40
1
40
1
40
1
41
1
10
8.26193741723984
20
0.822340823710078
30
0
41
1
10
8.27397567862448
20
0.808102857799781
30
0
41
1
10
8.28400458333391
20
0.794133408603159
30
0
41
1
10
8.29934215822118
20
0.766885429281672
30
0
41
1
10
8.30439987095201
20
0.754029936081395
30
0
41
1
10
8.30739913417005
20
0.736292149276551
30
0
41
1
10
8.30761054320465
20
0.730751712887013
30
0
41
1
10
8.30640717635521
20
0.720411828099088
30
0
41
1
10
8.30496544142159
20
0.715570857771581
30
0
41
1
10
8.30042039930328
20
0.706943332440574
30
0
41
1
10
8.29733960050964
20
0.703146776302958
30
0
41
1
10
8.2895267683092
20
0.696595379425901
30
0
41
1
10
8.28474167370945
20
0.693835571992736
30
0
41
1
10
8.27930307625331
20
0.691722901146761
30
0
0
SPLINE
5
3A5
100
AcDbEntity
8
1
62
256
6
ByLayer
370
18
48
1
60
0
100
AcDbSpline
70
4
71
3
72
12
73
8
40
0
40
0
40
0
40
0
40
0.500000000000024
40
0.500000000000024
40
0.750000000000012
40
0.750000000000012
40
1
40
1
40
1
40
1
41
1
10
8.26193741723984
20
0.822340823710135
30
0
41
1
10
8.23171050170578
20
0.858090985564559
30
0
41
1
10
8.20649187888591
20
0.893307968960073
30
0
41
1
10
8.1790064162937
20
0.940316530025939
30
0
41
1
10
8.1714891758603
20
0.955181564015106
30
0
41
1
10
8.16078648896604
20
0.981154024687896
30
0
41
1
10
8.15748607504355
20
0.992418139480094
30
0
41
1
10
8.15644750238403
20
1.0016215837465
30
0
0
SPLINE
5
3A6
100
AcDbEntity
8
1
62
256
6
ByLayer
370
18
48
1
60
0
100
AcDbSpline
70
4
71
3
72
18
73
14
40
0
40
0
40
0
40
0
40
0.125000000000016
40
0.125000000000016
40
0.250000000000033
40
0.250000000000033
40
0.375000000000049
40
0.375000000000049
40
0.500000000000066
40
0.500000000000066
40
0.750000000000033
40
0.750000000000033
40
1
40
1
40
1
40
1
41
1
10
6.49433743783698
20
0.847833645700518
30
0
41
1
10
6.48928972154096
20
0.850873133495156
30
0
41
1
10
6.48509499843317
20
0.854353108195085
30
0
41
1
10
6.47841004721545
20
0.86219809722644
30
0
41
1
10
6.47594266409334
20
0.866581478794728
30
0
41
1
10
6.47290630762404
20
0.875845793854751
30
0
41
1
10
6.47229148570398
20
0.880770236798639
30
0
41
1
10
6.47281296579212
20
0.891205474901085
30
0
41
1
10
6.47397847292535
20
0.896752949569759
30
0
41
1
10
6.4798734269736
20
0.91360070347281
30
0
41
1
10
6.487041438473
20
0.925447064873822
30
0
41
1
10
6.50672637337567
20
0.949593319285441
30
0
41
1
10
6.51891538465509
20
0.961564996876916
30
0
41
1
10
6.53323232675888
20
0.973531094817133
30
0
0
SPLINE
5
3A7
100
AcDbEntity
8
1
62
256
6
ByLayer
370
18
48
1
60
0
100
AcDbSpline
70
4
71
3
72
12
73
8
40
0
40
0
40
0
40
0
40
0.5
40
0.5
40
0.75
40
0.75
40
1
40
1
40
1
40
1
41
1
10
6.54658227787058
20
1.14103353244803
30
0
41
1
10
6.58091915533515
20
1.1519135923399
30
0
41
1
10
6.60992290181906
20
1.15964132686707
30
0
41
1
10
6.64183043918047
20
1.16280411302159
30
0
41
1
10
6.65062257580911
20
1.16240361502844
30
0
41
1
10
6.66322404472402
20
1.15797408544876
30
0
41
1
10
6.66716513509635
20
1.15397886643632
30
0
41
1
10
6.6684739344139
20
1.14784132136828
30
0
0
SPLINE
5
3A8
100
AcDbEntity
8
1
62
256
6
ByLayer
370
18
48
1
60
0
100
AcDbSpline
70
4
71
3
72
14
73
10
40
0
40
0
40
0
40
0
40
0.25
40
0.25
40
0.5
40
0.5
40
0.75
40
0.75
40
1
40
1
40
1
40
1
41
1
10
6.66720094982429
20
1.13186912641095
30
0
41
1
10
6.66469161725348
20
1.12296664056362
30
0
41
1
10
6.65945309016541
20
1.11217263098195
30
0
41
1
10
6.64446123730551
20
1.08829532876632
30
0
41
1
10
6.6347492412549
20
1.07521412009305
30
0
41
1
10
6.61126118239002
20
1.04734215031937
30
0
41
1
10
6.59764345717116
20
1.03276527135438
30
0
41
1
10
6.56763312402342
20
1.00339999815981
30
0
41
1
10
6.55115276488868
20
0.988508994164533
30
0
41
1
10
6.53323232675888
20
0.973531094817133
30
0
0
SPLINE
5
3A9
100
AcDbEntity
8
1
62
256
6
ByLayer
370
18
48
1
60
0
100
AcDbSpline
70
4
71
3
72
18
73
14
40
0
40
0
40
0
40
0
40
0.125000000000004
40
0.125000000000004
40
0.250000000000008
40
0.250000000000008
40
0.375000000000012
40
0.375000000000012
40
0.500000000000016
40
0.500000000000016
40
0.750000000000008
40
0.750000000000008
40
1
40
1
40
1
40
1
41
1
10
8.27930307625331
20
0.691722901146761
30
0
41
1
10
8.273861059274
20
0.689608901957001
30
0
41
1
10
8.26773806791215
20
0.688103973278714
30
0
41
1
10
8.25413002733598
20
0.686317990346424
30
0
41
1
10
8.24662258793086
20
0.686055537337893
30
0
41
1
10
8.23093351131303
20
0.686772412202117
30
0
41
1
10
8.22267530412307
20
0.687737130440723
30
0
41
1
10
8.2053623931501
20
0.690863775360299
30
0
41
1
10
8.19625429034852
20
0.693052158922114
30
0
41
1
10
8.16891023701754
20
0.701122639919959
30
0
41
1
10
8.15008271397471
20
0.708630436535543
30
0
41
1
10
8.11283247476689
20
0.727169395833698
30
0
41
1
10
8.09489491553717
20
0.737915868568052
30
0
41
1
10
8.07764161846296
20
0.750104751990762
30
0
0
SPLINE
5
3AA
100
AcDbEntity
8
1
62
256
6
ByLayer
370
18
48
1
60
0
100
AcDbSpline
70
4
71
3
72
18
73
14
40
0
40
0
40
0
40
0
40
0.25
40
0.25
40
0.5
40
0.5
40
0.625
40
0.625
40
0.75
40
0.75
40
0.875
40
0.875
40
1
40
1
40
1
40
1
41
1
10
6.70353662210323
20
0.870282165751576
30
0
41
1
10
6.68448539642054
20
0.861295308303852
30
0
41
1
10
6.66487174063815
20
0.853790197971364
30
0
41
1
10
6.62487103629451
20
0.841989444666865
30
0
41
1
10
6.60510446406118
20
0.837884319468571
30
0
41
1
10
6.57652098837417
20
0.834678673847407
30
0
41
1
10
6.56735618452848
20
0.834125785596257
30
0
41
1
10
6.5497775154256
20
0.834052452871049
30
0
41
1
10
6.54128671765955
20
0.834544691948452
30
0
41
1
10
6.52559524123183
20
0.836584827422996
30
0
41
1
10
6.51838911793459
20
0.838118245928854
30
0
41
1
10
6.50528106113518
20
0.842216786364986
30
0
41
1
10
6.49935296353533
20
0.84481354150887
30
0
41
1
10
6.49433743783698
20
0.847833645700518
30
0
0
SPLINE
5
3AB
100
AcDbEntity
8
1
62
256
6
ByLayer
370
18
48
1
60
0
100
AcDbSpline
70
4
71
3
72
18
73
14
40
0
40
0
40
0
40
0
40
0.249999999999996
40
0.249999999999996
40
0.499999999999992
40
0.499999999999992
40
0.624999999999994
40
0.624999999999994
40
0.749999999999996
40
0.749999999999996
40
0.874999999999998
40
0.874999999999998
40
1
40
1
40
1
40
1
41
1
10
7.5614183852332
20
0.71116817351492
30
0
41
1
10
7.55515258968381
20
0.697239454990893
30
0
41
1
10
7.54625658932372
20
0.684404820114196
30
0
41
1
10
7.52289643015945
20
0.661275556320675
30
0
41
1
10
7.50875395527817
20
0.651319112772626
30
0
41
1
10
7.48392907206346
20
0.639261250824916
30
0
41
1
10
7.47520260250997
20
0.635798148122774
30
0
41
1
10
7.45682283615673
20
0.629991517353687
30
0
41
1
10
7.44706699613363
20
0.627633928521448
30
0
41
1
10
7.42713716106431
20
0.624234861098557
30
0
41
1
10
7.41697218119958
20
0.623177286096734
30
0
41
1
10
7.39623400241993
20
0.622358687742576
30
0
41
1
10
7.38558566803823
20
0.622615983133528
30
0
41
1
10
7.37516405991533
20
0.623527443258297
30
0
0
SPLINE
5
3AC
100
AcDbEntity
8
1
62
256
6
ByLayer
370
18
48
1
60
0
100
AcDbSpline
70
4
71
3
72
22
73
18
40
0
40
0
40
0
40
0
40
0.125
40
0.125
40
0.25
40
0.25
40
0.375
40
0.375
40
0.5
40
0.5
40
0.625
40
0.625
40
0.75
40
0.75
40
0.875
40
0.875
40
1
40
1
40
1
40
1
41
1
10
7.56141838523217
20
0.711168173512647
30
0
41
1
10
7.56999118832948
20
0.73022531643511
30
0
41
1
10
7.58087340720419
20
0.748455409526514
30
0
41
1
10
7.60696063615734
20
0.781844637749771
30
0
41
1
10
7.6221538027674
20
0.797077416894354
30
0
41
1
10
7.65747481570628
20
0.823763507599438
30
0
41
1
10
7.67752806341213
20
0.835045570158456
30
0
41
1
10
7.72130076630583
20
0.851596742519746
30
0
41
1
10
7.74553091119702
20
0.856955357707534
30
0
41
1
10
7.79542691302095
20
0.860657720922006
30
0
41
1
10
7.82159547516682
20
0.859133883710513
30
0
41
1
10
7.87491948846986
20
0.84974379170211
30
0
41
1
10
7.90133551286641
20
0.842090306498051
30
0
41
1
10
7.95391626446985
20
0.822057487829909
30
0
41
1
10
7.97997834216625
20
0.809660293635545
30
0
41
1
10
8.02992365689084
20
0.782054951632915
30
0
41
1
10
8.05411116282846
20
0.766728240207556
30
0
41
1
10
8.07764161846296
20
0.750104751990762
30
0
0
SPLINE
5
3AD
100
AcDbEntity
8
1
62
256
6
ByLayer
370
18
48
1
60
0
100
AcDbSpline
70
4
71
3
72
28
73
24
40
0
40
0
40
0
40
0
40
0.0624999999999974
40
0.0624999999999974
40
0.124999999999995
40
0.124999999999995
40
0.24999999999999
40
0.24999999999999
40
0.312499999999993
40
0.312499999999993
40
0.374999999999996
40
0.374999999999996
40
0.500000000000002
40
0.500000000000002
40
0.625000000000008
40
0.625000000000008
40
0.687500000000007
40
0.687500000000007
40
0.750000000000005
40
0.750000000000005
40
0.875000000000003
40
0.875000000000003
40
1
40
1
40
1
40
1
41
1
10
4.39999999999998
20
18.350720857391
30
0
41
1
10
4.39999999999998
20
18.3542093386921
30
0
41
1
10
4.40153568674322
20
18.3578412760895
30
0
41
1
10
4.40770819534418
20
18.3652743023256
30
0
41
1
10
4.41231537994878
20
18.3690589171235
30
0
41
1
10
4.43060768874739
20
18.3805976045599
30
0
41
1
10
4.44872252628988
20
18.388537871629
30
0
41
1
10
4.48514269179094
20
18.4007232078534
30
0
41
1
10
4.49890618666899
20
18.4048462515674
30
0
41
1
10
4.52901878578047
20
18.4129834760781
30
0
41
1
10
4.54541361411088
20
18.4170165861336
30
0
41
1
10
4.59856859243769
20
18.4289676246685
30
0
41
1
10
4.63925965860437
20
18.4367409194093
30
0
41
1
10
4.73180985726782
20
18.4516076385203
30
0
41
1
10
4.78231382743513
20
18.4584740686591
30
0
41
1
10
4.86368606693162
20
18.4676727263478
30
0
41
1
10
4.89178202577045
20
18.4705592665267
30
0
41
1
10
4.9499702226924
20
18.4759329668491
30
0
41
1
10
4.98022734752618
20
18.4784300510159
30
0
41
1
10
5.07214290354045
20
18.4851109821374
30
0
41
1
10
5.13532090788584
20
18.4885380197399
30
0
41
1
10
5.26544829775531
20
18.4932022511918
30
0
41
1
10
5.33274918754921
20
18.4944246143591
30
0
41
1
10
5.39999999999998
20
18.4944246143591
30
0
0
SPLINE
5
3AE
100
AcDbEntity
8
1
62
256
6
ByLayer
370
18
48
1
60
0
100
AcDbSpline
70
4
71
3
72
16
73
12
40
0
40
0
40
0
40
0
40
0.25
40
0.25
40
0.5
40
0.5
40
0.75
40
0.75
40
0.875
40
0.875
40
1
40
1
40
1
40
1
41
1
10
5.39999999999998
20
11.7037372537857
30
0
41
1
10
5.35599426450176
20
11.7037372537857
30
0
41
1
10
5.3124841048508
20
11.7027286263197
30
0
41
1
10
5.22645817337985
20
11.6979254054486
30
0
41
1
10
5.18394150524671
20
11.6941568315255
30
0
41
1
10
5.10004839073468
20
11.6810494343088
30
0
41
1
10
5.05825061988406
20
11.671674423097
30
0
41
1
10
4.99939719811505
20
11.6491321002051
30
0
41
1
10
4.98017559623065
20
11.6400723663315
30
0
41
1
10
4.94430792763211
20
11.6178264092485
30
0
41
1
10
4.92768467310941
20
11.6048159622367
30
0
41
1
10
4.9131864556623
20
11.5883619239362
30
0
0
SPLINE
5
3AF
100
AcDbEntity
8
1
62
256
6
ByLayer
370
18
48
1
60
0
100
AcDbSpline
70
4
71
3
72
18
73
14
40
0
40
0
40
0
40
0
40
0.125000000000002
40
0.125000000000002
40
0.250000000000005
40
0.250000000000005
40
0.375000000000007
40
0.375000000000007
40
0.50000000000001
40
0.50000000000001
40
0.750000000000005
40
0.750000000000005
40
1
40
1
40
1
40
1
41
1
10
9.08681354433628
20
11.5883619239378
30
0
41
1
10
9.07232169914101
20
11.6048087303643
30
0
41
1
10
9.05572228549875
20
11.6178002270561
30
0
41
1
10
9.01993304877448
20
11.6400123966869
30
0
41
1
10
9.00071730573455
20
11.6490767105135
30
0
41
1
10
8.96164862765386
20
11.6640639324739
30
0
41
1
10
8.94158263124808
20
11.6700901916732
30
0
41
1
10
8.90057402524269
20
11.6801722067187
30
0
41
1
10
8.87955839118467
20
11.6842240489817
30
0
41
1
10
8.81633574637169
20
11.6941363355993
30
0
41
1
10
8.77368446318121
20
11.6979159425483
30
0
41
1
10
8.68750211195157
20
11.7027308925087
30
0
41
1
10
8.64397016875705
20
11.7037372537895
30
0
41
1
10
8.60000000000161
20
11.7037372537896
30
0
0
SPLINE
5
3B0
100
AcDbEntity
8
1
62
256
6
ByLayer
370
18
48
1
60
0
100
AcDbSpline
70
4
71
3
72
28
73
24
40
0
40
0
40
0
40
0
40
0.125000000000009
40
0.125000000000009
40
0.187500000000012
40
0.187500000000012
40
0.250000000000015
40
0.250000000000015
40
0.375000000000016
40
0.375000000000016
40
0.437500000000016
40
0.437500000000016
40
0.500000000000017
40
0.500000000000017
40
0.62500000000001
40
0.62500000000001
40
0.750000000000003
40
0.750000000000003
40
0.812499999999999
40
0.812499999999999
40
0.874999999999996
40
0.874999999999996
40
1
40
1
40
1
40
1
41
1
10
8.60000000000002
20
18.4944246143591
30
0
41
1
10
8.66725549125567
20
18.4944246143591
30
0
41
1
10
8.7333367569932
20
18.4932298190278
30
0
41
1
10
8.83077179971377
20
18.4897611270733
30
0
41
1
10
8.86296680497838
20
18.4883240371454
30
0
41
1
10
8.92677639147342
20
18.4848910760028
30
0
41
1
10
8.95835568113358
20
18.4828928471792
30
0
41
1
10
9.05006692465679
20
18.4762307403825
30
0
41
1
10
9.10794681631609
20
18.4708672343419
30
0
41
1
10
9.18991599279042
20
18.4616192995941
30
0
41
1
10
9.216560677828
20
18.4583151584498
30
0
41
1
10
9.26723659267901
20
18.4514514096465
30
0
41
1
10
9.29132327708737
20
18.4478892678787
30
0
41
1
10
9.35994514321476
20
18.4368734136472
30
0
41
1
10
9.40092553079774
20
18.4290816190405
30
0
41
1
10
9.47282987975689
20
18.4129145749126
30
0
41
1
10
9.5027151004561
20
18.4047794188089
30
0
41
1
10
9.53895709179392
20
18.3926631039267
30
0
41
1
10
9.549596253316
20
18.3886381042244
30
0
41
1
10
9.56795658152345
20
18.3806370805284
30
0
41
1
10
9.57566520713772
20
18.376657858525
30
0
41
1
10
9.59396953119801
20
18.3650593391047
30
0
41
1
10
9.60000000000002
20
18.3576955572799
30
0
41
1
10
9.60000000000002
20
18.350720857391
30
0
0
SPLINE
5
3B1
100
AcDbEntity
8
1
62
256
6
ByLayer
370
18
48
1
60
0
100
AcDbSpline
70
4
71
3
72
14
73
10
40
0
40
0
40
0
40
0
40
0.25
40
0.25
40
0.5
40
0.5
40
0.75
40
0.75
40
1
40
1
40
1
40
1
41
1
10
5.5
20
19.4438835787627
30
0
41
1
10
5.5
20
19.4502729524297
30
0
41
1
10
5.50182010896623
20
19.4565668562098
30
0
41
1
10
5.50926006914506
20
19.4689474714237
30
0
41
1
10
5.51497834915585
20
19.4750966518082
30
0
41
1
10
5.53087866115089
20
19.4863345773436
30
0
41
1
10
5.54121190548778
20
19.4915580652714
30
0
41
1
10
5.56740080768293
20
19.4994865825525
30
0
41
1
10
5.58337299040937
20
19.50204676121
30
0
41
1
10
5.59999999999758
20
19.5020467612102
30
0
0
SPLINE
5
3B2
100
AcDbEntity
8
1
62
256
6
ByLayer
370
18
48
1
60
0
100
AcDbSpline
70
4
71
3
72
14
73
10
40
0
40
0
40
0
40
0
40
0.25
40
0.25
40
0.5
40
0.5
40
0.75
40
0.75
40
1
40
1
40
1
40
1
41
1
10
8.39999999999998
20
19.5020467612073
30
0
41
1
10
8.41662344397258
20
19.5020467612073
30
0
41
1
10
8.4324385424768
20
19.4995219188444
30
0
41
1
10
8.458706234766
20
19.4915960248957
30
0
41
1
10
8.4690176152871
20
19.4863953676608
30
0
41
1
10
8.48498506447737
20
19.4751349192902
30
0
41
1
10
8.49062424718204
20
19.4691054958249
30
0
41
1
10
8.49818287385875
20
19.4565958623533
30
0
41
1
10
8.5
20
19.4502704923572
30
0
41
1
10
8.5
20
19.4438835787627
30
0
0
SPLINE
5
3B3
100
AcDbEntity
8
1
62
256
6
ByLayer
370
18
48
1
60
0
100
AcDbSpline
70
4
71
3
72
28
73
24
40
0
40
0
40
0
40
0
40
0.0624999999999955
40
0.0624999999999955
40
0.124999999999991
40
0.124999999999991
40
0.249999999999992
40
0.249999999999992
40
0.312499999999993
40
0.312499999999993
40
0.374999999999994
40
0.374999999999994
40
0.499999999999998
40
0.499999999999998
40
0.625000000000003
40
0.625000000000003
40
0.687500000000005
40
0.687500000000005
40
0.750000000000006
40
0.750000000000006
40
0.875000000000003
40
0.875000000000003
40
1
40
1
40
1
40
1
41
1
10
4.39999999999998
20
-17.9349517859431
30
0
41
1
10
4.39999999999998
20
-17.9558811084492
30
0
41
1
10
4.40153568674322
20
-17.9769163731316
30
0
41
1
10
4.40770819534418
20
-18.0185084156782
30
0
41
1
10
4.41231537994878
20
-18.038980974846
30
0
41
1
10
4.43060768874739
20
-18.099460018612
30
0
41
1
10
4.44872252628988
20
-18.1385340661958
30
0
41
1
10
4.48514269179094
20
-18.1952888194958
30
0
41
1
10
4.49890618666899
20
-18.2139612461079
30
0
41
1
10
4.52901878578047
20
-18.2498938971409
30
0
41
1
10
4.54541361411088
20
-18.2672460665358
30
0
41
1
10
4.59856859243769
20
-18.317515591603
30
0
41
1
10
4.63925965860443
20
-18.3486620118715
30
0
41
1
10
4.73180985726782
20
-18.4061412058572
30
0
41
1
10
4.78231382743513
20
-18.4316040311709
30
0
41
1
10
4.86368606693162
20
-18.4648811333285
30
0
41
1
10
4.89178202577045
20
-18.4751658687379
30
0
41
1
10
4.9499702226924
20
-18.4941013347586
30
0
41
1
10
4.98022734752618
20
-18.5027856105545
30
0
41
1
10
5.07214290354045
20
-18.5258199688441
30
0
41
1
10
5.13532090788584
20
-18.5373566603985
30
0
41
1
10
5.26544829775531
20
-18.5529787413789
30
0
41
1
10
5.33274918754921
20
-18.5570145052675
30
0
41
1
10
5.39999999999998
20
-18.5570145052675
30
0
0
SPLINE
5
3B4
100
AcDbEntity
8
1
62
256
6
ByLayer
370
18
48
1
60
0
100
AcDbSpline
70
4
71
3
72
8
73
4
40
0
40
0
40
0
40
0
40
1
40
1
40
1
40
1
41
1
10
4.91318645566253
20
-24.9495053321524
30
0
41
1
10
4.87924754546043
20
-24.9696975057246
30
0
41
1
10
4.84833176374696
20
-24.9907958318194
30
0
41
1
10
4.81978808006335
20
-25.0126051705693
30
0
0
SPLINE
5
3B5
100
AcDbEntity
8
1
62
256
6
ByLayer
370
18
48
1
60
0
100
AcDbSpline
70
4
71
3
72
28
73
24
40
0
40
0
40
0
40
0
40
0.125
40
0.125
40
0.187500000000003
40
0.187500000000003
40
0.250000000000005
40
0.250000000000005
40
0.37500000000001
40
0.37500000000001
40
0.437500000000009
40
0.437500000000009
40
0.500000000000008
40
0.500000000000008
40
0.625000000000007
40
0.625000000000007
40
0.750000000000006
40
0.750000000000006
40
0.812500000000007
40
0.812500000000007
40
0.875000000000008
40
0.875000000000008
40
1
40
1
40
1
40
1
41
1
10
8.60000000000002
20
-18.5570145052674
30
0
41
1
10
8.66725549125567
20
-18.5570145052674
30
0
41
1
10
8.7333367569932
20
-18.5530700486477
30
0
41
1
10
8.83077179971377
20
-18.5414537562999
30
0
41
1
10
8.86296680497838
20
-18.5366236749729
30
0
41
1
10
8.92677639147342
20
-18.524987349334
30
0
41
1
10
8.95835568113358
20
-18.5181719987223
30
0
41
1
10
9.05006692465679
20
-18.4952035477296
30
0
41
1
10
9.10794681631609
20
-18.4764309480865
30
0
41
1
10
9.18991599279042
20
-18.4429854802986
30
0
41
1
10
9.216560677828
20
-18.4308741231343
30
0
41
1
10
9.26723659267901
20
-18.4052662090758
30
0
41
1
10
9.29132327708737
20
-18.3917627698235
30
0
41
1
10
9.35994514321476
20
-18.3491784379165
30
0
41
1
10
9.40092553079774
20
-18.3179953707826
30
0
41
1
10
9.47282987975689
20
-18.2499915348284
30
0
41
1
10
9.50271510045616
20
-18.2141742204543
30
0
41
1
10
9.53895709179392
20
-18.1577512931243
30
0
41
1
10
9.549596253316
20
-18.1384914416851
30
0
41
1
10
9.56795658152345
20
-18.0990394332508
30
0
41
1
10
9.57566520713772
20
-18.0788225750183
30
0
41
1
10
9.59396953119801
20
-18.0179921779313
30
0
41
1
10
9.60000000000002
20
-17.9767968556903
30
0
41
1
10
9.60000000000002
20
-17.934951785943
30
0
0
SPLINE
5
3B6
100
AcDbEntity
8
1
62
256
6
ByLayer
370
18
48
1
60
0
100
AcDbSpline
70
4
71
3
72
14
73
10
40
0
40
0
40
0
40
0
40
0.25
40
0.25
40
0.5
40
0.5
40
0.75
40
0.75
40
1
40
1
40
1
40
1
41
1
10
5.5
20
-11.9332434780401
30
0
41
1
10
5.5
20
-11.9179972707378
30
0
41
1
10
5.50182010896623
20
-11.9030282563128
30
0
41
1
10
5.50926006914506
20
-11.873672120144
30
0
41
1
10
5.51497834915585
20
-11.8591390677912
30
0
41
1
10
5.53087866115089
20
-11.8326497513488
30
0
41
1
10
5.54121190548778
20
-11.8203764615494
30
0
41
1
10
5.56740080768293
20
-11.801777635373
30
0
41
1
10
5.58337299040937
20
-11.7957880253939
30
0
41
1
10
5.59999999999758
20
-11.7957880253933
30
0
0
SPLINE
5
3B7
100
AcDbEntity
8
1
62
256
6
ByLayer
370
18
48
1
60
0
100
AcDbSpline
70
4
71
3
72
66
73
62
40
0
40
0
40
0
40
0
40
0.0625000000000023
40
0.0625000000000023
40
0.125000000000005
40
0.125000000000005
40
0.187500000000007
40
0.187500000000007
40
0.250000000000009
40
0.250000000000009
40
0.312500000000012
40
0.312500000000012
40
0.375000000000014
40
0.375000000000014
40
0.406250000000016
40
0.406250000000016
40
0.421875000000017
40
0.421875000000017
40
0.437500000000017
40
0.437500000000017
40
0.453125000000018
40
0.453125000000018
40
0.460937500000019
40
0.460937500000019
40
0.46875000000002
40
0.46875000000002
40
0.484375000000021
40
0.484375000000021
40
0.492187500000022
40
0.492187500000022
40
0.500000000000022
40
0.500000000000022
40
0.507812500000023
40
0.507812500000023
40
0.515625000000023
40
0.515625000000023
40
0.523437500000023
40
0.523437500000023
40
0.531250000000024
40
0.531250000000024
40
0.546875000000024
40
0.546875000000024
40
0.562500000000023
40
0.562500000000023
40
0.593750000000022
40
0.593750000000022
40
0.62500000000002
40
0.62500000000002
40
0.687500000000016
40
0.687500000000016
40
0.750000000000012
40
0.750000000000012
40
0.781250000000011
40
0.781250000000011
40
0.812500000000009
40
0.812500000000009
40
0.875000000000006
40
0.875000000000006
40
0.937500000000003
40
0.937500000000003
40
1
40
1
40
1
40
1
41
1
10
5.5
20
-15.6172577194023
30
0
41
1
10
5.5
20
-15.7563900957788
30
0
41
1
10
5.5082587081402
20
-15.8923596139007
30
0
41
1
10
5.53845920068022
20
-16.1585135574183
30
0
41
1
10
5.56041964828592
20
-16.2886947108891
30
0
41
1
10
5.61667983242103
20
-16.5435813615184
30
0
41
1
10
5.65097875774654
20
-16.6682861493428
30
0
41
1
10
5.73172954638437
20
-16.9123673499662
30
0
41
1
10
5.77818705814747
20
-17.0318134833176
30
0
41
1
10
5.88444800476066
20
-17.2650692850352
30
0
41
1
10
5.94375131554318
20
-17.3779471538451
30
0
41
1
10
6.07798447386972
20
-17.5957544605121
30
0
41
1
10
6.15298478503337
20
-17.7010345889369
30
0
41
1
10
6.28214508765041
20
-17.8489032248953
30
0
41
1
10
6.32805749919316
20
-17.896589834442
30
0
41
1
10
6.40331205127382
20
-17.9650003802409
30
0
41
1
10
6.4294740023073
20
-17.9872793840587
30
0
41
1
10
6.48460780652186
20
-18.0305576830684
30
0
41
1
10
6.5136926531494
20
-18.0516397323157
30
0
41
1
10
6.57517364937377
20
-18.091758125916
30
0
41
1
10
6.60738327683379
20
-18.1106941070931
30
0
41
1
10
6.65874074376569
20
-18.1368653605725
30
0
41
1
10
6.67637121067031
20
-18.1452141977395
30
0
41
1
10
6.71287241008707
20
-18.1610179085592
30
0
41
1
10
6.73180455125873
20
-18.1684893052399
30
0
41
1
10
6.78983137230239
20
-18.1889129634753
30
0
41
1
10
6.83038028806789
20
-18.2000334856799
30
0
41
1
10
6.89511039911349
20
-18.2115740054124
30
0
41
1
10
6.91709834075994
20
-18.2144970490828
30
0
41
1
10
6.96119524274917
20
-18.2182769612085
30
0
41
1
10
6.98341416697031
20
-18.2191543419788
30
0
41
1
10
7.02820957005093
20
-18.2187877054504
30
0
41
1
10
7.05080962391935
20
-18.2175183705074
30
0
41
1
10
7.09483744443105
20
-18.2130015318614
30
0
41
1
10
7.11646576582416
20
-18.2097594657247
30
0
41
1
10
7.15902679182256
20
-18.2014929289494
30
0
41
1
10
7.1800777468145
20
-18.1964283561946
30
0
41
1
10
7.22063580604498
20
-18.1849533748234
30
0
41
1
10
7.24022882535911
20
-18.1785381660658
30
0
41
1
10
7.29731167501865
20
-18.1575985145992
30
0
41
1
10
7.33320549309911
20
-18.1413543982081
30
0
41
1
10
7.40140766469557
20
-18.1057134961007
30
0
41
1
10
7.43319719022844
20
-18.0866025736857
30
0
41
1
10
7.52375513730419
20
-18.0264536331666
30
0
41
1
10
7.57780787619515
20
-17.9826468756173
30
0
41
1
10
7.67845395313577
20
-17.8901219412535
30
0
41
1
10
7.72430450828637
20
-17.8419574748247
30
0
41
1
10
7.85248396428659
20
-17.6937963167363
30
0
41
1
10
7.92598865274766
20
-17.5898223306018
30
0
41
1
10
8.0585833421199
20
-17.3736191924873
30
0
41
1
10
8.11741143577552
20
-17.2613238379055
30
0
41
1
10
8.19663548832983
20
-17.0869054740989
30
0
41
1
10
8.22144784711196
20
-17.0278914016609
30
0
41
1
10
8.26784030606018
20
-16.9087204193433
30
0
41
1
10
8.28945989349427
20
-16.8484748696081
30
0
41
1
10
8.34975218800679
20
-16.6657544589373
30
0
41
1
10
8.38389443085555
20
-16.5413005548871
30
0
41
1
10
8.43988969088309
20
-16.2869672607413
30
0
41
1
10
8.46174187830087
20
-16.1570885550109
30
0
41
1
10
8.4917878817497
20
-15.8915990660633
30
0
41
1
10
8.5
20
-15.7559914435447
30
0
41
1
10
8.5
20
-15.6172577194023
30
0
0
SPLINE
5
3B8
100
AcDbEntity
8
1
62
256
6
ByLayer
370
18
48
1
60
0
100
AcDbSpline
70
4
71
3
72
14
73
10
40
0
40
0
40
0
40
0
40
0.25
40
0.25
40
0.5
40
0.5
40
0.75
40
0.75
40
1
40
1
40
1
40
1
41
1
10
8.39999999999998
20
-11.7957880254008
30
0
41
1
10
8.41662344397258
20
-11.7957880254008
30
0
41
1
10
8.4324385424768
20
-11.8016948536038
30
0
41
1
10
8.458706234766
20
-11.8202873057567
30
0
41
1
10
8.4690176152871
20
-11.8325066763522
30
0
41
1
10
8.48498506447737
20
-11.8590486519966
30
0
41
1
10
8.49062424718204
20
-11.873297886996
30
0
41
1
10
8.49818287385875
20
-11.9029590212874
30
0
41
1
10
8.5
20
-11.9180031409183
30
0
41
1
10
8.5
20
-11.9332434780401
30
0
0
SPLINE
5
3B9
100
AcDbEntity
8
1
62
256
6
ByLayer
370
18
48
1
60
0
100
AcDbSpline
70
4
71
3
72
16
73
12
40
0
40
0
40
0
40
0
40
0.250000000000004
40
0.250000000000004
40
0.500000000000009
40
0.500000000000009
40
0.750000000000013
40
0.750000000000013
40
0.875000000000006
40
0.875000000000006
40
1
40
1
40
1
40
1
41
1
10
5.39999999999998
20
-24.9398329248944
30
0
41
1
10
5.35599416088758
20
-24.9398329248944
30
0
41
1
10
5.31248389992919
20
-24.9386159192204
30
0
41
1
10
5.22645777064139
20
-24.9346051144603
30
0
41
1
10
5.18394100597851
20
-24.9317860497805
30
0
41
1
10
5.10004770481385
20
-24.9270367812572
30
0
41
1
10
5.05824987398455
20
-24.9249741610448
30
0
41
1
10
4.99939622957038
20
-24.9272053595207
30
0
41
1
10
4.98017445071588
20
-24.9288837549439
30
0
41
1
10
4.94430724575938
20
-24.935792649596
30
0
41
1
10
4.92768430787163
20
-24.9408797414512
30
0
41
1
10
4.9131864556619
20
-24.9495053321527
30
0
0
SPLINE
5
3BA
100
AcDbEntity
8
1
62
256
6
ByLayer
370
18
48
1
60
0
100
AcDbSpline
70
4
71
3
72
22
73
18
40
0
40
0
40
0
40
0
40
0.0658018023715729
40
0.0658018023715729
40
0.221501501976314
40
0.221501501976314
40
0.377201201581055
40
0.377201201581055
40
0.532900901185795
40
0.532900901185795
40
0.688600600790536
40
0.688600600790536
40
0.844300300395277
40
0.844300300395277
40
0.922150150197639
40
0.922150150197639
40
1
40
1
40
1
40
1
41
1
10
4.57492634454326
20
-25.0158782058119
30
0
41
1
10
4.56952624525059
20
-24.9998578081301
30
0
41
1
10
4.56415962014955
20
-24.9838140834546
30
0
41
1
10
4.54621498217102
20
-24.9297238862889
30
0
41
1
10
4.53380370334946
20
-24.8915612226656
30
0
41
1
10
4.50950235008833
20
-24.8148726863112
30
0
41
1
10
4.49758600539917
20
-24.7762548752334
30
0
41
1
10
4.47486695974965
20
-24.6998938543805
30
0
41
1
10
4.46400447487156
20
-24.6619722495656
30
0
41
1
10
4.44375040831733
20
-24.5871428687715
30
0
41
1
10
4.43452966639154
20
-24.5508749760056
30
0
41
1
10
4.41858765586483
20
-24.4815019593599
30
0
41
1
10
4.41181255157375
20
-24.4479884346824
30
0
41
1
10
4.4048649843113
20
-24.4038956965884
30
0
41
1
10
4.40306291206218
20
-24.3901505054674
30
0
41
1
10
4.400618286932
20
-24.3648094966553
30
0
41
1
10
4.39999999999998
20
-24.3533628078042
30
0
41
1
10
4.39999999999998
20
-24.3434505550364
30
0
0
SPLINE
5
3BB
100
AcDbEntity
8
1
62
256
6
ByLayer
370
18
48
1
60
0
100
AcDbSpline
70
4
71
3
72
20
73
16
40
0
40
0
40
0
40
0
40
0.0779515774464345
40
0.0779515774464345
40
0.155903154892869
40
0.155903154892869
40
0.311806309785719
40
0.311806309785719
40
0.467709464678569
40
0.467709464678569
40
0.623612619571419
40
0.623612619571419
40
0.935418929357126
40
0.935418929357126
40
1
40
1
40
1
40
1
41
1
10
9.60000000000002
20
-24.3434505550364
30
0
41
1
10
9.60000000000002
20
-24.3533373052426
30
0
41
1
10
9.5993962438979
20
-24.3645895673495
30
0
41
1
10
9.5969732969503
20
-24.3898430337291
30
0
41
1
10
9.59515146781956
20
-24.4037823870045
30
0
41
1
10
9.58819436182227
20
-24.447962274951
30
0
41
1
10
9.58143250105474
20
-24.4814148182803
30
0
41
1
10
9.56544668629755
20
-24.5509773056951
30
0
41
1
10
9.55622941406898
20
-24.5872146121
30
0
41
1
10
9.536053790452
20
-24.6617597845295
30
0
41
1
10
9.52514561007467
20
-24.6998439854079
30
0
41
1
10
9.4913012620201
20
-24.8136210481516
30
0
41
1
10
9.46698956244472
20
-24.8898852219405
30
0
41
1
10
9.43636254863577
20
-24.9822472845908
30
0
41
1
10
9.43107021691173
20
-24.998077406073
30
0
41
1
10
9.42574445586087
20
-25.0138869270222
30
0
0
SPLINE
5
3BC
100
AcDbEntity
8
1
62
256
6
ByLayer
370
18
48
1
60
0
100
AcDbSpline
70
4
71
3
72
8
73
4
40
0
40
0
40
0
40
0
40
1
40
1
40
1
40
1
41
1
10
9.18262500097086
20
-25.0144885139102
30
0
41
1
10
9.15329131370868
20
-24.9919363320074
30
0
41
1
10
9.1214752517219
20
-24.9701275385708
30
0
41
1
10
9.08681354433674
20
-24.9495053321515
30
0
0
SPLINE
5
3BD
100
AcDbEntity
8
1
62
256
6
ByLayer
370
18
48
1
60
0
100
AcDbSpline
70
4
71
3
72
18
73
14
40
0
40
0
40
0
40
0
40
0.125
40
0.125
40
0.250000000000001
40
0.250000000000001
40
0.375000000000001
40
0.375000000000001
40
0.500000000000001
40
0.500000000000001
40
0.750000000000001
40
0.750000000000001
40
1
40
1
40
1
40
1
41
1
10
9.08681354433628
20
-24.9495053321517
30
0
41
1
10
9.07232213682664
20
-24.9408835757665
30
0
41
1
10
9.05572285452621
20
-24.935803721827
30
0
41
1
10
9.01993322266577
20
-24.9288992415214
30
0
41
1
10
9.00071756134156
20
-24.9272162432055
30
0
41
1
10
8.9616488274628
20
-24.9257220362575
30
0
41
1
10
8.94158266703266
20
-24.9259002374567
30
0
41
1
10
8.90057350684441
20
-24.9271281980606
30
0
41
1
10
8.87955771798596
20
-24.9281933261669
30
0
41
1
10
8.81633554997546
20
-24.9317664781829
30
0
41
1
10
8.77368445724812
20
-24.9345977323783
30
0
41
1
10
8.6875022715252
20
-24.938617313809
30
0
41
1
10
8.64397030328837
20
-24.9398329248985
30
0
41
1
10
8.60000000000161
20
-24.9398329248986
30
0
0
SPLINE
5
3BE
100
AcDbEntity
8
1
62
256
6
ByLayer
370
18
48
1
60
0
100
AcDbSpline
70
4
71
3
72
28
73
24
40
0
40
0
40
0
40
0
40
0.0625000000000052
40
0.0625000000000052
40
0.12500000000001
40
0.12500000000001
40
0.250000000000011
40
0.250000000000011
40
0.312500000000009
40
0.312500000000009
40
0.375000000000007
40
0.375000000000007
40
0.500000000000007
40
0.500000000000007
40
0.625000000000007
40
0.625000000000007
40
0.687500000000007
40
0.687500000000007
40
0.750000000000007
40
0.750000000000007
40
0.875000000000004
40
0.875000000000004
40
1
40
1
40
1
40
1
41
1
10
4.39999999999998
20
43.8867901017881
30
0
41
1
10
4.39999999999998
20
43.9126528818624
30
0
41
1
10
4.40153568674322
20
43.9388244816698
30
0
41
1
10
4.40770819534418
20
43.990928410729
30
0
41
1
10
4.41231537994878
20
44.0167532234723
30
0
41
1
10
4.43060768874744
20
44.0935504355029
30
0
41
1
10
4.44872252628988
20
44.1438537164647
30
0
41
1
10
4.48514269179094
20
44.2178411375154
30
0
41
1
10
4.49890618666899
20
44.2423444284659
30
0
41
1
10
4.52901878578047
20
44.2897848527621
30
0
41
1
10
4.54541361411088
20
44.312840701096
30
0
41
1
10
4.59856859243769
20
44.3800115469438
30
0
41
1
10
4.63925965860443
20
44.4221510660589
30
0
41
1
10
4.73180985726782
20
44.5006549758394
30
0
41
1
10
4.78231382743519
20
44.5358283997805
30
0
41
1
10
4.86368606693162
20
44.5821143683971
30
0
41
1
10
4.89178202577045
20
44.5964812880758
30
0
41
1
10
4.9499702226924
20
44.6230163139726
30
0
41
1
10
4.98022734752618
20
44.6352320000636
30
0
41
1
10
5.07214290354045
20
44.6677146217544
30
0
41
1
10
5.13532090788584
20
44.6840978763652
30
0
41
1
10
5.26544829775531
20
44.7063161767229
30
0
41
1
10
5.33274918754921
20
44.7120806231808
30
0
41
1
10
5.39999999999998
20
44.7120806231808
30
0
0
SPLINE
5
3BF
100
AcDbEntity
8
1
62
256
6
ByLayer
370
18
48
1
60
0
100
AcDbSpline
70
4
71
3
72
28
73
24
40
0
40
0
40
0
40
0
40
0.124999999999996
40
0.124999999999996
40
0.187499999999992
40
0.187499999999992
40
0.249999999999988
40
0.249999999999988
40
0.37499999999998
40
0.37499999999998
40
0.43749999999998
40
0.43749999999998
40
0.499999999999981
40
0.499999999999981
40
0.624999999999986
40
0.624999999999986
40
0.749999999999991
40
0.749999999999991
40
0.812499999999996
40
0.812499999999996
40
0.875000000000001
40
0.875000000000001
40
1
40
1
40
1
40
1
41
1
10
8.60000000000002
20
44.7120806231806
30
0
41
1
10
8.66725549125567
20
44.7120806231806
30
0
41
1
10
8.7333367569932
20
44.7064464707992
30
0
41
1
10
8.83077179971377
20
44.6899247072457
30
0
41
1
10
8.86296680497838
20
44.6830622738523
30
0
41
1
10
8.92677639147342
20
44.6665710080063
30
0
41
1
10
8.95835568113358
20
44.6569297350918
30
0
41
1
10
9.05006692465679
20
44.6245396423131
30
0
41
1
10
9.10794681631609
20
44.5981818996855
30
0
41
1
10
9.18991599279042
20
44.5516578771533
30
0
41
1
10
9.216560677828
20
44.5348737587707
30
0
41
1
10
9.26723659267901
20
44.4995590380659
30
0
41
1
10
9.29132327708737
20
44.4810179696145
30
0
41
1
10
9.35994514321476
20
44.4228548672521
30
0
41
1
10
9.40092553079774
20
44.3806525385103
30
0
41
1
10
9.47282987975689
20
44.289785049487
30
0
41
1
10
9.50271510045616
20
44.242462887019
30
0
41
1
10
9.53895709179392
20
44.1689049028565
30
0
41
1
10
9.549596253316
20
44.1439528422498
30
0
41
1
10
9.56795658152345
20
44.0931856775916
30
0
41
1
10
9.57566520713772
20
44.0673413496343
30
0
41
1
10
9.59396953119801
20
43.9901081690797
30
0
41
1
10
9.60000000000002
20
43.9384988867117
30
0
41
1
10
9.60000000000002
20
43.8867901017879
30
0
0
SPLINE
5
3C0
100
AcDbEntity
8
1
62
256
6
ByLayer
370
18
48
1
60
0
100
AcDbSpline
70
4
71
3
72
28
73
24
40
0
40
0
40
0
40
0
40
0.0624999999999938
40
0.0624999999999938
40
0.124999999999987
40
0.124999999999987
40
0.249999999999975
40
0.249999999999975
40
0.312499999999975
40
0.312499999999975
40
0.374999999999974
40
0.374999999999974
40
0.499999999999973
40
0.499999999999973
40
0.624999999999972
40
0.624999999999972
40
0.687499999999975
40
0.687499999999975
40
0.749999999999979
40
0.749999999999979
40
0.874999999999989
40
0.874999999999989
40
1
40
1
40
1
40
1
41
1
10
4.39999999999998
20
-43.7145729135791
30
0
41
1
10
4.39999999999998
20
-43.7476599266197
30
0
41
1
10
4.40153568674322
20
-43.7810402206189
30
0
41
1
10
4.40770819534418
20
-43.8472932775114
30
0
41
1
10
4.41231537994878
20
-43.8800304631407
30
0
41
1
10
4.43060768874739
20
-43.9770994345105
30
0
41
1
10
4.44872252628988
20
-44.0402987496093
30
0
41
1
10
4.48514269179094
20
-44.1327474276799
30
0
41
1
10
4.49890618666899
20
-44.1632772703509
30
0
41
1
10
4.52901878578047
20
-44.2222309372845
30
0
41
1
10
4.54541361411088
20
-44.2508037206349
30
0
41
1
10
4.59856859243769
20
-44.333846603294
30
0
41
1
10
4.63925965860443
20
-44.3856675879978
30
0
41
1
10
4.73180985726782
20
-44.4818221627976
30
0
41
1
10
4.78231382743513
20
-44.5246984658315
30
0
41
1
10
4.86368606693162
20
-44.5809580527079
30
0
41
1
10
4.89178202577045
20
-44.5983894051882
30
0
41
1
10
4.9499702226924
20
-44.630541898367
30
0
41
1
10
4.98022734752613
20
-44.6453204031437
30
0
41
1
10
5.07214290354045
20
-44.6845768361588
30
0
41
1
10
5.13532090788584
20
-44.7043192194226
30
0
41
1
10
5.26544829775531
20
-44.7310764096694
30
0
41
1
10
5.33274918754921
20
-44.7380062048625
30
0
41
1
10
5.39999999999998
20
-44.7380062048625
30
0
0
SPLINE
5
3C1
100
AcDbEntity
8
1
62
256
6
ByLayer
370
18
48
1
60
0
100
AcDbSpline
70
4
71
3
72
66
73
62
40
0
40
0
40
0
40
0
40
0.0624999999999985
40
0.0624999999999985
40
0.124999999999997
40
0.124999999999997
40
0.187499999999996
40
0.187499999999996
40
0.249999999999994
40
0.249999999999994
40
0.312499999999993
40
0.312499999999993
40
0.374999999999991
40
0.374999999999991
40
0.406249999999989
40
0.406249999999989
40
0.421874999999988
40
0.421874999999988
40
0.437499999999988
40
0.437499999999988
40
0.453124999999987
40
0.453124999999987
40
0.460937499999986
40
0.460937499999986
40
0.468749999999986
40
0.468749999999986
40
0.484374999999985
40
0.484374999999985
40
0.492187499999985
40
0.492187499999985
40
0.499999999999985
40
0.499999999999985
40
0.507812499999984
40
0.507812499999984
40
0.515624999999984
40
0.515624999999984
40
0.523437499999984
40
0.523437499999984
40
0.531249999999984
40
0.531249999999984
40
0.546874999999984
40
0.546874999999984
40
0.562499999999984
40
0.562499999999984
40
0.593749999999985
40
0.593749999999985
40
0.624999999999986
40
0.624999999999986
40
0.687499999999988
40
0.687499999999988
40
0.749999999999991
40
0.749999999999991
40
0.781249999999992
40
0.781249999999992
40
0.812499999999993
40
0.812499999999993
40
0.874999999999995
40
0.874999999999995
40
0.937499999999998
40
0.937499999999998
40
1
40
1
40
1
40
1
41
1
10
5.5
20
-40.4498972903877
30
0
41
1
10
5.5
20
-40.626601267227
30
0
41
1
10
5.5082587081402
20
-40.8021432394529
30
0
41
1
10
5.53845920068022
20
-41.1513377175527
30
0
41
1
10
5.56041964828592
20
-41.3249873432127
30
0
41
1
10
5.61667983242103
20
-41.6705996635459
30
0
41
1
10
5.65097875774654
20
-41.8425625392823
30
0
41
1
10
5.73172954638437
20
-42.1848225984357
30
0
41
1
10
5.77818705814747
20
-42.355222382115
30
0
41
1
10
5.88444800476071
20
-42.6937351096607
30
0
41
1
10
5.94375131554324
20
-42.8604975192095
30
0
41
1
10
6.07798447386978
20
-43.1878110082579
30
0
41
1
10
6.15298478503342
20
-43.3489406246392
30
0
41
1
10
6.28214508765046
20
-43.5790129217999
30
0
41
1
10
6.32805749919316
20
-43.6538690986308
30
0
41
1
10
6.40331205127382
20
-43.7621128219402
30
0
41
1
10
6.4294740023073
20
-43.7975127563807
30
0
41
1
10
6.48460780652186
20
-43.8665462655643
30
0
41
1
10
6.5136926531494
20
-43.9003132422195
30
0
41
1
10
6.57517364937377
20
-43.9648038782923
30
0
41
1
10
6.60738327683379
20
-43.9953654611574
30
0
41
1
10
6.65874074376569
20
-44.0377350028381
30
0
41
1
10
6.67637121067037
20
-44.0512746910517
30
0
41
1
10
6.71287241008707
20
-44.0769411376072
30
0
41
1
10
6.73180455125873
20
-44.0890949405195
30
0
41
1
10
6.78983137230244
20
-44.1223587646227
30
0
41
1
10
6.83038028806794
20
-44.1405285549557
30
0
41
1
10
6.89511039911349
20
-44.1594032544689
30
0
41
1
10
6.91709834075994
20
-44.1641884191459
30
0
41
1
10
6.96119524274917
20
-44.1703774742153
30
0
41
1
10
6.98341416697036
20
-44.1718148685945
30
0
41
1
10
7.02820957005099
20
-44.1712143530838
30
0
41
1
10
7.05080962391935
20
-44.1691349862944
30
0
41
1
10
7.09483744443105
20
-44.1617404041134
30
0
41
1
10
7.11646576582422
20
-44.1564341746971
30
0
41
1
10
7.15902679182256
20
-44.1429178041691
30
0
41
1
10
7.18007774681456
20
-44.1346423495281
30
0
41
1
10
7.22063580604498
20
-44.1159161157671
30
0
41
1
10
7.24022882535911
20
-44.1054574380804
30
0
41
1
10
7.29731167501865
20
-44.0713695690062
30
0
41
1
10
7.33320549309917
20
-44.0449878298757
30
0
41
1
10
7.40140766469557
20
-43.9873211551889
30
0
41
1
10
7.43319719022844
20
-43.9564983129602
30
0
41
1
10
7.52375513730419
20
-43.8598702783756
30
0
41
1
10
7.57780787619515
20
-43.7899864808431
30
0
41
1
10
7.67845395313577
20
-43.6436893799071
30
0
41
1
10
7.72430450828637
20
-43.5681478677315
30
0
41
1
10
7.85248396428659
20
-43.3378077876289
30
0
41
1
10
7.92598865274772
20
-43.1788094129421
30
0
41
1
10
8.0585833421199
20
-42.8540848244975
30
0
41
1
10
8.11741143577552
20
-42.6882434263962
30
0
41
1
10
8.19663548832983
20
-42.4352039886709
30
0
41
1
10
8.22144784711196
20
-42.3503217136331
30
0
41
1
10
8.26784030606018
20
-42.1803885608056
30
0
41
1
10
8.28945989349427
20
-42.0952087636603
30
0
41
1
10
8.34975218800679
20
-41.8390566656127
30
0
41
1
10
8.38389443085561
20
-41.6674772244334
30
0
41
1
10
8.43988969088309
20
-41.3226752792058
30
0
41
1
10
8.46174187830087
20
-41.1494525934614
30
0
41
1
10
8.4917878817497
20
-40.8011610457647
30
0
41
1
10
8.5
20
-40.6260949621026
30
0
41
1
10
8.5
20
-40.4498972903877
30
0
0
SPLINE
5
3C2
100
AcDbEntity
8
1
62
256
6
ByLayer
370
18
48
1
60
0
100
AcDbSpline
70
4
71
3
72
28
73
24
40
0
40
0
40
0
40
0
40
0.124999999999995
40
0.124999999999995
40
0.187499999999994
40
0.187499999999994
40
0.249999999999993
40
0.249999999999993
40
0.374999999999996
40
0.374999999999996
40
0.437499999999998
40
0.437499999999998
40
0.5
40
0.5
40
0.624999999999997
40
0.624999999999997
40
0.749999999999995
40
0.749999999999995
40
0.812499999999993
40
0.812499999999993
40
0.874999999999991
40
0.874999999999991
40
1
40
1
40
1
40
1
41
1
10
8.60000000000002
20
-44.7380062048622
30
0
41
1
10
8.66725549125567
20
-44.7380062048623
30
0
41
1
10
8.7333367569932
20
-44.7312331054832
30
0
41
1
10
8.83077179971377
20
-44.7113364953461
30
0
41
1
10
8.86296680497838
20
-44.7030686388981
30
0
41
1
10
8.92677639147342
20
-44.6831794282207
30
0
41
1
10
8.95835568113358
20
-44.6715428381299
30
0
41
1
10
9.05006692465679
20
-44.6323984364326
30
0
41
1
10
9.10794681631609
20
-44.6004864653756
30
0
41
1
10
9.18991599279042
20
-44.5439394964822
30
0
41
1
10
9.216560677828
20
-44.5235073097775
30
0
41
1
10
9.26723659267896
20
-44.4804285016086
30
0
41
1
10
9.29132327708737
20
-44.4577696129115
30
0
41
1
10
9.35994514321476
20
-44.3865304189525
30
0
41
1
10
9.40092553079774
20
-44.3346391078887
30
0
41
1
10
9.47282987975689
20
-44.2223001166611
30
0
41
1
10
9.50271510045616
20
-44.1635116288016
30
0
41
1
10
9.53895709179392
20
-44.0716012448605
30
0
41
1
10
9.549596253316
20
-44.0403387020435
30
0
41
1
10
9.56795658152345
20
-43.9765441129569
30
0
41
1
10
9.57566520713772
20
-43.9439739358526
30
0
41
1
10
9.59396953119801
20
-43.8463482438673
30
0
41
1
10
9.60000000000002
20
-43.780725478623
30
0
41
1
10
9.60000000000002
20
-43.7145729135789
30
0
0
SPLINE
5
3C3
100
AcDbEntity
8
1
62
256
6
ByLayer
370
18
48
1
60
0
100
AcDbSpline
70
4
71
3
72
14
73
10
40
0
40
0
40
0
40
0
40
0.25
40
0.25
40
0.5
40
0.5
40
0.75
40
0.75
40
1
40
1
40
1
40
1
41
1
10
5.5
20
-36.3200383485073
30
0
41
1
10
5.5
20
-36.3048663290326
30
0
41
1
10
5.50182010896623
20
-36.2899908495975
30
0
41
1
10
5.50926006914506
20
-36.2608556189026
30
0
41
1
10
5.51497834915585
20
-36.2464519595471
30
0
41
1
10
5.53087866115089
20
-36.2202283345116
30
0
41
1
10
5.54121190548778
20
-36.2080947695501
30
0
41
1
10
5.56740080768293
20
-36.1897205746084
30
0
41
1
10
5.58337299040937
20
-36.1838101656001
30
0
41
1
10
5.59999999999758
20
-36.1838101655995
30
0
0
SPLINE
5
3C4
100
AcDbEntity
8
1
62
256
6
ByLayer
370
18
48
1
60
0
100
AcDbSpline
70
4
71
3
72
14
73
10
40
0
40
0
40
0
40
0
40
0.25
40
0.25
40
0.5
40
0.5
40
0.75
40
0.75
40
1
40
1
40
1
40
1
41
1
10
8.39999999999998
20
-36.1838101656073
30
0
41
1
10
8.41662344397258
20
-36.1838101656073
30
0
41
1
10
8.4324385424768
20
-36.1896388397994
30
0
41
1
10
8.458706234766
20
-36.2080066438432
30
0
41
1
10
8.4690176152871
20
-36.2200867862282
30
0
41
1
10
8.48498506447737
20
-36.246362359786
30
0
41
1
10
8.49062424718204
20
-36.2604843977104
30
0
41
1
10
8.49818287385875
20
-36.289921942629
30
0
41
1
10
8.5
20
-36.3048721706488
30
0
41
1
10
8.5
20
-36.3200383485073
30
0
0
SPLINE
5
3C5
100
AcDbEntity
8
1
62
256
6
ByLayer
370
18
48
1
60
0
100
AcDbSpline
70
4
71
3
72
16
73
12
40
0
40
0
40
0
40
0
40
0.249999999999999
40
0.249999999999999
40
0.499999999999998
40
0.499999999999998
40
0.749999999999998
40
0.749999999999998
40
0.874999999999999
40
0.874999999999999
40
1
40
1
40
1
40
1
41
1
10
5.39999999999998
20
-46.9739872194904
30
0
41
1
10
5.35599426450176
20
-46.9739872194904
30
0
41
1
10
5.3124841048508
20
-46.9712574945915
30
0
41
1
10
5.22645817337985
20
-46.9607821623051
30
0
41
1
10
5.18394150524671
20
-46.9530268441016
30
0
41
1
10
5.10004839073468
20
-46.9332029682295
30
0
41
1
10
5.05825061988406
20
-46.9209109674965
30
0
41
1
10
4.99939719811505
20
-46.9015238977513
30
0
41
1
10
4.98017559623065
20
-46.8948376542364
30
0
41
1
10
4.94430792763211
20
-46.8823622781925
30
0
41
1
10
4.92768467310941
20
-46.8765460428041
30
0
41
1
10
4.9131864556623
20
-46.8722907391661
30
0
0
SPLINE
5
3C6
100
AcDbEntity
8
1
62
256
6
ByLayer
370
18
48
1
60
0
100
AcDbSpline
70
4
71
3
72
10
73
6
40
0
40
0
40
0
40
0
40
0.5
40
0.5
40
1
40
1
40
1
40
1
41
1
10
4.91318645566281
20
-46.8722907391663
30
0
41
1
10
4.85212172631094
20
-46.8543679175561
30
0
41
1
10
4.80084395555662
20
-46.83499798013
30
0
41
1
10
4.71027790979605
20
-46.794485318691
30
0
41
1
10
4.67106421286968
20
-46.7732526076715
30
0
41
1
10
4.63667098539258
20
-46.7514936264316
30
0
0
SPLINE
5
3C7
100
AcDbEntity
8
1
62
256
6
ByLayer
370
18
48
1
60
0
100
AcDbSpline
70
4
71
3
72
24
73
20
40
0
40
0
40
0
40
0
40
0.0625000000000005
40
0.0625000000000005
40
0.125000000000001
40
0.125000000000001
40
0.250000000000002
40
0.250000000000002
40
0.312499999999993
40
0.312499999999993
40
0.374999999999983
40
0.374999999999983
40
0.499999999999983
40
0.499999999999983
40
0.624999999999982
40
0.624999999999982
40
0.749999999999982
40
0.749999999999982
40
1
40
1
40
1
40
1
41
1
10
4.39999999999998
20
-45.9806681910795
30
0
41
1
10
4.39999999999998
20
-46.0002865491771
30
0
41
1
10
4.40062053016976
20
-46.0201052583749
30
0
41
1
10
4.40303747823765
20
-46.0601223366353
30
0
41
1
10
4.40484740437364
20
-46.0804324344289
30
0
41
1
10
4.41188050932828
20
-46.1411599773735
30
0
41
1
10
4.41851679975593
20
-46.1802442020343
30
0
41
1
10
4.43057352467002
20
-46.2373584395036
30
0
41
1
10
4.43495873136624
20
-46.2561624849155
30
0
41
1
10
4.44415010461233
20
-46.2925702595659
30
0
41
1
10
4.44897840591949
20
-46.3102847845184
30
0
41
1
10
4.46404087202757
20
-46.3622133148353
30
0
41
1
10
4.47484646078095
20
-46.3952251889488
30
0
41
1
10
4.4975880551163
20
-46.4588708265098
30
0
41
1
10
4.50947492084134
20
-46.4893316487571
30
0
41
1
10
4.53369283822991
20
-46.5473877605903
30
0
41
1
10
4.54608084963814
20
-46.5751308586342
30
0
41
1
10
4.58390146261388
20
-46.6553367955538
30
0
41
1
10
4.60998154052027
20
-46.7048181912199
30
0
41
1
10
4.63667098539247
20
-46.7514936264314
30
0
0
SPLINE
5
3C8
100
AcDbEntity
8
1
62
256
6
ByLayer
370
18
48
1
60
0
100
AcDbSpline
70
4
71
3
72
22
73
18
40
0
40
0
40
0
40
0
40
0.125000000000004
40
0.125000000000004
40
0.250000000000008
40
0.250000000000008
40
0.500000000000013
40
0.500000000000013
40
0.625000000000004
40
0.625000000000004
40
0.749999999999996
40
0.749999999999996
40
0.874999999999988
40
0.874999999999988
40
0.937499999999994
40
0.937499999999994
40
1
40
1
40
1
40
1
41
1
10
9.36332901460764
20
-46.7514936264312
30
0
41
1
10
9.37662750546627
20
-46.7282367602261
30
0
41
1
10
9.38981593891128
20
-46.70419359643
30
0
41
1
10
9.41592968703651
20
-46.6542274349927
30
0
41
1
10
9.42888558225604
20
-46.6282405459804
30
0
41
1
10
9.46697467867062
20
-46.547401087865
30
0
41
1
10
9.49141361459829
20
-46.4897692736019
30
0
41
1
10
9.52550658506641
20
-46.3941767137812
30
0
41
1
10
9.53628631928126
20
-46.3611649170231
30
0
41
1
10
9.55628125373096
20
-46.292069978966
30
0
41
1
10
9.56553587939095
20
-46.2558737881565
30
0
41
1
10
9.58161906835238
20
-46.1795140683771
30
0
41
1
10
9.58822682203788
20
-46.1404166594406
30
0
41
1
10
9.59520422175802
20
-46.0798928615049
30
0
41
1
10
9.5970029165623
20
-46.0595902335207
30
0
41
1
10
9.59939155634675
20
-46.0197654095922
30
0
41
1
10
9.60000000000002
20
-46.0000924581666
30
0
41
1
10
9.60000000000002
20
-45.9806681910795
30
0
0
SPLINE
5
3C9
100
AcDbEntity
8
1
62
256
6
ByLayer
370
18
48
1
60
0
100
AcDbSpline
70
4
71
3
72
10
73
6
40
0
40
0
40
0
40
0
40
0.5
40
0.5
40
1
40
1
40
1
40
1
41
1
10
9.36332901460725
20
-46.7514936264316
30
0
41
1
10
9.32924810113184
20
-46.773055021257
30
0
41
1
10
9.29049816236113
20
-46.7940967552488
30
0
41
1
10
9.1998705165218
20
-46.8347191073494
30
0
41
1
10
9.14773783326535
20
-46.8544091375649
30
0
41
1
10
9.08681354433662
20
-46.8722907391667
30
0
0
SPLINE
5
3CA
100
AcDbEntity
8
1
62
256
6
ByLayer
370
18
48
1
60
0
100
AcDbSpline
70
4
71
3
72
18
73
14
40
0
40
0
40
0
40
0
40
0.125
40
0.125
40
0.25
40
0.25
40
0.375
40
0.375
40
0.5
40
0.5
40
0.75
40
0.75
40
1
40
1
40
1
40
1
41
1
10
9.08681354433622
20
-46.8722907391666
30
0
41
1
10
9.07232169914096
20
-46.876544172515
30
0
41
1
10
9.05572228549875
20
-46.8823518437221
30
0
41
1
10
9.01993304877448
20
-46.8947997918061
30
0
41
1
10
9.00071730573455
20
-46.9014839693525
30
0
41
1
10
8.96164862765386
20
-46.9143580879683
30
0
41
1
10
8.94158263124802
20
-46.920636368286
30
0
41
1
10
8.90057402524269
20
-46.932454948549
30
0
41
1
10
8.87955839118467
20
-46.9380130855156
30
0
41
1
10
8.81633574637169
20
-46.9529786012324
30
0
41
1
10
8.77368446318121
20
-46.9607622288733
30
0
41
1
10
8.68750211195157
20
-46.9712617337856
30
0
41
1
10
8.64397016875705
20
-46.9739872195001
30
0
41
1
10
8.60000000000161
20
-46.9739872195002
30
0
0
SPLINE
5
3CB
100
AcDbEntity
8
1
62
256
6
ByLayer
370
18
48
1
60
0
100
AcDbSpline
70
4
71
3
72
24
73
20
40
0
40
0
40
0
40
0
40
0.125000000000002
40
0.125000000000002
40
0.187500000000001
40
0.187500000000001
40
0.249999999999999
40
0.249999999999999
40
0.374999999999999
40
0.374999999999999
40
0.499999999999999
40
0.499999999999999
40
0.624999999999999
40
0.624999999999999
40
0.75
40
0.75
40
0.875
40
0.875
40
1
40
1
40
1
40
1
41
1
10
4.48212216529771
20
36.4503801875615
30
0
41
1
10
4.4502933470763
20
36.4484633535802
30
0
41
1
10
4.41899535045229
20
36.4443066588649
30
0
41
1
10
4.37282076187455
20
36.4348123623204
30
0
41
1
10
4.35755887848632
20
36.4311005405231
30
0
41
1
10
4.32730155564804
20
36.4225526071068
30
0
41
1
10
4.31227210736989
20
36.4176968409381
30
0
41
1
10
4.26859055625908
20
36.4017492247263
30
0
41
1
10
4.24099928744334
20
36.3892096720625
30
0
41
1
10
4.18885558733615
20
36.3603407564379
30
0
41
1
10
4.1642361786744
20
36.3438840903167
30
0
41
1
10
4.12023205471394
20
36.3085528448732
30
0
41
1
10
4.10053950706134
20
36.2895373850862
30
0
41
1
10
4.06585669728844
20
36.2487581304067
30
0
41
1
10
4.05125109770808
20
36.2273974588698
30
0
41
1
10
4.0277875248172
20
36.1835773532929
30
0
41
1
10
4.01878870822281
20
36.1608258711496
30
0
41
1
10
4.00679050430125
20
36.1147612094268
30
0
41
1
10
4.00379564036314
20
36.0916602726217
30
0
41
1
10
4.00379415970741
20
36.068490977756
30
0
0
SPLINE
5
3CC
100
AcDbEntity
8
1
62
256
6
ByLayer
370
18
48
1
60
0
100
AcDbSpline
70
4
71
3
72
18
73
14
40
0
40
0
40
0
40
0
40
0.113902790334942
40
0.113902790334942
40
0.261585658612453
40
0.261585658612453
40
0.409268526889964
40
0.409268526889964
40
0.556951395167474
40
0.556951395167474
40
0.704634263444985
40
0.704634263444985
40
1
40
1
40
1
40
1
41
1
10
4.3269434049862
20
37.9273874419109
30
0
41
1
10
4.33077791122878
20
37.9401726383256
30
0
41
1
10
4.33569709668063
20
37.9528321158994
30
0
41
1
10
4.34928516136443
20
37.9809843828341
30
0
41
1
10
4.35854673128142
20
37.9961227668918
30
0
41
1
10
4.38018941894421
20
38.0249174659111
30
0
41
1
10
4.39270472113196
20
38.0386618494276
30
0
41
1
10
4.41993824488475
20
38.0635650216426
30
0
41
1
10
4.43472500437349
20
38.0748580110712
30
0
41
1
10
4.46666275535
20
38.0951027959698
30
0
41
1
10
4.48376897202212
20
38.1039778715073
30
0
41
1
10
4.53654250420891
20
38.1259481236866
30
0
41
1
10
4.57485742029206
20
38.1349099920561
30
0
41
1
10
4.61362510245169
20
38.1372447067798
30
0
0
SPLINE
5
3CD
100
AcDbEntity
8
1
62
256
6
ByLayer
370
18
48
1
60
0
100
AcDbSpline
70
4
71
3
72
24
73
20
40
0
40
0
40
0
40
0
40
0.124999999999995
40
0.124999999999995
40
0.249999999999991
40
0.249999999999991
40
0.374999999999986
40
0.374999999999986
40
0.499999999999982
40
0.499999999999982
40
0.624999999999977
40
0.624999999999977
40
0.687499999999978
40
0.687499999999978
40
0.749999999999979
40
0.749999999999979
40
0.874999999999989
40
0.874999999999989
40
1
40
1
40
1
40
1
41
1
10
9.0942022306109
20
36.3750517545449
30
0
41
1
10
9.09420074968631
20
36.3982250784699
30
0
41
1
10
9.09120484641539
20
36.4208469509908
30
0
41
1
10
9.07939012185432
20
36.4650183502001
30
0
41
1
10
9.07044515129076
20
36.4867742731894
30
0
41
1
10
9.04686774763962
20
36.5280884667883
30
0
41
1
10
9.03240169710466
20
36.5474908150469
30
0
41
1
10
8.99814074626943
20
36.5837981280727
30
0
41
1
10
8.97808473006455
20
36.600840308728
30
0
41
1
10
8.93404907766234
20
36.6309527669492
30
0
41
1
10
8.9100001132519
20
36.6441803482437
30
0
41
1
10
8.87083144711744
20
36.6612350725866
30
0
41
1
10
8.85718096196729
20
36.666472916094
30
0
41
1
10
8.82937721687972
20
36.6757847558833
30
0
41
1
10
8.81518514479836
20
36.6798829710342
30
0
41
1
10
8.77175840721299
20
36.6905430867108
30
0
41
1
10
8.74163570572671
20
36.6954899888287
30
0
41
1
10
8.67923668206601
20
36.7008704556557
30
0
41
1
10
8.64771498882897
20
36.7012456083489
30
0
41
1
10
8.61587422800847
20
36.6993280551459
30
0
0
SPLINE
5
3CE
100
AcDbEntity
8
1
62
256
6
ByLayer
370
13
48
1
60
0
100
AcDbSpline
70
4
71
3
72
8
73
4
40
0
40
0
40
0
40
0
40
1
40
1
40
1
40
1
41
1
10
4.61362510245169
20
38.1372447067798
30
0
41
1
10
4.56979079006703
20
37.5749565337071
30
0
41
1
10
4.52595647768237
20
37.0126683606342
30
0
41
1
10
4.48212216529771
20
36.4503801875615
30
0
0
SPLINE
5
3CF
100
AcDbEntity
8
1
62
256
6
ByLayer
370
13
48
1
60
0
100
AcDbSpline
70
4
71
3
72
8
73
4
40
0
40
0
40
0
40
0
40
1
40
1
40
1
40
1
41
1
10
8.61587422800847
20
36.6993280551459
30
0
41
1
10
8.37560595469267
20
37.2445066551692
30
0
41
1
10
8.13533768137694
20
37.7896852551925
30
0
41
1
10
7.8950694080612
20
38.3348638552158
30
0
0
SPLINE
5
3D0
100
AcDbEntity
8
1
62
256
6
ByLayer
370
18
48
1
60
0
100
AcDbSpline
70
4
71
3
72
24
73
20
40
0
40
0
40
0
40
0
40
0.124999999999982
40
0.124999999999982
40
0.187499999999978
40
0.187499999999978
40
0.249999999999974
40
0.249999999999974
40
0.374999999999979
40
0.374999999999979
40
0.499999999999983
40
0.499999999999983
40
0.624999999999987
40
0.624999999999987
40
0.749999999999991
40
0.749999999999991
40
0.874999999999996
40
0.874999999999996
40
1
40
1
40
1
40
1
41
1
10
8.83017110309578
20
28.3570060080169
30
0
41
1
10
8.86199992131719
20
28.3589228419982
30
0
41
1
10
8.89316143469222
20
28.3638490098912
30
0
41
1
10
8.93893269960216
20
28.3756171880041
30
0
41
1
10
8.95402680754376
20
28.3802749039458
30
0
41
1
10
8.9838800722265
20
28.3911008598683
30
0
41
1
10
8.99867218006483
20
28.3972947177349
30
0
41
1
10
9.04155369558504
20
28.4177528210041
30
0
41
1
10
9.06849145841659
20
28.4339767476114
30
0
41
1
10
9.11908947395091
20
28.4715600133758
30
0
41
1
10
9.1428092984338
20
28.4930884073596
30
0
41
1
10
9.18485005546057
20
28.5394888367836
30
0
41
1
10
9.20347147050455
20
28.5645431901211
30
0
41
1
10
9.235829892178
20
28.6184270148496
30
0
41
1
10
9.24920506275578
20
28.6467246703865
30
0
41
1
10
9.27012097308523
20
28.7049081357251
30
0
41
1
10
9.27778552049608
20
28.7351820380637
30
0
41
1
10
9.28705973540144
20
28.7966041630626
30
0
41
1
10
9.28867761392036
20
28.8274683481338
30
0
41
1
10
9.28728717241006
20
28.8584851025231
30
0
0
SPLINE
5
3D1
100
AcDbEntity
8
1
62
256
6
ByLayer
370
18
48
1
60
0
100
AcDbSpline
70
4
71
3
72
10
73
6
40
0
40
0
40
0
40
0
40
0.328883656849316
40
0.328883656849316
40
1
40
1
40
1
40
1
41
1
10
4.0237390522804
20
34.0157560102664
30
0
41
1
10
4.01938977341479
20
34.0057601425617
30
0
41
1
10
4.01572949382523
20
33.9955545620236
30
0
41
1
10
4.00679050430125
20
33.9640647853573
30
0
41
1
10
4.00379564036314
20
33.9425040306157
30
0
41
1
10
4.00379415970741
20
33.9205173693368
30
0
0
SPLINE
5
3D2
100
AcDbEntity
8
1
62
256
6
ByLayer
370
13
48
1
60
0
100
AcDbSpline
70
4
71
3
72
8
73
4
40
0
40
0
40
0
40
0
40
1
40
1
40
1
40
1
41
1
10
8.61587422800847
20
-33.9628884107145
30
0
41
1
10
8.37560595469267
20
-32.9497272270353
30
0
41
1
10
8.13533768137694
20
-31.936566043356
30
0
41
1
10
7.8950694080612
20
-30.9234048596769
30
0
0
SPLINE
5
3D3
100
AcDbEntity
8
1
62
256
6
ByLayer
370
13
48
1
60
0
100
AcDbSpline
70
4
71
3
72
8
73
4
40
0
40
0
40
0
40
0
40
1
40
1
40
1
40
1
41
1
10
8.21664069863806
20
-30.803645581721
30
0
41
1
10
8.50916120929566
20
-31.734920294458
30
0
41
1
10
8.80168171995331
20
-32.666195007195
30
0
41
1
10
9.0942022306109
20
-33.5974697199321
30
0
0
SPLINE
5
3D4
100
AcDbEntity
8
1
62
256
6
ByLayer
370
18
48
1
60
0
100
AcDbSpline
70
4
71
3
72
20
73
16
40
0
40
0
40
0
40
0
40
0.152468264431261
40
0.152468264431261
40
0.304936528862522
40
0.304936528862522
40
0.457404793293783
40
0.457404793293783
40
0.609873057725044
40
0.609873057725044
40
0.762341322156305
40
0.762341322156305
40
0.914809586587566
40
0.914809586587566
40
1
40
1
40
1
40
1
41
1
10
7.8950694080612
20
-30.9234048596769
30
0
41
1
10
7.91445669557584
20
-30.922174502972
30
0
41
1
10
7.93357124998568
20
-30.9200783959827
30
0
41
1
10
7.97127995312366
20
-30.914234232327
30
0
41
1
10
7.99004745179809
20
-30.9104396238806
30
0
41
1
10
8.02615893382705
20
-30.9013217676758
30
0
41
1
10
8.04336807862302
20
-30.8960530224374
30
0
41
1
10
8.07612378976091
20
-30.8841215655677
30
0
41
1
10
8.09179699682886
20
-30.8773807643913
30
0
41
1
10
8.12026064823874
20
-30.8629693698633
30
0
41
1
10
8.13317441793436
20
-30.8552732056685
30
0
41
1
10
8.15634011060587
20
-30.8388903671778
30
0
41
1
10
8.16655563602905
20
-30.8301873046823
30
0
41
1
10
8.17968085945608
20
-30.8164125444017
30
0
41
1
10
8.18387759986052
20
-30.8113832807622
30
0
41
1
10
8.18754201068202
20
-30.8062912747833
30
0
0
SPLINE
5
3D5
100
AcDbEntity
8
1
62
256
6
ByLayer
370
13
48
1
60
0
100
AcDbSpline
70
4
71
3
72
8
73
4
40
0
40
0
40
0
40
0
40
1
40
1
40
1
40
1
41
1
10
4.61362510245169
20
-31.1316519906736
30
0
41
1
10
4.56979079006703
20
-32.1628429023844
30
0
41
1
10
4.52595647768237
20
-33.1940338140952
30
0
41
1
10
4.48212216529771
20
-34.225224725806
30
0
0
SPLINE
5
3D6
100
AcDbEntity
8
1
62
256
6
ByLayer
370
13
48
1
60
0
100
AcDbSpline
70
4
71
3
72
8
73
4
40
0
40
0
40
0
40
0
40
1
40
1
40
1
40
1
41
1
10
4.00379415970741
20
-33.9205173693369
30
0
41
1
10
4.10815233557634
20
-32.9513015271558
30
0
41
1
10
4.2125105114452
20
-31.9820856849747
30
0
41
1
10
4.31686868731407
20
-31.0128698427936
30
0
0
SPLINE
5
3D7
100
AcDbEntity
8
1
62
256
6
ByLayer
370
18
48
1
60
0
100
AcDbSpline
70
4
71
3
72
20
73
16
40
0
40
0
40
0
40
0
40
0.124999999999999
40
0.124999999999999
40
0.249999999999999
40
0.249999999999999
40
0.374999999999998
40
0.374999999999998
40
0.499999999999997
40
0.499999999999997
40
0.624999999999997
40
0.624999999999997
40
0.749999999999996
40
0.749999999999996
40
1
40
1
40
1
40
1
41
1
10
4.31686868731407
20
-31.0128698427937
30
0
41
1
10
4.31734607762911
20
-31.0221014984602
30
0
41
1
10
4.31969269831291
20
-31.0310193161909
30
0
41
1
10
4.32794788481243
20
-31.0482569121951
30
0
41
1
10
4.33394239083577
20
-31.0566562047038
30
0
41
1
10
4.34928516136443
20
-31.0724020328972
30
0
41
1
10
4.35854673128142
20
-31.0797128921775
30
0
41
1
10
4.38018941894421
20
-31.0932319986108
30
0
41
1
10
4.39270472113191
20
-31.0994750610079
30
0
41
1
10
4.41993824488475
20
-31.1103488468445
30
0
41
1
10
4.43472500437349
20
-31.1150456839804
30
0
41
1
10
4.46666275535
20
-31.122943916259
30
0
41
1
10
4.48376897202212
20
-31.1261080529071
30
0
41
1
10
4.53654250420891
20
-31.132938975237
30
0
41
1
10
4.57485742029206
20
-31.1341122666477
30
0
41
1
10
4.61362510245169
20
-31.1316519906736
30
0
0
SPLINE
5
3D8
100
AcDbEntity
8
1
62
256
6
ByLayer
370
18
48
1
60
0
100
AcDbSpline
70
4
71
3
72
24
73
20
40
0
40
0
40
0
40
0
40
0.124999999999994
40
0.124999999999994
40
0.249999999999988
40
0.249999999999988
40
0.374999999999981
40
0.374999999999981
40
0.499999999999975
40
0.499999999999975
40
0.624999999999969
40
0.624999999999969
40
0.687499999999969
40
0.687499999999969
40
0.749999999999969
40
0.749999999999969
40
0.874999999999985
40
0.874999999999985
40
1
40
1
40
1
40
1
41
1
10
9.0942022306109
20
-33.5974697199321
30
0
41
1
10
9.09420074968631
20
-33.6194605618468
30
0
41
1
10
9.09120484641539
20
-33.6412892584032
30
0
41
1
10
9.07939012185432
20
-33.6846313455773
30
0
41
1
10
9.0704451512907
20
-33.7063558140544
30
0
41
1
10
9.04686774763962
20
-33.748405231512
30
0
41
1
10
9.03240169710466
20
-33.7685621480163
30
0
41
1
10
8.99814074626948
20
-33.8071487744132
30
0
41
1
10
8.97808473006455
20
-33.8257401909647
30
0
41
1
10
8.93404907766234
20
-33.8596270633997
30
0
41
1
10
8.9100001132519
20
-33.875080156744
30
0
41
1
10
8.87083144711744
20
-33.8959886867349
30
0
41
1
10
8.85718096196729
20
-33.9026056233667
30
0
41
1
10
8.82937721687972
20
-33.9147956873932
30
0
41
1
10
8.81518514479836
20
-33.920396478837
30
0
41
1
10
8.77175840721293
20
-33.9357503251833
30
0
41
1
10
8.74163570572671
20
-33.9440779113846
30
0
41
1
10
8.67923668206601
20
-33.9567098384435
30
0
41
1
10
8.64771498882897
20
-33.9608677312599
30
0
41
1
10
8.61587422800847
20
-33.9628884107145
30
0
0
SPLINE
5
3D9
100
AcDbEntity
8
1
62
256
6
ByLayer
370
18
48
1
60
0
100
AcDbSpline
70
4
71
3
72
24
73
20
40
0
40
0
40
0
40
0
40
0.125000000000002
40
0.125000000000002
40
0.187500000000001
40
0.187500000000001
40
0.249999999999999
40
0.249999999999999
40
0.375
40
0.375
40
0.5
40
0.5
40
0.625
40
0.625
40
0.75
40
0.75
40
0.875
40
0.875
40
1
40
1
40
1
40
1
41
1
10
4.48212216529771
20
-34.225224725806
30
0
41
1
10
4.4502933470763
20
-34.2272446473589
30
0
41
1
10
4.41899535045229
20
-34.227074997127
30
0
41
1
10
4.37282076187455
20
-34.2236344434962
30
0
41
1
10
4.35755887848632
20
-34.2219528184104
30
0
41
1
10
4.32730155564804
20
-34.2174905207718
30
0
41
1
10
4.31227210736989
20
-34.2146952986103
30
0
41
1
10
4.26859055625908
20
-34.2048300836958
30
0
41
1
10
4.24099928744334
20
-34.1962583234186
30
0
41
1
10
4.18885558733615
20
-34.1751518877025
30
0
41
1
10
4.1642361786744
20
-34.1625044843324
30
0
41
1
10
4.12023205471394
20
-34.1342837981749
30
0
41
1
10
4.10053950706128
20
-34.1186139530135
30
0
41
1
10
4.06585669728844
20
-34.084099039228
30
0
41
1
10
4.05125109770808
20
-34.0655901255669
30
0
41
1
10
4.0277875248172
20
-34.0268363803688
30
0
41
1
10
4.01878870822281
20
-34.0063313928832
30
0
41
1
10
4.00679050430125
20
-33.9640647853574
30
0
41
1
10
4.00379564036314
20
-33.9425040306158
30
0
41
1
10
4.00379415970741
20
-33.9205173693369
30
0
0
SPLINE
5
3DA
100
AcDbEntity
8
1
62
256
6
ByLayer
370
18
48
1
60
0
100
AcDbSpline
70
4
71
3
72
16
73
12
40
0
40
0
40
0
40
0
40
0.104509254683346
40
0.104509254683346
40
0.328381941012509
40
0.328381941012509
40
0.552254627341673
40
0.552254627341673
40
0.776127313670836
40
0.776127313670836
40
1
40
1
40
1
40
1
41
1
10
9.62595908485815
20
40.9630583801937
30
0
41
1
10
9.63767039779435
20
40.9712622746118
30
0
41
1
10
9.64895226732767
20
40.9799040837762
30
0
41
1
10
9.6826653882332
20
41.0081536991688
30
0
41
1
10
9.70342906849447
20
41.0291576938032
30
0
41
1
10
9.74043626636671
20
41.0747185197542
30
0
41
1
10
9.75627229494967
20
41.0988278233071
30
0
41
1
10
9.78228353040197
20
41.1487317755369
30
0
41
1
10
9.79261661617994
20
41.1748600835291
30
0
41
1
10
9.80733880911771
20
41.2281879647941
30
0
41
1
10
9.81171065847502
20
41.2551383529251
30
0
41
1
10
9.81310406129671
20
41.282374153579
30
0
0
SPLINE
5
3DB
100
AcDbEntity
8
1
62
256
6
ByLayer
370
18
48
1
60
0
100
AcDbSpline
70
4
71
3
72
24
73
20
40
0
40
0
40
0
40
0
40
0.125
40
0.125
40
0.25
40
0.25
40
0.375
40
0.375
40
0.5
40
0.5
40
0.625
40
0.625
40
0.6875
40
0.6875
40
0.75
40
0.75
40
0.875
40
0.875
40
1
40
1
40
1
40
1
41
1
10
10.0061890030955
20
49.4897591975809
30
0
41
1
10
10.0061875221709
20
49.5216950787297
30
0
41
1
10
10.0031916188998
20
49.553112655199
30
0
41
1
10
9.99137689433877
20
49.6149399190272
30
0
41
1
10
9.98243192377532
20
49.645644227385
30
0
41
1
10
9.95885452012425
20
49.7044832087773
30
0
41
1
10
9.94438846958928
20
49.7323895732505
30
0
41
1
10
9.91012751875405
20
49.785190657771
30
0
41
1
10
9.89007150254912
20
49.81029555197
30
0
41
1
10
9.84603585014696
20
49.8553482129795
30
0
41
1
10
9.82198688573652
20
49.8755183592917
30
0
41
1
10
9.78281821960201
20
49.902183026788
30
0
41
1
10
9.76916773445191
20
49.9105030979078
30
0
41
1
10
9.74136398936434
20
49.9255798883965
30
0
41
1
10
9.72717191728293
20
49.9323731167545
30
0
41
1
10
9.6837451796975
20
49.9505688550742
30
0
41
1
10
9.65362247821128
20
49.9598173625897
30
0
41
1
10
9.59122345455063
20
49.9722682376832
30
0
41
1
10
9.55970176131353
20
49.9753292038073
30
0
41
1
10
9.52786100049309
20
49.9752562825356
30
0
0
SPLINE
5
3DC
100
AcDbEntity
8
1
62
256
6
ByLayer
370
13
48
1
60
0
100
AcDbSpline
70
4
71
3
72
8
73
4
40
0
40
0
40
0
40
0
40
1
40
1
40
1
40
1
41
1
10
4.26539189961983
20
-28.8672111666368
30
0
41
1
10
4.24255430029302
20
-28.7621155527427
30
0
41
1
10
4.21971670096622
20
-28.6570199388487
30
0
41
1
10
4.19687910163941
20
-28.5519243249547
30
0
0
SPLINE
5
3DD
100
AcDbEntity
8
1
62
256
6
ByLayer
370
18
48
1
60
0
100
AcDbSpline
70
4
71
3
72
14
73
10
40
0
40
0
40
0
40
0
40
0.323735709733548
40
0.323735709733548
40
0.647471419467096
40
0.647471419467096
40
0.971207129200645
40
0.971207129200645
40
1
40
1
40
1
40
1
41
1
10
4.31686868731407
20
-37.8653398713649
30
0
41
1
10
4.31734607762911
20
-37.882465920413
30
0
41
1
10
4.31969269831291
20
-37.8993441833185
30
0
41
1
10
4.32794788481243
20
-37.9326285358421
30
0
41
1
10
4.33394239083577
20
-37.9491966498865
30
0
41
1
10
4.34928516136443
20
-37.980984382834
30
0
41
1
10
4.35854673128142
20
-37.9961227668917
30
0
41
1
10
4.37033051930865
20
-38.0118006085183
30
0
41
1
10
4.37130636309269
20
-38.0130759355287
30
0
41
1
10
4.37229518962391
20
-38.0143456472914
30
0
0
SPLINE
5
3DE
100
AcDbEntity
8
1
62
256
6
ByLayer
370
13
48
1
60
0
100
AcDbSpline
70
4
71
3
72
8
73
4
40
0
40
0
40
0
40
0
40
1
40
1
40
1
40
1
41
1
10
4.00379415970741
20
-36.0684909777559
30
0
41
1
10
4.10815233557634
20
-36.6674406089589
30
0
41
1
10
4.2125105114452
20
-37.2663902401618
30
0
41
1
10
4.31686868731407
20
-37.8653398713649
30
0
0
SPLINE
5
3DF
100
AcDbEntity
8
1
62
256
6
ByLayer
370
18
48
1
60
0
100
AcDbSpline
70
4
71
3
72
14
73
10
40
0
40
0
40
0
40
0
40
0.272741632021277
40
0.272741632021277
40
0.545483264042554
40
0.545483264042554
40
0.818224896063831
40
0.818224896063831
40
1
40
1
40
1
40
1
41
1
10
4.19687910163941
20
-28.5519243249547
30
0
41
1
10
4.19827275749617
20
-28.5209021164482
30
0
41
1
10
4.20263854029201
20
-28.4905570576843
30
0
41
1
10
4.21714966851903
20
-28.4311837174844
30
0
41
1
10
4.22743401917484
20
-28.4018765597201
30
0
41
1
10
4.25357873319848
20
-28.3460882347818
30
0
41
1
10
4.26926274479104
20
-28.3198191950209
30
0
41
1
10
4.29973098114681
20
-28.2787376843927
30
0
41
1
10
4.31319068712855
20
-28.2629423504136
30
0
41
1
10
4.32762303558513
20
-28.24813381264
30
0
0
SPLINE
5
3E0
100
AcDbEntity
8
1
62
256
6
ByLayer
370
18
48
1
60
0
100
AcDbSpline
70
2053
71
3
72
100
73
96
40
0
40
0
40
0
40
0
40
0.0312499999999992
40
0.0312499999999992
40
0.0468749999999992
40
0.0468749999999992
40
0.0624999999999992
40
0.0624999999999992
40
0.0937499999999992
40
0.0937499999999992
40
0.109374999999999
40
0.109374999999999
40
0.124999999999999
40
0.124999999999999
40
0.156249999999998
40
0.156249999999998
40
0.171874999999997
40
0.171874999999997
40
0.187499999999997
40
0.203124999999996
40
0.203124999999996
40
0.218749999999995
40
0.218749999999995
40
0.249999999999994
40
0.249999999999994
40
0.265624999999993
40
0.265624999999993
40
0.281249999999992
40
0.281249999999992
40
0.312499999999991
40
0.312499999999991
40
0.32812499999999
40
0.32812499999999
40
0.34374999999999
40
0.34374999999999
40
0.374999999999989
40
0.374999999999989
40
0.406249999999988
40
0.406249999999988
40
0.421874999999987
40
0.421874999999987
40
0.437499999999987
40
0.437499999999987
40
0.468749999999987
40
0.468749999999987
40
0.484374999999988
40
0.484374999999988
40
0.499999999999988
40
0.499999999999988
40
0.531249999999989
40
0.531249999999989
40
0.54687499999999
40
0.54687499999999
40
0.562499999999991
40
0.578124999999992
40
0.578124999999992
40
0.593749999999993
40
0.593749999999993
40
0.624999999999994
40
0.624999999999994
40
0.640624999999994
40
0.640624999999994
40
0.656249999999994
40
0.656249999999994
40
0.687499999999995
40
0.687499999999995
40
0.703124999999995
40
0.703124999999995
40
0.718749999999995
40
0.718749999999995
40
0.749999999999996
40
0.749999999999996
40
0.765624999999996
40
0.765624999999996
40
0.781249999999996
40
0.796874999999996
40
0.796874999999996
40
0.812499999999997
40
0.812499999999997
40
0.843749999999997
40
0.843749999999997
40
0.859374999999997
40
0.859374999999997
40
0.874999999999997
40
0.874999999999997
40
0.906249999999998
40
0.906249999999998
40
0.921874999999998
40
0.921874999999998
40
0.937499999999998
40
0.953124999999998
40
0.953124999999998
40
0.968749999999999
40
0.968749999999999
40
1
40
1
40
1
40
1
41
1
10
5.27050000000003
20
23.4384142946249
30
0
41
1
10
5.27050000000003
20
23.3443959175604
30
0
41
1
10
5.28163544899104
20
23.2524254284439
30
0
41
1
10
5.31427953262363
20
23.1173648577154
30
0
41
1
10
5.32783759851446
20
23.0728300435871
30
0
41
1
10
5.36041535052692
20
22.9847346745893
30
0
41
1
10
5.37954137060183
20
22.9410166552051
30
0
41
1
10
5.44401769179814
20
22.8140165767721
30
0
41
1
10
5.49660940388526
20
22.7340433436171
30
0
41
1
10
5.58976334807454
20
22.6208749280497
30
0
41
1
10
5.62324940648551
20
22.584252191266
30
0
41
1
10
5.69503601235113
20
22.5135030909607
30
0
41
1
10
5.73281470970659
20
22.4798828456412
30
0
41
1
10
5.8516365628866
20
22.3840703082913
30
0
41
1
10
5.93811289392045
20
22.3268784031438
30
0
41
1
10
6.07901590968982
20
22.2511605095938
30
0
41
1
10
6.12804881608895
20
22.2275573391151
30
0
41
1
10
6.22779257945905
20
22.184779975659
30
0
41
1
10
6.32966541536143
20
22.1461516439202
30
0
41
1
10
6.43573406313595
20
22.1156395534119
30
0
41
1
10
6.5439302034614
20
22.0892174117534
30
0
41
1
10
6.59924579837548
20
22.0780266810265
30
0
41
1
10
6.76752760890548
20
22.050986613519
30
0
41
1
10
6.88021641281466
20
22.041967578544
30
0
41
1
10
7.04997615673096
20
22.0414553786866
30
0
41
1
10
7.10668470644305
20
22.0434707950699
30
0
41
1
10
7.22035224931034
20
22.0519942624867
30
0
41
1
10
7.27724870921054
20
22.0585303283242
30
0
41
1
10
7.44445814137885
20
22.0844506507147
30
0
41
1
10
7.55262983412627
20
22.1101552978481
30
0
41
1
10
7.70997132402465
20
22.1613881998808
30
0
41
1
10
7.76187178649479
20
22.1807211158168
30
0
41
1
10
7.86226447413208
20
22.2230969836905
30
0
41
1
10
7.91078282324543
20
22.2461129647016
30
0
41
1
10
8.05145397804023
20
22.3205321506798
30
0
41
1
10
8.13877009406031
20
22.3772527526712
30
0
41
1
10
8.30011665333433
20
22.5056075333687
30
0
41
1
10
8.3717084093679
20
22.5753351114842
30
0
41
1
10
8.46567469368557
20
22.6876910057574
30
0
41
1
10
8.49476935198402
20
22.7264674524895
30
0
41
1
10
8.54841858932622
20
22.8067527377663
30
0
41
1
10
8.5730319273755
20
22.8484277172197
30
0
41
1
10
8.63847217069986
20
22.9750576989693
30
0
41
1
10
8.67153574014623
20
23.0623006712215
30
0
41
1
10
8.70545137746228
20
23.1974719223933
30
0
41
1
10
8.71413301789255
20
23.2433157047679
30
0
41
1
10
8.72599294823993
20
23.3362465308387
30
0
41
1
10
8.72909690384751
20
23.3826897785077
30
0
41
1
10
8.73019609473107
20
23.5219598591572
30
0
41
1
10
8.72005544729774
20
23.6147309331363
30
0
41
1
10
8.68815816852845
20
23.7537300331546
30
0
41
1
10
8.67464609629224
20
23.8001740812726
30
0
41
1
10
8.6425367632566
20
23.8909779217095
30
0
41
1
10
8.60526906068236
20
23.9801756994353
30
0
41
1
10
8.55785762947517
20
24.0661735511663
30
0
41
1
10
8.50531571036151
20
24.1505271077415
30
0
41
1
10
8.47638972886296
20
24.1919967961073
30
0
41
1
10
8.38218797475241
20
24.3130437330077
30
0
41
1
10
8.31096781108664
20
24.3875820611302
30
0
41
1
10
8.19193186127859
20
24.4902708510133
30
0
41
1
10
8.15020412626149
20
24.5229697417565
30
0
41
1
10
8.06254128568128
20
24.5851914978323
30
0
41
1
10
8.01657736458338
20
24.6146881487999
30
0
41
1
10
7.87541968569548
20
24.6963799654538
30
0
41
1
10
7.77602290507843
20
24.7425719587395
30
0
41
1
10
7.61900961679237
20
24.7993272845891
30
0
41
1
10
7.56505214396969
20
24.8162148960781
30
0
41
1
10
7.45586390776441
20
24.8452007211598
30
0
41
1
10
7.40082630448848
20
24.857279273516
30
0
41
1
10
7.23442009533716
20
24.8864511652313
30
0
41
1
10
7.12177066566022
20
24.8965467308632
30
0
41
1
10
6.95014667988784
20
24.8971750655028
30
0
41
1
10
6.89288226332934
20
24.8949235652634
30
0
41
1
10
6.77986151858829
20
24.8856779653917
30
0
41
1
10
6.66785231887167
20
24.871695254123
30
0
41
1
10
6.55784394593468
20
24.8483601035314
30
0
41
1
10
6.44885422416309
20
24.8202781990115
30
0
41
1
10
6.39458887937235
20
24.8037508066761
30
0
41
1
10
6.23643170141798
20
24.7478930853454
30
0
41
1
10
6.13658658505227
20
24.7023211346152
30
0
41
1
10
5.99506146546577
20
24.6218385898322
30
0
41
1
10
5.94926996894071
20
24.5929761491172
30
0
41
1
10
5.86055257650872
20
24.5310679398019
30
0
41
1
10
5.81834972703035
20
24.4985249334877
30
0
41
1
10
5.69810535186633
20
24.3964369661267
30
0
41
1
10
5.62631153843955
20
24.3224341325325
30
0
41
1
10
5.53135593427635
20
24.20257815281
30
0
41
1
10
5.50179363933222
20
24.1610104842961
30
0
41
1
10
5.44825658841069
20
24.0767140543032
30
0
41
1
10
5.39994709200465
20
23.99085222378
30
0
41
1
10
5.36188185422259
20
23.901974455876
30
0
41
1
10
5.32898029235525
20
23.8115981266491
30
0
41
1
10
5.31507660964854
20
23.7655106445726
30
0
41
1
10
5.2816390360606
20
23.6259763091319
30
0
41
1
10
5.27050000000003
20
23.5324326716894
30
0
41
1
10
5.27050000000003
20
23.4384142946249
30
0
0
SPLINE
5
3E1
100
AcDbEntity
8
1
62
256
6
ByLayer
370
18
48
1
60
0
100
AcDbSpline
70
4
71
3
72
10
73
6
40
0
40
0
40
0
40
0
40
0.295947133184035
40
0.295947133184035
40
1
40
1
40
1
40
1
41
1
10
9.78914190676306
20
-41.1682311437811
30
0
41
1
10
9.79326414223391
20
-41.1792024042706
30
0
41
1
10
9.7968834913201
20
-41.1903158931227
30
0
41
1
10
9.80733880911771
20
-41.2281879647941
30
0
41
1
10
9.81171065847502
20
-41.2551383529251
30
0
41
1
10
9.81310406129671
20
-41.282374153579
30
0
0
SPLINE
5
3E2
100
AcDbEntity
8
1
62
256
6
ByLayer
370
18
48
1
60
0
100
AcDbSpline
70
2053
71
3
72
100
73
96
40
0
40
0
40
0
40
0
40
0.031249999999999
40
0.031249999999999
40
0.0468749999999984
40
0.0468749999999984
40
0.0624999999999978
40
0.0624999999999978
40
0.0937499999999968
40
0.0937499999999968
40
0.109374999999996
40
0.109374999999996
40
0.124999999999996
40
0.124999999999996
40
0.156249999999995
40
0.156249999999995
40
0.171874999999994
40
0.171874999999994
40
0.187499999999994
40
0.203124999999994
40
0.203124999999994
40
0.218749999999993
40
0.218749999999993
40
0.249999999999993
40
0.249999999999993
40
0.265624999999992
40
0.265624999999992
40
0.281249999999992
40
0.281249999999992
40
0.312499999999992
40
0.312499999999992
40
0.328124999999992
40
0.328124999999992
40
0.343749999999992
40
0.343749999999992
40
0.374999999999992
40
0.374999999999992
40
0.406249999999992
40
0.406249999999992
40
0.421874999999992
40
0.421874999999992
40
0.437499999999992
40
0.437499999999992
40
0.468749999999992
40
0.468749999999992
40
0.484374999999992
40
0.484374999999992
40
0.499999999999992
40
0.499999999999992
40
0.531249999999992
40
0.531249999999992
40
0.546874999999992
40
0.546874999999992
40
0.562499999999992
40
0.578124999999992
40
0.578124999999992
40
0.593749999999993
40
0.593749999999993
40
0.624999999999993
40
0.624999999999993
40
0.640624999999993
40
0.640624999999993
40
0.656249999999993
40
0.656249999999993
40
0.687499999999993
40
0.687499999999993
40
0.703124999999994
40
0.703124999999994
40
0.718749999999994
40
0.718749999999994
40
0.749999999999995
40
0.749999999999995
40
0.765624999999995
40
0.765624999999995
40
0.781249999999995
40
0.796874999999996
40
0.796874999999996
40
0.812499999999996
40
0.812499999999996
40
0.843749999999997
40
0.843749999999997
40
0.859374999999997
40
0.859374999999997
40
0.874999999999997
40
0.874999999999997
40
0.906249999999998
40
0.906249999999998
40
0.921874999999998
40
0.921874999999998
40
0.937499999999998
40
0.953124999999999
40
0.953124999999999
40
0.968749999999999
40
0.968749999999999
40
1
40
1
40
1
40
1
41
1
10
5.2705
20
-6.26170228246582
30
0
41
1
10
5.27050000000003
20
-6.37466155109445
30
0
41
1
10
5.28163544899098
20
-6.48589134511053
30
0
41
1
10
5.31427953262363
20
-6.6502500763911
30
0
41
1
10
5.32783759851446
20
-6.70461868035312
30
0
41
1
10
5.36041535052692
20
-6.81249924720004
30
0
41
1
10
5.37954137060183
20
-6.86620669068412
30
0
41
1
10
5.44401769179814
20
-7.02269182109609
30
0
41
1
10
5.49660940388526
20
-7.12186136335612
30
0
41
1
10
5.58976334807454
20
-7.26292157394874
30
0
41
1
10
5.62324940648551
20
-7.3086996907391
30
0
41
1
10
5.69503601235113
20
-7.39735809327169
30
0
41
1
10
5.73281470970659
20
-7.4396035364324
30
0
41
1
10
5.8516365628866
20
-7.56026610054067
30
0
41
1
10
5.93811289392045
20
-7.63266779053617
30
0
41
1
10
6.07901590968982
20
-7.72883886538602
30
0
41
1
10
6.12804881608895
20
-7.75887900813058
30
0
41
1
10
6.22779257945905
20
-7.81340308736827
30
0
41
1
10
6.32966541536143
20
-7.86272562538704
30
0
41
1
10
6.4357340631359
20
-7.90178716209988
30
0
41
1
10
6.5439302034614
20
-7.93564154742381
30
0
41
1
10
6.59924579837548
20
-7.94999680462246
30
0
41
1
10
6.76752760890543
20
-7.98470172724114
30
0
41
1
10
6.88021641281466
20
-7.99630120228289
30
0
41
1
10
7.04997615673096
20
-7.99695950836576
30
0
41
1
10
7.10668470644299
20
-7.99436870694507
30
0
41
1
10
7.22035224931034
20
-7.98341730598099
30
0
41
1
10
7.27724870921054
20
-7.97502079876023
30
0
41
1
10
7.44445814137885
20
-7.941749911606
30
0
41
1
10
7.55262983412627
20
-7.9087782973296
30
0
41
1
10
7.70997132402465
20
-7.84327309297845
30
0
41
1
10
7.76187178649479
20
-7.81858280519407
30
0
41
1
10
7.86226447413208
20
-7.76455897619439
30
0
41
1
10
7.91078282324543
20
-7.73525945158212
30
0
41
1
10
8.05145397804023
20
-7.64071201195429
30
0
41
1
10
8.13877009406031
20
-7.56887913568272
30
0
41
1
10
8.30011665333433
20
-7.407182232747
30
0
41
1
10
8.3717084093679
20
-7.31972522210503
30
0
41
1
10
8.46567469368557
20
-7.17962100944715
30
0
41
1
10
8.49476935198402
20
-7.13139508979981
30
0
41
1
10
8.54841858932622
20
-7.0318430248937
30
0
41
1
10
8.5730319273755
20
-6.98031343858986
30
0
41
1
10
8.63847217069986
20
-6.82422450408649
30
0
41
1
10
8.67153574014623
20
-6.71731311204769
30
0
41
1
10
8.70545137746228
20
-6.55274294906241
30
0
41
1
10
8.71413301789255
20
-6.49710234881695
30
0
41
1
10
8.72599294823993
20
-6.38468131027895
30
0
41
1
10
8.72909690384751
20
-6.32867925330879
30
0
41
1
10
8.73019609473107
20
-6.16128038840606
30
0
41
1
10
8.72005544729774
20
-6.05048625882023
30
0
41
1
10
8.68815816852839
20
-5.88551757262394
30
0
41
1
10
8.67464609629224
20
-5.83057164737318
30
0
41
1
10
8.6425367632566
20
-5.7234703935564
30
0
41
1
10
8.60526906068236
20
-5.61858977166565
30
0
41
1
10
8.55785762947517
20
-5.51806055553732
30
0
41
1
10
8.50531571036146
20
-5.41972265374676
30
0
41
1
10
8.47638972886296
20
-5.37151605159482
30
0
41
1
10
8.38218797475241
20
-5.23116897772042
30
0
41
1
10
8.31096781108664
20
-5.14523839209039
30
0
41
1
10
8.19193186127859
20
-5.02733121267801
30
0
41
1
10
8.15020412626149
20
-4.98987365146559
30
0
41
1
10
8.06254128568128
20
-4.9187326460671
30
0
41
1
10
8.01657736458338
20
-4.88507995501664
30
0
41
1
10
7.87541968569548
20
-4.79203005583059
30
0
41
1
10
7.77602290507838
20
-4.73962794591006
30
0
41
1
10
7.61900961679237
20
-4.67536331665889
30
0
41
1
10
7.56505214396969
20
-4.65626715813067
30
0
41
1
10
7.45586390776441
20
-4.62351641486896
30
0
41
1
10
7.40082630448848
20
-4.60988368173099
30
0
41
1
10
7.23442009533716
20
-4.57697348676129
30
0
41
1
10
7.12177066566022
20
-4.56560507491787
30
0
41
1
10
6.95014667988784
20
-4.56489712109186
30
0
41
1
10
6.89288226332934
20
-4.56743350839145
30
0
41
1
10
6.77986151858829
20
-4.5778536046322
30
0
41
1
10
6.66785231887167
20
-4.59361489834191
30
0
41
1
10
6.55784394593468
20
-4.61994941464559
30
0
41
1
10
6.44885422416309
20
-4.65167395753792
30
0
41
1
10
6.39458887937235
20
-4.67035929862311
30
0
41
1
10
6.23643170141798
20
-4.73359483328562
30
0
41
1
10
6.13658658505227
20
-4.78528165195536
30
0
41
1
10
5.99506146546577
20
-4.87692761543047
30
0
41
1
10
5.94926996894071
20
-4.9098457560836
30
0
41
1
10
5.86055257650872
20
-4.98060405346899
30
0
41
1
10
5.81834972703041
20
-5.01786996035702
30
0
41
1
10
5.69810535186633
20
-5.13504437212123
30
0
41
1
10
5.62631153843955
20
-5.22032530413799
30
0
41
1
10
5.53135593427635
20
-5.35922953702089
30
0
41
1
10
5.50179363933222
20
-5.40752693588371
30
0
41
1
10
5.44825658841074
20
-5.5057526839343
30
0
41
1
10
5.39994709200465
20
-5.60607636620841
30
0
41
1
10
5.36188185422259
20
-5.71053020637839
30
0
41
1
10
5.32898029235525
20
-5.81707378609764
30
0
41
1
10
5.31507660964854
20
-5.87156846899535
30
0
41
1
10
5.2816390360606
20
-6.03708567217779
30
0
41
1
10
5.27049999999997
20
-6.14874301383719
30
0
41
1
10
5.2705
20
-6.26170228246582
30
0
0
SPLINE
5
3E3
100
AcDbEntity
8
1
62
256
6
ByLayer
370
18
48
1
60
0
100
AcDbSpline
70
4
71
3
72
12
73
8
40
0
40
0
40
0
40
0
40
0.148808562094227
40
0.148808562094227
40
0.574404281047114
40
0.574404281047114
40
1
40
1
40
1
40
1
41
1
10
6.54189248233018
20
44.7119643758492
30
0
41
1
10
6.53900632880305
20
44.7142482107047
30
0
41
1
10
6.53618422372699
20
44.7166039034469
30
0
41
1
10
6.52559524123183
20
44.7259404231232
30
0
41
1
10
6.51838911793459
20
44.7333523533109
30
0
41
1
10
6.50528106113518
20
44.7491871120698
30
0
41
1
10
6.49935296353533
20
44.7576838012054
30
0
41
1
10
6.49433743783698
20
44.766356698837
30
0
0
SPLINE
5
3E4
100
AcDbEntity
8
1
62
256
6
ByLayer
370
18
48
1
60
0
100
AcDbSpline
70
4
71
3
72
12
73
8
40
0
40
0
40
0
40
0
40
0.378302487492798
40
0.378302487492798
40
0.756604974985596
40
0.756604974985596
40
1
40
1
40
1
40
1
41
1
10
8.27930307625331
20
44.77044460255
30
0
41
1
10
8.273861059274
20
44.7617191669838
30
0
41
1
10
8.26773806791215
20
44.7533606888526
30
0
41
1
10
8.25413002733598
20
44.7373766225164
30
0
41
1
10
8.24662258793086
20
44.729760313466
30
0
41
1
10
8.23373097311293
20
44.7183864171246
30
0
41
1
10
8.22851265950885
20
44.7141810252802
30
0
41
1
10
8.22312721574951
20
44.710217697553
30
0
0
SPLINE
5
3E5
100
AcDbEntity
8
1
62
256
6
ByLayer
370
18
48
1
60
0
100
AcDbSpline
70
4
71
3
72
18
73
14
40
0
40
0
40
0
40
0
40
0.249999999999999
40
0.249999999999999
40
0.499999999999998
40
0.499999999999998
40
0.624999999999999
40
0.624999999999999
40
0.749999999999999
40
0.749999999999999
40
0.875
40
0.875
40
1
40
1
40
1
40
1
41
1
10
8.26193741723984
20
44.9642017580548
30
0
41
1
10
8.27397567862448
20
44.954113429175
30
0
41
1
10
8.28400458333391
20
44.9419382866078
30
0
41
1
10
8.29934215822118
20
44.9133582736594
30
0
41
1
10
8.30439987095201
20
44.8973853716899
30
0
41
1
10
8.30739913417005
20
44.8712372582412
30
0
41
1
10
8.30761054320465
20
44.862321110497
30
0
41
1
10
8.30640717635521
20
44.8440918401056
30
0
41
1
10
8.30496544142159
20
44.8346836404191
30
0
41
1
10
8.30042039930328
20
44.8159995190663
30
0
41
1
10
8.29733960050964
20
44.8067292223772
30
0
41
1
10
8.28952676830926
20
44.7883412222131
30
0
41
1
10
8.28474167370945
20
44.7791645554377
30
0
41
1
10
8.27930307625331
20
44.77044460255
30
0
0
SPLINE
5
3E6
100
AcDbEntity
8
1
62
256
6
ByLayer
370
18
48
1
60
0
100
AcDbSpline
70
4
71
3
72
14
73
10
40
0
40
0
40
0
40
0
40
0.25
40
0.25
40
0.5
40
0.5
40
0.75
40
0.75
40
1
40
1
40
1
40
1
41
1
10
8.15772048697363
20
45.2470555977711
30
0
41
1
10
8.15995931601452
20
45.2730025963852
30
0
41
1
10
8.16453942396436
20
45.2993157485495
30
0
41
1
10
8.17761350845456
20
45.3504381844212
30
0
41
1
10
8.18607313247384
20
45.3753506260272
30
0
41
1
10
8.20659132557114
20
45.4239706178976
30
0
41
1
10
8.21851284465998
20
45.4472852051688
30
0
41
1
10
8.24488950434727
20
45.4912155173656
30
0
41
1
10
8.25942090804097
20
45.5120008830549
30
0
41
1
10
8.27528736835154
20
45.531662835192
30
0
0
SPLINE
5
3E7
100
AcDbEntity
8
1
62
256
6
ByLayer
370
18
48
1
60
0
100
AcDbSpline
70
4
71
3
72
18
73
14
40
0
40
0
40
0
40
0
40
0.124999999999999
40
0.124999999999999
40
0.249999999999999
40
0.249999999999999
40
0.374999999999998
40
0.374999999999998
40
0.499999999999997
40
0.499999999999997
40
0.749999999999998
40
0.749999999999998
40
1
40
1
40
1
40
1
41
1
10
8.30268484384789
20
45.7643241241728
30
0
41
1
10
8.3077325601439
20
45.755595562235
30
0
41
1
10
8.31199847767226
20
45.7463814066547
30
0
41
1
10
8.31896894805385
20
45.7269816826036
30
0
41
1
10
8.32165307280246
20
45.7167699573768
30
0
41
1
10
8.32524723336417
20
45.6962911254387
30
0
41
1
10
8.32620429989845
20
45.6859119835604
30
0
41
1
10
8.32649377279887
20
45.6648808536541
30
0
41
1
10
8.32580113178409
20
45.6541697633689
30
0
41
1
10
8.32145705384107
20
45.6229555384866
30
0
41
1
10
8.31552692785317
20
45.6026974464644
30
0
41
1
10
8.29863664279083
20
45.5646646066609
30
0
41
1
10
8.28796335272261
20
45.547371102387
30
0
41
1
10
8.27528736835148
20
45.531662835192
30
0
0
SPLINE
5
3E8
100
AcDbEntity
8
1
62
256
6
ByLayer
370
18
48
1
60
0
100
AcDbSpline
70
4
71
3
72
18
73
14
40
0
40
0
40
0
40
0
40
0.125
40
0.125
40
0.25
40
0.25
40
0.375
40
0.375
40
0.499999999999999
40
0.499999999999999
40
0.75
40
0.75
40
1
40
1
40
1
40
1
41
1
10
6.49433743783698
20
44.766356698837
30
0
41
1
10
6.48928972154096
20
44.7750852607747
30
0
41
1
10
6.48509499843317
20
44.7840593115641
30
0
41
1
10
6.47841004721545
20
44.8024961157895
30
0
41
1
10
6.47594266409334
20
44.8119768749876
30
0
41
1
10
6.47290630762404
20
44.830574500031
30
0
41
1
10
6.47229148570398
20
44.8397994142215
30
0
41
1
10
6.47281296579212
20
44.8580955868656
30
0
41
1
10
6.47397847292535
20
44.8672119254909
30
0
41
1
10
6.4798734269736
20
44.8931957856954
30
0
41
1
10
6.487041438473
20
44.9092790808836
30
0
41
1
10
6.50672637337567
20
44.9378869010083
30
0
41
1
10
6.51891538465509
20
44.9500686012783
30
0
41
1
10
6.53323232675888
20
44.9602427014735
30
0
0
SPLINE
5
3E9
100
AcDbEntity
8
1
62
256
6
ByLayer
370
18
48
1
60
0
100
AcDbSpline
70
4
71
3
72
18
73
14
40
0
40
0
40
0
40
0
40
0.250000000000001
40
0.250000000000001
40
0.500000000000001
40
0.500000000000001
40
0.625000000000001
40
0.625000000000001
40
0.750000000000001
40
0.750000000000001
40
0.875
40
0.875
40
1
40
1
40
1
40
1
41
1
10
6.54658227787058
20
45.5277037786108
30
0
41
1
10
6.53290717080955
20
45.5433124064876
30
0
41
1
10
6.52135587954245
20
45.5606218320901
30
0
41
1
10
6.50321993569338
20
45.5986394075384
30
0
41
1
10
6.49693006619157
20
45.6187677860354
30
0
41
1
10
6.49237071561981
20
45.6501773293051
30
0
41
1
10
6.49169751961154
20
45.6606508640434
30
0
41
1
10
6.49209240452285
20
45.6816067580235
30
0
41
1
10
6.49318492987993
20
45.6921926748906
30
0
41
1
10
6.49717124812634
20
45.7127611051151
30
0
41
1
10
6.50004097439518
20
45.7227432486592
30
0
41
1
10
6.5075684898124
20
45.7420934861161
30
0
41
1
10
6.51228060797541
20
45.751516267572
30
0
41
1
10
6.51771920543155
20
45.7602362204598
30
0
0
SPLINE
5
3EA
100
AcDbEntity
8
1
62
256
6
ByLayer
370
18
48
1
60
0
100
AcDbSpline
70
4
71
3
72
12
73
8
40
0
40
0
40
0
40
0
40
0.499999999999998
40
0.499999999999998
40
0.749999999999999
40
0.749999999999999
40
1
40
1
40
1
40
1
41
1
10
6.54658227787058
20
45.5277037786108
30
0
41
1
10
6.58091915533515
20
45.4885120164985
30
0
41
1
10
6.60992290181912
20
45.4439292322746
30
0
41
1
10
6.64183043918047
20
45.3715260945252
30
0
41
1
10
6.65062257580911
20
45.3461165273244
30
0
41
1
10
6.66322404472402
20
45.2952313237218
30
0
41
1
10
6.66716513509635
20
45.269557267114
30
0
41
1
10
6.6684739344139
20
45.2436449458343
30
0
0
SPLINE
5
3EB
100
AcDbEntity
8
1
62
256
6
ByLayer
370
18
48
1
60
0
100
AcDbSpline
70
4
71
3
72
14
73
10
40
0
40
0
40
0
40
0
40
0.25
40
0.25
40
0.5
40
0.5
40
0.75
40
0.75
40
1
40
1
40
1
40
1
41
1
10
6.66720094982429
20
45.1895346947663
30
0
41
1
10
6.66469161725348
20
45.1644999754133
30
0
41
1
10
6.65945309016541
20
45.1404073566573
30
0
41
1
10
6.64446123730551
20
45.0957526379082
30
0
41
1
10
6.6347492412549
20
45.0750638492514
30
0
41
1
10
6.61126118239002
20
45.03645979673
30
0
41
1
10
6.5976434571711
20
45.0188657029262
30
0
41
1
10
6.56763312402336
20
44.987190036509
30
0
41
1
10
6.55115276488868
20
44.9729775670443
30
0
41
1
10
6.53323232675888
20
44.9602427014735
30
0
0
SPLINE
5
3EC
100
AcDbEntity
8
1
62
256
6
ByLayer
370
18
48
1
60
0
100
AcDbSpline
70
4
71
3
72
18
73
14
40
0
40
0
40
0
40
0
40
0.249999999999991
40
0.249999999999991
40
0.499999999999983
40
0.499999999999983
40
0.624999999999987
40
0.624999999999987
40
0.749999999999991
40
0.749999999999991
40
0.874999999999996
40
0.874999999999996
40
1
40
1
40
1
40
1
41
1
10
8.10492728524883
20
45.8275308273392
30
0
41
1
10
8.1223483292174
20
45.8348093545214
30
0
41
1
10
8.14044626557421
20
45.8392782171097
30
0
41
1
10
8.17766168399515
20
45.841967201058
30
0
41
1
10
8.19620242948281
20
45.8401298802336
30
0
41
1
10
8.22323373568514
20
45.8321548324737
30
0
41
1
10
8.23193919080535
20
45.8286724878244
30
0
41
1
10
8.2487138001328
20
45.820023301131
30
0
41
1
10
8.25685737647109
20
45.814792553692
30
0
41
1
10
8.27199313497107
20
45.8028312333443
30
0
41
1
10
8.27898939848012
20
45.79612706003
30
0
41
1
10
8.29181381524677
20
45.781248883685
30
0
41
1
10
8.29766931814953
20
45.7729970218044
30
0
41
1
10
8.30268484384789
20
45.7643241241728
30
0
0
SPLINE
5
3ED
100
AcDbEntity
8
1
62
256
6
ByLayer
370
18
48
1
60
0
100
AcDbSpline
70
4
71
3
72
22
73
18
40
0
40
0
40
0
40
0
40
0.124999999999998
40
0.124999999999998
40
0.249999999999997
40
0.249999999999997
40
0.374999999999995
40
0.374999999999995
40
0.499999999999994
40
0.499999999999994
40
0.624999999999995
40
0.624999999999995
40
0.749999999999997
40
0.749999999999997
40
0.874999999999998
40
0.874999999999998
40
1
40
1
40
1
40
1
41
1
10
8.10492728524878
20
45.8275308273392
30
0
41
1
10
8.08109225351274
20
45.8175725305408
30
0
41
1
10
8.05633990045004
20
45.8098865131201
30
0
41
1
10
8.00607858601586
20
45.7998374730456
30
0
41
1
10
7.9805153486891
20
45.7974073500348
30
0
41
1
10
7.92815255035134
20
45.7985758287893
30
0
41
1
10
7.90154702612699
20
45.8022575103203
30
0
41
1
10
7.8494115651124
20
45.8163392038332
30
0
41
1
10
7.82333437724077
20
45.8269743763583
30
0
41
1
10
7.77476796066685
20
45.8542493424231
30
0
41
1
10
7.75172189318033
20
45.871093777708
30
0
41
1
10
7.70938222713261
20
45.9101222993628
30
0
41
1
10
7.69062864321882
20
45.9317093468036
30
0
41
1
10
7.65734022786455
20
45.9784951635019
30
0
41
1
10
7.64292684547991
20
46.0036516789293
30
0
41
1
10
7.6190865743817
20
46.0551606197434
30
0
41
1
10
7.6094651616919
20
46.081784070949
30
0
41
1
10
7.60201439403676
20
46.1092525361287
30
0
0
SPLINE
5
3EE
100
AcDbEntity
8
1
62
256
6
ByLayer
370
18
48
1
60
0
100
AcDbSpline
70
4
71
3
72
18
73
14
40
0
40
0
40
0
40
0
40
0.125000000000011
40
0.125000000000011
40
0.250000000000023
40
0.250000000000023
40
0.375000000000035
40
0.375000000000035
40
0.500000000000046
40
0.500000000000046
40
0.750000000000023
40
0.750000000000023
40
1
40
1
40
1
40
1
41
1
10
7.42185822176953
20
46.2577455207115
30
0
41
1
10
7.43231674124871
20
46.2577694726687
30
0
41
1
10
7.4427162680272
20
46.2568232213897
30
0
41
1
10
7.46339755695408
20
46.2529878695216
30
0
41
1
10
7.473679979785
20
46.2500686062622
30
0
41
1
10
7.49322032606636
20
46.2425728839306
30
0
41
1
10
7.5026016314805
20
46.2379798693666
30
0
41
1
10
7.52060850713622
20
46.2271507906813
30
0
41
1
10
7.52926472123289
20
46.2208632100276
30
0
41
1
10
7.55306731051405
20
46.2003875699884
30
0
41
1
10
7.56661726231056
20
46.1842106668592
30
0
41
1
10
7.58847116983452
20
46.1484581179502
30
0
41
1
10
7.59655125079263
20
46.1293933010698
30
0
41
1
10
7.60201439403676
20
46.1092525361287
30
0
0
SPLINE
5
3EF
100
AcDbEntity
8
1
62
256
6
ByLayer
370
18
48
1
60
0
100
AcDbSpline
70
4
71
3
72
18
73
14
40
0
40
0
40
0
40
0
40
0.125
40
0.125
40
0.25
40
0.25
40
0.374999999999999
40
0.374999999999999
40
0.499999999999999
40
0.499999999999999
40
0.75
40
0.75
40
1
40
1
40
1
40
1
41
1
10
6.51771920543155
20
45.7602362204598
30
0
41
1
10
6.52316122241086
20
45.768961656026
30
0
41
1
10
6.52935496975721
20
45.7770815080021
30
0
41
1
10
6.54324700376543
20
45.7921078000772
30
0
41
1
10
6.55096991111276
20
45.7989974386279
30
0
41
1
10
6.56721359358778
20
45.8109690332774
30
0
41
1
10
6.5758121602683
20
45.8161442764177
30
0
41
1
10
6.59393182166332
20
45.8249147265693
30
0
41
1
10
6.60351024381714
20
45.8285056912629
30
0
41
1
10
6.63239692655912
20
45.8365306237525
30
0
41
1
10
6.65245655500405
20
45.8384747160822
30
0
41
1
10
6.69248807234578
20
45.8359530854948
30
0
41
1
10
6.71193469676001
20
45.8315975094569
30
0
41
1
10
6.73082228888904
20
45.8243838710081
30
0
0
SPLINE
5
3F0
100
AcDbEntity
8
1
62
256
6
ByLayer
370
18
48
1
60
0
100
AcDbSpline
70
4
71
3
72
18
73
14
40
0
40
0
40
0
40
0
40
0.24999999999997
40
0.24999999999997
40
0.499999999999939
40
0.499999999999939
40
0.624999999999954
40
0.624999999999954
40
0.74999999999997
40
0.74999999999997
40
0.874999999999985
40
0.874999999999985
40
1
40
1
40
1
40
1
41
1
10
7.24704552211881
20
46.1084395913088
30
0
41
1
10
7.25168115523309
20
46.1285525397661
30
0
41
1
10
7.25906020547166
20
46.1477511717946
30
0
41
1
10
7.27963630831641
20
46.1836383383468
30
0
41
1
10
7.2925521581426
20
46.1998040752144
30
0
41
1
10
7.31582555473045
20
46.2205066807322
30
0
41
1
10
7.32409273271395
20
46.2266857525784
30
0
41
1
10
7.34166837759255
20
46.2375606706298
30
0
41
1
10
7.35107690913441
20
46.2422907351447
30
0
41
1
10
7.37045123559073
20
46.2498880918072
30
0
41
1
10
7.38040633975874
20
46.2527774616707
30
0
41
1
10
7.40086082860063
20
46.2567028193627
30
0
41
1
10
7.41143661364657
20
46.2577216532881
30
0
41
1
10
7.42185822176953
20
46.2577455207115
30
0
0
SPLINE
5
3F1
100
AcDbEntity
8
1
62
256
6
ByLayer
370
18
48
1
60
0
100
AcDbSpline
70
4
71
3
72
22
73
18
40
0
40
0
40
0
40
0
40
0.125
40
0.125
40
0.25
40
0.25
40
0.375
40
0.375
40
0.5
40
0.5
40
0.625
40
0.625
40
0.75
40
0.75
40
0.875
40
0.875
40
1
40
1
40
1
40
1
41
1
10
7.24704552211955
20
46.108439591312
30
0
41
1
10
7.24070309207912
20
46.080921242608
30
0
41
1
10
7.231957131191
20
46.0538490724753
30
0
41
1
10
7.20976401229552
20
46.0021145215109
30
0
41
1
10
7.19633755401424
20
45.9773632970738
30
0
41
1
10
7.16405140564484
20
45.9303646226127
30
0
41
1
10
7.14524525711431
20
45.9083459268464
30
0
41
1
10
7.10316921490886
20
45.8694561327902
30
0
41
1
10
7.07939442958343
20
45.8522342326151
30
0
41
1
10
7.02949056710759
20
45.8248461573172
30
0
41
1
10
7.00287091773123
20
45.8142983485722
30
0
41
1
10
6.94782952221397
20
45.7999431083112
30
0
41
1
10
6.92018225511492
20
45.796254174227
30
0
41
1
10
6.86456964894109
20
45.7948589856191
30
0
41
1
10
6.83670645117189
20
45.7972343371354
30
0
41
1
10
6.78287362462078
20
45.8070821152197
30
0
41
1
10
6.75658163486935
20
45.8145457398525
30
0
41
1
10
6.73082228888904
20
45.8243838710081
30
0
0
LINE
5
70
100
AcDbEntity
8
80
62
256
6
ByLayer
370
18
48
1
60
0
100
AcDbLine
10
0
20
0
30
0
11
-5
21
0
31
0
39
0
210
0
220
0
230
1
0
LINE
5
71
100
AcDbEntity
8
1
62
256
6
ByLayer
370
18
48
1
60
0
100
AcDbLine
10
5.849371
20
32.735489
30
0
11
5.778724
21
33.133787
31
0
39
0
210
0
220
0
230
1
0
LINE
5
73
100
AcDbEntity
8
1
62
256
6
ByLayer
370
18
48
1
60
0
100
AcDbLine
10
9.625
20
-25.014022
30
0
11
4.4
21
-25.014022
31
0
39
0
210
0
220
0
230
1
0
LINE
5
74
100
AcDbEntity
8
81
62
256
6
ByLayer
370
18
48
1
60
0
100
AcDbLine
10
10
20
50
30
0
11
15
21
50
31
0
39
0
210
0
220
0
230
1
0
LINE
5
75
100
AcDbEntity
8
1
62
256
6
ByLayer
370
18
48
1
60
0
100
AcDbLine
10
7.85601
20
-6.281616
30
0
11
7.85601
21
-6.839585
31
0
39
0
210
0
220
0
230
1
0
LINE
5
76
100
AcDbEntity
8
1
62
256
6
ByLayer
370
18
48
1
60
0
100
AcDbLine
10
0.4
20
23.5
30
0
11
0
21
23.1
31
0
39
0
210
0
220
0
230
1
0
LINE
5
77
100
AcDbEntity
8
1
62
256
6
ByLayer
370
18
48
1
60
0
100
AcDbLine
10
0
20
-23.1
30
0
11
0.4
21
-23.5
31
0
39
0
210
0
220
0
230
1
0
LINE
5
78
100
AcDbEntity
8
1
62
256
6
ByLayer
370
18
48
1
60
0
100
AcDbLine
10
3.6
20
23.5
30
0
11
0.4
21
23.5
31
0
39
0
210
0
220
0
230
1
0
LINE
5
79
100
AcDbEntity
8
1
62
256
6
ByLayer
370
18
48
1
60
0
100
AcDbLine
10
13.6
20
-23.5
30
0
11
14
21
-23.1
31
0
39
0
210
0
220
0
230
1
0
LINE
5
7A
100
AcDbEntity
8
1
62
256
6
ByLayer
370
18
48
1
60
0
100
AcDbLine
10
8.932132
20
0.947192
30
0
11
8.937509
21
1.008201
31
0
39
0
210
0
220
0
230
1
0
LINE
5
7B
100
AcDbEntity
8
1
62
256
6
ByLayer
370
18
48
1
60
0
100
AcDbLine
10
14
20
23.1
30
0
11
13.6
21
23.5
31
0
39
0
210
0
220
0
230
1
0
LINE
5
7C
100
AcDbEntity
8
1
62
256
6
ByLayer
370
18
48
1
60
0
100
AcDbLine
10
5.899287
20
1.275988
30
0
11
5.89391
21
1.214979
31
0
39
0
210
0
220
0
230
1
0
LINE
5
7D
100
AcDbEntity
8
1
62
256
6
ByLayer
370
18
48
1
60
0
100
AcDbLine
10
6.14399
20
23.024544
30
0
11
6.14399
21
23.881331
31
0
39
0
210
0
220
0
230
1
0
LINE
5
7E
100
AcDbEntity
8
1
62
256
6
ByLayer
370
18
48
1
60
0
100
AcDbLine
10
7.85601
20
23.881331
30
0
11
7.85601
21
23.024544
31
0
39
0
210
0
220
0
230
1
0
LINE
5
7F
100
AcDbEntity
8
1
62
256
6
ByLayer
370
18
48
1
60
0
100
AcDbLine
10
6.14399
20
22.278243
30
0
11
6.14399
21
22.497461
31
0
39
0
210
0
220
0
230
1
0
LINE
5
80
100
AcDbEntity
8
1
62
256
6
ByLayer
370
18
48
1
60
0
100
AcDbLine
10
7.85601
20
22.497461
30
0
11
7.85601
21
22.278243
31
0
39
0
210
0
220
0
230
1
0
LINE
5
81
100
AcDbEntity
8
1
62
256
6
ByLayer
370
18
48
1
60
0
100
AcDbLine
10
6.14399
20
-6.839585
30
0
11
6.14399
21
-6.281616
31
0
39
0
210
0
220
0
230
1
0
LINE
5
82
100
AcDbEntity
8
1
62
256
6
ByLayer
370
18
48
1
60
0
100
AcDbLine
10
8.098525
20
33.003701
30
0
11
8.037267
21
33.349064
31
0
39
0
210
0
220
0
230
1
0
LINE
5
83
100
AcDbEntity
8
1
62
256
6
ByLayer
370
18
48
1
60
0
100
AcDbLine
10
5.034142
20
32.816392
30
0
11
5.0954
21
32.47103
31
0
39
0
210
0
220
0
230
1
0
LINE
5
84
100
AcDbEntity
8
1
62
256
6
ByLayer
370
18
48
1
60
0
100
AcDbLine
10
0.4
20
-23.5
30
0
11
3.6
21
-23.5
31
0
39
0
210
0
220
0
230
1
0
LINE
5
85
100
AcDbEntity
8
1
62
256
6
ByLayer
370
18
48
1
60
0
100
AcDbLine
10
9.6
20
11.572337
30
0
11
4.375
21
11.572337
31
0
39
0
210
0
220
0
230
1
0
LINE
5
86
100
AcDbEntity
8
1
62
256
6
ByLayer
370
18
48
1
60
0
100
AcDbLine
10
10.4
20
-23.5
30
0
11
13.6
21
-23.5
31
0
39
0
210
0
220
0
230
1
0
LINE
5
87
100
AcDbEntity
8
1
62
256
6
ByLayer
370
18
48
1
60
0
100
AcDbLine
10
7.275848
20
33.126595
30
0
11
7.346495
21
32.728296
31
0
39
0
210
0
220
0
230
1
0
LINE
5
88
100
AcDbEntity
8
1
62
256
6
ByLayer
370
18
48
1
60
0
100
AcDbLine
10
6.14399
20
-5.351642
30
0
11
6.14399
21
-5.089729
31
0
39
0
210
0
220
0
230
1
0
LINE
5
89
100
AcDbEntity
8
1
62
256
6
ByLayer
370
18
48
1
60
0
100
AcDbLine
10
7.85601
20
-5.089729
30
0
11
7.85601
21
-5.351642
31
0
39
0
210
0
220
0
230
1
0
LINE
5
8A
100
AcDbEntity
8
1
62
256
6
ByLayer
370
18
48
1
60
0
100
AcDbLine
10
13.6
20
23.5
30
0
11
10.4
21
23.5
31
0
39
0
210
0
220
0
230
1
0
LINE
5
8B
100
AcDbEntity
8
4
62
256
6
ByLayer
370
18
48
0.05
60
0
100
AcDbLine
10
0
20
0
30
0
11
13
21
0
31
0
39
0
210
0
220
0
230
1
0
LINE
5
8D
100
AcDbEntity
8
SK4
62
256
6
ByLayer
370
18
48
0.05
60
0
100
AcDbLine
10
-3
20
0
30
0
11
13
21
0
31
0
39
0
210
0
220
0
230
1
0
LINE
5
8F
100
AcDbEntity
8
1
62
256
6
ByLayer
370
18
48
1
60
0
100
AcDbLine
10
9.625
20
-24.275386
30
0
11
9.599936
21
-24.275386
31
0
39
0
210
0
220
0
230
1
0
LINE
5
90
100
AcDbEntity
8
1
62
256
6
ByLayer
370
18
48
1
60
0
100
AcDbLine
10
9.625
20
-23.536751
30
0
11
9.599936
21
-23.536751
31
0
39
0
210
0
220
0
230
1
0
LINE
5
91
100
AcDbEntity
8
1
62
256
6
ByLayer
370
18
48
1
60
0
100
AcDbLine
10
9.625
20
-21.320845
30
0
11
9.599936
21
-21.320845
31
0
39
0
210
0
220
0
230
1
0
LINE
5
92
100
AcDbEntity
8
1
62
256
6
ByLayer
370
18
48
1
60
0
100
AcDbLine
10
9.625
20
-20.582209
30
0
11
9.599936
21
-20.582209
31
0
39
0
210
0
220
0
230
1
0
LINE
5
93
100
AcDbEntity
8
1
62
256
6
ByLayer
370
18
48
1
60
0
100
AcDbLine
10
9.625
20
-19.843574
30
0
11
9.599936
21
-19.843574
31
0
39
0
210
0
220
0
230
1
0
LINE
5
94
100
AcDbEntity
8
1
62
256
6
ByLayer
370
18
48
1
60
0
100
AcDbLine
10
9.625
20
-19.104939
30
0
11
9.599936
21
-19.104939
31
0
39
0
210
0
220
0
230
1
0
LINE
5
95
100
AcDbEntity
8
1
62
256
6
ByLayer
370
18
48
1
60
0
100
AcDbLine
10
9.625
20
-18.366303
30
0
11
9.599936
21
-18.366303
31
0
39
0
210
0
220
0
230
1
0
LINE
5
96
100
AcDbEntity
8
1
62
256
6
ByLayer
370
18
48
1
60
0
100
AcDbLine
10
9.625
20
-17.627668
30
0
11
9.599936
21
-17.627668
31
0
39
0
210
0
220
0
230
1
0
LINE
5
97
100
AcDbEntity
8
1
62
256
6
ByLayer
370
18
48
1
60
0
100
AcDbLine
10
9.625
20
-16.889033
30
0
11
9.599936
21
-16.889033
31
0
39
0
210
0
220
0
230
1
0
LINE
5
98
100
AcDbEntity
8
1
62
256
6
ByLayer
370
18
48
1
60
0
100
AcDbLine
10
8.936359
20
45.44334
30
0
11
8.875101
21
45.649934
31
0
39
0
210
0
220
0
230
1
0
LINE
5
99
100
AcDbEntity
8
1
62
256
6
ByLayer
370
18
48
1
60
0
100
AcDbLine
10
5.95094
20
44.782879
30
0
11
5.971934
21
44.712079
31
0
39
0
210
0
220
0
230
1
0
LINE
5
9A
100
AcDbEntity
8
1
62
256
6
ByLayer
370
18
48
1
60
0
100
AcDbLine
10
8.170471
20
45.105979
30
0
11
8.242185
21
44.864121
31
0
39
0
210
0
220
0
230
1
0
LINE
5
9B
100
AcDbEntity
8
1
62
256
6
ByLayer
370
18
48
1
60
0
100
AcDbLine
10
7.605257
20
46.097819
30
0
11
7.683311
21
45.834579
31
0
39
0
210
0
220
0
230
1
0
LINE
5
9C
100
AcDbEntity
8
1
62
256
6
ByLayer
370
18
48
1
60
0
100
AcDbLine
10
6.723209
20
45.098722
30
0
11
6.651495
21
45.340579
31
0
39
0
210
0
220
0
230
1
0
LINE
5
9D
100
AcDbEntity
8
1
62
256
6
ByLayer
370
18
48
1
60
0
100
AcDbLine
10
6.668474
20
45.243645
30
0
11
6.73871
21
45.006771
31
0
39
0
210
0
220
0
230
1
0
LINE
5
9E
100
AcDbEntity
8
1
62
256
6
ByLayer
370
18
48
1
60
0
100
AcDbLine
10
9.094276
20
35.226213
30
0
11
9.218342
21
30.396448
31
0
39
0
210
0
220
0
230
1
0
LINE
5
9F
100
AcDbEntity
8
1
62
256
6
ByLayer
370
18
48
1
60
0
100
AcDbLine
10
9.6
20
-43.714573
30
0
11
9.6
21
-45.980668
31
0
39
0
210
0
220
0
230
1
0
LINE
5
A0
100
AcDbEntity
8
1
62
256
6
ByLayer
370
18
48
1
60
0
100
AcDbLine
10
8.6
20
-46.973987
30
0
11
5.4
21
-46.973987
31
0
39
0
210
0
220
0
230
1
0
LINE
5
A1
100
AcDbEntity
8
1
62
256
6
ByLayer
370
18
48
1
60
0
100
AcDbLine
10
9.6
20
-36.18381
30
0
11
9.6
21
-35.542955
31
0
39
0
210
0
220
0
230
1
0
LINE
5
A2
100
AcDbEntity
8
1
62
256
6
ByLayer
370
18
48
1
60
0
100
AcDbLine
10
4.375
20
40.369294
30
0
11
4.400064
21
40.369294
31
0
39
0
210
0
220
0
230
1
0
LINE
5
A3
100
AcDbEntity
8
1
62
256
6
ByLayer
370
18
48
1
60
0
100
AcDbLine
10
4.375
20
40.369294
30
0
11
4.375
21
38.013252
31
0
39
0
210
0
220
0
230
1
0
LINE
5
A4
100
AcDbEntity
8
1
62
256
6
ByLayer
370
18
48
1
60
0
100
AcDbLine
10
4.375
20
40.95874
30
0
11
4.375
21
40.369294
31
0
39
0
210
0
220
0
230
1
0
LINE
5
A5
100
AcDbEntity
8
1
62
256
6
ByLayer
370
18
48
1
60
0
100
AcDbLine
10
4.375
20
40.95874
30
0
11
4.400064
21
40.958195
31
0
39
0
210
0
220
0
230
1
0
LINE
5
A6
100
AcDbEntity
8
1
62
256
6
ByLayer
370
18
48
1
60
0
100
AcDbLine
10
4.84158
20
44.744387
30
0
11
4.375
21
44.743318
31
0
39
0
210
0
220
0
230
1
0
LINE
5
A7
100
AcDbEntity
8
1
62
256
6
ByLayer
370
18
48
1
60
0
100
AcDbLine
10
4.474704
20
44.175323
30
0
11
4.375
21
44.175094
31
0
39
0
210
0
220
0
230
1
0
LINE
5
A8
100
AcDbEntity
8
1
62
256
6
ByLayer
370
18
48
1
60
0
100
AcDbLine
10
4.375
20
44.743318
30
0
11
4.375
21
44.175094
31
0
39
0
210
0
220
0
230
1
0
LINE
5
A9
100
AcDbEntity
8
1
62
256
6
ByLayer
370
18
48
1
60
0
100
AcDbLine
10
4.375
20
48.772236
30
0
11
4.915739
21
48.772236
31
0
39
0
210
0
220
0
230
1
0
LINE
5
AA
100
AcDbEntity
8
1
62
256
6
ByLayer
370
18
48
1
60
0
100
AcDbLine
10
4.375
20
41.011075
30
0
11
4.400064
21
41.011132
31
0
39
0
210
0
220
0
230
1
0
LINE
5
AB
100
AcDbEntity
8
1
62
256
6
ByLayer
370
18
48
1
60
0
100
AcDbLine
10
4.375
20
48.772236
30
0
11
4.375
21
44.743318
31
0
39
0
210
0
220
0
230
1
0
LINE
5
AC
100
AcDbEntity
8
1
62
256
6
ByLayer
370
18
48
1
60
0
100
AcDbLine
10
4.196879
20
28.551924
30
0
11
4.127787
21
30.089878
31
0
39
0
210
0
220
0
230
1
0
LINE
5
AD
100
AcDbEntity
8
1
62
256
6
ByLayer
370
13
48
1
60
0
100
AcDbLine
10
5.734696
20
32.895767
30
0
11
5.706398
21
33.055304
31
0
39
0
210
0
220
0
230
1
0
LINE
5
AE
100
AcDbEntity
8
1
62
256
6
ByLayer
370
13
48
1
60
0
100
AcDbLine
10
7.463401
20
32.999876
30
0
11
7.423871
21
33.22274
31
0
39
0
210
0
220
0
230
1
0
LINE
5
AF
100
AcDbEntity
8
1
62
256
6
ByLayer
370
13
48
1
60
0
100
AcDbLine
10
5.932342
20
32.11534
30
0
11
5.853876
21
32.557715
31
0
39
0
210
0
220
0
230
1
0
LINE
5
B0
100
AcDbEntity
8
1
62
256
6
ByLayer
370
18
48
1
60
0
100
AcDbLine
10
7.271273
20
33.199812
30
0
11
7.341509
21
32.803829
31
0
39
0
210
0
220
0
230
1
0
LINE
5
B1
100
AcDbEntity
8
1
62
256
6
ByLayer
370
13
48
1
60
0
100
AcDbLine
10
7.306447
20
32.198093
30
0
11
7.227981
21
32.640468
31
0
39
0
210
0
220
0
230
1
0
LINE
5
B2
100
AcDbEntity
8
1
62
256
6
ByLayer
370
18
48
1
60
0
100
AcDbLine
10
7.342782
20
32.754274
30
0
11
7.272546
21
33.150257
31
0
39
0
210
0
220
0
230
1
0
LINE
5
B3
100
AcDbEntity
8
1
62
256
6
ByLayer
370
18
48
1
60
0
100
AcDbLine
10
4.127787
20
30.089878
30
0
11
4.003721
21
34.919644
31
0
39
0
210
0
220
0
230
1
0
LINE
5
B4
100
AcDbEntity
8
1
62
256
6
ByLayer
370
13
48
1
60
0
100
AcDbLine
10
6.448565
20
31.88695
30
0
11
6.3701
21
32.329325
31
0
39
0
210
0
220
0
230
1
0
LINE
5
B5
100
AcDbEntity
8
1
62
256
6
ByLayer
370
13
48
1
60
0
100
AcDbLine
10
6.803534
20
31.908327
30
0
11
6.725068
21
32.350702
31
0
39
0
210
0
220
0
230
1
0
LINE
5
B6
100
AcDbEntity
8
1
62
256
6
ByLayer
370
18
48
1
60
0
100
AcDbLine
10
5.394109
20
49.965789
30
0
11
9.527861
21
49.975256
31
0
39
0
210
0
220
0
230
1
0
LINE
5
B7
100
AcDbEntity
8
1
62
256
6
ByLayer
370
18
48
1
60
0
100
AcDbLine
10
7.894182
20
-5.139455
30
0
11
7.894182
21
-5.261063
31
0
39
0
210
0
220
0
230
1
0
LINE
5
B8
100
AcDbEntity
8
1
62
256
6
ByLayer
370
18
48
1
60
0
100
AcDbLine
10
6.105818
20
-5.139455
30
0
11
6.105818
21
-5.261063
31
0
39
0
210
0
220
0
230
1
0
LINE
5
B9
100
AcDbEntity
8
1
62
256
6
ByLayer
370
18
48
1
60
0
100
AcDbLine
10
4.837073
20
44.552345
30
0
11
4.915708
21
47.894851
31
0
39
0
210
0
220
0
230
1
0
LINE
5
BA
100
AcDbEntity
8
1
62
256
6
ByLayer
370
18
48
1
60
0
100
AcDbLine
10
8.221475
20
-5.84979
30
0
11
8.221475
21
-6.426004
31
0
39
0
210
0
220
0
230
1
0
LINE
5
BB
100
AcDbEntity
8
1
62
256
6
ByLayer
370
18
48
1
60
0
100
AcDbLine
10
5.778525
20
-5.84979
30
0
11
5.778525
21
-6.426004
31
0
39
0
210
0
220
0
230
1
0
LINE
5
BC
100
AcDbEntity
8
1
62
256
6
ByLayer
370
18
48
1
60
0
100
AcDbLine
10
7.327293
20
-7.2788
30
0
11
7.327293
21
-6.702586
31
0
39
0
210
0
220
0
230
1
0
LINE
5
BD
100
AcDbEntity
8
1
62
256
6
ByLayer
370
18
48
1
60
0
100
AcDbLine
10
4.482122
20
36.45038
30
0
11
8.615874
21
36.699328
31
0
39
0
210
0
220
0
230
1
0
LINE
5
BE
100
AcDbEntity
8
1
62
256
6
ByLayer
370
18
48
1
60
0
100
AcDbLine
10
4.613625
20
38.137245
30
0
11
7.895069
21
38.334864
31
0
39
0
210
0
220
0
230
1
0
LINE
5
BF
100
AcDbEntity
8
1
62
256
6
ByLayer
370
13
48
1
60
0
100
AcDbLine
10
9.625
20
-32.205439
30
0
11
9.599936
21
-32.205439
31
0
39
0
210
0
220
0
230
1
0
LINE
5
C0
100
AcDbEntity
8
1
62
256
6
ByLayer
370
18
48
1
60
0
100
AcDbLine
10
6.672707
20
-7.2788
30
0
11
6.672707
21
-6.702586
31
0
39
0
210
0
220
0
230
1
0
LINE
5
C1
100
AcDbEntity
8
1
62
256
6
ByLayer
370
13
48
1
60
0
100
AcDbLine
10
9.625
20
-32.380347
30
0
11
9.599936
21
-32.380347
31
0
39
0
210
0
220
0
230
1
0
LINE
5
C2
100
AcDbEntity
8
1
62
256
6
ByLayer
370
13
48
1
60
0
100
AcDbLine
10
9.625
20
-32.456478
30
0
11
9.599936
21
-32.456478
31
0
39
0
210
0
220
0
230
1
0
LINE
5
C3
100
AcDbEntity
8
1
62
256
6
ByLayer
370
13
48
1
60
0
100
AcDbLine
10
9.625
20
-32.462977
30
0
11
9.599936
21
-32.462977
31
0
39
0
210
0
220
0
230
1
0
LINE
5
C4
100
AcDbEntity
8
1
62
256
6
ByLayer
370
13
48
1
60
0
100
AcDbLine
10
9.625
20
-33.510972
30
0
11
9.599936
21
-33.510972
31
0
39
0
210
0
220
0
230
1
0
LINE
5
C5
100
AcDbEntity
8
1
62
256
6
ByLayer
370
13
48
1
60
0
100
AcDbLine
10
9.625
20
-33.360978
30
0
11
9.599936
21
-33.360978
31
0
39
0
210
0
220
0
230
1
0
LINE
5
C6
100
AcDbEntity
8
1
62
256
6
ByLayer
370
13
48
1
60
0
100
AcDbLine
10
9.625
20
-33.685881
30
0
11
9.599936
21
-33.685881
31
0
39
0
210
0
220
0
230
1
0
LINE
5
C7
100
AcDbEntity
8
1
62
256
6
ByLayer
370
18
48
1
60
0
100
AcDbLine
10
9.625
20
-32.196455
30
0
11
9.625
21
-32.205439
31
0
39
0
210
0
220
0
230
1
0
LINE
5
C8
100
AcDbEntity
8
1
62
256
6
ByLayer
370
13
48
1
60
0
100
AcDbLine
10
9.625
20
-32.719252
30
0
11
9.599936
21
-32.719252
31
0
39
0
210
0
220
0
230
1
0
LINE
5
C9
100
AcDbEntity
8
1
62
256
6
ByLayer
370
18
48
1
60
0
100
AcDbLine
10
9.625
20
-32.380347
30
0
11
9.625
21
-32.205439
31
0
39
0
210
0
220
0
230
1
0
LINE
5
CA
100
AcDbEntity
8
1
62
256
6
ByLayer
370
13
48
1
60
0
100
AcDbLine
10
9.625
20
-33.762012
30
0
11
9.599936
21
-33.762012
31
0
39
0
210
0
220
0
230
1
0
LINE
5
CB
100
AcDbEntity
8
1
62
256
6
ByLayer
370
18
48
1
60
0
100
AcDbLine
10
9.625
20
-32.456478
30
0
11
9.625
21
-32.380347
31
0
39
0
210
0
220
0
230
1
0
LINE
5
CC
100
AcDbEntity
8
1
62
256
6
ByLayer
370
13
48
1
60
0
100
AcDbLine
10
9.625
20
-33.768511
30
0
11
9.599936
21
-33.768511
31
0
39
0
210
0
220
0
230
1
0
LINE
5
CD
100
AcDbEntity
8
1
62
256
6
ByLayer
370
18
48
1
60
0
100
AcDbLine
10
9.625
20
-32.462977
30
0
11
9.625
21
-32.456478
31
0
39
0
210
0
220
0
230
1
0
LINE
5
CE
100
AcDbEntity
8
1
62
256
6
ByLayer
370
18
48
1
60
0
100
AcDbLine
10
9.625
20
-33.510972
30
0
11
9.625
21
-33.360978
31
0
39
0
210
0
220
0
230
1
0
LINE
5
CF
100
AcDbEntity
8
1
62
256
6
ByLayer
370
13
48
1
60
0
100
AcDbLine
10
9.625
20
-34.816506
30
0
11
9.599936
21
-34.816506
31
0
39
0
210
0
220
0
230
1
0
LINE
5
D0
100
AcDbEntity
8
1
62
256
6
ByLayer
370
13
48
1
60
0
100
AcDbLine
10
9.625
20
-34.666512
30
0
11
9.599936
21
-34.666512
31
0
39
0
210
0
220
0
230
1
0
LINE
5
D1
100
AcDbEntity
8
1
62
256
6
ByLayer
370
18
48
1
60
0
100
AcDbLine
10
9.625
20
-33.510972
30
0
11
9.625
21
-33.685881
31
0
39
0
210
0
220
0
230
1
0
LINE
5
D2
100
AcDbEntity
8
1
62
256
6
ByLayer
370
13
48
1
60
0
100
AcDbLine
10
9.625
20
-34.991414
30
0
11
9.599936
21
-34.991414
31
0
39
0
210
0
220
0
230
1
0
LINE
5
D3
100
AcDbEntity
8
1
62
256
6
ByLayer
370
18
48
1
60
0
100
AcDbLine
10
9.625
20
-33.360978
30
0
11
9.625
21
-32.719252
31
0
39
0
210
0
220
0
230
1
0
LINE
5
D4
100
AcDbEntity
8
1
62
256
6
ByLayer
370
13
48
1
60
0
100
AcDbLine
10
9.625
20
-34.024786
30
0
11
9.599936
21
-34.024786
31
0
39
0
210
0
220
0
230
1
0
LINE
5
D5
100
AcDbEntity
8
1
62
256
6
ByLayer
370
18
48
1
60
0
100
AcDbLine
10
9.625
20
-33.685881
30
0
11
9.625
21
-33.762012
31
0
39
0
210
0
220
0
230
1
0
LINE
5
D6
100
AcDbEntity
8
1
62
256
6
ByLayer
370
13
48
1
60
0
100
AcDbLine
10
9.625
20
-35.067545
30
0
11
9.599936
21
-35.067545
31
0
39
0
210
0
220
0
230
1
0
LINE
5
D7
100
AcDbEntity
8
1
62
256
6
ByLayer
370
18
48
1
60
0
100
AcDbLine
10
9.625
20
-33.762012
30
0
11
9.625
21
-33.768511
31
0
39
0
210
0
220
0
230
1
0
LINE
5
D8
100
AcDbEntity
8
1
62
256
6
ByLayer
370
18
48
1
60
0
100
AcDbLine
10
9.625
20
-32.719252
30
0
11
9.625
21
-32.462977
31
0
39
0
210
0
220
0
230
1
0
LINE
5
D9
100
AcDbEntity
8
1
62
256
6
ByLayer
370
18
48
1
60
0
100
AcDbLine
10
9.625
20
-34.666512
30
0
11
9.625
21
-34.816506
31
0
39
0
210
0
220
0
230
1
0
LINE
5
DA
100
AcDbEntity
8
1
62
256
6
ByLayer
370
18
48
1
60
0
100
AcDbLine
10
9.625
20
-34.991414
30
0
11
9.625
21
-34.816506
31
0
39
0
210
0
220
0
230
1
0
LINE
5
DB
100
AcDbEntity
8
1
62
256
6
ByLayer
370
13
48
1
60
0
100
AcDbLine
10
9.599936
20
-37.85007
30
0
11
9.625
21
-37.85007
31
0
39
0
210
0
220
0
230
1
0
LINE
5
DC
100
AcDbEntity
8
1
62
256
6
ByLayer
370
18
48
1
60
0
100
AcDbLine
10
9.625
20
-34.024786
30
0
11
9.625
21
-34.666512
31
0
39
0
210
0
220
0
230
1
0
LINE
5
DD
100
AcDbEntity
8
1
62
256
6
ByLayer
370
13
48
1
60
0
100
AcDbLine
10
9.625
20
-38.733107
30
0
11
9.599936
21
-38.733107
31
0
39
0
210
0
220
0
230
1
0
LINE
5
DE
100
AcDbEntity
8
1
62
256
6
ByLayer
370
13
48
1
60
0
100
AcDbLine
10
9.625
20
-38.583112
30
0
11
9.599936
21
-38.583112
31
0
39
0
210
0
220
0
230
1
0
LINE
5
DF
100
AcDbEntity
8
1
62
256
6
ByLayer
370
18
48
1
60
0
100
AcDbLine
10
9.625
20
-35.067545
30
0
11
9.625
21
-34.991414
31
0
39
0
210
0
220
0
230
1
0
LINE
5
E0
100
AcDbEntity
8
1
62
256
6
ByLayer
370
13
48
1
60
0
100
AcDbLine
10
9.625
20
-38.908015
30
0
11
9.599936
21
-38.908015
31
0
39
0
210
0
220
0
230
1
0
LINE
5
E1
100
AcDbEntity
8
1
62
256
6
ByLayer
370
18
48
1
60
0
100
AcDbLine
10
9.625
20
-35.073996
30
0
11
9.599936
21
-35.073996
31
0
39
0
210
0
220
0
230
1
0
LINE
5
E2
100
AcDbEntity
8
1
62
256
6
ByLayer
370
18
48
1
60
0
100
AcDbLine
10
9.625
20
-35.073996
30
0
11
9.625
21
-35.067545
31
0
39
0
210
0
220
0
230
1
0
LINE
5
E3
100
AcDbEntity
8
1
62
256
6
ByLayer
370
18
48
1
60
0
100
AcDbLine
10
8.156448
20
1.001622
30
0
11
8.157767
21
1.016588
31
0
39
0
210
0
220
0
230
1
0
LINE
5
E4
100
AcDbEntity
8
1
62
256
6
ByLayer
370
18
48
1
60
0
100
AcDbLine
10
9.625
20
-33.768511
30
0
11
9.625
21
-34.024786
31
0
39
0
210
0
220
0
230
1
0
LINE
5
E5
100
AcDbEntity
8
1
62
256
6
ByLayer
370
13
48
1
60
0
100
AcDbLine
10
9.625
20
-38.984146
30
0
11
9.599936
21
-38.984146
31
0
39
0
210
0
220
0
230
1
0
LINE
5
E6
100
AcDbEntity
8
1
62
256
6
ByLayer
370
18
48
1
60
0
100
AcDbLine
10
9.625
20
-35.074024
30
0
11
9.625
21
-37.85007
31
0
39
0
210
0
220
0
230
1
0
LINE
5
E7
100
AcDbEntity
8
1
62
256
6
ByLayer
370
13
48
1
60
0
100
AcDbLine
10
9.625
20
-38.990645
30
0
11
9.599936
21
-38.990645
31
0
39
0
210
0
220
0
230
1
0
LINE
5
E8
100
AcDbEntity
8
1
62
256
6
ByLayer
370
18
48
1
60
0
100
AcDbLine
10
9.625
20
-38.733107
30
0
11
9.625
21
-38.583112
31
0
39
0
210
0
220
0
230
1
0
LINE
5
E9
100
AcDbEntity
8
1
62
256
6
ByLayer
370
13
48
1
60
0
100
AcDbLine
10
9.599936
20
-37.877325
30
0
11
9.625
21
-37.877325
31
0
39
0
210
0
220
0
230
1
0
LINE
5
EA
100
AcDbEntity
8
1
62
256
6
ByLayer
370
18
48
1
60
0
100
AcDbLine
10
9.625
20
-38.733107
30
0
11
9.625
21
-38.908015
31
0
39
0
210
0
220
0
230
1
0
LINE
5
EB
100
AcDbEntity
8
1
62
256
6
ByLayer
370
18
48
1
60
0
100
AcDbLine
10
9.599936
20
-37.94617
30
0
11
9.625
21
-37.94617
31
0
39
0
210
0
220
0
230
1
0
LINE
5
EC
100
AcDbEntity
8
1
62
256
6
ByLayer
370
13
48
1
60
0
100
AcDbLine
10
9.625
20
-40.03864
30
0
11
9.599936
21
-40.03864
31
0
39
0
210
0
220
0
230
1
0
LINE
5
ED
100
AcDbEntity
8
1
62
256
6
ByLayer
370
13
48
1
60
0
100
AcDbLine
10
9.625
20
-39.888646
30
0
11
9.599936
21
-39.888646
31
0
39
0
210
0
220
0
230
1
0
LINE
5
EE
100
AcDbEntity
8
1
62
256
6
ByLayer
370
18
48
1
60
0
100
AcDbLine
10
9.625
20
-38.583112
30
0
11
9.625
21
-37.94617
31
0
39
0
210
0
220
0
230
1
0
LINE
5
EF
100
AcDbEntity
8
1
62
256
6
ByLayer
370
13
48
1
60
0
100
AcDbLine
10
9.625
20
-40.213548
30
0
11
9.599936
21
-40.213548
31
0
39
0
210
0
220
0
230
1
0
LINE
5
F0
100
AcDbEntity
8
1
62
256
6
ByLayer
370
18
48
1
60
0
100
AcDbLine
10
9.625
20
-38.908015
30
0
11
9.625
21
-38.984146
31
0
39
0
210
0
220
0
230
1
0
LINE
5
F1
100
AcDbEntity
8
1
62
256
6
ByLayer
370
13
48
1
60
0
100
AcDbLine
10
9.625
20
-39.24692
30
0
11
9.599936
21
-39.24692
31
0
39
0
210
0
220
0
230
1
0
LINE
5
F2
100
AcDbEntity
8
1
62
256
6
ByLayer
370
18
48
1
60
0
100
AcDbLine
10
9.625
20
-38.984146
30
0
11
9.625
21
-38.990645
31
0
39
0
210
0
220
0
230
1
0
LINE
5
F3
100
AcDbEntity
8
1
62
256
6
ByLayer
370
13
48
1
60
0
100
AcDbLine
10
9.625
20
-40.289679
30
0
11
9.599936
21
-40.289679
31
0
39
0
210
0
220
0
230
1
0
LINE
5
F4
100
AcDbEntity
8
1
62
256
6
ByLayer
370
18
48
1
60
0
100
AcDbLine
10
9.625
20
-37.877325
30
0
11
9.625
21
-37.94617
31
0
39
0
210
0
220
0
230
1
0
LINE
5
F5
100
AcDbEntity
8
1
62
256
6
ByLayer
370
13
48
1
60
0
100
AcDbLine
10
9.625
20
-40.296179
30
0
11
9.599936
21
-40.296179
31
0
39
0
210
0
220
0
230
1
0
LINE
5
F6
100
AcDbEntity
8
1
62
256
6
ByLayer
370
18
48
1
60
0
100
AcDbLine
10
9.625
20
-37.85007
30
0
11
9.625
21
-37.877325
31
0
39
0
210
0
220
0
230
1
0
LINE
5
F7
100
AcDbEntity
8
1
62
256
6
ByLayer
370
18
48
1
60
0
100
AcDbLine
10
9.625
20
-39.888646
30
0
11
9.625
21
-40.03864
31
0
39
0
210
0
220
0
230
1
0
LINE
5
F8
100
AcDbEntity
8
1
62
256
6
ByLayer
370
13
48
1
60
0
100
AcDbLine
10
9.625
20
-40.552454
30
0
11
9.612754
21
-40.552454
31
0
39
0
210
0
220
0
230
1
0
LINE
5
F9
100
AcDbEntity
8
1
62
256
6
ByLayer
370
18
48
1
60
0
100
AcDbLine
10
9.625
20
-40.213548
30
0
11
9.625
21
-40.03864
31
0
39
0
210
0
220
0
230
1
0
LINE
5
FA
100
AcDbEntity
8
1
62
256
6
ByLayer
370
18
48
1
60
0
100
AcDbLine
10
6.671848
20
1.184588
30
0
11
6.667201
21
1.131869
31
0
39
0
210
0
220
0
230
1
0
LINE
5
FB
100
AcDbEntity
8
1
62
256
6
ByLayer
370
18
48
1
60
0
100
AcDbLine
10
9.625
20
-39.24692
30
0
11
9.625
21
-39.888646
31
0
39
0
210
0
220
0
230
1
0
LINE
5
FC
100
AcDbEntity
8
1
62
256
6
ByLayer
370
18
48
1
60
0
100
AcDbLine
10
9.625
20
-40.289679
30
0
11
9.625
21
-40.213548
31
0
39
0
210
0
220
0
230
1
0
LINE
5
FD
100
AcDbEntity
8
1
62
256
6
ByLayer
370
18
48
1
60
0
100
AcDbLine
10
9.625
20
-40.296179
30
0
11
9.625
21
-40.289679
31
0
39
0
210
0
220
0
230
1
0
LINE
5
FE
100
AcDbEntity
8
1
62
256
6
ByLayer
370
18
48
1
60
0
100
AcDbLine
10
9.625
20
-38.990645
30
0
11
9.625
21
-39.24692
31
0
39
0
210
0
220
0
230
1
0
LINE
5
FF
100
AcDbEntity
8
1
62
256
6
ByLayer
370
18
48
1
60
0
100
AcDbLine
10
4.722696
20
-0.458789
30
0
11
4.791641
21
0.365734
31
0
39
0
210
0
220
0
230
1
0
LINE
5
100
100
AcDbEntity
8
1
62
256
6
ByLayer
370
18
48
1
60
0
100
AcDbLine
10
9.625
20
-16.908479
30
0
11
9.625
21
-16.889033
31
0
39
0
210
0
220
0
230
1
0
LINE
5
101
100
AcDbEntity
8
1
62
256
6
ByLayer
370
18
48
1
60
0
100
AcDbLine
10
4.398914
20
27.571966
30
0
11
4.400002
21
27.564457
31
0
39
0
210
0
220
0
230
1
0
LINE
5
102
100
AcDbEntity
8
1
62
256
6
ByLayer
370
18
48
1
60
0
100
AcDbLine
10
4.329094
20
28.249243
30
0
11
4.398914
21
27.571966
31
0
39
0
210
0
220
0
230
1
0
LINE
5
103
100
AcDbEntity
8
1
62
256
6
ByLayer
370
18
48
1
60
0
100
AcDbLine
10
4.121468
20
30.335888
30
0
11
4.003721
21
32.830311
31
0
39
0
210
0
220
0
230
1
0
LINE
5
104
100
AcDbEntity
8
1
62
256
6
ByLayer
370
18
48
1
60
0
100
AcDbLine
10
4.003721
20
32.830311
30
0
11
4.05749
21
32.826899
31
0
39
0
210
0
220
0
230
1
0
LINE
5
105
100
AcDbEntity
8
1
62
256
6
ByLayer
370
18
48
1
60
0
100
AcDbLine
10
9.599999
20
-41.637726
30
0
11
9.611069
21
-41.790101
31
0
39
0
210
0
220
0
230
1
0
LINE
5
106
100
AcDbEntity
8
1
62
256
6
ByLayer
370
18
48
1
60
0
100
AcDbLine
10
9.611069
20
-41.790101
30
0
11
9.735136
21
-47.063752
31
0
39
0
210
0
220
0
230
1
0
LINE
5
107
100
AcDbEntity
8
1
62
256
6
ByLayer
370
18
48
1
60
0
100
AcDbLine
10
9.735136
20
-47.063752
30
0
11
9.693114
21
-48.704306
31
0
39
0
210
0
220
0
230
1
0
LINE
5
108
100
AcDbEntity
8
1
62
256
6
ByLayer
370
18
48
1
60
0
100
AcDbLine
10
6.114914
20
-48.973048
30
0
11
9.396358
21
-48.980563
31
0
39
0
210
0
220
0
230
1
0
LINE
5
109
100
AcDbEntity
8
1
62
256
6
ByLayer
370
18
48
1
60
0
100
AcDbLine
10
5.394109
20
-49.965789
30
0
11
9.527861
21
-49.975256
31
0
39
0
210
0
220
0
230
1
0
LINE
5
10A
100
AcDbEntity
8
1
62
256
6
ByLayer
370
18
48
1
60
0
100
AcDbLine
10
4.915748
20
-48.772219
30
0
11
4.915781
21
-49.478101
31
0
39
0
210
0
220
0
230
1
0
LINE
5
10B
100
AcDbEntity
8
1
62
256
6
ByLayer
370
18
48
1
60
0
100
AcDbLine
10
10.006262
20
-47.906509
30
0
11
9.735136
21
-47.063752
31
0
39
0
210
0
220
0
230
1
0
LINE
5
10C
100
AcDbEntity
8
1
62
256
6
ByLayer
370
18
48
1
60
0
100
AcDbLine
10
4.127787
20
-30.089878
30
0
11
4.121468
21
-30.335894
31
0
39
0
210
0
220
0
230
1
0
LINE
5
10D
100
AcDbEntity
8
1
62
256
6
ByLayer
370
18
48
1
60
0
100
AcDbLine
10
4.026983
20
-34.014063
30
0
11
4.003721
21
-34.919644
31
0
39
0
210
0
220
0
230
1
0
LINE
5
10E
100
AcDbEntity
8
1
62
256
6
ByLayer
370
18
48
1
60
0
100
AcDbLine
10
10.006189
20
-49.489759
30
0
11
10.006262
21
-47.906509
31
0
39
0
210
0
220
0
230
1
0
LINE
5
10F
100
AcDbEntity
8
1
62
256
6
ByLayer
370
18
48
1
60
0
100
AcDbLine
10
10.006262
20
-47.906509
30
0
11
9.882196
21
-42.632859
31
0
39
0
210
0
220
0
230
1
0
LINE
5
110
100
AcDbEntity
8
1
62
256
6
ByLayer
370
18
48
1
60
0
100
AcDbLine
10
9.882196
20
-42.632859
30
0
11
9.611069
21
-41.790101
31
0
39
0
210
0
220
0
230
1
0
LINE
5
111
100
AcDbEntity
8
1
62
256
6
ByLayer
370
18
48
1
60
0
100
AcDbLine
10
9.882196
20
-42.632859
30
0
11
9.813104
21
-41.282374
31
0
39
0
210
0
220
0
230
1
0
LINE
5
112
100
AcDbEntity
8
1
62
256
6
ByLayer
370
18
48
1
60
0
100
AcDbLine
10
4.375
20
0.760121
30
0
11
4.375
21
2.042609
31
0
39
0
210
0
220
0
230
1
0
LINE
5
113
100
AcDbEntity
8
1
62
256
6
ByLayer
370
18
48
1
60
0
100
AcDbLine
10
4.375
20
0.717371
30
0
11
4.375
21
0.760121
31
0
39
0
210
0
220
0
230
1
0
LINE
5
114
100
AcDbEntity
8
1
62
256
6
ByLayer
370
18
48
1
60
0
100
AcDbLine
10
7.894182
20
22.322512
30
0
11
7.894182
21
22.424265
31
0
39
0
210
0
220
0
230
1
0
LINE
5
115
100
AcDbEntity
8
1
62
256
6
ByLayer
370
18
48
1
60
0
100
AcDbLine
10
6.105818
20
22.322512
30
0
11
6.105818
21
22.424265
31
0
39
0
210
0
220
0
230
1
0
LINE
5
116
100
AcDbEntity
8
1
62
256
6
ByLayer
370
18
48
1
60
0
100
AcDbLine
10
4.375
20
0.760121
30
0
11
4.820023
21
0.7212
31
0
39
0
210
0
220
0
230
1
0
LINE
5
117
100
AcDbEntity
8
1
62
256
6
ByLayer
370
18
48
1
60
0
100
AcDbLine
10
5.778525
20
23.507726
30
0
11
5.778525
21
22.927114
31
0
39
0
210
0
220
0
230
1
0
LINE
5
118
100
AcDbEntity
8
1
62
256
6
ByLayer
370
18
48
1
60
0
100
AcDbLine
10
8.221475
20
23.507726
30
0
11
8.221475
21
22.927114
31
0
39
0
210
0
220
0
230
1
0
LINE
5
119
100
AcDbEntity
8
1
62
256
6
ByLayer
370
18
48
1
60
0
100
AcDbLine
10
9.882196
20
42.632859
30
0
11
9.813104
21
41.282374
31
0
39
0
210
0
220
0
230
1
0
LINE
5
11A
100
AcDbEntity
8
1
62
256
6
ByLayer
370
18
48
1
60
0
100
AcDbLine
10
7.327293
20
24.300875
30
0
11
7.327293
21
23.416069
31
0
39
0
210
0
220
0
230
1
0
LINE
5
11B
100
AcDbEntity
8
1
62
256
6
ByLayer
370
18
48
1
60
0
100
AcDbLine
10
6.672707
20
24.300875
30
0
11
6.672707
21
23.416069
31
0
39
0
210
0
220
0
230
1
0
LINE
5
11C
100
AcDbEntity
8
1
62
256
6
ByLayer
370
18
48
1
60
0
100
AcDbLine
10
4.196879
20
-28.551924
30
0
11
4.127787
21
-30.089878
31
0
39
0
210
0
220
0
230
1
0
LINE
5
11D
100
AcDbEntity
8
1
62
256
6
ByLayer
370
18
48
1
60
0
100
AcDbLine
10
10.006189
20
1.518656
30
0
11
10.006262
21
1.47719
31
0
39
0
210
0
220
0
230
1
0
LINE
5
11E
100
AcDbEntity
8
1
62
256
6
ByLayer
370
18
48
1
60
0
100
AcDbLine
10
4.915708
20
1.922404
30
0
11
10.006262
21
1.47719
31
0
39
0
210
0
220
0
230
1
0
LINE
5
11F
100
AcDbEntity
8
1
62
256
6
ByLayer
370
18
48
1
60
0
100
AcDbLine
10
4.915708
20
1.922404
30
0
11
4.915781
21
1.963856
31
0
39
0
210
0
220
0
230
1
0
LINE
5
120
100
AcDbEntity
8
1
62
256
6
ByLayer
370
18
48
1
60
0
100
AcDbLine
10
5.394109
20
1.934764
30
0
11
9.527861
21
1.573231
31
0
39
0
210
0
220
0
230
1
0
LINE
5
121
100
AcDbEntity
8
1
62
256
6
ByLayer
370
18
48
1
60
0
100
AcDbLine
10
4.791641
20
0.365734
30
0
11
9.882196
21
-0.079479
31
0
39
0
210
0
220
0
230
1
0
LINE
5
122
100
AcDbEntity
8
1
62
256
6
ByLayer
370
18
48
1
60
0
100
AcDbLine
10
6.114914
20
5.240502
30
0
11
9.396358
21
4.953511
31
0
39
0
210
0
220
0
230
1
0
LINE
5
123
100
AcDbEntity
8
1
62
256
6
ByLayer
370
18
48
1
60
0
100
AcDbLine
10
10.006262
20
1.47719
30
0
11
9.882196
21
-0.079479
31
0
39
0
210
0
220
0
230
1
0
LINE
5
124
100
AcDbEntity
8
1
62
256
6
ByLayer
370
18
48
1
60
0
100
AcDbLine
10
9.882196
20
-0.079479
30
0
11
9.813104
21
-0.90399
31
0
39
0
210
0
220
0
230
1
0
LINE
5
125
100
AcDbEntity
8
1
62
256
6
ByLayer
370
18
48
1
60
0
100
AcDbLine
10
9.313564
20
-1.115561
30
0
11
5.179812
21
-0.754029
31
0
39
0
210
0
220
0
230
1
0
LINE
5
126
100
AcDbEntity
8
1
62
256
6
ByLayer
370
18
48
1
60
0
100
AcDbLine
10
4.791641
20
0.365734
30
0
11
4.915708
21
1.922404
31
0
39
0
210
0
220
0
230
1
0
LINE
5
127
100
AcDbEntity
8
1
62
256
6
ByLayer
370
18
48
1
60
0
100
AcDbLine
10
4.003721
20
-32.830311
30
0
11
4.003794
21
-33.920517
31
0
39
0
210
0
220
0
230
1
0
LINE
5
128
100
AcDbEntity
8
1
62
256
6
ByLayer
370
18
48
1
60
0
100
AcDbLine
10
9.094276
20
-32.507254
30
0
11
9.107425
21
-32.228695
31
0
39
0
210
0
220
0
230
1
0
LINE
5
129
100
AcDbEntity
8
1
62
256
6
ByLayer
370
13
48
1
60
0
100
AcDbLine
10
6.546582
20
1.141034
30
0
11
6.547548
21
1.151991
31
0
39
0
210
0
220
0
230
1
0
LINE
5
12A
100
AcDbEntity
8
1
62
256
6
ByLayer
370
13
48
1
60
0
100
AcDbLine
10
8.275287
20
0.989843
30
0
11
8.276204
21
1.000244
31
0
39
0
210
0
220
0
230
1
0
LINE
5
12B
100
AcDbEntity
8
1
62
256
6
ByLayer
370
18
48
1
60
0
100
AcDbLine
10
4.127787
20
-30.202008
30
0
11
4.003721
21
-32.830311
31
0
39
0
210
0
220
0
230
1
0
LINE
5
12C
100
AcDbEntity
8
1
62
256
6
ByLayer
370
18
48
1
60
0
100
AcDbLine
10
4.127787
20
-30.202008
30
0
11
4.398914
21
-27.571966
31
0
39
0
210
0
220
0
230
1
0
LINE
5
12D
100
AcDbEntity
8
1
62
256
6
ByLayer
370
13
48
1
60
0
100
AcDbLine
10
8.077642
20
0.750105
30
0
11
8.106162
21
1.073693
31
0
39
0
210
0
220
0
230
1
0
LINE
5
12E
100
AcDbEntity
8
1
62
256
6
ByLayer
370
13
48
1
60
0
100
AcDbLine
10
6.703537
20
0.870282
30
0
11
6.732203
21
1.195525
31
0
39
0
210
0
220
0
230
1
0
LINE
5
12F
100
AcDbEntity
8
1
62
256
6
ByLayer
370
18
48
1
60
0
100
AcDbLine
10
8.160871
20
1.053341
30
0
11
8.15772
21
1.017594
31
0
39
0
210
0
220
0
230
1
0
LINE
5
130
100
AcDbEntity
8
1
62
256
6
ByLayer
370
18
48
1
60
0
100
AcDbLine
10
6.668474
20
1.147841
30
0
11
6.67171
21
1.18456
31
0
39
0
210
0
220
0
230
1
0
LINE
5
131
100
AcDbEntity
8
1
62
256
6
ByLayer
370
13
48
1
60
0
100
AcDbLine
10
7.561418
20
0.711168
30
0
11
7.603524
21
1.188879
31
0
39
0
210
0
220
0
230
1
0
LINE
5
132
100
AcDbEntity
8
1
62
256
6
ByLayer
370
13
48
1
60
0
100
AcDbLine
10
7.20645
20
0.742213
30
0
11
7.248594
21
1.220369
31
0
39
0
210
0
220
0
230
1
0
LINE
5
133
100
AcDbEntity
8
1
62
256
6
ByLayer
370
13
48
1
60
0
100
AcDbLine
10
9.086814
20
11.588362
30
0
11
4.913186
21
11.588362
31
0
39
0
210
0
220
0
230
1
0
LINE
5
134
100
AcDbEntity
8
1
62
256
6
ByLayer
370
13
48
1
60
0
100
AcDbLine
10
5.4
20
18.494425
30
0
11
5.4
21
11.703737
31
0
39
0
210
0
220
0
230
1
0
LINE
5
135
100
AcDbEntity
8
1
62
256
6
ByLayer
370
18
48
1
60
0
100
AcDbLine
10
9.625
20
30.451597
30
0
11
9.625
21
30.979296
31
0
39
0
210
0
220
0
230
1
0
LINE
5
136
100
AcDbEntity
8
1
62
256
6
ByLayer
370
18
48
1
60
0
100
AcDbLine
10
4.4
20
11.55383
30
0
11
4.4
21
18.350721
31
0
39
0
210
0
220
0
230
1
0
LINE
5
137
100
AcDbEntity
8
1
62
256
6
ByLayer
370
13
48
1
60
0
100
AcDbLine
10
8.6
20
11.703737
30
0
11
8.6
21
18.494425
31
0
39
0
210
0
220
0
230
1
0
LINE
5
138
100
AcDbEntity
8
1
62
256
6
ByLayer
370
18
48
1
60
0
100
AcDbLine
10
9.625
20
30.179758
30
0
11
9.625
21
30.451597
31
0
39
0
210
0
220
0
230
1
0
LINE
5
139
100
AcDbEntity
8
1
62
256
6
ByLayer
370
18
48
1
60
0
100
AcDbLine
10
8.6
20
11.703737
30
0
11
5.4
21
11.703737
31
0
39
0
210
0
220
0
230
1
0
LINE
5
13A
100
AcDbEntity
8
1
62
256
6
ByLayer
370
18
48
1
60
0
100
AcDbLine
10
9.6
20
18.350721
30
0
11
9.6
21
11.55383
31
0
39
0
210
0
220
0
230
1
0
LINE
5
13B
100
AcDbEntity
8
1
62
256
6
ByLayer
370
18
48
1
60
0
100
AcDbLine
10
5.4
20
18.494425
30
0
11
8.6
21
18.494425
31
0
39
0
210
0
220
0
230
1
0
LINE
5
13C
100
AcDbEntity
8
1
62
256
6
ByLayer
370
18
48
1
60
0
100
AcDbLine
10
4.4
20
19.502047
30
0
11
5.6
21
19.502047
31
0
39
0
210
0
220
0
230
1
0
LINE
5
13D
100
AcDbEntity
8
1
62
256
6
ByLayer
370
18
48
1
60
0
100
AcDbLine
10
5.5
20
19.443884
30
0
11
5.5
21
18.494429
31
0
39
0
210
0
220
0
230
1
0
LINE
5
13E
100
AcDbEntity
8
1
62
256
6
ByLayer
370
18
48
1
60
0
100
AcDbLine
10
9.625
20
28.992496
30
0
11
9.625
21
29.124421
31
0
39
0
210
0
220
0
230
1
0
LINE
5
13F
100
AcDbEntity
8
1
62
256
6
ByLayer
370
18
48
1
60
0
100
AcDbLine
10
8.5
20
18.494429
30
0
11
8.5
21
19.443884
31
0
39
0
210
0
220
0
230
1
0
LINE
5
140
100
AcDbEntity
8
1
62
256
6
ByLayer
370
18
48
1
60
0
100
AcDbLine
10
8.4
20
19.502047
30
0
11
9.6
21
19.502047
31
0
39
0
210
0
220
0
230
1
0
LINE
5
141
100
AcDbEntity
8
1
62
256
6
ByLayer
370
18
48
1
60
0
100
AcDbLine
10
4.4
20
-24.343451
30
0
11
4.4
21
-17.934952
31
0
39
0
210
0
220
0
230
1
0
LINE
5
142
100
AcDbEntity
8
1
62
256
6
ByLayer
370
18
48
1
60
0
100
AcDbLine
10
5.4
20
-18.557015
30
0
11
8.6
21
-18.557015
31
0
39
0
210
0
220
0
230
1
0
LINE
5
143
100
AcDbEntity
8
1
62
256
6
ByLayer
370
18
48
1
60
0
100
AcDbLine
10
4.4
20
-11.795788
30
0
11
5.6
21
-11.795788
31
0
39
0
210
0
220
0
230
1
0
LINE
5
144
100
AcDbEntity
8
1
62
256
6
ByLayer
370
18
48
1
60
0
100
AcDbLine
10
5.5
20
-11.933243
30
0
11
5.5
21
-15.617258
31
0
39
0
210
0
220
0
230
1
0
LINE
5
145
100
AcDbEntity
8
1
62
256
6
ByLayer
370
13
48
1
60
0
100
AcDbLine
10
5.4
20
-18.557015
30
0
11
5.4
21
-24.939833
31
0
39
0
210
0
220
0
230
1
0
LINE
5
146
100
AcDbEntity
8
1
62
256
6
ByLayer
370
18
48
1
60
0
100
AcDbLine
10
8.5
20
-15.617258
30
0
11
8.5
21
-11.933243
31
0
39
0
210
0
220
0
230
1
0
LINE
5
147
100
AcDbEntity
8
1
62
256
6
ByLayer
370
18
48
1
60
0
100
AcDbLine
10
9.203979
20
30.95394
30
0
11
9.625
21
30.979296
31
0
39
0
210
0
220
0
230
1
0
LINE
5
148
100
AcDbEntity
8
1
62
256
6
ByLayer
370
18
48
1
60
0
100
AcDbLine
10
8.4
20
-11.795788
30
0
11
9.6
21
-11.795788
31
0
39
0
210
0
220
0
230
1
0
LINE
5
149
100
AcDbEntity
8
1
62
256
6
ByLayer
370
18
48
1
60
0
100
AcDbLine
10
4.4
20
18.35073
30
0
11
4.4
21
19.502047
31
0
39
0
210
0
220
0
230
1
0
LINE
5
14A
100
AcDbEntity
8
1
62
256
6
ByLayer
370
18
48
1
60
0
100
AcDbLine
10
9.6
20
18.35073
30
0
11
9.6
21
19.502047
31
0
39
0
210
0
220
0
230
1
0
LINE
5
14B
100
AcDbEntity
8
1
62
256
6
ByLayer
370
13
48
1
60
0
100
AcDbLine
10
8.6
20
-24.939833
30
0
11
8.6
21
-18.557015
31
0
39
0
210
0
220
0
230
1
0
LINE
5
14C
100
AcDbEntity
8
1
62
256
6
ByLayer
370
18
48
1
60
0
100
AcDbLine
10
4.4
20
-11.795788
30
0
11
4.4
21
-17.934952
31
0
39
0
210
0
220
0
230
1
0
LINE
5
14D
100
AcDbEntity
8
1
62
256
6
ByLayer
370
18
48
1
60
0
100
AcDbLine
10
9.6
20
-17.934952
30
0
11
9.6
21
-11.795788
31
0
39
0
210
0
220
0
230
1
0
LINE
5
14E
100
AcDbEntity
8
1
62
256
6
ByLayer
370
13
48
1
60
0
100
AcDbLine
10
9.086814
20
-24.949505
30
0
11
4.913186
21
-24.949505
31
0
39
0
210
0
220
0
230
1
0
LINE
5
14F
100
AcDbEntity
8
1
62
256
6
ByLayer
370
13
48
1
60
0
100
AcDbLine
10
5.6
20
-11.795788
30
0
11
5.6
21
-14.417055
31
0
39
0
210
0
220
0
230
1
0
LINE
5
150
100
AcDbEntity
8
1
62
256
6
ByLayer
370
13
48
1
60
0
100
AcDbLine
10
8.4
20
-14.417055
30
0
11
8.4
21
-11.795788
31
0
39
0
210
0
220
0
230
1
0
LINE
5
151
100
AcDbEntity
8
1
62
256
6
ByLayer
370
18
48
1
60
0
100
AcDbLine
10
9.6
20
-17.934952
30
0
11
9.6
21
-24.343451
31
0
39
0
210
0
220
0
230
1
0
LINE
5
152
100
AcDbEntity
8
1
62
256
6
ByLayer
370
18
48
1
60
0
100
AcDbLine
10
8.6
20
-24.939833
30
0
11
5.4
21
-24.939833
31
0
39
0
210
0
220
0
230
1
0
LINE
5
153
100
AcDbEntity
8
1
62
256
6
ByLayer
370
18
48
1
60
0
100
AcDbLine
10
5.6
20
-11.795788
30
0
11
8.4
21
-11.795788
31
0
39
0
210
0
220
0
230
1
0
LINE
5
154
100
AcDbEntity
8
1
62
256
6
ByLayer
370
18
48
1
60
0
100
AcDbLine
10
4.4
20
-11.100301
30
0
11
4.45005
21
-11.100301
31
0
39
0
210
0
220
0
230
1
0
LINE
5
155
100
AcDbEntity
8
1
62
256
6
ByLayer
370
13
48
1
60
0
100
AcDbLine
10
8.4
20
18.494412
30
0
11
8.4
21
19.502047
31
0
39
0
210
0
220
0
230
1
0
LINE
5
156
100
AcDbEntity
8
1
62
256
6
ByLayer
370
13
48
1
60
0
100
AcDbLine
10
5.6
20
19.502047
30
0
11
5.6
21
18.494412
31
0
39
0
210
0
220
0
230
1
0
LINE
5
157
100
AcDbEntity
8
1
62
256
6
ByLayer
370
18
48
1
60
0
100
AcDbLine
10
4.4
20
-11.100301
30
0
11
4.4
21
-11.795788
31
0
39
0
210
0
220
0
230
1
0
LINE
5
158
100
AcDbEntity
8
1
62
256
6
ByLayer
370
18
48
1
60
0
100
AcDbLine
10
9.6
20
-11.795788
30
0
11
9.6
21
-11.196854
31
0
39
0
210
0
220
0
230
1
0
LINE
5
159
100
AcDbEntity
8
1
62
256
6
ByLayer
370
18
48
1
60
0
100
AcDbLine
10
4.4
20
-7.251401
30
0
11
4.45005
21
-7.251401
31
0
39
0
210
0
220
0
230
1
0
LINE
5
15A
100
AcDbEntity
8
1
62
256
6
ByLayer
370
18
48
1
60
0
100
AcDbLine
10
4.4
20
-7.251401
30
0
11
4.4
21
-11.100301
31
0
39
0
210
0
220
0
230
1
0
LINE
5
15B
100
AcDbEntity
8
1
62
256
6
ByLayer
370
18
48
1
60
0
100
AcDbLine
10
5.6
20
19.502047
30
0
11
8.4
21
19.502047
31
0
39
0
210
0
220
0
230
1
0
LINE
5
15C
100
AcDbEntity
8
1
62
256
6
ByLayer
370
18
48
1
60
0
100
AcDbLine
10
4.4
20
-1.728837
30
0
11
4.4
21
-4.815623
31
0
39
0
210
0
220
0
230
1
0
LINE
5
15D
100
AcDbEntity
8
1
62
256
6
ByLayer
370
18
48
1
60
0
100
AcDbLine
10
4.45005
20
-6.936823
30
0
11
4.4
21
-6.936823
31
0
39
0
210
0
220
0
230
1
0
LINE
5
15E
100
AcDbEntity
8
1
62
256
6
ByLayer
370
13
48
1
60
0
100
AcDbLine
10
5.4
20
44.712081
30
0
11
5.4
21
41.601719
31
0
39
0
210
0
220
0
230
1
0
LINE
5
15F
100
AcDbEntity
8
1
62
256
6
ByLayer
370
18
48
1
60
0
100
AcDbLine
10
4.4
20
-4.815623
30
0
11
4.4
21
-4.907773
31
0
39
0
210
0
220
0
230
1
0
LINE
5
160
100
AcDbEntity
8
1
62
256
6
ByLayer
370
18
48
1
60
0
100
AcDbLine
10
4.4
20
-6.936823
30
0
11
4.4
21
-7.251401
31
0
39
0
210
0
220
0
230
1
0
LINE
5
161
100
AcDbEntity
8
1
62
256
6
ByLayer
370
13
48
1
60
0
100
AcDbLine
10
8.6
20
41.601719
30
0
11
8.6
21
44.712081
31
0
39
0
210
0
220
0
230
1
0
LINE
5
162
100
AcDbEntity
8
1
62
256
6
ByLayer
370
18
48
1
60
0
100
AcDbLine
10
4.4
20
-6.754044
30
0
11
4.45005
21
-6.754044
31
0
39
0
210
0
220
0
230
1
0
LINE
5
163
100
AcDbEntity
8
1
62
256
6
ByLayer
370
18
48
1
60
0
100
AcDbLine
10
4.4
20
-4.907773
30
0
11
4.4
21
-6.754044
31
0
39
0
210
0
220
0
230
1
0
LINE
5
164
100
AcDbEntity
8
1
62
256
6
ByLayer
370
18
48
1
60
0
100
AcDbLine
10
4.4
20
-6.754044
30
0
11
4.4
21
-6.936823
31
0
39
0
210
0
220
0
230
1
0
LINE
5
165
100
AcDbEntity
8
1
62
256
6
ByLayer
370
18
48
1
60
0
100
AcDbLine
10
4.4
20
41.601697
30
0
11
4.4
21
43.88679
31
0
39
0
210
0
220
0
230
1
0
LINE
5
166
100
AcDbEntity
8
1
62
256
6
ByLayer
370
18
48
1
60
0
100
AcDbLine
10
9.6
20
43.88679
30
0
11
9.6
21
41.601697
31
0
39
0
210
0
220
0
230
1
0
LINE
5
167
100
AcDbEntity
8
1
62
256
6
ByLayer
370
13
48
1
60
0
100
AcDbLine
10
10.4
20
23.5
30
0
11
10.4
21
-23.5
31
0
39
0
210
0
220
0
230
1
0
LINE
5
168
100
AcDbEntity
8
1
62
256
6
ByLayer
370
18
48
1
60
0
100
AcDbLine
10
5.4
20
44.712081
30
0
11
8.6
21
44.712081
31
0
39
0
210
0
220
0
230
1
0
LINE
5
169
100
AcDbEntity
8
1
62
256
6
ByLayer
370
13
48
1
60
0
100
AcDbLine
10
3.6
20
-23.5
30
0
11
3.6
21
23.5
31
0
39
0
210
0
220
0
230
1
0
LINE
5
16A
100
AcDbEntity
8
1
62
256
6
ByLayer
370
18
48
1
60
0
100
AcDbLine
10
4.45005
20
22.06755
30
0
11
4.4
21
22.06755
31
0
39
0
210
0
220
0
230
1
0
LINE
5
16B
100
AcDbEntity
8
1
62
256
6
ByLayer
370
18
48
1
60
0
100
AcDbLine
10
4.4
20
22.06755
30
0
11
4.4
21
19.501993
31
0
39
0
210
0
220
0
230
1
0
LINE
5
16C
100
AcDbEntity
8
1
62
256
6
ByLayer
370
18
48
1
60
0
100
AcDbLine
10
14
20
23.1
30
0
11
14
21
-23.1
31
0
39
0
210
0
220
0
230
1
0
LINE
5
16D
100
AcDbEntity
8
1
62
256
6
ByLayer
370
18
48
1
60
0
100
AcDbLine
10
13.6
20
23.5
30
0
11
13.6
21
-23.5
31
0
39
0
210
0
220
0
230
1
0
LINE
5
16E
100
AcDbEntity
8
1
62
256
6
ByLayer
370
18
48
1
60
0
100
AcDbLine
10
0.4
20
23.5
30
0
11
0.4
21
-23.5
31
0
39
0
210
0
220
0
230
1
0
LINE
5
16F
100
AcDbEntity
8
1
62
256
6
ByLayer
370
18
48
1
60
0
100
AcDbLine
10
0
20
23.1
30
0
11
0
21
-23.1
31
0
39
0
210
0
220
0
230
1
0
LINE
5
170
100
AcDbEntity
8
1
62
256
6
ByLayer
370
13
48
1
60
0
100
AcDbLine
10
5.6
20
-36.18381
30
0
11
5.6
21
-37.34128
31
0
39
0
210
0
220
0
230
1
0
LINE
5
171
100
AcDbEntity
8
1
62
256
6
ByLayer
370
18
48
1
60
0
100
AcDbLine
10
4.4
20
22.067567
30
0
11
4.45005
21
22.067567
31
0
39
0
210
0
220
0
230
1
0
LINE
5
172
100
AcDbEntity
8
1
62
256
6
ByLayer
370
13
48
1
60
0
100
AcDbLine
10
8.4
20
-37.34128
30
0
11
8.4
21
-36.18381
31
0
39
0
210
0
220
0
230
1
0
LINE
5
173
100
AcDbEntity
8
1
62
256
6
ByLayer
370
18
48
1
60
0
100
AcDbLine
10
8.5
20
-40.449897
30
0
11
8.5
21
-36.320038
31
0
39
0
210
0
220
0
230
1
0
LINE
5
174
100
AcDbEntity
8
1
62
256
6
ByLayer
370
18
48
1
60
0
100
AcDbLine
10
4.4
20
-35.200243
30
0
11
4.45005
21
-35.200243
31
0
39
0
210
0
220
0
230
1
0
LINE
5
175
100
AcDbEntity
8
1
62
256
6
ByLayer
370
18
48
1
60
0
100
AcDbLine
10
5.4
20
-44.738006
30
0
11
8.6
21
-44.738006
31
0
39
0
210
0
220
0
230
1
0
LINE
5
176
100
AcDbEntity
8
1
62
256
6
ByLayer
370
18
48
1
60
0
100
AcDbLine
10
4.4
20
-36.18381
30
0
11
4.4
21
-43.714573
31
0
39
0
210
0
220
0
230
1
0
LINE
5
177
100
AcDbEntity
8
1
62
256
6
ByLayer
370
18
48
1
60
0
100
AcDbLine
10
4.4
20
-34.220775
30
0
11
4.4
21
-35.200243
31
0
39
0
210
0
220
0
230
1
0
LINE
5
178
100
AcDbEntity
8
1
62
256
6
ByLayer
370
18
48
1
60
0
100
AcDbLine
10
5.6
20
-36.18381
30
0
11
8.4
21
-36.18381
31
0
39
0
210
0
220
0
230
1
0
LINE
5
179
100
AcDbEntity
8
1
62
256
6
ByLayer
370
18
48
1
60
0
100
AcDbLine
10
9.6
20
-43.714573
30
0
11
9.6
21
-36.18381
31
0
39
0
210
0
220
0
230
1
0
LINE
5
17A
100
AcDbEntity
8
1
62
256
6
ByLayer
370
18
48
1
60
0
100
AcDbLine
10
4.4
20
22.067567
30
0
11
4.4
21
22.06755
31
0
39
0
210
0
220
0
230
1
0
LINE
5
17B
100
AcDbEntity
8
1
62
256
6
ByLayer
370
18
48
1
60
0
100
AcDbLine
10
4.4
20
22.144451
30
0
11
4.4
21
22.067567
31
0
39
0
210
0
220
0
230
1
0
LINE
5
17C
100
AcDbEntity
8
1
62
256
6
ByLayer
370
18
48
1
60
0
100
AcDbLine
10
4.4
20
-36.18381
30
0
11
5.6
21
-36.18381
31
0
39
0
210
0
220
0
230
1
0
LINE
5
17D
100
AcDbEntity
8
1
62
256
6
ByLayer
370
18
48
1
60
0
100
AcDbLine
10
5.5
20
-36.320038
30
0
11
5.5
21
-40.449897
31
0
39
0
210
0
220
0
230
1
0
LINE
5
17E
100
AcDbEntity
8
1
62
256
6
ByLayer
370
13
48
1
60
0
100
AcDbLine
10
5.4
20
-44.738006
30
0
11
5.4
21
-46.973987
31
0
39
0
210
0
220
0
230
1
0
LINE
5
17F
100
AcDbEntity
8
1
62
256
6
ByLayer
370
18
48
1
60
0
100
AcDbLine
10
8.4
20
-36.18381
30
0
11
9.6
21
-36.18381
31
0
39
0
210
0
220
0
230
1
0
LINE
5
180
100
AcDbEntity
8
1
62
256
6
ByLayer
370
18
48
1
60
0
100
AcDbLine
10
4.4
20
-35.200243
30
0
11
4.4
21
-36.18381
31
0
39
0
210
0
220
0
230
1
0
LINE
5
181
100
AcDbEntity
8
1
62
256
6
ByLayer
370
13
48
1
60
0
100
AcDbLine
10
8.6
20
-46.973987
30
0
11
8.6
21
-44.738006
31
0
39
0
210
0
220
0
230
1
0
LINE
5
182
100
AcDbEntity
8
1
62
256
6
ByLayer
370
18
48
1
60
0
100
AcDbLine
10
4.4
20
-45.980668
30
0
11
4.4
21
-43.714573
31
0
39
0
210
0
220
0
230
1
0
LINE
5
183
100
AcDbEntity
8
1
62
256
6
ByLayer
370
18
48
1
60
0
100
AcDbLine
10
4.375
20
41.011075
30
0
11
4.375
21
44.175094
31
0
39
0
210
0
220
0
230
1
0
LINE
5
184
100
AcDbEntity
8
1
62
256
6
ByLayer
370
18
48
1
60
0
100
AcDbLine
10
4.375
20
40.95874
30
0
11
4.375
21
41.011075
31
0
39
0
210
0
220
0
230
1
0
LINE
5
185
100
AcDbEntity
8
1
62
256
6
ByLayer
370
18
48
1
60
0
100
AcDbLine
10
4.45
20
-35.542951
30
0
11
9.6
21
-35.542951
31
0
39
0
210
0
220
0
230
1
0
LINE
5
186
100
AcDbEntity
8
1
62
256
6
ByLayer
370
18
48
1
60
0
100
AcDbLine
10
9.094202
20
36.375052
30
0
11
9.094276
21
35.226213
31
0
39
0
210
0
220
0
230
1
0
LINE
5
187
100
AcDbEntity
8
1
62
256
6
ByLayer
370
18
48
1
60
0
100
AcDbLine
10
9.6
20
-32.198075
30
0
11
9.6
21
-35.542951
31
0
39
0
210
0
220
0
230
1
0
LINE
5
188
100
AcDbEntity
8
1
62
256
6
ByLayer
370
18
48
1
60
0
100
AcDbLine
10
4.003721
20
34.919644
30
0
11
9.094276
21
35.226213
31
0
39
0
210
0
220
0
230
1
0
LINE
5
189
100
AcDbEntity
8
1
62
256
6
ByLayer
370
18
48
1
60
0
100
AcDbLine
10
4.45
20
-34.210125
30
0
11
4.45
21
-35.542951
31
0
39
0
210
0
220
0
230
1
0
LINE
5
18A
100
AcDbEntity
8
1
62
256
6
ByLayer
370
18
48
1
60
0
100
AcDbLine
10
4.003721
20
34.919644
30
0
11
4.003794
21
36.068491
31
0
39
0
210
0
220
0
230
1
0
LINE
5
18B
100
AcDbEntity
8
1
62
256
6
ByLayer
370
18
48
1
60
0
100
AcDbLine
10
9.625
20
27.85513
30
0
11
9.625
21
27.322935
31
0
39
0
210
0
220
0
230
1
0
LINE
5
18C
100
AcDbEntity
8
1
62
256
6
ByLayer
370
18
48
1
60
0
100
AcDbLine
10
4.127787
20
30.089878
30
0
11
9.218342
21
30.396448
31
0
39
0
210
0
220
0
230
1
0
LINE
5
18D
100
AcDbEntity
8
1
62
256
6
ByLayer
370
18
48
1
60
0
100
AcDbLine
10
9.218342
20
30.396448
30
0
11
9.287287
21
28.858485
31
0
39
0
210
0
220
0
230
1
0
LINE
5
18E
100
AcDbEntity
8
1
62
256
6
ByLayer
370
18
48
1
60
0
100
AcDbLine
10
8.830171
20
28.357006
30
0
11
4.696419
21
28.108058
31
0
39
0
210
0
220
0
230
1
0
LINE
5
18F
100
AcDbEntity
8
1
62
256
6
ByLayer
370
18
48
1
60
0
100
AcDbLine
10
4.003721
20
32.830311
30
0
11
4.003794
21
33.920517
31
0
39
0
210
0
220
0
230
1
0
LINE
5
190
100
AcDbEntity
8
1
62
256
6
ByLayer
370
18
48
1
60
0
100
AcDbLine
10
4.274847
20
-30.200268
30
0
11
4.398914
21
-27.571966
31
0
39
0
210
0
220
0
230
1
0
LINE
5
191
100
AcDbEntity
8
1
62
256
6
ByLayer
370
18
48
1
60
0
100
AcDbLine
10
4.398914
20
-27.571966
30
0
11
4.400002
21
-27.564457
31
0
39
0
210
0
220
0
230
1
0
LINE
5
192
100
AcDbEntity
8
1
62
256
6
ByLayer
370
18
48
1
60
0
100
AcDbLine
10
4.613625
20
-31.131652
30
0
11
7.895069
21
-30.923405
31
0
39
0
210
0
220
0
230
1
0
LINE
5
193
100
AcDbEntity
8
1
62
256
6
ByLayer
370
18
48
1
60
0
100
AcDbLine
10
4.316869
20
-31.01287
30
0
11
4.274847
21
-30.200268
31
0
39
0
210
0
220
0
230
1
0
LINE
5
194
100
AcDbEntity
8
1
62
256
6
ByLayer
370
18
48
1
60
0
100
AcDbLine
10
4.482122
20
-34.225225
30
0
11
8.615874
21
-33.962888
31
0
39
0
210
0
220
0
230
1
0
LINE
5
195
100
AcDbEntity
8
1
62
256
6
ByLayer
370
18
48
1
60
0
100
AcDbLine
10
9.094276
20
-32.507254
30
0
11
9.012382
21
-32.234633
31
0
39
0
210
0
220
0
230
1
0
LINE
5
196
100
AcDbEntity
8
1
62
256
6
ByLayer
370
18
48
1
60
0
100
AcDbLine
10
9.094202
20
-33.59747
30
0
11
9.094276
21
-32.507254
31
0
39
0
210
0
220
0
230
1
0
LINE
5
197
100
AcDbEntity
8
1
62
256
6
ByLayer
370
13
48
1
60
0
100
AcDbLine
10
9.6
20
-47.295546
30
0
11
4.375
21
-47.295546
31
0
39
0
210
0
220
0
230
1
0
LINE
5
198
100
AcDbEntity
8
1
62
256
6
ByLayer
370
18
48
1
60
0
100
AcDbLine
10
4.003721
20
-32.830311
30
0
11
4.274847
21
-30.200268
31
0
39
0
210
0
220
0
230
1
0
LINE
5
199
100
AcDbEntity
8
1
62
256
6
ByLayer
370
13
48
1
60
0
100
AcDbLine
10
9.6
20
-47.150323
30
0
11
4.375
21
-47.150323
31
0
39
0
210
0
220
0
230
1
0
LINE
5
19A
100
AcDbEntity
8
1
62
256
6
ByLayer
370
13
48
1
60
0
100
AcDbLine
10
9.6
20
-46.928853
30
0
11
8.909973
21
-46.928853
31
0
39
0
210
0
220
0
230
1
0
LINE
5
19B
100
AcDbEntity
8
1
62
256
6
ByLayer
370
13
48
1
60
0
100
AcDbLine
10
5.095968
20
-46.928853
30
0
11
4.375
21
-46.928853
31
0
39
0
210
0
220
0
230
1
0
LINE
5
19C
100
AcDbEntity
8
1
62
256
6
ByLayer
370
18
48
1
60
0
100
AcDbLine
10
4.375
20
-47.150323
30
0
11
4.375
21
-47.295546
31
0
39
0
210
0
220
0
230
1
0
LINE
5
19D
100
AcDbEntity
8
1
62
256
6
ByLayer
370
18
48
1
60
0
100
AcDbLine
10
9.6
20
-47.150323
30
0
11
9.6
21
-47.295546
31
0
39
0
210
0
220
0
230
1
0
LINE
5
19E
100
AcDbEntity
8
1
62
256
6
ByLayer
370
13
48
1
60
0
100
AcDbLine
10
9.6
20
-46.823716
30
0
11
9.215881
21
-46.823716
31
0
39
0
210
0
220
0
230
1
0
LINE
5
19F
100
AcDbEntity
8
1
62
256
6
ByLayer
370
13
48
1
60
0
100
AcDbLine
10
4.77757
20
-46.823716
30
0
11
4.375
21
-46.823716
31
0
39
0
210
0
220
0
230
1
0
LINE
5
1A0
100
AcDbEntity
8
1
62
256
6
ByLayer
370
18
48
1
60
0
100
AcDbLine
10
4.375
20
-47.150323
30
0
11
4.375
21
-46.928853
31
0
39
0
210
0
220
0
230
1
0
LINE
5
1A1
100
AcDbEntity
8
1
62
256
6
ByLayer
370
18
48
1
60
0
100
AcDbLine
10
9.6
20
-47.150323
30
0
11
9.6
21
-46.928853
31
0
39
0
210
0
220
0
230
1
0
LINE
5
1A2
100
AcDbEntity
8
1
62
256
6
ByLayer
370
13
48
1
60
0
100
AcDbLine
10
9.6
20
-46.644466
30
0
11
9.420064
21
-46.644466
31
0
39
0
210
0
220
0
230
1
0
LINE
5
1A3
100
AcDbEntity
8
1
62
256
6
ByLayer
370
13
48
1
60
0
100
AcDbLine
10
4.586368
20
-46.644466
30
0
11
4.375
21
-46.644466
31
0
39
0
210
0
220
0
230
1
0
LINE
5
1A4
100
AcDbEntity
8
1
62
256
6
ByLayer
370
18
48
1
60
0
100
AcDbLine
10
9.6
20
-47.802212
30
0
11
4.375
21
-47.802212
31
0
39
0
210
0
220
0
230
1
0
LINE
5
1A5
100
AcDbEntity
8
1
62
256
6
ByLayer
370
18
48
1
60
0
100
AcDbLine
10
4.375
20
-47.295546
30
0
11
4.375
21
-47.802212
31
0
39
0
210
0
220
0
230
1
0
LINE
5
1A6
100
AcDbEntity
8
1
62
256
6
ByLayer
370
13
48
1
60
0
100
AcDbLine
10
4.400064
20
-45.8501
30
0
11
4.375
21
-45.8501
31
0
39
0
210
0
220
0
230
1
0
LINE
5
1A7
100
AcDbEntity
8
1
62
256
6
ByLayer
370
13
48
1
60
0
100
AcDbLine
10
4.400064
20
-45.704878
30
0
11
4.375
21
-45.704878
31
0
39
0
210
0
220
0
230
1
0
LINE
5
1A8
100
AcDbEntity
8
1
62
256
6
ByLayer
370
18
48
1
60
0
100
AcDbLine
10
9.6
20
-47.295546
30
0
11
9.6
21
-47.802212
31
0
39
0
210
0
220
0
230
1
0
LINE
5
1A9
100
AcDbEntity
8
1
62
256
6
ByLayer
370
13
48
1
60
0
100
AcDbLine
10
4.400064
20
-45.483407
30
0
11
4.375
21
-45.483407
31
0
39
0
210
0
220
0
230
1
0
LINE
5
1AA
100
AcDbEntity
8
1
62
256
6
ByLayer
370
18
48
1
60
0
100
AcDbLine
10
4.375
20
-46.928853
30
0
11
4.375
21
-46.823716
31
0
39
0
210
0
220
0
230
1
0
LINE
5
1AB
100
AcDbEntity
8
1
62
256
6
ByLayer
370
13
48
1
60
0
100
AcDbLine
10
9.6
20
-46.360726
30
0
11
9.532728
21
-46.360726
31
0
39
0
210
0
220
0
230
1
0
LINE
5
1AC
100
AcDbEntity
8
1
62
256
6
ByLayer
370
13
48
1
60
0
100
AcDbLine
10
4.46758
20
-46.360726
30
0
11
4.375
21
-46.360726
31
0
39
0
210
0
220
0
230
1
0
LINE
5
1AD
100
AcDbEntity
8
1
62
256
6
ByLayer
370
18
48
1
60
0
100
AcDbLine
10
9.6
20
-46.928853
30
0
11
9.6
21
-46.823716
31
0
39
0
210
0
220
0
230
1
0
LINE
5
1AE
100
AcDbEntity
8
1
62
256
6
ByLayer
370
18
48
1
60
0
100
AcDbLine
10
4.375
20
-46.823716
30
0
11
4.375
21
-46.644466
31
0
39
0
210
0
220
0
230
1
0
LINE
5
1AF
100
AcDbEntity
8
1
62
256
6
ByLayer
370
13
48
1
60
0
100
AcDbLine
10
4.400064
20
-45.378271
30
0
11
4.375
21
-45.378271
31
0
39
0
210
0
220
0
230
1
0
LINE
5
1B0
100
AcDbEntity
8
1
62
256
6
ByLayer
370
18
48
1
60
0
100
AcDbLine
10
9.6
20
-46.823716
30
0
11
9.6
21
-46.644466
31
0
39
0
210
0
220
0
230
1
0
LINE
5
1B1
100
AcDbEntity
8
1
62
256
6
ByLayer
370
18
48
1
60
0
100
AcDbLine
10
4.375
20
-45.8501
30
0
11
4.375
21
-45.704878
31
0
39
0
210
0
220
0
230
1
0
LINE
5
1B2
100
AcDbEntity
8
1
62
256
6
ByLayer
370
18
48
1
60
0
100
AcDbLine
10
4.375
20
-45.704878
30
0
11
4.375
21
-45.483407
31
0
39
0
210
0
220
0
230
1
0
LINE
5
1B3
100
AcDbEntity
8
1
62
256
6
ByLayer
370
18
48
1
60
0
100
AcDbLine
10
4.375
20
-46.360726
30
0
11
4.375
21
-45.8501
31
0
39
0
210
0
220
0
230
1
0
LINE
5
1B4
100
AcDbEntity
8
1
62
256
6
ByLayer
370
13
48
1
60
0
100
AcDbLine
10
4.400064
20
-45.19902
30
0
11
4.375
21
-45.19902
31
0
39
0
210
0
220
0
230
1
0
LINE
5
1B5
100
AcDbEntity
8
1
62
256
6
ByLayer
370
18
48
1
60
0
100
AcDbLine
10
9.6
20
-46.360726
30
0
11
9.6
21
-45.980669
31
0
39
0
210
0
220
0
230
1
0
LINE
5
1B6
100
AcDbEntity
8
1
62
256
6
ByLayer
370
13
48
1
60
0
100
AcDbLine
10
4.400064
20
-44.404654
30
0
11
4.375
21
-44.404654
31
0
39
0
210
0
220
0
230
1
0
LINE
5
1B7
100
AcDbEntity
8
1
62
256
6
ByLayer
370
13
48
1
60
0
100
AcDbLine
10
4.400064
20
-44.259432
30
0
11
4.375
21
-44.259432
31
0
39
0
210
0
220
0
230
1
0
LINE
5
1B8
100
AcDbEntity
8
1
62
256
6
ByLayer
370
18
48
1
60
0
100
AcDbLine
10
4.375
20
-45.378271
30
0
11
4.375
21
-45.483407
31
0
39
0
210
0
220
0
230
1
0
LINE
5
1B9
100
AcDbEntity
8
1
62
256
6
ByLayer
370
13
48
1
60
0
100
AcDbLine
10
4.400064
20
-44.037961
30
0
11
4.375
21
-44.037961
31
0
39
0
210
0
220
0
230
1
0
LINE
5
1BA
100
AcDbEntity
8
1
62
256
6
ByLayer
370
18
48
1
60
0
100
AcDbLine
10
4.375
20
-48.772236
30
0
11
9.6
21
-48.772236
31
0
39
0
210
0
220
0
230
1
0
LINE
5
1BB
100
AcDbEntity
8
1
62
256
6
ByLayer
370
13
48
1
60
0
100
AcDbLine
10
4.400064
20
-44.91528
30
0
11
4.375
21
-44.91528
31
0
39
0
210
0
220
0
230
1
0
LINE
5
1BC
100
AcDbEntity
8
1
62
256
6
ByLayer
370
18
48
1
60
0
100
AcDbLine
10
4.375
20
-47.802212
30
0
11
4.375
21
-48.772236
31
0
39
0
210
0
220
0
230
1
0
LINE
5
1BD
100
AcDbEntity
8
1
62
256
6
ByLayer
370
18
48
1
60
0
100
AcDbLine
10
9.6
20
-47.802212
30
0
11
9.6
21
-48.772236
31
0
39
0
210
0
220
0
230
1
0
LINE
5
1BE
100
AcDbEntity
8
1
62
256
6
ByLayer
370
18
48
1
60
0
100
AcDbLine
10
4.375
20
-45.19902
30
0
11
4.375
21
-45.378271
31
0
39
0
210
0
220
0
230
1
0
LINE
5
1BF
100
AcDbEntity
8
1
62
256
6
ByLayer
370
13
48
1
60
0
100
AcDbLine
10
4.400064
20
-43.932825
30
0
11
4.375
21
-43.932825
31
0
39
0
210
0
220
0
230
1
0
LINE
5
1C0
100
AcDbEntity
8
1
62
256
6
ByLayer
370
18
48
1
60
0
100
AcDbLine
10
4.375
20
-44.259432
30
0
11
4.375
21
-44.404654
31
0
39
0
210
0
220
0
230
1
0
LINE
5
1C1
100
AcDbEntity
8
1
62
256
6
ByLayer
370
18
48
1
60
0
100
AcDbLine
10
4.375
20
-44.037961
30
0
11
4.375
21
-44.259432
31
0
39
0
210
0
220
0
230
1
0
LINE
5
1C2
100
AcDbEntity
8
1
62
256
6
ByLayer
370
18
48
1
60
0
100
AcDbLine
10
4.375
20
-44.404654
30
0
11
4.375
21
-44.91528
31
0
39
0
210
0
220
0
230
1
0
LINE
5
1C3
100
AcDbEntity
8
1
62
256
6
ByLayer
370
13
48
1
60
0
100
AcDbLine
10
4.400064
20
-40.636963
30
0
11
4.375
21
-40.636963
31
0
39
0
210
0
220
0
230
1
0
LINE
5
1C4
100
AcDbEntity
8
1
62
256
6
ByLayer
370
18
48
1
60
0
100
AcDbLine
10
4.375
20
-46.644466
30
0
11
4.375
21
-46.360726
31
0
39
0
210
0
220
0
230
1
0
LINE
5
1C5
100
AcDbEntity
8
1
62
256
6
ByLayer
370
13
48
1
60
0
100
AcDbLine
10
4.400064
20
-40.068317
30
0
11
4.375
21
-40.068317
31
0
39
0
210
0
220
0
230
1
0
LINE
5
1C6
100
AcDbEntity
8
1
62
256
6
ByLayer
370
13
48
1
60
0
100
AcDbLine
10
4.400064
20
-39.923095
30
0
11
4.375
21
-39.923095
31
0
39
0
210
0
220
0
230
1
0
LINE
5
1C7
100
AcDbEntity
8
1
62
256
6
ByLayer
370
18
48
1
60
0
100
AcDbLine
10
9.6
20
-46.644466
30
0
11
9.6
21
-46.360726
31
0
39
0
210
0
220
0
230
1
0
LINE
5
1C8
100
AcDbEntity
8
1
62
256
6
ByLayer
370
13
48
1
60
0
100
AcDbLine
10
4.400064
20
-39.701624
30
0
11
4.375
21
-39.701624
31
0
39
0
210
0
220
0
230
1
0
LINE
5
1C9
100
AcDbEntity
8
1
62
256
6
ByLayer
370
18
48
1
60
0
100
AcDbLine
10
4.375
20
-44.037961
30
0
11
4.375
21
-43.932825
31
0
39
0
210
0
220
0
230
1
0
LINE
5
1CA
100
AcDbEntity
8
1
62
256
6
ByLayer
370
18
48
1
60
0
100
AcDbLine
10
4.375
20
-43.932825
30
0
11
4.375
21
-43.754964
31
0
39
0
210
0
220
0
230
1
0
LINE
5
1CB
100
AcDbEntity
8
1
62
256
6
ByLayer
370
18
48
1
60
0
100
AcDbLine
10
4.375
20
-44.91528
30
0
11
4.375
21
-45.19902
31
0
39
0
210
0
220
0
230
1
0
LINE
5
1CC
100
AcDbEntity
8
1
62
256
6
ByLayer
370
13
48
1
60
0
100
AcDbLine
10
4.400064
20
-39.596488
30
0
11
4.375
21
-39.596488
31
0
39
0
210
0
220
0
230
1
0
LINE
5
1CD
100
AcDbEntity
8
1
62
256
6
ByLayer
370
18
48
1
60
0
100
AcDbLine
10
4.375
20
-43.754936
30
0
11
4.375
21
-40.636963
31
0
39
0
210
0
220
0
230
1
0
LINE
5
1CE
100
AcDbEntity
8
1
62
256
6
ByLayer
370
13
48
1
60
0
100
AcDbLine
10
4.400064
20
-39.417237
30
0
11
4.375
21
-39.417237
31
0
39
0
210
0
220
0
230
1
0
LINE
5
1CF
100
AcDbEntity
8
1
62
256
6
ByLayer
370
18
48
1
60
0
100
AcDbLine
10
4.375
20
-40.068317
30
0
11
4.375
21
-39.923095
31
0
39
0
210
0
220
0
230
1
0
LINE
5
1D0
100
AcDbEntity
8
1
62
256
6
ByLayer
370
13
48
1
60
0
100
AcDbLine
10
4.400064
20
-38.622872
30
0
11
4.375
21
-38.622872
31
0
39
0
210
0
220
0
230
1
0
LINE
5
1D1
100
AcDbEntity
8
1
62
256
6
ByLayer
370
13
48
1
60
0
100
AcDbLine
10
4.400064
20
-38.477649
30
0
11
4.375
21
-38.477649
31
0
39
0
210
0
220
0
230
1
0
LINE
5
1D2
100
AcDbEntity
8
1
62
256
6
ByLayer
370
18
48
1
60
0
100
AcDbLine
10
4.375
20
-39.701624
30
0
11
4.375
21
-39.923095
31
0
39
0
210
0
220
0
230
1
0
LINE
5
1D3
100
AcDbEntity
8
1
62
256
6
ByLayer
370
13
48
1
60
0
100
AcDbLine
10
4.400064
20
-38.256179
30
0
11
4.375
21
-38.256179
31
0
39
0
210
0
220
0
230
1
0
LINE
5
1D4
100
AcDbEntity
8
1
62
256
6
ByLayer
370
18
48
1
60
0
100
AcDbLine
10
4.375
20
-40.574984
30
0
11
4.400064
21
-40.574984
31
0
39
0
210
0
220
0
230
1
0
LINE
5
1D5
100
AcDbEntity
8
1
62
256
6
ByLayer
370
13
48
1
60
0
100
AcDbLine
10
4.400064
20
-39.133498
30
0
11
4.375
21
-39.133498
31
0
39
0
210
0
220
0
230
1
0
LINE
5
1D6
100
AcDbEntity
8
1
62
256
6
ByLayer
370
18
48
1
60
0
100
AcDbLine
10
4.375
20
-40.574984
30
0
11
4.375
21
-40.068317
31
0
39
0
210
0
220
0
230
1
0
LINE
5
1D7
100
AcDbEntity
8
1
62
256
6
ByLayer
370
13
48
1
60
0
100
AcDbLine
10
4.400064
20
-38.151042
30
0
11
4.375
21
-38.151042
31
0
39
0
210
0
220
0
230
1
0
LINE
5
1D8
100
AcDbEntity
8
1
62
256
6
ByLayer
370
18
48
1
60
0
100
AcDbLine
10
4.375
20
-39.596488
30
0
11
4.375
21
-39.701624
31
0
39
0
210
0
220
0
230
1
0
LINE
5
1D9
100
AcDbEntity
8
1
62
256
6
ByLayer
370
13
48
1
60
0
100
AcDbLine
10
4.400064
20
-40.612346
30
0
11
4.375
21
-40.612346
31
0
39
0
210
0
220
0
230
1
0
LINE
5
1DA
100
AcDbEntity
8
1
62
256
6
ByLayer
370
18
48
1
60
0
100
AcDbLine
10
4.375
20
-39.417237
30
0
11
4.375
21
-39.596488
31
0
39
0
210
0
220
0
230
1
0
LINE
5
1DB
100
AcDbEntity
8
1
62
256
6
ByLayer
370
13
48
1
60
0
100
AcDbLine
10
4.400064
20
-37.971792
30
0
11
4.375
21
-37.971792
31
0
39
0
210
0
220
0
230
1
0
LINE
5
1DC
100
AcDbEntity
8
1
62
256
6
ByLayer
370
18
48
1
60
0
100
AcDbLine
10
4.375
20
-38.477649
30
0
11
4.375
21
-38.622872
31
0
39
0
210
0
220
0
230
1
0
LINE
5
1DD
100
AcDbEntity
8
1
62
256
6
ByLayer
370
18
48
1
60
0
100
AcDbLine
10
4.375
20
-38.256179
30
0
11
4.375
21
-38.477649
31
0
39
0
210
0
220
0
230
1
0
LINE
5
1DE
100
AcDbEntity
8
1
62
256
6
ByLayer
370
13
48
1
60
0
100
AcDbLine
10
4.400064
20
-37.177426
30
0
11
4.375
21
-37.177426
31
0
39
0
210
0
220
0
230
1
0
LINE
5
1DF
100
AcDbEntity
8
1
62
256
6
ByLayer
370
13
48
1
60
0
100
AcDbLine
10
4.400064
20
-37.032204
30
0
11
4.375
21
-37.032204
31
0
39
0
210
0
220
0
230
1
0
LINE
5
1E0
100
AcDbEntity
8
1
62
256
6
ByLayer
370
18
48
1
60
0
100
AcDbLine
10
4.375
20
-38.622872
30
0
11
4.375
21
-39.133498
31
0
39
0
210
0
220
0
230
1
0
LINE
5
1E1
100
AcDbEntity
8
1
62
256
6
ByLayer
370
13
48
1
60
0
100
AcDbLine
10
4.400064
20
-36.810733
30
0
11
4.375
21
-36.810733
31
0
39
0
210
0
220
0
230
1
0
LINE
5
1E2
100
AcDbEntity
8
1
62
256
6
ByLayer
370
18
48
1
60
0
100
AcDbLine
10
4.375
20
-38.256179
30
0
11
4.375
21
-38.151042
31
0
39
0
210
0
220
0
230
1
0
LINE
5
1E3
100
AcDbEntity
8
1
62
256
6
ByLayer
370
13
48
1
60
0
100
AcDbLine
10
4.400064
20
-37.688052
30
0
11
4.375
21
-37.688052
31
0
39
0
210
0
220
0
230
1
0
LINE
5
1E4
100
AcDbEntity
8
1
62
256
6
ByLayer
370
18
48
1
60
0
100
AcDbLine
10
4.375
20
-40.612346
30
0
11
4.375
21
-40.574984
31
0
39
0
210
0
220
0
230
1
0
LINE
5
1E5
100
AcDbEntity
8
1
62
256
6
ByLayer
370
18
48
1
60
0
100
AcDbLine
10
4.375
20
-38.151042
30
0
11
4.375
21
-37.971792
31
0
39
0
210
0
220
0
230
1
0
LINE
5
1E6
100
AcDbEntity
8
1
62
256
6
ByLayer
370
13
48
1
60
0
100
AcDbLine
10
4.400064
20
-36.705597
30
0
11
4.375
21
-36.705597
31
0
39
0
210
0
220
0
230
1
0
LINE
5
1E7
100
AcDbEntity
8
1
62
256
6
ByLayer
370
18
48
1
60
0
100
AcDbLine
10
4.375
20
-40.636963
30
0
11
4.375
21
-40.612346
31
0
39
0
210
0
220
0
230
1
0
LINE
5
1E8
100
AcDbEntity
8
1
62
256
6
ByLayer
370
13
48
1
60
0
100
AcDbLine
10
4.400064
20
-36.526346
30
0
11
4.375
21
-36.526346
31
0
39
0
210
0
220
0
230
1
0
LINE
5
1E9
100
AcDbEntity
8
1
62
256
6
ByLayer
370
18
48
1
60
0
100
AcDbLine
10
4.375
20
-37.177426
30
0
11
4.375
21
-37.032204
31
0
39
0
210
0
220
0
230
1
0
LINE
5
1EA
100
AcDbEntity
8
1
62
256
6
ByLayer
370
13
48
1
60
0
100
AcDbLine
10
4.400064
20
-35.73198
30
0
11
4.375
21
-35.73198
31
0
39
0
210
0
220
0
230
1
0
LINE
5
1EB
100
AcDbEntity
8
1
62
256
6
ByLayer
370
13
48
1
60
0
100
AcDbLine
10
4.400064
20
-35.586758
30
0
11
4.375
21
-35.586758
31
0
39
0
210
0
220
0
230
1
0
LINE
5
1EC
100
AcDbEntity
8
1
62
256
6
ByLayer
370
18
48
1
60
0
100
AcDbLine
10
4.375
20
-36.810733
30
0
11
4.375
21
-37.032204
31
0
39
0
210
0
220
0
230
1
0
LINE
5
1ED
100
AcDbEntity
8
1
62
256
6
ByLayer
370
13
48
1
60
0
100
AcDbLine
10
4.400064
20
-35.365287
30
0
11
4.375
21
-35.365287
31
0
39
0
210
0
220
0
230
1
0
LINE
5
1EE
100
AcDbEntity
8
1
62
256
6
ByLayer
370
18
48
1
60
0
100
AcDbLine
10
4.375
20
-37.688052
30
0
11
4.375
21
-37.177426
31
0
39
0
210
0
220
0
230
1
0
LINE
5
1EF
100
AcDbEntity
8
1
62
256
6
ByLayer
370
13
48
1
60
0
100
AcDbLine
10
4.400064
20
-36.242606
30
0
11
4.375
21
-36.242606
31
0
39
0
210
0
220
0
230
1
0
LINE
5
1F0
100
AcDbEntity
8
1
62
256
6
ByLayer
370
18
48
1
60
0
100
AcDbLine
10
4.375
20
-39.133498
30
0
11
4.375
21
-39.417237
31
0
39
0
210
0
220
0
230
1
0
LINE
5
1F1
100
AcDbEntity
8
1
62
256
6
ByLayer
370
18
48
1
60
0
100
AcDbLine
10
4.375
20
-36.705597
30
0
11
4.375
21
-36.810733
31
0
39
0
210
0
220
0
230
1
0
LINE
5
1F2
100
AcDbEntity
8
1
62
256
6
ByLayer
370
13
48
1
60
0
100
AcDbLine
10
4.400064
20
-35.260151
30
0
11
4.375
21
-35.260151
31
0
39
0
210
0
220
0
230
1
0
LINE
5
1F3
100
AcDbEntity
8
1
62
256
6
ByLayer
370
18
48
1
60
0
100
AcDbLine
10
4.375
20
-36.526346
30
0
11
4.375
21
-36.705597
31
0
39
0
210
0
220
0
230
1
0
LINE
5
1F4
100
AcDbEntity
8
1
62
256
6
ByLayer
370
13
48
1
60
0
100
AcDbLine
10
4.400064
20
-35.0809
30
0
11
4.375
21
-35.0809
31
0
39
0
210
0
220
0
230
1
0
LINE
5
1F5
100
AcDbEntity
8
1
62
256
6
ByLayer
370
18
48
1
60
0
100
AcDbLine
10
4.375
20
-35.586758
30
0
11
4.375
21
-35.73198
31
0
39
0
210
0
220
0
230
1
0
LINE
5
1F6
100
AcDbEntity
8
1
62
256
6
ByLayer
370
13
48
1
60
0
100
AcDbLine
10
4.400064
20
-34.286534
30
0
11
4.375
21
-34.286534
31
0
39
0
210
0
220
0
230
1
0
LINE
5
1F7
100
AcDbEntity
8
1
62
256
6
ByLayer
370
18
48
1
60
0
100
AcDbLine
10
4.375
20
-35.586758
30
0
11
4.375
21
-35.365287
31
0
39
0
210
0
220
0
230
1
0
LINE
5
1F8
100
AcDbEntity
8
1
62
256
6
ByLayer
370
13
48
1
60
0
100
AcDbLine
10
4.400064
20
-34.797161
30
0
11
4.375
21
-34.797161
31
0
39
0
210
0
220
0
230
1
0
LINE
5
1F9
100
AcDbEntity
8
1
62
256
6
ByLayer
370
18
48
1
60
0
100
AcDbLine
10
4.375
20
-35.73198
30
0
11
4.375
21
-36.242606
31
0
39
0
210
0
220
0
230
1
0
LINE
5
1FA
100
AcDbEntity
8
1
62
256
6
ByLayer
370
18
48
1
60
0
100
AcDbLine
10
4.375
20
-37.971792
30
0
11
4.375
21
-37.688052
31
0
39
0
210
0
220
0
230
1
0
LINE
5
1FB
100
AcDbEntity
8
1
62
256
6
ByLayer
370
18
48
1
60
0
100
AcDbLine
10
4.375
20
-35.365287
30
0
11
4.375
21
-35.260151
31
0
39
0
210
0
220
0
230
1
0
LINE
5
1FC
100
AcDbEntity
8
1
62
256
6
ByLayer
370
18
48
1
60
0
100
AcDbLine
10
4.375
20
-35.260151
30
0
11
4.375
21
-35.0809
31
0
39
0
210
0
220
0
230
1
0
LINE
5
1FD
100
AcDbEntity
8
1
62
256
6
ByLayer
370
18
48
1
60
0
100
AcDbLine
10
4.375
20
-34.286534
30
0
11
4.375
21
-34.219928
31
0
39
0
210
0
220
0
230
1
0
LINE
5
1FE
100
AcDbEntity
8
1
62
256
6
ByLayer
370
18
48
1
60
0
100
AcDbLine
10
4.375
20
-34.797161
30
0
11
4.375
21
-34.286534
31
0
39
0
210
0
220
0
230
1
0
LINE
5
1FF
100
AcDbEntity
8
1
62
256
6
ByLayer
370
18
48
1
60
0
100
AcDbLine
10
9.6
20
-11.295376
30
0
11
9.6
21
-11.196847
31
0
39
0
210
0
220
0
230
1
0
LINE
5
200
100
AcDbEntity
8
1
62
256
6
ByLayer
370
18
48
1
60
0
100
AcDbLine
10
4.45
20
-11.295376
30
0
11
4.45
21
-11.196847
31
0
39
0
210
0
220
0
230
1
0
LINE
5
201
100
AcDbEntity
8
1
62
256
6
ByLayer
370
18
48
1
60
0
100
AcDbLine
10
9.6
20
19.502048
30
0
11
9.6
21
19.708218
31
0
39
0
210
0
220
0
230
1
0
LINE
5
202
100
AcDbEntity
8
1
62
256
6
ByLayer
370
18
48
1
60
0
100
AcDbLine
10
4.45
20
19.502048
30
0
11
4.45
21
19.708218
31
0
39
0
210
0
220
0
230
1
0
LINE
5
203
100
AcDbEntity
8
1
62
256
6
ByLayer
370
18
48
1
60
0
100
AcDbLine
10
9.599988
20
42.632212
30
0
11
9.882196
21
42.632859
31
0
39
0
210
0
220
0
230
1
0
LINE
5
204
100
AcDbEntity
8
1
62
256
6
ByLayer
370
18
48
1
60
0
100
AcDbLine
10
4.915708
20
47.894851
30
0
11
10.006262
21
47.906509
31
0
39
0
210
0
220
0
230
1
0
LINE
5
205
100
AcDbEntity
8
1
62
256
6
ByLayer
370
18
48
1
60
0
100
AcDbLine
10
10.006262
20
47.906509
30
0
11
9.882196
21
42.632859
31
0
39
0
210
0
220
0
230
1
0
LINE
5
206
100
AcDbEntity
8
1
62
256
6
ByLayer
370
18
48
1
60
0
100
AcDbLine
10
10.006189
20
49.489759
30
0
11
10.006262
21
47.906509
31
0
39
0
210
0
220
0
230
1
0
LINE
5
207
100
AcDbEntity
8
1
62
256
6
ByLayer
370
18
48
1
60
0
100
AcDbLine
10
4.915708
20
47.894851
30
0
11
4.915781
21
49.478101
31
0
39
0
210
0
220
0
230
1
0
LINE
5
208
100
AcDbEntity
8
1
62
256
6
ByLayer
370
18
48
1
60
0
100
AcDbLine
10
4.274847
20
-36.357847
30
0
11
4.329842
21
-34.216978
31
0
39
0
210
0
220
0
230
1
0
LINE
5
209
100
AcDbEntity
8
1
62
256
6
ByLayer
370
18
48
1
60
0
100
AcDbLine
10
4.316869
20
-37.86534
30
0
11
4.274847
21
-36.357847
31
0
39
0
210
0
220
0
230
1
0
LINE
5
20A
100
AcDbEntity
8
1
62
256
6
ByLayer
370
18
48
1
60
0
100
AcDbLine
10
4.127787
20
-30.089878
30
0
11
4.13526
21
-30.129519
31
0
39
0
210
0
220
0
230
1
0
LINE
5
20B
100
AcDbEntity
8
1
62
256
6
ByLayer
370
18
48
1
60
0
100
AcDbLine
10
4.003721
20
-34.919644
30
0
11
4.274847
21
-36.357847
31
0
39
0
210
0
220
0
230
1
0
LINE
5
20C
100
AcDbEntity
8
1
62
256
6
ByLayer
370
18
48
1
60
0
100
AcDbLine
10
4.003721
20
-34.919644
30
0
11
4.003794
21
-36.068491
31
0
39
0
210
0
220
0
230
1
0
LINE
5
20D
100
AcDbEntity
8
1
62
256
6
ByLayer
370
18
48
1
60
0
100
AcDbLine
10
9.6
20
27.271624
30
0
11
4.45
21
27.271624
31
0
39
0
210
0
220
0
230
1
0
LINE
5
20E
100
AcDbEntity
8
1
62
256
6
ByLayer
370
18
48
1
60
0
100
AcDbLine
10
4.45
20
19.708218
30
0
11
9.6
21
19.708218
31
0
39
0
210
0
220
0
230
1
0
LINE
5
20F
100
AcDbEntity
8
1
62
256
6
ByLayer
370
18
48
1
60
0
100
AcDbLine
10
9.6
20
27.271624
30
0
11
9.6
21
19.708218
31
0
39
0
210
0
220
0
230
1
0
LINE
5
210
100
AcDbEntity
8
1
62
256
6
ByLayer
370
18
48
1
60
0
100
AcDbLine
10
4.45
20
27.271624
30
0
11
4.45
21
19.708218
31
0
39
0
210
0
220
0
230
1
0
LINE
5
211
100
AcDbEntity
8
1
62
256
6
ByLayer
370
18
48
1
60
0
100
AcDbLine
10
8.507914
20
38.098509
30
0
11
8.347398
21
38.178903
31
0
39
0
210
0
220
0
230
1
0
LINE
5
212
100
AcDbEntity
8
1
62
256
6
ByLayer
370
18
48
1
60
0
100
AcDbLine
10
4.4
20
39.814261
30
0
11
9.625
21
39.814261
31
0
39
0
210
0
220
0
230
1
0
LINE
5
213
100
AcDbEntity
8
1
62
256
6
ByLayer
370
18
48
1
60
0
100
AcDbLine
10
8.347398
20
38.178903
30
0
11
8.189255
21
38.169047
31
0
39
0
210
0
220
0
230
1
0
LINE
5
214
100
AcDbEntity
8
1
62
256
6
ByLayer
370
18
48
1
60
0
100
AcDbLine
10
9.625
20
-40.595118
30
0
11
9.625
21
-40.552454
31
0
39
0
210
0
220
0
230
1
0
LINE
5
215
100
AcDbEntity
8
1
62
256
6
ByLayer
370
18
48
1
60
0
100
AcDbLine
10
8.595096
20
37.393638
30
0
11
8.507914
21
38.098509
31
0
39
0
210
0
220
0
230
1
0
LINE
5
216
100
AcDbEntity
8
1
62
256
6
ByLayer
370
18
48
1
60
0
100
AcDbLine
10
9.625
20
-40.552454
30
0
11
9.625
21
-40.296179
31
0
39
0
210
0
220
0
230
1
0
LINE
5
217
100
AcDbEntity
8
1
62
256
6
ByLayer
370
18
48
1
60
0
100
AcDbLine
10
4.4
20
39.814261
30
0
11
4.4
21
38.042093
31
0
39
0
210
0
220
0
230
1
0
LINE
5
218
100
AcDbEntity
8
1
62
256
6
ByLayer
370
18
48
1
60
0
100
AcDbLine
10
9.625
20
39.814261
30
0
11
9.625
21
36.777902
31
0
39
0
210
0
220
0
230
1
0
LINE
5
219
100
AcDbEntity
8
1
62
256
6
ByLayer
370
18
48
1
60
0
100
AcDbLine
10
9.625
20
36.777902
30
0
11
8.939683
21
36.73519
31
0
39
0
210
0
220
0
230
1
0
LINE
5
21A
100
AcDbEntity
8
1
62
256
6
ByLayer
370
18
48
1
60
0
100
AcDbLine
10
9.150094
20
33.05356
30
0
11
9.625
21
33.08216
31
0
39
0
210
0
220
0
230
1
0
LINE
5
21B
100
AcDbEntity
8
1
62
256
6
ByLayer
370
18
48
1
60
0
100
AcDbLine
10
9.625
20
33.08216
30
0
11
9.625
21
36.777902
31
0
39
0
210
0
220
0
230
1
0
LINE
5
21C
100
AcDbEntity
8
1
62
256
6
ByLayer
370
18
48
1
60
0
100
AcDbLine
10
8.507914
20
38.098509
30
0
11
8.522456
21
37.532419
31
0
39
0
210
0
220
0
230
1
0
LINE
5
21D
100
AcDbEntity
8
1
62
256
6
ByLayer
370
18
48
1
60
0
100
AcDbLine
10
9.199897
20
31.113614
30
0
11
9.625
21
31.139215
31
0
39
0
210
0
220
0
230
1
0
LINE
5
21E
100
AcDbEntity
8
1
62
256
6
ByLayer
370
18
48
1
60
0
100
AcDbLine
10
8.355825
20
37.850828
30
0
11
8.347398
21
38.178903
31
0
39
0
210
0
220
0
230
1
0
LINE
5
21F
100
AcDbEntity
8
1
62
256
6
ByLayer
370
18
48
1
60
0
100
AcDbLine
10
9.625
20
31.139215
30
0
11
9.625
21
33.082152
31
0
39
0
210
0
220
0
230
1
0
LINE
5
220
100
AcDbEntity
8
1
62
256
6
ByLayer
370
18
48
1
60
0
100
AcDbLine
10
4.4
20
22.144435
30
0
11
4.450046
21
22.144435
31
0
39
0
210
0
220
0
230
1
0
LINE
5
221
100
AcDbEntity
8
1
62
256
6
ByLayer
370
18
48
1
60
0
100
AcDbLine
10
9.599936
20
22.144435
30
0
11
9.625
21
22.144435
31
0
39
0
210
0
220
0
230
1
0
LINE
5
222
100
AcDbEntity
8
1
62
256
6
ByLayer
370
18
48
1
60
0
100
AcDbLine
10
9.282191
20
28.971851
30
0
11
9.625
21
28.992496
31
0
39
0
210
0
220
0
230
1
0
LINE
5
223
100
AcDbEntity
8
1
62
256
6
ByLayer
370
18
48
1
60
0
100
AcDbLine
10
4.4
20
27.752507
30
0
11
9.625
21
27.85513
31
0
39
0
210
0
220
0
230
1
0
LINE
5
224
100
AcDbEntity
8
1
62
256
6
ByLayer
370
18
48
1
60
0
100
AcDbLine
10
4.4
20
27.752507
30
0
11
4.4
21
28.195606
31
0
39
0
210
0
220
0
230
1
0
LINE
5
225
100
AcDbEntity
8
1
62
256
6
ByLayer
370
18
48
1
60
0
100
AcDbLine
10
9.625
20
27.85513
30
0
11
9.625
21
28.992496
31
0
39
0
210
0
220
0
230
1
0
LINE
5
226
100
AcDbEntity
8
1
62
256
6
ByLayer
370
18
48
1
60
0
100
AcDbLine
10
4.4
20
27.322935
30
0
11
4.450046
21
27.322935
31
0
39
0
210
0
220
0
230
1
0
LINE
5
227
100
AcDbEntity
8
1
62
256
6
ByLayer
370
18
48
1
60
0
100
AcDbLine
10
9.599936
20
27.322935
30
0
11
9.625
21
27.322935
31
0
39
0
210
0
220
0
230
1
0
LINE
5
228
100
AcDbEntity
8
1
62
256
6
ByLayer
370
18
48
1
60
0
100
AcDbLine
10
4.4
20
27.752507
30
0
11
4.4
21
27.322935
31
0
39
0
210
0
220
0
230
1
0
LINE
5
229
100
AcDbEntity
8
1
62
256
6
ByLayer
370
18
48
1
60
0
100
AcDbLine
10
4.4
20
27.322935
30
0
11
4.4
21
22.144435
31
0
39
0
210
0
220
0
230
1
0
LINE
5
22A
100
AcDbEntity
8
1
62
256
6
ByLayer
370
18
48
1
60
0
100
AcDbLine
10
9.625
20
27.322935
30
0
11
9.625
21
22.144435
31
0
39
0
210
0
220
0
230
1
0
LINE
5
22B
100
AcDbEntity
8
1
62
256
6
ByLayer
370
13
48
1
60
0
100
AcDbLine
10
9.229125
20
30.155917
30
0
11
9.625
21
30.179758
31
0
39
0
210
0
220
0
230
1
0
LINE
5
22C
100
AcDbEntity
8
1
62
256
6
ByLayer
370
18
48
1
60
0
100
AcDbLine
10
9.625
20
41.601664
30
0
11
4.4
21
41.601664
31
0
39
0
210
0
220
0
230
1
0
LINE
5
22D
100
AcDbEntity
8
1
62
256
6
ByLayer
370
18
48
1
60
0
100
AcDbLine
10
4.4
20
41.601664
30
0
11
4.4
21
39.814261
31
0
39
0
210
0
220
0
230
1
0
LINE
5
22E
100
AcDbEntity
8
1
62
256
6
ByLayer
370
18
48
1
60
0
100
AcDbLine
10
9.276231
20
29.103417
30
0
11
9.625
21
29.124421
31
0
39
0
210
0
220
0
230
1
0
LINE
5
22F
100
AcDbEntity
8
1
62
256
6
ByLayer
370
13
48
1
60
0
100
AcDbLine
10
9.217532
20
30.427058
30
0
11
9.625
21
30.451597
31
0
39
0
210
0
220
0
230
1
0
LINE
5
230
100
AcDbEntity
8
1
62
256
6
ByLayer
370
18
48
1
60
0
100
AcDbLine
10
9.625
20
41.601664
30
0
11
9.625
21
39.814261
31
0
39
0
210
0
220
0
230
1
0
LINE
5
231
100
AcDbEntity
8
1
62
256
6
ByLayer
370
18
48
1
60
0
100
AcDbLine
10
9.625
20
29.124421
30
0
11
9.625
21
30.179758
31
0
39
0
210
0
220
0
230
1
0
LINE
5
232
100
AcDbEntity
8
1
62
256
6
ByLayer
370
18
48
1
60
0
100
AcDbLine
10
9.625
20
30.979296
30
0
11
9.625
21
31.139215
31
0
39
0
210
0
220
0
230
1
0
LINE
5
233
100
AcDbEntity
8
1
62
256
6
ByLayer
370
18
48
1
60
0
100
AcDbLine
10
5.260173
20
3.211366
30
0
11
5.376865
21
3.67542
31
0
39
0
210
0
220
0
230
1
0
LINE
5
234
100
AcDbEntity
8
1
62
256
6
ByLayer
370
18
48
1
60
0
100
AcDbLine
10
4.375
20
7.533632
30
0
11
9.6
21
7.533632
31
0
39
0
210
0
220
0
230
1
0
LINE
5
235
100
AcDbEntity
8
1
62
256
6
ByLayer
370
18
48
1
60
0
100
AcDbLine
10
5.824449
20
5.206411
30
0
11
5.662584
21
5.220678
31
0
39
0
210
0
220
0
230
1
0
LINE
5
236
100
AcDbEntity
8
1
62
256
6
ByLayer
370
18
48
1
60
0
100
AcDbLine
10
5.502068
20
5.106984
30
0
11
5.662584
21
5.220678
31
0
39
0
210
0
220
0
230
1
0
LINE
5
237
100
AcDbEntity
8
1
62
256
6
ByLayer
370
18
48
1
60
0
100
AcDbLine
10
5.376865
20
3.67542
30
0
11
5.502068
21
5.106984
31
0
39
0
210
0
220
0
230
1
0
LINE
5
238
100
AcDbEntity
8
1
62
256
6
ByLayer
370
18
48
1
60
0
100
AcDbLine
10
4.375
20
3.240243
30
0
11
5.246924
21
3.163392
31
0
39
0
210
0
220
0
230
1
0
LINE
5
239
100
AcDbEntity
8
1
62
256
6
ByLayer
370
18
48
1
60
0
100
AcDbLine
10
9.6
20
7.533632
30
0
11
9.6
21
4.911625
31
0
39
0
210
0
220
0
230
1
0
LINE
5
23A
100
AcDbEntity
8
1
62
256
6
ByLayer
370
18
48
1
60
0
100
AcDbLine
10
4.375
20
7.533632
30
0
11
4.375
21
3.240243
31
0
39
0
210
0
220
0
230
1
0
LINE
5
23B
100
AcDbEntity
8
1
62
256
6
ByLayer
370
18
48
1
60
0
100
AcDbLine
10
9.6
20
11.031425
30
0
11
4.375
21
11.031425
31
0
39
0
210
0
220
0
230
1
0
LINE
5
23C
100
AcDbEntity
8
1
62
256
6
ByLayer
370
18
48
1
60
0
100
AcDbLine
10
5.502068
20
5.106984
30
0
11
5.394788
21
3.760935
31
0
39
0
210
0
220
0
230
1
0
LINE
5
23D
100
AcDbEntity
8
1
62
256
6
ByLayer
370
18
48
1
60
0
100
AcDbLine
10
5.394788
20
3.760935
30
0
11
5.386764
21
3.669899
31
0
39
0
210
0
220
0
230
1
0
LINE
5
23E
100
AcDbEntity
8
1
62
256
6
ByLayer
370
18
48
1
60
0
100
AcDbLine
10
5.60077
20
4.445091
30
0
11
5.662584
21
5.220678
31
0
39
0
210
0
220
0
230
1
0
LINE
5
23F
100
AcDbEntity
8
1
62
256
6
ByLayer
370
18
48
1
60
0
100
AcDbLine
10
5.415627
20
3.774448
30
0
11
5.394788
21
3.760935
31
0
39
0
210
0
220
0
230
1
0
LINE
5
240
100
AcDbEntity
8
1
62
256
6
ByLayer
370
13
48
1
60
0
100
AcDbLine
10
9.6
20
11.529325
30
0
11
4.375
21
11.529325
31
0
39
0
210
0
220
0
230
1
0
LINE
5
241
100
AcDbEntity
8
1
62
256
6
ByLayer
370
18
48
1
60
0
100
AcDbLine
10
9.6
20
11.031425
30
0
11
9.6
21
7.533632
31
0
39
0
210
0
220
0
230
1
0
LINE
5
242
100
AcDbEntity
8
1
62
256
6
ByLayer
370
18
48
1
60
0
100
AcDbLine
10
4.375
20
11.031425
30
0
11
4.375
21
7.533632
31
0
39
0
210
0
220
0
230
1
0
LINE
5
243
100
AcDbEntity
8
1
62
256
6
ByLayer
370
18
48
1
60
0
100
AcDbLine
10
5.376865
20
3.67542
30
0
11
5.372229
21
3.617256
31
0
39
0
210
0
220
0
230
1
0
LINE
5
244
100
AcDbEntity
8
1
62
256
6
ByLayer
370
18
48
1
60
0
100
AcDbLine
10
4.924254
20
1.994601
30
0
11
4.375
21
2.042638
31
0
39
0
210
0
220
0
230
1
0
LINE
5
245
100
AcDbEntity
8
1
62
256
6
ByLayer
370
18
48
1
60
0
100
AcDbLine
10
4.375
20
3.240243
30
0
11
4.375
21
2.042638
31
0
39
0
210
0
220
0
230
1
0
LINE
5
246
100
AcDbEntity
8
1
62
256
6
ByLayer
370
18
48
1
60
0
100
AcDbLine
10
9.6
20
11.529325
30
0
11
9.6
21
11.031425
31
0
39
0
210
0
220
0
230
1
0
LINE
5
247
100
AcDbEntity
8
1
62
256
6
ByLayer
370
18
48
1
60
0
100
AcDbLine
10
4.375
20
11.529325
30
0
11
4.375
21
11.031425
31
0
39
0
210
0
220
0
230
1
0
LINE
5
248
100
AcDbEntity
8
1
62
256
6
ByLayer
370
18
48
1
60
0
100
AcDbLine
10
9.6
20
11.572337
30
0
11
9.6
21
11.529325
31
0
39
0
210
0
220
0
230
1
0
LINE
5
249
100
AcDbEntity
8
1
62
256
6
ByLayer
370
18
48
1
60
0
100
AcDbLine
10
4.375
20
11.572337
30
0
11
4.375
21
11.529325
31
0
39
0
210
0
220
0
230
1
0
LINE
5
24A
100
AcDbEntity
8
1
62
256
6
ByLayer
370
18
48
1
60
0
100
AcDbLine
10
4.375
20
-1.565361
30
0
11
9.6
21
-1.59687
31
0
39
0
210
0
220
0
230
1
0
LINE
5
24B
100
AcDbEntity
8
1
62
256
6
ByLayer
370
18
48
1
60
0
100
AcDbLine
10
4.375
20
0.717371
30
0
11
4.816594
21
0.67875
31
0
39
0
210
0
220
0
230
1
0
LINE
5
24C
100
AcDbEntity
8
1
62
256
6
ByLayer
370
18
48
1
60
0
100
AcDbLine
10
9.6
20
-1.59687
30
0
11
9.6
21
-1.090126
31
0
39
0
210
0
220
0
230
1
0
LINE
5
24D
100
AcDbEntity
8
1
62
256
6
ByLayer
370
18
48
1
60
0
100
AcDbLine
10
4.375
20
-1.565361
30
0
11
4.375
21
0.717371
31
0
39
0
210
0
220
0
230
1
0
LINE
5
24E
100
AcDbEntity
8
1
62
256
6
ByLayer
370
18
48
1
60
0
100
AcDbLine
10
4.375
20
-1.728829
30
0
11
4.450028
21
-1.728829
31
0
39
0
210
0
220
0
230
1
0
LINE
5
24F
100
AcDbEntity
8
1
62
256
6
ByLayer
370
18
48
1
60
0
100
AcDbLine
10
9.6
20
-1.59687
30
0
11
9.6
21
-1.728829
31
0
39
0
210
0
220
0
230
1
0
LINE
5
250
100
AcDbEntity
8
1
62
256
6
ByLayer
370
18
48
1
60
0
100
AcDbLine
10
4.375
20
-1.565361
30
0
11
4.375
21
-1.728829
31
0
39
0
210
0
220
0
230
1
0
LINE
5
251
100
AcDbEntity
8
1
62
256
6
ByLayer
370
18
48
1
60
0
100
AcDbLine
10
9.6
20
27.271624
30
0
11
9.6
21
27.351048
31
0
39
0
210
0
220
0
230
1
0
LINE
5
252
100
AcDbEntity
8
1
62
256
6
ByLayer
370
18
48
1
60
0
100
AcDbLine
10
4.45
20
-2.015894
30
0
11
4.45
21
-1.70588
31
0
39
0
210
0
220
0
230
1
0
LINE
5
253
100
AcDbEntity
8
1
62
256
6
ByLayer
370
18
48
1
60
0
100
AcDbLine
10
9.6
20
-2.015894
30
0
11
9.6
21
-11.196847
31
0
39
0
210
0
220
0
230
1
0
LINE
5
254
100
AcDbEntity
8
1
62
256
6
ByLayer
370
18
48
1
60
0
100
AcDbLine
10
4.45
20
-11.196847
30
0
11
9.6
21
-11.196847
31
0
39
0
210
0
220
0
230
1
0
LINE
5
255
100
AcDbEntity
8
1
62
256
6
ByLayer
370
18
48
1
60
0
100
AcDbLine
10
9.6
20
-2.015894
30
0
11
4.45
21
-2.015894
31
0
39
0
210
0
220
0
230
1
0
LINE
5
256
100
AcDbEntity
8
1
62
256
6
ByLayer
370
18
48
1
60
0
100
AcDbLine
10
9.6
20
-2.015894
30
0
11
9.6
21
-1.70588
31
0
39
0
210
0
220
0
230
1
0
LINE
5
257
100
AcDbEntity
8
1
62
256
6
ByLayer
370
18
48
1
60
0
100
AcDbLine
10
4.45
20
27.271624
30
0
11
4.45
21
27.351048
31
0
39
0
210
0
220
0
230
1
0
LINE
5
258
100
AcDbEntity
8
1
62
256
6
ByLayer
370
18
48
1
60
0
100
AcDbLine
10
4.45
20
-2.015894
30
0
11
4.45
21
-11.196847
31
0
39
0
210
0
220
0
230
1
0
LINE
5
259
100
AcDbEntity
8
1
62
256
6
ByLayer
370
13
48
1
60
0
100
AcDbLine
10
9.625
20
-25.261671
30
0
11
4.4
21
-25.261671
31
0
39
0
210
0
220
0
230
1
0
LINE
5
25A
100
AcDbEntity
8
1
62
256
6
ByLayer
370
18
48
1
60
0
100
AcDbLine
10
4.375
20
-35.0809
30
0
11
4.375
21
-34.797161
31
0
39
0
210
0
220
0
230
1
0
LINE
5
25B
100
AcDbEntity
8
1
62
256
6
ByLayer
370
18
48
1
60
0
100
AcDbLine
10
4.4
20
-26.000873
30
0
11
4.4
21
-29.160097
31
0
39
0
210
0
220
0
230
1
0
LINE
5
25C
100
AcDbEntity
8
1
62
256
6
ByLayer
370
18
48
1
60
0
100
AcDbLine
10
9.625
20
-26.000873
30
0
11
9.625
21
-29.160097
31
0
39
0
210
0
220
0
230
1
0
LINE
5
25D
100
AcDbEntity
8
1
62
256
6
ByLayer
370
13
48
1
60
0
100
AcDbLine
10
9.625
20
-25.132427
30
0
11
4.4
21
-25.132427
31
0
39
0
210
0
220
0
230
1
0
LINE
5
25E
100
AcDbEntity
8
1
62
256
6
ByLayer
370
18
48
1
60
0
100
AcDbLine
10
4.375
20
-36.242606
30
0
11
4.375
21
-36.526346
31
0
39
0
210
0
220
0
230
1
0
LINE
5
25F
100
AcDbEntity
8
1
62
256
6
ByLayer
370
18
48
1
60
0
100
AcDbLine
10
4.4
20
-29.160097
30
0
11
9.625
21
-29.160097
31
0
39
0
210
0
220
0
230
1
0
LINE
5
260
100
AcDbEntity
8
1
62
256
6
ByLayer
370
13
48
1
60
0
100
AcDbLine
10
9.625
20
-25.033468
30
0
11
4.4
21
-25.033468
31
0
39
0
210
0
220
0
230
1
0
LINE
5
261
100
AcDbEntity
8
1
62
256
6
ByLayer
370
18
48
1
60
0
100
AcDbLine
10
9.625
20
-26.000873
30
0
11
4.4
21
-26.000873
31
0
39
0
210
0
220
0
230
1
0
LINE
5
262
100
AcDbEntity
8
1
62
256
6
ByLayer
370
18
48
1
60
0
100
AcDbLine
10
9.625
20
-25.261671
30
0
11
9.625
21
-26.000873
31
0
39
0
210
0
220
0
230
1
0
LINE
5
263
100
AcDbEntity
8
1
62
256
6
ByLayer
370
18
48
1
60
0
100
AcDbLine
10
4.4
20
-25.261671
30
0
11
4.4
21
-26.000873
31
0
39
0
210
0
220
0
230
1
0
LINE
5
264
100
AcDbEntity
8
1
62
256
6
ByLayer
370
18
48
1
60
0
100
AcDbLine
10
9.625
20
-25.132427
30
0
11
9.625
21
-25.261671
31
0
39
0
210
0
220
0
230
1
0
LINE
5
265
100
AcDbEntity
8
1
62
256
6
ByLayer
370
18
48
1
60
0
100
AcDbLine
10
4.4
20
-25.132427
30
0
11
4.4
21
-25.261671
31
0
39
0
210
0
220
0
230
1
0
LINE
5
266
100
AcDbEntity
8
1
62
256
6
ByLayer
370
13
48
1
60
0
100
AcDbLine
10
9.625
20
-24.523036
30
0
11
9.570546
21
-24.523036
31
0
39
0
210
0
220
0
230
1
0
LINE
5
267
100
AcDbEntity
8
1
62
256
6
ByLayer
370
13
48
1
60
0
100
AcDbLine
10
4.429636
20
-24.523036
30
0
11
4.4
21
-24.523036
31
0
39
0
210
0
220
0
230
1
0
LINE
5
268
100
AcDbEntity
8
1
62
256
6
ByLayer
370
18
48
1
60
0
100
AcDbLine
10
9.625
20
-25.132427
30
0
11
9.625
21
-25.033468
31
0
39
0
210
0
220
0
230
1
0
LINE
5
269
100
AcDbEntity
8
1
62
256
6
ByLayer
370
18
48
1
60
0
100
AcDbLine
10
4.4
20
-25.132427
30
0
11
4.4
21
-25.033468
31
0
39
0
210
0
220
0
230
1
0
LINE
5
26A
100
AcDbEntity
8
1
62
256
6
ByLayer
370
13
48
1
60
0
100
AcDbLine
10
9.625
20
-24.393791
30
0
11
9.595936
21
-24.393791
31
0
39
0
210
0
220
0
230
1
0
LINE
5
26B
100
AcDbEntity
8
1
62
256
6
ByLayer
370
18
48
1
60
0
100
AcDbLine
10
9.625
20
-25.014022
30
0
11
9.625
21
-25.033468
31
0
39
0
210
0
220
0
230
1
0
LINE
5
26C
100
AcDbEntity
8
1
62
256
6
ByLayer
370
13
48
1
60
0
100
AcDbLine
10
9.625
20
-24.294833
30
0
11
9.599936
21
-24.294833
31
0
39
0
210
0
220
0
230
1
0
LINE
5
26D
100
AcDbEntity
8
1
62
256
6
ByLayer
370
18
48
1
60
0
100
AcDbLine
10
4.4
20
-25.014022
30
0
11
4.4
21
-25.033468
31
0
39
0
210
0
220
0
230
1
0
LINE
5
26E
100
AcDbEntity
8
1
62
256
6
ByLayer
370
18
48
1
60
0
100
AcDbLine
10
9.625
20
-25.014014
30
0
11
9.625
21
-24.523036
31
0
39
0
210
0
220
0
230
1
0
LINE
5
26F
100
AcDbEntity
8
1
62
256
6
ByLayer
370
18
48
1
60
0
100
AcDbLine
10
4.4
20
-25.014014
30
0
11
4.4
21
-24.523036
31
0
39
0
210
0
220
0
230
1
0
LINE
5
270
100
AcDbEntity
8
1
62
256
6
ByLayer
370
18
48
1
60
0
100
AcDbLine
10
9.625
20
-24.523036
30
0
11
9.625
21
-24.393791
31
0
39
0
210
0
220
0
230
1
0
LINE
5
271
100
AcDbEntity
8
1
62
256
6
ByLayer
370
18
48
1
60
0
100
AcDbLine
10
4.4
20
-24.523036
30
0
11
4.4
21
-24.393791
31
0
39
0
210
0
220
0
230
1
0
LINE
5
272
100
AcDbEntity
8
1
62
256
6
ByLayer
370
18
48
1
60
0
100
AcDbLine
10
9.625
20
-24.393791
30
0
11
9.625
21
-24.294833
31
0
39
0
210
0
220
0
230
1
0
LINE
5
273
100
AcDbEntity
8
1
62
256
6
ByLayer
370
18
48
1
60
0
100
AcDbLine
10
4.4
20
-24.393791
30
0
11
4.4
21
-24.343451
31
0
39
0
210
0
220
0
230
1
0
LINE
5
274
100
AcDbEntity
8
1
62
256
6
ByLayer
370
18
48
1
60
0
100
AcDbLine
10
9.625
20
-24.294833
30
0
11
9.625
21
-24.275386
31
0
39
0
210
0
220
0
230
1
0
LINE
5
275
100
AcDbEntity
8
1
62
256
6
ByLayer
370
18
48
1
60
0
100
AcDbLine
10
9.625
20
-32.196456
30
0
11
8.761898
21
-32.250248
31
0
39
0
210
0
220
0
230
1
0
LINE
5
276
100
AcDbEntity
8
1
62
256
6
ByLayer
370
18
48
1
60
0
100
AcDbLine
10
8.761898
20
-32.250248
30
0
11
8.633117
21
-31.888118
31
0
39
0
210
0
220
0
230
1
0
LINE
5
277
100
AcDbEntity
8
1
62
256
6
ByLayer
370
13
48
1
60
0
100
AcDbLine
10
9.625
20
-23.7844
30
0
11
9.599936
21
-23.7844
31
0
39
0
210
0
220
0
230
1
0
LINE
5
278
100
AcDbEntity
8
1
62
256
6
ByLayer
370
18
48
1
60
0
100
AcDbLine
10
8.633117
20
-31.888118
30
0
11
8.507914
21
-30.875849
31
0
39
0
210
0
220
0
230
1
0
LINE
5
279
100
AcDbEntity
8
1
62
256
6
ByLayer
370
13
48
1
60
0
100
AcDbLine
10
9.625
20
-23.655156
30
0
11
9.599936
21
-23.655156
31
0
39
0
210
0
220
0
230
1
0
LINE
5
27A
100
AcDbEntity
8
1
62
256
6
ByLayer
370
18
48
1
60
0
100
AcDbLine
10
8.507914
20
-30.875849
30
0
11
8.347398
21
-30.795455
31
0
39
0
210
0
220
0
230
1
0
LINE
5
27B
100
AcDbEntity
8
1
62
256
6
ByLayer
370
13
48
1
60
0
100
AcDbLine
10
9.625
20
-23.556197
30
0
11
9.599936
21
-23.556197
31
0
39
0
210
0
220
0
230
1
0
LINE
5
27C
100
AcDbEntity
8
1
62
256
6
ByLayer
370
18
48
1
60
0
100
AcDbLine
10
8.347398
20
-30.795455
30
0
11
4.4
21
-31.041473
31
0
39
0
210
0
220
0
230
1
0
LINE
5
27D
100
AcDbEntity
8
1
62
256
6
ByLayer
370
18
48
1
60
0
100
AcDbLine
10
9.625
20
-29.160097
30
0
11
9.625
21
-32.196456
31
0
39
0
210
0
220
0
230
1
0
LINE
5
27E
100
AcDbEntity
8
1
62
256
6
ByLayer
370
18
48
1
60
0
100
AcDbLine
10
4.4
20
-29.160097
30
0
11
4.4
21
-31.041473
31
0
39
0
210
0
220
0
230
1
0
LINE
5
27F
100
AcDbEntity
8
1
62
256
6
ByLayer
370
13
48
1
60
0
100
AcDbLine
10
9.599936
20
-22.456634
30
0
11
9.625
21
-22.456634
31
0
39
0
210
0
220
0
230
1
0
LINE
5
280
100
AcDbEntity
8
1
62
256
6
ByLayer
370
18
48
1
60
0
100
AcDbLine
10
9.625
20
-23.7844
30
0
11
9.625
21
-24.275379
31
0
39
0
210
0
220
0
230
1
0
LINE
5
281
100
AcDbEntity
8
1
62
256
6
ByLayer
370
18
48
1
60
0
100
AcDbLine
10
9.625
20
-23.655156
30
0
11
9.625
21
-23.7844
31
0
39
0
210
0
220
0
230
1
0
LINE
5
282
100
AcDbEntity
8
1
62
256
6
ByLayer
370
13
48
1
60
0
100
AcDbLine
10
9.599936
20
-22.429379
30
0
11
9.625
21
-22.429379
31
0
39
0
210
0
220
0
230
1
0
LINE
5
283
100
AcDbEntity
8
1
62
256
6
ByLayer
370
18
48
1
60
0
100
AcDbLine
10
9.625
20
-23.556197
30
0
11
9.625
21
-23.655156
31
0
39
0
210
0
220
0
230
1
0
LINE
5
284
100
AcDbEntity
8
1
62
256
6
ByLayer
370
13
48
1
60
0
100
AcDbLine
10
9.625
20
-21.568494
30
0
11
9.599936
21
-21.568494
31
0
39
0
210
0
220
0
230
1
0
LINE
5
285
100
AcDbEntity
8
1
62
256
6
ByLayer
370
13
48
1
60
0
100
AcDbLine
10
9.625
20
-21.43925
30
0
11
9.599936
21
-21.43925
31
0
39
0
210
0
220
0
230
1
0
LINE
5
286
100
AcDbEntity
8
1
62
256
6
ByLayer
370
18
48
1
60
0
100
AcDbLine
10
9.625
20
-23.536751
30
0
11
9.625
21
-23.556197
31
0
39
0
210
0
220
0
230
1
0
LINE
5
287
100
AcDbEntity
8
1
62
256
6
ByLayer
370
18
48
1
60
0
100
AcDbLine
10
9.625
20
-22.456634
30
0
11
9.625
21
-23.536726
31
0
39
0
210
0
220
0
230
1
0
LINE
5
288
100
AcDbEntity
8
1
62
256
6
ByLayer
370
13
48
1
60
0
100
AcDbLine
10
9.625
20
-21.340291
30
0
11
9.599936
21
-21.340291
31
0
39
0
210
0
220
0
230
1
0
LINE
5
289
100
AcDbEntity
8
1
62
256
6
ByLayer
370
18
48
1
60
0
100
AcDbLine
10
9.625
20
-22.307697
30
0
11
9.599936
21
-22.307697
31
0
39
0
210
0
220
0
230
1
0
LINE
5
28A
100
AcDbEntity
8
1
62
256
6
ByLayer
370
18
48
1
60
0
100
AcDbLine
10
9.625
20
-22.307697
30
0
11
9.625
21
-22.429379
31
0
39
0
210
0
220
0
230
1
0
LINE
5
28B
100
AcDbEntity
8
1
62
256
6
ByLayer
370
18
48
1
60
0
100
AcDbLine
10
9.625
20
-22.307697
30
0
11
9.625
21
-21.568494
31
0
39
0
210
0
220
0
230
1
0
LINE
5
28C
100
AcDbEntity
8
1
62
256
6
ByLayer
370
13
48
1
60
0
100
AcDbLine
10
9.625
20
-20.829859
30
0
11
9.599936
21
-20.829859
31
0
39
0
210
0
220
0
230
1
0
LINE
5
28D
100
AcDbEntity
8
1
62
256
6
ByLayer
370
18
48
1
60
0
100
AcDbLine
10
9.625
20
-21.568494
30
0
11
9.625
21
-21.43925
31
0
39
0
210
0
220
0
230
1
0
LINE
5
28E
100
AcDbEntity
8
1
62
256
6
ByLayer
370
13
48
1
60
0
100
AcDbLine
10
9.625
20
-20.700615
30
0
11
9.599936
21
-20.700615
31
0
39
0
210
0
220
0
230
1
0
LINE
5
28F
100
AcDbEntity
8
1
62
256
6
ByLayer
370
18
48
1
60
0
100
AcDbLine
10
9.625
20
-22.429379
30
0
11
9.625
21
-22.456634
31
0
39
0
210
0
220
0
230
1
0
LINE
5
290
100
AcDbEntity
8
1
62
256
6
ByLayer
370
13
48
1
60
0
100
AcDbLine
10
9.625
20
-20.601656
30
0
11
9.599936
21
-20.601656
31
0
39
0
210
0
220
0
230
1
0
LINE
5
291
100
AcDbEntity
8
1
62
256
6
ByLayer
370
18
48
1
60
0
100
AcDbLine
10
9.625
20
-21.43925
30
0
11
9.625
21
-21.340291
31
0
39
0
210
0
220
0
230
1
0
LINE
5
292
100
AcDbEntity
8
1
62
256
6
ByLayer
370
18
48
1
60
0
100
AcDbLine
10
9.625
20
-21.340291
30
0
11
9.625
21
-21.320845
31
0
39
0
210
0
220
0
230
1
0
LINE
5
293
100
AcDbEntity
8
1
62
256
6
ByLayer
370
13
48
1
60
0
100
AcDbLine
10
9.625
20
-20.091224
30
0
11
9.599936
21
-20.091224
31
0
39
0
210
0
220
0
230
1
0
LINE
5
294
100
AcDbEntity
8
1
62
256
6
ByLayer
370
18
48
1
60
0
100
AcDbLine
10
9.625
20
-20.829859
30
0
11
9.625
21
-21.320838
31
0
39
0
210
0
220
0
230
1
0
LINE
5
295
100
AcDbEntity
8
1
62
256
6
ByLayer
370
13
48
1
60
0
100
AcDbLine
10
9.625
20
-19.961979
30
0
11
9.599936
21
-19.961979
31
0
39
0
210
0
220
0
230
1
0
LINE
5
296
100
AcDbEntity
8
1
62
256
6
ByLayer
370
18
48
1
60
0
100
AcDbLine
10
9.625
20
-20.700615
30
0
11
9.625
21
-20.829859
31
0
39
0
210
0
220
0
230
1
0
LINE
5
297
100
AcDbEntity
8
1
62
256
6
ByLayer
370
13
48
1
60
0
100
AcDbLine
10
9.625
20
-19.863021
30
0
11
9.599936
21
-19.863021
31
0
39
0
210
0
220
0
230
1
0
LINE
5
298
100
AcDbEntity
8
1
62
256
6
ByLayer
370
18
48
1
60
0
100
AcDbLine
10
9.625
20
-20.601656
30
0
11
9.625
21
-20.700615
31
0
39
0
210
0
220
0
230
1
0
LINE
5
299
100
AcDbEntity
8
1
62
256
6
ByLayer
370
18
48
1
60
0
100
AcDbLine
10
9.625
20
-20.582209
30
0
11
9.625
21
-20.601656
31
0
39
0
210
0
220
0
230
1
0
LINE
5
29A
100
AcDbEntity
8
1
62
256
6
ByLayer
370
13
48
1
60
0
100
AcDbLine
10
9.625
20
-19.352588
30
0
11
9.599936
21
-19.352588
31
0
39
0
210
0
220
0
230
1
0
LINE
5
29B
100
AcDbEntity
8
1
62
256
6
ByLayer
370
18
48
1
60
0
100
AcDbLine
10
9.625
20
-20.582202
30
0
11
9.625
21
-20.091224
31
0
39
0
210
0
220
0
230
1
0
LINE
5
29C
100
AcDbEntity
8
1
62
256
6
ByLayer
370
13
48
1
60
0
100
AcDbLine
10
9.625
20
-19.223344
30
0
11
9.599936
21
-19.223344
31
0
39
0
210
0
220
0
230
1
0
LINE
5
29D
100
AcDbEntity
8
1
62
256
6
ByLayer
370
18
48
1
60
0
100
AcDbLine
10
9.625
20
-20.091224
30
0
11
9.625
21
-19.961979
31
0
39
0
210
0
220
0
230
1
0
LINE
5
29E
100
AcDbEntity
8
1
62
256
6
ByLayer
370
13
48
1
60
0
100
AcDbLine
10
9.625
20
-19.124385
30
0
11
9.599936
21
-19.124385
31
0
39
0
210
0
220
0
230
1
0
LINE
5
29F
100
AcDbEntity
8
1
62
256
6
ByLayer
370
18
48
1
60
0
100
AcDbLine
10
9.625
20
-19.961979
30
0
11
9.625
21
-19.863021
31
0
39
0
210
0
220
0
230
1
0
LINE
5
2A0
100
AcDbEntity
8
1
62
256
6
ByLayer
370
18
48
1
60
0
100
AcDbLine
10
9.625
20
-19.863021
30
0
11
9.625
21
-19.843574
31
0
39
0
210
0
220
0
230
1
0
LINE
5
2A1
100
AcDbEntity
8
1
62
256
6
ByLayer
370
13
48
1
60
0
100
AcDbLine
10
9.625
20
-18.613953
30
0
11
9.599936
21
-18.613953
31
0
39
0
210
0
220
0
230
1
0
LINE
5
2A2
100
AcDbEntity
8
1
62
256
6
ByLayer
370
18
48
1
60
0
100
AcDbLine
10
9.625
20
-19.352588
30
0
11
9.625
21
-19.843567
31
0
39
0
210
0
220
0
230
1
0
LINE
5
2A3
100
AcDbEntity
8
1
62
256
6
ByLayer
370
13
48
1
60
0
100
AcDbLine
10
9.625
20
-18.484708
30
0
11
9.599936
21
-18.484708
31
0
39
0
210
0
220
0
230
1
0
LINE
5
2A4
100
AcDbEntity
8
1
62
256
6
ByLayer
370
18
48
1
60
0
100
AcDbLine
10
9.625
20
-19.223344
30
0
11
9.625
21
-19.352588
31
0
39
0
210
0
220
0
230
1
0
LINE
5
2A5
100
AcDbEntity
8
1
62
256
6
ByLayer
370
13
48
1
60
0
100
AcDbLine
10
9.625
20
-18.38575
30
0
11
9.599936
21
-18.38575
31
0
39
0
210
0
220
0
230
1
0
LINE
5
2A6
100
AcDbEntity
8
1
62
256
6
ByLayer
370
18
48
1
60
0
100
AcDbLine
10
9.625
20
-19.223344
30
0
11
9.625
21
-19.124385
31
0
39
0
210
0
220
0
230
1
0
LINE
5
2A7
100
AcDbEntity
8
1
62
256
6
ByLayer
370
18
48
1
60
0
100
AcDbLine
10
9.625
20
-19.104939
30
0
11
9.625
21
-19.124385
31
0
39
0
210
0
220
0
230
1
0
LINE
5
2A8
100
AcDbEntity
8
1
62
256
6
ByLayer
370
13
48
1
60
0
100
AcDbLine
10
9.625
20
-17.875318
30
0
11
9.599936
21
-17.875318
31
0
39
0
210
0
220
0
230
1
0
LINE
5
2A9
100
AcDbEntity
8
1
62
256
6
ByLayer
370
18
48
1
60
0
100
AcDbLine
10
9.625
20
-19.104932
30
0
11
9.625
21
-18.613953
31
0
39
0
210
0
220
0
230
1
0
LINE
5
2AA
100
AcDbEntity
8
1
62
256
6
ByLayer
370
13
48
1
60
0
100
AcDbLine
10
9.625
20
-17.746073
30
0
11
9.599936
21
-17.746073
31
0
39
0
210
0
220
0
230
1
0
LINE
5
2AB
100
AcDbEntity
8
1
62
256
6
ByLayer
370
18
48
1
60
0
100
AcDbLine
10
9.625
20
-18.613953
30
0
11
9.625
21
-18.484708
31
0
39
0
210
0
220
0
230
1
0
LINE
5
2AC
100
AcDbEntity
8
1
62
256
6
ByLayer
370
13
48
1
60
0
100
AcDbLine
10
9.625
20
-17.647115
30
0
11
9.599936
21
-17.647115
31
0
39
0
210
0
220
0
230
1
0
LINE
5
2AD
100
AcDbEntity
8
1
62
256
6
ByLayer
370
18
48
1
60
0
100
AcDbLine
10
9.625
20
-18.484708
30
0
11
9.625
21
-18.38575
31
0
39
0
210
0
220
0
230
1
0
LINE
5
2AE
100
AcDbEntity
8
1
62
256
6
ByLayer
370
18
48
1
60
0
100
AcDbLine
10
9.625
20
-18.38575
30
0
11
9.625
21
-18.366303
31
0
39
0
210
0
220
0
230
1
0
LINE
5
2AF
100
AcDbEntity
8
1
62
256
6
ByLayer
370
13
48
1
60
0
100
AcDbLine
10
9.625
20
-17.136682
30
0
11
9.599936
21
-17.136682
31
0
39
0
210
0
220
0
230
1
0
LINE
5
2B0
100
AcDbEntity
8
1
62
256
6
ByLayer
370
18
48
1
60
0
100
AcDbLine
10
9.625
20
-17.875318
30
0
11
9.625
21
-18.366296
31
0
39
0
210
0
220
0
230
1
0
LINE
5
2B1
100
AcDbEntity
8
1
62
256
6
ByLayer
370
13
48
1
60
0
100
AcDbLine
10
9.625
20
-17.007438
30
0
11
9.599936
21
-17.007438
31
0
39
0
210
0
220
0
230
1
0
LINE
5
2B2
100
AcDbEntity
8
1
62
256
6
ByLayer
370
18
48
1
60
0
100
AcDbLine
10
9.625
20
-17.746073
30
0
11
9.625
21
-17.875318
31
0
39
0
210
0
220
0
230
1
0
LINE
5
2B3
100
AcDbEntity
8
1
62
256
6
ByLayer
370
13
48
1
60
0
100
AcDbLine
10
9.625
20
-16.908479
30
0
11
9.599936
21
-16.908479
31
0
39
0
210
0
220
0
230
1
0
LINE
5
2B4
100
AcDbEntity
8
1
62
256
6
ByLayer
370
18
48
1
60
0
100
AcDbLine
10
9.625
20
-17.647115
30
0
11
9.625
21
-17.746073
31
0
39
0
210
0
220
0
230
1
0
LINE
5
2B5
100
AcDbEntity
8
1
62
256
6
ByLayer
370
18
48
1
60
0
100
AcDbLine
10
9.625
20
-17.627668
30
0
11
9.625
21
-17.647115
31
0
39
0
210
0
220
0
230
1
0
LINE
5
2B6
100
AcDbEntity
8
1
62
256
6
ByLayer
370
18
48
1
60
0
100
AcDbLine
10
9.625
20
-17.627661
30
0
11
9.625
21
-17.136682
31
0
39
0
210
0
220
0
230
1
0
LINE
5
2B7
100
AcDbEntity
8
1
62
256
6
ByLayer
370
18
48
1
60
0
100
AcDbLine
10
9.625
20
-17.136682
30
0
11
9.625
21
-17.007438
31
0
39
0
210
0
220
0
230
1
0
LINE
5
2B8
100
AcDbEntity
8
1
62
256
6
ByLayer
370
18
48
1
60
0
100
AcDbLine
10
9.625
20
-17.007438
30
0
11
9.625
21
-16.908479
31
0
39
0
210
0
220
0
230
1
0
LINE
5
2B9
100
AcDbEntity
8
1
62
256
6
ByLayer
370
13
48
1
60
0
100
AcDbLine
10
8.261937
20
44.964202
30
0
11
8.302358
21
44.827881
31
0
39
0
210
0
220
0
230
1
0
LINE
5
2BA
100
AcDbEntity
8
1
62
256
6
ByLayer
370
18
48
1
60
0
100
AcDbLine
10
8.936359
20
45.44334
30
0
11
8.936319
21
45.443475
31
0
39
0
210
0
220
0
230
1
0
LINE
5
2BB
100
AcDbEntity
8
1
62
256
6
ByLayer
370
13
48
1
60
0
100
AcDbLine
10
6.533232
20
44.960243
30
0
11
6.606815
21
44.712083
31
0
39
0
210
0
220
0
230
1
0
LINE
5
2BC
100
AcDbEntity
8
1
62
256
6
ByLayer
370
13
48
1
60
0
100
AcDbLine
10
8.104927
20
45.827531
30
0
11
8.183392
21
45.562905
31
0
39
0
210
0
220
0
230
1
0
LINE
5
2BD
100
AcDbEntity
8
1
62
256
6
ByLayer
370
18
48
1
60
0
100
AcDbLine
10
6.737437
20
44.952661
30
0
11
6.667201
21
45.189535
31
0
39
0
210
0
220
0
230
1
0
LINE
5
2BE
100
AcDbEntity
8
1
62
256
6
ByLayer
370
13
48
1
60
0
100
AcDbLine
10
6.730822
20
45.824384
30
0
11
6.809287
21
45.559758
31
0
39
0
210
0
220
0
230
1
0
LINE
5
2BF
100
AcDbEntity
8
1
62
256
6
ByLayer
370
13
48
1
60
0
100
AcDbLine
10
7.247046
20
46.10844
30
0
11
7.325511
21
45.843814
31
0
39
0
210
0
220
0
230
1
0
MTEXT
5
3F2
100
AcDbEntity
8
SK6
62
256
6
ByLayer
370
13
48
1
60
0
100
AcDbMText
10
-15.120395
20
-87.625
30
0
210
0
220
0
230
1
1
\W0.7402;N331.32C-100S32CM
40
3.5
41
0
44
1.084337
50
0
71
7
72
5
7
iso_b_vert
0
DIMENSION
5
3FE
100
AcDbEntity
8
SK2
62
256
6
ByLayer
370
13
48
1
60
0
100
AcDbDimension
2
DimnDraft3D1
10
10
20
-50
30
0
11
18.792315
21
-61.267188
31
0
70
36
71
5
72
1
41
1
210
0
220
0
230
1
3
Standard
100
AcDbRadialDimension
15
0
25
0
35
0
40
0
1001
ACAD
1000
DSTYLE
1002
{
1070
   279
1070
     0
1070
   173
1070
     1
1070
   340
1005
3F3
1070
    75
1070
     1
1070
    76
1070
     1
1070
   271
1070
     2
1070
   272
1070
     2
1070
    73
1070
     0
1070
   171
1070
     3
1070
   274
1070
     4
1070
   177
1070
     2
1070
   176
1070
     2
1070
   178
1070
     2
1070
    78
1070
     8
1070
    48
1040
-0.005
1070
    41
1041
3.5
1070
   147
1041
1.75
1070
    42
1041
1.5875
1070
    44
1041
2.0
1070
   140
1041
3.5
1070
   343
1005
0
1070
   344
1005
0
1002
}
0
DIMENSION
5
40A
100
AcDbEntity
8
2
62
256
6
ByLayer
370
13
48
1
60
0
100
AcDbDimension
2
DimnDraft3D2
10
45.35
20
-50
30
0
11
40.35
21
1.615789
31
0
70
33
71
5
72
1
41
1
210
0
220
0
230
1
3
Standard
100
AcDbAlignedDimension
13
11.5875
23
50
33
0
14
11.5875
24
-50
34
0
1001
ACAD
1000
DSTYLE
1002
{
1070
   279
1070
     0
1070
    74
1070
     0
1070
   173
1070
     1
1070
   340
1005
3F3
1070
   271
1070
     2
1070
   272
1070
     2
1070
    77
1070
     1
1070
    73
1070
     0
1070
   171
1070
     3
1070
   274
1070
     4
1070
   177
1070
     2
1070
   176
1070
     2
1070
   178
1070
     2
1070
    78
1070
     8
1070
    48
1040
-0.005
1070
    41
1041
3.5
1070
   147
1041
2.0
1070
    42
1041
1.5875
1070
    44
1041
2.0
1070
   140
1041
4.0
1070
   343
1005
0
1070
   344
1005
0
1002
}
0
DIMENSION
5
415
100
AcDbEntity
8
SK2
62
256
6
ByLayer
370
13
48
1
60
0
100
AcDbDimension
2
DimnDraft3D3
10
-16.35
20
-16
30
0
11
-17.35
21
0.305263
31
0
70
33
71
5
72
1
41
1
210
0
220
0
230
1
3
Standard
100
AcDbAlignedDimension
13
-1.5875
23
16
33
0
14
-1.5875
24
-16
34
0
1001
ACAD
1000
DSTYLE
1002
{
1070
   279
1070
     0
1070
    74
1070
     0
1070
   173
1070
     1
1070
   340
1005
3F3
1070
   271
1070
     2
1070
   272
1070
     2
1070
    77
1070
     1
1070
    73
1070
     0
1070
   171
1070
     3
1070
   274
1070
     4
1070
   177
1070
     2
1070
   176
1070
     2
1070
   178
1070
     2
1070
    78
1070
     8
1070
    48
1040
-0.005
1070
    41
1041
3.5
1070
   147
1041
2.0
1070
    42
1041
1.5875
1070
    44
1041
2.0
1070
   140
1041
4.0
1070
   343
1005
0
1070
   344
1005
0
1002
}
0
DIMENSION
5
420
100
AcDbEntity
8
SK2
62
256
6
ByLayer
370
13
48
1
60
0
100
AcDbDimension
2
DimnDraft3D4
10
-31.35
20
-23.5
30
0
11
-32.35
21
2.4
31
0
70
33
71
5
72
1
41
1
210
0
220
0
230
1
3
Standard
100
AcDbAlignedDimension
13
-1.5875
23
23.5
33
0
14
-1.5875
24
-23.5
34
0
1001
ACAD
1000
DSTYLE
1002
{
1070
   279
1070
     0
1070
    74
1070
     0
1070
   173
1070
     1
1070
   340
1005
3F3
1070
   271
1070
     2
1070
   272
1070
     2
1070
    77
1070
     1
1070
    73
1070
     0
1070
   171
1070
     3
1070
   274
1070
     4
1070
   177
1070
     2
1070
   176
1070
     2
1070
   178
1070
     2
1070
    78
1070
     8
1070
    48
1040
-0.005
1070
    41
1041
3.5
1070
   147
1041
2.0
1070
    42
1041
1.5875
1070
    44
1041
2.0
1070
   140
1041
4.0
1070
   343
1005
0
1070
   344
1005
0
1002
}
0
DIMENSION
5
42A
100
AcDbEntity
8
SK2
62
256
6
ByLayer
370
13
48
1
60
0
100
AcDbDimension
2
DimnDraft3D5
10
4
20
53
30
0
11
-1
21
53
31
0
70
32
71
5
72
1
41
1
210
0
220
0
230
1
3
Standard
100
AcDbAlignedDimension
13
10
23
51.5875
33
0
14
4
24
51.5875
34
0
50
0
100
AcDbRotatedDimension
1001
ACAD
1000
DSTYLE
1002
{
1070
   279
1070
     0
1070
   172
1070
     1
1070
   173
1070
     1
1070
   340
1005
3F3
1070
   271
1070
     2
1070
   272
1070
     2
1070
    77
1070
     1
1070
    73
1070
     0
1070
   171
1070
     3
1070
   274
1070
     4
1070
   177
1070
     2
1070
   176
1070
     2
1070
   178
1070
     2
1070
    78
1070
     8
1070
    48
1040
-0.005
1070
    41
1041
3.5
1070
   147
1041
2.0
1070
    42
1041
1.5875
1070
    44
1041
2.0
1070
   140
1041
4.0
1070
   343
1005
0
1070
   344
1005
0
1002
}
0
DIMENSION
5
435
100
AcDbEntity
8
SK2
62
256
6
ByLayer
370
13
48
1
60
0
100
AcDbDimension
2
DimnDraft3D6
10
14
20
-64
30
0
11
-20
21
-64
31
0
70
32
71
5
72
1
41
1
210
0
220
0
230
1
3
Standard
100
AcDbAlignedDimension
13
0
23
-25.0875
33
0
14
14
24
-25.0875
34
0
50
0
100
AcDbRotatedDimension
1001
ACAD
1000
DSTYLE
1002
{
1070
   279
1070
     0
1070
   172
1070
     1
1070
   173
1070
     1
1070
   340
1005
3F3
1070
   271
1070
     2
1070
   272
1070
     2
1070
    77
1070
     1
1070
    73
1070
     0
1070
   171
1070
     3
1070
   274
1070
     4
1070
   177
1070
     2
1070
   176
1070
     2
1070
   178
1070
     2
1070
    78
1070
     8
1070
    48
1040
-0.005
1070
    41
1041
3.5
1070
   147
1041
2.0
1070
    42
1041
1.5875
1070
    44
1041
2.0
1070
   140
1041
4.0
1070
   343
1005
0
1070
   344
1005
0
1002
}
0
ENDSEC
0
SECTION
2
OBJECTS
0
DICTIONARY
5
49f
330
0
100
AcDbDictionary
280
0
281
1
3
ACAD_GROUP
350
4a0
3
ACAD_MLINESTYLE
350
4a1
0
DICTIONARY
5
4a0
330
0
100
AcDbDictionary
280
0
281
1
0
DICTIONARY
5
4a1
330
0
100
AcDbDictionary
280
0
281
1
3
Standard
350
18
0
MLINESTYLE
5
18
330
4a1
100
AcDbMlineStyle
2
Standard
70
0
3

62
256
51
90
52
90
71
2
49
-0.5
62
256
6
ByLayer
49
0.5
62
256
6
ByLayer
0
RASTERVARIABLES
5
48e
330

100
AcDbRasterVariables
90
0
70
1
71
1
72
1
0
ENDSEC
0
EOF
