0
SECTION
2
HEADER
9
$ACADVER
1
AC1015
9
$DWGCODEPAGE
3
ANSI_1252
9
$HANDSEED
5
479
9
$ANGBASE
50
0
9
$ANGDIR
70
0
9
$ATTMODE
70
1
9
$AUNITS
70
0
9
$AUPREC
70
0
9
$CECOLOR
62
256
9
$CELTSCALE
40
1
9
$CELTYPE
6
ByLayer
9
$CELWEIGHT
370
18
9
$CLAYER
8
0
9
$CMLJUST
70
0
9
$CMLSCALE
40
1
9
$CMLSTYLE
2
Standard
9
$DIMSTYLE
2
Standard
9
$TEXTSIZE
40
0.2
9
$TEXTSTYLE
7
Standard
9
$LUNITS
70
2
9
$LUPREC
70
4
9
$EXTNAMES
290
1
9
$INSUNITS
70
4
9
$LTSCALE
40
1
9
$LWDISPLAY
290
1
9
$PDMODE
70
0
9
$PDSIZE
40
0
9
$PLINEGEN
70
0
0
ENDSEC
0
SECTION
2
CLASSES
0
CLASS
1
RASTERVARIABLES
2
AcDbRasterVariables
3
ISM
90
0
280
0
281
0
0
ENDSEC
0
SECTION
2
TABLES
0
TABLE
2
VPORT
5
46f
100
AcDbSymbolTable
0
VPORT
5
1
100
AcDbSymbolTableRecord
100
AcDbViewportTableRecord
2
*Active
70
0
10
0
20
0
11
1
21
1
12
-1
22
1
13
0
23
0
14
0.5
24
0.5
15
10
25
10
16
0
26
0
36
1
17
0
27
0
37
0
0
ENDTAB
0
TABLE
2
LTYPE
5
470
100
AcDbSymbolTable
0
LTYPE
5
14
100
AcDbSymbolTableRecord
100
AcDbLinetypeTableRecord
70
0
2
ByBlock
3

72
65
73
0
40
0
0
LTYPE
5
15
100
AcDbSymbolTableRecord
100
AcDbLinetypeTableRecord
70
0
2
ByLayer
3

72
65
73
0
40
0
0
LTYPE
5
16
100
AcDbSymbolTableRecord
100
AcDbLinetypeTableRecord
70
0
2
CONTINUOUS
3
Solid line
72
65
73
0
40
0
0
LTYPE
5
6A
100
AcDbSymbolTableRecord
100
AcDbLinetypeTableRecord
70
0
2
CENTER
3
____ _ ____ _ ____ _ ____
72
65
73
4
40
47.5
49
22
74
0
49
-8.5
74
0
49
8.5
74
0
49
-8.5
74
0
0
LTYPE
5
6B
100
AcDbSymbolTableRecord
100
AcDbLinetypeTableRecord
70
0
2
DASHED
3
__ __ __ __ __ __ __ __ __
72
65
73
2
40
25.72
49
12.86
74
0
49
-12.86
74
0
0
ENDTAB
0
TABLE
2
LAYER
5
471
100
AcDbSymbolTable
0
LAYER
5
10
100
AcDbSymbolTableRecord
100
AcDbLayerTableRecord
2
0
70
0
62
7
6
CONTINUOUS
290
1
370
-3
390
0
0
LAYER
5
6D
100
AcDbSymbolTableRecord
100
AcDbLayerTableRecord
2
81
70
0
62
-3
6
CONTINUOUS
290
1
370
-3
390
0
0
LAYER
5
6F
100
AcDbSymbolTableRecord
100
AcDbLayerTableRecord
2
80
70
0
62
-6
6
CONTINUOUS
290
1
370
-3
390
0
0
LAYER
5
72
100
AcDbSymbolTableRecord
100
AcDbLayerTableRecord
2
1
70
0
62
4
6
CONTINUOUS
290
1
370
-3
390
0
0
LAYER
5
8D
100
AcDbSymbolTableRecord
100
AcDbLayerTableRecord
2
4
70
0
62
-2
6
CENTER
290
1
370
-3
390
0
0
LAYER
5
3CE
100
AcDbSymbolTableRecord
100
AcDbLayerTableRecord
2
2
70
0
62
7
6
CONTINUOUS
290
1
370
-3
390
0
0
LAYER
5
45c
100
AcDbSymbolTableRecord
100
AcDbLayerTableRecord
2
SK4
70
0
62
2
6
CENTER
290
1
370
-3
390
0
0
LAYER
5
45d
100
AcDbSymbolTableRecord
100
AcDbLayerTableRecord
2
SK6
70
0
62
5
6
CONTINUOUS
290
1
370
-3
390
0
0
LAYER
5
45e
100
AcDbSymbolTableRecord
100
AcDbLayerTableRecord
2
SK2
70
0
62
7
6
CONTINUOUS
290
1
370
-3
390
0
0
ENDTAB
0
TABLE
2
STYLE
5
472
100
AcDbSymbolTable
0
STYLE
5
11
100
AcDbSymbolTableRecord
100
AcDbTextStyleTableRecord
2
Standard
3
txt
70
0
71
0
40
0
41
1
42
0
50
0
0
STYLE
5
3C0
100
AcDbSymbolTableRecord
100
AcDbTextStyleTableRecord
2
iso_b_vert
3
simplex.shx
70
0
71
0
40
0
41
1
42
0
50
0
0
STYLE
5
3C1
100
AcDbSymbolTableRecord
100
AcDbTextStyleTableRecord
2
DWGDirectTextStyle
3
simplex
70
0
71
0
40
0
41
1
42
0
50
0
0
ENDTAB
0
TABLE
2
DIMSTYLE
5
473
100
AcDbSymbolTable
100
AcDbDimStyleTable
0
DIMSTYLE
105
27
100
AcDbSymbolTableRecord
100
AcDbDimStyleTableRecord
2
Standard
70
0
3
<>
41
0.18
42
0.0625
44
0.18
140
0.18
147
0.09
73
0
74
0
77
1
271
2
275
0
278
52
280
0
340
11
0
ENDTAB
0
TABLE
2
VIEW
5
474
100
AcDbSymbolTable
0
ENDTAB
0
TABLE
2
UCS
5
475
100
AcDbSymbolTable
0
ENDTAB
0
TABLE
2
APPID
5
476
100
AcDbSymbolTable
0
APPID
5
12
100
AcDbSymbolTableRecord
100
AcDbRegAppTableRecord
2
ACAD
70
0
0
ENDTAB
0
TABLE
2
BLOCK_RECORD
5
477
100
AcDbSymbolTable
0
BLOCK_RECORD
5
1F
100
AcDbSymbolTableRecord
100
AcDbBlockTableRecord
2
*Model_Space
340
0
70
0
0
BLOCK_RECORD
5
1B
100
AcDbSymbolTableRecord
100
AcDbBlockTableRecord
2
*Paper_Space
340
0
70
0
0
BLOCK_RECORD
5
23
100
AcDbSymbolTableRecord
100
AcDbBlockTableRecord
2
*Paper_Space0
340
0
70
0
0
BLOCK_RECORD
5
3C3
100
AcDbSymbolTableRecord
100
AcDbBlockTableRecord
2
DimnDraft3D1
340
0
70
0
0
BLOCK_RECORD
5
3CC
100
AcDbSymbolTableRecord
100
AcDbBlockTableRecord
2
DimnDraft3D2
340
0
70
0
0
BLOCK_RECORD
5
3D8
100
AcDbSymbolTableRecord
100
AcDbBlockTableRecord
2
DimnDraft3D3
340
0
70
0
0
BLOCK_RECORD
5
3E3
100
AcDbSymbolTableRecord
100
AcDbBlockTableRecord
2
DimnDraft3D4
340
0
70
0
0
BLOCK_RECORD
5
3EE
100
AcDbSymbolTableRecord
100
AcDbBlockTableRecord
2
DimnDraft3D5
340
0
70
0
0
BLOCK_RECORD
5
3F8
100
AcDbSymbolTableRecord
100
AcDbBlockTableRecord
2
DimnDraft3D6
340
0
70
0
0
ENDTAB
0
ENDSEC
0
SECTION
2
BLOCKS
0
BLOCK
5
20
100
AcDbEntity
8
0
100
AcDbBlockBegin
2
*Model_Space
70
0
10
0
20
0
30
0
3
*Model_Space
0
ENDBLK
5
21
100
AcDbEntity
8
0
100
AcDbBlockEnd
0
BLOCK
5
1C
100
AcDbEntity
8
0
100
AcDbBlockBegin
2
*Paper_Space
70
0
10
0
20
0
30
0
3
*Paper_Space
0
ENDBLK
5
1D
100
AcDbEntity
8
0
100
AcDbBlockEnd
0
BLOCK
5
24
100
AcDbEntity
8
0
100
AcDbBlockBegin
2
*Paper_Space0
70
0
10
0
20
0
30
0
3
*Paper_Space0
0
ENDBLK
5
25
100
AcDbEntity
8
0
100
AcDbBlockEnd
0
BLOCK
5
3C9
100
AcDbEntity
8
0
100
AcDbBlockBegin
2
DimnDraft3D1
70
0
10
0
20
0
30
0
3
DimnDraft3D1
0
MTEXT
5
3C4
100
AcDbEntity
8
SK2
62
256
6
ByLayer
370
13
48
1
60
0
100
AcDbMText
10
22.004447
20
-52.716757
30
0
210
0
220
0
230
1
1
\W0.7121;0.8
40
3.5
41
0
44
1.084337
50
315
71
7
72
5
7
iso_b_vert
0
MTEXT
5
3C6
100
AcDbEntity
8
SK2
62
256
6
ByLayer
370
13
48
1
60
0
100
AcDbMText
10
19.399316
20
-50.111627
30
0
210
0
220
0
230
1
1
\W0.6380;R
40
3.5
41
0
44
1.084337
50
315
71
7
72
5
7
iso_b_vert
0
LINE
5
3C7
100
AcDbEntity
8
SK2
62
256
6
ByLayer
370
13
48
1
60
0
100
AcDbLine
10
13.565685
20
-40.565685
30
0
11
19.576093
21
-46.576093
31
0
39
0
210
0
220
0
230
1
0
SOLID
5
3C8
100
AcDbEntity
8
SK2
62
256
6
ByLayer
370
13
48
1
60
0
100
AcDbTrace
10
13.565685
20
-40.565685
30
0
11
16.366381
21
-42.714735
31
0
12
15.714737
22
-43.366384
32
0
13
13.565685
23
-40.565685
33
0
39
0
210
0
220
0
230
1
0
ENDBLK
5
3CA
100
AcDbEntity
8
0
100
AcDbBlockEnd
0
BLOCK
5
3D5
100
AcDbEntity
8
0
100
AcDbBlockBegin
2
DimnDraft3D2
70
0
10
0
20
0
30
0
3
DimnDraft3D2
0
MTEXT
5
3CD
100
AcDbEntity
8
2
62
256
6
ByLayer
370
13
48
1
60
0
100
AcDbMText
10
44.35
20
3.610526
30
0
210
0
220
0
230
1
1
\W0.6740;80
40
4
41
0
44
1.084337
50
90
71
7
72
5
7
iso_b_vert
0
MTEXT
5
3CF
100
AcDbEntity
8
2
62
256
6
ByLayer
370
13
48
1
60
0
100
AcDbMText
10
44.35
20
-4.358224
30
0
210
0
220
0
230
1
1
%%c
40
4
41
0
44
1.084337
50
90
71
7
72
5
7
iso_b_vert
0
LINE
5
3D0
100
AcDbEntity
8
2
62
256
6
ByLayer
370
13
48
1
60
0
100
AcDbLine
10
14.5875
20
40
30
0
11
48.35
21
40
31
0
39
0
210
0
220
0
230
1
0
LINE
5
3D1
100
AcDbEntity
8
2
62
256
6
ByLayer
370
13
48
1
60
0
100
AcDbLine
10
14.5875
20
-40
30
0
11
48.35
21
-40
31
0
39
0
210
0
220
0
230
1
0
LINE
5
3D2
100
AcDbEntity
8
2
62
256
6
ByLayer
370
13
48
1
60
0
100
AcDbLine
10
46.35
20
40
30
0
11
46.35
21
-40
31
0
39
0
210
0
220
0
230
1
0
SOLID
5
3D3
100
AcDbEntity
8
2
62
256
6
ByLayer
370
13
48
1
60
0
100
AcDbTrace
10
46.35
20
40
30
0
11
46.810784
21
36.500002
31
0
12
45.889216
22
36.499998
32
0
13
46.35
23
40
33
0
39
0
210
0
220
0
230
1
0
SOLID
5
3D4
100
AcDbEntity
8
2
62
256
6
ByLayer
370
13
48
1
60
0
100
AcDbTrace
10
46.35
20
-40
30
0
11
45.889216
21
-36.500002
31
0
12
46.810784
22
-36.499998
32
0
13
46.35
23
-40
33
0
39
0
210
0
220
0
230
1
0
ENDBLK
5
3D6
100
AcDbEntity
8
0
100
AcDbBlockEnd
0
BLOCK
5
3E0
100
AcDbEntity
8
0
100
AcDbBlockBegin
2
DimnDraft3D3
70
0
10
0
20
0
30
0
3
DimnDraft3D3
0
MTEXT
5
3D9
100
AcDbEntity
8
SK2
62
256
6
ByLayer
370
13
48
1
60
0
100
AcDbMText
10
-16.35
20
1.305263
30
0
210
0
220
0
230
1
1
\W0.7346;27.0
40
4
41
0
44
1.084337
50
90
71
7
72
5
7
iso_b_vert
0
MTEXT
5
3DA
100
AcDbEntity
8
SK2
62
256
6
ByLayer
370
13
48
1
60
0
100
AcDbMText
10
-16.35
20
-6.663487
30
0
210
0
220
0
230
1
1
%%c
40
4
41
0
44
1.084337
50
90
71
7
72
5
7
iso_b_vert
0
LINE
5
3DB
100
AcDbEntity
8
SK2
62
256
6
ByLayer
370
13
48
1
60
0
100
AcDbLine
10
-1.5875
20
13.5
30
0
11
-16.35
21
13.5
31
0
39
0
210
0
220
0
230
1
0
LINE
5
3DC
100
AcDbEntity
8
SK2
62
256
6
ByLayer
370
13
48
1
60
0
100
AcDbLine
10
-1.5875
20
-13.5
30
0
11
-16.35
21
-13.5
31
0
39
0
210
0
220
0
230
1
0
LINE
5
3DD
100
AcDbEntity
8
SK2
62
256
6
ByLayer
370
13
48
1
60
0
100
AcDbLine
10
-14.35
20
13.5
30
0
11
-14.35
21
-13.5
31
0
39
0
210
0
220
0
230
1
0
SOLID
5
3DE
100
AcDbEntity
8
SK2
62
256
6
ByLayer
370
13
48
1
60
0
100
AcDbTrace
10
-14.35
20
13.5
30
0
11
-13.889216
21
10.000002
31
0
12
-14.810784
22
9.999998
32
0
13
-14.35
23
13.5
33
0
39
0
210
0
220
0
230
1
0
SOLID
5
3DF
100
AcDbEntity
8
SK2
62
256
6
ByLayer
370
13
48
1
60
0
100
AcDbTrace
10
-14.35
20
-13.5
30
0
11
-14.810784
21
-10.000002
31
0
12
-13.889216
22
-9.999998
32
0
13
-14.35
23
-13.5
33
0
39
0
210
0
220
0
230
1
0
ENDBLK
5
3E1
100
AcDbEntity
8
0
100
AcDbBlockEnd
0
BLOCK
5
3EB
100
AcDbEntity
8
0
100
AcDbBlockBegin
2
DimnDraft3D4
70
0
10
0
20
0
30
0
3
DimnDraft3D4
0
MTEXT
5
3E4
100
AcDbEntity
8
SK2
62
256
6
ByLayer
370
13
48
1
60
0
100
AcDbMText
10
-31.35
20
3.610526
30
0
210
0
220
0
230
1
1
\W0.6927;39
40
4
41
0
44
1.084337
50
90
71
7
72
5
7
iso_b_vert
0
MTEXT
5
3E5
100
AcDbEntity
8
SK2
62
256
6
ByLayer
370
13
48
1
60
0
100
AcDbMText
10
-31.35
20
-4.358224
30
0
210
0
220
0
230
1
1
%%c
40
4
41
0
44
1.084337
50
90
71
7
72
5
7
iso_b_vert
0
LINE
5
3E6
100
AcDbEntity
8
SK2
62
256
6
ByLayer
370
13
48
1
60
0
100
AcDbLine
10
-1.5875
20
19.5
30
0
11
-31.35
21
19.5
31
0
39
0
210
0
220
0
230
1
0
LINE
5
3E7
100
AcDbEntity
8
SK2
62
256
6
ByLayer
370
13
48
1
60
0
100
AcDbLine
10
-1.5875
20
-19.5
30
0
11
-31.35
21
-19.5
31
0
39
0
210
0
220
0
230
1
0
LINE
5
3E8
100
AcDbEntity
8
SK2
62
256
6
ByLayer
370
13
48
1
60
0
100
AcDbLine
10
-29.35
20
19.5
30
0
11
-29.35
21
-19.5
31
0
39
0
210
0
220
0
230
1
0
SOLID
5
3E9
100
AcDbEntity
8
SK2
62
256
6
ByLayer
370
13
48
1
60
0
100
AcDbTrace
10
-29.35
20
19.5
30
0
11
-28.889216
21
16.000002
31
0
12
-29.810784
22
15.999998
32
0
13
-29.35
23
19.5
33
0
39
0
210
0
220
0
230
1
0
SOLID
5
3EA
100
AcDbEntity
8
SK2
62
256
6
ByLayer
370
13
48
1
60
0
100
AcDbTrace
10
-29.35
20
-19.5
30
0
11
-29.810784
21
-16.000002
31
0
12
-28.889216
22
-15.999998
32
0
13
-29.35
23
-19.5
33
0
39
0
210
0
220
0
230
1
0
ENDBLK
5
3EC
100
AcDbEntity
8
0
100
AcDbBlockEnd
0
BLOCK
5
3F5
100
AcDbEntity
8
0
100
AcDbBlockBegin
2
DimnDraft3D5
70
0
10
0
20
0
30
0
3
DimnDraft3D5
0
MTEXT
5
3EF
100
AcDbEntity
8
SK2
62
256
6
ByLayer
370
13
48
1
60
0
100
AcDbMText
10
-21.968421
20
44
30
0
210
0
220
0
230
1
1
\W0.6744;10.0-12.0
40
4
41
0
44
1.084337
50
0
71
7
72
5
7
iso_b_vert
0
LINE
5
3F0
100
AcDbEntity
8
SK2
62
256
6
ByLayer
370
13
48
1
60
0
100
AcDbLine
10
13
20
41.5875
30
0
11
13
21
45
31
0
39
0
210
0
220
0
230
1
0
LINE
5
3F1
100
AcDbEntity
8
SK2
62
256
6
ByLayer
370
13
48
1
60
0
100
AcDbLine
10
3
20
41.5875
30
0
11
3
21
45
31
0
39
0
210
0
220
0
230
1
0
LINE
5
3F2
100
AcDbEntity
8
SK2
62
256
6
ByLayer
370
13
48
1
60
0
100
AcDbLine
10
13
20
43
30
0
11
-22.968421
21
43
31
0
39
0
210
0
220
0
230
1
0
SOLID
5
3F3
100
AcDbEntity
8
SK2
62
256
6
ByLayer
370
13
48
1
60
0
100
AcDbTrace
10
13
20
43
30
0
11
9.500002
21
42.539216
31
0
12
9.499998
22
43.460784
32
0
13
13
23
43
33
0
39
0
210
0
220
0
230
1
0
SOLID
5
3F4
100
AcDbEntity
8
SK2
62
256
6
ByLayer
370
13
48
1
60
0
100
AcDbTrace
10
3
20
43
30
0
11
6.499998
21
43.460784
31
0
12
6.500002
22
42.539216
32
0
13
3
23
43
33
0
39
0
210
0
220
0
230
1
0
ENDBLK
5
3F6
100
AcDbEntity
8
0
100
AcDbBlockEnd
0
BLOCK
5
400
100
AcDbEntity
8
0
100
AcDbBlockBegin
2
DimnDraft3D6
70
0
10
0
20
0
30
0
3
DimnDraft3D6
0
MTEXT
5
3F9
100
AcDbEntity
8
SK2
62
256
6
ByLayer
370
13
48
1
60
0
100
AcDbMText
10
-21
20
-53
30
0
210
0
220
0
230
1
1
\W0.5321;16
40
4
41
0
44
1.084337
50
0
71
7
72
5
7
iso_b_vert
0
MTEXT
5
3FA
100
AcDbEntity
8
SK2
62
256
6
ByLayer
370
13
48
1
60
0
100
AcDbMText
10
-13.846053
20
-52.625
30
0
210
0
220
0
230
1
1
\W0.8221;\W0.4110;%%p\W0.8221;0.05
40
3.5
41
0
44
1.084337
50
0
71
7
72
5
7
iso_b_vert
0
LINE
5
3FB
100
AcDbEntity
8
SK2
62
256
6
ByLayer
370
13
48
1
60
0
100
AcDbLine
10
0
20
-21.0875
30
0
11
0
21
-56
31
0
39
0
210
0
220
0
230
1
0
LINE
5
3FC
100
AcDbEntity
8
SK2
62
256
6
ByLayer
370
13
48
1
60
0
100
AcDbLine
10
16
20
-21.0875
30
0
11
16
21
-56
31
0
39
0
210
0
220
0
230
1
0
LINE
5
3FD
100
AcDbEntity
8
SK2
62
256
6
ByLayer
370
13
48
1
60
0
100
AcDbLine
10
16
20
-54
30
0
11
-22
21
-54
31
0
39
0
210
0
220
0
230
1
0
SOLID
5
3FE
100
AcDbEntity
8
SK2
62
256
6
ByLayer
370
13
48
1
60
0
100
AcDbTrace
10
0
20
-54
30
0
11
3.499998
21
-53.539216
31
0
12
3.500002
22
-54.460784
32
0
13
0
23
-54
33
0
39
0
210
0
220
0
230
1
0
SOLID
5
3FF
100
AcDbEntity
8
SK2
62
256
6
ByLayer
370
13
48
1
60
0
100
AcDbTrace
10
16
20
-54
30
0
11
12.500002
21
-54.460784
31
0
12
12.499998
22
-53.539216
32
0
13
16
23
-54
33
0
39
0
210
0
220
0
230
1
0
ENDBLK
5
401
100
AcDbEntity
8
0
100
AcDbBlockEnd
0
ENDSEC
0
SECTION
2
ENTITIES
0
ELLIPSE
5
2D6
100
AcDbEntity
8
1
62
256
6
ByLayer
370
18
48
1
60
0
100
AcDbEllipse
10
8.839931
20
35.899369
30
0
11
-0.221469229574816
21
-0.0656687166886736
31
0
210
0
220
0
230
1
40
0.955145
41
-3.0968874563967
42
-0.572578161789553
0
ELLIPSE
5
2D7
100
AcDbEntity
8
1
62
256
6
ByLayer
370
18
48
1
60
0
100
AcDbEllipse
10
8.816065
20
34.88491
30
0
11
0.89354684832783
21
0.264949108025301
31
0
210
0
220
0
230
1
40
0.955145
41
-0.768651305780044
42
-0.376471245236594
0
ELLIPSE
5
2D8
100
AcDbEntity
8
1
62
256
6
ByLayer
370
18
48
1
60
0
100
AcDbEllipse
10
8.816065
20
34.88491
30
0
11
-0.893546848327831
21
-0.264949108025298
31
0
210
0
220
0
230
1
40
0.955145
41
-0.274130690730428
42
0.188580008107104
0
ELLIPSE
5
2D9
100
AcDbEntity
8
1
62
256
6
ByLayer
370
18
48
1
60
0
100
AcDbEllipse
10
8.118553
20
36.094075
30
0
11
-0.504297899378153
21
-0.149531363542174
31
0
210
0
220
0
230
1
40
0.955145
41
1.79558735751137
42
2.56901449180023
0
ELLIPSE
5
2DA
100
AcDbEntity
8
1
62
256
6
ByLayer
370
18
48
1
60
0
100
AcDbEllipse
10
8.118553
20
36.094075
30
0
11
-0.504297899378153
21
-0.149531363542174
31
0
210
0
220
0
230
1
40
0.955145
41
1.0221602232225
42
1.79558735751137
0
ELLIPSE
5
2DB
100
AcDbEntity
8
1
62
256
6
ByLayer
370
18
48
1
60
0
100
AcDbEllipse
10
7.364386
20
34.881585
30
0
11
-0.504297899378153
21
-0.149531363542174
31
0
210
0
220
0
230
1
40
0.955145
41
2.88637854861451
42
-3.14158501689161
0
ELLIPSE
5
2DC
100
AcDbEntity
8
1
62
256
6
ByLayer
370
18
48
1
60
0
100
AcDbEllipse
10
8.816065
20
34.88491
30
0
11
0.89354684832783
21
0.264949108025301
31
0
210
0
220
0
230
1
40
0.955145
41
2.81847065575538
42
2.86746196285936
0
ELLIPSE
5
2DD
100
AcDbEntity
8
1
62
256
6
ByLayer
370
18
48
1
60
0
100
AcDbEllipse
10
8
20
-19.763649
30
0
11
2.25
21
0
31
0
210
0
220
0
230
1
40
0.700909
41
0
42
0.747011995047233
0
ELLIPSE
5
2DE
100
AcDbEntity
8
1
62
256
6
ByLayer
370
18
48
1
60
0
100
AcDbEllipse
10
8
20
-19.763649
30
0
11
2.25
21
0
31
0
210
0
220
0
230
1
40
0.700909
41
2.1761421020406
42
0
0
ELLIPSE
5
2DF
100
AcDbEntity
8
1
62
256
6
ByLayer
370
18
48
1
60
0
100
AcDbEllipse
10
8
20
-19.228711
30
0
11
3
21
0
31
0
210
0
220
0
230
1
40
0.700909
41
-2.98834191532746
42
-1.75713219891061
0
ELLIPSE
5
2E0
100
AcDbEntity
8
1
62
256
6
ByLayer
370
18
48
1
60
0
100
AcDbEllipse
10
8
20
-19.228711
30
0
11
3
21
0
31
0
210
0
220
0
230
1
40
0.700909
41
-1.38455866058503
42
-0.155017947799285
0
ELLIPSE
5
2E1
100
AcDbEntity
8
1
62
256
6
ByLayer
370
18
48
1
60
0
100
AcDbEllipse
10
8
20
9.410501
30
0
11
-2.25
21
2.75536429610035E-16
31
0
210
0
220
0
230
1
40
0.968148
41
0
42
6.28318530717959
0
ELLIPSE
5
2E2
100
AcDbEntity
8
1
62
256
6
ByLayer
370
18
48
1
60
0
100
AcDbEllipse
10
8
20
9.222716
30
0
11
-3
21
3.67381906146713E-16
31
0
210
0
220
0
230
1
40
0.968148
41
-3.11351468729907
42
-1.57079623229603
0
ELLIPSE
5
2E3
100
AcDbEntity
8
1
62
256
6
ByLayer
370
18
48
1
60
0
100
AcDbEllipse
10
8
20
9.222716
30
0
11
-3
21
3.67381906146713E-16
31
0
210
0
220
0
230
1
40
0.968148
41
-1.57079623229602
42
-0.0340666774930079
0
ELLIPSE
5
2E4
100
AcDbEntity
8
1
62
256
6
ByLayer
370
13
48
1
60
0
100
AcDbEllipse
10
8.785542
20
34.987851
30
0
11
-2.10682537461088
21
-0.624703119722068
31
0
210
0
220
0
230
1
40
0.955145
41
-0.301005513154691
42
0
0
ELLIPSE
5
2E5
100
AcDbEntity
8
1
62
256
6
ByLayer
370
13
48
1
60
0
100
AcDbEllipse
10
8.785542
20
34.987851
30
0
11
-2.10682537461088
21
-0.624703119722068
31
0
210
0
220
0
230
1
40
0.955145
41
0
42
0.0653823805453429
0
ELLIPSE
5
2E6
100
AcDbEntity
8
1
62
256
6
ByLayer
370
13
48
1
60
0
100
AcDbEllipse
10
8.785542
20
34.987851
30
0
11
-2.10682537461088
21
-0.624703119722068
31
0
210
0
220
0
230
1
40
0.955145
41
2.80868001196863
42
-2.52868945330929
0
ELLIPSE
5
2E7
100
AcDbEntity
8
1
62
256
6
ByLayer
370
13
48
1
60
0
100
AcDbEllipse
10
8.785542
20
34.987851
30
0
11
-2.10682537461088
21
-0.624703119722068
31
0
210
0
220
0
230
1
40
0.955145
41
-0.612906858998412
42
-0.301005513154676
0
ELLIPSE
5
2E8
100
AcDbEntity
8
1
62
256
6
ByLayer
370
18
48
1
60
0
100
AcDbEllipse
10
8.704111
20
35.262478
30
0
11
2.21750536794075
21
0.657521282042131
31
0
210
0
220
0
230
1
40
0.955145
41
-0.783731262154491
42
-0.301005699047298
0
ELLIPSE
5
2E9
100
AcDbEntity
8
1
62
256
6
ByLayer
370
18
48
1
60
0
100
AcDbEllipse
10
8.704111
20
35.262478
30
0
11
2.21750536794075
21
0.657521282042131
31
0
210
0
220
0
230
1
40
0.955145
41
-0.301005699047298
42
0
0
ELLIPSE
5
2EA
100
AcDbEntity
8
1
62
256
6
ByLayer
370
18
48
1
60
0
100
AcDbEllipse
10
8.704111
20
35.262478
30
0
11
2.21750536794075
21
0.657521282042131
31
0
210
0
220
0
230
1
40
0.955145
41
0
42
-2.95997144111284
0
ELLIPSE
5
2EB
100
AcDbEntity
8
1
62
256
6
ByLayer
370
18
48
1
60
0
100
AcDbEllipse
10
8.772193
20
35.032872
30
0
11
2.16328840868614
21
0.641445197143801
31
0
210
0
220
0
230
1
40
0.955145
41
2.89419045618303
42
-3.06403657011039
0
ELLIPSE
5
2EC
100
AcDbEntity
8
1
62
256
6
ByLayer
370
13
48
1
60
0
100
AcDbEllipse
10
8.772193
20
35.032872
30
0
11
2.16328840868614
21
0.641445197143801
31
0
210
0
220
0
230
1
40
0.955145
41
-0.173672832875069
42
0
0
ELLIPSE
5
2ED
100
AcDbEntity
8
1
62
256
6
ByLayer
370
13
48
1
60
0
100
AcDbEllipse
10
8.772193
20
35.032872
30
0
11
2.16328840868614
21
0.641445197143801
31
0
210
0
220
0
230
1
40
0.955145
41
0
42
2.89419046161174
0
ELLIPSE
5
2EE
100
AcDbEntity
8
1
62
256
6
ByLayer
370
18
48
1
60
0
100
AcDbEllipse
10
7.938418
20
18.321116
30
0
11
-0.522074530340563
21
-0.0641419111788923
31
0
210
0
220
0
230
1
40
0.723454
41
-1.88681657043734
42
-1.11338943614846
0
ELLIPSE
5
2EF
100
AcDbEntity
8
1
62
256
6
ByLayer
370
18
48
1
60
0
100
AcDbEllipse
10
7.207801
20
18.415342
30
0
11
-0.229276077012681
21
-0.0281687860880687
31
0
210
0
220
0
230
1
40
0.723454
41
0.207941333154642
42
2.80163035173023
0
ELLIPSE
5
2F0
100
AcDbEntity
8
1
62
256
6
ByLayer
370
18
48
1
60
0
100
AcDbEllipse
10
8.108452
20
18.866455
30
0
11
-0.229276077012681
21
-0.0281687860880687
31
0
210
0
220
0
230
1
40
0.723454
41
1.25477608315246
42
1.784108283976
0
ELLIPSE
5
2F1
100
AcDbEntity
8
1
62
256
6
ByLayer
370
18
48
1
60
0
100
AcDbEllipse
10
7.262869
20
18.539423
30
0
11
-2.08432797284255
21
-0.256079873527898
31
0
210
0
220
0
230
1
40
0.723454
41
-0.533565919915433
42
0
0
ELLIPSE
5
2F2
100
AcDbEntity
8
1
62
256
6
ByLayer
370
18
48
1
60
0
100
AcDbEllipse
10
7.262869
20
18.539423
30
0
11
-2.08432797284255
21
-0.256079873527898
31
0
210
0
220
0
230
1
40
0.723454
41
-3.07796150322122
42
-2.60799881490074
0
ELLIPSE
5
2F3
100
AcDbEntity
8
1
62
256
6
ByLayer
370
18
48
1
60
0
100
AcDbEllipse
10
7.262869
20
18.539423
30
0
11
-2.08432797284255
21
-0.256079873527898
31
0
210
0
220
0
230
1
40
0.723454
41
0
42
-3.07796169739246
0
ELLIPSE
5
2F4
100
AcDbEntity
8
1
62
256
6
ByLayer
370
18
48
1
60
0
100
AcDbEllipse
10
7.284958
20
18.359635
30
0
11
-1.38955198189503
21
-0.170719915685265
31
0
210
0
220
0
230
1
40
0.723454
41
0
42
6.28318530717959
0
ELLIPSE
5
2F5
100
AcDbEntity
8
1
62
256
6
ByLayer
370
18
48
1
60
0
100
AcDbEllipse
10
7.284958
20
18.359635
30
0
11
-1.27938036047336
21
-0.157184265227362
31
0
210
0
220
0
230
1
40
0.723454
41
-0.58997206114956
42
0.45795109244462
0
ELLIPSE
5
2F6
100
AcDbEntity
8
1
62
256
6
ByLayer
370
18
48
1
60
0
100
AcDbEllipse
10
7.284958
20
18.359635
30
0
11
-1.27938036047336
21
-0.157184265227362
31
0
210
0
220
0
230
1
40
0.723454
41
0.45795109244462
42
1.50478584244243
0
ELLIPSE
5
2F7
100
AcDbEntity
8
1
62
256
6
ByLayer
370
18
48
1
60
0
100
AcDbEllipse
10
7.284958
20
18.359635
30
0
11
-1.27938036047336
21
-0.157184265227362
31
0
210
0
220
0
230
1
40
0.723454
41
1.50478584244243
42
2.55162059244024
0
ELLIPSE
5
2F8
100
AcDbEntity
8
1
62
256
6
ByLayer
370
18
48
1
60
0
100
AcDbEllipse
10
7.284958
20
18.359635
30
0
11
-1.27938036047336
21
-0.157184265227362
31
0
210
0
220
0
230
1
40
0.723454
41
2.55162059244024
42
-2.68364156114517
0
ELLIPSE
5
2F9
100
AcDbEntity
8
1
62
256
6
ByLayer
370
18
48
1
60
0
100
AcDbEllipse
10
7.284958
20
18.359635
30
0
11
-1.27938036047336
21
-0.157184265227362
31
0
210
0
220
0
230
1
40
0.723454
41
-2.68364156114517
42
-1.63680681114736
0
ELLIPSE
5
2FA
100
AcDbEntity
8
1
62
256
6
ByLayer
370
18
48
1
60
0
100
AcDbEllipse
10
7.284958
20
18.359635
30
0
11
-1.27938036047336
21
-0.157184265227362
31
0
210
0
220
0
230
1
40
0.723454
41
-1.63680681114736
42
-0.58997206114956
0
ELLIPSE
5
2FB
100
AcDbEntity
8
1
62
256
6
ByLayer
370
18
48
1
60
0
100
AcDbEllipse
10
7.267606
20
18.500869
30
0
11
0.925044605090123
21
0.11365068672762
31
0
210
0
220
0
230
1
40
0.723454
41
3.05108651568535
42
3.10007782278931
0
ELLIPSE
5
2FC
100
AcDbEntity
8
1
62
256
6
ByLayer
370
18
48
1
60
0
100
AcDbEllipse
10
7.267606
20
18.500869
30
0
11
0.925044605090123
21
0.11365068672762
31
0
210
0
220
0
230
1
40
0.723454
41
-0.0905061379044526
42
-0.0415148308004889
0
ELLIPSE
5
2FD
100
AcDbEntity
8
1
62
256
6
ByLayer
370
18
48
1
60
0
100
AcDbEllipse
10
7.183935
20
19.1819
30
0
11
0.925044605090123
21
0.11365068672762
31
0
210
0
220
0
230
1
40
0.723454
41
-1.11338943614846
42
-0.39131398079415
0
ELLIPSE
5
2FE
100
AcDbEntity
8
1
62
256
6
ByLayer
370
18
48
1
60
0
100
AcDbEllipse
10
7.183935
20
19.1819
30
0
11
0.925044605090123
21
0.11365068672762
31
0
210
0
220
0
230
1
40
0.723454
41
-2.16022418614627
42
-1.11338943614846
0
ELLIPSE
5
2FF
100
AcDbEntity
8
1
62
256
6
ByLayer
370
18
48
1
60
0
100
AcDbEllipse
10
7.183935
20
19.1819
30
0
11
0.925044605090123
21
0.11365068672762
31
0
210
0
220
0
230
1
40
0.723454
41
-2.8358070432295
42
-2.16022418614627
0
ELLIPSE
5
300
100
AcDbEntity
8
1
62
256
6
ByLayer
370
18
48
1
60
0
100
AcDbEllipse
10
6.283298
20
18.730305
30
0
11
-0.229276077012681
21
-0.0281687860880687
31
0
210
0
220
0
230
1
40
0.723454
41
1.66153102357743
42
1.75479560173241
0
ELLIPSE
5
301
100
AcDbEntity
8
1
62
256
6
ByLayer
370
18
48
1
60
0
100
AcDbEllipse
10
6.486423
20
18.212803
30
0
11
-0.522074530340563
21
-0.0641419111788923
31
0
210
0
220
0
230
1
40
0.723454
41
-2.16022418614626
42
-1.38679705185739
0
ELLIPSE
5
302
100
AcDbEntity
8
1
62
256
6
ByLayer
370
18
48
1
60
0
100
AcDbEllipse
10
6.486423
20
18.212803
30
0
11
-0.522074530340563
21
-0.0641419111788923
31
0
210
0
220
0
230
1
40
0.723454
41
-2.93365132043516
42
-2.16022418614626
0
ELLIPSE
5
303
100
AcDbEntity
8
1
62
256
6
ByLayer
370
18
48
1
60
0
100
AcDbEllipse
10
7.938418
20
18.321116
30
0
11
-0.522074530340563
21
-0.0641419111788923
31
0
210
0
220
0
230
1
40
0.723454
41
-1.11338943614846
42
-0.339962301859575
0
ELLIPSE
5
304
100
AcDbEntity
8
1
62
256
6
ByLayer
370
18
48
1
60
0
100
AcDbEllipse
10
8.816065
20
34.88491
30
0
11
-0.893546848327831
21
-0.264949108025298
31
0
210
0
220
0
230
1
40
0.955145
41
-3.01304241560062
42
-2.39284004607623
0
ELLIPSE
5
305
100
AcDbEntity
8
1
62
256
6
ByLayer
370
18
48
1
60
0
100
AcDbEllipse
10
8.816065
20
34.88491
30
0
11
-0.893546848327831
21
-0.264949108025298
31
0
210
0
220
0
230
1
40
0.955145
41
-2.39284004607623
42
-1.34600529607842
0
ELLIPSE
5
306
100
AcDbEntity
8
1
62
256
6
ByLayer
370
13
48
1
60
0
100
AcDbEllipse
10
7.227807
20
18.824804
30
0
11
-2.23954488279379
21
-0.275149773844736
31
0
210
0
220
0
230
1
40
0.723454
41
2.65458446464041
42
3.04453460220592
0
ELLIPSE
5
307
100
AcDbEntity
8
1
62
256
6
ByLayer
370
13
48
1
60
0
100
AcDbEllipse
10
7.227807
20
18.824804
30
0
11
-2.23954488279379
21
-0.275149773844736
31
0
210
0
220
0
230
1
40
0.723454
41
0.0969353742811775
42
0.486885626278312
0
ELLIPSE
5
308
100
AcDbEntity
8
1
62
256
6
ByLayer
370
13
48
1
60
0
100
AcDbEllipse
10
7.214458
20
18.93346
30
0
11
2.18109151221106
21
0.267968211278222
31
0
210
0
220
0
230
1
40
0.723454
41
-3.0597994624726
42
-2.83831728642693
0
ELLIPSE
5
309
100
AcDbEntity
8
1
62
256
6
ByLayer
370
13
48
1
60
0
100
AcDbEllipse
10
7.214458
20
18.93346
30
0
11
2.18109151221106
21
0.267968211278222
31
0
210
0
220
0
230
1
40
0.723454
41
-0.303150026832177
42
-0.0816676455562599
0
ELLIPSE
5
30A
100
AcDbEntity
8
1
62
256
6
ByLayer
370
18
48
1
60
0
100
AcDbEllipse
10
7.295889
20
18.270663
30
0
11
-2.2956730038394
21
-0.282045656990763
31
0
210
0
220
0
230
1
40
0.723454
41
0
42
6.28318530717959
0
ELLIPSE
5
30B
100
AcDbEntity
8
1
62
256
6
ByLayer
370
18
48
1
60
0
100
AcDbEllipse
10
8.816065
20
34.88491
30
0
11
-0.893546848327831
21
-0.264949108025298
31
0
210
0
220
0
230
1
40
0.955145
41
-1.34600529607842
42
-0.323121997834414
0
ELLIPSE
5
30C
100
AcDbEntity
8
1
62
256
6
ByLayer
370
18
48
1
60
0
100
AcDbEllipse
10
3.1
20
16.288418
30
0
11
0.393999529374795
21
0.0999330803449127
31
0
210
0
220
0
230
-1
40
0.690706
41
1.68738298260919
42
1.74422546626444
0
ELLIPSE
5
30D
100
AcDbEntity
8
1
62
256
6
ByLayer
370
13
48
1
60
0
100
AcDbEllipse
10
6.6
20
2.483374
30
0
11
0.1
21
0
31
0
210
0
220
0
230
1
40
0.078373
41
-2.37654555824825
42
-1.5707963267949
0
ELLIPSE
5
30E
100
AcDbEntity
8
1
62
256
6
ByLayer
370
13
48
1
60
0
100
AcDbEllipse
10
8
20
2.475537
30
0
11
-1.4
21
1.71444889535133E-16
31
0
210
0
220
0
230
1
40
0.996924
41
0
42
0.266397410311326
0
ELLIPSE
5
30F
100
AcDbEntity
8
1
62
256
6
ByLayer
370
13
48
1
60
0
100
AcDbEllipse
10
8
20
2.475537
30
0
11
-1.4
21
1.71444889535133E-16
31
0
210
0
220
0
230
1
40
0.996924
41
2.8981191180721
42
3.14159265358979
0
ELLIPSE
5
310
100
AcDbEntity
8
1
62
256
6
ByLayer
370
13
48
1
60
0
100
AcDbEllipse
10
9.4
20
2.483374
30
0
11
-0.1
21
1.22460635382238E-17
31
0
210
0
220
0
230
1
40
0.078373
41
1.5707963267949
42
2.33977266688555
0
ELLIPSE
5
311
100
AcDbEntity
8
1
62
256
6
ByLayer
370
18
48
1
60
0
100
AcDbEllipse
10
10.267745
20
34.888235
30
0
11
-0.504297899378153
21
-0.149531363542174
31
0
210
0
220
0
230
1
40
0.955145
41
8.64382260729918E-06
42
0.255150961764005
0
ELLIPSE
5
312
100
AcDbEntity
8
1
62
256
6
ByLayer
370
18
48
1
60
0
100
AcDbEllipse
10
8
20
2.475537
30
0
11
-1
21
1.22460635382238E-16
31
0
210
0
220
0
230
1
40
0.996924
41
0
42
6.28318530717959
0
ELLIPSE
5
313
100
AcDbEntity
8
1
62
256
6
ByLayer
370
13
48
1
60
0
100
AcDbEllipse
10
8
20
-26.115377
30
0
11
-1.5
21
1.83690953073357E-16
31
0
210
0
220
0
230
1
40
0.566335
41
0
42
-3.14159265358979
0
ELLIPSE
5
314
100
AcDbEntity
8
1
62
256
6
ByLayer
370
18
48
1
60
0
100
AcDbEllipse
10
12.9
20
-3.961664
30
0
11
0.399580468102568
21
-0.0756102696984173
31
0
210
0
220
0
230
-1
40
0.242233
41
3.09578843685254
42
-1.61660054353209
0
ELLIPSE
5
315
100
AcDbEntity
8
1
62
256
6
ByLayer
370
18
48
1
60
0
100
AcDbEllipse
10
3.1
20
-3.961664
30
0
11
0.399580468102626
21
0.0756102696984385
31
0
210
0
220
0
230
-1
40
0.242233
41
-1.52499211005755
42
0.0458042167372431
0
ELLIPSE
5
316
100
AcDbEntity
8
1
62
256
6
ByLayer
370
13
48
1
60
0
100
AcDbEllipse
10
9.4
20
-26.115377
30
0
11
-0.1
21
1.22460635382238E-17
31
0
210
0
220
0
230
1
40
0.824175
41
3.14159265358979
42
-1.5707963267949
0
ELLIPSE
5
317
100
AcDbEntity
8
1
62
256
6
ByLayer
370
13
48
1
60
0
100
AcDbEllipse
10
6.6
20
-26.115377
30
0
11
0.1
21
0
31
0
210
0
220
0
230
1
40
0.824175
41
1.5707963267949
42
3.14159265358979
0
ELLIPSE
5
318
100
AcDbEntity
8
1
62
256
6
ByLayer
370
13
48
1
60
0
100
AcDbEllipse
10
8
20
-26.032959
30
0
11
1.4
21
0
31
0
210
0
220
0
230
1
40
0.566335
41
3.14159265358979
42
0
0
ELLIPSE
5
319
100
AcDbEntity
8
1
62
256
6
ByLayer
370
18
48
1
60
0
100
AcDbEllipse
10
8
20
-26.032959
30
0
11
-1
21
1.22460635382238E-16
31
0
210
0
220
0
230
1
40
0.566335
41
0
42
6.28318530717959
0
ELLIPSE
5
31A
100
AcDbEntity
8
1
62
256
6
ByLayer
370
18
48
1
60
0
100
AcDbEllipse
10
12.9
20
16.288418
30
0
11
0.393999529374518
21
-0.099933080345117
31
0
210
0
220
0
230
-1
40
0.690706
41
1.39736718732428
42
2.61272261881629
0
ELLIPSE
5
31B
100
AcDbEntity
8
1
62
256
6
ByLayer
370
18
48
1
60
0
100
AcDbEllipse
10
12.9
20
-20.250083
30
0
11
0.359486646998133
21
-0.186670070322834
31
0
210
0
220
0
230
-1
40
0.93969
41
2.68763045162015
42
-2.02475852876399
0
ELLIPSE
5
31C
100
AcDbEntity
8
1
62
256
6
ByLayer
370
18
48
1
60
0
100
AcDbEllipse
10
3.1
20
-20.250083
30
0
11
0.359486646998116
21
0.186670070322925
31
0
210
0
220
0
230
-1
40
0.93969
41
-1.11683412482555
42
0.453962201969842
0
ELLIPSE
5
31D
100
AcDbEntity
8
1
62
256
6
ByLayer
370
18
48
1
60
0
100
AcDbEllipse
10
8.737131
20
35.151118
30
0
11
2.01335663249833
21
0.596988333533404
31
0
210
0
220
0
230
1
40
0.955145
41
-0.774404343151223
42
-0.301005507640875
0
ELLIPSE
5
31E
100
AcDbEntity
8
1
62
256
6
ByLayer
370
18
48
1
60
0
100
AcDbEllipse
10
8.737131
20
35.151118
30
0
11
2.01335663249833
21
0.596988333533404
31
0
210
0
220
0
230
1
40
0.955145
41
-0.301005507640871
42
0
0
ELLIPSE
5
31F
100
AcDbEntity
8
1
62
256
6
ByLayer
370
18
48
1
60
0
100
AcDbEllipse
10
8.737131
20
35.151118
30
0
11
2.01335663249833
21
0.596988333533404
31
0
210
0
220
0
230
1
40
0.955145
41
0
42
-2.9692976459016
0
ELLIPSE
5
320
100
AcDbEntity
8
1
62
256
6
ByLayer
370
18
48
1
60
0
100
AcDbEllipse
10
8.715042
20
35.225613
30
0
11
1.34223775499889
21
0.397992222355603
31
0
210
0
220
0
230
1
40
0.955145
41
-1.13313535235079
42
-0.301005755870797
0
ELLIPSE
5
321
100
AcDbEntity
8
1
62
256
6
ByLayer
370
18
48
1
60
0
100
AcDbEllipse
10
8.715042
20
35.225613
30
0
11
1.34223775499889
21
0.397992222355603
31
0
210
0
220
0
230
1
40
0.955145
41
-0.301005755870797
42
0
0
ELLIPSE
5
322
100
AcDbEntity
8
1
62
256
6
ByLayer
370
18
48
1
60
0
100
AcDbEllipse
10
8.715042
20
35.225613
30
0
11
1.34223775499889
21
0.397992222355603
31
0
210
0
220
0
230
1
40
0.955145
41
0
42
-2.61056694520029
0
ELLIPSE
5
323
100
AcDbEntity
8
1
62
256
6
ByLayer
370
18
48
1
60
0
100
AcDbEllipse
10
8.715042
20
35.225613
30
0
11
1.23581747585255
21
0.36643712472598
31
0
210
0
220
0
230
1
40
0.955145
41
-0.822587921079508
42
0.225335232514665
0
ELLIPSE
5
324
100
AcDbEntity
8
1
62
256
6
ByLayer
370
18
48
1
60
0
100
AcDbEllipse
10
8.715042
20
35.225613
30
0
11
1.23581747585255
21
0.36643712472598
31
0
210
0
220
0
230
1
40
0.955145
41
0.225335232514665
42
1.27216998251247
0
ELLIPSE
5
325
100
AcDbEntity
8
1
62
256
6
ByLayer
370
18
48
1
60
0
100
AcDbEllipse
10
8.715042
20
35.225613
30
0
11
1.23581747585255
21
0.36643712472598
31
0
210
0
220
0
230
1
40
0.955145
41
1.27216998251247
42
2.31900473251027
0
ELLIPSE
5
326
100
AcDbEntity
8
1
62
256
6
ByLayer
370
18
48
1
60
0
100
AcDbEllipse
10
8.715042
20
35.225613
30
0
11
1.23581747585255
21
0.36643712472598
31
0
210
0
220
0
230
1
40
0.955145
41
2.31900473251027
42
-2.91625742107513
0
ELLIPSE
5
327
100
AcDbEntity
8
1
62
256
6
ByLayer
370
18
48
1
60
0
100
AcDbEllipse
10
8.715042
20
35.225613
30
0
11
1.23581747585255
21
0.36643712472598
31
0
210
0
220
0
230
1
40
0.955145
41
-2.91625742107513
42
-2.51026550563384
0
ELLIPSE
5
328
100
AcDbEntity
8
1
62
256
6
ByLayer
370
18
48
1
60
0
100
AcDbEllipse
10
8.715042
20
35.225613
30
0
11
1.23581747585255
21
0.36643712472598
31
0
210
0
220
0
230
1
40
0.955145
41
-1.2333396585123
42
-0.822587921079508
0
ELLIPSE
5
329
100
AcDbEntity
8
1
62
256
6
ByLayer
370
18
48
1
60
0
100
AcDbEllipse
10
8.799228
20
34.941694
30
0
11
2.01335663249833
21
0.596988333533404
31
0
210
0
220
0
230
1
40
0.955145
41
-0.588756128712704
42
-0.301006004100702
0
ELLIPSE
5
32A
100
AcDbEntity
8
1
62
256
6
ByLayer
370
18
48
1
60
0
100
AcDbEllipse
10
8.799228
20
34.941694
30
0
11
2.01335663249833
21
0.596988333533404
31
0
210
0
220
0
230
1
40
0.955145
41
3.14159088349176
42
-3.0830824779015
0
ELLIPSE
5
32B
100
AcDbEntity
8
1
62
256
6
ByLayer
370
18
48
1
60
0
100
AcDbEllipse
10
8.799228
20
34.941694
30
0
11
2.01335663249833
21
0.596988333533404
31
0
210
0
220
0
230
1
40
0.955145
41
-0.301005507640871
42
0
0
ELLIPSE
5
32C
100
AcDbEntity
8
1
62
256
6
ByLayer
370
18
48
1
60
0
100
AcDbEllipse
10
8.732394
20
35.167093
30
0
11
0.89354684832783
21
0.264949108025301
31
0
210
0
220
0
230
1
40
0.955145
41
-0.323121997834406
42
-0.274130690730445
0
ELLIPSE
5
32D
100
AcDbEntity
8
1
62
256
6
ByLayer
370
18
48
1
60
0
100
AcDbEllipse
10
7.891548
20
34.375272
30
0
11
-0.221469229574816
21
-0.0656687166886736
31
0
210
0
220
0
230
1
40
0.955145
41
-1.0729744174072
42
-0.912401400044353
0
ELLIPSE
5
32E
100
AcDbEntity
8
1
62
256
6
ByLayer
370
18
48
1
60
0
100
AcDbEllipse
10
8.732394
20
35.167093
30
0
11
0.89354684832783
21
0.264949108025301
31
0
210
0
220
0
230
1
40
0.955145
41
2.81847065575538
42
2.86746196285935
0
ELLIPSE
5
32F
100
AcDbEntity
8
1
62
256
6
ByLayer
370
18
48
1
60
0
100
AcDbEllipse
10
7.364386
20
34.881585
30
0
11
-0.504297899378153
21
-0.149531363542174
31
0
210
0
220
0
230
1
40
0.955145
41
2.06861823618259
42
2.79955407000026
0
ELLIPSE
5
330
100
AcDbEntity
8
1
62
256
6
ByLayer
370
18
48
1
60
0
100
AcDbEllipse
10
9.740583
20
35.394548
30
0
11
-0.221469229574816
21
-0.0656687166886736
31
0
210
0
220
0
230
1
40
0.955145
41
-2.14497257472839
42
-1.61941291178734
0
ELLIPSE
5
331
100
AcDbEntity
8
1
62
256
6
ByLayer
370
18
48
1
60
0
100
AcDbEllipse
10
9.570549
20
36.0974
30
0
11
-0.504297899378153
21
-0.149531363542174
31
0
210
0
220
0
230
1
40
0.955145
41
0.748752607513567
42
1.52217974180245
0
ELLIPSE
5
332
100
AcDbEntity
8
1
62
256
6
ByLayer
370
18
48
1
60
0
100
AcDbEllipse
10
9.570549
20
36.0974
30
0
11
-0.504297899378153
21
-0.149531363542174
31
0
210
0
220
0
230
1
40
0.955145
41
2.31406739504884E-06
42
0.748752607513567
0
ELLIPSE
5
333
100
AcDbEntity
8
1
62
256
6
ByLayer
370
18
48
1
60
0
100
AcDbEllipse
10
7.915429
20
35.390368
30
0
11
-0.221469229574816
21
-0.0656687166886736
31
0
210
0
220
0
230
1
40
0.955145
41
-2.11943243036734
42
-0.701059888885863
0
POINT
5
6C
100
AcDbEntity
8
81
62
256
6
ByLayer
370
18
48
1
60
0
100
AcDbPoint
10
13
20
40
30
0
39
0
210
0
220
0
230
1
50
360
0
POINT
5
6E
100
AcDbEntity
8
80
62
256
6
ByLayer
370
18
48
1
60
0
100
AcDbPoint
10
0
20
0
30
0
39
0
210
0
220
0
230
1
50
360
0
SPLINE
5
334
100
AcDbEntity
8
1
62
256
6
ByLayer
370
18
48
1
60
0
100
AcDbSpline
70
4
71
1
72
4
73
2
40
0
40
0
40
1
40
1
41
1
10
12.5000014834806
20
30.3509750375769
30
0
41
1
10
12.7819663253079
20
31.3523808229598
30
0
0
SPLINE
5
335
100
AcDbEntity
8
1
62
256
6
ByLayer
370
18
48
1
60
0
100
AcDbSpline
70
4
71
1
72
4
73
2
40
0
40
0
40
1
40
1
41
1
10
3.40190384960886
20
23.8454981050396
30
0
41
1
10
3.00192295557724
20
20.6516352212772
30
0
0
SPLINE
5
336
100
AcDbEntity
8
1
62
256
6
ByLayer
370
18
48
1
60
0
100
AcDbSpline
70
4
71
1
72
4
73
2
40
0
40
0
40
1
40
1
41
1
10
11.4400857736074
20
21.3617144042502
30
0
41
1
10
10.3051778513983
20
24.430786397923
30
0
0
SPLINE
5
337
100
AcDbEntity
8
1
62
256
6
ByLayer
370
18
48
1
60
0
100
AcDbSpline
70
4
71
1
72
4
73
2
40
0
40
0
40
1
40
1
41
1
10
12.5981359760163
20
-23.8451800958859
30
0
41
1
10
12.9701228904497
20
-20.8748502201794
30
0
0
SPLINE
5
338
100
AcDbEntity
8
1
62
256
6
ByLayer
370
18
48
1
60
0
100
AcDbSpline
70
4
71
1
72
4
73
2
40
0
40
0
40
1
40
1
41
1
10
3.49999404315452
20
-30.350990924854
30
0
41
1
10
3.21805603331018
20
-31.3523014157214
30
0
0
SPLINE
5
339
100
AcDbEntity
8
1
62
256
6
ByLayer
370
18
48
1
60
0
100
AcDbSpline
70
4
71
1
72
4
73
2
40
0
40
0
40
1
40
1
41
1
10
4.43725063932703
20
-15.7350985681969
30
0
41
1
10
4.35141753737423
20
-16.0535955041463
30
0
0
SPLINE
5
33A
100
AcDbEntity
8
1
62
256
6
ByLayer
370
18
48
1
60
0
100
AcDbSpline
70
4
71
3
72
20
73
16
40
0
40
0
40
0
40
0
40
0.25
40
0.25
40
0.375
40
0.375
40
0.5
40
0.5
40
0.625
40
0.625
40
0.75
40
0.75
40
0.875
40
0.875
40
1
40
1
40
1
40
1
41
1
10
9.80756662999471
20
35.5566599963014
30
0
41
1
10
9.82331524098794
20
35.5762662443494
30
0
41
1
10
9.83656854736466
20
35.5978351952788
30
0
41
1
10
9.85228622610435
20
35.6333870023657
30
0
41
1
10
9.85678568591919
20
35.6457502805429
30
0
41
1
10
9.8639501611521
20
35.6707253528002
30
0
41
1
10
9.8666656934426
20
35.6834407434983
30
0
41
1
10
9.87024331666163
20
35.7093557114766
30
0
41
1
10
9.87109342451066
20
35.7226929079587
30
0
41
1
10
9.8707128005978
20
35.7488856501776
30
0
41
1
10
9.86951296467993
20
35.7618095159241
30
0
41
1
10
9.86502787817687
20
35.7873042732532
30
0
41
1
10
9.8616847009506
20
35.8000149005858
30
0
41
1
10
9.85300376286335
20
35.8241779922725
30
0
41
1
10
9.8476941304487
20
35.8356533482509
30
0
41
1
10
9.84141538777664
20
35.8465235512072
30
0
0
SPLINE
5
33B
100
AcDbEntity
8
1
62
256
6
ByLayer
370
18
48
1
60
0
100
AcDbSpline
70
4
71
3
72
10
73
6
40
0
40
0
40
0
40
0
40
0.710985745338424
40
0.710985745338424
40
1
40
1
40
1
40
1
41
1
10
3.18052148354582
20
-31.5324214131242
30
0
41
1
10
3.1827463559834
20
-31.4889334990442
30
0
41
1
10
3.18973984742786
20
-31.4460768918916
30
0
41
1
10
3.20613474103953
20
-31.3866674349295
30
0
41
1
10
3.21164891288106
20
-31.369599963291
30
0
41
1
10
3.21795848748206
20
-31.3526377932651
30
0
0
SPLINE
5
33C
100
AcDbEntity
8
1
62
256
6
ByLayer
370
18
48
1
60
0
100
AcDbSpline
70
4
71
3
72
96
73
92
40
0
40
0
40
0
40
0
40
0.008435291992361
40
0.008435291992361
40
0.0301758407751091
40
0.0301758407751091
40
0.0519163895578571
40
0.0519163895578571
40
0.0953974871233527
40
0.0953974871233527
40
0.106267761514726
40
0.106267761514726
40
0.1171380359061
40
0.1171380359061
40
0.138878584688847
40
0.138878584688847
40
0.182359682254342
40
0.182359682254342
40
0.193229956645716
40
0.193229956645716
40
0.20410023103709
40
0.20410023103709
40
0.225840779819837
40
0.247581328602585
40
0.247581328602585
40
0.258451602993959
40
0.258451602993959
40
0.269321877385332
40
0.269321877385332
40
0.312802974950824
40
0.312802974950824
40
0.334543523733571
40
0.334543523733571
40
0.345413798124944
40
0.345413798124944
40
0.356284072516317
40
0.356284072516317
40
0.399765170081809
40
0.399765170081809
40
0.410635444473182
40
0.410635444473182
40
0.421505718864555
40
0.421505718864555
40
0.443246267647301
40
0.443246267647301
40
0.486727365212793
40
0.486727365212793
40
0.530208462778284
40
0.530208462778284
40
0.55194901156103
40
0.55194901156103
40
0.562819285952403
40
0.562819285952403
40
0.573689560343776
40
0.573689560343776
40
0.617170657909268
40
0.617170657909268
40
0.62804093230064
40
0.62804093230064
40
0.638911206692013
40
0.638911206692013
40
0.660651755474757
40
0.660651755474757
40
0.704132853040245
40
0.704132853040245
40
0.715003127431617
40
0.715003127431617
40
0.725873401822989
40
0.725873401822989
40
0.747613950605734
40
0.769354499388479
40
0.769354499388479
40
0.780224773779851
40
0.780224773779851
40
0.791095048171224
40
0.791095048171224
40
0.834576145736715
40
0.834576145736715
40
0.856316694519461
40
0.856316694519461
40
0.867186968910833
40
0.867186968910833
40
0.878057243302206
40
0.878057243302206
40
0.921538340867696
40
0.921538340867696
40
0.943278889650441
40
0.943278889650441
40
0.965019438433186
40
0.965019438433186
40
1
40
1
40
1
40
1
41
1
10
10.5193255989963
20
-18.7577893793751
30
0
41
1
10
10.5400125067091
20
-18.7805380480888
30
0
41
1
10
10.560088839916
20
-18.8036090612216
30
0
41
1
10
10.6297421709249
20
-18.8872985090273
30
0
41
1
10
10.6758721144299
20
-18.9497554181929
30
0
41
1
10
10.7598404682979
20
-19.0792007401022
30
0
41
1
10
10.7977025784842
20
-19.1463685002836
30
0
41
1
10
10.8962695170376
20
-19.3504155473804
30
0
41
1
10
10.9431005860815
20
-19.4911822959656
30
0
41
1
10
10.9782909090087
20
-19.6732883868017
30
0
41
1
10
10.9841510810829
20
-19.7100188637678
30
0
41
1
10
10.9934792173407
20
-19.7841118800346
30
0
41
1
10
10.9969507689103
20
-19.8215798453693
30
0
41
1
10
11.0036506815575
20
-19.9339482554197
30
0
41
1
10
11.003216163749
20
-20.0088813992832
30
0
41
1
10
10.9876874951752
20
-20.2337439814216
30
0
41
1
10
10.9585031141205
20
-20.3837473581417
30
0
41
1
10
10.8979821021155
20
-20.571212775456
30
0
41
1
10
10.8846359736775
20
-20.6087618107608
30
0
41
1
10
10.8557931541586
20
-20.6830506288674
30
0
41
1
10
10.840270865357
20
-20.7198822448287
30
0
41
1
10
10.790460669024
20
-20.8294436945113
30
0
41
1
10
10.7154134620507
20
-20.9730410259886
30
0
41
1
10
10.6233377479761
20
-21.1115884563525
30
0
41
1
10
10.5477958518466
20
-21.213507693769
30
0
41
1
10
10.5215324110404
20
-21.2471481790515
30
0
41
1
10
10.4667984633657
20
-21.313738553896
30
0
41
1
10
10.4383262921291
20
-21.346678265973
30
0
41
1
10
10.2919944125425
20
-21.50782321051
30
0
41
1
10
10.1611695019259
20
-21.6269408240403
30
0
41
1
10
9.94459685633842
20
-21.7905098155865
30
0
41
1
10
9.86899226066231
20
-21.8424971147594
30
0
41
1
10
9.75027114721775
20
-21.9164495320837
30
0
41
1
10
9.70984492706702
20
-21.94039739072
30
0
41
1
10
9.62811469303057
20
-21.9863999629449
30
0
41
1
10
9.58670258979123
20
-22.0085235766561
30
0
41
1
10
9.37694230947437
20
-22.1147800975829
30
0
41
1
10
9.20057258708886
20
-22.1859481857869
30
0
41
1
10
8.96918289387645
20
-22.2568363866703
30
0
41
1
10
8.92235366929833
20
-22.2701028255262
30
0
41
1
10
8.82756642703089
20
-22.2947617680329
30
0
41
1
10
8.77969918983831
20
-22.3061237500032
30
0
41
1
10
8.636031536171
20
-22.3370042149382
30
0
41
1
10
8.53966061395033
20
-22.3534596365189
30
0
41
1
10
8.24880697963209
20
-22.3906263504878
30
0
41
1
10
8.05260019412509
20
-22.3992461912437
30
0
41
1
10
7.65537329709451
20
-22.3826495709909
30
0
41
1
10
7.46077856056496
20
-22.3576653506834
30
0
41
1
10
7.17562671152723
20
-22.2965936874428
30
0
41
1
10
7.08165021139672
20
-22.2722745048672
30
0
41
1
10
6.94232583174318
20
-22.2297893413031
30
0
41
1
10
6.89604364141826
20
-22.2145835699072
30
0
41
1
10
6.80461297843556
20
-22.1823417926345
30
0
41
1
10
6.75955969745922
20
-22.1653459352335
30
0
41
1
10
6.53752864172156
20
-22.0761156836148
30
0
41
1
10
6.37016392204674
20
-21.9912443398079
30
0
41
1
10
6.17355640536221
20
-21.8690549448905
30
0
41
1
10
6.13487058524743
20
-21.843804914036
30
0
41
1
10
6.05878809514837
20
-21.7916707606302
30
0
41
1
10
6.02131908012888
20
-21.7647267745505
30
0
41
1
10
5.91199213734092
20
-21.6822755895901
30
0
41
1
10
5.84288210657667
20
-21.6249519579352
30
0
41
1
10
5.64652137565275
20
-21.4462935230113
30
0
41
1
10
5.53013297169383
20
-21.3183363409293
30
0
41
1
10
5.40326488746348
20
-21.1475547393517
30
0
41
1
10
5.3788270357453
20
-21.1128324325061
30
0
41
1
10
5.33236425999257
20
-21.0430599365936
30
0
41
1
10
5.3102675758272
20
-21.0079170099548
30
0
41
1
10
5.24732641040231
20
-20.9017471680256
30
0
41
1
10
5.17232006960802
20
-20.7582162061559
30
0
41
1
10
5.11495796004101
20
-20.6109358494717
30
0
41
1
10
5.07867844716264
20
-20.4990883619477
30
0
41
1
10
5.06771098171754
20
-20.4615741127911
30
0
41
1
10
5.0480742648968
20
-20.3860783703647
30
0
41
1
10
5.03941469223008
20
-20.3480991744787
30
0
41
1
10
5.0023574030086
20
-20.1591715988226
30
0
41
1
10
4.99202723434234
20
-20.0094205711317
30
0
41
1
10
5.00502959398432
20
-19.7869045469013
30
0
41
1
10
5.01414689572573
20
-19.713083971281
30
0
41
1
10
5.03525434339355
20
-19.6028803888904
30
0
41
1
10
5.04353154694871
20
-19.5662763915819
30
0
41
1
10
5.06238017031967
20
-19.4940627401193
30
0
41
1
10
5.07296963990166
20
-19.45835064735
30
0
41
1
10
5.13165527238488
20
-19.2817172706427
30
0
41
1
10
5.196802936506
20
-19.1465353965878
30
0
41
1
10
5.32214040395087
20
-18.9525790172264
30
0
41
1
10
5.36884458558376
20
-18.8891011600575
30
0
41
1
10
5.46984348928561
20
-18.7675425769085
30
0
41
1
10
5.52421713530799
20
-18.7092466655773
30
0
41
1
10
5.67596412404856
20
-18.5633346510575
30
0
41
1
10
5.77937950536153
20
-18.4793825260202
30
0
41
1
10
5.89274028644985
20
-18.4015474549813
30
0
0
SPLINE
5
33D
100
AcDbEntity
8
1
62
256
6
ByLayer
370
18
48
1
60
0
100
AcDbSpline
70
2053
71
3
72
127
73
123
40
0
40
0
40
0
40
0
40
0.0312500000000001
40
0.0312500000000001
40
0.0468750000000001
40
0.0468750000000001
40
0.0625000000000002
40
0.0625000000000002
40
0.0937499999999998
40
0.0937499999999998
40
0.1015625
40
0.1015625
40
0.109374999999999
40
0.109374999999999
40
0.124999999999999
40
0.124999999999999
40
0.156249999999999
40
0.156249999999999
40
0.164062499999999
40
0.164062499999999
40
0.171874999999999
40
0.171874999999999
40
0.187499999999998
40
0.203124999999998
40
0.203124999999998
40
0.210937499999997
40
0.210937499999997
40
0.218749999999997
40
0.218749999999997
40
0.249999999999998
40
0.249999999999998
40
0.265624999999998
40
0.265624999999998
40
0.273437499999998
40
0.273437499999998
40
0.281249999999998
40
0.281249999999998
40
0.312499999999998
40
0.312499999999998
40
0.320312499999998
40
0.320312499999998
40
0.328124999999998
40
0.328124999999998
40
0.343749999999998
40
0.343749999999998
40
0.374999999999998
40
0.374999999999998
40
0.406249999999998
40
0.406249999999998
40
0.421874999999998
40
0.421874999999998
40
0.429687499999998
40
0.429687499999998
40
0.437499999999998
40
0.437499999999998
40
0.468749999999999
40
0.468749999999999
40
0.476562499999999
40
0.476562499999999
40
0.484374999999999
40
0.484374999999999
40
0.499999999999999
40
0.499999999999999
40
0.53125
40
0.53125
40
0.5390625
40
0.5390625
40
0.546875
40
0.546875
40
0.5625
40
0.578125000000001
40
0.578125000000001
40
0.585937500000001
40
0.585937500000001
40
0.593750000000001
40
0.593750000000001
40
0.625000000000001
40
0.625000000000001
40
0.640625000000002
40
0.640625000000002
40
0.648437500000002
40
0.648437500000002
40
0.656250000000002
40
0.656250000000002
40
0.687500000000002
40
0.687500000000002
40
0.703125000000002
40
0.703125000000002
40
0.718750000000003
40
0.718750000000003
40
0.750000000000003
40
0.750000000000003
40
0.781250000000003
40
0.781250000000003
40
0.796875000000003
40
0.796875000000003
40
0.804687500000003
40
0.804687500000003
40
0.812500000000003
40
0.812500000000003
40
0.843750000000003
40
0.843750000000003
40
0.851562500000003
40
0.851562500000003
40
0.859375000000003
40
0.859375000000003
40
0.875000000000002
40
0.875000000000002
40
0.906250000000001
40
0.906250000000001
40
0.914062500000001
40
0.914062500000001
40
0.921875000000001
40
0.921875000000001
40
0.937500000000001
40
0.953125000000001
40
0.953125000000001
40
0.960937500000001
40
0.960937500000001
40
0.968750000000001
40
0.968750000000001
40
1
40
1
40
1
40
1
41
1
10
10.2295085345386
20
11.4050505509384
30
0
41
1
10
10.3627385096378
20
11.2620256278571
30
0
41
1
10
10.4791944212897
20
11.1090575816331
30
0
41
1
10
10.6297421709249
20
10.8655759400327
30
0
41
1
10
10.6758721144299
20
10.7820589037041
30
0
41
1
10
10.7598404682979
20
10.6102450503635
30
0
41
1
10
10.7977025784842
20
10.5217212599322
30
0
41
1
10
10.8962695170376
20
10.2548347650348
30
0
41
1
10
10.9431005860815
20
10.0733566284136
30
0
41
1
10
10.9782909090087
20
9.84224663602623
30
0
41
1
10
10.9841510810829
20
9.79580921073693
30
0
41
1
10
10.9934792173407
20
9.70249865521168
30
0
41
1
10
10.9969507689103
20
9.6554941798654
30
0
41
1
10
11.0036506815575
20
9.51507268958892
30
0
41
1
10
11.003216163749
20
9.42215666051163
30
0
41
1
10
10.9876874951752
20
9.14543671574847
30
0
41
1
10
10.9585031141205
20
8.96364785953637
30
0
41
1
10
10.8979821021155
20
8.73976078581762
30
0
41
1
10
10.8846359736775
20
8.69508302508791
30
0
41
1
10
10.8557931541586
20
8.60700899061374
30
0
41
1
10
10.840270865357
20
8.56350249299163
30
0
41
1
10
10.790460669024
20
8.43453848329762
30
0
41
1
10
10.7154134620507
20
8.26672714505122
30
0
41
1
10
10.6233377479761
20
8.10698833174564
30
0
41
1
10
10.5477958518466
20
7.99021552380378
30
0
41
1
10
10.5215324110404
20
7.95179732076053
30
0
41
1
10
10.4667984633657
20
7.87598441409756
30
0
41
1
10
10.4383262921291
20
7.8386020782508
30
0
41
1
10
10.2919944125425
20
7.65626456687681
30
0
41
1
10
10.1611695019259
20
7.52322597528456
30
0
41
1
10
9.94459685633842
20
7.3421817384795
30
0
41
1
10
9.86899226066231
20
7.2849418674773
30
0
41
1
10
9.75027114721775
20
7.20386237092669
30
0
41
1
10
9.70984492706702
20
7.1776675677844
30
0
41
1
10
9.62811469303051
20
7.12745003257993
30
0
41
1
10
9.58670258979123
20
7.103351694526
30
0
41
1
10
9.37694230947432
20
6.98782387374416
30
0
41
1
10
9.20057258708886
20
6.91113850154312
30
0
41
1
10
8.96918289387645
20
6.83504427516567
30
0
41
1
10
8.92235366929833
20
6.82082283564694
30
0
41
1
10
8.82756642703089
20
6.79441575836194
30
0
41
1
10
8.77969918983831
20
6.78226284477034
30
0
41
1
10
8.636031536171
20
6.74926015025773
30
0
41
1
10
8.53966061395033
20
6.73171262680285
30
0
41
1
10
8.24880697963209
20
6.69210840147093
30
0
41
1
10
8.05260019412509
20
6.68295637630484
30
0
41
1
10
7.65537329709451
20
6.70061508658705
30
0
41
1
10
7.46077856056496
20
6.72718049135284
30
0
41
1
10
7.17562671152717
20
6.7924471685763
30
0
41
1
10
7.08165021139672
20
6.81847478497173
30
0
41
1
10
6.94232583174318
20
6.86407653314166
30
0
41
1
10
6.89604364141826
20
6.88041708109739
30
0
41
1
10
6.80461297843556
20
6.91511835156228
30
0
41
1
10
6.75955969745917
20
6.93343577953937
30
0
41
1
10
6.53752864172156
20
7.02976671032184
30
0
41
1
10
6.37016392204674
20
7.1218704209499
30
0
41
1
10
6.17355640536221
20
7.25582189607672
30
0
41
1
10
6.13487058524743
20
7.28356206818182
30
0
41
1
10
6.05878809514837
20
7.34097872205388
30
0
41
1
10
6.02131908012888
20
7.37072175782032
30
0
41
1
10
5.91199213734092
20
7.46197477802923
30
0
41
1
10
5.84288210657667
20
7.52572440447329
30
0
41
1
10
5.64652137565275
20
7.72555402495425
30
0
41
1
10
5.53013297169383
20
7.87013093074404
30
0
41
1
10
5.40326488746348
20
8.06577517599516
30
0
41
1
10
5.3788270357453
20
8.10567969390598
30
0
41
1
10
5.33236425999257
20
8.18613565708029
30
0
41
1
10
5.3102675758272
20
8.22679305850875
30
0
41
1
10
5.24732641040231
20
8.35004265110712
30
0
41
1
10
5.17232006960802
20
8.51777702802002
30
0
41
1
10
5.11495796004101
20
8.6923358832309
30
0
41
1
10
5.07867844716264
20
8.82589040206341
30
0
41
1
10
5.06771098171754
20
8.87084851619039
30
0
41
1
10
5.0480742648968
20
8.96166650655687
30
0
41
1
10
5.03941469223008
20
9.00752492709358
30
0
41
1
10
5.0023574030086
20
9.23651402203694
30
0
41
1
10
4.99202723434234
20
9.42078473318304
30
0
41
1
10
5.00502959398432
20
9.69881341554304
30
0
41
1
10
5.01414689572573
20
9.79176054207062
30
0
41
1
10
5.03525434339355
20
9.93159245380355
30
0
41
1
10
5.04353154694871
20
9.97821872524236
30
0
41
1
10
5.06238017031967
20
10.0705560743212
30
0
41
1
10
5.07296963990166
20
10.1163969062235
30
0
41
1
10
5.13165527238488
20
10.3439791453256
30
0
41
1
10
5.196802936506
20
10.5209065923252
30
0
41
1
10
5.32214040395087
20
10.7782939804289
30
0
41
1
10
5.36884458558376
20
10.8631577030219
30
0
41
1
10
5.46984348928561
20
11.0267660801479
30
0
41
1
10
5.52421713530799
20
11.1057899191339
30
0
41
1
10
5.69870575820437
20
11.3346382149847
30
0
41
1
10
5.8302214771868
20
11.4764518912671
30
0
41
1
10
6.12407124732232
20
11.736456494292
30
0
41
1
10
6.28175757619368
20
11.8505819866771
30
0
41
1
10
6.53380890591006
20
11.9986305244413
30
0
41
1
10
6.62043226785204
20
12.0440953686949
30
0
41
1
10
6.75437236917213
20
12.1062961160491
30
0
41
1
10
6.79980537978491
20
12.1260751385279
30
0
41
1
10
6.89144560541058
20
12.1633421588854
30
0
41
1
10
6.93755887845975
20
12.180799717717
30
0
41
1
10
7.16956271670597
20
12.2623130209231
30
0
41
1
10
7.3597246630336
20
12.3092061558776
30
0
41
1
10
7.60309799429746
20
12.3449441088528
30
0
41
1
10
7.65205876122434
20
12.3509377491495
30
0
41
1
10
7.75056228245251
20
12.3605764224474
30
0
41
1
10
7.80024302598974
20
12.3642253367831
30
0
41
1
10
7.94880862346889
20
12.3715110648653
30
0
41
1
10
8.04735778651519
20
12.3715410082798
30
0
41
1
10
8.34156528085072
20
12.3575757586029
30
0
41
1
10
8.53579736629467
20
12.3296558007891
30
0
41
1
10
8.7761388480277
20
12.2709080143438
30
0
41
1
10
8.82417103584817
20
12.2579236881399
30
0
41
1
10
8.91896035715263
20
12.2298166360431
30
0
41
1
10
8.96583108894771
20
12.214670788647
30
0
41
1
10
9.10489907868623
20
12.1660183708149
30
0
41
1
10
9.28621247515855
20
12.0925903771479
30
0
41
1
10
9.45941401567075
20
12.0023307210214
30
0
41
1
10
9.58622547224297
20
11.9282506129184
30
0
41
1
10
9.6279800878126
20
11.9024911513916
30
0
41
1
10
9.71043791279311
20
11.848804140899
30
0
41
1
10
9.7511300231148
20
11.820874931068
30
0
41
1
10
9.95003387944132
20
11.6771157702251
30
0
41
1
10
10.0962785594394
20
11.5480754740196
30
0
41
1
10
10.2295085345386
20
11.4050505509384
30
0
0
SPLINE
5
33E
100
AcDbEntity
8
1
62
256
6
ByLayer
370
18
48
1
60
0
100
AcDbSpline
70
4
71
3
72
20
73
16
40
0
40
0
40
0
40
0
40
0.0284031781332758
40
0.0284031781332758
40
0.136358380562916
40
0.136358380562916
40
0.352268785422182
40
0.352268785422182
40
0.568179190281448
40
0.568179190281448
40
0.67613439271108
40
0.67613439271108
40
0.784089595140712
40
0.784089595140712
40
1
40
1
40
1
40
1
41
1
10
12.500475940908
20
31.0092938944442
30
0
41
1
10
12.5058859089487
20
31.0128465206813
30
0
41
1
10
12.5112410015767
20
31.0164555561034
30
0
41
1
10
12.5366436190897
20
31.0340269113319
30
0
41
1
10
12.5558569941066
20
31.0486707026914
30
0
41
1
10
12.6108780708214
20
31.0947386515144
30
0
41
1
10
12.6440913207218
20
31.1282793182881
30
0
41
1
10
12.7033791482868
20
31.2011842582956
30
0
41
1
10
12.7285352277713
20
31.2394340087299
30
0
41
1
10
12.7597487632031
20
31.2991810738524
30
0
41
1
10
12.7690668508338
20
31.3195054785826
30
0
41
1
10
12.7854977207271
20
31.3609839311886
30
0
41
1
10
12.7926159889303
20
31.3821959812181
30
0
41
1
10
12.8102543337934
20
31.4459463828885
30
0
41
1
10
12.8172538546679
20
31.4889376164841
30
0
41
1
10
12.8194785164542
20
31.5324214131242
30
0
0
SPLINE
5
33F
100
AcDbEntity
8
1
62
256
6
ByLayer
370
18
48
1
60
0
100
AcDbSpline
70
4
71
3
72
14
73
10
40
0
40
0
40
0
40
0
40
0.465137006853604
40
0.465137006853604
40
0.697705510280407
40
0.697705510280407
40
0.93027401370721
40
0.93027401370721
40
1
40
1
40
1
40
1
41
1
10
4.35194350254369
20
-16.0536371733434
30
0
41
1
10
4.34972335848767
20
-16.0548871239857
30
0
41
1
10
4.35233748497473
20
-16.0564877823739
30
0
41
1
10
4.36334953808694
20
-16.0594031848379
30
0
41
1
10
4.36821014623445
20
-16.060461310055
30
0
41
1
10
4.38038512170345
20
-16.062755571286
30
0
41
1
10
4.38769691577238
20
-16.0639894819168
30
0
41
1
10
4.39860200521599
20
-16.0656759201907
30
0
41
1
10
4.40121611171946
20
-16.0660710862231
30
0
41
1
10
4.40392916380353
20
-16.0664724415728
30
0
0
SPLINE
5
340
100
AcDbEntity
8
1
62
256
6
ByLayer
370
18
48
1
60
0
100
AcDbSpline
70
4
71
3
72
26
73
22
40
0
40
0
40
0
40
0
40
0.1531169392485
40
0.1531169392485
40
0.22967540887275
40
0.22967540887275
40
0.306233878497001
40
0.306233878497001
40
0.459350817745495
40
0.459350817745495
40
0.53590928736974
40
0.53590928736974
40
0.612467756993986
40
0.612467756993986
40
0.765584696242497
40
0.765584696242497
40
0.84214316586675
40
0.84214316586675
40
0.918701635491003
40
0.918701635491003
40
1
40
1
40
1
40
1
41
1
10
9.56082269497068
20
34.4813785181737
30
0
41
1
10
9.53153066161121
20
34.4842193158401
30
0
41
1
10
9.50142611532863
20
34.4846322011153
30
0
41
1
10
9.45481206315083
20
34.4815299140786
30
0
41
1
10
9.43902881020512
20
34.4798715027917
30
0
41
1
10
9.40689396271108
20
34.4752307111916
30
0
41
1
10
9.39049511509796
20
34.4722310060574
30
0
41
1
10
9.34143327628334
20
34.4613447783267
30
0
41
1
10
9.30857445238928
20
34.4515657886736
30
0
41
1
10
9.25883787959214
20
34.4327438650568
30
0
41
1
10
9.24227616439401
20
34.4257937825504
30
0
41
1
10
9.21001136992709
20
34.4108988865508
30
0
41
1
10
9.19418817777762
20
34.4029102852389
30
0
41
1
10
9.14764623530778
20
34.3773233680981
30
0
41
1
10
9.11750952592536
20
34.3578093976141
30
0
41
1
10
9.07666357200401
20
34.3268628079217
30
0
41
1
10
9.06368202443861
20
34.3162277689297
30
0
41
1
10
9.03893070729197
20
34.2943101489199
30
0
41
1
10
9.02710692475404
20
34.2829641273712
30
0
41
1
10
9.00443749808136
20
34.2593881095988
30
0
41
1
10
8.99362754159563
20
34.2471031876294
30
0
41
1
10
8.98362311297285
20
34.234657372093
30
0
0
SPLINE
5
341
100
AcDbEntity
8
1
62
256
6
ByLayer
370
18
48
1
60
0
100
AcDbSpline
70
4
71
3
72
29
73
25
40
0
40
0
40
0
40
0
40
0.124999999999985
40
0.124999999999985
40
0.187499999999978
40
0.187499999999978
40
0.24999999999997
40
0.24999999999997
40
0.374999999999973
40
0.374999999999973
40
0.437499999999976
40
0.437499999999976
40
0.499999999999978
40
0.499999999999978
40
0.624999999999986
40
0.624999999999986
40
0.687499999999989
40
0.687499999999989
40
0.749999999999991
40
0.812499999999993
40
0.812499999999993
40
0.874999999999996
40
0.874999999999996
40
1
40
1
40
1
40
1
41
1
10
12.9999117529387
20
39.2020254341517
30
0
41
1
10
12.9999093887479
20
39.2530087966406
30
0
41
1
10
12.9951055797821
20
39.3032281541529
30
0
41
1
10
12.9808571514853
20
39.3774365549767
30
0
41
1
10
12.9749258314558
20
39.4019846338032
30
0
41
1
10
12.9606260937911
20
39.4506930009509
30
0
41
1
10
12.9522634213454
20
39.4747805395822
30
0
41
1
10
12.9240322571649
20
39.5449536887976
30
0
41
1
10
12.9009140420443
20
39.5894646270841
30
0
41
1
10
12.8597202454047
20
39.6527871315859
30
0
41
1
10
12.8448159092638
20
39.6734134236528
30
0
41
1
10
12.8131010246654
20
39.7129798925839
30
0
41
1
10
12.7963852898699
20
39.7318241709826
30
0
41
1
10
12.7437289287946
20
39.7856120353149
30
0
41
1
10
12.7053029671425
20
39.8178367104626
30
0
41
1
10
12.6425113386557
20
39.8605367802903
30
0
41
1
10
12.6207676111634
20
39.8737684859822
30
0
41
1
10
12.5765248638689
20
39.8977468303644
30
0
41
1
10
12.5312990680447
20
39.9194013171082
30
0
41
1
10
12.4841346010649
20
39.9364729214829
30
0
41
1
10
12.4359868401667
20
39.9512200881373
30
0
41
1
10
12.4113001161001
20
39.9574515918782
30
0
41
1
10
12.3368045356571
20
39.9723115726038
30
0
41
1
10
12.2865590430891
20
39.9772088626488
30
0
41
1
10
12.2357312752212
20
39.9770924575951
30
0
0
SPLINE
5
342
100
AcDbEntity
8
1
62
256
6
ByLayer
370
18
48
1
60
0
100
AcDbSpline
70
4
71
3
72
18
73
14
40
0
40
0
40
0
40
0
40
0.25
40
0.25
40
0.5
40
0.5
40
0.625
40
0.625
40
0.75
40
0.75
40
0.875
40
0.875
40
1
40
1
40
1
40
1
41
1
10
6.43917730502943
20
17.8081403993084
30
0
41
1
10
6.41769496584033
20
17.7939799209783
30
0
41
1
10
6.39519531026349
20
17.7827957829296
30
0
41
1
10
6.34866804453856
20
17.76711182177
30
0
41
1
10
6.3252927647714
20
17.7628489241579
30
0
41
1
10
6.29097644110902
20
17.7624470562239
30
0
41
1
10
6.27987300390078
20
17.7633188677366
30
0
41
1
10
6.25836831943627
20
17.7671087401007
30
0
41
1
10
6.24787050040754
20
17.7700720490647
30
0
41
1
10
6.22825173425201
20
17.7779951648421
30
0
41
1
10
6.21911663134875
20
17.782928383904
30
0
41
1
10
6.20222673735896
20
17.7947652053288
30
0
41
1
10
6.1944382481978
20
17.801740107357
30
0
41
1
10
6.18767958454168
20
17.8094410802329
30
0
0
SPLINE
5
343
100
AcDbEntity
8
1
62
256
6
ByLayer
370
18
48
1
60
0
100
AcDbSpline
70
4
71
3
72
18
73
14
40
0
40
0
40
0
40
0
40
0.250000000000009
40
0.250000000000009
40
0.500000000000018
40
0.500000000000018
40
0.625000000000013
40
0.625000000000013
40
0.750000000000009
40
0.750000000000009
40
0.875000000000004
40
0.875000000000004
40
1
40
1
40
1
40
1
41
1
10
8.11648278195281
20
19.0271632931503
30
0
41
1
10
8.13999716246497
20
19.0247842421796
30
0
41
1
10
8.16438780111446
20
19.0205769757411
30
0
41
1
10
8.21438384093716
20
19.0080273128217
30
0
41
1
10
8.23928751794205
20
18.9998500249851
30
0
41
1
10
8.27553640199471
20
18.9845220754014
30
0
41
1
10
8.28721193029753
20
18.9789938047337
30
0
41
1
10
8.30971818997728
20
18.9670517445022
30
0
41
1
10
8.32064857391953
20
18.9605676311236
30
0
41
1
10
8.34095916663193
20
18.9470134853669
30
0
41
1
10
8.35035563817115
20
18.939952891156
30
0
41
1
10
8.36759881567241
20
18.9252405657126
30
0
41
1
10
8.37547765358892
20
18.9175302820417
30
0
41
1
10
8.38223631724503
20
18.9098293091658
30
0
0
SPLINE
5
344
100
AcDbEntity
8
1
62
256
6
ByLayer
370
18
48
1
60
0
100
AcDbSpline
70
4
71
3
72
28
73
24
40
0
40
0
40
0
40
0
40
0.125
40
0.125
40
0.249999999999999
40
0.249999999999999
40
0.312500000000001
40
0.312500000000001
40
0.375000000000002
40
0.375000000000002
40
0.500000000000001
40
0.500000000000001
40
0.562499999999998
40
0.562499999999998
40
0.624999999999994
40
0.624999999999994
40
0.749999999999996
40
0.749999999999996
40
0.812499999999997
40
0.812499999999997
40
0.874999999999998
40
0.874999999999998
40
1
40
1
40
1
40
1
41
1
10
8.11648278195281
20
19.0271632931503
30
0
41
1
10
8.08439927944374
20
19.0304093190344
30
0
41
1
10
8.05117562793515
20
19.0350787948494
30
0
41
1
10
7.98400045749565
20
19.046835048622
30
0
41
1
10
7.94996331582377
20
19.053914303381
30
0
41
1
10
7.89798786907886
20
19.0662205471056
30
0
41
1
10
7.88044186082652
20
19.0706254607793
30
0
41
1
10
7.8458446501869
20
19.0797678209618
30
0
41
1
10
7.82870007746385
20
19.0845253908623
30
0
41
1
10
7.7777336579652
20
19.0992967768852
30
0
41
1
10
7.74406768758803
20
19.1099177297272
30
0
41
1
10
7.69757095695468
20
19.1257695061927
30
0
41
1
10
7.68261940900902
20
19.1310758735505
30
0
41
1
10
7.65380418828147
20
19.1417485628287
30
0
41
1
10
7.6398470859553
20
19.147153635939
30
0
41
1
10
7.60035380261581
20
19.1632330265784
30
0
41
1
10
7.57739931975379
20
19.173658466752
30
0
41
1
10
7.54730910032737
20
19.1893057065283
30
0
41
1
10
7.53797088335671
20
19.1945500162379
30
0
41
1
10
7.52103020432446
20
19.2049148977577
30
0
41
1
10
7.51339114032476
20
19.210050254063
30
0
41
1
10
7.49275576912368
20
19.2254242689632
30
0
41
1
10
7.48201838593837
20
19.2356357362091
30
0
41
1
10
7.47409402270364
20
19.2460147847144
30
0
0
SPLINE
5
345
100
AcDbEntity
8
1
62
256
6
ByLayer
370
18
48
1
60
0
100
AcDbSpline
70
4
71
3
72
20
73
16
40
0
40
0
40
0
40
0
40
0.125000000000003
40
0.125000000000003
40
0.250000000000006
40
0.250000000000006
40
0.375000000000009
40
0.375000000000009
40
0.500000000000012
40
0.500000000000012
40
0.625000000000015
40
0.625000000000015
40
0.750000000000018
40
0.750000000000018
40
1
40
1
40
1
40
1
41
1
10
7.25588124817352
20
19.2935603183838
30
0
41
1
10
7.26892543868217
20
19.2945333673642
30
0
41
1
10
7.28185924658123
20
19.295057287826
30
0
41
1
10
7.30750508753334
20
19.2952104748497
30
0
41
1
10
7.32021277701182
20
19.2948262904021
30
0
41
1
10
7.34428513949439
20
19.2932251364789
30
0
41
1
10
7.35580283868939
20
19.2920117993905
30
0
41
1
10
7.37782546904748
20
19.2888050835584
30
0
41
1
10
7.38836461158508
20
19.286792361519
30
0
41
1
10
7.40758896700657
20
19.282205236362
30
0
41
1
10
7.41639701301148
20
19.2796172775743
30
0
41
1
10
7.43249093085683
20
19.2739185219823
30
0
41
1
10
7.43982990708747
20
19.2707770340665
30
0
41
1
10
7.45907450121541
20
19.2608549227868
30
0
41
1
10
7.46826764125353
20
19.2536459714596
30
0
41
1
10
7.47409402270364
20
19.2460147847144
30
0
0
SPLINE
5
346
100
AcDbEntity
8
1
62
256
6
ByLayer
370
18
48
1
60
0
100
AcDbSpline
70
4
71
3
72
28
73
24
40
0
40
0
40
0
40
0
40
0.125000000000007
40
0.125000000000007
40
0.250000000000013
40
0.250000000000013
40
0.312500000000014
40
0.312500000000014
40
0.375000000000015
40
0.375000000000015
40
0.500000000000013
40
0.500000000000013
40
0.562500000000012
40
0.562500000000012
40
0.62500000000001
40
0.62500000000001
40
0.750000000000007
40
0.750000000000007
40
0.812500000000004
40
0.812500000000004
40
0.875000000000001
40
0.875000000000001
40
1
40
1
40
1
40
1
41
1
10
7.03101481686451
20
19.2129626938856
30
0
41
1
10
7.02170211338614
20
19.2012907386456
30
0
41
1
10
7.00950518703445
20
19.1891992307146
30
0
41
1
10
6.97964584070127
20
19.1643557744375
30
0
41
1
10
6.96199791759977
20
19.1515771526633
30
0
41
1
10
6.93084985769877
20
19.1313299007224
30
0
41
1
10
6.91962744311832
20
19.1243695026728
30
0
41
1
10
6.89602435010488
20
19.1103111434536
30
0
41
1
10
6.88359309334425
20
19.1031776736909
30
0
41
1
10
6.84432438007235
20
19.0813500973695
30
0
41
1
10
6.81514752066943
20
19.066044697974
30
0
41
1
10
6.76980396017581
20
19.0433423910746
30
0
41
1
10
6.75434393530259
20
19.0357730302975
30
0
41
1
10
6.72273319522333
20
19.0206452137702
30
0
41
1
10
6.70646408558355
20
19.0130332464952
30
0
41
1
10
6.65748082128852
20
18.9906851861006
30
0
41
1
10
6.62495719244589
20
18.9765836578782
30
0
41
1
10
6.57617801980655
20
18.9567933989717
30
0
41
1
10
6.5598361946096
20
18.9503964129377
30
0
41
1
10
6.52774215823848
20
18.938340252929
30
0
41
1
10
6.51194336374164
20
18.9326595625154
30
0
41
1
10
6.46518258005892
20
18.9166526971333
30
0
41
1
10
6.43484767452009
20
18.9073551544382
30
0
41
1
10
6.40519881634049
20
18.8995077581583
30
0
0
SPLINE
5
347
100
AcDbEntity
8
1
62
256
6
ByLayer
370
18
48
1
60
0
100
AcDbSpline
70
4
71
3
72
20
73
16
40
0
40
0
40
0
40
0
40
0.125000000000001
40
0.125000000000001
40
0.250000000000002
40
0.250000000000002
40
0.375000000000003
40
0.375000000000003
40
0.500000000000004
40
0.500000000000004
40
0.625000000000005
40
0.625000000000005
40
0.750000000000006
40
0.750000000000006
40
1
40
1
40
1
40
1
41
1
10
6.15858461222348
20
18.7439530117513
30
0
41
1
10
6.16485505949908
20
18.7526541596979
30
0
41
1
10
6.17200347534134
20
18.7613234116117
30
0
41
1
10
6.18805744744475
20
18.7786024852418
30
0
41
1
10
6.19698898560267
20
18.7872108450938
30
0
41
1
10
6.2157889318654
20
18.8036212409326
30
0
41
1
10
6.22574725755351
20
18.811526044778
30
0
41
1
10
6.2467402245432
20
18.8267697672363
30
0
41
1
10
6.25783950510606
20
18.8341346921963
30
0
41
1
10
6.28015559962779
20
18.8477332704205
30
0
41
1
10
6.29147971784607
20
18.8540511710913
30
0
41
1
10
6.31442518674857
20
18.865804133296
30
0
41
1
10
6.32614997126797
20
18.8712805919171
30
0
41
1
10
6.36090816018583
20
18.8860604311669
30
0
41
1
10
6.3833995089193
20
18.8937379641607
30
0
41
1
10
6.40519881634049
20
18.8995077581583
30
0
0
SPLINE
5
348
100
AcDbEntity
8
1
62
256
6
ByLayer
370
18
48
1
60
0
100
AcDbSpline
70
4
71
3
72
18
73
14
40
0
40
0
40
0
40
0
40
0.250000000000005
40
0.250000000000005
40
0.500000000000009
40
0.500000000000009
40
0.625000000000007
40
0.625000000000007
40
0.750000000000005
40
0.750000000000005
40
0.875000000000002
40
0.875000000000002
40
1
40
1
40
1
40
1
41
1
10
7.03101481686451
20
19.2129626938856
30
0
41
1
10
7.03784017173439
20
19.2215171632429
30
0
41
1
10
7.04799352162212
20
19.2302140787026
30
0
41
1
10
7.07533936005035
20
19.2474102784201
30
0
41
1
10
7.09217886232312
20
19.255674245133
30
0
41
1
10
7.12209709240744
20
19.2669888118939
30
0
41
1
10
7.13266974890644
20
19.2705112383326
30
0
41
1
10
7.15504797400541
20
19.2770138702921
30
0
41
1
10
7.166979678058
20
19.2800187914701
30
0
41
1
10
7.19145014600338
20
19.2852463275325
30
0
41
1
10
7.20398236660321
20
19.2874790170033
30
0
41
1
10
7.22965332296803
20
19.2911518387908
30
0
41
1
10
7.24288326072428
20
19.292590715983
30
0
41
1
10
7.25588124817352
20
19.2935603183838
30
0
0
SPLINE
5
349
100
AcDbEntity
8
1
62
256
6
ByLayer
370
18
48
1
60
0
100
AcDbSpline
70
4
71
3
72
18
73
14
40
0
40
0
40
0
40
0
40
0.250000000000014
40
0.250000000000014
40
0.500000000000029
40
0.500000000000029
40
0.625000000000022
40
0.625000000000022
40
0.750000000000014
40
0.750000000000014
40
0.875000000000007
40
0.875000000000007
40
1
40
1
40
1
40
1
41
1
10
6.19243337000523
20
18.6039125315646
30
0
41
1
10
6.17672456101559
20
18.6065648483288
30
0
41
1
10
6.16339543230924
20
18.6117647587561
30
0
41
1
10
6.14243065381305
20
18.6273986857928
30
0
41
1
10
6.13510447399921
20
18.6376256964162
30
0
41
1
10
6.12972928059349
20
18.6564237579377
30
0
41
1
10
6.12891022305359
20
18.6631539570089
30
0
41
1
10
6.12928129331738
20
18.6775404631456
30
0
41
1
10
6.13049965152152
20
18.6852796305233
30
0
41
1
10
6.13501916809417
20
18.7012665839699
30
0
41
1
10
6.13829374414718
20
18.7095072425195
30
0
41
1
10
6.14691792227848
20
18.7264789631105
30
0
41
1
10
6.15232868597229
20
18.7352720138159
30
0
41
1
10
6.15858461222348
20
18.7439530117513
30
0
0
SPLINE
5
34A
100
AcDbEntity
8
1
62
256
6
ByLayer
370
18
48
1
60
0
100
AcDbSpline
70
4
71
3
72
14
73
10
40
0
40
0
40
0
40
0
40
0.25
40
0.25
40
0.5
40
0.5
40
0.75
40
0.75
40
1
40
1
40
1
40
1
41
1
10
6.19243337000535
20
18.6039125315646
30
0
41
1
10
6.21270955140614
20
18.6004890475895
30
0
41
1
10
6.23132489424751
20
18.5950510685263
30
0
41
1
10
6.26511394655222
20
18.579471958205
30
0
41
1
10
6.28005594382768
20
18.5694145574529
30
0
41
1
10
6.30549482400011
20
18.5441268782311
30
0
41
1
10
6.31612516187562
20
18.5286220543693
30
0
41
1
10
6.33170395743826
20
18.4924730773139
30
0
41
1
10
6.33678683685571
20
18.4718173059698
30
0
41
1
10
6.3389161814456
20
18.4481697550996
30
0
0
SPLINE
5
34B
100
AcDbEntity
8
1
62
256
6
ByLayer
370
18
48
1
60
0
100
AcDbSpline
70
4
71
3
72
16
73
12
40
0
40
0
40
0
40
0
40
0.125000000000012
40
0.125000000000012
40
0.250000000000025
40
0.250000000000025
40
0.500000000000017
40
0.500000000000017
40
0.750000000000008
40
0.750000000000008
40
1
40
1
40
1
40
1
41
1
10
6.3399460546176
20
18.4150908864686
30
0
41
1
10
6.33964916346423
20
18.4022262261651
30
0
41
1
10
6.33859218792628
20
18.3889070008136
30
0
41
1
10
6.33499795357147
20
18.3614055720881
30
0
41
1
10
6.33244508595806
20
18.3471861471015
30
0
41
1
10
6.3228121864513
20
18.304242072893
30
0
41
1
10
6.31375669890377
20
18.2749470506428
30
0
41
1
10
6.29078058758176
20
18.2154343369965
30
0
41
1
10
6.27694459090242
20
18.1855516862956
30
0
41
1
10
6.2457662448964
20
18.1274098204919
30
0
41
1
10
6.22831651278858
20
18.0988793860709
30
0
41
1
10
6.20902696795781
20
18.0709367616002
30
0
0
SPLINE
5
34C
100
AcDbEntity
8
1
62
256
6
ByLayer
370
18
48
1
60
0
100
AcDbSpline
70
4
71
3
72
20
73
16
40
0
40
0
40
0
40
0
40
0.124999999999996
40
0.124999999999996
40
0.249999999999992
40
0.249999999999992
40
0.374999999999988
40
0.374999999999988
40
0.499999999999984
40
0.499999999999984
40
0.62499999999998
40
0.62499999999998
40
0.749999999999976
40
0.749999999999976
40
1
40
1
40
1
40
1
41
1
10
6.18767958454168
20
17.8094410802329
30
0
41
1
10
6.18088867820313
20
17.817178791144
30
0
41
1
10
6.17504552514384
20
17.82569376111
30
0
41
1
10
6.16525482793225
20
17.8442831351324
30
0
41
1
10
6.16133456141546
20
17.8543848199107
30
0
41
1
10
6.15570433403877
20
17.8752417000276
30
0
41
1
10
6.1539299856189
20
17.8861023242371
30
0
41
1
10
6.15239681139684
20
17.9086767891816
30
0
41
1
10
6.15266606255148
20
17.9204584030972
30
0
41
1
10
6.15512661368768
20
17.9438966890341
30
0
41
1
10
6.15729981519343
20
17.9556691458755
30
0
41
1
10
6.16341058840305
20
17.9793299095284
30
0
41
1
10
6.1673944378897
20
17.9913224977211
30
0
41
1
10
6.18164775012201
20
18.0266542878844
30
0
41
1
10
6.19403718504117
20
18.0492227253897
30
0
41
1
10
6.20902696795781
20
18.0709367616002
30
0
0
SPLINE
5
34D
100
AcDbEntity
8
1
62
256
6
ByLayer
370
18
48
1
60
0
100
AcDbSpline
70
4
71
3
72
20
73
16
40
0
40
0
40
0
40
0
40
0.124999999999999
40
0.124999999999999
40
0.249999999999997
40
0.249999999999997
40
0.374999999999996
40
0.374999999999996
40
0.499999999999994
40
0.499999999999994
40
0.624999999999993
40
0.624999999999993
40
0.749999999999991
40
0.749999999999991
40
1
40
1
40
1
40
1
41
1
10
8.38223631724503
20
18.9098293091658
30
0
41
1
10
8.38902722358358
20
18.9020915982547
30
0
41
1
10
8.39478204478695
20
18.8942955936475
30
0
41
1
10
8.40421823465653
20
18.8785916848494
30
0
41
1
10
8.40786951329852
20
18.8706793909982
30
0
41
1
10
8.41280736695268
20
18.855457994442
30
0
41
1
10
8.41415681243194
20
18.848055811041
30
0
41
1
10
8.41468285862845
20
18.833678730323
30
0
41
1
10
8.41382643881269
20
18.8266762974038
30
0
41
1
10
8.4100819149827
20
18.8136887359425
30
0
41
1
10
8.40720735731878
20
18.8076248739988
30
0
41
1
10
8.3995763671096
20
18.7963377138366
30
0
41
1
10
8.394765720858
20
18.7910747276279
30
0
41
1
10
8.37790790007921
20
18.776941987371
30
0
41
1
10
8.36363423209872
20
18.7697100135363
30
0
41
1
10
8.34660377438149
20
18.7646057776655
30
0
0
SPLINE
5
34E
100
AcDbEntity
8
1
62
256
6
ByLayer
370
18
48
1
60
0
100
AcDbSpline
70
4
71
3
72
18
73
14
40
0
40
0
40
0
40
0
40
0.249999999999991
40
0.249999999999991
40
0.499999999999982
40
0.499999999999982
40
0.624999999999987
40
0.624999999999987
40
0.749999999999991
40
0.749999999999991
40
0.874999999999996
40
0.874999999999996
40
1
40
1
40
1
40
1
41
1
10
8.36319737233396
20
18.2316300077011
30
0
41
1
10
8.3809416986569
20
18.2124098691142
30
0
41
1
10
8.39616537411564
20
18.1917895481041
30
0
41
1
10
8.4206057635584
20
18.1478663493695
30
0
41
1
10
8.42946371182535
20
18.1251717137403
30
0
41
1
10
8.43677560507831
20
18.0906101421429
30
0
41
1
10
8.43816803573139
20
18.0792130490974
30
0
41
1
10
8.4388008735387
20
18.0566553671247
30
0
41
1
10
8.43801612714702
20
18.0453868742375
30
0
41
1
10
8.43419001082003
20
18.0237560819821
30
0
41
1
10
8.43117744291732
20
18.0133828430419
30
0
41
1
10
8.4229074333017
20
17.9935284150588
30
0
41
1
10
8.41758721581442
20
17.9839983755829
30
0
41
1
10
8.41133128956329
20
17.9753173776474
30
0
0
SPLINE
5
34F
100
AcDbEntity
8
1
62
256
6
ByLayer
370
18
48
1
60
0
100
AcDbSpline
70
4
71
3
72
14
73
10
40
0
40
0
40
0
40
0
40
0.25
40
0.25
40
0.5
40
0.5
40
0.75
40
0.75
40
1
40
1
40
1
40
1
41
1
10
8.36319737233396
20
18.2316300077011
30
0
41
1
10
8.34029384224488
20
18.2564384458706
30
0
41
1
10
8.31917716028011
20
18.2822357410821
30
0
41
1
10
8.28072085838232
20
18.3358033069156
30
0
41
1
10
8.26364464699088
20
18.3632318587885
30
0
41
1
10
8.23451423629535
20
18.4185662583005
30
0
41
1
10
8.22230777661343
20
18.4468997153713
30
0
41
1
10
8.20445185692262
20
18.5015830405289
30
0
41
1
10
8.19865007001954
20
18.5280902634597
30
0
41
1
10
8.19629589324927
20
18.5535678058723
30
0
0
SPLINE
5
350
100
AcDbEntity
8
1
62
256
6
ByLayer
370
18
48
1
60
0
100
AcDbSpline
70
4
71
3
72
16
73
12
40
0
40
0
40
0
40
0
40
0.125
40
0.125
40
0.25
40
0.25
40
0.5
40
0.5
40
0.75
40
0.75
40
1
40
1
40
1
40
1
41
1
10
8.19526602007733
20
18.5866466745034
30
0
41
1
10
8.19567546698539
20
18.5985952022544
30
0
41
1
10
8.19696997697196
20
18.6099810476455
30
0
41
1
10
8.20127657999109
20
18.6316842466481
30
0
41
1
10
8.20430683019794
20
18.6420180796926
30
0
41
1
10
8.21566738063501
20
18.6709001696
30
0
41
1
10
8.22627076318901
20
18.6875963069141
30
0
41
1
10
8.25296371624711
20
18.7168562830281
30
0
41
1
10
8.2689518815672
20
18.7292216441491
30
0
41
1
10
8.30475144939658
20
18.7497496913326
30
0
41
1
10
8.32468819498644
20
18.7580374112518
30
0
41
1
10
8.34660377438149
20
18.7646057776655
30
0
0
SPLINE
5
351
100
AcDbEntity
8
1
62
256
6
ByLayer
370
18
48
1
60
0
100
AcDbSpline
70
4
71
3
72
20
73
16
40
0
40
0
40
0
40
0
40
0.125000000000001
40
0.125000000000001
40
0.250000000000002
40
0.250000000000002
40
0.375000000000003
40
0.375000000000003
40
0.500000000000005
40
0.500000000000005
40
0.625000000000006
40
0.625000000000006
40
0.750000000000007
40
0.750000000000007
40
1
40
1
40
1
40
1
41
1
10
8.41133128956329
20
17.9753173776474
30
0
41
1
10
8.40506084228764
20
17.9666162297008
30
0
41
1
10
8.39782432620166
20
17.9586640579694
30
0
41
1
10
8.38141664222405
20
17.9442639749587
30
0
41
1
10
8.37221679092409
20
17.937839514137
30
0
41
1
10
8.35272615831025
20
17.9270508677242
30
0
41
1
10
8.34234392125404
20
17.9225964339152
30
0
41
1
10
8.32034602164362
20
17.9155322264783
30
0
41
1
10
8.30866091859343
20
17.9129355255131
30
0
41
1
10
8.28506375954765
20
17.9097640011048
30
0
41
1
10
8.27303979925591
20
17.9091423716414
30
0
41
1
10
8.24857722716382
20
17.9097376684866
30
0
41
1
10
8.23602723378616
20
17.9109778872946
30
0
41
1
10
8.19866986065085
20
17.9173537612853
30
0
41
1
10
8.1742977852951
20
17.9249841517689
30
0
41
1
10
8.15046127064176
20
17.9357959343005
30
0
0
SPLINE
5
352
100
AcDbEntity
8
1
62
256
6
ByLayer
370
18
48
1
60
0
100
AcDbSpline
70
4
71
3
72
20
73
16
40
0
40
0
40
0
40
0
40
0.125000000000001
40
0.125000000000001
40
0.250000000000002
40
0.250000000000002
40
0.375000000000003
40
0.375000000000003
40
0.500000000000004
40
0.500000000000004
40
0.625000000000006
40
0.625000000000006
40
0.750000000000007
40
0.750000000000007
40
1
40
1
40
1
40
1
41
1
10
7.31403465361319
20
17.4257100710149
30
0
41
1
10
7.30099046310454
20
17.4247370220345
30
0
41
1
10
7.28796855489469
20
17.4249301823008
30
0
41
1
10
7.26196900225324
20
17.4276559843924
30
0
41
1
10
7.24899299948737
20
17.4302240690532
30
0
41
1
10
7.22422995035237
20
17.437446974855
30
0
41
1
10
7.21228833973356
20
17.442110682433
30
0
41
1
10
7.18926077722614
20
17.4534969094497
30
0
41
1
10
7.17813581200136
20
17.4602778571109
30
0
41
1
10
7.1576303913638
20
17.4752920417161
30
0
41
1
10
7.14812250314765
20
17.4835762728325
30
0
41
1
10
7.13051148250446
20
17.5016232842851
30
0
41
1
10
7.12234729825184
20
17.511481442824
30
0
41
1
10
7.10050351812691
20
17.5425592818286
30
0
41
1
10
7.08942965138419
20
17.5650761573036
30
0
41
1
10
7.0815660642786
20
17.5892889077443
30
0
0
SPLINE
5
353
100
AcDbEntity
8
1
62
256
6
ByLayer
370
18
48
1
60
0
100
AcDbSpline
70
4
71
3
72
28
73
24
40
0
40
0
40
0
40
0
40
0.124999999999992
40
0.124999999999992
40
0.249999999999984
40
0.249999999999984
40
0.312499999999983
40
0.312499999999983
40
0.374999999999982
40
0.374999999999982
40
0.499999999999979
40
0.499999999999979
40
0.562499999999978
40
0.562499999999978
40
0.624999999999977
40
0.624999999999977
40
0.749999999999985
40
0.749999999999985
40
0.812499999999987
40
0.812499999999987
40
0.874999999999989
40
0.874999999999989
40
1
40
1
40
1
40
1
41
1
10
6.43917730502727
20
17.808140399307
30
0
41
1
10
6.46848824872484
20
17.8274612460459
30
0
41
1
10
6.49905696846753
20
17.8444012332065
30
0
41
1
10
6.56139372949895
20
17.8720265674316
30
0
41
1
10
6.59323564040807
20
17.8828151006513
30
0
41
1
10
6.64238295347025
20
17.8935280738019
30
0
41
1
10
6.65906288510593
20
17.8961724752264
30
0
41
1
10
6.69215405403929
20
17.8992883406268
30
0
41
1
10
6.70865292727319
20
17.8997863555906
30
0
41
1
10
6.75803898061963
20
17.897878149065
30
0
41
1
10
6.7911396276603
20
17.891858570115
30
0
41
1
10
6.83764354475619
20
17.8759483003977
30
0
41
1
10
6.85273393040109
20
17.8695118821072
30
0
41
1
10
6.88209492208534
20
17.8543969629265
30
0
41
1
10
6.8964631011487
20
17.8456459855469
30
0
41
1
10
6.93755563667179
20
17.8165496950799
30
0
41
1
10
6.96203916416033
20
17.7936788001243
30
0
41
1
10
6.99495419236501
20
17.7550394060914
30
0
41
1
10
7.00532968118017
20
17.7413523605625
30
0
41
1
10
7.02446299945666
20
17.7131407843847
30
0
41
1
10
7.03325919818309
20
17.6985870843182
30
0
41
1
10
7.05751781839643
20
17.6537221173777
30
0
41
1
10
7.07087093195918
20
17.6222202616297
30
0
41
1
10
7.0815660642786
20
17.5892889077443
30
0
0
SPLINE
5
354
100
AcDbEntity
8
1
62
256
6
ByLayer
370
18
48
1
60
0
100
AcDbSpline
70
4
71
3
72
18
73
14
40
0
40
0
40
0
40
0
40
0.250000000000014
40
0.250000000000014
40
0.500000000000028
40
0.500000000000028
40
0.625000000000021
40
0.625000000000021
40
0.750000000000014
40
0.750000000000014
40
0.875000000000007
40
0.875000000000007
40
1
40
1
40
1
40
1
41
1
10
7.52464527011779
20
17.6223409985731
30
0
41
1
10
7.51985194550366
20
17.5972470899955
30
0
41
1
10
7.51159025958543
20
17.5731532279792
30
0
41
1
10
7.48771250820863
20
17.5277289963044
30
0
41
1
10
7.4724018528895
20
17.5070211837407
30
0
41
1
10
7.44441580179586
20
17.4799799038135
30
0
41
1
10
7.43441520609133
20
17.4718012648429
30
0
41
1
10
7.41303859531382
20
17.4571461267164
30
0
41
1
10
7.4015395007242
20
17.4506200385191
30
0
41
1
10
7.37776074281294
20
17.4397624208996
30
0
41
1
10
7.36548990086555
20
17.4354022747511
30
0
41
1
10
7.34017225723767
20
17.4288537110686
30
0
41
1
10
7.32703264106243
20
17.4266796734158
30
0
41
1
10
7.31403465361319
20
17.4257100710149
30
0
0
SPLINE
5
355
100
AcDbEntity
8
1
62
256
6
ByLayer
370
18
48
1
60
0
100
AcDbSpline
70
4
71
3
72
28
73
24
40
0
40
0
40
0
40
0
40
0.125000000000007
40
0.125000000000007
40
0.250000000000015
40
0.250000000000015
40
0.312500000000014
40
0.312500000000014
40
0.375000000000013
40
0.375000000000013
40
0.500000000000009
40
0.500000000000009
40
0.562500000000008
40
0.562500000000008
40
0.625000000000004
40
0.625000000000004
40
0.75
40
0.75
40
0.8125
40
0.8125
40
0.875
40
0.875
40
1
40
1
40
1
40
1
41
1
10
7.52464527011728
20
17.6223409985706
30
0
41
1
10
7.53118541515835
20
17.6565798233867
30
0
41
1
10
7.54072740987743
20
17.6902807932071
30
0
41
1
10
7.56574834736864
20
17.7545058328715
30
0
41
1
10
7.58120103958333
20
17.7851522436325
30
0
41
1
10
7.60952096526722
20
17.8284187167965
30
0
41
1
10
7.61987730328252
20
17.8424284295247
30
0
41
1
10
7.64197435469606
20
17.8687450134602
30
0
41
1
10
7.65375991191377
20
17.881134068524
30
0
41
1
10
7.69144825873877
20
17.9158248267396
30
0
41
1
10
7.72005979476745
20
17.9357316003332
30
0
41
1
10
7.76541054143706
20
17.9583754163126
30
0
41
1
10
7.78100940389714
20
17.9648147270711
30
0
41
1
10
7.81316591490014
20
17.975500313964
30
0
41
1
10
7.82984610153551
20
17.9797663748656
30
0
41
1
10
7.88042861742747
20
17.9890975402079
30
0
41
1
10
7.91448129056607
20
17.9907536163391
30
0
41
1
10
7.96608527245922
20
17.9875517171181
30
0
41
1
10
7.98346436966216
20
17.9855059660188
30
0
41
1
10
8.01775104467714
20
17.9797154362559
30
0
41
1
10
8.0347069736967
20
17.9759777845694
30
0
41
1
10
8.0850910061514
20
17.9624936998674
30
0
41
1
10
8.11804164240311
20
17.9505008513308
30
0
41
1
10
8.15046127064176
20
17.9357959343005
30
0
0
SPLINE
5
356
100
AcDbEntity
8
1
62
256
6
ByLayer
370
18
48
1
60
0
100
AcDbSpline
70
4
71
3
72
28
73
24
40
0
40
0
40
0
40
0
40
0.125000000000003
40
0.125000000000003
40
0.187500000000006
40
0.187500000000006
40
0.250000000000009
40
0.250000000000009
40
0.375000000000013
40
0.375000000000013
40
0.437500000000015
40
0.437500000000015
40
0.500000000000016
40
0.500000000000016
40
0.625000000000014
40
0.625000000000014
40
0.750000000000011
40
0.750000000000011
40
0.812500000000007
40
0.812500000000007
40
0.875000000000003
40
0.875000000000003
40
1
40
1
40
1
40
1
41
1
10
3.7642687247789
20
21.08617519896
30
0
41
1
10
3.7134512230852
20
21.0823843988964
30
0
41
1
10
3.66344010942481
20
21.0760350021831
30
0
41
1
10
3.58960036327557
20
21.0627766321175
30
0
41
1
10
3.56518465952536
20
21.0577303830351
30
0
41
1
10
3.51675999588287
20
21.0463473232143
30
0
41
1
10
3.49284227578363
20
21.0400235276412
30
0
41
1
10
3.42324129905381
20
21.0195277867953
30
0
41
1
10
3.3791904322963
20
21.0037330233857
30
0
41
1
10
3.31664915359755
20
20.9768350926303
30
0
41
1
10
3.29628738597233
20
20.9672722466117
30
0
41
1
10
3.25748214714093
20
20.9473832874548
30
0
41
1
10
3.23901500138783
20
20.9370584188782
30
0
41
1
10
3.18634212435853
20
20.9049743064526
30
0
41
1
10
3.15483932830352
20
20.8821159757324
30
0
41
1
10
3.09927090216337
20
20.8333751606188
30
0
41
1
10
3.07606691191586
20
20.8082386827895
30
0
41
1
10
3.0479035345308
20
20.7695664106091
30
0
41
1
10
3.03962318386829
20
20.7565062631304
30
0
41
1
10
3.02531045105269
20
20.7300421274601
30
0
41
1
10
3.01927554694214
20
20.7166024129896
30
0
41
1
10
3.00489356905848
20
20.6764857383197
30
0
41
1
10
3.00009061102833
20
20.6497906723844
30
0
41
1
10
3.00008824706146
20
20.6231451509511
30
0
0
SPLINE
5
357
100
AcDbEntity
8
1
62
256
6
ByLayer
370
18
48
1
60
0
100
AcDbSpline
70
4
71
3
72
22
73
18
40
0
40
0
40
0
40
0
40
0.0854750907000141
40
0.0854750907000141
40
0.216121506314298
40
0.216121506314298
40
0.346767921928582
40
0.346767921928582
40
0.477414337542865
40
0.477414337542865
40
0.608060753157149
40
0.608060753157149
40
0.738707168771433
40
0.738707168771433
40
0.869353584385716
40
0.869353584385716
40
1
40
1
40
1
40
1
41
1
10
3.40183572542117
20
23.844990597134
30
0
41
1
10
3.40375405573559
20
23.8603161666434
30
0
41
1
10
3.40698336291962
20
23.8755301149442
30
0
41
1
10
3.41835699096748
20
23.9137250054671
30
0
41
1
10
3.42833711107249
20
23.9367849359683
30
0
41
1
10
3.45389766634054
20
23.9812195995491
30
0
41
1
10
3.46932472541005
20
24.0024596783567
30
0
41
1
10
3.50536511110846
20
24.0430249459193
30
0
41
1
10
3.52621176731486
20
24.062488232289
30
0
41
1
10
3.57159542701476
20
24.0979584144156
30
0
41
1
10
3.59623313499395
20
24.1141425134528
30
0
41
1
10
3.64943652587635
20
24.1433798588315
30
0
41
1
10
3.67797042512279
20
24.1563457580874
30
0
41
1
10
3.73663284075292
20
24.1780206586049
30
0
41
1
10
3.76703938133414
20
24.1868958193962
30
0
41
1
10
3.83008691527618
20
24.2005686653412
30
0
41
1
10
3.86217931949557
20
24.2052314235339
30
0
41
1
10
3.89451153977961
20
24.2076432891043
30
0
0
SPLINE
5
358
100
AcDbEntity
8
1
62
256
6
ByLayer
370
13
48
1
60
0
100
AcDbSpline
70
4
71
3
72
8
73
4
40
0
40
0
40
0
40
0
40
1
40
1
40
1
40
1
41
1
10
3.89451153977961
20
24.2076432891043
30
0
41
1
10
3.85109726811271
20
23.1671539257229
30
0
41
1
10
3.80768299644581
20
22.1266645623414
30
0
41
1
10
3.7642687247789
20
21.08617519896
30
0
0
SPLINE
5
359
100
AcDbEntity
8
1
62
256
6
ByLayer
370
13
48
1
60
0
100
AcDbSpline
70
4
71
3
72
8
73
4
40
0
40
0
40
0
40
0
40
1
40
1
40
1
40
1
41
1
10
10.7034427832545
20
21.6038122449665
30
0
41
1
10
10.4074705630995
20
22.6189846153454
30
0
41
1
10
10.1114983429445
20
23.6341569857244
30
0
41
1
10
9.81552612278944
20
24.6493293561034
30
0
0
SPLINE
5
35A
100
AcDbEntity
8
1
62
256
6
ByLayer
370
18
48
1
60
0
100
AcDbSpline
70
4
71
3
72
29
73
25
40
0
40
0
40
0
40
0
40
0.124999999999995
40
0.124999999999995
40
0.1875
40
0.1875
40
0.250000000000005
40
0.250000000000005
40
0.375000000000001
40
0.375000000000001
40
0.437499999999998
40
0.437499999999998
40
0.499999999999995
40
0.499999999999995
40
0.625000000000005
40
0.625000000000005
40
0.687500000000004
40
0.687500000000004
40
0.750000000000004
40
0.812500000000003
40
0.812500000000003
40
0.875000000000002
40
0.875000000000002
40
1
40
1
40
1
40
1
41
1
10
11.467623260972
20
21.2547923433433
30
0
41
1
10
11.4676208967812
20
21.2814400350961
30
0
41
1
10
11.4628170878154
20
21.3073359757271
30
0
41
1
10
11.4485686595187
20
21.3450772250718
30
0
41
1
10
11.4426373394891
20
21.3574726029447
30
0
41
1
10
11.4283376018243
20
21.3818817879458
30
0
41
1
10
11.4199749293787
20
21.3938579921286
30
0
41
1
10
11.3917437651982
20
21.4284637822565
30
0
41
1
10
11.3686255500776
20
21.4500317946645
30
0
41
1
10
11.327431753438
20
21.4801054573547
30
0
41
1
10
11.3125274172971
20
21.4897923915746
30
0
41
1
10
11.2808125326987
20
21.5081450505568
30
0
41
1
10
11.2640967979032
20
21.5167676105907
30
0
41
1
10
11.2114404368279
20
21.5410163853151
30
0
41
1
10
11.1730144751758
20
21.5550390641176
30
0
41
1
10
11.110222846689
20
21.5727485744799
30
0
41
1
10
11.0884791191968
20
21.5780685168291
30
0
41
1
10
11.0442363719022
20
21.5873540745476
30
0
41
1
10
10.9990105755002
20
21.5953528479133
30
0
41
1
10
10.9518461090981
20
21.600813955355
30
0
41
1
10
10.9036983481999
20
21.6049879572368
30
0
41
1
10
10.8790116241334
20
21.6064330363725
30
0
41
1
10
10.8045160436904
20
21.6087320916324
30
0
41
1
10
10.7542705511224
20
21.6076038108491
30
0
41
1
10
10.7034427832545
20
21.6038122449664
30
0
0
SPLINE
5
35B
100
AcDbEntity
8
1
62
256
6
ByLayer
370
18
48
1
60
0
100
AcDbSpline
70
4
71
3
72
20
73
16
40
0
40
0
40
0
40
0
40
0.150966351437551
40
0.150966351437551
40
0.301932702875102
40
0.301932702875102
40
0.452899054312652
40
0.452899054312652
40
0.603865405750203
40
0.603865405750203
40
0.754831757187754
40
0.754831757187754
40
0.905798108625305
40
0.905798108625305
40
1
40
1
40
1
40
1
41
1
10
9.81552612278944
20
24.6493293561034
30
0
41
1
10
9.84786263424309
20
24.6517415417794
30
0
41
1
10
9.87974098763965
20
24.6518662129955
30
0
41
1
10
9.94262460170023
20
24.647756334396
30
0
41
1
10
9.97391980705601
20
24.6434524148394
30
0
41
1
10
10.0341265603487
20
24.6305464527071
30
0
41
1
10
10.0628136071435
20
24.6220448574453
30
0
41
1
10
10.1174092639308
20
24.6010228678622
30
0
41
1
10
10.1435269339763
20
24.5883406693378
30
0
41
1
10
10.1909519140582
20
24.559796002867
30
0
41
1
10
10.2124670249738
20
24.5439021820853
30
0
41
1
10
10.2510613403522
20
24.5088412013939
30
0
41
1
10
10.268075800525
20
24.4896266794141
30
0
41
1
10
10.2908553770873
20
24.4570388935192
30
0
41
1
10
10.2985350530669
20
24.4441138790164
30
0
41
1
10
10.305116776954
20
24.430775788234
30
0
0
SPLINE
5
35C
100
AcDbEntity
8
1
62
256
6
ByLayer
370
18
48
1
60
0
100
AcDbSpline
70
4
71
3
72
29
73
25
40
0
40
0
40
0
40
0
40
0.12499999999999
40
0.12499999999999
40
0.187499999999987
40
0.187499999999987
40
0.249999999999985
40
0.249999999999985
40
0.374999999999979
40
0.374999999999979
40
0.437499999999979
40
0.437499999999979
40
0.49999999999998
40
0.49999999999998
40
0.624999999999987
40
0.624999999999987
40
0.687499999999989
40
0.687499999999989
40
0.749999999999991
40
0.812499999999993
40
0.812499999999993
40
0.874999999999996
40
0.874999999999996
40
1
40
1
40
1
40
1
41
1
10
3.18052148354582
20
14.8277448153601
30
0
41
1
10
3.1827463559834
20
14.7830073141866
30
0
41
1
10
3.18973984742786
20
14.739288745095
30
0
41
1
10
3.20722465090921
20
14.675205451626
30
0
41
1
10
3.21422668282082
20
14.6540951572084
30
0
41
1
10
3.23065118268136
20
14.6123917537308
30
0
41
1
10
3.24006473350374
20
14.5918620651743
30
0
41
1
10
3.2713577608896
20
14.5323346478996
30
0
41
1
10
3.2964186408874
20
14.4949545738493
30
0
41
1
10
3.34037695601501
20
14.4423794816775
30
0
41
1
10
3.35618193816157
20
14.4253618594285
30
0
41
1
10
3.38962480258044
20
14.3929445391875
30
0
41
1
10
3.40716368124146
20
14.3776221094575
30
0
41
1
10
3.46217006342431
20
14.3342456513904
30
0
41
1
10
3.50200462548349
20
14.3087578574627
30
0
41
1
10
3.56666393882489
20
14.2758465753519
30
0
41
1
10
3.58898664434247
20
14.2658141185937
30
0
41
1
10
3.63427909204034
20
14.2479846644591
30
0
41
1
10
3.68045338344598
20
14.2322657425282
30
0
41
1
10
3.72836675780087
20
14.2207089986988
30
0
41
1
10
3.77716219598938
20
14.2112633139042
30
0
41
1
10
3.80212303342688
20
14.2075871255491
30
0
41
1
10
3.87727383949419
20
14.1999549487182
30
0
41
1
10
3.92773783498592
20
14.1993047540994
30
0
41
1
10
3.97856560285379
20
14.2030963199821
30
0
0
SPLINE
5
35D
100
AcDbEntity
8
1
62
256
6
ByLayer
370
18
48
1
60
0
100
AcDbSpline
70
4
71
3
72
28
73
24
40
0
40
0
40
0
40
0
40
0.124999999999996
40
0.124999999999996
40
0.187499999999997
40
0.187499999999997
40
0.249999999999997
40
0.249999999999997
40
0.374999999999999
40
0.374999999999999
40
0.437499999999999
40
0.437499999999999
40
0.499999999999998
40
0.499999999999998
40
0.624999999999997
40
0.624999999999997
40
0.749999999999996
40
0.749999999999996
40
0.812499999999996
40
0.812499999999996
40
0.874999999999996
40
0.874999999999996
40
1
40
1
40
1
40
1
41
1
10
10.9177396613295
20
14.7207333659886
30
0
41
1
10
10.9685571630231
20
14.7245241660522
30
0
41
1
10
11.0183498654394
20
14.7326512919537
30
0
41
1
10
11.0915432232392
20
14.7511708537696
30
0
41
1
10
11.1156899588962
20
14.7584063327699
30
0
41
1
10
11.163466519251
20
14.7750645428524
30
0
41
1
10
11.1870056220047
20
14.7844700438069
30
0
41
1
10
11.2553302212996
20
14.815354688532
30
0
41
1
10
11.2983378243115
20
14.8396409580413
30
0
41
1
10
11.3590248424141
20
14.8816313955848
30
0
41
1
10
11.378715723113
20
14.8966548362524
30
0
41
1
10
11.4161035946619
20
14.9280802673462
30
0
41
1
10
11.4338245111512
20
14.9444789694783
30
0
41
1
10
11.484149188495
20
14.9956759400246
30
0
41
1
10
11.5139415307047
20
15.0324562816671
30
0
41
1
10
11.5657905554199
20
15.1114706685581
30
0
41
1
10
11.5870424564305
20
15.1524959163487
30
0
41
1
10
11.6121556757688
20
15.2159945430992
30
0
41
1
10
11.6193982894632
20
15.2375012122092
30
0
41
1
10
11.6315928852011
20
15.281205642091
30
0
41
1
10
11.636544425219
20
15.3034632540872
30
0
41
1
10
11.6476700361231
20
15.3700846934297
30
0
41
1
10
11.6502764313089
20
15.4146583896432
30
0
41
1
10
11.6480564974564
20
15.4593920077522
30
0
0
SPLINE
5
35E
100
AcDbEntity
8
1
62
256
6
ByLayer
370
18
48
1
60
0
100
AcDbSpline
70
4
71
3
72
29
73
25
40
0
40
0
40
0
40
0
40
0.12500000000001
40
0.12500000000001
40
0.187500000000015
40
0.187500000000015
40
0.25000000000002
40
0.25000000000002
40
0.375000000000032
40
0.375000000000032
40
0.437500000000038
40
0.437500000000038
40
0.500000000000043
40
0.500000000000043
40
0.625000000000044
40
0.625000000000044
40
0.687500000000037
40
0.687500000000037
40
0.750000000000031
40
0.812500000000024
40
0.812500000000024
40
0.875000000000017
40
0.875000000000017
40
1
40
1
40
1
40
1
41
1
10
12.9999117529387
20
-18.5788802832006
30
0
41
1
10
12.9999093887479
20
-18.6032156012168
30
0
41
1
10
12.9951055797821
20
-18.6268223248831
30
0
41
1
10
12.9808571514853
20
-18.6611637149181
30
0
41
1
10
12.9749258314558
20
-18.6724315062403
30
0
41
1
10
12.960626093791
20
-18.6945972719598
30
0
41
1
10
12.9522634213454
20
-18.7054609567529
30
0
41
1
10
12.9240322571649
20
-18.7368164323199
30
0
41
1
10
12.9009140420443
20
-18.756310289337
30
0
41
1
10
12.8597202454047
20
-18.7834133175326
30
0
41
1
10
12.8448159092638
20
-18.7921290572753
30
0
41
1
10
12.8131010246654
20
-18.8086112380591
30
0
41
1
10
12.7963852898699
20
-18.8163390908693
30
0
41
1
10
12.7437289287945
20
-18.8380222359597
30
0
41
1
10
12.7053029671425
20
-18.8504913594551
30
0
41
1
10
12.6425113386557
20
-18.8661138665241
30
0
41
1
10
12.6207676111634
20
-18.8707816245217
30
0
41
1
10
12.5765248638688
20
-18.8788737163985
30
0
41
1
10
12.5312990674669
20
-18.8857820698761
30
0
41
1
10
12.4841346010649
20
-18.8903559742349
30
0
41
1
10
12.4359868401667
20
-18.8937458447097
30
0
41
1
10
12.4113001161001
20
-18.8948491903739
30
0
41
1
10
12.3368045356572
20
-18.8962959192864
30
0
41
1
10
12.2865590430891
20
-18.8948252295716
30
0
41
1
10
12.2357312752212
20
-18.8909172586352
30
0
0
SPLINE
5
35F
100
AcDbEntity
8
1
62
256
6
ByLayer
370
13
48
1
60
0
100
AcDbSpline
70
4
71
3
72
8
73
4
40
0
40
0
40
0
40
0
40
1
40
1
40
1
40
1
41
1
10
12.6001010207844
20
-23.8205990718313
30
0
41
1
10
12.7228262770199
20
-22.8391137834624
30
0
41
1
10
12.8455515332556
20
-21.8576284950935
30
0
41
1
10
12.968276789491
20
-20.8761432067245
30
0
0
SPLINE
5
360
100
AcDbEntity
8
1
62
256
6
ByLayer
370
18
48
1
60
0
100
AcDbSpline
70
4
71
3
72
12
73
8
40
0
40
0
40
0
40
0
40
0.285778095561758
40
0.285778095561758
40
0.642889047780879
40
0.642889047780879
40
1
40
1
40
1
40
1
41
1
10
12.5227269744657
20
-24.0109694144043
30
0
41
1
10
12.5364458545437
20
-23.9943096022338
30
0
41
1
10
12.5485595354867
20
-23.9769132927868
30
0
41
1
10
12.5714502477938
20
-23.9371973773156
30
0
41
1
10
12.58135813827
20
-23.9145142516369
30
0
41
1
10
12.5953498961548
20
-23.8678580745356
30
0
41
1
10
12.5993047214492
20
-23.8442069150243
30
0
41
1
10
12.6001010207843
20
-23.8205990718314
30
0
0
SPLINE
5
361
100
AcDbEntity
8
1
62
256
6
ByLayer
370
13
48
1
60
0
100
AcDbSpline
70
4
71
3
72
8
73
4
40
0
40
0
40
0
40
0
40
1
40
1
40
1
40
1
41
1
10
10.7034427832545
20
-39.9612004567698
30
0
41
1
10
10.4263295839967
20
-39.5628221482273
30
0
41
1
10
10.1492163847387
20
-39.1644438396848
30
0
41
1
10
9.87210318548091
20
-38.7660655311424
30
0
0
SPLINE
5
362
100
AcDbEntity
8
1
62
256
6
ByLayer
370
13
48
1
60
0
100
AcDbSpline
70
4
71
3
72
8
73
4
40
0
40
0
40
0
40
0
40
1
40
1
40
1
40
1
41
1
10
10.9754961148582
20
-38.7660589988724
30
0
41
1
10
11.1395384968961
20
-38.9049170666226
30
0
41
1
10
11.3035808789341
20
-39.0437751343728
30
0
41
1
10
11.467623260972
20
-39.182633202123
30
0
0
SPLINE
5
363
100
AcDbEntity
8
1
62
256
6
ByLayer
370
13
48
1
60
0
100
AcDbSpline
70
4
71
3
72
8
73
4
40
0
40
0
40
0
40
0
40
1
40
1
40
1
40
1
41
1
10
3.88760865152267
20
-38.7660671867725
30
0
41
1
10
3.84649534260797
20
-39.1697422770467
30
0
41
1
10
3.80538203369349
20
-39.5734173673209
30
0
41
1
10
3.7642687247789
20
-39.9770924575951
30
0
0
SPLINE
5
364
100
AcDbEntity
8
1
62
256
6
ByLayer
370
18
48
1
60
0
100
AcDbSpline
70
4
71
3
72
29
73
25
40
0
40
0
40
0
40
0
40
0.125000000000006
40
0.125000000000006
40
0.187500000000009
40
0.187500000000009
40
0.250000000000012
40
0.250000000000012
40
0.37500000000002
40
0.37500000000002
40
0.437500000000023
40
0.437500000000023
40
0.500000000000025
40
0.500000000000025
40
0.625000000000016
40
0.625000000000016
40
0.687500000000012
40
0.687500000000012
40
0.750000000000009
40
0.812500000000006
40
0.812500000000006
40
0.875000000000003
40
0.875000000000003
40
1
40
1
40
1
40
1
41
1
10
11.467623260972
20
-39.182633202123
30
0
41
1
10
11.4676208967812
20
-39.2336165754409
30
0
41
1
10
11.4628170878154
20
-39.2838579361874
30
0
41
1
10
11.4485686595187
20
-39.3581316001196
30
0
41
1
10
11.4426373394891
20
-39.3827068466008
30
0
41
1
10
11.4283376018243
20
-39.431480711873
30
0
41
1
10
11.4199749293787
20
-39.4556065546586
30
0
41
1
10
11.3917437651982
20
-39.5259090131207
30
0
41
1
10
11.3686255500776
20
-39.5705258414426
30
0
41
1
10
11.327431753438
20
-39.6340370288755
30
0
41
1
10
11.3125274172971
20
-39.6547315883529
30
0
41
1
10
11.2808125326987
20
-39.6944433232675
30
0
41
1
10
11.2640967979032
20
-39.7133641659573
30
0
41
1
10
11.2114404368279
20
-39.767393216035
30
0
41
1
10
11.1730144751758
20
-39.7997938963986
30
0
41
1
10
11.110222846689
20
-39.8427815752713
30
0
41
1
10
11.0884791191967
20
-39.8561128753334
30
0
41
1
10
11.0442363719021
20
-39.8802938679763
30
0
41
1
10
10.999010576078
20
-39.9021555057089
30
0
41
1
10
10.9518461090981
20
-39.9194431409086
30
0
41
1
10
10.9036983481999
20
-39.9344108422404
30
0
41
1
10
10.8790116241333
20
-39.940755420372
30
0
41
1
10
10.8045160436904
20
-39.9559566186014
30
0
41
1
10
10.7542705511224
20
-39.9610840517161
30
0
41
1
10
10.7034427832545
20
-39.9612004567698
30
0
0
SPLINE
5
365
100
AcDbEntity
8
1
62
256
6
ByLayer
370
18
48
1
60
0
100
AcDbSpline
70
4
71
3
72
14
73
10
40
0
40
0
40
0
40
0
40
0.317122630227107
40
0.317122630227107
40
0.634245260454214
40
0.634245260454214
40
0.95136789068132
40
0.95136789068132
40
1
40
1
40
1
40
1
41
1
10
3.39989897921578
20
-38.2371378355291
30
0
41
1
10
3.40069523602375
20
-38.2682243582152
30
0
41
1
10
3.40460617308429
20
-38.2986468685608
30
0
41
1
10
3.41835699096743
20
-38.3582279097968
30
0
41
1
10
3.42833711107244
20
-38.3876671929737
30
0
41
1
10
3.45389766634054
20
-38.4437564842923
30
0
41
1
10
3.46932472541005
20
-38.4702441708412
30
0
41
1
10
3.49010839177095
20
-38.4990345293633
30
0
41
1
10
3.49293833672505
20
-38.5028304635742
30
0
41
1
10
3.49583121408654
20
-38.5065902880896
30
0
0
SPLINE
5
366
100
AcDbEntity
8
1
62
256
6
ByLayer
370
13
48
1
60
0
100
AcDbSpline
70
4
71
3
72
8
73
4
40
0
40
0
40
0
40
0
40
1
40
1
40
1
40
1
41
1
10
3.0000882470614
20
-39.2020254341517
30
0
41
1
10
3.13335849111286
20
-38.8803962346108
30
0
41
1
10
3.26662873516432
20
-38.55876703507
30
0
41
1
10
3.39989897921578
20
-38.2371378355291
30
0
0
SPLINE
5
367
100
AcDbEntity
8
1
62
256
6
ByLayer
370
18
48
1
60
0
100
AcDbSpline
70
4
71
3
72
28
73
24
40
0
40
0
40
0
40
0
40
0.124999999999992
40
0.124999999999992
40
0.187499999999986
40
0.187499999999986
40
0.249999999999981
40
0.249999999999981
40
0.374999999999976
40
0.374999999999976
40
0.437499999999973
40
0.437499999999973
40
0.49999999999997
40
0.49999999999997
40
0.624999999999977
40
0.624999999999977
40
0.749999999999985
40
0.749999999999985
40
0.812499999999989
40
0.812499999999989
40
0.874999999999992
40
0.874999999999992
40
1
40
1
40
1
40
1
41
1
10
3.7642687247789
20
-39.9770924575951
30
0
41
1
10
3.7134512230852
20
-39.9772088391373
30
0
41
1
10
3.66344010942481
20
-39.9723131154078
30
0
41
1
10
3.58960036327557
20
-39.9576543559252
30
0
41
1
10
3.56518465952536
20
-39.9515402619218
30
0
41
1
10
3.51675999588287
20
-39.9367839572325
30
0
41
1
10
3.49284227578363
20
-39.9281534168219
30
0
41
1
10
3.42324129905381
20
-39.8990332754635
30
0
41
1
10
3.3791904322963
20
-39.8752021457524
30
0
41
1
10
3.31664915359755
20
-39.832809449198
30
0
41
1
10
3.29628738597233
20
-39.8174662285384
30
0
41
1
10
3.25748214714093
20
-39.7850413137184
30
0
41
1
10
3.23901500138783
20
-39.7679654337252
30
0
41
1
10
3.18634212435853
20
-39.7142193898442
30
0
41
1
10
3.15483932830352
20
-39.6750544734007
30
0
41
1
10
3.09927090216337
20
-39.5898602922063
30
0
41
1
10
3.07606691191586
20
-39.5451333596673
30
0
41
1
10
3.0479035345308
20
-39.4752285664291
30
0
41
1
10
3.03962318386829
20
-39.4514422974358
30
0
41
1
10
3.02531045105269
20
-39.4028859373632
30
0
41
1
10
3.01927554694214
20
-39.3780478595817
30
0
41
1
10
3.00489356905848
20
-39.303381161572
30
0
41
1
10
3.00009061102833
20
-39.2530039695308
30
0
41
1
10
3.00008824706146
20
-39.2020254341517
30
0
0
SPLINE
5
368
100
AcDbEntity
8
1
62
256
6
ByLayer
370
13
48
1
60
0
100
AcDbSpline
70
4
71
3
72
8
73
4
40
0
40
0
40
0
40
0
40
1
40
1
40
1
40
1
41
1
10
3.49999909995597
20
-30.3848022797978
30
0
41
1
10
3.39350656115261
20
-30.7673419909066
30
0
41
1
10
3.28701402234924
20
-31.1498817020154
30
0
41
1
10
3.18052148354587
20
-31.5324214131242
30
0
0
SPLINE
5
369
100
AcDbEntity
8
1
62
256
6
ByLayer
370
13
48
1
60
0
100
AcDbSpline
70
4
71
3
72
8
73
4
40
0
40
0
40
0
40
0
40
1
40
1
40
1
40
1
41
1
10
6.18047822265146
20
-14.0548500003603
30
0
41
1
10
5.88583788734951
20
-15.4890294041746
30
0
41
1
10
5.59119755204756
20
-16.9232088079889
30
0
41
1
10
5.29655721674561
20
-18.3573882118033
30
0
0
SPLINE
5
36A
100
AcDbEntity
8
1
62
256
6
ByLayer
370
13
48
1
60
0
100
AcDbSpline
70
4
71
3
72
8
73
4
40
0
40
0
40
0
40
0
40
1
40
1
40
1
40
1
41
1
10
4.53237673902811
20
-17.9278408587799
30
0
41
1
10
4.89883969448596
20
-16.6228867113056
30
0
41
1
10
5.26530264994392
20
-15.3179325638312
30
0
41
1
10
5.63176560540182
20
-14.0129784163568
30
0
0
SPLINE
5
36B
100
AcDbEntity
8
1
62
256
6
ByLayer
370
13
48
1
60
0
100
AcDbSpline
70
4
71
3
72
8
73
4
40
0
40
0
40
0
40
0
40
1
40
1
40
1
40
1
41
1
10
12.2357312752213
20
-18.8909172586352
30
0
41
1
10
12.1924798061643
20
-17.4296608814591
30
0
41
1
10
12.1492283371073
20
-15.9684045042829
30
0
41
1
10
12.1059768680504
20
-14.5071481271069
30
0
0
SPLINE
5
36C
100
AcDbEntity
8
1
62
256
6
ByLayer
370
13
48
1
60
0
100
AcDbSpline
70
4
71
3
72
8
73
4
40
0
40
0
40
0
40
0
40
1
40
1
40
1
40
1
41
1
10
12.6001010207844
20
-14.416538763698
30
0
41
1
10
12.7333712648358
20
-15.8039859368654
30
0
41
1
10
12.8666415088873
20
-17.1914331100329
30
0
41
1
10
12.9999117529387
20
-18.5788802832004
30
0
0
SPLINE
5
36D
100
AcDbEntity
8
1
62
256
6
ByLayer
370
18
48
1
60
0
100
AcDbSpline
70
4
71
3
72
20
73
16
40
0
40
0
40
0
40
0
40
0.250000000000008
40
0.250000000000008
40
0.375000000000007
40
0.375000000000007
40
0.500000000000006
40
0.500000000000006
40
0.625000000000004
40
0.625000000000004
40
0.750000000000003
40
0.750000000000003
40
0.875000000000002
40
0.875000000000002
40
1
40
1
40
1
40
1
41
1
10
9.56082269497068
20
34.4813785181737
30
0
41
1
10
9.58235964713009
20
34.4792898231799
30
0
41
1
10
9.60474387334614
20
34.4802380528142
30
0
41
1
10
9.63959600559599
20
34.486700249125
30
0
41
1
10
9.65139612816608
20
34.4897208323475
30
0
41
1
10
9.67457832467653
20
34.4973648656935
30
0
41
1
10
9.68606389706491
20
34.5020033370802
30
0
41
1
10
9.708794514761
20
34.5130265822961
30
0
41
1
10
9.72015042714787
20
34.5194950897664
30
0
41
1
10
9.74173670324126
20
34.5338493540594
30
0
41
1
10
9.75203179727657
20
34.5417452961417
30
0
41
1
10
9.77158787004782
20
34.5590248707159
30
0
41
1
10
9.78094434152166
20
34.5685298014599
30
0
41
1
10
9.79790710638173
20
34.5884793110059
30
0
41
1
10
9.80553848118046
20
34.5989093685633
30
0
41
1
10
9.81232041545837
20
34.6097951023277
30
0
0
SPLINE
5
36E
100
AcDbEntity
8
1
62
256
6
ByLayer
370
18
48
1
60
0
100
AcDbSpline
70
4
71
3
72
14
73
10
40
0
40
0
40
0
40
0
40
0.0467519322206848
40
0.0467519322206848
40
0.364501288147123
40
0.364501288147123
40
0.682250644073562
40
0.682250644073562
40
1
40
1
40
1
40
1
41
1
10
12.5040114729967
20
-14.4746172723953
30
0
41
1
10
12.5067772778151
20
-14.4739564278183
30
0
41
1
10
12.5094931566698
20
-14.4732815583877
30
0
41
1
10
12.5302777177629
20
-14.4679104468887
30
0
41
1
10
12.546019657252
20
-14.4625607197955
30
0
41
1
10
12.5714502477938
20
-14.4509929151829
30
0
41
1
10
12.58135813827
20
-14.4447269580098
30
0
41
1
10
12.5953498961548
20
-14.4311950102278
30
0
41
1
10
12.5993047214492
20
-14.4240191034855
30
0
41
1
10
12.6001010207843
20
-14.4165387636978
30
0
0
SPLINE
5
36F
100
AcDbEntity
8
1
62
256
6
ByLayer
370
18
48
1
60
0
100
AcDbSpline
70
4
71
3
72
28
73
24
40
0
40
0
40
0
40
0
40
0.125000000000003
40
0.125000000000003
40
0.187500000000004
40
0.187500000000004
40
0.250000000000004
40
0.250000000000004
40
0.375000000000002
40
0.375000000000002
40
0.437500000000002
40
0.437500000000002
40
0.500000000000001
40
0.500000000000001
40
0.624999999999999
40
0.624999999999999
40
0.749999999999997
40
0.749999999999997
40
0.812500000000002
40
0.812500000000002
40
0.875000000000008
40
0.875000000000008
40
1
40
1
40
1
40
1
41
1
10
5.29655721674561
20
-18.3573882118035
30
0
41
1
10
5.24573971505191
20
-18.3534810301977
30
0
41
1
10
5.19572860139141
20
-18.3472443407327
30
0
41
1
10
5.12188885524216
20
-18.3344893869109
30
0
41
1
10
5.09747315149207
20
-18.3296670642842
30
0
41
1
10
5.04904848784957
20
-18.3188474102556
30
0
41
1
10
5.02513076775034
20
-18.3128627641869
30
0
41
1
10
4.95552979102052
20
-18.2935356078534
30
0
41
1
10
4.91147892426301
20
-18.2787254045635
30
0
41
1
10
4.84893764556426
20
-18.2536134743784
30
0
41
1
10
4.8285758779391
20
-18.2447020082326
30
0
41
1
10
4.78977063910764
20
-18.2261988518877
30
0
41
1
10
4.77130349335454
20
-18.2166080907868
30
0
41
1
10
4.71863061632524
20
-18.1868464893596
30
0
41
1
10
4.68712782027023
20
-18.1656956219941
30
0
41
1
10
4.63155939413014
20
-18.1206973284673
30
0
41
1
10
4.60835540388257
20
-18.0975387249562
30
0
41
1
10
4.58019202649751
20
-18.0619754349149
30
0
41
1
10
4.571911675835
20
-18.0499760184638
30
0
41
1
10
4.5575989430194
20
-18.0256828812057
30
0
41
1
10
4.55156403890885
20
-18.0133565121664
30
0
41
1
10
4.53718206102519
20
-17.9765949279442
30
0
41
1
10
4.53237910299509
20
-17.9521742362402
30
0
41
1
10
4.53237673902817
20
-17.9278408587799
30
0
0
SPLINE
5
370
100
AcDbEntity
8
1
62
256
6
ByLayer
370
13
48
1
60
0
100
AcDbSpline
70
4
71
3
72
8
73
4
40
0
40
0
40
0
40
0
40
1
40
1
40
1
40
1
41
1
10
4.43776006199977
20
-15.7351471720494
30
0
41
1
10
4.40915454218111
20
-15.841310505814
30
0
41
1
10
4.3805490223624
20
-15.9474738395785
30
0
41
1
10
4.35194350254375
20
-16.0536371733431
30
0
0
SPLINE
5
371
100
AcDbEntity
8
1
62
256
6
ByLayer
370
18
48
1
60
0
100
AcDbSpline
70
4
71
3
72
28
73
24
40
0
40
0
40
0
40
0
40
0.125000000000014
40
0.125000000000014
40
0.187500000000021
40
0.187500000000021
40
0.250000000000027
40
0.250000000000027
40
0.375000000000037
40
0.375000000000037
40
0.437500000000037
40
0.437500000000037
40
0.500000000000036
40
0.500000000000036
40
0.625000000000035
40
0.625000000000035
40
0.750000000000034
40
0.750000000000034
40
0.812500000000026
40
0.812500000000026
40
0.875000000000017
40
0.875000000000017
40
1
40
1
40
1
40
1
41
1
10
5.29655721674561
20
39.9612004567699
30
0
41
1
10
5.24573971505191
20
39.9610840752276
30
0
41
1
10
5.19572860139141
20
39.955959281971
30
0
41
1
10
5.12188885524216
20
39.9409623089499
30
0
41
1
10
5.09747315149207
20
39.9347363819298
30
0
41
1
10
5.04904848784957
20
39.9197582742455
30
0
41
1
10
5.02513076775034
20
39.9110181817688
30
0
41
1
10
4.95552979102052
20
39.8815792420144
30
0
41
1
10
4.91147892426301
20
39.8575463429271
30
0
41
1
10
4.84893764556426
20
39.8148671840229
30
0
41
1
10
4.8285758779391
20
39.799430698884
30
0
41
1
10
4.78977063910764
20
39.7668280416173
30
0
41
1
10
4.77130349335454
20
39.7496675752186
30
0
41
1
10
4.71863061632524
20
39.6956802699431
30
0
41
1
10
4.68712782027023
20
39.6563710589605
30
0
41
1
10
4.63155939413014
20
39.5709223536782
30
0
41
1
10
4.60835540388257
20
39.5260891382216
30
0
41
1
10
4.58019202649751
20
39.4560553462258
30
0
41
1
10
4.571911675835
20
39.4322311501425
30
0
41
1
10
4.5575989430194
20
39.3836092324229
30
0
41
1
10
4.55156403890885
20
39.3587435125328
30
0
41
1
10
4.53718206102519
20
39.2840109397078
30
0
41
1
10
4.53237910299509
20
39.2336117483301
30
0
41
1
10
4.53237673902817
20
39.182633202123
30
0
0
SPLINE
5
372
100
AcDbEntity
8
1
62
256
6
ByLayer
370
18
48
1
60
0
100
AcDbSpline
70
4
71
3
72
28
73
24
40
0
40
0
40
0
40
0
40
0.125000000000009
40
0.125000000000009
40
0.187500000000011
40
0.187500000000011
40
0.250000000000012
40
0.250000000000012
40
0.375000000000012
40
0.375000000000012
40
0.437500000000015
40
0.437500000000015
40
0.500000000000017
40
0.500000000000017
40
0.625000000000011
40
0.625000000000011
40
0.750000000000004
40
0.750000000000004
40
0.812500000000006
40
0.812500000000006
40
0.875000000000008
40
0.875000000000008
40
1
40
1
40
1
40
1
41
1
10
11.5
20
1.34484712069758
30
0
41
1
10
11.5667912480819
20
1.34484712069758
30
0
41
1
10
11.6324389576208
20
1.34569210587176
30
0
41
1
10
11.7292662176399
20
1.34821288376526
30
0
41
1
10
11.7612658157491
20
1.34926434523032
30
0
41
1
10
11.8246994762579
20
1.35181567488149
30
0
41
1
10
11.856154263848
20
1.35332021067916
30
0
41
1
10
11.9475464855246
20
1.35843927471808
30
0
41
1
10
12.005273111458
20
1.362676868927
30
0
41
1
10
12.0870982659793
20
1.37042405579075
30
0
41
1
10
12.1137110024601
20
1.37325756476252
30
0
41
1
10
12.1645218940426
20
1.37935031041178
30
0
41
1
10
12.1886826365751
20
1.38260046706085
30
0
41
1
10
12.2575458277151
20
1.39299148201877
30
0
41
1
10
12.2986627631357
20
1.40076655773657
30
0
41
1
10
12.3710906401664
20
1.41830837303183
30
0
41
1
10
12.4014067160725
20
1.4278491780297
30
0
41
1
10
12.438061945435
20
1.44328851608736
30
0
41
1
10
12.4488270426032
20
1.44863024263452
30
0
41
1
10
12.4674154435461
20
1.45972956786801
30
0
41
1
10
12.4752537967684
20
1.465513551583
30
0
41
1
10
12.4938746607691
20
1.48317867130726
30
0
41
1
10
12.5000000000001
20
1.49545169654027
30
0
41
1
10
12.5
20
1.50823560458946
30
0
0
SPLINE
5
373
100
AcDbEntity
8
1
62
256
6
ByLayer
370
18
48
1
60
0
100
AcDbSpline
70
4
71
3
72
26
73
22
40
0
40
0
40
0
40
0
40
0.124999999999999
40
0.124999999999999
40
0.249999999999999
40
0.249999999999999
40
0.312499999999998
40
0.312499999999998
40
0.374999999999998
40
0.374999999999998
40
0.499999999999997
40
0.499999999999997
40
0.624999999999996
40
0.624999999999996
40
0.687499999999997
40
0.687499999999997
40
0.749999999999997
40
0.749999999999997
40
0.874999999999999
40
0.874999999999999
40
1
40
1
40
1
40
1
41
1
10
3.5
20
1.50823560458935
30
0
41
1
10
3.5
20
1.49545476567374
30
0
41
1
10
3.50632169093598
20
1.48293193034294
30
0
41
1
10
3.53110778129201
20
1.4595398229045
30
0
41
1
10
3.54949113882327
20
1.44854086689645
30
0
41
1
10
3.58632640808924
20
1.43301124151174
30
0
41
1
10
3.60024008585532
20
1.4279762497074
30
0
41
1
10
3.63066571820554
20
1.41841991452117
30
0
41
1
10
3.64721353830191
20
1.41387611071582
30
0
41
1
10
3.70079984205967
20
1.40089480699032
30
0
41
1
10
3.7417422772096
20
1.39310300571606
30
0
41
1
10
3.83463223583584
20
1.37907831418886
30
0
41
1
10
3.88515234009736
20
1.37306360488981
30
0
41
1
10
3.96648200585594
20
1.36534510173044
30
0
41
1
10
3.99454270617042
20
1.36298866746529
30
0
41
1
10
4.05261304256385
20
1.35869008547826
30
0
41
1
10
4.08276254341024
20
1.35674230907353
30
0
41
1
10
4.17424100021765
20
1.35161630524254
30
0
41
1
10
4.23707639465272
20
1.34910070188039
30
0
41
1
10
4.36641405755637
20
1.34571060087319
30
0
41
1
10
4.43323602923232
20
1.34484712069752
30
0
41
1
10
4.5
20
1.34484712069752
30
0
0
SPLINE
5
374
100
AcDbEntity
8
1
62
256
6
ByLayer
370
18
48
1
60
0
100
AcDbSpline
70
4
71
3
72
14
73
10
40
0
40
0
40
0
40
0
40
0.25
40
0.25
40
0.5
40
0.5
40
0.75
40
0.75
40
1
40
1
40
1
40
1
41
1
10
6.5
20
4.38542649909135
30
0
41
1
10
6.5
20
4.39500819750884
30
0
41
1
10
6.50193240276644
20
4.40444181340729
30
0
41
1
10
6.50992101868889
20
4.42298633342887
30
0
41
1
10
6.51588007606
20
4.43185367178751
30
0
41
1
10
6.53249288189608
20
4.44811841091524
30
0
41
1
10
6.54314406706357
20
4.45542909292527
30
0
41
1
10
6.56906007819578
20
4.46614419273794
30
0
41
1
10
6.58427243281426
20
4.46938505348589
30
0
41
1
10
6.60000000000002
20
4.46938505348589
30
0
0
SPLINE
5
375
100
AcDbEntity
8
1
62
256
6
ByLayer
370
18
48
1
60
0
100
AcDbSpline
70
4
71
3
72
66
73
62
40
0
40
0
40
0
40
0
40
0.0624999999999988
40
0.0624999999999988
40
0.124999999999998
40
0.124999999999998
40
0.187499999999997
40
0.187499999999997
40
0.249999999999995
40
0.249999999999995
40
0.312499999999994
40
0.312499999999994
40
0.343749999999994
40
0.343749999999994
40
0.374999999999993
40
0.374999999999993
40
0.406249999999993
40
0.406249999999993
40
0.437499999999992
40
0.437499999999992
40
0.453124999999992
40
0.453124999999992
40
0.468749999999992
40
0.468749999999992
40
0.484374999999991
40
0.484374999999991
40
0.492187499999992
40
0.492187499999992
40
0.499999999999992
40
0.499999999999992
40
0.507812499999992
40
0.507812499999992
40
0.515624999999992
40
0.515624999999992
40
0.523437499999993
40
0.523437499999993
40
0.531249999999993
40
0.531249999999993
40
0.546874999999994
40
0.546874999999994
40
0.562499999999995
40
0.562499999999995
40
0.578124999999996
40
0.578124999999996
40
0.593749999999997
40
0.593749999999997
40
0.624999999999998
40
0.624999999999998
40
0.687499999999996
40
0.687499999999996
40
0.718749999999997
40
0.718749999999997
40
0.749999999999997
40
0.749999999999997
40
0.812499999999998
40
0.812499999999998
40
0.874999999999999
40
0.874999999999999
40
0.937499999999999
40
0.937499999999999
40
1
40
1
40
1
40
1
41
1
10
6.5
20
2.6877036772517
30
0
41
1
10
6.5
20
2.60794011117935
30
0
41
1
10
6.50849323320944
20
2.53194410348272
30
0
41
1
10
6.53935680493612
20
2.38700160807093
30
0
41
1
10
6.5617484801607
20
2.31805796142959
30
0
41
1
10
6.61885609806569
20
2.18691263427257
30
0
41
1
10
6.65357322690238
20
2.12471216200271
30
0
41
1
10
6.73492933708332
20
2.00685641758383
30
0
41
1
10
6.78154631755882
20
1.95120134870416
30
0
41
1
10
6.88772768491992
20
1.84633065089804
30
0
41
1
10
6.9468303772552
20
1.79752066402978
30
0
41
1
10
7.04658545951867
20
1.72969664397999
30
0
41
1
10
7.0817142133767
20
1.70798308133641
30
0
41
1
10
7.15660163005947
20
1.66635215998735
30
0
41
1
10
7.19622664441886
20
1.64650682084118
30
0
41
1
10
7.28091909192318
20
1.60893231669149
30
0
41
1
10
7.32598232559565
20
1.59117888481217
30
0
41
1
10
7.42422066186083
20
1.55791053481818
30
0
41
1
10
7.47723323501111
20
1.54237958514915
30
0
41
1
10
7.56762395517308
20
1.52115333029297
30
0
41
1
10
7.59971025322545
20
1.51441784622386
30
0
41
1
10
7.66774416213445
20
1.50212801115805
30
0
41
1
10
7.7039501483485
20
1.49651223985467
30
0
41
1
10
7.7821069524835
20
1.48684914934046
30
0
41
1
10
7.8232692811959
20
1.48289105481285
30
0
41
1
10
7.88962078634808
20
1.47873520427851
30
0
41
1
10
7.9125076770531
20
1.47766049934114
30
0
41
1
10
7.95835852397124
20
1.47626784226594
30
0
41
1
10
7.98151525021223
20
1.47593596503327
30
0
41
1
10
8.02832143599977
20
1.47604409666047
30
0
41
1
10
8.05180638988458
20
1.47649196258385
30
0
41
1
10
8.09746737731592
20
1.47809597451163
30
0
41
1
10
8.11986620798081
20
1.47925147746429
30
0
41
1
10
8.16389317804953
20
1.48220711618762
30
0
41
1
10
8.18528846274671
20
1.48399464399483
30
0
41
1
10
8.22634231844728
20
1.48802513279691
30
0
41
1
10
8.24613392542204
20
1.49027733827955
30
0
41
1
10
8.30371781186983
20
1.49764005945616
30
0
41
1
10
8.33988952841833
20
1.50338933564819
30
0
41
1
10
8.40710622505594
20
1.51579514900556
30
0
41
1
10
8.4384447014462
20
1.52248784872916
30
0
41
1
10
8.49799867961855
20
1.536673131501
30
0
41
1
10
8.52619831566881
20
1.5441680772127
30
0
41
1
10
8.58024342946277
20
1.55987060039524
30
0
41
1
10
8.60601796005284
20
1.56806354885799
30
0
41
1
10
8.67979410392633
20
1.59334397395253
30
0
41
1
10
8.72464290155074
20
1.61122430749202
30
0
41
1
10
8.85069413624694
20
1.66770981777512
30
0
41
1
10
8.92355666254025
20
1.70914853752964
30
0
41
1
10
9.02256978310845
20
1.77684778268571
30
0
41
1
10
9.05377431592126
20
1.80034380230865
30
0
41
1
10
9.11300670472218
20
1.84922245282456
30
0
41
1
10
9.14100132253731
20
1.87459007532755
30
0
41
1
10
9.21999314728083
20
1.95296511051123
30
0
41
1
10
9.26628332839664
20
2.00842874042706
30
0
41
1
10
9.347119365656
20
2.12590426559586
30
0
41
1
10
9.38164463945549
20
2.18791589894721
30
0
41
1
10
9.43846880710134
20
2.31870547467179
30
0
41
1
10
9.46076951337062
20
2.38748208408833
30
0
41
1
10
9.49152408925625
20
2.53213872528261
30
0
41
1
10
9.50000000000011
20
2.60801563702376
30
0
41
1
10
9.50000000000011
20
2.6877036772517
30
0
0
SPLINE
5
376
100
AcDbEntity
8
1
62
256
6
ByLayer
370
18
48
1
60
0
100
AcDbSpline
70
4
71
3
72
22
73
18
40
0
40
0
40
0
40
0
40
0.0842528521662473
40
0.0842528521662473
40
0.168505704332495
40
0.168505704332495
40
0.252758556498742
40
0.252758556498742
40
0.337011408664989
40
0.337011408664989
40
0.505517112997504
40
0.505517112997504
40
0.67402281733002
40
0.67402281733002
40
0.842528521662535
40
0.842528521662535
40
1
40
1
40
1
40
1
41
1
10
3.5
20
-7.97922570599246
30
0
41
1
10
3.5
20
-7.98424226182118
30
0
41
1
10
3.50061646682872
20
-7.9908905522127
30
0
41
1
10
3.50296298047391
20
-8.00674562284041
30
0
41
1
10
3.50468886604011
20
-8.01599356023098
30
0
41
1
10
3.50913572020068
20
-8.0368669980906
30
0
41
1
10
3.51186950755988
20
-8.04853198218586
30
0
41
1
10
3.51804974003039
20
-8.07328875855404
30
0
41
1
10
3.521510624911
20
-8.08645386414747
30
0
41
1
10
3.53282059846725
20
-8.12791681746666
30
0
41
1
10
3.54166799343966
20
-8.15842432118143
30
0
41
1
10
3.5607424139323
20
-8.22183253299994
30
0
41
1
10
3.57095717656353
20
-8.25471496469532
30
0
41
1
10
3.59236340413514
20
-8.32217840304781
30
0
41
1
10
3.60355909189906
20
-8.35676675358252
30
0
41
1
10
3.62596195539146
20
-8.42497346281169
30
0
41
1
10
3.63711797155213
20
-8.45849498291494
30
0
41
1
10
3.64842722004107
20
-8.49212968265931
30
0
0
SPLINE
5
377
100
AcDbEntity
8
1
62
256
6
ByLayer
370
18
48
1
60
0
100
AcDbSpline
70
4
71
3
72
18
73
14
40
0
40
0
40
0
40
0
40
0.325777922974114
40
0.325777922974114
40
0.494333442230578
40
0.494333442230578
40
0.662888961487042
40
0.662888961487042
40
0.831444480743506
40
0.831444480743506
40
0.915722240371753
40
0.915722240371753
40
1
40
1
40
1
40
1
41
1
10
12.3516005715034
20
-8.49204715238454
30
0
41
1
10
12.3749690529342
20
-8.42254839803832
30
0
41
1
10
12.3976451676044
20
-8.35367635962007
30
0
41
1
10
12.4292108188102
20
-8.25418073248056
30
0
41
1
10
12.4395498669974
20
-8.22088016604692
30
0
41
1
10
12.4585514288767
20
-8.15767513195948
30
0
41
1
10
12.4672326281443
20
-8.12772952674254
30
0
41
1
10
12.4822987566893
20
-8.07248058325223
30
0
41
1
10
12.4887029471347
20
-8.04703007478781
30
0
41
1
10
12.4953192014931
20
-8.01594669838693
30
0
41
1
10
12.4970485260129
20
-8.00668950421237
30
0
41
1
10
12.4994033835505
20
-7.99073450750285
30
0
41
1
10
12.5
20
-7.98420098795697
30
0
41
1
10
12.5
20
-7.97922570599246
30
0
0
SPLINE
5
378
100
AcDbEntity
8
1
62
256
6
ByLayer
370
18
48
1
60
0
100
AcDbSpline
70
4
71
3
72
8
73
4
40
0
40
0
40
0
40
0
40
1
40
1
40
1
40
1
41
1
10
4.00456641340691
20
-8.39719338478767
30
0
41
1
10
3.96610031748526
20
-8.42676407155534
30
0
41
1
10
3.93131498389346
20
-8.45798676575123
30
0
41
1
10
3.89938724630076
20
-8.4904920121453
30
0
0
SPLINE
5
379
100
AcDbEntity
8
1
62
256
6
ByLayer
370
18
48
1
60
0
100
AcDbSpline
70
4
71
3
72
14
73
10
40
0
40
0
40
0
40
0
40
0.25
40
0.25
40
0.5
40
0.5
40
0.75
40
0.75
40
1
40
1
40
1
40
1
41
1
10
9.39999999999998
20
4.46938505348589
30
0
41
1
10
9.41573060656208
20
4.46938505348589
30
0
41
1
10
9.43092093939595
20
4.4661469784715
30
0
41
1
10
9.45680770084954
20
4.45545408421981
30
0
41
1
10
9.46742296695152
20
4.44819123405568
30
0
41
1
10
9.48412818950328
20
4.43185510093713
30
0
41
1
10
9.49003774256005
20
4.42305786902085
30
0
41
1
10
9.4980522151908
20
4.40450154500741
30
0
41
1
10
9.50000000000392
20
4.3950086461029
30
0
41
1
10
9.50000000000404
20
4.38542649909192
30
0
0
SPLINE
5
37A
100
AcDbEntity
8
1
62
256
6
ByLayer
370
18
48
1
60
0
100
AcDbSpline
70
4
71
3
72
16
73
12
40
0
40
0
40
0
40
0
40
0.249999999999999
40
0.249999999999999
40
0.499999999999999
40
0.499999999999999
40
0.749999999999998
40
0.749999999999998
40
0.874999999999999
40
0.874999999999999
40
1
40
1
40
1
40
1
41
1
10
4.5
20
-8.34807461844963
30
0
41
1
10
4.45538643027618
20
-8.34807461844963
30
0
41
1
10
4.41127737018849
20
-8.34757718240468
30
0
41
1
10
4.32406377235918
20
-8.34651470369954
30
0
41
1
10
4.28095871277924
20
-8.34592628307638
30
0
41
1
10
4.1958750494627
20
-8.34750680019147
30
0
41
1
10
4.15349825272955
20
-8.34961358802218
30
0
41
1
10
4.09364866212837
20
-8.35957139268419
30
0
41
1
10
4.07411799761155
20
-8.36408233546302
30
0
41
1
10
4.03716942731592
20
-8.37707567374389
30
0
41
1
10
4.01992612080341
20
-8.3853856594277
30
0
41
1
10
4.00456641340492
20
-8.39719338478926
30
0
0
SPLINE
5
37B
100
AcDbEntity
8
1
62
256
6
ByLayer
370
18
48
1
60
0
100
AcDbSpline
70
4
71
3
72
10
73
6
40
0
40
0
40
0
40
0
40
0.214166190051642
40
0.214166190051642
40
1
40
1
40
1
40
1
41
1
10
12.101567693902
20
-8.49152640120451
30
0
41
1
10
12.0946183530986
20
-8.48443918379866
30
0
41
1
10
12.087543313037
20
-8.47741987873474
30
0
41
1
10
12.0539261319527
20
-8.44501266637036
30
0
41
1
10
12.0257613362029
20
-8.4205077441581
30
0
41
1
10
11.9954335865922
20
-8.39719338478233
30
0
0
SPLINE
5
37C
100
AcDbEntity
8
1
62
256
6
ByLayer
370
18
48
1
60
0
100
AcDbSpline
70
4
71
3
72
16
73
12
40
0
40
0
40
0
40
0
40
0.125000000000006
40
0.125000000000006
40
0.250000000000012
40
0.250000000000012
40
0.500000000000008
40
0.500000000000008
40
0.750000000000004
40
0.750000000000004
40
1
40
1
40
1
40
1
41
1
10
11.9954335865887
20
-8.39719338478432
30
0
41
1
10
11.9800758891014
20
-8.38538720453693
30
0
41
1
10
11.9628748058549
20
-8.37710186565761
30
0
41
1
10
11.9260834835862
20
-8.36414262226776
30
0
41
1
10
11.9065118903348
20
-8.35960835621029
30
0
41
1
10
11.8468896892531
20
-8.34965781424211
30
0
41
1
10
11.8049079696749
20
-8.34753452507459
30
0
41
1
10
11.7193622493142
20
-8.34591923459521
30
0
41
1
10
11.6761020125036
20
-8.34651272115241
30
0
41
1
10
11.5887076291184
20
-8.34757732808919
30
0
41
1
10
11.5445729478925
20
-8.34807461845094
30
0
41
1
10
11.5000000000014
20
-8.34807461845099
30
0
0
SPLINE
5
37D
100
AcDbEntity
8
1
62
256
6
ByLayer
370
18
48
1
60
0
100
AcDbSpline
70
4
71
3
72
31
73
27
40
0
40
0
40
0
40
0
40
0.0474442608265789
40
0.0474442608265789
40
0.160272883911096
40
0.160272883911096
40
0.216687195453354
40
0.216687195453354
40
0.273101506995612
40
0.273101506995612
40
0.385930130080128
40
0.385930130080128
40
0.498758753164642
40
0.498758753164642
40
0.611587376249159
40
0.611587376249159
40
0.668001687791418
40
0.668001687791418
40
0.724415999333676
40
0.780830310875935
40
0.780830310875935
40
0.837244622418193
40
0.837244622418193
40
0.950073245502713
40
0.950073245502713
40
1
40
1
40
1
40
1
41
1
10
7.23651916075323
20
1.85758497491008
30
0
41
1
10
7.25426378781128
20
1.87842534801098
30
0
41
1
10
7.27293682545155
20
1.898603071857
30
0
41
1
10
7.33920517317762
20
1.96449378107235
30
0
41
1
10
7.38976089904889
20
2.00562867081112
30
0
41
1
10
7.47096023407306
20
2.05956432628034
30
0
41
1
10
7.4989416242849
20
2.07625262034838
30
0
41
1
10
7.55677517606347
20
2.106994574932
30
0
41
1
10
7.58674920041818
20
2.1210824969524
30
0
41
1
10
7.6776099971143
20
2.15845847205475
30
0
41
1
10
7.73994191386555
20
2.17723294150915
30
0
41
1
10
7.86808658475178
20
2.20263813713757
30
0
41
1
10
7.93437304202882
20
2.20914851176633
30
0
41
1
10
8.06490827662179
20
2.20919503644001
30
0
41
1
10
8.12978654685116
20
2.20294170786889
30
0
41
1
10
8.22650748994772
20
2.18394119677549
30
0
41
1
10
8.25865611908034
20
2.17596610478029
30
0
41
1
10
8.32133140080668
20
2.15712503363778
30
0
41
1
10
8.38275270996178
20
2.1353333331694
30
0
41
1
10
8.44170770717909
20
2.10773316576632
30
0
41
1
10
8.49941469305901
20
2.07719056261203
30
0
41
1
10
8.52778085369437
20
2.06035465363476
30
0
41
1
10
8.60989864135337
20
2.00594424016157
30
0
41
1
10
8.66027934262075
20
1.96487191293806
30
0
41
1
10
8.72684013233027
20
1.89888219166335
30
0
41
1
10
8.74642242642949
20
1.87771731018484
30
0
41
1
10
8.76514715099154
20
1.85560523340718
30
0
0
SPLINE
5
37E
100
AcDbEntity
8
1
62
256
6
ByLayer
370
18
48
1
60
0
100
AcDbSpline
70
4
71
3
72
26
73
22
40
0
40
0
40
0
40
0
40
0.125000000000003
40
0.125000000000003
40
0.250000000000006
40
0.250000000000006
40
0.312500000000007
40
0.312500000000007
40
0.375000000000008
40
0.375000000000008
40
0.500000000000008
40
0.500000000000008
40
0.625000000000006
40
0.625000000000006
40
0.687500000000006
40
0.687500000000006
40
0.750000000000005
40
0.750000000000005
40
0.875000000000003
40
0.875000000000003
40
1
40
1
40
1
40
1
41
1
10
3.5
20
33.4429214608609
30
0
41
1
10
3.5
20
33.492604219451
30
0
41
1
10
3.50632169093598
20
33.5432940453885
30
0
41
1
10
3.53110778129201
20
33.6418534992229
30
0
41
1
10
3.54949113882327
20
33.690203207551
30
0
41
1
10
3.58632640808924
20
33.7612187843047
30
0
41
1
10
3.60024008585532
20
33.7847381434683
30
0
41
1
10
3.63066571820554
20
33.8302700522627
30
0
41
1
10
3.64721353830191
20
33.8523810925318
30
0
41
1
10
3.70079984205967
20
33.9167531905118
30
0
41
1
10
3.7417422772096
20
33.9570738441348
30
0
41
1
10
3.83463223583584
20
34.0320789112864
30
0
41
1
10
3.88515234009736
20
34.0655847390039
30
0
41
1
10
3.96648200585594
20
34.1096781864637
30
0
41
1
10
3.99454270617042
20
34.1233567427388
30
0
41
1
10
4.05261304256385
20
34.1486063995218
30
0
41
1
10
4.08276254341024
20
34.1602125162566
30
0
41
1
10
4.17424100021765
20
34.1910496623174
30
0
41
1
10
4.23707639465272
20
34.2065983169586
30
0
41
1
10
4.36641405755637
20
34.2276752750744
30
0
41
1
10
4.43323602923232
20
34.2331350437779
30
0
41
1
10
4.5
20
34.233135043778
30
0
0
SPLINE
5
37F
100
AcDbEntity
8
1
62
256
6
ByLayer
370
18
48
1
60
0
100
AcDbSpline
70
4
71
3
72
28
73
24
40
0
40
0
40
0
40
0
40
0.124999999999991
40
0.124999999999991
40
0.187499999999987
40
0.187499999999987
40
0.249999999999984
40
0.249999999999984
40
0.37499999999998
40
0.37499999999998
40
0.43749999999998
40
0.43749999999998
40
0.49999999999998
40
0.49999999999998
40
0.62499999999998
40
0.62499999999998
40
0.74999999999998
40
0.74999999999998
40
0.812499999999985
40
0.812499999999985
40
0.87499999999999
40
0.87499999999999
40
1
40
1
40
1
40
1
41
1
10
11.5
20
34.2331350437778
30
0
41
1
10
11.5667912480819
20
34.2331350437778
30
0
41
1
10
11.6324389576208
20
34.2277918104143
30
0
41
1
10
11.7292662176399
20
34.2121173140891
30
0
41
1
10
11.7612658157491
20
34.2056065083201
30
0
41
1
10
11.8246994762579
20
34.1899610884417
30
0
41
1
10
11.856154263848
20
34.1807995694812
30
0
41
1
10
11.9475464855246
20
34.1500032575818
30
0
41
1
10
12.005273111458
20
34.124929694527
30
0
41
1
10
12.0870982659793
20
34.0806594161919
30
0
41
1
10
12.1137110024601
20
34.0646893344508
30
0
41
1
10
12.1645218940426
20
34.0309577213533
30
0
41
1
10
12.1886826365751
20
34.0132438761457
30
0
41
1
10
12.2575458277151
20
33.9576669127462
30
0
41
1
10
12.2986627631357
20
33.9173906776743
30
0
41
1
10
12.3710906401664
20
33.8304007317686
30
0
41
1
10
12.4014067160725
20
33.7848301492637
30
0
41
1
10
12.438061945435
20
33.7142188962156
30
0
41
1
10
12.4488270426032
20
33.6902699028577
30
0
41
1
10
12.4674154435461
20
33.6415514513589
30
0
41
1
10
12.4752537967684
20
33.6166745825866
30
0
41
1
10
12.4938746607691
20
33.5422736918827
30
0
41
1
10
12.5000000000001
20
33.4926161500463
30
0
41
1
10
12.5
20
33.4429214608605
30
0
0
SPLINE
5
380
100
AcDbEntity
8
1
62
256
6
ByLayer
370
18
48
1
60
0
100
AcDbSpline
70
4
71
3
72
18
73
14
40
0
40
0
40
0
40
0
40
0.262988828403231
40
0.262988828403231
40
0.525977656806462
40
0.525977656806462
40
0.59172486390727
40
0.59172486390727
40
0.657472071008078
40
0.657472071008078
40
0.788966485209694
40
0.788966485209694
40
1
40
1
40
1
40
1
41
1
10
1.69272311750831
20
18.4982764729724
30
0
41
1
10
1.61029629772389
20
18.7113610052301
30
0
41
1
10
1.58302036564248
20
18.9237466242755
30
0
41
1
10
1.63798739951989
20
19.3471299571481
30
0
41
1
10
1.72020223259256
20
19.5581280274963
30
0
41
1
10
1.88764353779328
20
19.8210560338977
30
0
41
1
10
1.92435420691828
20
19.8736007984176
30
0
41
1
10
2.00408517025869
20
19.9786103671789
30
0
41
1
10
2.04706140585739
20
20.0310085862768
30
0
41
1
10
2.1845238262664
20
20.1873806001889
30
0
41
1
10
2.28769636690322
20
20.2907411377977
30
0
41
1
10
2.58376538853628
20
20.557881144428
30
0
41
1
10
2.79314044947489
20
20.7203923483088
30
0
41
1
10
3.02550765555486
20
20.8811339739676
30
0
0
SPLINE
5
381
100
AcDbEntity
8
1
62
256
6
ByLayer
370
18
48
1
60
0
100
AcDbSpline
70
4
71
3
72
8
73
4
40
0
40
0
40
0
40
0
40
1
40
1
40
1
40
1
41
1
10
1.8570032950729
20
18.605941618421
30
0
41
1
10
1.80214887850804
20
18.5700903749386
30
0
41
1
10
1.74738773505283
20
18.5342023158826
30
0
41
1
10
1.69272311750882
20
18.4982764729724
30
0
0
SPLINE
5
382
100
AcDbEntity
8
1
62
256
6
ByLayer
370
18
48
1
60
0
100
AcDbSpline
70
4
71
3
72
8
73
4
40
0
40
0
40
0
40
0
40
1
40
1
40
1
40
1
41
1
10
3.00692800101388
20
19.7249300544431
30
0
41
1
10
2.62356570221095
20
19.3519859907115
30
0
41
1
10
2.24025434317878
20
18.9789928390217
30
0
41
1
10
1.8570032950729
20
18.605941618421
30
0
0
SPLINE
5
383
100
AcDbEntity
8
1
62
256
6
ByLayer
370
18
48
1
60
0
100
AcDbSpline
70
4
71
3
72
8
73
4
40
0
40
0
40
0
40
0
40
1
40
1
40
1
40
1
41
1
10
3.10000000000002
20
16.3116048464806
30
0
41
1
10
3.10330004684033
20
16.3374749322696
30
0
41
1
10
3.10673421509296
20
16.363368506468
30
0
41
1
10
3.11031524061627
20
16.389290648733
30
0
0
SPLINE
5
384
100
AcDbEntity
8
1
62
256
6
ByLayer
370
18
48
1
60
0
100
AcDbSpline
70
4
71
3
72
14
73
10
40
0
40
0
40
0
40
0
40
0.499999999999999
40
0.499999999999999
40
0.749999999999999
40
0.749999999999999
40
0.875
40
0.875
40
1
40
1
40
1
40
1
41
1
10
3.20125181416699
20
13.0264988499935
30
0
41
1
10
3.09941553445736
20
13.5668910905387
30
0
41
1
10
3.03827479953458
20
14.1111264357222
30
0
41
1
10
3.0120042474303
20
14.9336593654174
30
0
41
1
10
3.01413594656225
20
15.2088652744357
30
0
41
1
10
3.03402490760226
20
15.623250400046
30
0
41
1
10
3.04344873759328
20
15.7616706261786
30
0
41
1
10
3.06769583810939
20
16.037244848298
30
0
41
1
10
3.08252641273845
20
16.1746240024568
30
0
41
1
10
3.10000000000002
20
16.3116048464806
30
0
0
SPLINE
5
385
100
AcDbEntity
8
1
62
256
6
ByLayer
370
18
48
1
60
0
100
AcDbSpline
70
4
71
3
72
18
73
14
40
0
40
0
40
0
40
0
40
0.25
40
0.25
40
0.499999999999999
40
0.499999999999999
40
0.562499999999999
40
0.562499999999999
40
0.624999999999999
40
0.624999999999999
40
0.749999999999999
40
0.749999999999999
40
1
40
1
40
1
40
1
41
1
10
1.69272311750831
20
3.39996449276344
30
0
41
1
10
1.61029629822997
20
4.22005691150878
30
0
41
1
10
1.5830203657224
20
5.03745944528163
30
0
41
1
10
1.63798739893781
20
6.66692292621298
30
0
41
1
10
1.72020223179032
20
7.47898524550141
30
0
41
1
10
1.88764353800298
20
8.49090884720567
30
0
41
1
10
1.92435420739361
20
8.69313640040451
30
0
41
1
10
2.00408517141523
20
9.09728376621797
30
0
41
1
10
2.0470614067724
20
9.29894731135096
30
0
41
1
10
2.18452382694295
20
9.90077186527179
30
0
41
1
10
2.28769636741066
20
10.2985726476415
30
0
41
1
10
2.62867372328571
20
11.4826562767425
30
0
41
1
10
2.89786887817934
20
12.2596409610205
30
0
41
1
10
3.20125181416699
20
13.0264988499935
30
0
0
SPLINE
5
386
100
AcDbEntity
8
1
62
256
6
ByLayer
370
18
48
1
60
0
100
AcDbSpline
70
4
71
3
72
8
73
4
40
0
40
0
40
0
40
0
40
1
40
1
40
1
40
1
41
1
10
1.8570032950729
20
3.2955056811939
30
0
41
1
10
1.80214887850804
20
3.3302892527189
30
0
41
1
10
1.74738773505283
20
3.3651085434272
30
0
41
1
10
1.69272311750882
20
3.39996449276344
30
0
0
SPLINE
5
387
100
AcDbEntity
8
1
62
256
6
ByLayer
370
18
48
1
60
0
100
AcDbSpline
70
4
71
3
72
8
73
4
40
0
40
0
40
0
40
0
40
1
40
1
40
1
40
1
41
1
10
3.10704321706328
20
3.6312639768986
30
0
41
1
10
2.69030000018432
20
3.51936136290692
30
0
41
1
10
2.27361601364726
20
3.40744299247098
30
0
41
1
10
1.8570032950729
20
3.2955056811939
30
0
0
SPLINE
5
388
100
AcDbEntity
8
1
62
256
6
ByLayer
370
18
48
1
60
0
100
AcDbSpline
70
4
71
3
72
44
73
40
40
0
40
0
40
0
40
0
40
0.124999999999988
40
0.124999999999988
40
0.249999999999976
40
0.249999999999976
40
0.31249999999997
40
0.31249999999997
40
0.374999999999964
40
0.374999999999964
40
0.40624999999996
40
0.40624999999996
40
0.437499999999956
40
0.437499999999956
40
0.468749999999952
40
0.468749999999952
40
0.48437499999995
40
0.48437499999995
40
0.499999999999948
40
0.499999999999948
40
0.507812499999948
40
0.507812499999948
40
0.515624999999948
40
0.515624999999948
40
0.53124999999995
40
0.53124999999995
40
0.562499999999954
40
0.562499999999954
40
0.593749999999957
40
0.593749999999957
40
0.624999999999961
40
0.624999999999961
40
0.687499999999968
40
0.687499999999968
40
0.749999999999974
40
0.749999999999974
40
0.874999999999987
40
0.874999999999987
40
1
40
1
40
1
40
1
41
1
10
3.10000000000002
20
-3.43540806139862
30
0
41
1
10
3.11066299058746
20
-3.31994672457267
30
0
41
1
10
3.12272626461299
20
-3.20464396705739
30
0
41
1
10
3.15051266026688
20
-2.97504930601951
30
0
41
1
10
3.16618907016999
20
-2.86074888355938
30
0
41
1
10
3.19388108530575
20
-2.69071625130738
30
0
41
1
10
3.20381566248102
20
-2.63427846510382
30
0
41
1
10
3.22568791790269
20
-2.52214762274235
30
0
41
1
10
3.23760899467658
20
-2.46636748698927
30
0
41
1
10
3.25795578699865
20
-2.38396126159495
30
0
41
1
10
3.26514633554632
20
-2.35673768723547
30
0
41
1
10
3.28074860869549
20
-2.30304818292188
30
0
41
1
10
3.2891498176059
20
-2.27652742805719
30
0
41
1
10
3.30806019873791
20
-2.2250373180085
30
0
41
1
10
3.31835933464941
20
-2.2000523505904
30
0
41
1
10
3.33769075777917
20
-2.1661705534911
30
0
41
1
10
3.34467229303976
20
-2.15562738077546
30
0
41
1
10
3.361306307728
20
-2.13855606538999
30
0
41
1
10
3.37137912270077
20
-2.13196737634928
30
0
41
1
10
3.38752919332831
20
-2.1342943343675
30
0
41
1
10
3.39274746772878
20
-2.13714759657029
30
0
41
1
10
3.40199794707422
20
-2.14552350880319
30
0
41
1
10
3.40609390557375
20
-2.15098873400245
30
0
41
1
10
3.41684793254547
20
-2.16864064848477
30
0
41
1
10
3.42233445029842
20
-2.18233051902501
30
0
41
1
10
3.43631745363126
20
-2.2237445854006
30
0
41
1
10
3.44268549846902
20
-2.2528810224095
30
0
41
1
10
3.45353515258722
20
-2.31151065933528
30
0
41
1
10
3.45780439460657
20
-2.34090643744162
30
0
41
1
10
3.46519667323957
20
-2.39977689768051
30
0
41
1
10
3.46828904691421
20
-2.42925376425444
30
0
41
1
10
3.47644032759064
20
-2.51776041427354
30
0
41
1
10
3.4803952473107
20
-2.57686469014243
30
0
41
1
10
3.48681357613424
20
-2.69516831169261
30
0
41
1
10
3.48924210922598
20
-2.75439276738973
30
0
41
1
10
3.4950945347457
20
-2.93157291532083
30
0
41
1
10
3.49713372821447
20
-3.0492768124812
30
0
41
1
10
3.49961045378262
20
-3.28415802567167
30
0
41
1
10
3.50000000000006
20
-3.40132842476697
30
0
41
1
10
3.50000000000006
20
-3.51829459633984
30
0
0
SPLINE
5
389
100
AcDbEntity
8
1
62
256
6
ByLayer
370
18
48
1
60
0
100
AcDbSpline
70
4
71
3
72
14
73
10
40
0
40
0
40
0
40
0
40
0.500000000000001
40
0.500000000000001
40
0.750000000000001
40
0.750000000000001
40
0.875000000000001
40
0.875000000000001
40
1
40
1
40
1
40
1
41
1
10
3.20125181416699
20
-7.97303907997002
30
0
41
1
10
3.09944584616414
20
-7.22683158333308
30
0
41
1
10
3.0382990718166
20
-6.47523451280989
30
0
41
1
10
3.01200644503712
20
-5.33916616905395
30
0
41
1
10
3.01412875032878
20
-4.95903366072338
30
0
41
1
10
3.03400668953742
20
-4.38662196353278
30
0
41
1
10
3.04342172210977
20
-4.19550857925248
30
0
41
1
10
3.06766663608431
20
-3.81476628078383
30
0
41
1
10
3.08250391900458
20
-3.62485968703498
30
0
41
1
10
3.09999999999997
20
-3.43540806139862
30
0
0
SPLINE
5
38A
100
AcDbEntity
8
1
62
256
6
ByLayer
370
18
48
1
60
0
100
AcDbSpline
70
4
71
3
72
18
73
14
40
0
40
0
40
0
40
0
40
0.250000000000001
40
0.250000000000001
40
0.500000000000001
40
0.500000000000001
40
0.562500000000001
40
0.562500000000001
40
0.625000000000001
40
0.625000000000001
40
0.75
40
0.75
40
1
40
1
40
1
40
1
41
1
10
1.69272311750882
20
-15.098311980209
30
0
41
1
10
1.61029633630659
20
-14.4913043728134
30
0
41
1
10
1.58302037173314
20
-13.8862875943546
30
0
41
1
10
1.63798735514416
20
-12.6802074407334
30
0
41
1
10
1.72020217143501
20
-12.0791430500757
30
0
41
1
10
1.88764355378646
20
-11.330147116579
30
0
41
1
10
1.92435424316142
20
-11.1804642522343
30
0
41
1
10
2.00408525843631
20
-10.8813262882048
30
0
41
1
10
2.04706147561757
20
-10.732061043789
30
0
41
1
10
2.18452387784555
20
-10.2866085888995
30
0
41
1
10
2.2876964055917
20
-9.99216838780018
30
0
41
1
10
2.6286737290385
20
-9.11574518679112
30
0
41
1
10
2.89786887056505
20
-8.54064437477348
30
0
41
1
10
3.20125181416699
20
-7.97303907997002
30
0
0
SPLINE
5
38B
100
AcDbEntity
8
1
62
256
6
ByLayer
370
18
48
1
60
0
100
AcDbSpline
70
4
71
3
72
8
73
4
40
0
40
0
40
0
40
0
40
1
40
1
40
1
40
1
41
1
10
1.8570032950729
20
-15.3104359372271
30
0
41
1
10
1.80214887850804
20
-15.2398011222197
30
0
41
1
10
1.74738773505283
20
-15.1690937724555
30
0
41
1
10
1.69272311750882
20
-15.098311980209
30
0
0
SPLINE
5
38C
100
AcDbEntity
8
1
62
256
6
ByLayer
370
18
48
1
60
0
100
AcDbSpline
70
4
71
3
72
8
73
4
40
0
40
0
40
0
40
0
40
1
40
1
40
1
40
1
41
1
10
3.10704321706328
20
-16.1910583368934
30
0
41
1
10
2.69030000018432
20
-15.8975616467955
30
0
41
1
10
2.27361601364726
20
-15.6040236309045
30
0
41
1
10
1.8570032950729
20
-15.3104359372271
30
0
0
SPLINE
5
38D
100
AcDbEntity
8
1
62
256
6
ByLayer
370
18
48
1
60
0
100
AcDbSpline
70
4
71
3
72
8
73
4
40
0
40
0
40
0
40
0
40
1
40
1
40
1
40
1
41
1
10
3.47499767275951
20
-16.4873555940545
30
0
41
1
10
3.35234435482278
20
-16.3885913123616
30
0
41
1
10
3.22969283763342
20
-16.2898255855745
30
0
41
1
10
3.10704321706328
20
-16.1910583368934
30
0
0
SPLINE
5
38E
100
AcDbEntity
8
1
62
256
6
ByLayer
370
18
48
1
60
0
100
AcDbSpline
70
4
71
3
72
44
73
40
40
0
40
0
40
0
40
0
40
0.125000000000002
40
0.125000000000002
40
0.250000000000005
40
0.250000000000005
40
0.312500000000005
40
0.312500000000005
40
0.375000000000006
40
0.375000000000006
40
0.406250000000005
40
0.406250000000005
40
0.437500000000005
40
0.437500000000005
40
0.468750000000005
40
0.468750000000005
40
0.484375000000004
40
0.484375000000004
40
0.500000000000003
40
0.500000000000003
40
0.507812500000002
40
0.507812500000002
40
0.515625000000002
40
0.515625000000002
40
0.531250000000002
40
0.531250000000002
40
0.562500000000003
40
0.562500000000003
40
0.593750000000004
40
0.593750000000004
40
0.625000000000005
40
0.625000000000005
40
0.687500000000005
40
0.687500000000005
40
0.750000000000004
40
0.750000000000004
40
0.875000000000003
40
0.875000000000003
40
1
40
1
40
1
40
1
41
1
10
3.10000000000002
20
-19.7470129078792
30
0
41
1
10
3.11066296627661
20
-19.7151421182213
30
0
41
1
10
3.12272620972067
20
-19.6836751349576
30
0
41
1
10
3.15051252510602
20
-19.6225851900397
30
0
41
1
10
3.16618888598742
20
-19.5929180181161
30
0
41
1
10
3.19388079858197
20
-19.5513475474984
30
0
41
1
10
3.20381533670144
20
-19.5379873091646
30
0
41
1
10
3.22568749567449
20
-19.5128948947719
30
0
41
1
10
3.23760851485383
20
-19.501113017712
30
0
41
1
10
3.25795519190427
20
-19.485795992436
30
0
41
1
10
3.26514569670206
20
-19.4810947016566
30
0
41
1
10
3.28074786023075
20
-19.4729669219333
30
0
41
1
10
3.28914900078377
20
-19.4695087710327
30
0
41
1
10
3.30805920476303
20
-19.4649715329035
30
0
41
1
10
3.31835824222134
20
-19.4637021642693
30
0
41
1
10
3.33768932066448
20
-19.4666012714271
30
0
41
1
10
3.3446707564591
20
-19.4683351240666
30
0
41
1
10
3.36130431738263
20
-19.475771852079
30
0
41
1
10
3.3713766237812
20
-19.4818152686556
30
0
41
1
10
3.38752690793996
20
-19.4968326605221
30
0
41
1
10
3.39274525049905
20
-19.5025532928506
30
0
41
1
10
3.40199605158875
20
-19.5140632092309
30
0
41
1
10
3.40609215571288
20
-19.5198839424487
30
0
41
1
10
3.41684657752114
20
-19.5365229947136
30
0
41
1
10
3.42233324561067
20
-19.5469349182846
30
0
41
1
10
3.43631661117183
20
-19.5761204352091
30
0
41
1
10
3.4426847427971
20
-19.5935874266046
30
0
41
1
10
3.45353457247774
20
-19.6269185120489
30
0
41
1
10
3.45780386897292
20
-19.6425595280664
30
0
41
1
10
3.46519623819467
20
-19.6727705214119
30
0
41
1
10
3.46828864599831
20
-19.6873147325053
30
0
41
1
10
3.47644001435361
20
-19.7298384281052
30
0
41
1
10
3.48039497300107
20
-19.7567272958368
30
0
41
1
10
3.48681336754032
20
-19.808813127521
30
0
41
1
10
3.48924192671734
20
-19.8339891743836
30
0
41
1
10
3.49509443289185
20
-19.907429908863
30
0
41
1
10
3.49713366855116
20
-19.9537453886532
30
0
41
1
10
3.49961044421417
20
-20.0430619861962
30
0
41
1
10
3.50000000000006
20
-20.0860184219595
30
0
41
1
10
3.50000000000006
20
-20.1276992919997
30
0
0
SPLINE
5
38F
100
AcDbEntity
8
1
62
256
6
ByLayer
370
18
48
1
60
0
100
AcDbSpline
70
4
71
3
72
14
73
10
40
0
40
0
40
0
40
0
40
0.5
40
0.5
40
0.75
40
0.75
40
0.875
40
0.875
40
1
40
1
40
1
40
1
41
1
10
3.20125181416699
20
-20.9995379299634
30
0
41
1
10
3.09943994687791
20
-20.7935498898208
30
0
41
1
10
3.0382993856515
20
-20.586088245794
30
0
41
1
10
3.01200731328817
20
-20.2725255250922
30
0
41
1
10
3.01412827005657
20
-20.1676102332635
30
0
41
1
10
3.03399804803877
20
-20.0096326430224
30
0
41
1
10
3.04341194269654
20
-19.9568720166712
30
0
41
1
10
3.06765895751175
20
-19.8517549611288
30
0
41
1
10
3.08249892233226
20
-19.7993222888401
30
0
41
1
10
3.09999999999997
20
-19.7470129078792
30
0
0
SPLINE
5
390
100
AcDbEntity
8
1
62
256
6
ByLayer
370
18
48
1
60
0
100
AcDbSpline
70
4
71
3
72
10
73
6
40
0
40
0
40
0
40
0
40
0.194157690950965
40
0.194157690950965
40
1
40
1
40
1
40
1
41
1
10
2.24446889257666
20
-20.2444694897323
30
0
41
1
10
2.29425149812994
20
-20.2942712596271
30
0
41
1
10
2.34658598099873
20
-20.3438766256415
30
0
41
1
10
2.62867372320926
20
-20.5984014688988
30
0
41
1
10
2.89786887828058
20
-20.8002853216145
30
0
41
1
10
3.20125181416699
20
-20.9995379299634
30
0
0
SPLINE
5
391
100
AcDbEntity
8
1
62
256
6
ByLayer
370
18
48
1
60
0
100
AcDbSpline
70
4
71
3
72
8
73
4
40
0
40
0
40
0
40
0
40
1
40
1
40
1
40
1
41
1
10
3.5
20
3.67582524168245
30
0
41
1
10
3.36901232041583
20
3.66097172240831
30
0
41
1
10
3.23802668717934
20
3.64611797187143
30
0
41
1
10
3.10704321706328
20
3.6312639768986
30
0
0
SPLINE
5
392
100
AcDbEntity
8
1
62
256
6
ByLayer
370
18
48
1
60
0
100
AcDbSpline
70
4
71
3
72
8
73
4
40
0
40
0
40
0
40
0
40
1
40
1
40
1
40
1
41
1
10
12.798748185833
20
-20.9995379299634
30
0
41
1
10
13.1744668000605
20
-20.7527774664215
30
0
41
1
10
13.4963619341397
20
-20.5029221461138
30
0
41
1
10
13.7508465537161
20
-20.2491907128845
30
0
0
SPLINE
5
393
100
AcDbEntity
8
1
62
256
6
ByLayer
370
18
48
1
60
0
100
AcDbSpline
70
4
71
3
72
14
73
10
40
0
40
0
40
0
40
0
40
0.25
40
0.25
40
0.375
40
0.375
40
0.5
40
0.5
40
1
40
1
40
1
40
1
41
1
10
12.9
20
-19.7470129078792
30
0
41
1
10
12.9348141374038
20
-19.8510696986011
30
0
41
1
10
12.9590763278998
20
-19.955564647971
30
0
41
1
10
12.979062621334
20
-20.1129883553598
30
0
41
1
10
12.9829914827388
20
-20.1655803103582
30
0
41
1
10
12.9853011554091
20
-20.2709789369062
30
0
41
1
10
12.9836772560154
20
-20.3235517135034
30
0
41
1
10
12.961871246615
20
-20.585792346937
30
0
41
1
10
12.9005419754627
20
-20.7935864649445
30
0
41
1
10
12.798748185833
20
-20.9995379299634
30
0
0
SPLINE
5
394
100
AcDbEntity
8
1
62
256
6
ByLayer
370
18
48
1
60
0
100
AcDbSpline
70
4
71
3
72
46
73
42
40
0
40
0
40
0
40
0
40
0.125000000000022
40
0.125000000000022
40
0.250000000000044
40
0.250000000000044
40
0.312500000000055
40
0.312500000000055
40
0.375000000000067
40
0.375000000000067
40
0.406250000000072
40
0.406250000000072
40
0.437500000000077
40
0.437500000000077
40
0.453125000000079
40
0.453125000000079
40
0.46875000000008
40
0.46875000000008
40
0.484375000000081
40
0.484375000000081
40
0.49218750000008
40
0.49218750000008
40
0.500000000000078
40
0.500000000000078
40
0.507812500000077
40
0.507812500000077
40
0.515625000000076
40
0.515625000000076
40
0.531250000000074
40
0.531250000000074
40
0.56250000000007
40
0.56250000000007
40
0.62500000000006
40
0.62500000000006
40
0.68750000000005
40
0.68750000000005
40
0.75000000000004
40
0.75000000000004
40
0.87500000000002
40
0.87500000000002
40
1
40
1
40
1
40
1
41
1
10
12.5
20
-20.1276992919996
30
0
41
1
10
12.5
20
-20.08558103587
30
0
41
1
10
12.5003977691264
20
-20.0421288247095
30
0
41
1
10
12.5029378908438
20
-19.9518222649677
30
0
41
1
10
12.5050299413475
20
-19.9050110345874
30
0
41
1
10
12.5110472881183
20
-19.830827999251
30
0
41
1
10
12.5135410626258
20
-19.8054319713466
30
0
41
1
10
12.520172662191
20
-19.7527018499912
30
0
41
1
10
12.524278913594
20
-19.7253538283743
30
0
41
1
10
12.5328147218839
20
-19.6820299705995
30
0
41
1
10
12.5360605261294
20
-19.6672042015996
30
0
41
1
10
12.5438669315635
20
-19.6363624538882
30
0
41
1
10
12.5484084201076
20
-19.6203270622123
30
0
41
1
10
12.5570849163006
20
-19.5948414907423
30
0
41
1
10
12.5602914887684
20
-19.5861033898009
30
0
41
1
10
12.5677609027896
20
-19.5678294914269
30
0
41
1
10
12.5720177346985
20
-19.5582742034565
30
0
41
1
10
12.5824201439714
20
-19.5380932522629
30
0
41
1
10
12.5885933056729
20
-19.5272586587349
30
0
41
1
10
12.6011386037703
20
-19.5099790722717
30
0
41
1
10
12.6058049189508
20
-19.5041891402471
30
0
41
1
10
12.616184284653
20
-19.493138912174
30
0
41
1
10
12.6216841268437
20
-19.48816804735
30
0
41
1
10
12.6320564305852
20
-19.4802134844959
30
0
41
1
10
12.6369173128231
20
-19.4771789837201
30
0
41
1
10
12.6458320204514
20
-19.4724413986065
30
0
41
1
10
12.6499482593228
20
-19.4707019279912
30
0
41
1
10
12.6613379871685
20
-19.4667073552317
30
0
41
1
10
12.6678993990874
20
-19.4655350544358
30
0
41
1
10
12.6861257252262
20
-19.4640051704625
30
0
41
1
10
12.696001916619
20
-19.4656482575239
30
0
41
1
10
12.7232061746862
20
-19.4732959341644
30
0
41
1
10
12.7378801738161
20
-19.4823646373221
30
0
41
1
10
12.764379728328
20
-19.5029623559491
30
0
41
1
10
12.7760439828768
20
-19.5147104426439
30
0
41
1
10
12.7975105916004
20
-19.5397054940925
30
0
41
1
10
12.8072827721619
20
-19.5529845432888
30
0
41
1
10
12.8345515637561
20
-19.5942686275978
30
0
41
1
10
12.8500303092045
20
-19.6236884274897
30
0
41
1
10
12.877496120365
20
-19.6842567063779
30
0
41
1
10
12.8894354069477
20
-19.7154361482555
30
0
41
1
10
12.9
20
-19.7470129078792
30
0
0
SPLINE
5
395
100
AcDbEntity
8
1
62
256
6
ByLayer
370
18
48
1
60
0
100
AcDbSpline
70
4
71
3
72
8
73
4
40
0
40
0
40
0
40
0
40
1
40
1
40
1
40
1
41
1
10
12.8929567829367
20
-16.1910583368934
30
0
41
1
10
12.8750305759915
20
-16.2054939473017
30
0
41
1
10
12.8571043285303
20
-16.2199295251991
30
0
41
1
10
12.8391780408527
20
-16.2343650708255
30
0
0
SPLINE
5
396
100
AcDbEntity
8
1
62
256
6
ByLayer
370
18
48
1
60
0
100
AcDbSpline
70
4
71
3
72
8
73
4
40
0
40
0
40
0
40
0
40
1
40
1
40
1
40
1
41
1
10
14.1429967049271
20
-15.3104359372271
30
0
41
1
10
13.7263839863527
20
-15.6040236309045
30
0
41
1
10
13.3096999998157
20
-15.8975616467955
30
0
41
1
10
12.8929567829367
20
-16.1910583368934
30
0
0
SPLINE
5
397
100
AcDbEntity
8
1
62
256
6
ByLayer
370
18
48
1
60
0
100
AcDbSpline
70
4
71
3
72
8
73
4
40
0
40
0
40
0
40
0
40
1
40
1
40
1
40
1
41
1
10
14.3072768824912
20
-15.098311980209
30
0
41
1
10
14.2526122649472
20
-15.1690937724555
30
0
41
1
10
14.197851121492
20
-15.2398011222197
30
0
41
1
10
14.1429967049271
20
-15.3104359372271
30
0
0
SPLINE
5
398
100
AcDbEntity
8
1
62
256
6
ByLayer
370
18
48
1
60
0
100
AcDbSpline
70
4
71
3
72
16
73
12
40
0
40
0
40
0
40
0
40
0.5
40
0.5
40
0.75
40
0.75
40
0.8125
40
0.8125
40
0.875
40
0.875
40
1
40
1
40
1
40
1
41
1
10
12.798748185833
20
-7.97303907997002
30
0
41
1
10
13.4050978048121
20
-9.10747086492273
30
0
41
1
10
13.8712653212638
20
-10.2648643351542
30
0
41
1
10
14.2745796838533
20
-12.0494287045723
30
0
41
1
10
14.3595778726013
20
-12.6523817047844
30
0
41
1
10
14.3958856626085
20
-13.4175290467891
30
0
41
1
10
14.3996311636426
20
-13.5707020121019
30
0
41
1
10
14.40006791869
20
-13.8766713601942
30
0
41
1
10
14.3967644264646
20
-14.0295727067298
30
0
41
1
10
14.3763386817469
20
-14.4880279548789
30
0
41
1
10
14.3486906153224
20
-14.7933328155188
30
0
41
1
10
14.3072768824912
20
-15.098311980209
30
0
0
SPLINE
5
399
100
AcDbEntity
8
1
62
256
6
ByLayer
370
18
48
1
60
0
100
AcDbSpline
70
4
71
3
72
14
73
10
40
0
40
0
40
0
40
0
40
0.250000000000001
40
0.250000000000001
40
0.375000000000001
40
0.375000000000001
40
0.500000000000001
40
0.500000000000001
40
1
40
1
40
1
40
1
41
1
10
12.9
20
-3.43540806139862
30
0
41
1
10
12.9348457404803
20
-3.81272582657311
30
0
41
1
10
12.959127738988
20
-4.19171228412927
30
0
41
1
10
12.9791039219444
20
-4.76278997736671
30
0
41
1
10
12.9830221477101
20
-4.95387180617996
30
0
41
1
10
12.9852929955235
20
-5.33529197920512
30
0
41
1
10
12.9836558759158
20
-5.52556114868645
30
0
41
1
10
12.9618071093348
20
-6.47473414517822
30
0
41
1
10
12.900516818025
20
-7.22710524373355
30
0
41
1
10
12.798748185833
20
-7.97303907997002
30
0
0
SPLINE
5
39A
100
AcDbEntity
8
1
62
256
6
ByLayer
370
18
48
1
60
0
100
AcDbSpline
70
4
71
3
72
48
73
44
40
0
40
0
40
0
40
0
40
0.125000000000004
40
0.125000000000004
40
0.250000000000007
40
0.250000000000007
40
0.312500000000009
40
0.312500000000009
40
0.375000000000011
40
0.375000000000011
40
0.406250000000012
40
0.406250000000012
40
0.437500000000013
40
0.437500000000013
40
0.453125000000014
40
0.453125000000014
40
0.468750000000015
40
0.468750000000015
40
0.484375000000016
40
0.484375000000016
40
0.492187500000017
40
0.492187500000017
40
0.500000000000018
40
0.500000000000018
40
0.507812500000019
40
0.507812500000019
40
0.51562500000002
40
0.51562500000002
40
0.53125000000002
40
0.53125000000002
40
0.562500000000018
40
0.562500000000018
40
0.593750000000017
40
0.593750000000017
40
0.625000000000015
40
0.625000000000015
40
0.687500000000013
40
0.687500000000013
40
0.75000000000001
40
0.75000000000001
40
0.875000000000005
40
0.875000000000005
40
1
40
1
40
1
40
1
41
1
10
12.5
20
-3.51829459633984
30
0
41
1
10
12.5
20
-3.40042932438655
30
0
41
1
10
12.5003957249787
20
-3.28227225303067
30
0
41
1
10
12.5029186753019
20
-3.04563758941481
30
0
41
1
10
12.5049965614238
20
-2.92715325877879
30
0
41
1
10
12.5109634612421
20
-2.74905392046901
30
0
41
1
10
12.5134355110792
20
-2.68962472332504
30
0
41
1
10
12.5200021517671
20
-2.57059130181835
30
0
41
1
10
12.5240664071689
20
-2.51088742941738
30
0
41
1
10
12.5324951151316
20
-2.42156052456772
30
0
41
1
10
12.5356979821606
20
-2.39182868201544
30
0
41
1
10
12.5433863058321
20
-2.33250784524881
30
0
41
1
10
12.5478537647841
20
-2.30283841954815
30
0
41
1
10
12.556353995122
20
-2.25895178567202
30
0
41
1
10
12.5594911533594
20
-2.24442257380332
30
0
41
1
10
12.5667717868028
20
-2.21569201915435
30
0
41
1
10
12.57090271512
20
-2.20145101721539
30
0
41
1
10
12.580995355787
20
-2.17413734945103
30
0
41
1
10
12.5868093705954
20
-2.16105699755707
30
0
41
1
10
12.598669043441
20
-2.14488746478509
30
0
41
1
10
12.6032147807371
20
-2.14014319868267
30
0
41
1
10
12.6133551451345
20
-2.13399495502415
30
0
41
1
10
12.6188170966702
20
-2.13279344606508
30
0
41
1
10
12.6293584239553
20
-2.13418928215339
30
0
41
1
10
12.6343976360513
20
-2.13666830537005
30
0
41
1
10
12.6435661966611
20
-2.14337732523325
30
0
41
1
10
12.6478148991184
20
-2.14766218156348
30
0
41
1
10
12.6595435250039
20
-2.16163963129384
30
0
41
1
10
12.6663068477393
20
-2.17267764301198
30
0
41
1
10
12.6847942626862
20
-2.207227801486
30
0
41
1
10
12.694793524663
20
-2.23222997586339
30
0
41
1
10
12.7131586352716
20
-2.28357966422709
30
0
41
1
10
12.7214080661854
20
-2.31009568574524
30
0
41
1
10
12.7367392018564
20
-2.36371352385998
30
0
41
1
10
12.7438009279898
20
-2.39080584591841
30
0
41
1
10
12.7637762580907
20
-2.47263165022099
30
0
41
1
10
12.7755003266807
20
-2.52790378787597
30
0
41
1
10
12.7970782709078
20
-2.6392308368977
30
0
41
1
10
12.8069017454778
20
-2.69530095047594
30
0
41
1
10
12.8343141204311
20
-2.86430860718542
30
0
41
1
10
12.8498816742361
20
-2.97809636862871
30
0
41
1
10
12.8774441264369
20
-3.20626751481137
30
0
41
1
10
12.8894091597339
20
-3.32072798499814
30
0
41
1
10
12.9
20
-3.43540806139862
30
0
0
SPLINE
5
39B
100
AcDbEntity
8
1
62
256
6
ByLayer
370
18
48
1
60
0
100
AcDbSpline
70
4
71
3
72
8
73
4
40
0
40
0
40
0
40
0
40
1
40
1
40
1
40
1
41
1
10
14.1429967049271
20
3.2955056811939
30
0
41
1
10
13.7263839863527
20
3.40744299247098
30
0
41
1
10
13.3096999998157
20
3.51936136290692
30
0
41
1
10
12.8929567829368
20
3.6312639768986
30
0
0
SPLINE
5
39C
100
AcDbEntity
8
1
62
256
6
ByLayer
370
18
48
1
60
0
100
AcDbSpline
70
4
71
3
72
8
73
4
40
0
40
0
40
0
40
0
40
1
40
1
40
1
40
1
41
1
10
14.3072768824912
20
3.39996449276344
30
0
41
1
10
14.2526122649472
20
3.3651085434272
30
0
41
1
10
14.197851121492
20
3.3302892527189
30
0
41
1
10
14.1429967049271
20
3.2955056811939
30
0
0
SPLINE
5
39D
100
AcDbEntity
8
1
62
256
6
ByLayer
370
18
48
1
60
0
100
AcDbSpline
70
4
71
3
72
16
73
12
40
0
40
0
40
0
40
0
40
0.5
40
0.5
40
0.75
40
0.75
40
0.8125
40
0.8125
40
0.875
40
0.875
40
1
40
1
40
1
40
1
41
1
10
12.798748185833
20
13.0264988499935
30
0
41
1
10
13.4050977873146
20
11.493835274641
30
0
41
1
10
13.8712652943544
20
9.93014952756522
30
0
41
1
10
14.2745796623924
20
7.51913033816254
30
0
41
1
10
14.3595778562283
20
6.70451626313468
30
0
41
1
10
14.3958856572721
20
5.67077102310378
30
0
41
1
10
14.3996311609417
20
5.46382809975097
30
0
41
1
10
14.4000679209321
20
5.05045101774056
30
0
41
1
10
14.3967644309952
20
4.84387504933613
30
0
41
1
10
14.3763386906792
20
4.22448325288622
30
0
41
1
10
14.3486906238743
20
3.81200387069276
30
0
41
1
10
14.3072768824912
20
3.39996449276344
30
0
0
SPLINE
5
39E
100
AcDbEntity
8
1
62
256
6
ByLayer
370
18
48
1
60
0
100
AcDbSpline
70
4
71
3
72
14
73
10
40
0
40
0
40
0
40
0
40
0.25
40
0.25
40
0.375
40
0.375
40
0.5
40
0.5
40
1
40
1
40
1
40
1
41
1
10
12.9
20
16.3116048464807
30
0
41
1
10
12.9347327116114
20
16.0393243993947
30
0
41
1
10
12.9590020549893
20
15.765598623031
30
0
41
1
10
12.9790266694745
20
15.3527474339635
30
0
41
1
10
12.9829727892734
20
15.2147374501117
30
0
41
1
10
12.9853063673857
20
14.9380141593272
30
0
41
1
10
12.9836885174545
20
14.8000031475903
30
0
41
1
10
12.9618944774298
20
14.1116737563136
30
0
41
1
10
12.9005188844882
20
13.5665430859468
30
0
41
1
10
12.798748185833
20
13.0264988499935
30
0
0
SPLINE
5
39F
100
AcDbEntity
8
1
62
256
6
ByLayer
370
18
48
1
60
0
100
AcDbSpline
70
4
71
3
72
42
73
38
40
0
40
0
40
0
40
0
40
0.0290928119627715
40
0.0290928119627715
40
0.0776381713646282
40
0.0776381713646282
40
0.126183530766485
40
0.126183530766485
40
0.150456210467414
40
0.150456210467414
40
0.174728890168344
40
0.174728890168344
40
0.199001569869273
40
0.199001569869273
40
0.211137909719739
40
0.211137909719739
40
0.223274249570206
40
0.223274249570206
40
0.235410589420673
40
0.235410589420673
40
0.247546929271139
40
0.247546929271139
40
0.271819608972071
40
0.271819608972071
40
0.320364968373933
40
0.320364968373933
40
0.368910327775795
40
0.368910327775795
40
0.417455687177658
40
0.417455687177658
40
0.514546405981382
40
0.514546405981382
40
0.611637124785107
40
0.611637124785107
40
0.805818562392553
40
0.805818562392553
40
1
40
1
40
1
40
1
41
1
10
12.525021185203
20
17.2183921661604
30
0
41
1
10
12.5264457406445
20
17.227896807482
30
0
41
1
10
12.5279889946498
20
17.2372759837443
30
0
41
1
10
12.5324796642906
20
17.2619079610506
30
0
41
1
10
12.535680505611
20
17.2768871680891
30
0
41
1
10
12.5433630024765
20
17.3055382777552
30
0
41
1
10
12.5478270285065
20
17.3192742164523
30
0
41
1
10
12.5563192264807
20
17.3378724138327
30
0
41
1
10
12.5594530545876
20
17.3437356699511
30
0
41
1
10
12.5667235755007
20
17.35436994256
30
0
41
1
10
12.5708499668609
20
17.359177474342
30
0
41
1
10
12.5809255568675
20
17.3664946181658
30
0
41
1
10
12.5867367408173
20
17.3691366219463
30
0
41
1
10
12.5985570074192
20
17.3683571163743
30
0
41
1
10
12.6030817898404
20
17.3672124966095
30
0
41
1
10
12.6132287608668
20
17.362031319477
30
0
41
1
10
12.6186818768373
20
17.358008545879
30
0
41
1
10
12.6292334622152
20
17.3480394353017
30
0
41
1
10
12.6342815583927
20
17.342202380413
30
0
41
1
10
12.6434602839463
20
17.3302919166031
30
0
41
1
10
12.6477163157244
20
17.3240752724512
30
0
41
1
10
12.659462143326
20
17.3056458055038
30
0
41
1
10
12.6662270362649
20
17.29327072271
30
0
41
1
10
12.6847392685517
20
17.2567954246417
30
0
41
1
10
12.6947425726173
20
17.2333186925052
30
0
41
1
10
12.7131138096372
20
17.1869069522912
30
0
41
1
10
12.7213622357914
20
17.1639803587746
30
0
41
1
10
12.7367032577736
20
17.1186624125141
30
0
41
1
10
12.743768533664
20
17.0963150399131
30
0
41
1
10
12.7637525777623
20
17.0298547872063
30
0
41
1
10
12.7754798985869
20
16.9863118691704
30
0
41
1
10
12.7970627086498
20
16.8999796891092
30
0
41
1
10
12.8068876734258
20
16.8572082104349
30
0
41
1
10
12.834303263138
20
16.7295812338265
30
0
41
1
10
12.8498720772038
20
16.6453433426275
30
0
41
1
10
12.8774404303272
20
16.4778764038298
30
0
41
1
10
12.8894075545448
20
16.3946422959186
30
0
41
1
10
12.9
20
16.3116048464806
30
0
0
SPLINE
5
3A0
100
AcDbEntity
8
1
62
256
6
ByLayer
370
18
48
1
60
0
100
AcDbSpline
70
4
71
3
72
8
73
4
40
0
40
0
40
0
40
0
40
1
40
1
40
1
40
1
41
1
10
12.8929567829368
20
19.822322313792
30
0
41
1
10
12.7703071968924
20
19.9349984373195
30
0
41
1
10
12.6476557142299
20
20.0476728246331
30
0
41
1
10
12.525002430821
20
20.160345563348
30
0
0
SPLINE
5
3A1
100
AcDbEntity
8
1
62
256
6
ByLayer
370
18
48
1
60
0
100
AcDbSpline
70
4
71
3
72
8
73
4
40
0
40
0
40
0
40
0
40
1
40
1
40
1
40
1
41
1
10
14.1429967049271
20
18.605941618421
30
0
41
1
10
13.7263839863527
20
19.0114666233754
30
0
41
1
10
13.3096999998157
20
19.4169230097024
30
0
41
1
10
12.8929567829368
20
19.822322313792
30
0
0
SPLINE
5
3A2
100
AcDbEntity
8
1
62
256
6
ByLayer
370
18
48
1
60
0
100
AcDbSpline
70
4
71
3
72
8
73
4
40
0
40
0
40
0
40
0
40
1
40
1
40
1
40
1
41
1
10
14.3072768824912
20
18.4982764729724
30
0
41
1
10
14.2526122649472
20
18.5342023158826
30
0
41
1
10
14.197851121492
20
18.5700903749386
30
0
41
1
10
14.1429967049271
20
18.605941618421
30
0
0
SPLINE
5
3A3
100
AcDbEntity
8
1
62
256
6
ByLayer
370
18
48
1
60
0
100
AcDbSpline
70
4
71
3
72
16
73
12
40
0
40
0
40
0
40
0
40
0.5
40
0.5
40
0.75
40
0.75
40
0.8125
40
0.8125
40
0.875
40
0.875
40
1
40
1
40
1
40
1
41
1
10
12.798748185833
20
20.9995379299634
30
0
41
1
10
13.405097787082
20
20.6013061069799
30
0
41
1
10
13.8712652939968
20
20.1950137962337
30
0
41
1
10
14.2745796621072
20
19.5685589222062
30
0
41
1
10
14.3595778560106
20
19.3568978288427
30
0
41
1
10
14.3958856572012
20
19.0882999068694
30
0
41
1
10
14.3996311609058
20
19.034529947845
30
0
41
1
10
14.4000679209619
20
18.9271222220288
30
0
41
1
10
14.3967644310555
20
18.8734476088267
30
0
41
1
10
14.3763386907979
20
18.7125111002621
30
0
41
1
10
14.348690623988
20
18.6053366235272
30
0
41
1
10
14.3072768824912
20
18.4982764729724
30
0
0
SPLINE
5
3A4
100
AcDbEntity
8
1
62
256
6
ByLayer
370
18
48
1
60
0
100
AcDbSpline
70
4
71
3
72
8
73
4
40
0
40
0
40
0
40
0
40
1
40
1
40
1
40
1
41
1
10
12.8929567829368
20
3.6312639768986
30
0
41
1
10
12.7619733128207
20
3.64611797187143
30
0
41
1
10
12.6309876795842
20
3.66097172240831
30
0
41
1
10
12.5
20
3.67582524168245
30
0
0
SPLINE
5
3A5
100
AcDbEntity
8
1
62
256
6
ByLayer
370
18
48
1
60
0
100
AcDbSpline
70
4
71
3
72
66
73
62
40
0
40
0
40
0
40
0
40
0.0624999999999961
40
0.0624999999999961
40
0.124999999999992
40
0.124999999999992
40
0.187499999999988
40
0.187499999999988
40
0.249999999999985
40
0.249999999999985
40
0.312499999999981
40
0.312499999999981
40
0.343749999999978
40
0.343749999999978
40
0.374999999999976
40
0.374999999999976
40
0.406249999999973
40
0.406249999999973
40
0.437499999999971
40
0.437499999999971
40
0.453124999999969
40
0.453124999999969
40
0.468749999999968
40
0.468749999999968
40
0.484374999999967
40
0.484374999999967
40
0.492187499999967
40
0.492187499999967
40
0.499999999999966
40
0.499999999999966
40
0.507812499999966
40
0.507812499999966
40
0.515624999999966
40
0.515624999999966
40
0.523437499999965
40
0.523437499999965
40
0.531249999999965
40
0.531249999999965
40
0.546874999999965
40
0.546874999999965
40
0.562499999999966
40
0.562499999999966
40
0.578124999999966
40
0.578124999999966
40
0.593749999999966
40
0.593749999999966
40
0.624999999999968
40
0.624999999999968
40
0.687499999999972
40
0.687499999999972
40
0.718749999999975
40
0.718749999999975
40
0.749999999999978
40
0.749999999999978
40
0.812499999999984
40
0.812499999999984
40
0.874999999999989
40
0.874999999999989
40
0.937499999999995
40
0.937499999999995
40
1
40
1
40
1
40
1
41
1
10
6.5
20
-28.2641241293674
30
0
41
1
10
6.5
20
-28.4487020431128
30
0
41
1
10
6.50849323320944
20
-28.6314432207871
30
0
41
1
10
6.53935680493612
20
-28.9937803235364
30
0
41
1
10
6.5617484801607
20
-29.1733727031719
30
0
41
1
10
6.61885609806569
20
-29.5296865019114
30
0
41
1
10
6.65357322690238
20
-29.70640755444
30
0
41
1
10
6.73492933708332
20
-30.0570686705993
30
0
41
1
10
6.78154631755882
20
-30.2310118845277
30
0
41
1
10
6.88772768491992
20
-30.5759860112077
30
0
41
1
10
6.9468303772552
20
-30.7457044413462
30
0
41
1
10
7.04658545951867
20
-30.9950966616095
30
0
41
1
10
7.0817142133767
20
-31.077374637142
30
0
41
1
10
7.15660163005947
20
-31.2399324903435
30
0
41
1
10
7.19622664441886
20
-31.3199404026091
30
0
41
1
10
7.28091909192318
20
-31.4761827538997
30
0
41
1
10
7.32598232559565
20
-31.5525201100759
30
0
41
1
10
7.42422066186083
20
-31.7001263979453
30
0
41
1
10
7.47723323501111
20
-31.7714881359445
30
0
41
1
10
7.56762395517308
20
-31.8720200161271
30
0
41
1
10
7.59971025322545
20
-31.904473310382
30
0
41
1
10
7.66774416213445
20
-31.9645335862192
30
0
41
1
10
7.7039501483485
20
-31.9924384649299
30
0
41
1
10
7.7821069524835
20
-32.0409943086951
30
0
41
1
10
7.8232692811959
20
-32.061189146822
30
0
41
1
10
7.88962078634808
20
-32.0825032746249
30
0
41
1
10
7.9125076770531
20
-32.0880410489639
30
0
41
1
10
7.95835852397124
20
-32.0952247536422
30
0
41
1
10
7.98151525021223
20
-32.0969416609511
30
0
41
1
10
8.02832143599977
20
-32.0963828897523
30
0
41
1
10
8.05180638988458
20
-32.0940666954317
30
0
41
1
10
8.09746737731592
20
-32.0857977616277
30
0
41
1
10
8.11986620798081
20
-32.0798488440216
30
0
41
1
10
8.16389317804953
20
-32.064706920152
30
0
41
1
10
8.18528846274671
20
-32.0555800126653
30
0
41
1
10
8.22634231844728
20
-32.0351254553593
30
0
41
1
10
8.24613392542204
20
-32.0237505184414
30
0
41
1
10
8.30371781186983
20
-31.9868208032244
30
0
41
1
10
8.33988952841833
20
-31.9583115912569
30
0
41
1
10
8.40710622505594
20
-31.8978141679215
30
0
41
1
10
8.4384447014462
20
-31.8656373515269
30
0
41
1
10
8.49799867961855
20
-31.7985902794045
30
0
41
1
10
8.52619831566881
20
-31.7637068892834
30
0
41
1
10
8.58024342946277
20
-31.6918743382453
30
0
41
1
10
8.60601796005284
20
-31.6549950418558
30
0
41
1
10
8.67979410392633
20
-31.5431150787497
30
0
41
1
10
8.72464290155074
20
-31.4664584295468
30
0
41
1
10
8.850694136247
20
-31.2322000587025
30
0
41
1
10
8.92355666254025
20
-31.0703768465969
30
0
41
1
10
9.02256978310845
20
-30.8218670169271
30
0
41
1
10
9.05377431592126
20
-30.7380306639733
30
0
41
1
10
9.11300670472218
20
-30.5685248711677
30
0
41
1
10
9.14100132253731
20
-30.4829177553809
30
0
41
1
10
9.21999314728083
20
-30.2254392599913
30
0
41
1
10
9.26628332839664
20
-30.0522620012379
30
0
41
1
10
9.347119365656
20
-29.7029921708388
30
0
41
1
10
9.38164463945549
20
-29.5268964503865
30
0
41
1
10
9.43846880710134
20
-29.1716785086504
30
0
41
1
10
9.46076951337062
20
-28.9925567911132
30
0
41
1
10
9.49152408925625
20
-28.6309792026127
30
0
41
1
10
9.50000000000011
20
-28.4485272715536
30
0
41
1
10
9.50000000000011
20
-28.2641241293674
30
0
0
SPLINE
5
3A6
100
AcDbEntity
8
1
62
256
6
ByLayer
370
18
48
1
60
0
100
AcDbSpline
70
4
71
3
72
28
73
24
40
0
40
0
40
0
40
0
40
0.125000000000008
40
0.125000000000008
40
0.187500000000014
40
0.187500000000014
40
0.25000000000002
40
0.25000000000002
40
0.375000000000028
40
0.375000000000028
40
0.43750000000003
40
0.43750000000003
40
0.500000000000032
40
0.500000000000032
40
0.625000000000026
40
0.625000000000026
40
0.750000000000021
40
0.750000000000021
40
0.812500000000012
40
0.812500000000012
40
0.875000000000003
40
0.875000000000003
40
1
40
1
40
1
40
1
41
1
10
11.5
20
-32.8882879230803
30
0
41
1
10
11.5667912480819
20
-32.8882879230803
30
0
41
1
10
11.6324389576208
20
-32.8820997045426
30
0
41
1
10
11.7292662176399
20
-32.8639044303239
30
0
41
1
10
11.7612658157491
20
-32.8563421630898
30
0
41
1
10
11.8246994762579
20
-32.8381454135604
30
0
41
1
10
11.856154263848
20
-32.8274793588021
30
0
41
1
10
11.9475464855246
20
-32.7915639828638
30
0
41
1
10
12.005273111458
20
-32.7622528256002
30
0
41
1
10
12.0870982659793
20
-32.7102353604012
30
0
41
1
10
12.1137110024601
20
-32.6914317696884
30
0
41
1
10
12.1645218940426
20
-32.6516074109416
30
0
41
1
10
12.1886826365751
20
-32.630643409085
30
0
41
1
10
12.2575458277151
20
-32.5646754307274
30
0
41
1
10
12.2986627631357
20
-32.5166241199378
30
0
41
1
10
12.3710906401664
20
-32.4120923587368
30
0
41
1
10
12.4014067160725
20
-32.356980971234
30
0
41
1
10
12.438061945435
20
-32.2709303801284
30
0
41
1
10
12.4488270426032
20
-32.2416396602233
30
0
41
1
10
12.4674154435461
20
-32.1818218834909
30
0
41
1
10
12.4752537967684
20
-32.1511610310037
30
0
41
1
10
12.4938746607691
20
-32.0590950205755
30
0
41
1
10
12.5000000000001
20
-31.9971644535061
30
0
41
1
10
12.5
20
-31.9346858562711
30
0
0
SPLINE
5
3A7
100
AcDbEntity
8
1
62
256
6
ByLayer
370
18
48
1
60
0
100
AcDbSpline
70
4
71
3
72
26
73
22
40
0
40
0
40
0
40
0
40
0.124999999999993
40
0.124999999999993
40
0.249999999999986
40
0.249999999999986
40
0.312499999999982
40
0.312499999999982
40
0.374999999999977
40
0.374999999999977
40
0.499999999999981
40
0.499999999999981
40
0.624999999999985
40
0.624999999999985
40
0.687499999999988
40
0.687499999999988
40
0.749999999999991
40
0.749999999999991
40
0.874999999999996
40
0.874999999999996
40
1
40
1
40
1
40
1
41
1
10
3.5
20
-31.9346858562716
30
0
41
1
10
3.5
20
-31.9971494537774
30
0
41
1
10
3.50632169093598
20
-32.0603621150456
30
0
41
1
10
3.53110778129201
20
-32.1823136763184
30
0
41
1
10
3.54949113882327
20
-32.2416623406547
30
0
41
1
10
3.58632640808924
20
-32.328207542793
30
0
41
1
10
3.60024008585532
20
-32.3567618937609
30
0
41
1
10
3.63066571820554
20
-32.4118501377416
30
0
41
1
10
3.64721353830191
20
-32.438504981816
30
0
41
1
10
3.70079984205967
20
-32.5158583835214
30
0
41
1
10
3.7417422772096
20
-32.5639708384188
30
0
41
1
10
3.83463223583584
20
-32.6530005970975
30
0
41
1
10
3.88515234009731
20
-32.6925211341141
30
0
41
1
10
3.96648200585594
20
-32.7443330847333
30
0
41
1
10
3.99454270617042
20
-32.7603680752737
30
0
41
1
10
4.05261304256385
20
-32.7899163140436
30
0
41
1
10
4.08276254341024
20
-32.8034702071831
30
0
41
1
10
4.17424100021765
20
-32.8394333570749
30
0
41
1
10
4.23707639465272
20
-32.8574976150783
30
0
41
1
10
4.36641405755637
20
-32.8819646742013
30
0
41
1
10
4.43323602923232
20
-32.8882879230805
30
0
41
1
10
4.5
20
-32.8882879230805
30
0
0
SPLINE
5
3A8
100
AcDbEntity
8
1
62
256
6
ByLayer
370
18
48
1
60
0
100
AcDbSpline
70
4
71
3
72
14
73
10
40
0
40
0
40
0
40
0
40
0.25
40
0.25
40
0.5
40
0.5
40
0.75
40
0.75
40
1
40
1
40
1
40
1
41
1
10
6.5
20
-25.0348543348527
30
0
41
1
10
6.5
20
-25.0193980685887
30
0
41
1
10
6.50193240276644
20
-25.004215027989
30
0
41
1
10
6.50992101868883
20
-24.9744308394977
30
0
41
1
10
6.51588007606
20
-24.9602214575037
30
0
41
1
10
6.53249288189608
20
-24.9342035340538
30
0
41
1
10
6.54314406706357
20
-24.9225345217882
30
0
41
1
10
6.56906007819578
20
-24.9054481907941
30
0
41
1
10
6.58427243281426
20
-24.9002892287926
30
0
41
1
10
6.60000000000002
20
-24.9002892287926
30
0
0
SPLINE
5
3A9
100
AcDbEntity
8
1
62
256
6
ByLayer
370
18
48
1
60
0
100
AcDbSpline
70
4
71
3
72
14
73
10
40
0
40
0
40
0
40
0
40
0.25
40
0.25
40
0.5
40
0.5
40
0.75
40
0.75
40
1
40
1
40
1
40
1
41
1
10
9.39999999999998
20
-24.9002892287926
30
0
41
1
10
9.41573060656208
20
-24.9002892287926
30
0
41
1
10
9.43092093939595
20
-24.9054437666256
30
0
41
1
10
9.45680770084954
20
-24.9224946526692
30
0
41
1
10
9.46742296695146
20
-24.9340871164571
30
0
41
1
10
9.48412818950328
20
-24.9602190976078
30
0
41
1
10
9.49003774256005
20
-24.9743160974111
30
0
41
1
10
9.4980522151908
20
-25.0041189440686
30
0
41
1
10
9.50000000000392
20
-25.0193973449602
30
0
41
1
10
9.50000000000404
20
-25.0348543348518
30
0
0
SPLINE
5
3AA
100
AcDbEntity
8
1
62
256
6
ByLayer
370
18
48
1
60
0
100
AcDbSpline
70
4
71
3
72
16
73
12
40
0
40
0
40
0
40
0
40
0.25
40
0.25
40
0.5
40
0.5
40
0.75
40
0.75
40
0.875
40
0.875
40
1
40
1
40
1
40
1
41
1
10
4.5
20
-36.9674825876809
30
0
41
1
10
4.45538667470811
20
-36.9674825876809
30
0
41
1
10
4.41127785358083
20
-36.964692759838
30
0
41
1
10
4.32406472246299
20
-36.9540389136155
30
0
41
1
10
4.28095989066623
20
-36.9461653381882
30
0
41
1
10
4.19587666855034
20
-36.9262035475861
30
0
41
1
10
4.15349999619394
20
-36.9139023993438
30
0
41
1
10
4.09365103697524
20
-36.8947355571671
30
0
41
1
10
4.07412114997737
20
-36.8881802532604
30
0
41
1
10
4.0371713182135
20
-36.8759245696838
30
0
41
1
10
4.01992714878952
20
-36.8702495002759
30
0
41
1
10
4.00456641341151
20
-36.866104229577
30
0
0
SPLINE
5
3AB
100
AcDbEntity
8
1
62
256
6
ByLayer
370
18
48
1
60
0
100
AcDbSpline
70
4
71
3
72
10
73
6
40
0
40
0
40
0
40
0
40
0.5
40
0.5
40
1
40
1
40
1
40
1
41
1
10
4.00456641341145
20
-36.866104229577
30
0
41
1
10
3.94357394949941
20
-36.849644713331
30
0
41
1
10
3.89183603325972
20
-36.831727309255
30
0
41
1
10
3.80030539386587
20
-36.7940107503955
30
0
41
1
10
3.76058648279349
20
-36.774151840766
30
0
41
1
10
3.72570844085487
20
-36.7536328393737
30
0
0
SPLINE
5
3AC
100
AcDbEntity
8
1
62
256
6
ByLayer
370
18
48
1
60
0
100
AcDbSpline
70
4
71
3
72
20
73
16
40
0
40
0
40
0
40
0
40
0.250000000000005
40
0.250000000000005
40
0.500000000000011
40
0.500000000000011
40
0.625000000000013
40
0.625000000000013
40
0.750000000000016
40
0.750000000000016
40
0.875000000000019
40
0.875000000000019
40
0.937500000000009
40
0.937500000000009
40
1
40
1
40
1
40
1
41
1
10
3.72570844086363
20
-36.7536328393836
30
0
41
1
10
3.70009970844302
20
-36.7038548470915
30
0
41
1
10
3.67492498635897
20
-36.6510903383518
30
0
41
1
10
3.62623923702637
20
-36.5376816575889
30
0
41
1
10
3.60287622028994
20
-36.4775042240183
30
0
41
1
10
3.57055944338845
20
-36.3795080792754
30
0
41
1
10
3.56035489846101
20
-36.3458482256465
30
0
41
1
10
3.54145248497878
20
-36.2758892538418
30
0
41
1
10
3.532738867631
20
-36.239578576661
30
0
41
1
10
3.51752975705506
20
-36.1632297168735
30
0
41
1
10
3.51126728316802
20
-36.1243473499518
30
0
41
1
10
3.50462947508407
20
-36.0645700832762
30
0
41
1
10
3.50289548514348
20
-36.0444136891891
30
0
41
1
10
3.5005914700817
20
-36.0049795338512
30
0
41
1
10
3.49999999999994
20
-35.985532036658
30
0
41
1
10
3.49999999999994
20
-35.9663689964377
30
0
0
SPLINE
5
3AD
100
AcDbEntity
8
1
62
256
6
ByLayer
370
18
48
1
60
0
100
AcDbSpline
70
4
71
3
72
24
73
20
40
0
40
0
40
0
40
0
40
0.0624999999999896
40
0.0624999999999896
40
0.124999999999979
40
0.124999999999979
40
0.24999999999998
40
0.24999999999998
40
0.31249999999999
40
0.31249999999999
40
0.374999999999999
40
0.374999999999999
40
0.500000000000002
40
0.500000000000002
40
0.625000000000006
40
0.625000000000006
40
0.750000000000009
40
0.750000000000009
40
1
40
1
40
1
40
1
41
1
10
12.5
20
-35.9663689964377
30
0
41
1
10
12.5
20
-35.9857308623783
30
0
41
1
10
12.4993963642985
20
-36.0053304768551
30
0
41
1
10
12.4970632968246
20
-36.0449731129292
30
0
41
1
10
12.4953140165562
20
-36.0651764854769
30
0
41
1
10
12.4886237524753
20
-36.1251286639359
30
0
41
1
10
12.4823368493908
20
-36.1639819705831
30
0
41
1
10
12.4709411903318
20
-36.2210625474123
30
0
41
1
10
12.4668019021597
20
-36.2399020111188
30
0
41
1
10
12.4581183504426
20
-36.2765243447477
30
0
41
1
10
12.4535545105421
20
-36.2944099764066
30
0
41
1
10
12.4393090616778
20
-36.3470053923149
30
0
41
1
10
12.4290792419889
20
-36.3806646555787
30
0
41
1
10
12.4075280918775
20
-36.445891550406
30
0
41
1
10
12.3961923245843
20
-36.4774587404323
30
0
41
1
10
12.373063199073
20
-36.5378953187166
30
0
41
1
10
12.3612140478359
20
-36.5669302921766
30
0
41
1
10
12.3249932473389
20
-36.6512354442497
30
0
41
1
10
12.2999573910698
20
-36.703743857644
30
0
41
1
10
12.2742915591402
20
-36.7536328393783
30
0
0
SPLINE
5
3AE
100
AcDbEntity
8
1
62
256
6
ByLayer
370
18
48
1
60
0
100
AcDbSpline
70
4
71
3
72
12
73
8
40
0
40
0
40
0
40
0
40
0.499999999999996
40
0.499999999999996
40
0.749999999999998
40
0.749999999999998
40
1
40
1
40
1
40
1
41
1
10
12.2742915591398
20
-36.7536328393768
30
0
41
1
10
12.2398355820632
20
-36.7739035369934
30
0
41
1
10
12.2005268912951
20
-36.7936375028009
30
0
41
1
10
12.1315016594342
20
-36.8221255277239
30
0
41
1
10
12.1067619319126
20
-36.8314377486138
30
0
41
1
10
12.0539265632297
20
-36.849317579199
30
0
41
1
10
12.025761572372
20
-36.8579198746152
30
0
41
1
10
11.9954335865906
20
-36.8661042295774
30
0
0
SPLINE
5
3AF
100
AcDbEntity
8
1
62
256
6
ByLayer
370
18
48
1
60
0
100
AcDbSpline
70
4
71
3
72
16
73
12
40
0
40
0
40
0
40
0
40
0.125000000000006
40
0.125000000000006
40
0.250000000000012
40
0.250000000000012
40
0.500000000000008
40
0.500000000000008
40
0.750000000000004
40
0.750000000000004
40
1
40
1
40
1
40
1
41
1
10
11.9954335865887
20
-36.866104229577
30
0
41
1
10
11.9800746835011
20
-36.8702490058113
30
0
41
1
10
11.9628733067417
20
-36.8759102409942
30
0
41
1
10
11.9260832228849
20
-36.8881119964342
30
0
41
1
10
11.9065112048648
20
-36.8946813967889
30
0
41
1
10
11.8468891305437
20
-36.9137821445085
30
0
41
1
10
11.8049107969393
20
-36.9259993079399
30
0
41
1
10
11.7193630126994
20
-36.9461088174151
30
0
41
1
10
11.6761021412512
20
-36.9540155165203
30
0
41
1
10
11.5887071748285
20
-36.9646975967502
30
0
41
1
10
11.5445725452785
20
-36.9674825876897
30
0
41
1
10
11.5000000000014
20
-36.9674825876898
30
0
0
SPLINE
5
3B0
100
AcDbEntity
8
1
62
256
6
ByLayer
370
18
48
1
60
0
100
AcDbSpline
70
4
71
3
72
18
73
14
40
0
40
0
40
0
40
0
40
0.125000000000007
40
0.125000000000007
40
0.250000000000014
40
0.250000000000014
40
0.375000000000021
40
0.375000000000021
40
0.500000000000028
40
0.500000000000028
40
0.750000000000014
40
0.750000000000014
40
1
40
1
40
1
40
1
41
1
10
7.58866871043682
20
34.6047025258288
30
0
41
1
10
7.59491764213868
20
34.5938839337305
30
0
41
1
10
7.60230403016129
20
34.5832827726056
30
0
41
1
10
7.61864345579806
20
34.5635173839293
30
0
41
1
10
7.62762443940159
20
34.5542669022749
30
0
41
1
10
7.6471753912499
20
34.5370002784447
30
0
41
1
10
7.65776267080849
20
34.5290029044003
30
0
41
1
10
7.67967829206924
20
34.5148106906698
30
0
41
1
10
7.69110224180298
20
34.5085249163314
30
0
41
1
10
7.72672398990005
20
34.4920174904955
30
0
41
1
10
7.75139421241141
20
34.4845335511915
30
0
41
1
10
7.80126395561899
20
34.4761104552007
30
0
41
1
10
7.82576265885962
20
34.4752723105033
30
0
41
1
10
7.8495387293583
20
34.4774593592126
30
0
0
SPLINE
5
3B1
100
AcDbEntity
8
1
62
256
6
ByLayer
370
18
48
1
60
0
100
AcDbSpline
70
4
71
3
72
26
73
22
40
0
40
0
40
0
40
0
40
0.0037937620876886
40
0.0037937620876886
40
0.0804250111578814
40
0.0804250111578814
40
0.233687509298248
40
0.233687509298248
40
0.310318758368426
40
0.310318758368426
40
0.386950007438604
40
0.386950007438604
40
0.540212505578944
40
0.540212505578944
40
0.616843754649118
40
0.616843754649118
40
0.693475003719292
40
0.693475003719292
40
0.846737501859646
40
0.846737501859646
40
1
40
1
40
1
40
1
41
1
10
8.42711054237094
20
34.2334543387477
30
0
41
1
10
8.42672704245064
20
34.2340366123705
30
0
41
1
10
8.42634149230184
20
34.2346186755653
30
0
41
1
10
8.41812446295216
20
34.2469535763156
30
0
41
1
10
8.40941996507399
20
34.25865123966
30
0
41
1
10
8.3811619712979
20
34.2927586696813
30
0
41
1
10
8.35935164839714
20
34.3144444669936
30
0
41
1
10
8.32144832455543
20
34.345449141218
30
0
41
1
10
8.3079965659079
20
34.3554643236715
30
0
41
1
10
8.28011715250432
20
34.3743674610249
30
0
41
1
10
8.26559996569847
20
34.3833310493094
30
0
41
1
10
8.22030531016196
20
34.4087618778339
30
0
41
1
10
8.18731092784492
20
34.4239129393853
30
0
41
1
10
8.13709513120386
20
34.4424170103071
30
0
41
1
10
8.12016082256832
20
34.4479363503403
30
0
41
1
10
8.08590764545227
20
34.4577106628907
30
0
41
1
10
8.06849562639189
20
34.4619797686237
30
0
41
1
10
8.01680398008136
20
34.4726649672257
30
0
41
1
10
7.98280426960417
20
34.4770868415657
30
0
41
1
10
7.91543626908992
20
34.4809988642633
30
0
41
1
10
7.88197928704631
20
34.4804434132777
30
0
41
1
10
7.84953872935836
20
34.4774593592126
30
0
0
SPLINE
5
3B2
100
AcDbEntity
8
1
62
256
6
ByLayer
370
18
48
1
60
0
100
AcDbSpline
70
4
71
3
72
18
73
14
40
0
40
0
40
0
40
0
40
0.125000000000001
40
0.125000000000001
40
0.250000000000001
40
0.250000000000001
40
0.375000000000002
40
0.375000000000002
40
0.500000000000002
40
0.500000000000002
40
0.750000000000001
40
0.750000000000001
40
1
40
1
40
1
40
1
41
1
10
9.81232041545837
20
34.6097951023277
30
0
41
1
10
9.81908664421655
20
34.620655627044
30
0
41
1
10
9.8250416901106
20
34.6320836475148
30
0
41
1
10
9.83477060671828
20
34.6549863774344
30
0
41
1
10
9.83860879472718
20
34.6665310229237
30
0
41
1
10
9.84427744593631
20
34.6897955464407
30
0
41
1
10
9.84608157356058
20
34.7015168623381
30
0
41
1
10
9.84760080073232
20
34.7242271511763
30
0
41
1
10
9.84734993245297
20
34.7353343103346
30
0
41
1
10
9.84366157866606
20
34.7679068433747
30
0
41
1
10
9.83739550222163
20
34.7878372598502
30
0
41
1
10
9.81838587897363
20
34.8234802216962
30
0
41
1
10
9.80592493076762
20
34.8387055214749
30
0
41
1
10
9.79097303204242
20
34.8513225093765
30
0
0
SPLINE
5
3B3
100
AcDbEntity
8
1
62
256
6
ByLayer
370
18
48
1
60
0
100
AcDbSpline
70
4
71
3
72
14
73
10
40
0
40
0
40
0
40
0
40
0.25
40
0.25
40
0.5
40
0.5
40
0.75
40
0.75
40
1
40
1
40
1
40
1
41
1
10
9.66005394538251
20
35.1473308065292
30
0
41
1
10
9.66064699089566
20
35.115061879405
30
0
41
1
10
9.66423968538538
20
35.084613552976
30
0
41
1
10
9.67691960127183
20
35.0268775812862
30
0
41
1
10
9.68613533138267
20
34.9994947792753
30
0
41
1
10
9.70894350832913
20
34.9498680094812
30
0
41
1
10
9.7226469379716
20
34.9271784461086
30
0
41
1
10
9.75412077584082
20
34.8859227740583
30
0
41
1
10
9.77167383430941
20
34.8676079155836
30
0
41
1
10
9.79097303204225
20
34.8513225093766
30
0
0
SPLINE
5
3B4
100
AcDbEntity
8
1
62
256
6
ByLayer
370
18
48
1
60
0
100
AcDbSpline
70
4
71
3
72
16
73
12
40
0
40
0
40
0
40
0
40
0.25
40
0.25
40
0.5
40
0.5
40
0.75
40
0.75
40
0.875
40
0.875
40
1
40
1
40
1
40
1
41
1
10
9.80756662999471
20
35.5566599963014
30
0
41
1
10
9.78730059015516
20
35.5314297709681
30
0
41
1
10
9.76879385039814
20
35.5047270925804
30
0
41
1
10
9.73532707481451
20
35.4482185044857
30
0
41
1
10
9.72024788714498
20
35.418131897633
30
0
41
1
10
9.69462943033921
20
35.355645864119
30
0
41
1
10
9.68419092924745
20
35.3236180096753
30
0
41
1
10
9.67237562862351
20
35.2742949709261
30
0
41
1
10
9.66907303095206
20
35.2575484883272
30
0
41
1
10
9.66396872273646
20
35.2242424169117
30
0
41
1
10
9.66214981358712
20
35.2076447016996
30
0
41
1
10
9.66108381855446
20
35.191107216988
30
0
0
SPLINE
5
3B5
100
AcDbEntity
8
1
62
256
6
ByLayer
370
18
48
1
60
0
100
AcDbSpline
70
4
71
3
72
20
73
16
40
0
40
0
40
0
40
0
40
0.250000000000033
40
0.250000000000033
40
0.375000000000028
40
0.375000000000028
40
0.500000000000022
40
0.500000000000022
40
0.625000000000017
40
0.625000000000017
40
0.750000000000011
40
0.750000000000011
40
0.875000000000006
40
0.875000000000006
40
1
40
1
40
1
40
1
41
1
10
7.63680262766616
20
34.8463890579953
30
0
41
1
10
7.61901334187235
20
34.8336650317826
30
0
41
1
10
7.60387580243429
20
34.8184506993913
30
0
41
1
10
7.58555361514811
20
34.791682656177
30
0
41
1
10
7.58022735856838
20
34.7821077687553
30
0
41
1
10
7.57154266633586
20
34.7622596626497
30
0
41
1
10
7.56812577788719
20
34.7519096114288
30
0
41
1
10
7.56326418197438
20
34.7303248703474
30
0
41
1
10
7.56182690546427
20
34.7189679134308
30
0
41
1
10
7.56120040135153
20
34.6961717332152
30
0
41
1
10
7.56197533432879
20
34.6846808622285
30
0
41
1
10
7.56576804710937
20
34.6615211509097
30
0
41
1
10
7.56884223646085
20
34.6497176912574
30
0
41
1
10
7.57716866720602
20
34.6267501835853
30
0
41
1
10
7.58238996776481
20
34.6155727287851
30
0
41
1
10
7.58866871043682
20
34.6047025258288
30
0
0
SPLINE
5
3B6
100
AcDbEntity
8
1
62
256
6
ByLayer
370
18
48
1
60
0
100
AcDbSpline
70
4
71
3
72
18
73
14
40
0
40
0
40
0
40
0
40
0.125
40
0.125
40
0.249999999999999
40
0.249999999999999
40
0.374999999999999
40
0.374999999999999
40
0.499999999999999
40
0.499999999999999
40
0.749999999999999
40
0.749999999999999
40
1
40
1
40
1
40
1
41
1
10
7.61776368275508
20
35.8414309747084
30
0
41
1
10
7.6109974539969
20
35.8305704499921
30
0
41
1
10
7.6051329543094
20
35.8188370603954
30
0
41
1
10
7.59575820621745
20
35.7947398891608
30
0
41
1
10
7.59218202635878
20
35.7823116152697
30
0
41
1
10
7.58720677539532
20
35.75670858377
30
0
41
1
10
7.58583625958352
20
35.7435249022457
30
0
41
1
10
7.5853209404828
20
35.7174289107737
30
0
41
1
10
7.58614518187534
20
35.7043880378465
30
0
41
1
10
7.59177023550956
20
35.6652839408485
30
0
41
1
10
7.5995680804071
20
35.6401876006836
30
0
41
1
10
7.62205331460166
20
35.5928230624547
30
0
41
1
10
7.63640880956007
20
35.5712083609823
30
0
41
1
10
7.65339622561862
20
35.5517265449201
30
0
0
SPLINE
5
3B7
100
AcDbEntity
8
1
62
256
6
ByLayer
370
18
48
1
60
0
100
AcDbSpline
70
4
71
3
72
14
73
10
40
0
40
0
40
0
40
0
40
0.25
40
0.25
40
0.5
40
0.5
40
0.75
40
0.75
40
1
40
1
40
1
40
1
41
1
10
7.80473397992279
20
35.1868558301631
30
0
41
1
10
7.80391610222932
20
35.2198830088915
30
0
41
1
10
7.79960450025391
20
35.2527558670461
30
0
41
1
10
7.78464746023929
20
35.3181714912666
30
0
41
1
10
7.77385560832204
20
35.3508697996522
30
0
41
1
10
7.74735590085248
20
35.4129463394756
30
0
41
1
10
7.73151825709408
20
35.4428335881367
30
0
41
1
10
7.69537716963174
20
35.4998296648079
30
0
41
1
10
7.67532277203981
20
35.5265803459465
30
0
41
1
10
7.65339622561862
20
35.5517265449201
30
0
0
SPLINE
5
3B8
100
AcDbEntity
8
1
62
256
6
ByLayer
370
18
48
1
60
0
100
AcDbSpline
70
4
71
3
72
16
73
12
40
0
40
0
40
0
40
0
40
0.25
40
0.25
40
0.5
40
0.5
40
0.75
40
0.75
40
0.875
40
0.875
40
1
40
1
40
1
40
1
41
1
10
7.63680262766616
20
34.8463890579953
30
0
41
1
10
7.65969470207
20
34.862762922475
30
0
41
1
10
7.68068845530905
20
34.8810780917475
30
0
41
1
10
7.71877645271604
20
34.9220015049137
30
0
41
1
10
7.73600780902632
20
34.9448298744381
30
0
41
1
10
7.76534310756824
20
34.9947807752853
30
0
41
1
10
7.77732950366641
20
35.0215883188743
30
0
41
1
10
7.79087245522067
20
35.0650848158575
30
0
41
1
10
7.79465243548549
20
35.0802213148827
30
0
41
1
10
7.80046911236553
20
35.1111249068952
30
0
41
1
10
7.80252555596343
20
35.1269215318168
30
0
41
1
10
7.80370410675084
20
35.1430794197044
30
0
0
SPLINE
5
3B9
100
AcDbEntity
8
1
62
256
6
ByLayer
370
18
48
1
60
0
100
AcDbSpline
70
4
71
3
72
18
73
14
40
0
40
0
40
0
40
0
40
0.125
40
0.125
40
0.25
40
0.25
40
0.375
40
0.375
40
0.5
40
0.5
40
0.75
40
0.75
40
1
40
1
40
1
40
1
41
1
10
9.84141538777664
20
35.8465235512072
30
0
41
1
10
9.83516645607477
20
35.8573421433055
30
0
41
1
10
9.82787041680751
20
35.8676386012133
30
0
41
1
10
9.81188427468226
20
35.8862125332714
30
0
41
1
10
9.8031646597147
20
35.8945815433003
30
0
41
1
10
9.78430553442325
20
35.9095149664486
30
0
41
1
10
9.77415081977813
20
35.9160535055568
30
0
41
1
10
9.75323677373262
20
35.9268678842621
30
0
41
1
10
9.74238491509345
20
35.9312242684684
30
0
41
1
10
9.70869572738667
20
35.9412140907586
30
0
41
1
10
9.6855539021131
20
35.9435434758729
30
0
41
1
10
9.63915293300323
20
35.9402680529078
30
0
41
1
10
9.61654521283526
20
35.9347288145017
30
0
41
1
10
9.59480118365957
20
35.9256886605549
30
0
0
SPLINE
5
3BA
100
AcDbEntity
8
1
62
256
6
ByLayer
370
18
48
1
60
0
100
AcDbSpline
70
4
71
3
72
20
73
16
40
0
40
0
40
0
40
0
40
0.250000000000042
40
0.250000000000042
40
0.375000000000035
40
0.375000000000035
40
0.500000000000028
40
0.500000000000028
40
0.625000000000021
40
0.625000000000021
40
0.750000000000014
40
0.750000000000014
40
0.875000000000007
40
0.875000000000007
40
1
40
1
40
1
40
1
41
1
10
8.9689851831356
20
36.2764622890986
30
0
41
1
10
8.96214244469621
20
36.3015794474942
30
0
41
1
10
8.95203887404824
20
36.3253507432332
30
0
41
1
10
8.93156382880449
20
36.3587783026432
30
0
41
1
10
8.92383935829304
20
36.3694979387367
30
0
41
1
10
8.90704401966593
20
36.3893544451662
30
0
41
1
10
8.89791628016599
20
36.3985934392034
30
0
41
1
10
8.87811176763483
20
36.4156055696419
30
0
41
1
10
8.86731014671909
20
36.4234411167513
30
0
41
1
10
8.84484025167399
20
36.4369370216689
30
0
41
1
10
8.83313554959466
20
36.4426603439438
30
0
41
1
10
8.80875974713479
20
36.4519998148641
30
0
41
1
10
8.79593495841971
20
36.4556368219497
30
0
41
1
10
8.7701349827575
20
36.4604160317806
30
0
41
1
10
8.75716294233524
20
36.4615947824499
30
0
41
1
10
8.74411875182659
20
36.4615649088246
30
0
0
SPLINE
5
3BB
100
AcDbEntity
8
1
62
256
6
ByLayer
370
18
48
1
60
0
100
AcDbSpline
70
4
71
3
72
28
73
24
40
0
40
0
40
0
40
0
40
0.125000000000013
40
0.125000000000013
40
0.187500000000019
40
0.187500000000019
40
0.250000000000026
40
0.250000000000026
40
0.375000000000019
40
0.375000000000019
40
0.437500000000018
40
0.437500000000018
40
0.500000000000017
40
0.500000000000017
40
0.625000000000014
40
0.625000000000014
40
0.687500000000009
40
0.687500000000009
40
0.750000000000005
40
0.750000000000005
40
0.875000000000003
40
0.875000000000003
40
1
40
1
40
1
40
1
41
1
10
8.9689851831356
20
36.2764622890986
30
0
41
1
10
8.97829187638564
20
36.2423008651932
30
0
41
1
10
8.9902934821161
20
36.2091920948758
30
0
41
1
10
9.01257695189543
20
36.1611530283348
30
0
41
1
10
9.0207234924747
20
36.1454124922275
30
0
41
1
10
9.03857497251113
20
36.114511674976
30
0
41
1
10
9.04831674223374
20
36.0993157889186
30
0
41
1
10
9.07939954478815
20
36.0556816275199
30
0
41
1
10
9.10273891231543
20
36.0288390926851
30
0
41
1
10
9.1422414883408
20
35.9924409043672
30
0
41
1
10
9.15610432372546
20
35.9810393563374
30
0
41
1
10
9.1845295080858
20
35.9602955941115
30
0
41
1
10
9.19918553259083
20
35.9508637725522
30
0
41
1
10
9.24448737458988
20
35.9254087075212
30
0
41
1
10
9.27691643357042
20
35.9121642116855
30
0
41
1
10
9.32555186405921
20
35.8989899612913
30
0
41
1
10
9.34184047320565
20
35.8956482573628
30
0
41
1
10
9.3745876086154
20
35.8909531044679
30
0
41
1
10
9.39113355105917
20
35.8896048616772
30
0
41
1
10
9.43999706368697
20
35.8884576077691
30
0
41
1
10
9.4718015434014
20
35.8914391987365
30
0
41
1
10
9.53433113450757
20
35.9038448210009
30
0
41
1
10
9.56513318478528
20
35.9133540893052
30
0
41
1
10
9.59480118366179
20
35.9256886605558
30
0
0
SPLINE
5
3BC
100
AcDbEntity
8
1
62
256
6
ByLayer
370
18
48
1
60
0
100
AcDbSpline
70
4
71
3
72
20
73
16
40
0
40
0
40
0
40
0
40
0.250000000000005
40
0.250000000000005
40
0.375000000000004
40
0.375000000000004
40
0.500000000000004
40
0.500000000000004
40
0.625000000000003
40
0.625000000000003
40
0.750000000000002
40
0.750000000000002
40
0.875000000000001
40
0.875000000000001
40
1
40
1
40
1
40
1
41
1
10
7.88351721804724
20
35.9217695015938
30
0
41
1
10
7.85994305865569
20
35.9307287239703
30
0
41
1
10
7.83567810581735
20
35.936123287329
30
0
41
1
10
7.79822678935005
20
35.9384268984709
30
0
41
1
10
7.78560145792176
20
35.9381893507527
30
0
41
1
10
7.76090215822171
20
35.9356617821639
30
0
41
1
10
7.74871674375981
20
35.9333835439698
30
0
41
1
10
7.72470506153974
20
35.9266807177826
30
0
41
1
10
7.71276332666548
20
35.9221879098765
30
0
41
1
10
7.69017211795136
20
35.9112228035344
30
0
41
1
10
7.67945311254795
20
35.9047565121112
30
0
41
1
10
7.65920635342559
20
35.8898062928491
30
0
41
1
10
7.64958156880977
20
35.8812062542341
30
0
41
1
10
7.63226509207544
20
35.8624496459693
30
0
41
1
10
7.62454561703299
20
35.8523167084727
30
0
41
1
10
7.61776368275508
20
35.8414309747084
30
0
0
SPLINE
5
3BD
100
AcDbEntity
8
1
62
256
6
ByLayer
370
18
48
1
60
0
100
AcDbSpline
70
4
71
3
72
18
73
14
40
0
40
0
40
0
40
0
40
0.125000000000011
40
0.125000000000011
40
0.250000000000021
40
0.250000000000021
40
0.375000000000032
40
0.375000000000032
40
0.500000000000043
40
0.500000000000043
40
0.750000000000021
40
0.750000000000021
40
1
40
1
40
1
40
1
41
1
10
8.74411875182659
20
36.4615649088246
30
0
41
1
10
8.73112076437735
20
36.4615351410128
30
0
41
1
10
8.71793002549072
20
36.4602660546841
30
0
41
1
10
8.69241303321041
20
36.4553748450737
30
0
41
1
10
8.6799948773554
20
36.4517746149429
30
0
41
1
10
8.65582828463033
20
36.4423097468224
30
0
41
1
10
8.64408743171418
20
36.4364149842996
30
0
41
1
10
8.62215500797231
20
36.4228624004094
30
0
41
1
10
8.61183862705155
20
36.4151623580717
30
0
41
1
10
8.58279534655497
20
36.38936706756
30
0
41
1
10
8.56665927253135
20
36.3692083992709
30
0
41
1
10
8.54095511201734
20
36.3244823267358
30
0
41
1
10
8.53171755717148
20
36.3005298458901
30
0
41
1
10
8.52590597729647
20
36.2754475552058
30
0
0
SPLINE
5
3BE
100
AcDbEntity
8
1
62
256
6
ByLayer
370
18
48
1
60
0
100
AcDbSpline
70
4
71
3
72
28
73
24
40
0
40
0
40
0
40
0
40
0.124999999999997
40
0.124999999999997
40
0.187499999999995
40
0.187499999999995
40
0.249999999999994
40
0.249999999999994
40
0.37499999999999
40
0.37499999999999
40
0.437499999999991
40
0.437499999999991
40
0.499999999999992
40
0.499999999999992
40
0.624999999999987
40
0.624999999999987
40
0.687499999999983
40
0.687499999999983
40
0.749999999999978
40
0.749999999999978
40
0.874999999999989
40
0.874999999999989
40
1
40
1
40
1
40
1
41
1
10
7.88351721804724
20
35.9217695015938
30
0
41
1
10
7.91558002146581
20
35.9095842193503
30
0
41
1
10
7.94830029846122
20
35.9003497231935
30
0
41
1
10
7.99853759941101
20
35.8912325219484
30
0
41
1
10
8.01547798687943
20
35.8889884709342
30
0
41
1
10
8.04980547301739
20
35.8862345392069
30
0
41
1
10
8.06724159263638
20
35.8857360210837
30
0
41
1
10
8.11912824070487
20
35.8870955158333
30
0
41
1
10
8.15351610889491
20
35.8917177690789
30
0
41
1
10
8.20485193328898
20
35.905146180581
30
0
41
1
10
8.22182472548269
20
35.9107098966391
30
0
41
1
10
8.25463529087341
20
35.9237641678774
30
0
41
1
10
8.27059732060968
20
35.9312845362934
30
0
41
1
10
8.31714644925552
20
35.9568472178941
30
0
41
1
10
8.34671783526369
20
35.9782677542206
30
0
41
1
10
8.38598342273815
20
36.0145441654339
30
0
41
1
10
8.39831927076074
20
36.0273568407115
30
0
41
1
10
8.42156454630742
20
36.0543536200177
30
0
41
1
10
8.43252225228025
20
36.068620504335
30
0
41
1
10
8.46267723132871
20
36.1124606180516
30
0
41
1
10
8.47940208298996
20
36.1432392994606
30
0
41
1
10
8.50706247934374
20
36.2075612019622
30
0
41
1
10
8.51797649653781
20
36.241224582168
30
0
41
1
10
8.52590597729704
20
36.2754475552083
30
0
0
LINE
5
70
100
AcDbEntity
8
80
62
256
6
ByLayer
370
18
48
1
60
0
100
AcDbLine
10
0
20
0
30
0
11
-5
21
0
31
0
39
0
210
0
220
0
230
1
0
LINE
5
71
100
AcDbEntity
8
1
62
256
6
ByLayer
370
18
48
1
60
0
100
AcDbLine
10
8.416743
20
-21.313408
30
0
11
8.555657
21
-21.295056
31
0
39
0
210
0
220
0
230
1
0
LINE
5
73
100
AcDbEntity
8
1
62
256
6
ByLayer
370
18
48
1
60
0
100
AcDbLine
10
3.475
20
-25.424525
30
0
11
3.500063
21
-25.424525
31
0
39
0
210
0
220
0
230
1
0
LINE
5
74
100
AcDbEntity
8
81
62
256
6
ByLayer
370
18
48
1
60
0
100
AcDbLine
10
13
20
40
30
0
11
18
21
40
31
0
39
0
210
0
220
0
230
1
0
LINE
5
75
100
AcDbEntity
8
1
62
256
6
ByLayer
370
18
48
1
60
0
100
AcDbLine
10
8.138442
20
19.023361
30
0
11
8.197368
21
18.543744
31
0
39
0
210
0
220
0
230
1
0
LINE
5
76
100
AcDbEntity
8
1
62
256
6
ByLayer
370
18
48
1
60
0
100
AcDbLine
10
3.500101
20
-5.112409
30
0
11
3.475
21
-5.112409
31
0
39
0
210
0
220
0
230
1
0
LINE
5
77
100
AcDbEntity
8
1
62
256
6
ByLayer
370
18
48
1
60
0
100
AcDbLine
10
3.500101
20
-4.736839
30
0
11
3.475
21
-4.736839
31
0
39
0
210
0
220
0
230
1
0
LINE
5
78
100
AcDbEntity
8
1
62
256
6
ByLayer
370
18
48
1
60
0
100
AcDbLine
10
3.500101
20
-4.361269
30
0
11
3.475
21
-4.361269
31
0
39
0
210
0
220
0
230
1
0
LINE
5
79
100
AcDbEntity
8
1
62
256
6
ByLayer
370
18
48
1
60
0
100
AcDbLine
10
3.500101
20
-5.863549
30
0
11
3.475
21
-5.863549
31
0
39
0
210
0
220
0
230
1
0
LINE
5
7A
100
AcDbEntity
8
1
62
256
6
ByLayer
370
18
48
1
60
0
100
AcDbLine
10
3.500101
20
-6.239119
30
0
11
3.475
21
-6.239119
31
0
39
0
210
0
220
0
230
1
0
LINE
5
7B
100
AcDbEntity
8
1
62
256
6
ByLayer
370
18
48
1
60
0
100
AcDbLine
10
3.500101
20
-5.487979
30
0
11
3.475
21
-5.487979
31
0
39
0
210
0
220
0
230
1
0
LINE
5
7C
100
AcDbEntity
8
1
62
256
6
ByLayer
370
18
48
1
60
0
100
AcDbLine
10
3.500101
20
-6.614689
30
0
11
3.475
21
-6.614689
31
0
39
0
210
0
220
0
230
1
0
LINE
5
7D
100
AcDbEntity
8
1
62
256
6
ByLayer
370
18
48
1
60
0
100
AcDbLine
10
3.500037
20
-6.990259
30
0
11
3.475
21
-6.990259
31
0
39
0
210
0
220
0
230
1
0
LINE
5
7E
100
AcDbEntity
8
1
62
256
6
ByLayer
370
18
48
1
60
0
100
AcDbLine
10
3.500015
20
-7.365829
30
0
11
3.475
21
-7.365829
31
0
39
0
210
0
220
0
230
1
0
LINE
5
7F
100
AcDbEntity
8
1
62
256
6
ByLayer
370
18
48
1
60
0
100
AcDbLine
10
3.500101
20
-7.741399
30
0
11
3.475
21
-7.741399
31
0
39
0
210
0
220
0
230
1
0
LINE
5
80
100
AcDbEntity
8
1
62
256
6
ByLayer
370
18
48
1
60
0
100
AcDbLine
10
12.5
20
-8.116969
30
0
11
12.469118
21
-8.116969
31
0
39
0
210
0
220
0
230
1
0
LINE
5
81
100
AcDbEntity
8
1
62
256
6
ByLayer
370
18
48
1
60
0
100
AcDbLine
10
3.530701
20
-8.116969
30
0
11
3.475
21
-8.116969
31
0
39
0
210
0
220
0
230
1
0
LINE
5
82
100
AcDbEntity
8
1
62
256
6
ByLayer
370
18
48
1
60
0
100
AcDbLine
10
12.5
20
-8.492539
30
0
11
3.475
21
-8.492539
31
0
39
0
210
0
220
0
230
1
0
LINE
5
83
100
AcDbEntity
8
1
62
256
6
ByLayer
370
18
48
1
60
0
100
AcDbLine
10
7.444343
20
-21.295056
30
0
11
7.583257
21
-21.313408
31
0
39
0
210
0
220
0
230
1
0
LINE
5
84
100
AcDbEntity
8
1
62
256
6
ByLayer
370
18
48
1
60
0
100
AcDbLine
10
12.525
20
28.634152
30
0
11
3.5
21
28.634152
31
0
39
0
210
0
220
0
230
1
0
LINE
5
85
100
AcDbEntity
8
1
62
256
6
ByLayer
370
18
48
1
60
0
100
AcDbLine
10
3.475
20
-21.145023
30
0
11
3.500101
21
-21.145023
31
0
39
0
210
0
220
0
230
1
0
LINE
5
86
100
AcDbEntity
8
1
62
256
6
ByLayer
370
18
48
1
60
0
100
AcDbLine
10
3.475
20
-24.35465
30
0
11
3.50002
21
-24.35465
31
0
39
0
210
0
220
0
230
1
0
LINE
5
87
100
AcDbEntity
8
1
62
256
6
ByLayer
370
18
48
1
60
0
100
AcDbLine
10
3.475
20
-23.284774
30
0
11
3.500101
21
-23.284774
31
0
39
0
210
0
220
0
230
1
0
LINE
5
88
100
AcDbEntity
8
1
62
256
6
ByLayer
370
18
48
1
60
0
100
AcDbLine
10
5.126045
20
18.710631
30
0
11
5.178541
21
18.283343
31
0
39
0
210
0
220
0
230
1
0
LINE
5
89
100
AcDbEntity
8
1
62
256
6
ByLayer
370
18
48
1
60
0
100
AcDbLine
10
6.338157
20
18.455448
30
0
11
6.2896
21
18.850672
31
0
39
0
210
0
220
0
230
1
0
LINE
5
8A
100
AcDbEntity
8
1
62
256
6
ByLayer
370
18
48
1
60
0
100
AcDbLine
10
9.347197
20
18.795503
30
0
11
9.294701
21
19.222791
31
0
39
0
210
0
220
0
230
1
0
LINE
5
8B
100
AcDbEntity
8
1
62
256
6
ByLayer
370
18
48
1
60
0
100
AcDbLine
10
3.475
20
-22.214898
30
0
11
3.500101
21
-22.214898
31
0
39
0
210
0
220
0
230
1
0
LINE
5
8C
100
AcDbEntity
8
4
62
256
6
ByLayer
370
18
48
0.05
60
0
100
AcDbLine
10
0
20
0
30
0
11
16
21
0
31
0
39
0
210
0
220
0
230
1
0
LINE
5
8E
100
AcDbEntity
8
SK4
62
256
6
ByLayer
370
18
48
0.05
60
0
100
AcDbLine
10
-3
20
0
30
0
11
16
21
0
31
0
39
0
210
0
220
0
230
1
0
LINE
5
90
100
AcDbEntity
8
1
62
256
6
ByLayer
370
18
48
1
60
0
100
AcDbLine
10
3.475
20
-26.494401
30
0
11
3.500101
21
-26.494401
31
0
39
0
210
0
220
0
230
1
0
LINE
5
91
100
AcDbEntity
8
1
62
256
6
ByLayer
370
18
48
1
60
0
100
AcDbLine
10
3.475
20
-27.564277
30
0
11
3.500101
21
-27.564277
31
0
39
0
210
0
220
0
230
1
0
LINE
5
92
100
AcDbEntity
8
1
62
256
6
ByLayer
370
18
48
1
60
0
100
AcDbLine
10
3.475
20
-28.634152
30
0
11
3.500101
21
-28.634152
31
0
39
0
210
0
220
0
230
1
0
LINE
5
93
100
AcDbEntity
8
1
62
256
6
ByLayer
370
18
48
1
60
0
100
AcDbLine
10
2.246045
20
20.246045
30
0
11
1.5
21
19.5
31
0
39
0
210
0
220
0
230
1
0
LINE
5
94
100
AcDbEntity
8
1
62
256
6
ByLayer
370
18
48
1
60
0
100
AcDbLine
10
1.5
20
-19.5
30
0
11
2.246045
21
-20.246045
31
0
39
0
210
0
220
0
230
1
0
LINE
5
95
100
AcDbEntity
8
1
62
256
6
ByLayer
370
18
48
1
60
0
100
AcDbLine
10
13.746455
20
-20.253545
30
0
11
14.5
21
-19.5
31
0
39
0
210
0
220
0
230
1
0
LINE
5
96
100
AcDbEntity
8
1
62
256
6
ByLayer
370
18
48
1
60
0
100
AcDbLine
10
14.5
20
19.5
30
0
11
13.746455
21
20.253545
31
0
39
0
210
0
220
0
230
1
0
LINE
5
97
100
AcDbEntity
8
1
62
256
6
ByLayer
370
18
48
1
60
0
100
AcDbLine
10
0.4
20
19.5
30
0
11
0
21
19.1
31
0
39
0
210
0
220
0
230
1
0
LINE
5
98
100
AcDbEntity
8
1
62
256
6
ByLayer
370
18
48
1
60
0
100
AcDbLine
10
0
20
-19.1
30
0
11
0.4
21
-19.5
31
0
39
0
210
0
220
0
230
1
0
LINE
5
99
100
AcDbEntity
8
1
62
256
6
ByLayer
370
18
48
1
60
0
100
AcDbLine
10
15.6
20
-19.5
30
0
11
16
21
-19.1
31
0
39
0
210
0
220
0
230
1
0
LINE
5
9A
100
AcDbEntity
8
1
62
256
6
ByLayer
370
18
48
1
60
0
100
AcDbLine
10
16
20
19.1
30
0
11
15.6
21
19.5
31
0
39
0
210
0
220
0
230
1
0
LINE
5
9B
100
AcDbEntity
8
1
62
256
6
ByLayer
370
18
48
1
60
0
100
AcDbLine
10
15.6
20
19.5
30
0
11
14.5
21
19.5
31
0
39
0
210
0
220
0
230
1
0
LINE
5
9C
100
AcDbEntity
8
1
62
256
6
ByLayer
370
18
48
1
60
0
100
AcDbLine
10
14.5
20
-19.5
30
0
11
15.6
21
-19.5
31
0
39
0
210
0
220
0
230
1
0
LINE
5
9D
100
AcDbEntity
8
1
62
256
6
ByLayer
370
18
48
1
60
0
100
AcDbLine
10
1.5
20
19.5
30
0
11
0.4
21
19.5
31
0
39
0
210
0
220
0
230
1
0
LINE
5
9E
100
AcDbEntity
8
1
62
256
6
ByLayer
370
18
48
1
60
0
100
AcDbLine
10
0.4
20
-19.5
30
0
11
1.5
21
-19.5
31
0
39
0
210
0
220
0
230
1
0
LINE
5
9F
100
AcDbEntity
8
1
62
256
6
ByLayer
370
18
48
1
60
0
100
AcDbLine
10
10.812585
20
35.538682
30
0
11
10.750487
21
35.748107
31
0
39
0
210
0
220
0
230
1
0
LINE
5
A0
100
AcDbEntity
8
1
62
256
6
ByLayer
370
18
48
1
60
0
100
AcDbLine
10
6.723774
20
34.55413
30
0
11
6.785871
21
34.344706
31
0
39
0
210
0
220
0
230
1
0
LINE
5
A1
100
AcDbEntity
8
1
62
256
6
ByLayer
370
18
48
1
60
0
100
AcDbLine
10
9.678
20
35.026874
30
0
11
9.763447
21
34.738703
31
0
39
0
210
0
220
0
230
1
0
LINE
5
A2
100
AcDbEntity
8
1
62
256
6
ByLayer
370
18
48
1
60
0
100
AcDbLine
10
8.972843
20
36.26289
30
0
11
9.066251
21
35.947869
31
0
39
0
210
0
220
0
230
1
0
LINE
5
A3
100
AcDbEntity
8
1
62
256
6
ByLayer
370
18
48
1
60
0
100
AcDbLine
10
7.868683
20
35.031117
30
0
11
7.783237
21
35.319287
31
0
39
0
210
0
220
0
230
1
0
LINE
5
A4
100
AcDbEntity
8
1
62
256
6
ByLayer
370
13
48
1
60
0
100
AcDbLine
10
12.525
20
-37.289373
30
0
11
3.5
21
-37.289373
31
0
39
0
210
0
220
0
230
1
0
LINE
5
A5
100
AcDbEntity
8
1
62
256
6
ByLayer
370
13
48
1
60
0
100
AcDbLine
10
12.525
20
-37.144151
30
0
11
3.5
21
-37.144151
31
0
39
0
210
0
220
0
230
1
0
LINE
5
A6
100
AcDbEntity
8
1
62
256
6
ByLayer
370
13
48
1
60
0
100
AcDbLine
10
12.525
20
-36.92268
30
0
11
11.811038
21
-36.92268
31
0
39
0
210
0
220
0
230
1
0
LINE
5
A7
100
AcDbEntity
8
1
62
256
6
ByLayer
370
13
48
1
60
0
100
AcDbLine
10
4.196335
20
-36.92268
30
0
11
3.5
21
-36.92268
31
0
39
0
210
0
220
0
230
1
0
LINE
5
A8
100
AcDbEntity
8
1
62
256
6
ByLayer
370
18
48
1
60
0
100
AcDbLine
10
12.868819
20
-20.948581
30
0
11
12.637375
21
-22.715532
31
0
39
0
210
0
220
0
230
1
0
LINE
5
A9
100
AcDbEntity
8
1
62
256
6
ByLayer
370
18
48
1
60
0
100
AcDbLine
10
3.5
20
-37.144151
30
0
11
3.5
21
-37.289373
31
0
39
0
210
0
220
0
230
1
0
LINE
5
AA
100
AcDbEntity
8
1
62
256
6
ByLayer
370
18
48
1
60
0
100
AcDbLine
10
12.525
20
-37.144151
30
0
11
12.525
21
-37.289373
31
0
39
0
210
0
220
0
230
1
0
LINE
5
AB
100
AcDbEntity
8
1
62
256
6
ByLayer
370
13
48
1
60
0
100
AcDbLine
10
12.525
20
-36.817544
30
0
11
12.140027
21
-36.817544
31
0
39
0
210
0
220
0
230
1
0
LINE
5
AC
100
AcDbEntity
8
1
62
256
6
ByLayer
370
13
48
1
60
0
100
AcDbLine
10
3.858603
20
-36.817544
30
0
11
3.5
21
-36.817544
31
0
39
0
210
0
220
0
230
1
0
LINE
5
AD
100
AcDbEntity
8
1
62
256
6
ByLayer
370
18
48
1
60
0
100
AcDbLine
10
3.5
20
-37.144151
30
0
11
3.5
21
-36.92268
31
0
39
0
210
0
220
0
230
1
0
LINE
5
AE
100
AcDbEntity
8
1
62
256
6
ByLayer
370
18
48
1
60
0
100
AcDbLine
10
12.525
20
-37.144151
30
0
11
12.525
21
-36.92268
31
0
39
0
210
0
220
0
230
1
0
LINE
5
AF
100
AcDbEntity
8
1
62
256
6
ByLayer
370
13
48
1
60
0
100
AcDbLine
10
12.525
20
-36.638293
30
0
11
12.324194
21
-36.638293
31
0
39
0
210
0
220
0
230
1
0
LINE
5
B0
100
AcDbEntity
8
1
62
256
6
ByLayer
370
13
48
1
60
0
100
AcDbLine
10
3.670911
20
-36.638293
30
0
11
3.5
21
-36.638293
31
0
39
0
210
0
220
0
230
1
0
LINE
5
B1
100
AcDbEntity
8
1
62
256
6
ByLayer
370
18
48
1
60
0
100
AcDbLine
10
12.525
20
-37.79604
30
0
11
3.5
21
-37.79604
31
0
39
0
210
0
220
0
230
1
0
LINE
5
B2
100
AcDbEntity
8
1
62
256
6
ByLayer
370
18
48
1
60
0
100
AcDbLine
10
3.5
20
-37.289373
30
0
11
3.5
21
-37.79604
31
0
39
0
210
0
220
0
230
1
0
LINE
5
B3
100
AcDbEntity
8
1
62
256
6
ByLayer
370
13
48
1
60
0
100
AcDbLine
10
12.525
20
-35.843927
30
0
11
12.499899
21
-35.843927
31
0
39
0
210
0
220
0
230
1
0
LINE
5
B4
100
AcDbEntity
8
1
62
256
6
ByLayer
370
13
48
1
60
0
100
AcDbLine
10
12.525
20
-35.698705
30
0
11
12.499899
21
-35.698705
31
0
39
0
210
0
220
0
230
1
0
LINE
5
B5
100
AcDbEntity
8
1
62
256
6
ByLayer
370
18
48
1
60
0
100
AcDbLine
10
12.525
20
-37.289373
30
0
11
12.525
21
-37.79604
31
0
39
0
210
0
220
0
230
1
0
LINE
5
B6
100
AcDbEntity
8
1
62
256
6
ByLayer
370
13
48
1
60
0
100
AcDbLine
10
12.525
20
-35.477234
30
0
11
12.499899
21
-35.477234
31
0
39
0
210
0
220
0
230
1
0
LINE
5
B7
100
AcDbEntity
8
1
62
256
6
ByLayer
370
18
48
1
60
0
100
AcDbLine
10
3.5
20
-36.92268
30
0
11
3.5
21
-36.817544
31
0
39
0
210
0
220
0
230
1
0
LINE
5
B8
100
AcDbEntity
8
1
62
256
6
ByLayer
370
13
48
1
60
0
100
AcDbLine
10
12.525
20
-36.354553
30
0
11
12.432917
21
-36.354553
31
0
39
0
210
0
220
0
230
1
0
LINE
5
B9
100
AcDbEntity
8
1
62
256
6
ByLayer
370
13
48
1
60
0
100
AcDbLine
10
3.566559
20
-36.354553
30
0
11
3.5
21
-36.354553
31
0
39
0
210
0
220
0
230
1
0
LINE
5
BA
100
AcDbEntity
8
1
62
256
6
ByLayer
370
18
48
1
60
0
100
AcDbLine
10
12.525
20
-36.92268
30
0
11
12.525
21
-36.817544
31
0
39
0
210
0
220
0
230
1
0
LINE
5
BB
100
AcDbEntity
8
1
62
256
6
ByLayer
370
18
48
1
60
0
100
AcDbLine
10
3.5
20
-36.817544
30
0
11
3.5
21
-36.638293
31
0
39
0
210
0
220
0
230
1
0
LINE
5
BC
100
AcDbEntity
8
1
62
256
6
ByLayer
370
13
48
1
60
0
100
AcDbLine
10
12.525
20
-35.372098
30
0
11
12.499899
21
-35.372098
31
0
39
0
210
0
220
0
230
1
0
LINE
5
BD
100
AcDbEntity
8
1
62
256
6
ByLayer
370
18
48
1
60
0
100
AcDbLine
10
12.525
20
-36.817544
30
0
11
12.525
21
-36.638293
31
0
39
0
210
0
220
0
230
1
0
LINE
5
BE
100
AcDbEntity
8
1
62
256
6
ByLayer
370
18
48
1
60
0
100
AcDbLine
10
12.525
20
-35.843927
30
0
11
12.525
21
-35.698705
31
0
39
0
210
0
220
0
230
1
0
LINE
5
BF
100
AcDbEntity
8
1
62
256
6
ByLayer
370
18
48
1
60
0
100
AcDbLine
10
12.525
20
-35.698705
30
0
11
12.525
21
-35.477234
31
0
39
0
210
0
220
0
230
1
0
LINE
5
C0
100
AcDbEntity
8
1
62
256
6
ByLayer
370
18
48
1
60
0
100
AcDbLine
10
3.5
20
-36.354553
30
0
11
3.5
21
-35.966374
31
0
39
0
210
0
220
0
230
1
0
LINE
5
C1
100
AcDbEntity
8
1
62
256
6
ByLayer
370
13
48
1
60
0
100
AcDbLine
10
12.525
20
-35.192847
30
0
11
12.499899
21
-35.192847
31
0
39
0
210
0
220
0
230
1
0
LINE
5
C2
100
AcDbEntity
8
1
62
256
6
ByLayer
370
18
48
1
60
0
100
AcDbLine
10
12.525
20
-36.354553
30
0
11
12.525
21
-35.843927
31
0
39
0
210
0
220
0
230
1
0
LINE
5
C3
100
AcDbEntity
8
1
62
256
6
ByLayer
370
13
48
1
60
0
100
AcDbLine
10
12.525
20
-34.398481
30
0
11
12.499899
21
-34.398481
31
0
39
0
210
0
220
0
230
1
0
LINE
5
C4
100
AcDbEntity
8
1
62
256
6
ByLayer
370
13
48
1
60
0
100
AcDbLine
10
12.525
20
-34.253259
30
0
11
12.499899
21
-34.253259
31
0
39
0
210
0
220
0
230
1
0
LINE
5
C5
100
AcDbEntity
8
1
62
256
6
ByLayer
370
18
48
1
60
0
100
AcDbLine
10
12.525
20
-35.372098
30
0
11
12.525
21
-35.477234
31
0
39
0
210
0
220
0
230
1
0
LINE
5
C6
100
AcDbEntity
8
1
62
256
6
ByLayer
370
13
48
1
60
0
100
AcDbLine
10
12.525
20
-34.031789
30
0
11
12.499899
21
-34.031789
31
0
39
0
210
0
220
0
230
1
0
LINE
5
C7
100
AcDbEntity
8
1
62
256
6
ByLayer
370
18
48
1
60
0
100
AcDbLine
10
3.5
20
-38.766063
30
0
11
12.525
21
-38.766063
31
0
39
0
210
0
220
0
230
1
0
LINE
5
C8
100
AcDbEntity
8
1
62
256
6
ByLayer
370
13
48
1
60
0
100
AcDbLine
10
12.525
20
-34.909108
30
0
11
12.499899
21
-34.909108
31
0
39
0
210
0
220
0
230
1
0
LINE
5
C9
100
AcDbEntity
8
1
62
256
6
ByLayer
370
18
48
1
60
0
100
AcDbLine
10
3.5
20
-37.79604
30
0
11
3.5
21
-38.766063
31
0
39
0
210
0
220
0
230
1
0
LINE
5
CA
100
AcDbEntity
8
1
62
256
6
ByLayer
370
18
48
1
60
0
100
AcDbLine
10
12.525
20
-37.79604
30
0
11
12.525
21
-38.766063
31
0
39
0
210
0
220
0
230
1
0
LINE
5
CB
100
AcDbEntity
8
1
62
256
6
ByLayer
370
18
48
1
60
0
100
AcDbLine
10
12.525
20
-35.192847
30
0
11
12.525
21
-35.372098
31
0
39
0
210
0
220
0
230
1
0
LINE
5
CC
100
AcDbEntity
8
1
62
256
6
ByLayer
370
13
48
1
60
0
100
AcDbLine
10
12.525
20
-33.926652
30
0
11
12.499899
21
-33.926652
31
0
39
0
210
0
220
0
230
1
0
LINE
5
CD
100
AcDbEntity
8
1
62
256
6
ByLayer
370
18
48
1
60
0
100
AcDbLine
10
12.525
20
-34.253259
30
0
11
12.525
21
-34.398481
31
0
39
0
210
0
220
0
230
1
0
LINE
5
CE
100
AcDbEntity
8
1
62
256
6
ByLayer
370
13
48
1
60
0
100
AcDbLine
10
12.525
20
-33.747402
30
0
11
12.499961
21
-33.747402
31
0
39
0
210
0
220
0
230
1
0
LINE
5
CF
100
AcDbEntity
8
1
62
256
6
ByLayer
370
18
48
1
60
0
100
AcDbLine
10
12.525
20
-34.031789
30
0
11
12.525
21
-34.253259
31
0
39
0
210
0
220
0
230
1
0
LINE
5
D0
100
AcDbEntity
8
1
62
256
6
ByLayer
370
13
48
1
60
0
100
AcDbLine
10
12.525
20
-32.953036
30
0
11
12.49994
21
-32.953036
31
0
39
0
210
0
220
0
230
1
0
LINE
5
D1
100
AcDbEntity
8
1
62
256
6
ByLayer
370
13
48
1
60
0
100
AcDbLine
10
12.525
20
-32.807814
30
0
11
12.499993
21
-32.807814
31
0
39
0
210
0
220
0
230
1
0
LINE
5
D2
100
AcDbEntity
8
1
62
256
6
ByLayer
370
18
48
1
60
0
100
AcDbLine
10
12.525
20
-34.398481
30
0
11
12.525
21
-34.909108
31
0
39
0
210
0
220
0
230
1
0
LINE
5
D3
100
AcDbEntity
8
1
62
256
6
ByLayer
370
13
48
1
60
0
100
AcDbLine
10
12.525
20
-32.586343
30
0
11
12.499938
21
-32.586343
31
0
39
0
210
0
220
0
230
1
0
LINE
5
D4
100
AcDbEntity
8
1
62
256
6
ByLayer
370
18
48
1
60
0
100
AcDbLine
10
3.5
20
-36.638293
30
0
11
3.5
21
-36.354553
31
0
39
0
210
0
220
0
230
1
0
LINE
5
D5
100
AcDbEntity
8
1
62
256
6
ByLayer
370
13
48
1
60
0
100
AcDbLine
10
12.525
20
-33.463662
30
0
11
12.49998
21
-33.463662
31
0
39
0
210
0
220
0
230
1
0
LINE
5
D6
100
AcDbEntity
8
1
62
256
6
ByLayer
370
18
48
1
60
0
100
AcDbLine
10
12.525
20
-36.638293
30
0
11
12.525
21
-36.354553
31
0
39
0
210
0
220
0
230
1
0
LINE
5
D7
100
AcDbEntity
8
1
62
256
6
ByLayer
370
18
48
1
60
0
100
AcDbLine
10
12.525
20
-34.031789
30
0
11
12.525
21
-33.926652
31
0
39
0
210
0
220
0
230
1
0
LINE
5
D8
100
AcDbEntity
8
1
62
256
6
ByLayer
370
13
48
1
60
0
100
AcDbLine
10
12.525
20
-32.481207
30
0
11
12.499953
21
-32.481207
31
0
39
0
210
0
220
0
230
1
0
LINE
5
D9
100
AcDbEntity
8
1
62
256
6
ByLayer
370
18
48
1
60
0
100
AcDbLine
10
12.525
20
-33.926652
30
0
11
12.525
21
-33.747402
31
0
39
0
210
0
220
0
230
1
0
LINE
5
DA
100
AcDbEntity
8
1
62
256
6
ByLayer
370
13
48
1
60
0
100
AcDbLine
10
12.525
20
-32.301956
30
0
11
12.499982
21
-32.301956
31
0
39
0
210
0
220
0
230
1
0
LINE
5
DB
100
AcDbEntity
8
1
62
256
6
ByLayer
370
18
48
1
60
0
100
AcDbLine
10
12.525
20
-32.953036
30
0
11
12.525
21
-32.807814
31
0
39
0
210
0
220
0
230
1
0
LINE
5
DC
100
AcDbEntity
8
1
62
256
6
ByLayer
370
13
48
1
60
0
100
AcDbLine
10
12.525
20
-31.362368
30
0
11
12.49999
21
-31.362368
31
0
39
0
210
0
220
0
230
1
0
LINE
5
DD
100
AcDbEntity
8
1
62
256
6
ByLayer
370
13
48
1
60
0
100
AcDbLine
10
12.525
20
-31.50759
30
0
11
12.499979
21
-31.50759
31
0
39
0
210
0
220
0
230
1
0
LINE
5
DE
100
AcDbEntity
8
1
62
256
6
ByLayer
370
18
48
1
60
0
100
AcDbLine
10
12.525
20
-32.807814
30
0
11
12.525
21
-32.586343
31
0
39
0
210
0
220
0
230
1
0
LINE
5
DF
100
AcDbEntity
8
1
62
256
6
ByLayer
370
13
48
1
60
0
100
AcDbLine
10
12.525
20
-31.140897
30
0
11
12.499996
21
-31.140897
31
0
39
0
210
0
220
0
230
1
0
LINE
5
E0
100
AcDbEntity
8
1
62
256
6
ByLayer
370
18
48
1
60
0
100
AcDbLine
10
12.525
20
-33.463662
30
0
11
12.525
21
-32.953036
31
0
39
0
210
0
220
0
230
1
0
LINE
5
E1
100
AcDbEntity
8
1
62
256
6
ByLayer
370
13
48
1
60
0
100
AcDbLine
10
12.525
20
-32.018216
30
0
11
12.499987
21
-32.018216
31
0
39
0
210
0
220
0
230
1
0
LINE
5
E2
100
AcDbEntity
8
1
62
256
6
ByLayer
370
18
48
1
60
0
100
AcDbLine
10
12.525
20
-34.909108
30
0
11
12.525
21
-35.192847
31
0
39
0
210
0
220
0
230
1
0
LINE
5
E3
100
AcDbEntity
8
1
62
256
6
ByLayer
370
18
48
1
60
0
100
AcDbLine
10
12.525
20
-32.481207
30
0
11
12.525
21
-32.586343
31
0
39
0
210
0
220
0
230
1
0
LINE
5
E4
100
AcDbEntity
8
1
62
256
6
ByLayer
370
13
48
1
60
0
100
AcDbLine
10
12.525
20
-31.035761
30
0
11
12.499999
21
-31.035761
31
0
39
0
210
0
220
0
230
1
0
LINE
5
E5
100
AcDbEntity
8
1
62
256
6
ByLayer
370
18
48
1
60
0
100
AcDbLine
10
12.525
20
-32.301956
30
0
11
12.525
21
-32.481207
31
0
39
0
210
0
220
0
230
1
0
LINE
5
E6
100
AcDbEntity
8
1
62
256
6
ByLayer
370
13
48
1
60
0
100
AcDbLine
10
12.525
20
-30.85651
30
0
11
12.49993
21
-30.85651
31
0
39
0
210
0
220
0
230
1
0
LINE
5
E7
100
AcDbEntity
8
1
62
256
6
ByLayer
370
18
48
1
60
0
100
AcDbLine
10
12.525
20
-31.362368
30
0
11
12.525
21
-31.50759
31
0
39
0
210
0
220
0
230
1
0
LINE
5
E8
100
AcDbEntity
8
1
62
256
6
ByLayer
370
13
48
1
60
0
100
AcDbLine
10
12.525
20
-30.062144
30
0
11
12.499899
21
-30.062144
31
0
39
0
210
0
220
0
230
1
0
LINE
5
E9
100
AcDbEntity
8
1
62
256
6
ByLayer
370
13
48
1
60
0
100
AcDbLine
10
12.525
20
-29.916922
30
0
11
12.499899
21
-29.916922
31
0
39
0
210
0
220
0
230
1
0
LINE
5
EA
100
AcDbEntity
8
1
62
256
6
ByLayer
370
18
48
1
60
0
100
AcDbLine
10
12.525
20
-31.362368
30
0
11
12.525
21
-31.140897
31
0
39
0
210
0
220
0
230
1
0
LINE
5
EB
100
AcDbEntity
8
1
62
256
6
ByLayer
370
13
48
1
60
0
100
AcDbLine
10
12.525
20
-29.695452
30
0
11
12.499899
21
-29.695452
31
0
39
0
210
0
220
0
230
1
0
LINE
5
EC
100
AcDbEntity
8
1
62
256
6
ByLayer
370
18
48
1
60
0
100
AcDbLine
10
12.525
20
-31.50759
30
0
11
12.525
21
-32.018216
31
0
39
0
210
0
220
0
230
1
0
LINE
5
ED
100
AcDbEntity
8
1
62
256
6
ByLayer
370
13
48
1
60
0
100
AcDbLine
10
12.525
20
-30.572771
30
0
11
12.499899
21
-30.572771
31
0
39
0
210
0
220
0
230
1
0
LINE
5
EE
100
AcDbEntity
8
1
62
256
6
ByLayer
370
18
48
1
60
0
100
AcDbLine
10
12.525
20
-33.747402
30
0
11
12.525
21
-33.463662
31
0
39
0
210
0
220
0
230
1
0
LINE
5
EF
100
AcDbEntity
8
1
62
256
6
ByLayer
370
18
48
1
60
0
100
AcDbLine
10
12.525
20
-31.140897
30
0
11
12.525
21
-31.035761
31
0
39
0
210
0
220
0
230
1
0
LINE
5
F0
100
AcDbEntity
8
1
62
256
6
ByLayer
370
13
48
1
60
0
100
AcDbLine
10
12.525
20
-29.590315
30
0
11
12.499899
21
-29.590315
31
0
39
0
210
0
220
0
230
1
0
LINE
5
F1
100
AcDbEntity
8
1
62
256
6
ByLayer
370
18
48
1
60
0
100
AcDbLine
10
12.525
20
-31.035761
30
0
11
12.525
21
-30.85651
31
0
39
0
210
0
220
0
230
1
0
LINE
5
F2
100
AcDbEntity
8
1
62
256
6
ByLayer
370
13
48
1
60
0
100
AcDbLine
10
12.525
20
-29.411065
30
0
11
12.499899
21
-29.411065
31
0
39
0
210
0
220
0
230
1
0
LINE
5
F3
100
AcDbEntity
8
1
62
256
6
ByLayer
370
18
48
1
60
0
100
AcDbLine
10
12.525
20
-30.062144
30
0
11
12.525
21
-29.916922
31
0
39
0
210
0
220
0
230
1
0
LINE
5
F4
100
AcDbEntity
8
1
62
256
6
ByLayer
370
18
48
1
60
0
100
AcDbLine
10
12.525
20
-29.916922
30
0
11
12.525
21
-29.695452
31
0
39
0
210
0
220
0
230
1
0
LINE
5
F5
100
AcDbEntity
8
1
62
256
6
ByLayer
370
13
48
1
60
0
100
AcDbLine
10
12.525
20
-28.616699
30
0
11
12.499899
21
-28.616699
31
0
39
0
210
0
220
0
230
1
0
LINE
5
F6
100
AcDbEntity
8
1
62
256
6
ByLayer
370
13
48
1
60
0
100
AcDbLine
10
12.525
20
-28.471477
30
0
11
12.499899
21
-28.471477
31
0
39
0
210
0
220
0
230
1
0
LINE
5
F7
100
AcDbEntity
8
1
62
256
6
ByLayer
370
18
48
1
60
0
100
AcDbLine
10
12.525
20
-30.572771
30
0
11
12.525
21
-30.062144
31
0
39
0
210
0
220
0
230
1
0
LINE
5
F8
100
AcDbEntity
8
1
62
256
6
ByLayer
370
13
48
1
60
0
100
AcDbLine
10
12.525
20
-28.250006
30
0
11
12.499899
21
-28.250006
31
0
39
0
210
0
220
0
230
1
0
LINE
5
F9
100
AcDbEntity
8
1
62
256
6
ByLayer
370
18
48
1
60
0
100
AcDbLine
10
12.525
20
-32.018216
30
0
11
12.525
21
-32.301956
31
0
39
0
210
0
220
0
230
1
0
LINE
5
FA
100
AcDbEntity
8
1
62
256
6
ByLayer
370
13
48
1
60
0
100
AcDbLine
10
12.525
20
-29.127325
30
0
11
12.499899
21
-29.127325
31
0
39
0
210
0
220
0
230
1
0
LINE
5
FB
100
AcDbEntity
8
1
62
256
6
ByLayer
370
18
48
1
60
0
100
AcDbLine
10
12.525
20
-29.590315
30
0
11
12.525
21
-29.695452
31
0
39
0
210
0
220
0
230
1
0
LINE
5
FC
100
AcDbEntity
8
1
62
256
6
ByLayer
370
13
48
1
60
0
100
AcDbLine
10
12.525
20
-28.14487
30
0
11
12.499899
21
-28.14487
31
0
39
0
210
0
220
0
230
1
0
LINE
5
FD
100
AcDbEntity
8
1
62
256
6
ByLayer
370
18
48
1
60
0
100
AcDbLine
10
12.525
20
-29.411065
30
0
11
12.525
21
-29.590315
31
0
39
0
210
0
220
0
230
1
0
LINE
5
FE
100
AcDbEntity
8
1
62
256
6
ByLayer
370
13
48
1
60
0
100
AcDbLine
10
12.525
20
-27.965619
30
0
11
12.499899
21
-27.965619
31
0
39
0
210
0
220
0
230
1
0
LINE
5
FF
100
AcDbEntity
8
1
62
256
6
ByLayer
370
18
48
1
60
0
100
AcDbLine
10
12.525
20
-30.85651
30
0
11
12.525
21
-30.572771
31
0
39
0
210
0
220
0
230
1
0
LINE
5
100
100
AcDbEntity
8
1
62
256
6
ByLayer
370
13
48
1
60
0
100
AcDbLine
10
12.525
20
-27.171253
30
0
11
12.499899
21
-27.171253
31
0
39
0
210
0
220
0
230
1
0
LINE
5
101
100
AcDbEntity
8
1
62
256
6
ByLayer
370
13
48
1
60
0
100
AcDbLine
10
12.525
20
-27.026031
30
0
11
12.499899
21
-27.026031
31
0
39
0
210
0
220
0
230
1
0
LINE
5
102
100
AcDbEntity
8
1
62
256
6
ByLayer
370
18
48
1
60
0
100
AcDbLine
10
12.525
20
-28.471477
30
0
11
12.525
21
-28.616699
31
0
39
0
210
0
220
0
230
1
0
LINE
5
103
100
AcDbEntity
8
1
62
256
6
ByLayer
370
13
48
1
60
0
100
AcDbLine
10
12.525
20
-26.80456
30
0
11
12.499899
21
-26.80456
31
0
39
0
210
0
220
0
230
1
0
LINE
5
104
100
AcDbEntity
8
1
62
256
6
ByLayer
370
18
48
1
60
0
100
AcDbLine
10
12.525
20
-28.250006
30
0
11
12.525
21
-28.471477
31
0
39
0
210
0
220
0
230
1
0
LINE
5
105
100
AcDbEntity
8
1
62
256
6
ByLayer
370
13
48
1
60
0
100
AcDbLine
10
12.525
20
-27.681879
30
0
11
12.499899
21
-27.681879
31
0
39
0
210
0
220
0
230
1
0
LINE
5
106
100
AcDbEntity
8
1
62
256
6
ByLayer
370
18
48
1
60
0
100
AcDbLine
10
12.525
20
-28.616699
30
0
11
12.525
21
-29.127325
31
0
39
0
210
0
220
0
230
1
0
LINE
5
107
100
AcDbEntity
8
1
62
256
6
ByLayer
370
18
48
1
60
0
100
AcDbLine
10
12.525
20
-28.250006
30
0
11
12.525
21
-28.14487
31
0
39
0
210
0
220
0
230
1
0
LINE
5
108
100
AcDbEntity
8
1
62
256
6
ByLayer
370
13
48
1
60
0
100
AcDbLine
10
12.525
20
-26.699424
30
0
11
12.499899
21
-26.699424
31
0
39
0
210
0
220
0
230
1
0
LINE
5
109
100
AcDbEntity
8
1
62
256
6
ByLayer
370
18
48
1
60
0
100
AcDbLine
10
12.525
20
-28.14487
30
0
11
12.525
21
-27.965619
31
0
39
0
210
0
220
0
230
1
0
LINE
5
10A
100
AcDbEntity
8
1
62
256
6
ByLayer
370
13
48
1
60
0
100
AcDbLine
10
12.525
20
-26.520173
30
0
11
12.499899
21
-26.520173
31
0
39
0
210
0
220
0
230
1
0
LINE
5
10B
100
AcDbEntity
8
1
62
256
6
ByLayer
370
18
48
1
60
0
100
AcDbLine
10
12.525
20
-27.171253
30
0
11
12.525
21
-27.026031
31
0
39
0
210
0
220
0
230
1
0
LINE
5
10C
100
AcDbEntity
8
1
62
256
6
ByLayer
370
13
48
1
60
0
100
AcDbLine
10
12.525
20
-25.725807
30
0
11
12.499899
21
-25.725807
31
0
39
0
210
0
220
0
230
1
0
LINE
5
10D
100
AcDbEntity
8
1
62
256
6
ByLayer
370
13
48
1
60
0
100
AcDbLine
10
12.525
20
-25.580585
30
0
11
12.499899
21
-25.580585
31
0
39
0
210
0
220
0
230
1
0
LINE
5
10E
100
AcDbEntity
8
1
62
256
6
ByLayer
370
18
48
1
60
0
100
AcDbLine
10
12.525
20
-27.026031
30
0
11
12.525
21
-26.80456
31
0
39
0
210
0
220
0
230
1
0
LINE
5
10F
100
AcDbEntity
8
1
62
256
6
ByLayer
370
13
48
1
60
0
100
AcDbLine
10
12.525
20
-25.359115
30
0
11
12.499899
21
-25.359115
31
0
39
0
210
0
220
0
230
1
0
LINE
5
110
100
AcDbEntity
8
1
62
256
6
ByLayer
370
18
48
1
60
0
100
AcDbLine
10
12.525
20
-27.681879
30
0
11
12.525
21
-27.171253
31
0
39
0
210
0
220
0
230
1
0
LINE
5
111
100
AcDbEntity
8
1
62
256
6
ByLayer
370
13
48
1
60
0
100
AcDbLine
10
12.525
20
-26.236434
30
0
11
12.499899
21
-26.236434
31
0
39
0
210
0
220
0
230
1
0
LINE
5
112
100
AcDbEntity
8
1
62
256
6
ByLayer
370
18
48
1
60
0
100
AcDbLine
10
12.525
20
-29.127325
30
0
11
12.525
21
-29.411065
31
0
39
0
210
0
220
0
230
1
0
LINE
5
113
100
AcDbEntity
8
1
62
256
6
ByLayer
370
18
48
1
60
0
100
AcDbLine
10
12.525
20
-26.699424
30
0
11
12.525
21
-26.80456
31
0
39
0
210
0
220
0
230
1
0
LINE
5
114
100
AcDbEntity
8
1
62
256
6
ByLayer
370
13
48
1
60
0
100
AcDbLine
10
12.525
20
-25.253978
30
0
11
12.499899
21
-25.253978
31
0
39
0
210
0
220
0
230
1
0
LINE
5
115
100
AcDbEntity
8
1
62
256
6
ByLayer
370
18
48
1
60
0
100
AcDbLine
10
12.525
20
-26.520173
30
0
11
12.525
21
-26.699424
31
0
39
0
210
0
220
0
230
1
0
LINE
5
116
100
AcDbEntity
8
1
62
256
6
ByLayer
370
13
48
1
60
0
100
AcDbLine
10
12.525
20
-25.074728
30
0
11
12.499899
21
-25.074728
31
0
39
0
210
0
220
0
230
1
0
LINE
5
117
100
AcDbEntity
8
1
62
256
6
ByLayer
370
18
48
1
60
0
100
AcDbLine
10
12.525
20
-25.580585
30
0
11
12.525
21
-25.725807
31
0
39
0
210
0
220
0
230
1
0
LINE
5
118
100
AcDbEntity
8
1
62
256
6
ByLayer
370
13
48
1
60
0
100
AcDbLine
10
12.525
20
-24.280362
30
0
11
12.499899
21
-24.280362
31
0
39
0
210
0
220
0
230
1
0
LINE
5
119
100
AcDbEntity
8
1
62
256
6
ByLayer
370
13
48
1
60
0
100
AcDbLine
10
12.525
20
-24.13514
30
0
11
12.499899
21
-24.13514
31
0
39
0
210
0
220
0
230
1
0
LINE
5
11A
100
AcDbEntity
8
1
62
256
6
ByLayer
370
18
48
1
60
0
100
AcDbLine
10
12.525
20
-25.580585
30
0
11
12.525
21
-25.359115
31
0
39
0
210
0
220
0
230
1
0
LINE
5
11B
100
AcDbEntity
8
1
62
256
6
ByLayer
370
13
48
1
60
0
100
AcDbLine
10
12.525
20
-23.913669
30
0
11
12.499899
21
-23.913669
31
0
39
0
210
0
220
0
230
1
0
LINE
5
11C
100
AcDbEntity
8
1
62
256
6
ByLayer
370
18
48
1
60
0
100
AcDbLine
10
12.525
20
-25.725807
30
0
11
12.525
21
-26.236434
31
0
39
0
210
0
220
0
230
1
0
LINE
5
11D
100
AcDbEntity
8
1
62
256
6
ByLayer
370
13
48
1
60
0
100
AcDbLine
10
12.525
20
-24.790988
30
0
11
12.499899
21
-24.790988
31
0
39
0
210
0
220
0
230
1
0
LINE
5
11E
100
AcDbEntity
8
1
62
256
6
ByLayer
370
18
48
1
60
0
100
AcDbLine
10
12.525
20
-27.965619
30
0
11
12.525
21
-27.681879
31
0
39
0
210
0
220
0
230
1
0
LINE
5
11F
100
AcDbEntity
8
1
62
256
6
ByLayer
370
18
48
1
60
0
100
AcDbLine
10
12.525
20
-25.359115
30
0
11
12.525
21
-25.253978
31
0
39
0
210
0
220
0
230
1
0
LINE
5
120
100
AcDbEntity
8
1
62
256
6
ByLayer
370
13
48
1
60
0
100
AcDbLine
10
12.525
20
-23.808533
30
0
11
12.499899
21
-23.808533
31
0
39
0
210
0
220
0
230
1
0
LINE
5
121
100
AcDbEntity
8
1
62
256
6
ByLayer
370
18
48
1
60
0
100
AcDbLine
10
12.525
20
-25.253978
30
0
11
12.525
21
-25.074728
31
0
39
0
210
0
220
0
230
1
0
LINE
5
122
100
AcDbEntity
8
1
62
256
6
ByLayer
370
13
48
1
60
0
100
AcDbLine
10
12.525
20
-23.629282
30
0
11
12.499899
21
-23.629282
31
0
39
0
210
0
220
0
230
1
0
LINE
5
123
100
AcDbEntity
8
1
62
256
6
ByLayer
370
18
48
1
60
0
100
AcDbLine
10
12.525
20
-24.280362
30
0
11
12.525
21
-24.13514
31
0
39
0
210
0
220
0
230
1
0
LINE
5
124
100
AcDbEntity
8
1
62
256
6
ByLayer
370
13
48
1
60
0
100
AcDbLine
10
12.525
20
-22.834916
30
0
11
12.499899
21
-22.834916
31
0
39
0
210
0
220
0
230
1
0
LINE
5
125
100
AcDbEntity
8
1
62
256
6
ByLayer
370
13
48
1
60
0
100
AcDbLine
10
12.525
20
-22.689694
30
0
11
12.499899
21
-22.689694
31
0
39
0
210
0
220
0
230
1
0
LINE
5
126
100
AcDbEntity
8
1
62
256
6
ByLayer
370
18
48
1
60
0
100
AcDbLine
10
12.525
20
-24.13514
30
0
11
12.525
21
-23.913669
31
0
39
0
210
0
220
0
230
1
0
LINE
5
127
100
AcDbEntity
8
1
62
256
6
ByLayer
370
13
48
1
60
0
100
AcDbLine
10
12.525
20
-22.468223
30
0
11
12.499899
21
-22.468223
31
0
39
0
210
0
220
0
230
1
0
LINE
5
128
100
AcDbEntity
8
1
62
256
6
ByLayer
370
18
48
1
60
0
100
AcDbLine
10
12.525
20
-24.790988
30
0
11
12.525
21
-24.280362
31
0
39
0
210
0
220
0
230
1
0
LINE
5
129
100
AcDbEntity
8
1
62
256
6
ByLayer
370
13
48
1
60
0
100
AcDbLine
10
12.525
20
-23.345542
30
0
11
12.499899
21
-23.345542
31
0
39
0
210
0
220
0
230
1
0
LINE
5
12A
100
AcDbEntity
8
1
62
256
6
ByLayer
370
18
48
1
60
0
100
AcDbLine
10
12.525
20
-26.236434
30
0
11
12.525
21
-26.520173
31
0
39
0
210
0
220
0
230
1
0
LINE
5
12B
100
AcDbEntity
8
1
62
256
6
ByLayer
370
18
48
1
60
0
100
AcDbLine
10
12.525
20
-23.808533
30
0
11
12.525
21
-23.913669
31
0
39
0
210
0
220
0
230
1
0
LINE
5
12C
100
AcDbEntity
8
1
62
256
6
ByLayer
370
13
48
1
60
0
100
AcDbLine
10
12.525
20
-22.363087
30
0
11
12.499899
21
-22.363087
31
0
39
0
210
0
220
0
230
1
0
LINE
5
12D
100
AcDbEntity
8
1
62
256
6
ByLayer
370
18
48
1
60
0
100
AcDbLine
10
12.525
20
-23.629282
30
0
11
12.525
21
-23.808533
31
0
39
0
210
0
220
0
230
1
0
LINE
5
12E
100
AcDbEntity
8
1
62
256
6
ByLayer
370
13
48
1
60
0
100
AcDbLine
10
12.525
20
-22.183836
30
0
11
12.499899
21
-22.183836
31
0
39
0
210
0
220
0
230
1
0
LINE
5
12F
100
AcDbEntity
8
1
62
256
6
ByLayer
370
18
48
1
60
0
100
AcDbLine
10
12.525
20
-22.689694
30
0
11
12.525
21
-22.834916
31
0
39
0
210
0
220
0
230
1
0
LINE
5
130
100
AcDbEntity
8
1
62
256
6
ByLayer
370
13
48
1
60
0
100
AcDbLine
10
12.525
20
-21.38947
30
0
11
12.499899
21
-21.38947
31
0
39
0
210
0
220
0
230
1
0
LINE
5
131
100
AcDbEntity
8
1
62
256
6
ByLayer
370
13
48
1
60
0
100
AcDbLine
10
12.525
20
-21.244248
30
0
11
12.499899
21
-21.244248
31
0
39
0
210
0
220
0
230
1
0
LINE
5
132
100
AcDbEntity
8
1
62
256
6
ByLayer
370
18
48
1
60
0
100
AcDbLine
10
12.525
20
-22.468223
30
0
11
12.525
21
-22.689694
31
0
39
0
210
0
220
0
230
1
0
LINE
5
133
100
AcDbEntity
8
1
62
256
6
ByLayer
370
13
48
1
60
0
100
AcDbLine
10
12.525
20
-21.022778
30
0
11
12.499899
21
-21.022778
31
0
39
0
210
0
220
0
230
1
0
LINE
5
134
100
AcDbEntity
8
1
62
256
6
ByLayer
370
18
48
1
60
0
100
AcDbLine
10
12.525
20
-22.834916
30
0
11
12.525
21
-23.345542
31
0
39
0
210
0
220
0
230
1
0
LINE
5
135
100
AcDbEntity
8
1
62
256
6
ByLayer
370
13
48
1
60
0
100
AcDbLine
10
12.525
20
-21.900097
30
0
11
12.499899
21
-21.900097
31
0
39
0
210
0
220
0
230
1
0
LINE
5
136
100
AcDbEntity
8
1
62
256
6
ByLayer
370
18
48
1
60
0
100
AcDbLine
10
12.525
20
-25.074728
30
0
11
12.525
21
-24.790988
31
0
39
0
210
0
220
0
230
1
0
LINE
5
137
100
AcDbEntity
8
1
62
256
6
ByLayer
370
18
48
1
60
0
100
AcDbLine
10
12.525
20
-22.468223
30
0
11
12.525
21
-22.363087
31
0
39
0
210
0
220
0
230
1
0
LINE
5
138
100
AcDbEntity
8
1
62
256
6
ByLayer
370
13
48
1
60
0
100
AcDbLine
10
12.525
20
-20.917641
30
0
11
12.499899
21
-20.917641
31
0
39
0
210
0
220
0
230
1
0
LINE
5
139
100
AcDbEntity
8
1
62
256
6
ByLayer
370
18
48
1
60
0
100
AcDbLine
10
12.525
20
-22.363087
30
0
11
12.525
21
-22.183836
31
0
39
0
210
0
220
0
230
1
0
LINE
5
13A
100
AcDbEntity
8
1
62
256
6
ByLayer
370
18
48
1
60
0
100
AcDbLine
10
12.525
20
-21.38947
30
0
11
12.525
21
-21.244248
31
0
39
0
210
0
220
0
230
1
0
LINE
5
13B
100
AcDbEntity
8
1
62
256
6
ByLayer
370
18
48
1
60
0
100
AcDbLine
10
12.525
20
-21.244248
30
0
11
12.525
21
-21.022778
31
0
39
0
210
0
220
0
230
1
0
LINE
5
13C
100
AcDbEntity
8
1
62
256
6
ByLayer
370
18
48
1
60
0
100
AcDbLine
10
12.525
20
-21.900097
30
0
11
12.525
21
-21.38947
31
0
39
0
210
0
220
0
230
1
0
LINE
5
13D
100
AcDbEntity
8
1
62
256
6
ByLayer
370
18
48
1
60
0
100
AcDbLine
10
12.525
20
-23.345542
30
0
11
12.525
21
-23.629282
31
0
39
0
210
0
220
0
230
1
0
LINE
5
13E
100
AcDbEntity
8
1
62
256
6
ByLayer
370
18
48
1
60
0
100
AcDbLine
10
12.525
20
-20.917641
30
0
11
12.525
21
-21.022778
31
0
39
0
210
0
220
0
230
1
0
LINE
5
13F
100
AcDbEntity
8
1
62
256
6
ByLayer
370
18
48
1
60
0
100
AcDbLine
10
12.499899
20
-20.739781
30
0
11
12.525
21
-20.739781
31
0
39
0
210
0
220
0
230
1
0
LINE
5
140
100
AcDbEntity
8
1
62
256
6
ByLayer
370
18
48
1
60
0
100
AcDbLine
10
10.675923
20
24.665894
30
0
11
10.515407
21
24.764356
31
0
39
0
210
0
220
0
230
1
0
LINE
5
141
100
AcDbEntity
8
1
62
256
6
ByLayer
370
18
48
1
60
0
100
AcDbLine
10
10.515407
20
24.764356
30
0
11
3.5
21
24.228863
31
0
39
0
210
0
220
0
230
1
0
LINE
5
142
100
AcDbEntity
8
1
62
256
6
ByLayer
370
18
48
1
60
0
100
AcDbLine
10
12.525
20
25.907348
30
0
11
12.525
21
23.10436
31
0
39
0
210
0
220
0
230
1
0
LINE
5
143
100
AcDbEntity
8
1
62
256
6
ByLayer
370
18
48
1
60
0
100
AcDbLine
10
10.929907
20
22.982605
30
0
11
10.938109
21
22.719171
31
0
39
0
210
0
220
0
230
1
0
LINE
5
144
100
AcDbEntity
8
1
62
256
6
ByLayer
370
18
48
1
60
0
100
AcDbLine
10
3.5
20
25.907348
30
0
11
12.525
21
25.907348
31
0
39
0
210
0
220
0
230
1
0
LINE
5
145
100
AcDbEntity
8
1
62
256
6
ByLayer
370
18
48
1
60
0
100
AcDbLine
10
10.801126
20
23.426123
30
0
11
10.812566
21
23.058681
31
0
39
0
210
0
220
0
230
1
0
LINE
5
146
100
AcDbEntity
8
1
62
256
6
ByLayer
370
18
48
1
60
0
100
AcDbLine
10
3.475
20
-28.589289
30
0
11
3.475
21
-28.634152
31
0
39
0
210
0
220
0
230
1
0
LINE
5
147
100
AcDbEntity
8
1
62
256
6
ByLayer
370
18
48
1
60
0
100
AcDbLine
10
3.5
20
25.907348
30
0
11
3.5
21
24.228863
31
0
39
0
210
0
220
0
230
1
0
LINE
5
148
100
AcDbEntity
8
1
62
256
6
ByLayer
370
18
48
1
60
0
100
AcDbLine
10
12.525
20
23.10436
30
0
11
10.929907
21
22.982605
31
0
39
0
210
0
220
0
230
1
0
LINE
5
149
100
AcDbEntity
8
1
62
256
6
ByLayer
370
18
48
1
60
0
100
AcDbLine
10
10.929907
20
22.982605
30
0
11
10.801126
21
23.426123
31
0
39
0
210
0
220
0
230
1
0
LINE
5
14A
100
AcDbEntity
8
1
62
256
6
ByLayer
370
18
48
1
60
0
100
AcDbLine
10
10.801126
20
23.426123
30
0
11
10.675923
21
24.665894
31
0
39
0
210
0
220
0
230
1
0
LINE
5
14B
100
AcDbEntity
8
1
62
256
6
ByLayer
370
18
48
1
60
0
100
AcDbLine
10
11.49318
20
19.760388
30
0
11
12.525
21
19.837358
31
0
39
0
210
0
220
0
230
1
0
LINE
5
14C
100
AcDbEntity
8
1
62
256
6
ByLayer
370
18
48
1
60
0
100
AcDbLine
10
12.525
20
19.837358
30
0
11
12.525
21
23.10436
31
0
39
0
210
0
220
0
230
1
0
LINE
5
14D
100
AcDbEntity
8
1
62
256
6
ByLayer
370
18
48
1
60
0
100
AcDbLine
10
10.675923
20
24.665894
30
0
11
10.718001
21
23.314372
31
0
39
0
210
0
220
0
230
1
0
LINE
5
14E
100
AcDbEntity
8
1
62
256
6
ByLayer
370
18
48
1
60
0
100
AcDbLine
10
11.524635
20
18.749219
30
0
11
12.525
21
18.823842
31
0
39
0
210
0
220
0
230
1
0
LINE
5
14F
100
AcDbEntity
8
1
62
256
6
ByLayer
370
18
48
1
60
0
100
AcDbLine
10
10.546074
20
23.779332
30
0
11
10.515407
21
24.764356
31
0
39
0
210
0
220
0
230
1
0
LINE
5
150
100
AcDbEntity
8
1
62
256
6
ByLayer
370
18
48
1
60
0
100
AcDbLine
10
3.5
20
24.03075
30
0
11
3.5
21
24.228863
31
0
39
0
210
0
220
0
230
1
0
LINE
5
151
100
AcDbEntity
8
1
62
256
6
ByLayer
370
18
48
1
60
0
100
AcDbLine
10
12.525
20
18.823842
30
0
11
12.525
21
19.837382
31
0
39
0
210
0
220
0
230
1
0
LINE
5
152
100
AcDbEntity
8
1
62
256
6
ByLayer
370
18
48
1
60
0
100
AcDbLine
10
12.525
20
28.451514
30
0
11
3.5
21
28.451514
31
0
39
0
210
0
220
0
230
1
0
LINE
5
153
100
AcDbEntity
8
1
62
256
6
ByLayer
370
18
48
1
60
0
100
AcDbLine
10
3.5
20
28.451514
30
0
11
3.5
21
25.907348
31
0
39
0
210
0
220
0
230
1
0
LINE
5
154
100
AcDbEntity
8
1
62
256
6
ByLayer
370
18
48
1
60
0
100
AcDbLine
10
12.525
20
28.451514
30
0
11
12.525
21
25.907348
31
0
39
0
210
0
220
0
230
1
0
LINE
5
155
100
AcDbEntity
8
1
62
256
6
ByLayer
370
18
48
1
60
0
100
AcDbLine
10
11.635896
20
15.702623
30
0
11
12.525
21
15.768947
31
0
39
0
210
0
220
0
230
1
0
LINE
5
156
100
AcDbEntity
8
1
62
256
6
ByLayer
370
18
48
1
60
0
100
AcDbLine
10
3.5
20
13.977174
30
0
11
12.525
21
14.122435
31
0
39
0
210
0
220
0
230
1
0
LINE
5
157
100
AcDbEntity
8
1
62
256
6
ByLayer
370
13
48
1
60
0
100
AcDbLine
10
12.525
20
28.629375
30
0
11
3.5
21
28.629375
31
0
39
0
210
0
220
0
230
1
0
LINE
5
158
100
AcDbEntity
8
1
62
256
6
ByLayer
370
18
48
1
60
0
100
AcDbLine
10
3.5
20
13.977174
30
0
11
3.5
21
14.322279
31
0
39
0
210
0
220
0
230
1
0
LINE
5
159
100
AcDbEntity
8
1
62
256
6
ByLayer
370
18
48
1
60
0
100
AcDbLine
10
12.525
20
14.122435
30
0
11
12.525
21
15.768947
31
0
39
0
210
0
220
0
230
1
0
LINE
5
15A
100
AcDbEntity
8
1
62
256
6
ByLayer
370
18
48
1
60
0
100
AcDbLine
10
3.5
20
13.684351
30
0
11
3.525101
21
13.684351
31
0
39
0
210
0
220
0
230
1
0
LINE
5
15B
100
AcDbEntity
8
1
62
256
6
ByLayer
370
18
48
1
60
0
100
AcDbLine
10
12.474939
20
13.684351
30
0
11
12.525
21
13.684351
31
0
39
0
210
0
220
0
230
1
0
LINE
5
15C
100
AcDbEntity
8
1
62
256
6
ByLayer
370
18
48
1
60
0
100
AcDbLine
10
3.5
20
13.977174
30
0
11
3.5
21
13.684351
31
0
39
0
210
0
220
0
230
1
0
LINE
5
15D
100
AcDbEntity
8
1
62
256
6
ByLayer
370
18
48
1
60
0
100
AcDbLine
10
12.525
20
14.122435
30
0
11
12.525
21
13.684351
31
0
39
0
210
0
220
0
230
1
0
LINE
5
15E
100
AcDbEntity
8
1
62
256
6
ByLayer
370
18
48
1
60
0
100
AcDbLine
10
3.5
20
28.629375
30
0
11
3.5
21
28.451514
31
0
39
0
210
0
220
0
230
1
0
LINE
5
15F
100
AcDbEntity
8
1
62
256
6
ByLayer
370
18
48
1
60
0
100
AcDbLine
10
12.525
20
28.629375
30
0
11
12.525
21
28.451514
31
0
39
0
210
0
220
0
230
1
0
LINE
5
160
100
AcDbEntity
8
1
62
256
6
ByLayer
370
18
48
1
60
0
100
AcDbLine
10
3.5
20
10.746176
30
0
11
3.525101
21
10.746176
31
0
39
0
210
0
220
0
230
1
0
LINE
5
161
100
AcDbEntity
8
1
62
256
6
ByLayer
370
18
48
1
60
0
100
AcDbLine
10
12.474939
20
10.746176
30
0
11
12.525
21
10.746176
31
0
39
0
210
0
220
0
230
1
0
LINE
5
162
100
AcDbEntity
8
1
62
256
6
ByLayer
370
13
48
1
60
0
100
AcDbLine
10
11.547339
20
18.017752
30
0
11
12.525
21
18.090682
31
0
39
0
210
0
220
0
230
1
0
LINE
5
163
100
AcDbEntity
8
1
62
256
6
ByLayer
370
18
48
1
60
0
100
AcDbLine
10
3.5
20
13.684351
30
0
11
3.5
21
10.746176
31
0
39
0
210
0
220
0
230
1
0
LINE
5
164
100
AcDbEntity
8
1
62
256
6
ByLayer
370
18
48
1
60
0
100
AcDbLine
10
12.525
20
13.684351
30
0
11
12.525
21
10.746176
31
0
39
0
210
0
220
0
230
1
0
LINE
5
165
100
AcDbEntity
8
1
62
256
6
ByLayer
370
18
48
1
60
0
100
AcDbLine
10
3.5
20
28.629375
30
0
11
3.5
21
28.634152
31
0
39
0
210
0
220
0
230
1
0
LINE
5
166
100
AcDbEntity
8
1
62
256
6
ByLayer
370
18
48
1
60
0
100
AcDbLine
10
11.630538
20
15.811156
30
0
11
12.525
21
15.87788
31
0
39
0
210
0
220
0
230
1
0
LINE
5
167
100
AcDbEntity
8
1
62
256
6
ByLayer
370
13
48
1
60
0
100
AcDbLine
10
11.538596
20
18.300643
30
0
11
12.525
21
18.374225
31
0
39
0
210
0
220
0
230
1
0
LINE
5
168
100
AcDbEntity
8
1
62
256
6
ByLayer
370
18
48
1
60
0
100
AcDbLine
10
12.525
20
28.629375
30
0
11
12.525
21
28.634152
31
0
39
0
210
0
220
0
230
1
0
LINE
5
169
100
AcDbEntity
8
1
62
256
6
ByLayer
370
18
48
1
60
0
100
AcDbLine
10
12.525
20
15.768947
30
0
11
12.525
21
15.87788
31
0
39
0
210
0
220
0
230
1
0
LINE
5
16A
100
AcDbEntity
8
1
62
256
6
ByLayer
370
18
48
1
60
0
100
AcDbLine
10
12.525
20
15.87788
30
0
11
12.525
21
18.090682
31
0
39
0
210
0
220
0
230
1
0
LINE
5
16B
100
AcDbEntity
8
1
62
256
6
ByLayer
370
18
48
1
60
0
100
AcDbLine
10
7.888405
20
34.904673
30
0
11
7.804734
21
35.186856
31
0
39
0
210
0
220
0
230
1
0
LINE
5
16C
100
AcDbEntity
8
1
62
256
6
ByLayer
370
18
48
1
60
0
100
AcDbLine
10
11.525058
20
18.735364
30
0
11
12.525
21
18.809956
31
0
39
0
210
0
220
0
230
1
0
LINE
5
16D
100
AcDbEntity
8
1
62
256
6
ByLayer
370
18
48
1
60
0
100
AcDbLine
10
12.525
20
18.809956
30
0
11
12.525
21
18.823842
31
0
39
0
210
0
220
0
230
1
0
LINE
5
16E
100
AcDbEntity
8
1
62
256
6
ByLayer
370
18
48
1
60
0
100
AcDbLine
10
6.267949
20
-19.763649
30
0
11
7.133975
21
-18.712285
31
0
39
0
210
0
220
0
230
1
0
LINE
5
16F
100
AcDbEntity
8
1
62
256
6
ByLayer
370
18
48
1
60
0
100
AcDbLine
10
7.133975
20
-20.815013
30
0
11
6.267949
21
-19.763649
31
0
39
0
210
0
220
0
230
1
0
LINE
5
170
100
AcDbEntity
8
1
62
256
6
ByLayer
370
18
48
1
60
0
100
AcDbLine
10
7.133975
20
-20.815013
30
0
11
8.866025
21
-20.815013
31
0
39
0
210
0
220
0
230
1
0
LINE
5
171
100
AcDbEntity
8
1
62
256
6
ByLayer
370
18
48
1
60
0
100
AcDbLine
10
8.866025
20
-20.815013
30
0
11
9.732051
21
-19.763649
31
0
39
0
210
0
220
0
230
1
0
LINE
5
172
100
AcDbEntity
8
1
62
256
6
ByLayer
370
18
48
1
60
0
100
AcDbLine
10
8.866025
20
-18.712285
30
0
11
9.732051
21
-19.763649
31
0
39
0
210
0
220
0
230
1
0
LINE
5
173
100
AcDbEntity
8
1
62
256
6
ByLayer
370
18
48
1
60
0
100
AcDbLine
10
8.866025
20
-18.712285
30
0
11
7.133975
21
-18.712285
31
0
39
0
210
0
220
0
230
1
0
LINE
5
174
100
AcDbEntity
8
1
62
256
6
ByLayer
370
18
48
1
60
0
100
AcDbLine
10
9.144547
20
-19.050383
30
0
11
8.866025
21
-19.388512
31
0
39
0
210
0
220
0
230
1
0
LINE
5
175
100
AcDbEntity
8
1
62
256
6
ByLayer
370
18
48
1
60
0
100
AcDbLine
10
8.866025
20
-20.815013
30
0
11
8.866025
21
-19.388512
31
0
39
0
210
0
220
0
230
1
0
LINE
5
176
100
AcDbEntity
8
1
62
256
6
ByLayer
370
18
48
1
60
0
100
AcDbLine
10
6.855453
20
-19.050383
30
0
11
7.133975
21
-19.388512
31
0
39
0
210
0
220
0
230
1
0
LINE
5
177
100
AcDbEntity
8
1
62
256
6
ByLayer
370
18
48
1
60
0
100
AcDbLine
10
7.133975
20
-20.815013
30
0
11
7.133975
21
-19.388512
31
0
39
0
210
0
220
0
230
1
0
LINE
5
178
100
AcDbEntity
8
1
62
256
6
ByLayer
370
18
48
1
60
0
100
AcDbLine
10
8.866025
20
-19.388512
30
0
11
7.133975
21
-19.388512
31
0
39
0
210
0
220
0
230
1
0
LINE
5
179
100
AcDbEntity
8
1
62
256
6
ByLayer
370
18
48
1
60
0
100
AcDbLine
10
6.267949
20
9.410501
30
0
11
7.133975
21
10.862722
31
0
39
0
210
0
220
0
230
1
0
LINE
5
17A
100
AcDbEntity
8
1
62
256
6
ByLayer
370
18
48
1
60
0
100
AcDbLine
10
7.133975
20
7.95828
30
0
11
6.267949
21
9.410501
31
0
39
0
210
0
220
0
230
1
0
LINE
5
17B
100
AcDbEntity
8
1
62
256
6
ByLayer
370
18
48
1
60
0
100
AcDbLine
10
7.133975
20
7.95828
30
0
11
8.866025
21
7.95828
31
0
39
0
210
0
220
0
230
1
0
LINE
5
17C
100
AcDbEntity
8
1
62
256
6
ByLayer
370
18
48
1
60
0
100
AcDbLine
10
3.475
20
-8.121747
30
0
11
3.475
21
-8.116969
31
0
39
0
210
0
220
0
230
1
0
LINE
5
17D
100
AcDbEntity
8
1
62
256
6
ByLayer
370
18
48
1
60
0
100
AcDbLine
10
8.866025
20
7.95828
30
0
11
9.732051
21
9.410501
31
0
39
0
210
0
220
0
230
1
0
LINE
5
17E
100
AcDbEntity
8
1
62
256
6
ByLayer
370
18
48
1
60
0
100
AcDbLine
10
8.866025
20
10.862722
30
0
11
9.732051
21
9.410501
31
0
39
0
210
0
220
0
230
1
0
LINE
5
17F
100
AcDbEntity
8
1
62
256
6
ByLayer
370
18
48
1
60
0
100
AcDbLine
10
8.866025
20
10.862722
30
0
11
7.133975
21
10.862722
31
0
39
0
210
0
220
0
230
1
0
LINE
5
180
100
AcDbEntity
8
1
62
256
6
ByLayer
370
18
48
1
60
0
100
AcDbLine
10
9.582729
20
9.160136
30
0
11
8.866025
21
10.361962
31
0
39
0
210
0
220
0
230
1
0
LINE
5
181
100
AcDbEntity
8
1
62
256
6
ByLayer
370
18
48
1
60
0
100
AcDbLine
10
8.866025
20
10.862722
30
0
11
8.866025
21
10.361962
31
0
39
0
210
0
220
0
230
1
0
LINE
5
182
100
AcDbEntity
8
1
62
256
6
ByLayer
370
18
48
1
60
0
100
AcDbLine
10
7.133975
20
10.361962
30
0
11
6.417271
21
9.160136
31
0
39
0
210
0
220
0
230
1
0
LINE
5
183
100
AcDbEntity
8
1
62
256
6
ByLayer
370
18
48
1
60
0
100
AcDbLine
10
12.525
20
18.374225
30
0
11
12.525
21
18.809956
31
0
39
0
210
0
220
0
230
1
0
LINE
5
184
100
AcDbEntity
8
1
62
256
6
ByLayer
370
18
48
1
60
0
100
AcDbLine
10
12.525
20
18.090682
30
0
11
12.525
21
18.374225
31
0
39
0
210
0
220
0
230
1
0
LINE
5
185
100
AcDbEntity
8
1
62
256
6
ByLayer
370
18
48
1
60
0
100
AcDbLine
10
3.525
20
-17.034756
30
0
11
3.525
21
-24.231379
31
0
39
0
210
0
220
0
230
1
0
LINE
5
186
100
AcDbEntity
8
1
62
256
6
ByLayer
370
18
48
1
60
0
100
AcDbLine
10
12.475
20
-18.872908
30
0
11
12.475
21
-24.231379
31
0
39
0
210
0
220
0
230
1
0
LINE
5
187
100
AcDbEntity
8
1
62
256
6
ByLayer
370
18
48
1
60
0
100
AcDbLine
10
3.525
20
-17.034756
30
0
11
3.525
21
-16.832277
31
0
39
0
210
0
220
0
230
1
0
LINE
5
188
100
AcDbEntity
8
1
62
256
6
ByLayer
370
18
48
1
60
0
100
AcDbLine
10
3.525
20
-17.034756
30
0
11
4.505864
21
-17.034756
31
0
39
0
210
0
220
0
230
1
0
LINE
5
189
100
AcDbEntity
8
1
62
256
6
ByLayer
370
18
48
1
60
0
100
AcDbLine
10
12.525
20
-20.739781
30
0
11
12.525
21
-20.917641
31
0
39
0
210
0
220
0
230
1
0
LINE
5
18A
100
AcDbEntity
8
1
62
256
6
ByLayer
370
18
48
1
60
0
100
AcDbLine
10
12.525
20
-22.183836
30
0
11
12.525
21
-21.900097
31
0
39
0
210
0
220
0
230
1
0
LINE
5
18B
100
AcDbEntity
8
1
62
256
6
ByLayer
370
18
48
1
60
0
100
AcDbLine
10
3.525
20
13.542935
30
0
11
3.525
21
4.834737
31
0
39
0
210
0
220
0
230
1
0
LINE
5
18C
100
AcDbEntity
8
1
62
256
6
ByLayer
370
18
48
1
60
0
100
AcDbLine
10
3.525
20
13.542935
30
0
11
12.475
21
13.542935
31
0
39
0
210
0
220
0
230
1
0
LINE
5
18D
100
AcDbEntity
8
1
62
256
6
ByLayer
370
18
48
1
60
0
100
AcDbLine
10
12.475
20
13.542935
30
0
11
12.475
21
4.834737
31
0
39
0
210
0
220
0
230
1
0
LINE
5
18E
100
AcDbEntity
8
1
62
256
6
ByLayer
370
18
48
1
60
0
100
AcDbLine
10
12.475
20
4.834737
30
0
11
3.525
21
4.834737
31
0
39
0
210
0
220
0
230
1
0
LINE
5
18F
100
AcDbEntity
8
1
62
256
6
ByLayer
370
18
48
1
60
0
100
AcDbLine
10
3.525
20
4.617726
30
0
11
3.525
21
4.834737
31
0
39
0
210
0
220
0
230
1
0
LINE
5
190
100
AcDbEntity
8
1
62
256
6
ByLayer
370
18
48
1
60
0
100
AcDbLine
10
12.475
20
4.617726
30
0
11
12.475
21
4.834737
31
0
39
0
210
0
220
0
230
1
0
LINE
5
191
100
AcDbEntity
8
1
62
256
6
ByLayer
370
18
48
1
60
0
100
AcDbLine
10
12.475
20
-24.231379
30
0
11
3.525
21
-24.231379
31
0
39
0
210
0
220
0
230
1
0
LINE
5
192
100
AcDbEntity
8
1
62
256
6
ByLayer
370
18
48
1
60
0
100
AcDbLine
10
12.875905
20
32.63535
30
0
11
12.499888
21
32.634488
31
0
39
0
210
0
220
0
230
1
0
LINE
5
193
100
AcDbEntity
8
1
62
256
6
ByLayer
370
18
48
1
60
0
100
AcDbLine
10
12.875905
20
32.63535
30
0
11
12.819479
21
31.532421
31
0
39
0
210
0
220
0
230
1
0
LINE
5
194
100
AcDbEntity
8
1
62
256
6
ByLayer
370
18
48
1
60
0
100
AcDbLine
10
12.875905
20
32.63535
30
0
11
12.999972
21
37.909
31
0
39
0
210
0
220
0
230
1
0
LINE
5
195
100
AcDbEntity
8
1
62
256
6
ByLayer
370
18
48
1
60
0
100
AcDbLine
10
4.44624
20
34.230765
30
0
11
4.532317
21
37.889607
31
0
39
0
210
0
220
0
230
1
0
LINE
5
196
100
AcDbEntity
8
1
62
256
6
ByLayer
370
18
48
1
60
0
100
AcDbLine
10
12.999972
20
37.909
30
0
11
4.532317
21
37.889607
31
0
39
0
210
0
220
0
230
1
0
LINE
5
197
100
AcDbEntity
8
1
62
256
6
ByLayer
370
18
48
1
60
0
100
AcDbLine
10
12.999912
20
39.202025
30
0
11
12.999972
21
37.909
31
0
39
0
210
0
220
0
230
1
0
LINE
5
198
100
AcDbEntity
8
1
62
256
6
ByLayer
370
18
48
1
60
0
100
AcDbLine
10
4.532317
20
37.889607
30
0
11
4.532377
21
39.182633
31
0
39
0
210
0
220
0
230
1
0
LINE
5
199
100
AcDbEntity
8
1
62
256
6
ByLayer
370
18
48
1
60
0
100
AcDbLine
10
3.475
20
30.363121
30
0
11
3.475
21
23.998335
31
0
39
0
210
0
220
0
230
1
0
LINE
5
19A
100
AcDbEntity
8
1
62
256
6
ByLayer
370
18
48
1
60
0
100
AcDbLine
10
3.475
20
30.363121
30
0
11
3.500101
21
30.363121
31
0
39
0
210
0
220
0
230
1
0
LINE
5
19B
100
AcDbEntity
8
1
62
256
6
ByLayer
370
18
48
1
60
0
100
AcDbLine
10
3.475
20
30.954991
30
0
11
3.500101
21
30.954445
31
0
39
0
210
0
220
0
230
1
0
LINE
5
19C
100
AcDbEntity
8
1
62
256
6
ByLayer
370
18
48
1
60
0
100
AcDbLine
10
3.475
20
30.954991
30
0
11
3.475
21
30.363121
31
0
39
0
210
0
220
0
230
1
0
LINE
5
19D
100
AcDbEntity
8
1
62
256
6
ByLayer
370
18
48
1
60
0
100
AcDbLine
10
3.475
20
38.766063
30
0
11
4.532347
21
38.766063
31
0
39
0
210
0
220
0
230
1
0
LINE
5
19E
100
AcDbEntity
8
1
62
256
6
ByLayer
370
18
48
1
60
0
100
AcDbLine
10
4.451506
20
34.455016
30
0
11
3.475
21
34.45278
31
0
39
0
210
0
220
0
230
1
0
LINE
5
19F
100
AcDbEntity
8
1
62
256
6
ByLayer
370
18
48
1
60
0
100
AcDbLine
10
3.475
20
38.766063
30
0
11
3.475
21
34.45278
31
0
39
0
210
0
220
0
230
1
0
LINE
5
1A0
100
AcDbEntity
8
1
62
256
6
ByLayer
370
18
48
1
60
0
100
AcDbLine
10
3.475
20
33.884556
30
0
11
3.692435
21
33.885054
31
0
39
0
210
0
220
0
230
1
0
LINE
5
1A1
100
AcDbEntity
8
1
62
256
6
ByLayer
370
18
48
1
60
0
100
AcDbLine
10
3.201252
20
-20.999538
30
0
11
3.500038
21
-20.999538
31
0
39
0
210
0
220
0
230
1
0
LINE
5
1A2
100
AcDbEntity
8
1
62
256
6
ByLayer
370
18
48
1
60
0
100
AcDbLine
10
12.524981
20
20.999538
30
0
11
12.798748
21
20.999538
31
0
39
0
210
0
220
0
230
1
0
LINE
5
1A3
100
AcDbEntity
8
1
62
256
6
ByLayer
370
13
48
1
60
0
100
AcDbLine
10
6.192433
20
18.603913
30
0
11
6.173147
21
18.760893
31
0
39
0
210
0
220
0
230
1
0
LINE
5
1A4
100
AcDbEntity
8
1
62
256
6
ByLayer
370
13
48
1
60
0
100
AcDbLine
10
8.346604
20
18.764606
30
0
11
8.322763
21
18.958659
31
0
39
0
210
0
220
0
230
1
0
LINE
5
1A5
100
AcDbEntity
8
1
62
256
6
ByLayer
370
18
48
1
60
0
100
AcDbLine
10
8.14168
20
19.022805
30
0
11
8.195266
21
18.586647
31
0
39
0
210
0
220
0
230
1
0
LINE
5
1A6
100
AcDbEntity
8
1
62
256
6
ByLayer
370
18
48
1
60
0
100
AcDbLine
10
8.196296
20
18.553568
30
0
11
8.13858
21
19.023341
31
0
39
0
210
0
220
0
230
1
0
LINE
5
1A7
100
AcDbEntity
8
1
62
256
6
ByLayer
370
13
48
1
60
0
100
AcDbLine
10
6.439177
20
17.80814
30
0
11
6.345282
21
18.572388
31
0
39
0
210
0
220
0
230
1
0
LINE
5
1A8
100
AcDbEntity
8
1
62
256
6
ByLayer
370
13
48
1
60
0
100
AcDbLine
10
8.150461
20
17.935796
30
0
11
8.056566
21
18.700044
31
0
39
0
210
0
220
0
230
1
0
LINE
5
1A9
100
AcDbEntity
8
1
62
256
6
ByLayer
370
13
48
1
60
0
100
AcDbLine
10
7.081566
20
17.589289
30
0
11
6.987671
21
18.353537
31
0
39
0
210
0
220
0
230
1
0
LINE
5
1AA
100
AcDbEntity
8
1
62
256
6
ByLayer
370
13
48
1
60
0
100
AcDbLine
10
7.524645
20
17.622341
30
0
11
7.43075
21
18.386589
31
0
39
0
210
0
220
0
230
1
0
LINE
5
1AB
100
AcDbEntity
8
1
62
256
6
ByLayer
370
18
48
1
60
0
100
AcDbLine
10
11.467683
20
20.578961
30
0
11
3.000028
21
19.947305
31
0
39
0
210
0
220
0
230
1
0
LINE
5
1AC
100
AcDbEntity
8
1
62
256
6
ByLayer
370
18
48
1
60
0
100
AcDbLine
10
3.000028
20
19.947305
30
0
11
3.000088
21
20.623145
31
0
39
0
210
0
220
0
230
1
0
LINE
5
1AD
100
AcDbEntity
8
1
62
256
6
ByLayer
370
18
48
1
60
0
100
AcDbLine
10
3.764269
20
21.086175
30
0
11
10.703443
21
21.603812
31
0
39
0
210
0
220
0
230
1
0
LINE
5
1AE
100
AcDbEntity
8
1
62
256
6
ByLayer
370
18
48
1
60
0
100
AcDbLine
10
11.467623
20
21.254792
30
0
11
11.467683
21
20.578961
31
0
39
0
210
0
220
0
230
1
0
LINE
5
1AF
100
AcDbEntity
8
1
62
256
6
ByLayer
370
18
48
1
60
0
100
AcDbLine
10
3.894512
20
24.207643
30
0
11
9.815526
21
24.649329
31
0
39
0
210
0
220
0
230
1
0
LINE
5
1B0
100
AcDbEntity
8
1
62
256
6
ByLayer
370
18
48
1
60
0
100
AcDbLine
10
11.467683
20
20.578961
30
0
11
11.59175
21
16.594021
31
0
39
0
210
0
220
0
230
1
0
LINE
5
1B1
100
AcDbEntity
8
1
62
256
6
ByLayer
370
18
48
1
60
0
100
AcDbLine
10
11.59175
20
16.594021
30
0
11
3.124095
21
15.962365
31
0
39
0
210
0
220
0
230
1
0
LINE
5
1B2
100
AcDbEntity
8
1
62
256
6
ByLayer
370
18
48
1
60
0
100
AcDbLine
10
3.180521
20
14.827745
30
0
11
3.124095
21
15.962365
31
0
39
0
210
0
220
0
230
1
0
LINE
5
1B3
100
AcDbEntity
8
1
62
256
6
ByLayer
370
18
48
1
60
0
100
AcDbLine
10
11.59175
20
16.594021
30
0
11
11.648056
21
15.459392
31
0
39
0
210
0
220
0
230
1
0
LINE
5
1B4
100
AcDbEntity
8
1
62
256
6
ByLayer
370
18
48
1
60
0
100
AcDbLine
10
3.124095
20
15.962365
30
0
11
3.000028
21
19.947305
31
0
39
0
210
0
220
0
230
1
0
LINE
5
1B5
100
AcDbEntity
8
1
62
256
6
ByLayer
370
18
48
1
60
0
100
AcDbLine
10
3.475
20
-8.659998
30
0
11
3.475
21
-9.344526
31
0
39
0
210
0
220
0
230
1
0
LINE
5
1B6
100
AcDbEntity
8
1
62
256
6
ByLayer
370
13
48
1
60
0
100
AcDbLine
10
3.475
20
-8.659998
30
0
11
12.5
21
-8.659998
31
0
39
0
210
0
220
0
230
1
0
LINE
5
1B7
100
AcDbEntity
8
1
62
256
6
ByLayer
370
18
48
1
60
0
100
AcDbLine
10
12.5
20
-8.659998
30
0
11
12.5
21
-9.344526
31
0
39
0
210
0
220
0
230
1
0
LINE
5
1B8
100
AcDbEntity
8
1
62
256
6
ByLayer
370
13
48
1
60
0
100
AcDbLine
10
3.475
20
-8.554862
30
0
11
12.5
21
-8.554862
31
0
39
0
210
0
220
0
230
1
0
LINE
5
1B9
100
AcDbEntity
8
1
62
256
6
ByLayer
370
18
48
1
60
0
100
AcDbLine
10
3.475
20
-12.858715
30
0
11
12.5
21
-12.858715
31
0
39
0
210
0
220
0
230
1
0
LINE
5
1BA
100
AcDbEntity
8
1
62
256
6
ByLayer
370
18
48
1
60
0
100
AcDbLine
10
12.5
20
-9.344526
30
0
11
3.475
21
-9.344526
31
0
39
0
210
0
220
0
230
1
0
LINE
5
1BB
100
AcDbEntity
8
1
62
256
6
ByLayer
370
13
48
1
60
0
100
AcDbLine
10
3.475
20
-8.497317
30
0
11
12.5
21
-8.497317
31
0
39
0
210
0
220
0
230
1
0
LINE
5
1BC
100
AcDbEntity
8
1
62
256
6
ByLayer
370
18
48
1
60
0
100
AcDbLine
10
10.91774
20
14.720733
30
0
11
3.978566
21
14.203096
31
0
39
0
210
0
220
0
230
1
0
LINE
5
1BD
100
AcDbEntity
8
1
62
256
6
ByLayer
370
18
48
1
60
0
100
AcDbLine
10
12.5
20
-9.344526
30
0
11
12.5
21
-12.858715
31
0
39
0
210
0
220
0
230
1
0
LINE
5
1BE
100
AcDbEntity
8
1
62
256
6
ByLayer
370
18
48
1
60
0
100
AcDbLine
10
3.475
20
-9.344526
30
0
11
3.475
21
-12.858715
31
0
39
0
210
0
220
0
230
1
0
LINE
5
1BF
100
AcDbEntity
8
1
62
256
6
ByLayer
370
18
48
1
60
0
100
AcDbLine
10
12.5
20
-8.554862
30
0
11
12.5
21
-8.659998
31
0
39
0
210
0
220
0
230
1
0
LINE
5
1C0
100
AcDbEntity
8
1
62
256
6
ByLayer
370
18
48
1
60
0
100
AcDbLine
10
3.475
20
-8.554862
30
0
11
3.475
21
-8.659998
31
0
39
0
210
0
220
0
230
1
0
LINE
5
1C1
100
AcDbEntity
8
1
62
256
6
ByLayer
370
18
48
1
60
0
100
AcDbLine
10
12.5
20
-8.554862
30
0
11
12.5
21
-8.497317
31
0
39
0
210
0
220
0
230
1
0
LINE
5
1C2
100
AcDbEntity
8
1
62
256
6
ByLayer
370
18
48
1
60
0
100
AcDbLine
10
3.475
20
-8.554862
30
0
11
3.475
21
-8.497317
31
0
39
0
210
0
220
0
230
1
0
LINE
5
1C3
100
AcDbEntity
8
1
62
256
6
ByLayer
370
18
48
1
60
0
100
AcDbLine
10
12.5
20
-8.492539
30
0
11
12.5
21
-8.497317
31
0
39
0
210
0
220
0
230
1
0
LINE
5
1C4
100
AcDbEntity
8
1
62
256
6
ByLayer
370
18
48
1
60
0
100
AcDbLine
10
3.475
20
-8.492539
30
0
11
3.475
21
-8.497317
31
0
39
0
210
0
220
0
230
1
0
LINE
5
1C5
100
AcDbEntity
8
1
62
256
6
ByLayer
370
18
48
1
60
0
100
AcDbLine
10
12.5
20
-14.5372
30
0
11
5.484593
21
-14.001707
31
0
39
0
210
0
220
0
230
1
0
LINE
5
1C6
100
AcDbEntity
8
1
62
256
6
ByLayer
370
18
48
1
60
0
100
AcDbLine
10
5.324077
20
-14.10017
30
0
11
5.484593
21
-14.001707
31
0
39
0
210
0
220
0
230
1
0
LINE
5
1C7
100
AcDbEntity
8
1
62
256
6
ByLayer
370
13
48
1
60
0
100
AcDbLine
10
3.475
20
-8.284428
30
0
11
3.581608
21
-8.284428
31
0
39
0
210
0
220
0
230
1
0
LINE
5
1C8
100
AcDbEntity
8
1
62
256
6
ByLayer
370
13
48
1
60
0
100
AcDbLine
10
12.419057
20
-8.284428
30
0
11
12.5
21
-8.284428
31
0
39
0
210
0
220
0
230
1
0
LINE
5
1C9
100
AcDbEntity
8
1
62
256
6
ByLayer
370
18
48
1
60
0
100
AcDbLine
10
5.198874
20
-15.339941
30
0
11
5.324077
21
-14.10017
31
0
39
0
210
0
220
0
230
1
0
LINE
5
1CA
100
AcDbEntity
8
1
62
256
6
ByLayer
370
18
48
1
60
0
100
AcDbLine
10
5.070093
20
-15.783458
30
0
11
5.198874
21
-15.339941
31
0
39
0
210
0
220
0
230
1
0
LINE
5
1CB
100
AcDbEntity
8
1
62
256
6
ByLayer
370
13
48
1
60
0
100
AcDbLine
10
3.475
20
-8.179292
30
0
11
3.548469
21
-8.179292
31
0
39
0
210
0
220
0
230
1
0
LINE
5
1CC
100
AcDbEntity
8
1
62
256
6
ByLayer
370
13
48
1
60
0
100
AcDbLine
10
12.451209
20
-8.179292
30
0
11
12.5
21
-8.179292
31
0
39
0
210
0
220
0
230
1
0
LINE
5
1CD
100
AcDbEntity
8
1
62
256
6
ByLayer
370
18
48
1
60
0
100
AcDbLine
10
3.475
20
-15.661703
30
0
11
5.070093
21
-15.783458
31
0
39
0
210
0
220
0
230
1
0
LINE
5
1CE
100
AcDbEntity
8
1
62
256
6
ByLayer
370
18
48
1
60
0
100
AcDbLine
10
12.5
20
-12.858715
30
0
11
12.5
21
-14.5372
31
0
39
0
210
0
220
0
230
1
0
LINE
5
1CF
100
AcDbEntity
8
1
62
256
6
ByLayer
370
13
48
1
60
0
100
AcDbLine
10
3.475
20
-8.121747
30
0
11
3.53197
21
-8.121747
31
0
39
0
210
0
220
0
230
1
0
LINE
5
1D0
100
AcDbEntity
8
1
62
256
6
ByLayer
370
13
48
1
60
0
100
AcDbLine
10
12.467707
20
-8.121747
30
0
11
12.5
21
-8.121747
31
0
39
0
210
0
220
0
230
1
0
LINE
5
1D1
100
AcDbEntity
8
1
62
256
6
ByLayer
370
18
48
1
60
0
100
AcDbLine
10
3.475
20
-12.858715
30
0
11
3.475
21
-15.661703
31
0
39
0
210
0
220
0
230
1
0
LINE
5
1D2
100
AcDbEntity
8
1
62
256
6
ByLayer
370
18
48
1
60
0
100
AcDbLine
10
12.5
20
-8.492545
30
0
11
12.5
21
-8.284428
31
0
39
0
210
0
220
0
230
1
0
LINE
5
1D3
100
AcDbEntity
8
1
62
256
6
ByLayer
370
18
48
1
60
0
100
AcDbLine
10
3.475
20
-8.492545
30
0
11
3.475
21
-8.284428
31
0
39
0
210
0
220
0
230
1
0
LINE
5
1D4
100
AcDbEntity
8
1
62
256
6
ByLayer
370
18
48
1
60
0
100
AcDbLine
10
12.5
20
-8.284428
30
0
11
12.5
21
-8.179292
31
0
39
0
210
0
220
0
230
1
0
LINE
5
1D5
100
AcDbEntity
8
1
62
256
6
ByLayer
370
18
48
1
60
0
100
AcDbLine
10
3.475
20
-8.284428
30
0
11
3.475
21
-8.179292
31
0
39
0
210
0
220
0
230
1
0
LINE
5
1D6
100
AcDbEntity
8
1
62
256
6
ByLayer
370
13
48
1
60
0
100
AcDbLine
10
3.475
20
-7.908858
30
0
11
3.500101
21
-7.908858
31
0
39
0
210
0
220
0
230
1
0
LINE
5
1D7
100
AcDbEntity
8
1
62
256
6
ByLayer
370
18
48
1
60
0
100
AcDbLine
10
12.5
20
-8.179292
30
0
11
12.5
21
-8.121747
31
0
39
0
210
0
220
0
230
1
0
LINE
5
1D8
100
AcDbEntity
8
1
62
256
6
ByLayer
370
18
48
1
60
0
100
AcDbLine
10
4.532317
20
-17.310646
30
0
11
4.950062
21
-15.774282
31
0
39
0
210
0
220
0
230
1
0
LINE
5
1D9
100
AcDbEntity
8
1
62
256
6
ByLayer
370
18
48
1
60
0
100
AcDbLine
10
5.276102
20
-14.575188
30
0
11
5.421499
21
-14.040456
31
0
39
0
210
0
220
0
230
1
0
LINE
5
1DA
100
AcDbEntity
8
1
62
256
6
ByLayer
370
18
48
1
60
0
100
AcDbLine
10
3.475
20
-8.179292
30
0
11
3.475
21
-8.121747
31
0
39
0
210
0
220
0
230
1
0
LINE
5
1DB
100
AcDbEntity
8
1
62
256
6
ByLayer
370
13
48
1
60
0
100
AcDbLine
10
3.475
20
-7.803722
30
0
11
3.500101
21
-7.803722
31
0
39
0
210
0
220
0
230
1
0
LINE
5
1DC
100
AcDbEntity
8
1
62
256
6
ByLayer
370
13
48
1
60
0
100
AcDbLine
10
3.475
20
-7.746177
30
0
11
3.500101
21
-7.746177
31
0
39
0
210
0
220
0
230
1
0
LINE
5
1DD
100
AcDbEntity
8
1
62
256
6
ByLayer
370
18
48
1
60
0
100
AcDbLine
10
12.5
20
-8.121747
30
0
11
12.5
21
-8.116969
31
0
39
0
210
0
220
0
230
1
0
LINE
5
1DE
100
AcDbEntity
8
1
62
256
6
ByLayer
370
18
48
1
60
0
100
AcDbLine
10
12.5
20
-7.979226
30
0
11
12.5
21
-8.116975
31
0
39
0
210
0
220
0
230
1
0
LINE
5
1DF
100
AcDbEntity
8
1
62
256
6
ByLayer
370
13
48
1
60
0
100
AcDbLine
10
3.475
20
-7.533288
30
0
11
3.50006
21
-7.533288
31
0
39
0
210
0
220
0
230
1
0
LINE
5
1E0
100
AcDbEntity
8
1
62
256
6
ByLayer
370
18
48
1
60
0
100
AcDbLine
10
3.475
20
-7.908858
30
0
11
3.475
21
-8.116975
31
0
39
0
210
0
220
0
230
1
0
LINE
5
1E1
100
AcDbEntity
8
1
62
256
6
ByLayer
370
13
48
1
60
0
100
AcDbLine
10
3.475
20
-7.428152
30
0
11
3.500007
21
-7.428152
31
0
39
0
210
0
220
0
230
1
0
LINE
5
1E2
100
AcDbEntity
8
1
62
256
6
ByLayer
370
18
48
1
60
0
100
AcDbLine
10
3.475
20
-7.803722
30
0
11
3.475
21
-7.908858
31
0
39
0
210
0
220
0
230
1
0
LINE
5
1E3
100
AcDbEntity
8
1
62
256
6
ByLayer
370
13
48
1
60
0
100
AcDbLine
10
3.475
20
-7.370607
30
0
11
3.500062
21
-7.370607
31
0
39
0
210
0
220
0
230
1
0
LINE
5
1E4
100
AcDbEntity
8
1
62
256
6
ByLayer
370
18
48
1
60
0
100
AcDbLine
10
3.475
20
-7.746177
30
0
11
3.475
21
-7.803722
31
0
39
0
210
0
220
0
230
1
0
LINE
5
1E5
100
AcDbEntity
8
1
62
256
6
ByLayer
370
18
48
1
60
0
100
AcDbLine
10
3.475
20
-7.741399
30
0
11
3.475
21
-7.746177
31
0
39
0
210
0
220
0
230
1
0
LINE
5
1E6
100
AcDbEntity
8
1
62
256
6
ByLayer
370
13
48
1
60
0
100
AcDbLine
10
3.475
20
-7.157718
30
0
11
3.500021
21
-7.157718
31
0
39
0
210
0
220
0
230
1
0
LINE
5
1E7
100
AcDbEntity
8
1
62
256
6
ByLayer
370
18
48
1
60
0
100
AcDbLine
10
3.475
20
-7.741405
30
0
11
3.475
21
-7.533288
31
0
39
0
210
0
220
0
230
1
0
LINE
5
1E8
100
AcDbEntity
8
1
62
256
6
ByLayer
370
13
48
1
60
0
100
AcDbLine
10
3.475
20
-7.052582
30
0
11
3.50001
21
-7.052582
31
0
39
0
210
0
220
0
230
1
0
LINE
5
1E9
100
AcDbEntity
8
1
62
256
6
ByLayer
370
18
48
1
60
0
100
AcDbLine
10
3.475
20
-7.533288
30
0
11
3.475
21
-7.428152
31
0
39
0
210
0
220
0
230
1
0
LINE
5
1EA
100
AcDbEntity
8
1
62
256
6
ByLayer
370
13
48
1
60
0
100
AcDbLine
10
3.475
20
-6.995037
30
0
11
3.500004
21
-6.995037
31
0
39
0
210
0
220
0
230
1
0
LINE
5
1EB
100
AcDbEntity
8
1
62
256
6
ByLayer
370
18
48
1
60
0
100
AcDbLine
10
3.475
20
-7.370607
30
0
11
3.475
21
-7.428152
31
0
39
0
210
0
220
0
230
1
0
LINE
5
1EC
100
AcDbEntity
8
1
62
256
6
ByLayer
370
18
48
1
60
0
100
AcDbLine
10
3.475
20
-7.370607
30
0
11
3.475
21
-7.365829
31
0
39
0
210
0
220
0
230
1
0
LINE
5
1ED
100
AcDbEntity
8
1
62
256
6
ByLayer
370
13
48
1
60
0
100
AcDbLine
10
3.475
20
-6.782148
30
0
11
3.500101
21
-6.782148
31
0
39
0
210
0
220
0
230
1
0
LINE
5
1EE
100
AcDbEntity
8
1
62
256
6
ByLayer
370
18
48
1
60
0
100
AcDbLine
10
3.475
20
-7.157718
30
0
11
3.475
21
-7.365835
31
0
39
0
210
0
220
0
230
1
0
LINE
5
1EF
100
AcDbEntity
8
1
62
256
6
ByLayer
370
13
48
1
60
0
100
AcDbLine
10
3.475
20
-6.677012
30
0
11
3.500101
21
-6.677012
31
0
39
0
210
0
220
0
230
1
0
LINE
5
1F0
100
AcDbEntity
8
1
62
256
6
ByLayer
370
18
48
1
60
0
100
AcDbLine
10
3.475
20
-7.052582
30
0
11
3.475
21
-7.157718
31
0
39
0
210
0
220
0
230
1
0
LINE
5
1F1
100
AcDbEntity
8
1
62
256
6
ByLayer
370
13
48
1
60
0
100
AcDbLine
10
3.475
20
-6.619467
30
0
11
3.500101
21
-6.619467
31
0
39
0
210
0
220
0
230
1
0
LINE
5
1F2
100
AcDbEntity
8
1
62
256
6
ByLayer
370
18
48
1
60
0
100
AcDbLine
10
3.475
20
-7.052582
30
0
11
3.475
21
-6.995037
31
0
39
0
210
0
220
0
230
1
0
LINE
5
1F3
100
AcDbEntity
8
1
62
256
6
ByLayer
370
18
48
1
60
0
100
AcDbLine
10
3.475
20
-6.990259
30
0
11
3.475
21
-6.995037
31
0
39
0
210
0
220
0
230
1
0
LINE
5
1F4
100
AcDbEntity
8
1
62
256
6
ByLayer
370
13
48
1
60
0
100
AcDbLine
10
3.475
20
-6.406578
30
0
11
3.500101
21
-6.406578
31
0
39
0
210
0
220
0
230
1
0
LINE
5
1F5
100
AcDbEntity
8
1
62
256
6
ByLayer
370
18
48
1
60
0
100
AcDbLine
10
3.475
20
-6.990265
30
0
11
3.475
21
-6.782148
31
0
39
0
210
0
220
0
230
1
0
LINE
5
1F6
100
AcDbEntity
8
1
62
256
6
ByLayer
370
13
48
1
60
0
100
AcDbLine
10
3.475
20
-6.301442
30
0
11
3.500101
21
-6.301442
31
0
39
0
210
0
220
0
230
1
0
LINE
5
1F7
100
AcDbEntity
8
1
62
256
6
ByLayer
370
18
48
1
60
0
100
AcDbLine
10
3.475
20
-6.782148
30
0
11
3.475
21
-6.677012
31
0
39
0
210
0
220
0
230
1
0
LINE
5
1F8
100
AcDbEntity
8
1
62
256
6
ByLayer
370
13
48
1
60
0
100
AcDbLine
10
3.475
20
-6.243897
30
0
11
3.500101
21
-6.243897
31
0
39
0
210
0
220
0
230
1
0
LINE
5
1F9
100
AcDbEntity
8
1
62
256
6
ByLayer
370
18
48
1
60
0
100
AcDbLine
10
3.475
20
-6.619467
30
0
11
3.475
21
-6.677012
31
0
39
0
210
0
220
0
230
1
0
LINE
5
1FA
100
AcDbEntity
8
1
62
256
6
ByLayer
370
18
48
1
60
0
100
AcDbLine
10
3.475
20
-6.619467
30
0
11
3.475
21
-6.614689
31
0
39
0
210
0
220
0
230
1
0
LINE
5
1FB
100
AcDbEntity
8
1
62
256
6
ByLayer
370
13
48
1
60
0
100
AcDbLine
10
3.475
20
-6.031008
30
0
11
3.500101
21
-6.031008
31
0
39
0
210
0
220
0
230
1
0
LINE
5
1FC
100
AcDbEntity
8
1
62
256
6
ByLayer
370
18
48
1
60
0
100
AcDbLine
10
3.475
20
-6.406578
30
0
11
3.475
21
-6.614695
31
0
39
0
210
0
220
0
230
1
0
LINE
5
1FD
100
AcDbEntity
8
1
62
256
6
ByLayer
370
13
48
1
60
0
100
AcDbLine
10
3.475
20
-5.925872
30
0
11
3.500101
21
-5.925872
31
0
39
0
210
0
220
0
230
1
0
LINE
5
1FE
100
AcDbEntity
8
1
62
256
6
ByLayer
370
18
48
1
60
0
100
AcDbLine
10
3.475
20
-6.301442
30
0
11
3.475
21
-6.406578
31
0
39
0
210
0
220
0
230
1
0
LINE
5
1FF
100
AcDbEntity
8
1
62
256
6
ByLayer
370
13
48
1
60
0
100
AcDbLine
10
3.475
20
-5.868327
30
0
11
3.500101
21
-5.868327
31
0
39
0
210
0
220
0
230
1
0
LINE
5
200
100
AcDbEntity
8
1
62
256
6
ByLayer
370
18
48
1
60
0
100
AcDbLine
10
3.475
20
-6.243897
30
0
11
3.475
21
-6.301442
31
0
39
0
210
0
220
0
230
1
0
LINE
5
201
100
AcDbEntity
8
1
62
256
6
ByLayer
370
18
48
1
60
0
100
AcDbLine
10
3.475
20
-6.239119
30
0
11
3.475
21
-6.243897
31
0
39
0
210
0
220
0
230
1
0
LINE
5
202
100
AcDbEntity
8
1
62
256
6
ByLayer
370
13
48
1
60
0
100
AcDbLine
10
3.475
20
-5.655438
30
0
11
3.500101
21
-5.655438
31
0
39
0
210
0
220
0
230
1
0
LINE
5
203
100
AcDbEntity
8
1
62
256
6
ByLayer
370
18
48
1
60
0
100
AcDbLine
10
3.475
20
-6.239125
30
0
11
3.475
21
-6.031008
31
0
39
0
210
0
220
0
230
1
0
LINE
5
204
100
AcDbEntity
8
1
62
256
6
ByLayer
370
18
48
1
60
0
100
AcDbLine
10
3.475
20
-6.031008
30
0
11
3.475
21
-5.925872
31
0
39
0
210
0
220
0
230
1
0
LINE
5
205
100
AcDbEntity
8
1
62
256
6
ByLayer
370
18
48
1
60
0
100
AcDbLine
10
3.475
20
-5.868327
30
0
11
3.475
21
-5.925872
31
0
39
0
210
0
220
0
230
1
0
LINE
5
206
100
AcDbEntity
8
1
62
256
6
ByLayer
370
13
48
1
60
0
100
AcDbLine
10
3.475
20
-5.550302
30
0
11
3.500101
21
-5.550302
31
0
39
0
210
0
220
0
230
1
0
LINE
5
207
100
AcDbEntity
8
1
62
256
6
ByLayer
370
13
48
1
60
0
100
AcDbLine
10
3.475
20
-5.492757
30
0
11
3.500101
21
-5.492757
31
0
39
0
210
0
220
0
230
1
0
LINE
5
208
100
AcDbEntity
8
1
62
256
6
ByLayer
370
18
48
1
60
0
100
AcDbLine
10
3.475
20
-5.868327
30
0
11
3.475
21
-5.863549
31
0
39
0
210
0
220
0
230
1
0
LINE
5
209
100
AcDbEntity
8
1
62
256
6
ByLayer
370
18
48
1
60
0
100
AcDbLine
10
3.475
20
-5.655438
30
0
11
3.475
21
-5.863555
31
0
39
0
210
0
220
0
230
1
0
LINE
5
20A
100
AcDbEntity
8
1
62
256
6
ByLayer
370
18
48
1
60
0
100
AcDbLine
10
3.475
20
-16.832555
30
0
11
4.4858
21
-16.826844
31
0
39
0
210
0
220
0
230
1
0
LINE
5
20B
100
AcDbEntity
8
1
62
256
6
ByLayer
370
13
48
1
60
0
100
AcDbLine
10
3.475
20
-5.279868
30
0
11
3.500101
21
-5.279868
31
0
39
0
210
0
220
0
230
1
0
LINE
5
20C
100
AcDbEntity
8
1
62
256
6
ByLayer
370
18
48
1
60
0
100
AcDbLine
10
3.475
20
-16.832555
30
0
11
3.475
21
-15.661726
31
0
39
0
210
0
220
0
230
1
0
LINE
5
20D
100
AcDbEntity
8
1
62
256
6
ByLayer
370
13
48
1
60
0
100
AcDbLine
10
3.475
20
-5.174732
30
0
11
3.500101
21
-5.174732
31
0
39
0
210
0
220
0
230
1
0
LINE
5
20E
100
AcDbEntity
8
1
62
256
6
ByLayer
370
18
48
1
60
0
100
AcDbLine
10
3.475
20
-5.550302
30
0
11
3.475
21
-5.655438
31
0
39
0
210
0
220
0
230
1
0
LINE
5
20F
100
AcDbEntity
8
1
62
256
6
ByLayer
370
13
48
1
60
0
100
AcDbLine
10
3.475
20
-5.117187
30
0
11
3.500101
21
-5.117187
31
0
39
0
210
0
220
0
230
1
0
LINE
5
210
100
AcDbEntity
8
1
62
256
6
ByLayer
370
18
48
1
60
0
100
AcDbLine
10
3.475
20
-5.550302
30
0
11
3.475
21
-5.492757
31
0
39
0
210
0
220
0
230
1
0
LINE
5
211
100
AcDbEntity
8
1
62
256
6
ByLayer
370
18
48
1
60
0
100
AcDbLine
10
3.475
20
-5.487979
30
0
11
3.475
21
-5.492757
31
0
39
0
210
0
220
0
230
1
0
LINE
5
212
100
AcDbEntity
8
1
62
256
6
ByLayer
370
13
48
1
60
0
100
AcDbLine
10
3.475
20
-4.904298
30
0
11
3.500101
21
-4.904298
31
0
39
0
210
0
220
0
230
1
0
LINE
5
213
100
AcDbEntity
8
1
62
256
6
ByLayer
370
18
48
1
60
0
100
AcDbLine
10
3.475
20
-5.487985
30
0
11
3.475
21
-5.279868
31
0
39
0
210
0
220
0
230
1
0
LINE
5
214
100
AcDbEntity
8
1
62
256
6
ByLayer
370
13
48
1
60
0
100
AcDbLine
10
3.475
20
-4.799162
30
0
11
3.500101
21
-4.799162
31
0
39
0
210
0
220
0
230
1
0
LINE
5
215
100
AcDbEntity
8
1
62
256
6
ByLayer
370
18
48
1
60
0
100
AcDbLine
10
3.475
20
-5.279868
30
0
11
3.475
21
-5.174732
31
0
39
0
210
0
220
0
230
1
0
LINE
5
216
100
AcDbEntity
8
1
62
256
6
ByLayer
370
13
48
1
60
0
100
AcDbLine
10
3.475
20
-4.741617
30
0
11
3.500101
21
-4.741617
31
0
39
0
210
0
220
0
230
1
0
LINE
5
217
100
AcDbEntity
8
1
62
256
6
ByLayer
370
18
48
1
60
0
100
AcDbLine
10
3.475
20
-5.174732
30
0
11
3.475
21
-5.117187
31
0
39
0
210
0
220
0
230
1
0
LINE
5
218
100
AcDbEntity
8
1
62
256
6
ByLayer
370
18
48
1
60
0
100
AcDbLine
10
3.475
20
-5.117187
30
0
11
3.475
21
-5.112409
31
0
39
0
210
0
220
0
230
1
0
LINE
5
219
100
AcDbEntity
8
1
62
256
6
ByLayer
370
13
48
1
60
0
100
AcDbLine
10
3.475
20
-4.528728
30
0
11
3.500101
21
-4.528728
31
0
39
0
210
0
220
0
230
1
0
LINE
5
21A
100
AcDbEntity
8
1
62
256
6
ByLayer
370
18
48
1
60
0
100
AcDbLine
10
3.475
20
-4.904298
30
0
11
3.475
21
-5.112415
31
0
39
0
210
0
220
0
230
1
0
LINE
5
21B
100
AcDbEntity
8
1
62
256
6
ByLayer
370
13
48
1
60
0
100
AcDbLine
10
3.475
20
-4.423592
30
0
11
3.500101
21
-4.423592
31
0
39
0
210
0
220
0
230
1
0
LINE
5
21C
100
AcDbEntity
8
1
62
256
6
ByLayer
370
18
48
1
60
0
100
AcDbLine
10
3.475
20
-4.799162
30
0
11
3.475
21
-4.904298
31
0
39
0
210
0
220
0
230
1
0
LINE
5
21D
100
AcDbEntity
8
1
62
256
6
ByLayer
370
13
48
1
60
0
100
AcDbLine
10
3.475
20
-4.366047
30
0
11
3.500101
21
-4.366047
31
0
39
0
210
0
220
0
230
1
0
LINE
5
21E
100
AcDbEntity
8
1
62
256
6
ByLayer
370
18
48
1
60
0
100
AcDbLine
10
3.475
20
-4.741617
30
0
11
3.475
21
-4.799162
31
0
39
0
210
0
220
0
230
1
0
LINE
5
21F
100
AcDbEntity
8
1
62
256
6
ByLayer
370
18
48
1
60
0
100
AcDbLine
10
3.475
20
-4.736839
30
0
11
3.475
21
-4.741617
31
0
39
0
210
0
220
0
230
1
0
LINE
5
220
100
AcDbEntity
8
1
62
256
6
ByLayer
370
18
48
1
60
0
100
AcDbLine
10
3.475
20
-4.736845
30
0
11
3.475
21
-4.528728
31
0
39
0
210
0
220
0
230
1
0
LINE
5
221
100
AcDbEntity
8
1
62
256
6
ByLayer
370
18
48
1
60
0
100
AcDbLine
10
3.475
20
-4.528728
30
0
11
3.475
21
-4.423592
31
0
39
0
210
0
220
0
230
1
0
LINE
5
222
100
AcDbEntity
8
1
62
256
6
ByLayer
370
18
48
1
60
0
100
AcDbLine
10
3.475
20
-4.366047
30
0
11
3.475
21
-4.423592
31
0
39
0
210
0
220
0
230
1
0
LINE
5
223
100
AcDbEntity
8
1
62
256
6
ByLayer
370
13
48
1
60
0
100
AcDbLine
10
3.475
20
-21.100159
30
0
11
3.500101
21
-21.100159
31
0
39
0
210
0
220
0
230
1
0
LINE
5
224
100
AcDbEntity
8
1
62
256
6
ByLayer
370
18
48
1
60
0
100
AcDbLine
10
12.583949
20
-20.999517
30
0
11
12.637375
21
-22.715532
31
0
39
0
210
0
220
0
230
1
0
LINE
5
225
100
AcDbEntity
8
1
62
256
6
ByLayer
370
18
48
1
60
0
100
AcDbLine
10
12.637375
20
-22.715532
30
0
11
12.600101
21
-23.820599
31
0
39
0
210
0
220
0
230
1
0
LINE
5
226
100
AcDbEntity
8
1
62
256
6
ByLayer
370
13
48
1
60
0
100
AcDbLine
10
3.475
20
-21.17101
30
0
11
3.500101
21
-21.17101
31
0
39
0
210
0
220
0
230
1
0
LINE
5
227
100
AcDbEntity
8
1
62
256
6
ByLayer
370
18
48
1
60
0
100
AcDbLine
10
12.475
20
13.542935
30
0
11
12.475
21
13.71263
31
0
39
0
210
0
220
0
230
1
0
LINE
5
228
100
AcDbEntity
8
1
62
256
6
ByLayer
370
13
48
1
60
0
100
AcDbLine
10
3.475
20
-22.006109
30
0
11
3.500101
21
-22.006109
31
0
39
0
210
0
220
0
230
1
0
LINE
5
229
100
AcDbEntity
8
1
62
256
6
ByLayer
370
13
48
1
60
0
100
AcDbLine
10
3.475
20
-21.860887
30
0
11
3.500101
21
-21.860887
31
0
39
0
210
0
220
0
230
1
0
LINE
5
22A
100
AcDbEntity
8
1
62
256
6
ByLayer
370
18
48
1
60
0
100
AcDbLine
10
3.525
20
13.542935
30
0
11
3.525
21
13.71263
31
0
39
0
210
0
220
0
230
1
0
LINE
5
22B
100
AcDbEntity
8
1
62
256
6
ByLayer
370
18
48
1
60
0
100
AcDbLine
10
3.475
20
-20.999539
30
0
11
3.475
21
-21.100159
31
0
39
0
210
0
220
0
230
1
0
LINE
5
22C
100
AcDbEntity
8
1
62
256
6
ByLayer
370
13
48
1
60
0
100
AcDbLine
10
3.475
20
-22.170035
30
0
11
3.500101
21
-22.170035
31
0
39
0
210
0
220
0
230
1
0
LINE
5
22D
100
AcDbEntity
8
1
62
256
6
ByLayer
370
18
48
1
60
0
100
AcDbLine
10
3.475
20
-21.145023
30
0
11
3.475
21
-21.100159
31
0
39
0
210
0
220
0
230
1
0
LINE
5
22E
100
AcDbEntity
8
1
62
256
6
ByLayer
370
18
48
1
60
0
100
AcDbLine
10
3.475
20
-21.145017
30
0
11
3.475
21
-21.17101
31
0
39
0
210
0
220
0
230
1
0
LINE
5
22F
100
AcDbEntity
8
1
62
256
6
ByLayer
370
13
48
1
60
0
100
AcDbLine
10
3.475
20
-22.240885
30
0
11
3.500101
21
-22.240885
31
0
39
0
210
0
220
0
230
1
0
LINE
5
230
100
AcDbEntity
8
1
62
256
6
ByLayer
370
18
48
1
60
0
100
AcDbLine
10
3.475
20
-22.006109
30
0
11
3.475
21
-21.860887
31
0
39
0
210
0
220
0
230
1
0
LINE
5
231
100
AcDbEntity
8
1
62
256
6
ByLayer
370
13
48
1
60
0
100
AcDbLine
10
3.475
20
-23.075984
30
0
11
3.500101
21
-23.075984
31
0
39
0
210
0
220
0
230
1
0
LINE
5
232
100
AcDbEntity
8
1
62
256
6
ByLayer
370
13
48
1
60
0
100
AcDbLine
10
3.475
20
-22.930762
30
0
11
3.500101
21
-22.930762
31
0
39
0
210
0
220
0
230
1
0
LINE
5
233
100
AcDbEntity
8
1
62
256
6
ByLayer
370
18
48
1
60
0
100
AcDbLine
10
3.475
20
-21.860887
30
0
11
3.475
21
-21.17101
31
0
39
0
210
0
220
0
230
1
0
LINE
5
234
100
AcDbEntity
8
1
62
256
6
ByLayer
370
18
48
1
60
0
100
AcDbLine
10
3.475
20
-22.006109
30
0
11
3.475
21
-22.170035
31
0
39
0
210
0
220
0
230
1
0
LINE
5
235
100
AcDbEntity
8
1
62
256
6
ByLayer
370
13
48
1
60
0
100
AcDbLine
10
3.475
20
-23.23991
30
0
11
3.500101
21
-23.23991
31
0
39
0
210
0
220
0
230
1
0
LINE
5
236
100
AcDbEntity
8
1
62
256
6
ByLayer
370
18
48
1
60
0
100
AcDbLine
10
3.475
20
-22.170035
30
0
11
3.475
21
-22.214898
31
0
39
0
210
0
220
0
230
1
0
LINE
5
237
100
AcDbEntity
8
1
62
256
6
ByLayer
370
18
48
1
60
0
100
AcDbLine
10
3.475
20
-22.214893
30
0
11
3.475
21
-22.240885
31
0
39
0
210
0
220
0
230
1
0
LINE
5
238
100
AcDbEntity
8
1
62
256
6
ByLayer
370
13
48
1
60
0
100
AcDbLine
10
3.475
20
-23.310761
30
0
11
3.50007
21
-23.310761
31
0
39
0
210
0
220
0
230
1
0
LINE
5
239
100
AcDbEntity
8
1
62
256
6
ByLayer
370
18
48
1
60
0
100
AcDbLine
10
3.475
20
-22.930762
30
0
11
3.475
21
-23.075984
31
0
39
0
210
0
220
0
230
1
0
LINE
5
23A
100
AcDbEntity
8
1
62
256
6
ByLayer
370
13
48
1
60
0
100
AcDbLine
10
3.475
20
-24.000638
30
0
11
3.500001
21
-24.000638
31
0
39
0
210
0
220
0
230
1
0
LINE
5
23B
100
AcDbEntity
8
1
62
256
6
ByLayer
370
13
48
1
60
0
100
AcDbLine
10
3.475
20
-24.14586
30
0
11
3.500004
21
-24.14586
31
0
39
0
210
0
220
0
230
1
0
LINE
5
23C
100
AcDbEntity
8
1
62
256
6
ByLayer
370
18
48
1
60
0
100
AcDbLine
10
3.475
20
-22.240885
30
0
11
3.475
21
-22.930762
31
0
39
0
210
0
220
0
230
1
0
LINE
5
23D
100
AcDbEntity
8
1
62
256
6
ByLayer
370
18
48
1
60
0
100
AcDbLine
10
3.475
20
-23.075984
30
0
11
3.475
21
-23.23991
31
0
39
0
210
0
220
0
230
1
0
LINE
5
23E
100
AcDbEntity
8
1
62
256
6
ByLayer
370
13
48
1
60
0
100
AcDbLine
10
3.475
20
-24.309786
30
0
11
3.50001
21
-24.309786
31
0
39
0
210
0
220
0
230
1
0
LINE
5
23F
100
AcDbEntity
8
1
62
256
6
ByLayer
370
18
48
1
60
0
100
AcDbLine
10
3.475
20
-23.284774
30
0
11
3.475
21
-23.23991
31
0
39
0
210
0
220
0
230
1
0
LINE
5
240
100
AcDbEntity
8
1
62
256
6
ByLayer
370
18
48
1
60
0
100
AcDbLine
10
3.475
20
-23.284769
30
0
11
3.475
21
-23.310761
31
0
39
0
210
0
220
0
230
1
0
LINE
5
241
100
AcDbEntity
8
1
62
256
6
ByLayer
370
13
48
1
60
0
100
AcDbLine
10
3.475
20
-24.380637
30
0
11
3.500018
21
-24.380637
31
0
39
0
210
0
220
0
230
1
0
LINE
5
242
100
AcDbEntity
8
1
62
256
6
ByLayer
370
18
48
1
60
0
100
AcDbLine
10
3.475
20
-24.14586
30
0
11
3.475
21
-24.000638
31
0
39
0
210
0
220
0
230
1
0
LINE
5
243
100
AcDbEntity
8
1
62
256
6
ByLayer
370
13
48
1
60
0
100
AcDbLine
10
3.475
20
-25.215736
30
0
11
3.500062
21
-25.215736
31
0
39
0
210
0
220
0
230
1
0
LINE
5
244
100
AcDbEntity
8
1
62
256
6
ByLayer
370
13
48
1
60
0
100
AcDbLine
10
3.475
20
-25.070514
30
0
11
3.500047
21
-25.070514
31
0
39
0
210
0
220
0
230
1
0
LINE
5
245
100
AcDbEntity
8
1
62
256
6
ByLayer
370
18
48
1
60
0
100
AcDbLine
10
3.475
20
-24.000638
30
0
11
3.475
21
-23.310761
31
0
39
0
210
0
220
0
230
1
0
LINE
5
246
100
AcDbEntity
8
1
62
256
6
ByLayer
370
18
48
1
60
0
100
AcDbLine
10
3.475
20
-24.309786
30
0
11
3.475
21
-24.14586
31
0
39
0
210
0
220
0
230
1
0
LINE
5
247
100
AcDbEntity
8
1
62
256
6
ByLayer
370
13
48
1
60
0
100
AcDbLine
10
3.475
20
-25.379662
30
0
11
3.500007
21
-25.379662
31
0
39
0
210
0
220
0
230
1
0
LINE
5
248
100
AcDbEntity
8
1
62
256
6
ByLayer
370
18
48
1
60
0
100
AcDbLine
10
3.475
20
-24.309786
30
0
11
3.475
21
-24.35465
31
0
39
0
210
0
220
0
230
1
0
LINE
5
249
100
AcDbEntity
8
1
62
256
6
ByLayer
370
18
48
1
60
0
100
AcDbLine
10
3.475
20
-24.354644
30
0
11
3.475
21
-24.380637
31
0
39
0
210
0
220
0
230
1
0
LINE
5
24A
100
AcDbEntity
8
1
62
256
6
ByLayer
370
13
48
1
60
0
100
AcDbLine
10
3.475
20
-25.450512
30
0
11
3.500039
21
-25.450512
31
0
39
0
210
0
220
0
230
1
0
LINE
5
24B
100
AcDbEntity
8
1
62
256
6
ByLayer
370
18
48
1
60
0
100
AcDbLine
10
3.475
20
-25.070514
30
0
11
3.475
21
-25.215736
31
0
39
0
210
0
220
0
230
1
0
LINE
5
24C
100
AcDbEntity
8
1
62
256
6
ByLayer
370
13
48
1
60
0
100
AcDbLine
10
3.475
20
-26.285611
30
0
11
3.500101
21
-26.285611
31
0
39
0
210
0
220
0
230
1
0
LINE
5
24D
100
AcDbEntity
8
1
62
256
6
ByLayer
370
13
48
1
60
0
100
AcDbLine
10
3.475
20
-26.140389
30
0
11
3.500101
21
-26.140389
31
0
39
0
210
0
220
0
230
1
0
LINE
5
24E
100
AcDbEntity
8
1
62
256
6
ByLayer
370
18
48
1
60
0
100
AcDbLine
10
3.475
20
-24.380637
30
0
11
3.475
21
-25.070514
31
0
39
0
210
0
220
0
230
1
0
LINE
5
24F
100
AcDbEntity
8
1
62
256
6
ByLayer
370
18
48
1
60
0
100
AcDbLine
10
3.475
20
-25.215736
30
0
11
3.475
21
-25.379662
31
0
39
0
210
0
220
0
230
1
0
LINE
5
250
100
AcDbEntity
8
1
62
256
6
ByLayer
370
13
48
1
60
0
100
AcDbLine
10
3.475
20
-26.449537
30
0
11
3.500101
21
-26.449537
31
0
39
0
210
0
220
0
230
1
0
LINE
5
251
100
AcDbEntity
8
1
62
256
6
ByLayer
370
18
48
1
60
0
100
AcDbLine
10
3.475
20
-25.424525
30
0
11
3.475
21
-25.379662
31
0
39
0
210
0
220
0
230
1
0
LINE
5
252
100
AcDbEntity
8
1
62
256
6
ByLayer
370
18
48
1
60
0
100
AcDbLine
10
3.475
20
-25.42452
30
0
11
3.475
21
-25.450512
31
0
39
0
210
0
220
0
230
1
0
LINE
5
253
100
AcDbEntity
8
1
62
256
6
ByLayer
370
13
48
1
60
0
100
AcDbLine
10
3.475
20
-26.520388
30
0
11
3.500101
21
-26.520388
31
0
39
0
210
0
220
0
230
1
0
LINE
5
254
100
AcDbEntity
8
1
62
256
6
ByLayer
370
18
48
1
60
0
100
AcDbLine
10
3.475
20
-26.285611
30
0
11
3.475
21
-26.140389
31
0
39
0
210
0
220
0
230
1
0
LINE
5
255
100
AcDbEntity
8
1
62
256
6
ByLayer
370
13
48
1
60
0
100
AcDbLine
10
3.475
20
-27.355487
30
0
11
3.500101
21
-27.355487
31
0
39
0
210
0
220
0
230
1
0
LINE
5
256
100
AcDbEntity
8
1
62
256
6
ByLayer
370
13
48
1
60
0
100
AcDbLine
10
3.475
20
-27.210265
30
0
11
3.500101
21
-27.210265
31
0
39
0
210
0
220
0
230
1
0
LINE
5
257
100
AcDbEntity
8
1
62
256
6
ByLayer
370
18
48
1
60
0
100
AcDbLine
10
3.475
20
-26.140389
30
0
11
3.475
21
-25.450512
31
0
39
0
210
0
220
0
230
1
0
LINE
5
258
100
AcDbEntity
8
1
62
256
6
ByLayer
370
18
48
1
60
0
100
AcDbLine
10
3.475
20
-26.285611
30
0
11
3.475
21
-26.449537
31
0
39
0
210
0
220
0
230
1
0
LINE
5
259
100
AcDbEntity
8
1
62
256
6
ByLayer
370
13
48
1
60
0
100
AcDbLine
10
3.475
20
-27.519413
30
0
11
3.500101
21
-27.519413
31
0
39
0
210
0
220
0
230
1
0
LINE
5
25A
100
AcDbEntity
8
1
62
256
6
ByLayer
370
18
48
1
60
0
100
AcDbLine
10
3.475
20
-26.449537
30
0
11
3.475
21
-26.494401
31
0
39
0
210
0
220
0
230
1
0
LINE
5
25B
100
AcDbEntity
8
1
62
256
6
ByLayer
370
18
48
1
60
0
100
AcDbLine
10
3.475
20
-26.494396
30
0
11
3.475
21
-26.520388
31
0
39
0
210
0
220
0
230
1
0
LINE
5
25C
100
AcDbEntity
8
1
62
256
6
ByLayer
370
13
48
1
60
0
100
AcDbLine
10
3.475
20
-27.590264
30
0
11
3.500101
21
-27.590264
31
0
39
0
210
0
220
0
230
1
0
LINE
5
25D
100
AcDbEntity
8
1
62
256
6
ByLayer
370
18
48
1
60
0
100
AcDbLine
10
3.475
20
-27.210265
30
0
11
3.475
21
-27.355487
31
0
39
0
210
0
220
0
230
1
0
LINE
5
25E
100
AcDbEntity
8
1
62
256
6
ByLayer
370
13
48
1
60
0
100
AcDbLine
10
3.475
20
-28.425363
30
0
11
3.500101
21
-28.425363
31
0
39
0
210
0
220
0
230
1
0
LINE
5
25F
100
AcDbEntity
8
1
62
256
6
ByLayer
370
13
48
1
60
0
100
AcDbLine
10
3.475
20
-28.280141
30
0
11
3.500101
21
-28.280141
31
0
39
0
210
0
220
0
230
1
0
LINE
5
260
100
AcDbEntity
8
1
62
256
6
ByLayer
370
18
48
1
60
0
100
AcDbLine
10
3.475
20
-26.520388
30
0
11
3.475
21
-27.210265
31
0
39
0
210
0
220
0
230
1
0
LINE
5
261
100
AcDbEntity
8
1
62
256
6
ByLayer
370
18
48
1
60
0
100
AcDbLine
10
3.475
20
-27.519413
30
0
11
3.475
21
-27.355487
31
0
39
0
210
0
220
0
230
1
0
LINE
5
262
100
AcDbEntity
8
1
62
256
6
ByLayer
370
13
48
1
60
0
100
AcDbLine
10
3.475
20
-28.589289
30
0
11
3.500101
21
-28.589289
31
0
39
0
210
0
220
0
230
1
0
LINE
5
263
100
AcDbEntity
8
1
62
256
6
ByLayer
370
18
48
1
60
0
100
AcDbLine
10
3.475
20
-27.564277
30
0
11
3.475
21
-27.519413
31
0
39
0
210
0
220
0
230
1
0
LINE
5
264
100
AcDbEntity
8
1
62
256
6
ByLayer
370
18
48
1
60
0
100
AcDbLine
10
3.475
20
-27.564271
30
0
11
3.475
21
-27.590264
31
0
39
0
210
0
220
0
230
1
0
LINE
5
265
100
AcDbEntity
8
1
62
256
6
ByLayer
370
18
48
1
60
0
100
AcDbLine
10
3.475
20
-28.425363
30
0
11
3.475
21
-28.280141
31
0
39
0
210
0
220
0
230
1
0
LINE
5
266
100
AcDbEntity
8
1
62
256
6
ByLayer
370
18
48
1
60
0
100
AcDbLine
10
3.475
20
-28.280141
30
0
11
3.475
21
-27.590264
31
0
39
0
210
0
220
0
230
1
0
LINE
5
267
100
AcDbEntity
8
1
62
256
6
ByLayer
370
18
48
1
60
0
100
AcDbLine
10
3.475
20
-28.589289
30
0
11
3.475
21
-28.425363
31
0
39
0
210
0
220
0
230
1
0
LINE
5
268
100
AcDbEntity
8
1
62
256
6
ByLayer
370
18
48
1
60
0
100
AcDbLine
10
3.399899
20
-38.237138
30
0
11
3.362625
21
-36.781921
31
0
39
0
210
0
220
0
230
1
0
LINE
5
269
100
AcDbEntity
8
1
62
256
6
ByLayer
370
18
48
1
60
0
100
AcDbLine
10
3.362625
20
-36.781921
30
0
11
3.486691
21
-31.508271
31
0
39
0
210
0
220
0
230
1
0
LINE
5
26A
100
AcDbEntity
8
1
62
256
6
ByLayer
370
18
48
1
60
0
100
AcDbLine
10
3.486691
20
-31.508271
30
0
11
3.500001
21
-31.325077
31
0
39
0
210
0
220
0
230
1
0
LINE
5
26B
100
AcDbEntity
8
1
62
256
6
ByLayer
370
18
48
1
60
0
100
AcDbLine
10
3.764269
20
-39.977092
30
0
11
10.703443
21
-39.9612
31
0
39
0
210
0
220
0
230
1
0
LINE
5
26C
100
AcDbEntity
8
1
62
256
6
ByLayer
370
18
48
1
60
0
100
AcDbLine
10
11.467623
20
-39.182633
30
0
11
11.467643
21
-38.766057
31
0
39
0
210
0
220
0
230
1
0
LINE
5
26D
100
AcDbEntity
8
1
62
256
6
ByLayer
370
18
48
1
60
0
100
AcDbLine
10
3.000028
20
-37.909
30
0
11
3.362625
21
-36.781921
31
0
39
0
210
0
220
0
230
1
0
LINE
5
26E
100
AcDbEntity
8
1
62
256
6
ByLayer
370
18
48
1
60
0
100
AcDbLine
10
3.000028
20
-37.909
30
0
11
3.000088
21
-39.202025
31
0
39
0
210
0
220
0
230
1
0
LINE
5
26F
100
AcDbEntity
8
1
62
256
6
ByLayer
370
18
48
1
60
0
100
AcDbLine
10
3.124095
20
-32.63535
30
0
11
3.486691
21
-31.508271
31
0
39
0
210
0
220
0
230
1
0
LINE
5
270
100
AcDbEntity
8
1
62
256
6
ByLayer
370
18
48
1
60
0
100
AcDbLine
10
3.124095
20
-32.63535
30
0
11
3.000028
21
-37.909
31
0
39
0
210
0
220
0
230
1
0
LINE
5
271
100
AcDbEntity
8
1
62
256
6
ByLayer
370
18
48
1
60
0
100
AcDbLine
10
3.180521
20
-31.532421
30
0
11
3.124095
21
-32.63535
31
0
39
0
210
0
220
0
230
1
0
LINE
5
272
100
AcDbEntity
8
1
62
256
6
ByLayer
370
18
48
1
60
0
100
AcDbLine
10
7.133975
20
10.862722
30
0
11
7.133975
21
10.361962
31
0
39
0
210
0
220
0
230
1
0
LINE
5
273
100
AcDbEntity
8
1
62
256
6
ByLayer
370
18
48
1
60
0
100
AcDbLine
10
7.133975
20
10.361962
30
0
11
8.866025
21
10.361962
31
0
39
0
210
0
220
0
230
1
0
LINE
5
274
100
AcDbEntity
8
1
62
256
6
ByLayer
370
18
48
1
60
0
100
AcDbLine
10
12.499999
20
-12.732225
30
0
11
12.513309
21
-12.777679
31
0
39
0
210
0
220
0
230
1
0
LINE
5
275
100
AcDbEntity
8
1
62
256
6
ByLayer
370
18
48
1
60
0
100
AcDbLine
10
12.513309
20
-12.777679
30
0
11
12.637375
21
-14.066389
31
0
39
0
210
0
220
0
230
1
0
LINE
5
276
100
AcDbEntity
8
1
62
256
6
ByLayer
370
18
48
1
60
0
100
AcDbLine
10
12.637375
20
-14.066389
30
0
11
12.600101
21
-14.416539
31
0
39
0
210
0
220
0
230
1
0
LINE
5
277
100
AcDbEntity
8
1
62
256
6
ByLayer
370
18
48
1
60
0
100
AcDbLine
10
5.296557
20
-18.357388
30
0
11
12.235731
21
-18.890917
31
0
39
0
210
0
220
0
230
1
0
LINE
5
278
100
AcDbEntity
8
1
62
256
6
ByLayer
370
18
48
1
60
0
100
AcDbLine
10
4.532317
20
-17.310646
30
0
11
4.532377
21
-17.927841
31
0
39
0
210
0
220
0
230
1
0
LINE
5
279
100
AcDbEntity
8
1
62
256
6
ByLayer
370
18
48
1
60
0
100
AcDbLine
10
12.999972
20
-17.961695
30
0
11
12.637375
21
-14.066389
31
0
39
0
210
0
220
0
230
1
0
LINE
5
27A
100
AcDbEntity
8
1
62
256
6
ByLayer
370
18
48
1
60
0
100
AcDbLine
10
12.999912
20
-18.57888
30
0
11
12.999972
21
-17.961695
31
0
39
0
210
0
220
0
230
1
0
LINE
5
27B
100
AcDbEntity
8
1
62
256
6
ByLayer
370
18
48
1
60
0
100
AcDbLine
10
4.40825
20
-16.021936
30
0
11
4.485246
21
-15.738766
31
0
39
0
210
0
220
0
230
1
0
LINE
5
27C
100
AcDbEntity
8
1
62
256
6
ByLayer
370
18
48
1
60
0
100
AcDbLine
10
4.40825
20
-16.021936
30
0
11
4.532317
21
-17.310646
31
0
39
0
210
0
220
0
230
1
0
LINE
5
27D
100
AcDbEntity
8
1
62
256
6
ByLayer
370
18
48
1
60
0
100
AcDbLine
10
4.351944
20
-16.053637
30
0
11
4.40825
21
-16.021936
31
0
39
0
210
0
220
0
230
1
0
LINE
5
27E
100
AcDbEntity
8
1
62
256
6
ByLayer
370
18
48
1
60
0
100
AcDbLine
10
5.296557
20
39.9612
30
0
11
12.235731
21
39.977092
31
0
39
0
210
0
220
0
230
1
0
LINE
5
27F
100
AcDbEntity
8
1
62
256
6
ByLayer
370
18
48
1
60
0
100
AcDbLine
10
12.5
20
1.508236
30
0
11
12.5
21
4.469385
31
0
39
0
210
0
220
0
230
1
0
LINE
5
280
100
AcDbEntity
8
1
62
256
6
ByLayer
370
18
48
1
60
0
100
AcDbLine
10
4.5
20
1.344847
30
0
11
11.5
21
1.344847
31
0
39
0
210
0
220
0
230
1
0
LINE
5
281
100
AcDbEntity
8
1
62
256
6
ByLayer
370
18
48
1
60
0
100
AcDbLine
10
3.5
20
4.469385
30
0
11
3.5
21
1.508236
31
0
39
0
210
0
220
0
230
1
0
LINE
5
282
100
AcDbEntity
8
1
62
256
6
ByLayer
370
18
48
1
60
0
100
AcDbLine
10
3.5
20
4.469385
30
0
11
6.6
21
4.469385
31
0
39
0
210
0
220
0
230
1
0
LINE
5
283
100
AcDbEntity
8
1
62
256
6
ByLayer
370
18
48
1
60
0
100
AcDbLine
10
6.5
20
4.385426
30
0
11
6.5
21
2.687704
31
0
39
0
210
0
220
0
230
1
0
LINE
5
284
100
AcDbEntity
8
1
62
256
6
ByLayer
370
18
48
1
60
0
100
AcDbLine
10
9.5
20
2.687704
30
0
11
9.5
21
4.385426
31
0
39
0
210
0
220
0
230
1
0
LINE
5
285
100
AcDbEntity
8
1
62
256
6
ByLayer
370
13
48
1
60
0
100
AcDbLine
10
11.5
20
-8.348075
30
0
11
11.5
21
1.344847
31
0
39
0
210
0
220
0
230
1
0
LINE
5
286
100
AcDbEntity
8
1
62
256
6
ByLayer
370
13
48
1
60
0
100
AcDbLine
10
4.5
20
1.344847
30
0
11
4.5
21
-8.348075
31
0
39
0
210
0
220
0
230
1
0
LINE
5
287
100
AcDbEntity
8
1
62
256
6
ByLayer
370
18
48
1
60
0
100
AcDbLine
10
3.5
20
-7.979226
30
0
11
3.5
21
1.508236
31
0
39
0
210
0
220
0
230
1
0
LINE
5
288
100
AcDbEntity
8
1
62
256
6
ByLayer
370
18
48
1
60
0
100
AcDbLine
10
12.5
20
1.508236
30
0
11
12.5
21
-7.979226
31
0
39
0
210
0
220
0
230
1
0
LINE
5
289
100
AcDbEntity
8
1
62
256
6
ByLayer
370
18
48
1
60
0
100
AcDbLine
10
9.4
20
4.469385
30
0
11
12.5
21
4.469385
31
0
39
0
210
0
220
0
230
1
0
LINE
5
28A
100
AcDbEntity
8
1
62
256
6
ByLayer
370
13
48
1
60
0
100
AcDbLine
10
11.995434
20
-8.397193
30
0
11
4.004566
21
-8.397193
31
0
39
0
210
0
220
0
230
1
0
LINE
5
28B
100
AcDbEntity
8
1
62
256
6
ByLayer
370
13
48
1
60
0
100
AcDbLine
10
9.4
20
2.475537
30
0
11
9.4
21
4.469385
31
0
39
0
210
0
220
0
230
1
0
LINE
5
28C
100
AcDbEntity
8
1
62
256
6
ByLayer
370
13
48
1
60
0
100
AcDbLine
10
6.6
20
4.469385
30
0
11
6.6
21
2.475537
31
0
39
0
210
0
220
0
230
1
0
LINE
5
28D
100
AcDbEntity
8
1
62
256
6
ByLayer
370
18
48
1
60
0
100
AcDbLine
10
11.5
20
-8.348075
30
0
11
4.5
21
-8.348075
31
0
39
0
210
0
220
0
230
1
0
LINE
5
28E
100
AcDbEntity
8
1
62
256
6
ByLayer
370
18
48
1
60
0
100
AcDbLine
10
6.6
20
4.469385
30
0
11
9.4
21
4.469385
31
0
39
0
210
0
220
0
230
1
0
LINE
5
28F
100
AcDbEntity
8
1
62
256
6
ByLayer
370
13
48
1
60
0
100
AcDbLine
10
4.5
20
34.233135
30
0
11
4.5
21
28.634219
31
0
39
0
210
0
220
0
230
1
0
LINE
5
290
100
AcDbEntity
8
1
62
256
6
ByLayer
370
18
48
1
60
0
100
AcDbLine
10
3.5
20
4.723951
30
0
11
3.525031
21
4.723951
31
0
39
0
210
0
220
0
230
1
0
LINE
5
291
100
AcDbEntity
8
1
62
256
6
ByLayer
370
18
48
1
60
0
100
AcDbLine
10
12.474969
20
4.723951
30
0
11
12.5
21
4.723951
31
0
39
0
210
0
220
0
230
1
0
LINE
5
292
100
AcDbEntity
8
1
62
256
6
ByLayer
370
13
48
1
60
0
100
AcDbLine
10
11.5
20
28.634219
30
0
11
11.5
21
34.233135
31
0
39
0
210
0
220
0
230
1
0
LINE
5
293
100
AcDbEntity
8
1
62
256
6
ByLayer
370
18
48
1
60
0
100
AcDbLine
10
12.5
20
4.469385
30
0
11
12.5
21
4.723951
31
0
39
0
210
0
220
0
230
1
0
LINE
5
294
100
AcDbEntity
8
1
62
256
6
ByLayer
370
18
48
1
60
0
100
AcDbLine
10
3.5
20
4.723951
30
0
11
3.5
21
4.469385
31
0
39
0
210
0
220
0
230
1
0
LINE
5
295
100
AcDbEntity
8
1
62
256
6
ByLayer
370
18
48
1
60
0
100
AcDbLine
10
3.5
20
28.62938
30
0
11
3.5
21
33.442921
31
0
39
0
210
0
220
0
230
1
0
LINE
5
296
100
AcDbEntity
8
1
62
256
6
ByLayer
370
18
48
1
60
0
100
AcDbLine
10
12.5
20
33.442921
30
0
11
12.5
21
28.634247
31
0
39
0
210
0
220
0
230
1
0
LINE
5
297
100
AcDbEntity
8
1
62
256
6
ByLayer
370
18
48
1
60
0
100
AcDbLine
10
4.5
20
34.233135
30
0
11
11.5
21
34.233135
31
0
39
0
210
0
220
0
230
1
0
LINE
5
298
100
AcDbEntity
8
1
62
256
6
ByLayer
370
18
48
1
60
0
100
AcDbLine
10
1.5
20
-19.5
30
0
11
1.5
21
19.5
31
0
39
0
210
0
220
0
230
1
0
LINE
5
299
100
AcDbEntity
8
1
62
256
6
ByLayer
370
13
48
1
60
0
100
AcDbLine
10
12.9
20
-3.861512
30
0
11
12.9
21
-3.435408
31
0
39
0
210
0
220
0
230
1
0
LINE
5
29A
100
AcDbEntity
8
1
62
256
6
ByLayer
370
13
48
1
60
0
100
AcDbLine
10
3.1
20
-3.435408
30
0
11
3.1
21
-3.861512
31
0
39
0
210
0
220
0
230
1
0
LINE
5
29B
100
AcDbEntity
8
1
62
256
6
ByLayer
370
13
48
1
60
0
100
AcDbLine
10
3.1
20
-3.861512
30
0
11
3.474998
21
-4.816917
31
0
39
0
210
0
220
0
230
1
0
LINE
5
29C
100
AcDbEntity
8
1
62
256
6
ByLayer
370
13
48
1
60
0
100
AcDbLine
10
12.500002
20
-4.880611
30
0
11
12.9
21
-3.861512
31
0
39
0
210
0
220
0
230
1
0
LINE
5
29D
100
AcDbEntity
8
1
62
256
6
ByLayer
370
18
48
1
60
0
100
AcDbLine
10
14.5
20
19.5
30
0
11
14.5
21
-19.5
31
0
39
0
210
0
220
0
230
1
0
LINE
5
29E
100
AcDbEntity
8
1
62
256
6
ByLayer
370
18
48
1
60
0
100
AcDbLine
10
3.201252
20
13.026499
30
0
11
3.500038
21
13.026499
31
0
39
0
210
0
220
0
230
1
0
LINE
5
29F
100
AcDbEntity
8
1
62
256
6
ByLayer
370
18
48
1
60
0
100
AcDbLine
10
12.524981
20
13.026499
30
0
11
12.798748
21
13.026499
31
0
39
0
210
0
220
0
230
1
0
LINE
5
2A0
100
AcDbEntity
8
1
62
256
6
ByLayer
370
18
48
1
60
0
100
AcDbLine
10
12.5
20
-31.934686
30
0
11
12.5
21
-24.900289
31
0
39
0
210
0
220
0
230
1
0
LINE
5
2A1
100
AcDbEntity
8
1
62
256
6
ByLayer
370
18
48
1
60
0
100
AcDbLine
10
4.5
20
-32.888288
30
0
11
11.5
21
-32.888288
31
0
39
0
210
0
220
0
230
1
0
LINE
5
2A2
100
AcDbEntity
8
1
62
256
6
ByLayer
370
18
48
1
60
0
100
AcDbLine
10
3.5
20
-24.900289
30
0
11
3.5
21
-31.934686
31
0
39
0
210
0
220
0
230
1
0
LINE
5
2A3
100
AcDbEntity
8
1
62
256
6
ByLayer
370
18
48
1
60
0
100
AcDbLine
10
3.5
20
-24.900289
30
0
11
6.6
21
-24.900289
31
0
39
0
210
0
220
0
230
1
0
LINE
5
2A4
100
AcDbEntity
8
1
62
256
6
ByLayer
370
13
48
1
60
0
100
AcDbLine
10
4.5
20
-32.888288
30
0
11
4.5
21
-36.967483
31
0
39
0
210
0
220
0
230
1
0
LINE
5
2A5
100
AcDbEntity
8
1
62
256
6
ByLayer
370
18
48
1
60
0
100
AcDbLine
10
6.5
20
-25.034854
30
0
11
6.5
21
-28.264124
31
0
39
0
210
0
220
0
230
1
0
LINE
5
2A6
100
AcDbEntity
8
1
62
256
6
ByLayer
370
18
48
1
60
0
100
AcDbLine
10
9.5
20
-28.264124
30
0
11
9.5
21
-25.034854
31
0
39
0
210
0
220
0
230
1
0
LINE
5
2A7
100
AcDbEntity
8
1
62
256
6
ByLayer
370
18
48
1
60
0
100
AcDbLine
10
9.4
20
-24.900289
30
0
11
12.5
21
-24.900289
31
0
39
0
210
0
220
0
230
1
0
LINE
5
2A8
100
AcDbEntity
8
1
62
256
6
ByLayer
370
13
48
1
60
0
100
AcDbLine
10
11.5
20
-36.967483
30
0
11
11.5
21
-32.888288
31
0
39
0
210
0
220
0
230
1
0
LINE
5
2A9
100
AcDbEntity
8
1
62
256
6
ByLayer
370
18
48
1
60
0
100
AcDbLine
10
3.5
20
-35.966369
30
0
11
3.5
21
-31.934686
31
0
39
0
210
0
220
0
230
1
0
LINE
5
2AA
100
AcDbEntity
8
1
62
256
6
ByLayer
370
18
48
1
60
0
100
AcDbLine
10
12.5
20
-31.934686
30
0
11
12.5
21
-35.966369
31
0
39
0
210
0
220
0
230
1
0
LINE
5
2AB
100
AcDbEntity
8
1
62
256
6
ByLayer
370
13
48
1
60
0
100
AcDbLine
10
9.4
20
-26.032959
30
0
11
9.4
21
-24.900289
31
0
39
0
210
0
220
0
230
1
0
LINE
5
2AC
100
AcDbEntity
8
1
62
256
6
ByLayer
370
13
48
1
60
0
100
AcDbLine
10
6.6
20
-24.900289
30
0
11
6.6
21
-26.032959
31
0
39
0
210
0
220
0
230
1
0
LINE
5
2AD
100
AcDbEntity
8
1
62
256
6
ByLayer
370
18
48
1
60
0
100
AcDbLine
10
12.499962
20
-7.973039
30
0
11
12.798748
21
-7.973039
31
0
39
0
210
0
220
0
230
1
0
LINE
5
2AE
100
AcDbEntity
8
1
62
256
6
ByLayer
370
18
48
1
60
0
100
AcDbLine
10
11.5
20
-36.967483
30
0
11
4.5
21
-36.967483
31
0
39
0
210
0
220
0
230
1
0
LINE
5
2AF
100
AcDbEntity
8
1
62
256
6
ByLayer
370
18
48
1
60
0
100
AcDbLine
10
6.6
20
-24.900289
30
0
11
9.4
21
-24.900289
31
0
39
0
210
0
220
0
230
1
0
LINE
5
2B0
100
AcDbEntity
8
1
62
256
6
ByLayer
370
18
48
1
60
0
100
AcDbLine
10
3.5
20
-23.950236
30
0
11
3.525031
21
-23.950236
31
0
39
0
210
0
220
0
230
1
0
LINE
5
2B1
100
AcDbEntity
8
1
62
256
6
ByLayer
370
18
48
1
60
0
100
AcDbLine
10
12.474969
20
-23.950236
30
0
11
12.5
21
-23.950236
31
0
39
0
210
0
220
0
230
1
0
LINE
5
2B2
100
AcDbEntity
8
1
62
256
6
ByLayer
370
18
48
1
60
0
100
AcDbLine
10
1.692723
20
-15.098312
30
0
11
3.47512
21
-15.098312
31
0
39
0
210
0
220
0
230
1
0
LINE
5
2B3
100
AcDbEntity
8
1
62
256
6
ByLayer
370
18
48
1
60
0
100
AcDbLine
10
12.733414
20
-15.098312
30
0
11
14.307277
21
-15.098312
31
0
39
0
210
0
220
0
230
1
0
LINE
5
2B4
100
AcDbEntity
8
1
62
256
6
ByLayer
370
18
48
1
60
0
100
AcDbLine
10
12.5
20
-24.900289
30
0
11
12.5
21
-23.950236
31
0
39
0
210
0
220
0
230
1
0
LINE
5
2B5
100
AcDbEntity
8
1
62
256
6
ByLayer
370
18
48
1
60
0
100
AcDbLine
10
3.5
20
-23.950236
30
0
11
3.5
21
-24.900289
31
0
39
0
210
0
220
0
230
1
0
LINE
5
2B6
100
AcDbEntity
8
1
62
256
6
ByLayer
370
18
48
1
60
0
100
AcDbLine
10
15.6
20
19.5
30
0
11
15.6
21
-19.5
31
0
39
0
210
0
220
0
230
1
0
LINE
5
2B7
100
AcDbEntity
8
1
62
256
6
ByLayer
370
18
48
1
60
0
100
AcDbLine
10
0.4
20
19.5
30
0
11
0.4
21
-19.5
31
0
39
0
210
0
220
0
230
1
0
LINE
5
2B8
100
AcDbEntity
8
1
62
256
6
ByLayer
370
18
48
1
60
0
100
AcDbLine
10
0
20
19.1
30
0
11
0
21
-19.1
31
0
39
0
210
0
220
0
230
1
0
LINE
5
2B9
100
AcDbEntity
8
1
62
256
6
ByLayer
370
18
48
1
60
0
100
AcDbLine
10
16
20
19.1
30
0
11
16
21
-19.1
31
0
39
0
210
0
220
0
230
1
0
LINE
5
2BA
100
AcDbEntity
8
1
62
256
6
ByLayer
370
18
48
1
60
0
100
AcDbLine
10
3.201252
20
-7.973039
30
0
11
3.475019
21
-7.973039
31
0
39
0
210
0
220
0
230
1
0
LINE
5
2BB
100
AcDbEntity
8
1
62
256
6
ByLayer
370
18
48
1
60
0
100
AcDbLine
10
1.692723
20
3.399964
30
0
11
2.24599
21
3.399964
31
0
39
0
210
0
220
0
230
1
0
LINE
5
2BC
100
AcDbEntity
8
1
62
256
6
ByLayer
370
18
48
1
60
0
100
AcDbLine
10
13.75401
20
3.399964
30
0
11
14.307277
21
3.399964
31
0
39
0
210
0
220
0
230
1
0
LINE
5
2BD
100
AcDbEntity
8
1
62
256
6
ByLayer
370
13
48
1
60
0
100
AcDbLine
10
12.525002
20
15.311435
30
0
11
12.9
21
16.003118
31
0
39
0
210
0
220
0
230
1
0
LINE
5
2BE
100
AcDbEntity
8
1
62
256
6
ByLayer
370
13
48
1
60
0
100
AcDbLine
10
12.9
20
16.003118
30
0
11
12.9
21
16.311605
31
0
39
0
210
0
220
0
230
1
0
LINE
5
2BF
100
AcDbEntity
8
1
62
256
6
ByLayer
370
13
48
1
60
0
100
AcDbLine
10
3.1
20
16.311605
30
0
11
3.1
21
16.003118
31
0
39
0
210
0
220
0
230
1
0
LINE
5
2C0
100
AcDbEntity
8
1
62
256
6
ByLayer
370
13
48
1
60
0
100
AcDbLine
10
3.1
20
16.003118
30
0
11
3.124299
21
15.958299
31
0
39
0
210
0
220
0
230
1
0
LINE
5
2C1
100
AcDbEntity
8
1
62
256
6
ByLayer
370
18
48
1
60
0
100
AcDbLine
10
3.107043
20
-16.191058
30
0
11
3.475085
21
-16.191058
31
0
39
0
210
0
220
0
230
1
0
LINE
5
2C2
100
AcDbEntity
8
1
62
256
6
ByLayer
370
18
48
1
60
0
100
AcDbLine
10
12.835006
20
-16.191058
30
0
11
12.892957
21
-16.191058
31
0
39
0
210
0
220
0
230
1
0
LINE
5
2C3
100
AcDbEntity
8
1
62
256
6
ByLayer
370
13
48
1
60
0
100
AcDbLine
10
12.9
20
-19.864631
30
0
11
12.9
21
-19.747013
31
0
39
0
210
0
220
0
230
1
0
LINE
5
2C4
100
AcDbEntity
8
1
62
256
6
ByLayer
370
18
48
1
60
0
100
AcDbLine
10
12.5
20
-23.950236
30
0
11
12.5
21
-18.883469
31
0
39
0
210
0
220
0
230
1
0
LINE
5
2C5
100
AcDbEntity
8
1
62
256
6
ByLayer
370
18
48
1
60
0
100
AcDbLine
10
3.5
20
-16.832527
30
0
11
3.5
21
-23.950236
31
0
39
0
210
0
220
0
230
1
0
LINE
5
2C6
100
AcDbEntity
8
1
62
256
6
ByLayer
370
13
48
1
60
0
100
AcDbLine
10
3.1
20
-19.747013
30
0
11
3.1
21
-19.864631
31
0
39
0
210
0
220
0
230
1
0
LINE
5
2C7
100
AcDbEntity
8
1
62
256
6
ByLayer
370
13
48
1
60
0
100
AcDbLine
10
12.51195
20
-20.13753
30
0
11
12.9
21
-19.864631
31
0
39
0
210
0
220
0
230
1
0
LINE
5
2C8
100
AcDbEntity
8
1
62
256
6
ByLayer
370
13
48
1
60
0
100
AcDbLine
10
3.1
20
-19.864631
30
0
11
3.48805
21
-20.13753
31
0
39
0
210
0
220
0
230
1
0
LINE
5
2C9
100
AcDbEntity
8
1
62
256
6
ByLayer
370
18
48
1
60
0
100
AcDbLine
10
14.142997
20
-15.310436
30
0
11
12.753144
21
-15.310436
31
0
39
0
210
0
220
0
230
1
0
LINE
5
2CA
100
AcDbEntity
8
1
62
256
6
ByLayer
370
18
48
1
60
0
100
AcDbLine
10
3.475107
20
-15.310436
30
0
11
1.857003
21
-15.310436
31
0
39
0
210
0
220
0
230
1
0
LINE
5
2CB
100
AcDbEntity
8
1
62
256
6
ByLayer
370
18
48
1
60
0
100
AcDbLine
10
12.524981
20
-20.999538
30
0
11
12.798748
21
-20.999538
31
0
39
0
210
0
220
0
230
1
0
LINE
5
2CC
100
AcDbEntity
8
1
62
256
6
ByLayer
370
18
48
1
60
0
100
AcDbLine
10
3.475
20
34.45278
30
0
11
3.475
21
33.884556
31
0
39
0
210
0
220
0
230
1
0
LINE
5
2CD
100
AcDbEntity
8
1
62
256
6
ByLayer
370
18
48
1
60
0
100
AcDbLine
10
3.475
20
30.95502
30
0
11
3.475
21
33.884556
31
0
39
0
210
0
220
0
230
1
0
LINE
5
2CE
100
AcDbEntity
8
1
62
256
6
ByLayer
370
13
48
1
60
0
100
AcDbLine
10
9.841193
20
34.681954
30
0
11
9.790973
21
34.851323
31
0
39
0
210
0
220
0
230
1
0
LINE
5
2CF
100
AcDbEntity
8
1
62
256
6
ByLayer
370
18
48
1
60
0
100
AcDbLine
10
10.812585
20
35.538682
30
0
11
10.81253
21
35.538867
31
0
39
0
210
0
220
0
230
1
0
LINE
5
2D0
100
AcDbEntity
8
1
62
256
6
ByLayer
370
13
48
1
60
0
100
AcDbLine
10
7.730683
20
34.529775
30
0
11
7.636803
21
34.846389
31
0
39
0
210
0
220
0
230
1
0
LINE
5
2D1
100
AcDbEntity
8
1
62
256
6
ByLayer
370
13
48
1
60
0
100
AcDbLine
10
9.688696
20
35.609025
30
0
11
9.594801
21
35.925689
31
0
39
0
210
0
220
0
230
1
0
LINE
5
2D2
100
AcDbEntity
8
1
62
256
6
ByLayer
370
18
48
1
60
0
100
AcDbLine
10
7.803704
20
35.143079
30
0
11
7.887375
21
34.860896
31
0
39
0
210
0
220
0
230
1
0
LINE
5
2D3
100
AcDbEntity
8
1
62
256
6
ByLayer
370
13
48
1
60
0
100
AcDbLine
10
7.977412
20
35.605106
30
0
11
7.883517
21
35.92177
31
0
39
0
210
0
220
0
230
1
0
LINE
5
2D4
100
AcDbEntity
8
1
62
256
6
ByLayer
370
13
48
1
60
0
100
AcDbLine
10
8.619801
20
35.958784
30
0
11
8.525906
21
36.275448
31
0
39
0
210
0
220
0
230
1
0
LINE
5
2D5
100
AcDbEntity
8
1
62
256
6
ByLayer
370
18
48
1
60
0
100
AcDbLine
10
3.475
20
-4.366047
30
0
11
3.475
21
-4.361269
31
0
39
0
210
0
220
0
230
1
0
MTEXT
5
3BF
100
AcDbEntity
8
SK6
62
256
6
ByLayer
370
13
48
1
60
0
100
AcDbMText
10
-14.057895
20
-87.623753
30
0
210
0
220
0
230
1
1
\W0.7601;N331.32C-080S27EM
40
3.5
41
0
44
1.084337
50
0
71
7
72
5
7
iso_b_vert
0
DIMENSION
5
3CB
100
AcDbEntity
8
SK2
62
256
6
ByLayer
370
13
48
1
60
0
100
AcDbDimension
2
DimnDraft3D1
10
13
20
-40
30
0
11
22.004447
21
-51.47932
31
0
70
36
71
5
72
1
41
1
210
0
220
0
230
1
3
Standard
100
AcDbRadialDimension
15
0
25
0
35
0
40
0
1001
ACAD
1000
DSTYLE
1002
{
1070
   279
1070
     0
1070
   173
1070
     1
1070
   340
1005
3C0
1070
    75
1070
     1
1070
    76
1070
     1
1070
   271
1070
     2
1070
   272
1070
     2
1070
    73
1070
     0
1070
   171
1070
     3
1070
   274
1070
     4
1070
   177
1070
     2
1070
   176
1070
     2
1070
   178
1070
     2
1070
    78
1070
     8
1070
    48
1040
-0.005
1070
    41
1041
3.5
1070
   147
1041
1.75
1070
    42
1041
1.5875
1070
    44
1041
2.0
1070
   140
1041
3.5
1070
   343
1005
0
1070
   344
1005
0
1002
}
0
DIMENSION
5
3D7
100
AcDbEntity
8
2
62
256
6
ByLayer
370
13
48
1
60
0
100
AcDbDimension
2
DimnDraft3D2
10
48.35
20
-40
30
0
11
43.35
21
2.610526
31
0
70
33
71
5
72
1
41
1
210
0
220
0
230
1
3
Standard
100
AcDbAlignedDimension
13
14.5875
23
40
33
0
14
14.5875
24
-40
34
0
1001
ACAD
1000
DSTYLE
1002
{
1070
   279
1070
     0
1070
    74
1070
     0
1070
   173
1070
     1
1070
   340
1005
3C0
1070
   271
1070
     2
1070
   272
1070
     2
1070
    77
1070
     1
1070
    73
1070
     0
1070
   171
1070
     3
1070
   274
1070
     4
1070
   177
1070
     2
1070
   176
1070
     2
1070
   178
1070
     2
1070
    78
1070
     8
1070
    48
1040
-0.005
1070
    41
1041
3.5
1070
   147
1041
2.0
1070
    42
1041
1.5875
1070
    44
1041
2.0
1070
   140
1041
4.0
1070
   343
1005
0
1070
   344
1005
0
1002
}
0
DIMENSION
5
3E2
100
AcDbEntity
8
SK2
62
256
6
ByLayer
370
13
48
1
60
0
100
AcDbDimension
2
DimnDraft3D3
10
-16.35
20
-13.5
30
0
11
-17.35
21
0.305263
31
0
70
33
71
5
72
1
41
1
210
0
220
0
230
1
3
Standard
100
AcDbAlignedDimension
13
-1.5875
23
13.5
33
0
14
-1.5875
24
-13.5
34
0
1001
ACAD
1000
DSTYLE
1002
{
1070
   279
1070
     0
1070
    74
1070
     0
1070
   173
1070
     1
1070
   340
1005
3C0
1070
   271
1070
     2
1070
   272
1070
     2
1070
    77
1070
     1
1070
    73
1070
     0
1070
   171
1070
     3
1070
   274
1070
     4
1070
   177
1070
     2
1070
   176
1070
     2
1070
   178
1070
     2
1070
    78
1070
     8
1070
    48
1040
-0.005
1070
    41
1041
3.5
1070
   147
1041
2.0
1070
    42
1041
1.5875
1070
    44
1041
2.0
1070
   140
1041
4.0
1070
   343
1005
0
1070
   344
1005
0
1002
}
0
DIMENSION
5
3ED
100
AcDbEntity
8
SK2
62
256
6
ByLayer
370
13
48
1
60
0
100
AcDbDimension
2
DimnDraft3D4
10
-31.35
20
-19.5
30
0
11
-32.35
21
2.610526
31
0
70
33
71
5
72
1
41
1
210
0
220
0
230
1
3
Standard
100
AcDbAlignedDimension
13
-1.5875
23
19.5
33
0
14
-1.5875
24
-19.5
34
0
1001
ACAD
1000
DSTYLE
1002
{
1070
   279
1070
     0
1070
    74
1070
     0
1070
   173
1070
     1
1070
   340
1005
3C0
1070
   271
1070
     2
1070
   272
1070
     2
1070
    77
1070
     1
1070
    73
1070
     0
1070
   171
1070
     3
1070
   274
1070
     4
1070
   177
1070
     2
1070
   176
1070
     2
1070
   178
1070
     2
1070
    78
1070
     8
1070
    48
1040
-0.005
1070
    41
1041
3.5
1070
   147
1041
2.0
1070
    42
1041
1.5875
1070
    44
1041
2.0
1070
   140
1041
4.0
1070
   343
1005
0
1070
   344
1005
0
1002
}
0
DIMENSION
5
3F7
100
AcDbEntity
8
SK2
62
256
6
ByLayer
370
13
48
1
60
0
100
AcDbDimension
2
DimnDraft3D5
10
3
20
43
30
0
11
-2
21
43
31
0
70
32
71
5
72
1
41
1
210
0
220
0
230
1
3
Standard
100
AcDbAlignedDimension
13
13
23
41.5875
33
0
14
3
24
41.5875
34
0
50
0
100
AcDbRotatedDimension
1001
ACAD
1000
DSTYLE
1002
{
1070
   279
1070
     0
1070
   172
1070
     1
1070
   173
1070
     1
1070
   340
1005
3C0
1070
   271
1070
     2
1070
   272
1070
     2
1070
    77
1070
     1
1070
    73
1070
     0
1070
   171
1070
     3
1070
   274
1070
     4
1070
   177
1070
     2
1070
   176
1070
     2
1070
   178
1070
     2
1070
    78
1070
     8
1070
    48
1040
-0.005
1070
    41
1041
3.5
1070
   147
1041
2.0
1070
    42
1041
1.5875
1070
    44
1041
2.0
1070
   140
1041
4.0
1070
   343
1005
0
1070
   344
1005
0
1002
}
0
DIMENSION
5
402
100
AcDbEntity
8
SK2
62
256
6
ByLayer
370
13
48
1
60
0
100
AcDbDimension
2
DimnDraft3D6
10
16
20
-54
30
0
11
-22
21
-54
31
0
70
32
71
5
72
1
41
1
210
0
220
0
230
1
3
Standard
100
AcDbAlignedDimension
13
0
23
-21.0875
33
0
14
16
24
-21.0875
34
0
50
0
100
AcDbRotatedDimension
1001
ACAD
1000
DSTYLE
1002
{
1070
   279
1070
     0
1070
   172
1070
     1
1070
   173
1070
     1
1070
   340
1005
3C0
1070
   271
1070
     2
1070
   272
1070
     2
1070
    77
1070
     1
1070
    73
1070
     0
1070
   171
1070
     3
1070
   274
1070
     4
1070
   177
1070
     2
1070
   176
1070
     2
1070
   178
1070
     2
1070
    78
1070
     8
1070
    48
1040
-0.005
1070
    41
1041
3.5
1070
   147
1041
2.0
1070
    42
1041
1.5875
1070
    44
1041
2.0
1070
   140
1041
4.0
1070
   343
1005
0
1070
   344
1005
0
1002
}
0
ENDSEC
0
SECTION
2
OBJECTS
0
DICTIONARY
5
46c
330
0
100
AcDbDictionary
280
0
281
1
3
ACAD_GROUP
350
46d
3
ACAD_MLINESTYLE
350
46e
0
DICTIONARY
5
46d
330
0
100
AcDbDictionary
280
0
281
1
0
DICTIONARY
5
46e
330
0
100
AcDbDictionary
280
0
281
1
3
Standard
350
18
0
MLINESTYLE
5
18
330
46e
100
AcDbMlineStyle
2
Standard
70
0
3

62
256
51
90
52
90
71
2
49
-0.5
62
256
6
ByLayer
49
0.5
62
256
6
ByLayer
0
RASTERVARIABLES
5
45b
330

100
AcDbRasterVariables
90
0
70
1
71
1
72
1
0
ENDSEC
0
EOF
