0
SECTION
2
HEADER
9
$ACADVER
1
AC1015
9
$DWGCODEPAGE
3
ANSI_1252
9
$HANDSEED
5
2fd
9
$ANGBASE
50
0
9
$ANGDIR
70
0
9
$ATTMODE
70
1
9
$AUNITS
70
0
9
$AUPREC
70
0
9
$CECOLOR
62
256
9
$CELTSCALE
40
1
9
$CELTYPE
6
ByLayer
9
$CELWEIGHT
370
18
9
$CLAYER
8
0
9
$CMLJUST
70
0
9
$CMLSCALE
40
1
9
$CMLSTYLE
2
Standard
9
$DIMSTYLE
2
Standard
9
$TEXTSIZE
40
0.2
9
$TEXTSTYLE
7
Standard
9
$LUNITS
70
2
9
$LUPREC
70
4
9
$EXTNAMES
290
1
9
$INSUNITS
70
4
9
$LTSCALE
40
1
9
$LWDISPLAY
290
1
9
$PDMODE
70
0
9
$PDSIZE
40
0
9
$PLINEGEN
70
0
0
ENDSEC
0
SECTION
2
CLASSES
0
CLASS
1
RASTERVARIABLES
2
AcDbRasterVariables
3
ISM
90
0
280
0
281
0
0
ENDSEC
0
SECTION
2
TABLES
0
TABLE
2
VPORT
5
2f3
100
AcDbSymbolTable
0
VPORT
5
1
100
AcDbSymbolTableRecord
100
AcDbViewportTableRecord
2
*Active
70
0
10
0
20
0
11
1
21
1
12
-1
22
1
13
0
23
0
14
0.5
24
0.5
15
10
25
10
16
0
26
0
36
1
17
0
27
0
37
0
0
ENDTAB
0
TABLE
2
LTYPE
5
2f4
100
AcDbSymbolTable
0
LTYPE
5
14
100
AcDbSymbolTableRecord
100
AcDbLinetypeTableRecord
70
0
2
ByBlock
3

72
65
73
0
40
0
0
LTYPE
5
15
100
AcDbSymbolTableRecord
100
AcDbLinetypeTableRecord
70
0
2
ByLayer
3

72
65
73
0
40
0
0
LTYPE
5
16
100
AcDbSymbolTableRecord
100
AcDbLinetypeTableRecord
70
0
2
CONTINUOUS
3
Solid line
72
65
73
0
40
0
0
LTYPE
5
6A
100
AcDbSymbolTableRecord
100
AcDbLinetypeTableRecord
70
0
2
CENTER
3
____ _ ____ _ ____ _ ____
72
65
73
4
40
47.5
49
22
74
0
49
-8.5
74
0
49
8.5
74
0
49
-8.5
74
0
0
LTYPE
5
6B
100
AcDbSymbolTableRecord
100
AcDbLinetypeTableRecord
70
0
2
DASHED
3
__ __ __ __ __ __ __ __ __
72
65
73
2
40
25.72
49
12.86
74
0
49
-12.86
74
0
0
ENDTAB
0
TABLE
2
LAYER
5
2f5
100
AcDbSymbolTable
0
LAYER
5
10
100
AcDbSymbolTableRecord
100
AcDbLayerTableRecord
2
0
70
0
62
7
6
CONTINUOUS
290
1
370
-3
390
0
0
LAYER
5
6D
100
AcDbSymbolTableRecord
100
AcDbLayerTableRecord
2
80
70
0
62
-6
6
CONTINUOUS
290
1
370
-3
390
0
0
LAYER
5
6F
100
AcDbSymbolTableRecord
100
AcDbLayerTableRecord
2
81
70
0
62
-3
6
CONTINUOUS
290
1
370
-3
390
0
0
LAYER
5
71
100
AcDbSymbolTableRecord
100
AcDbLayerTableRecord
2
4
70
0
62
-2
6
CENTER
290
1
370
-3
390
0
0
LAYER
5
7B
100
AcDbSymbolTableRecord
100
AcDbLayerTableRecord
2
1
70
0
62
4
6
CONTINUOUS
290
1
370
-3
390
0
0
LAYER
5
257
100
AcDbSymbolTableRecord
100
AcDbLayerTableRecord
2
2
70
0
62
7
6
CONTINUOUS
290
1
370
-3
390
0
0
LAYER
5
2dd
100
AcDbSymbolTableRecord
100
AcDbLayerTableRecord
2
SK4
70
0
62
2
6
CENTER
290
1
370
-3
390
0
0
LAYER
5
2de
100
AcDbSymbolTableRecord
100
AcDbLayerTableRecord
2
SK1
70
0
62
4
6
CONTINUOUS
290
1
370
-3
390
0
0
LAYER
5
2df
100
AcDbSymbolTableRecord
100
AcDbLayerTableRecord
2
SK6
70
0
62
5
6
CONTINUOUS
290
1
370
-3
390
0
0
LAYER
5
2e0
100
AcDbSymbolTableRecord
100
AcDbLayerTableRecord
2
SK2
70
0
62
7
6
CONTINUOUS
290
1
370
-3
390
0
0
ENDTAB
0
TABLE
2
STYLE
5
2f6
100
AcDbSymbolTable
0
STYLE
5
11
100
AcDbSymbolTableRecord
100
AcDbTextStyleTableRecord
2
Standard
3
txt
70
0
71
0
40
0
41
1
42
0
50
0
0
STYLE
5
252
100
AcDbSymbolTableRecord
100
AcDbTextStyleTableRecord
2
iso_b_vert
3
simplex.shx
70
0
71
0
40
0
41
1
42
0
50
0
0
STYLE
5
253
100
AcDbSymbolTableRecord
100
AcDbTextStyleTableRecord
2
DWGDirectTextStyle
3
simplex
70
0
71
0
40
0
41
1
42
0
50
0
0
ENDTAB
0
TABLE
2
DIMSTYLE
5
2f7
100
AcDbSymbolTable
100
AcDbDimStyleTable
0
DIMSTYLE
105
27
100
AcDbSymbolTableRecord
100
AcDbDimStyleTableRecord
2
Standard
70
0
3
<>
41
0.18
42
0.0625
44
0.18
140
0.18
147
0.09
73
0
74
0
77
1
271
2
275
0
278
52
280
0
340
11
0
ENDTAB
0
TABLE
2
VIEW
5
2f8
100
AcDbSymbolTable
0
ENDTAB
0
TABLE
2
UCS
5
2f9
100
AcDbSymbolTable
0
ENDTAB
0
TABLE
2
APPID
5
2fa
100
AcDbSymbolTable
0
APPID
5
12
100
AcDbSymbolTableRecord
100
AcDbRegAppTableRecord
2
ACAD
70
0
0
ENDTAB
0
TABLE
2
BLOCK_RECORD
5
2fb
100
AcDbSymbolTable
0
BLOCK_RECORD
5
1F
100
AcDbSymbolTableRecord
100
AcDbBlockTableRecord
2
*Model_Space
340
0
70
0
0
BLOCK_RECORD
5
1B
100
AcDbSymbolTableRecord
100
AcDbBlockTableRecord
2
*Paper_Space
340
0
70
0
0
BLOCK_RECORD
5
23
100
AcDbSymbolTableRecord
100
AcDbBlockTableRecord
2
*Paper_Space0
340
0
70
0
0
BLOCK_RECORD
5
255
100
AcDbSymbolTableRecord
100
AcDbBlockTableRecord
2
DimnDraft3D1
340
0
70
0
0
BLOCK_RECORD
5
260
100
AcDbSymbolTableRecord
100
AcDbBlockTableRecord
2
DimnDraft3D2
340
0
70
0
0
BLOCK_RECORD
5
26A
100
AcDbSymbolTableRecord
100
AcDbBlockTableRecord
2
DimnDraft3D3
340
0
70
0
0
BLOCK_RECORD
5
274
100
AcDbSymbolTableRecord
100
AcDbBlockTableRecord
2
DimnDraft3D4
340
0
70
0
0
ENDTAB
0
ENDSEC
0
SECTION
2
BLOCKS
0
BLOCK
5
20
100
AcDbEntity
8
0
100
AcDbBlockBegin
2
*Model_Space
70
0
10
0
20
0
30
0
3
*Model_Space
0
ENDBLK
5
21
100
AcDbEntity
8
0
100
AcDbBlockEnd
0
BLOCK
5
1C
100
AcDbEntity
8
0
100
AcDbBlockBegin
2
*Paper_Space
70
0
10
0
20
0
30
0
3
*Paper_Space
0
ENDBLK
5
1D
100
AcDbEntity
8
0
100
AcDbBlockEnd
0
BLOCK
5
24
100
AcDbEntity
8
0
100
AcDbBlockBegin
2
*Paper_Space0
70
0
10
0
20
0
30
0
3
*Paper_Space0
0
ENDBLK
5
25
100
AcDbEntity
8
0
100
AcDbBlockEnd
0
BLOCK
5
25D
100
AcDbEntity
8
0
100
AcDbBlockBegin
2
DimnDraft3D1
70
0
10
0
20
0
30
0
3
DimnDraft3D1
0
MTEXT
5
256
100
AcDbEntity
8
2
62
256
6
ByLayer
370
18
48
1
60
0
100
AcDbMText
10
46.582047
20
75.84377
30
0
210
0
220
0
230
1
1
\W0.6869;100.0
40
3
41
0
44
1.084337
50
0
71
7
72
5
7
iso_b_vert
0
LINE
5
258
100
AcDbEntity
8
2
62
256
6
ByLayer
370
13
48
1
60
0
100
AcDbLine
10
100.000937
20
59.485353
30
0
11
100.000937
21
77.09377
31
0
39
0
210
0
220
0
230
1
0
LINE
5
259
100
AcDbEntity
8
2
62
256
6
ByLayer
370
13
48
1
60
0
100
AcDbLine
10
0
20
41.7
30
0
11
0
21
77.09377
31
0
39
0
210
0
220
0
230
1
0
LINE
5
25A
100
AcDbEntity
8
2
62
256
6
ByLayer
370
13
48
1
60
0
100
AcDbLine
10
100.000937
20
75.09377
30
0
11
0
21
75.09377
31
0
39
0
210
0
220
0
230
1
0
SOLID
5
25B
100
AcDbEntity
8
2
62
256
6
ByLayer
370
13
48
1
60
0
100
AcDbTrace
10
100.000937
20
75.09377
30
0
11
96.825939
21
74.675773
31
0
12
96.825935
22
75.511767
32
0
13
100.000937
23
75.09377
33
0
39
0
210
0
220
0
230
1
0
SOLID
5
25C
100
AcDbEntity
8
2
62
256
6
ByLayer
370
13
48
1
60
0
100
AcDbTrace
10
0
20
75.09377
30
0
11
3.174998
21
75.511767
31
0
12
3.175002
22
74.675773
32
0
13
0
23
75.09377
33
0
39
0
210
0
220
0
230
1
0
ENDBLK
5
25E
100
AcDbEntity
8
0
100
AcDbBlockEnd
0
BLOCK
5
267
100
AcDbEntity
8
0
100
AcDbBlockBegin
2
DimnDraft3D2
70
0
10
0
20
0
30
0
3
DimnDraft3D2
0
MTEXT
5
261
100
AcDbEntity
8
2
62
256
6
ByLayer
370
18
48
1
60
0
100
AcDbMText
10
130.834749
20
-12.041131
30
0
210
0
220
0
230
1
1
\W0.7034;Dc=115.0-150.0
40
3
41
0
44
1.084337
50
90
71
7
72
5
7
iso_b_vert
0
LINE
5
262
100
AcDbEntity
8
2
62
256
6
ByLayer
370
13
48
1
60
0
100
AcDbLine
10
102.000937
20
57.485353
30
0
11
133.584749
21
57.485353
31
0
39
0
210
0
220
0
230
1
0
LINE
5
263
100
AcDbEntity
8
2
62
256
6
ByLayer
370
13
48
1
60
0
100
AcDbLine
10
101.074041
20
-57.472878
30
0
11
133.584749
21
-57.472878
31
0
39
0
210
0
220
0
230
1
0
LINE
5
264
100
AcDbEntity
8
2
62
256
6
ByLayer
370
13
48
1
60
0
100
AcDbLine
10
131.584749
20
57.485353
30
0
11
131.584749
21
-57.472878
31
0
39
0
210
0
220
0
230
1
0
SOLID
5
265
100
AcDbEntity
8
2
62
256
6
ByLayer
370
13
48
1
60
0
100
AcDbTrace
10
131.584749
20
57.485353
30
0
11
132.002746
21
54.310354
31
0
12
131.166752
22
54.310351
32
0
13
131.584749
23
57.485353
33
0
39
0
210
0
220
0
230
1
0
SOLID
5
266
100
AcDbEntity
8
2
62
256
6
ByLayer
370
13
48
1
60
0
100
AcDbTrace
10
131.584749
20
-57.472878
30
0
11
131.166752
21
-54.29788
31
0
12
132.002746
22
-54.297877
32
0
13
131.584749
23
-57.472878
33
0
39
0
210
0
220
0
230
1
0
ENDBLK
5
268
100
AcDbEntity
8
0
100
AcDbBlockEnd
0
BLOCK
5
271
100
AcDbEntity
8
0
100
AcDbBlockBegin
2
DimnDraft3D3
70
0
10
0
20
0
30
0
3
DimnDraft3D3
0
MTEXT
5
26B
100
AcDbEntity
8
2
62
256
6
ByLayer
370
18
48
1
60
0
100
AcDbMText
10
110.943301
20
43.776899
30
0
210
0
220
0
230
1
1
\W0.5899;90%%d
40
3
41
0
44
1.084337
50
45
71
7
72
5
7
iso_b_vert
0
LINE
5
26C
100
AcDbEntity
8
2
62
256
6
ByLayer
370
13
48
1
60
0
100
AcDbLine
10
100.000937
20
43.493353
30
0
11
100.000937
21
37.304592
31
0
39
0
210
0
220
0
230
1
0
LINE
5
26D
100
AcDbEntity
8
2
62
256
6
ByLayer
370
13
48
1
60
0
100
AcDbLine
10
104.000937
20
57.485353
30
0
11
120.181698
21
57.485353
31
0
39
0
210
0
220
0
230
1
0
ARC
5
26E
100
AcDbEntity
8
2
62
256
6
ByLayer
370
13
48
1
60
0
100
AcDbCircle
39
0
10
100.000937
20
57.485353
30
0
40
18.1807606650688
210
0
220
0
230
1
100
AcDbArc
50
270
51
0
0
SOLID
5
26F
100
AcDbEntity
8
2
62
256
6
ByLayer
370
13
48
1
60
0
100
AcDbTrace
10
100.000937
20
39.304592
30
0
11
103.154728
21
39.860415
31
0
12
103.191126
22
39.025214
32
0
13
100.000937
23
39.304592
33
0
39
0
210
0
220
0
230
1
0
SOLID
5
270
100
AcDbEntity
8
2
62
256
6
ByLayer
370
13
48
1
60
0
100
AcDbTrace
10
118.181698
20
57.485353
30
0
11
118.461076
21
54.295167
31
0
12
117.625875
22
54.331559
32
0
13
118.181698
23
57.485353
33
0
39
0
210
0
220
0
230
1
0
ENDBLK
5
272
100
AcDbEntity
8
0
100
AcDbBlockEnd
0
BLOCK
5
27D
100
AcDbEntity
8
0
100
AcDbBlockBegin
2
DimnDraft3D4
70
0
10
0
20
0
30
0
3
DimnDraft3D4
0
MTEXT
5
275
100
AcDbEntity
8
SK2
62
256
6
ByLayer
370
18
48
1
60
0
100
AcDbMText
10
-64.401502
20
1.164474
30
0
210
0
220
0
230
1
1
\W0.6337;80
40
3
41
0
44
1.084337
50
90
71
7
72
5
7
iso_b_vert
0
MTEXT
5
277
100
AcDbEntity
8
SK2
62
256
6
ByLayer
370
18
48
1
60
0
100
AcDbMText
10
-64.401502
20
-3.248684
30
0
210
0
220
0
230
1
1
\W1.1719;%%c
40
3
41
0
44
1.084337
50
90
71
7
72
5
7
iso_b_vert
0
LINE
5
278
100
AcDbEntity
8
SK2
62
256
6
ByLayer
370
13
48
1
60
0
100
AcDbLine
10
-1.7
20
40
30
0
11
-65.651502
21
40
31
0
39
0
210
0
220
0
230
1
0
LINE
5
279
100
AcDbEntity
8
SK2
62
256
6
ByLayer
370
13
48
1
60
0
100
AcDbLine
10
-1.7
20
-40
30
0
11
-65.651502
21
-40
31
0
39
0
210
0
220
0
230
1
0
LINE
5
27A
100
AcDbEntity
8
SK2
62
256
6
ByLayer
370
13
48
1
60
0
100
AcDbLine
10
-63.651502
20
40
30
0
11
-63.651502
21
-40
31
0
39
0
210
0
220
0
230
1
0
SOLID
5
27B
100
AcDbEntity
8
SK2
62
256
6
ByLayer
370
13
48
1
60
0
100
AcDbTrace
10
-63.651502
20
40
30
0
11
-63.233506
21
36.825002
31
0
12
-64.069499
22
36.824998
32
0
13
-63.651502
23
40
33
0
39
0
210
0
220
0
230
1
0
SOLID
5
27C
100
AcDbEntity
8
SK2
62
256
6
ByLayer
370
13
48
1
60
0
100
AcDbTrace
10
-63.651502
20
-40
30
0
11
-64.069499
21
-36.825002
31
0
12
-63.233506
22
-36.824998
32
0
13
-63.651502
23
-40
33
0
39
0
210
0
220
0
230
1
0
ENDBLK
5
27E
100
AcDbEntity
8
0
100
AcDbBlockEnd
0
ENDSEC
0
SECTION
2
ENTITIES
0
ARC
5
163
100
AcDbEntity
8
SK1
62
256
6
ByLayer
370
18
48
1
60
0
100
AcDbCircle
39
0
10
0.6
20
-29.6
30
0
40
1.00000000000001
210
0
220
0
230
-1
100
AcDbArc
50
113.578178
51
126.870857
0
ARC
5
164
100
AcDbEntity
8
SK1
62
256
6
ByLayer
370
18
48
1
60
0
100
AcDbCircle
39
0
10
0.6
20
29.6
30
0
40
1.00000000000001
210
0
220
0
230
-1
100
AcDbArc
50
233.129143
51
246.421822
0
ARC
5
165
100
AcDbEntity
8
1
62
256
6
ByLayer
370
18
48
1
60
0
100
AcDbCircle
39
0
10
-62.8
20
-48.5
30
0
40
0.9
210
0
220
0
230
-1
100
AcDbArc
50
138.15762
51
108.15762
0
ARC
5
166
100
AcDbEntity
8
1
62
256
6
ByLayer
370
18
48
1
60
0
100
AcDbCircle
39
0
10
62.8
20
-48.5
30
0
40
1.15358983848623
210
0
220
0
230
1
100
AcDbArc
50
71.84238
51
41.84238
0
ARC
5
167
100
AcDbEntity
8
1
62
256
6
ByLayer
370
18
48
1
60
0
100
AcDbCircle
39
0
10
62.8
20
48.5
30
0
40
1.15358983848623
210
0
220
0
230
1
100
AcDbArc
50
105
51
75
0
ARC
5
168
100
AcDbEntity
8
1
62
256
6
ByLayer
370
18
48
1
60
0
100
AcDbCircle
39
0
10
-62.8
20
48.5
30
0
40
0.9
210
0
220
0
230
-1
100
AcDbArc
50
105
51
75
0
ARC
5
16B
100
AcDbEntity
8
1
62
256
6
ByLayer
370
18
48
1
60
0
100
AcDbCircle
39
0
10
-94.039188
20
31.000176
30
0
40
5.63825058181485
210
0
220
0
230
-1
100
AcDbArc
50
12.2068
51
76
0
ARC
5
16C
100
AcDbEntity
8
1
62
256
6
ByLayer
370
18
48
1
60
0
100
AcDbCircle
39
0
10
-46.558392
20
38.607718
30
0
40
16.0000000001589
210
0
220
0
230
-1
100
AcDbArc
50
272
51
300.68148
0
CIRCLE
5
169
100
AcDbEntity
8
1
62
256
6
ByLayer
370
18
48
1
60
0
100
AcDbCircle
10
62.8
20
-48.5
30
0
40
1.5
39
0
210
0
220
0
230
1
0
CIRCLE
5
16A
100
AcDbEntity
8
1
62
256
6
ByLayer
370
18
48
1
60
0
100
AcDbCircle
10
62.8
20
48.5
30
0
40
1.5
39
0
210
0
220
0
230
1
0
ELLIPSE
5
16D
100
AcDbEntity
8
1
62
256
6
ByLayer
370
13
48
1
60
0
100
AcDbEllipse
10
96.775266
20
27
30
0
11
-1.4571284852544E-15
21
-7.9325
31
0
210
0
220
0
230
1
40
0.104528
41
3.14146928896634
42
-3.09763572950211
0
ELLIPSE
5
16E
100
AcDbEntity
8
1
62
256
6
ByLayer
370
13
48
1
60
0
100
AcDbEllipse
10
96.775266
20
27
30
0
11
-1.4571284852544E-15
21
-7.9325
31
0
210
0
220
0
230
1
40
0.104528
41
-3.09763572950216
42
-0.000123014250629675
0
ELLIPSE
5
16F
100
AcDbEntity
8
1
62
256
6
ByLayer
370
18
48
1
60
0
100
AcDbEllipse
10
93.718803
20
50.243744
30
0
11
1.31203773686019
21
-1.043491225193
31
0
210
0
220
0
230
1
40
0.986145
41
-2.29752269563383
42
-1.25032514443719
0
ELLIPSE
5
170
100
AcDbEntity
8
1
62
256
6
ByLayer
370
18
48
1
60
0
100
AcDbEllipse
10
93.718803
20
50.243744
30
0
11
1.31203773686019
21
-1.043491225193
31
0
210
0
220
0
230
1
40
0.986145
41
-1.25032514443719
42
-0.203127593240614
0
ELLIPSE
5
171
100
AcDbEntity
8
1
62
256
6
ByLayer
370
18
48
1
60
0
100
AcDbEllipse
10
93.718803
20
50.243744
30
0
11
1.31203773686019
21
-1.043491225193
31
0
210
0
220
0
230
1
40
0.986145
41
-0.203127593240614
42
0.844069957955937
0
ELLIPSE
5
172
100
AcDbEntity
8
1
62
256
6
ByLayer
370
18
48
1
60
0
100
AcDbEllipse
10
93.718803
20
50.243744
30
0
11
1.31203773686019
21
-1.043491225193
31
0
210
0
220
0
230
1
40
0.986145
41
0.844069957955937
42
1.89126750915252
0
ELLIPSE
5
173
100
AcDbEntity
8
1
62
256
6
ByLayer
370
18
48
1
60
0
100
AcDbEllipse
10
93.718803
20
50.243744
30
0
11
1.31203773686019
21
-1.043491225193
31
0
210
0
220
0
230
1
40
0.986145
41
1.89126750915252
42
2.93846506034913
0
ELLIPSE
5
174
100
AcDbEntity
8
1
62
256
6
ByLayer
370
18
48
1
60
0
100
AcDbEllipse
10
93.718803
20
50.243744
30
0
11
1.31203773686019
21
-1.043491225193
31
0
210
0
220
0
230
1
40
0.986145
41
2.93846506034913
42
-2.29752269563383
0
ELLIPSE
5
175
100
AcDbEntity
8
1
62
256
6
ByLayer
370
18
48
1
60
0
100
AcDbEllipse
10
93.718803
20
50.243744
30
0
11
-1.40877351846118
21
1.12042722819579
31
0
210
0
220
0
230
1
40
0.986145
41
0
42
6.28318530717959
0
ELLIPSE
5
176
100
AcDbEntity
8
1
62
256
6
ByLayer
370
18
48
1
60
0
100
AcDbEllipse
10
93.680214
20
50.195224
30
0
11
-2.13272657655929
21
1.69620233157418
31
0
210
0
220
0
230
1
40
0.986145
41
0
42
6.28318530717959
0
ELLIPSE
5
177
100
AcDbEntity
8
1
62
256
6
ByLayer
370
18
48
1
60
0
100
AcDbEllipse
10
93.553595
20
50.036019
30
0
11
1.00985581715026
21
-0.803159584745008
31
0
210
0
220
0
230
1
40
0.986145
41
-1.49327471850117
42
-0.89252688292449
0
ELLIPSE
5
178
100
AcDbEntity
8
1
62
256
6
ByLayer
370
18
48
1
60
0
100
AcDbEllipse
10
93.553595
20
50.036019
30
0
11
1.00985581715026
21
-0.803159584745008
31
0
210
0
220
0
230
1
40
0.986145
41
-2.73773798440446
42
-2.1286944399359
0
ELLIPSE
5
179
100
AcDbEntity
8
1
62
256
6
ByLayer
370
18
48
1
60
0
100
AcDbEllipse
10
93.553595
20
50.036019
30
0
11
-1.00985581715026
21
0.803159584745015
31
0
210
0
220
0
230
1
40
0.986145
41
-0.726726368838932
42
0.0403294723764822
0
ELLIPSE
5
17A
100
AcDbEntity
8
1
62
256
6
ByLayer
370
18
48
1
60
0
100
AcDbEllipse
10
93.553595
20
50.036019
30
0
11
1.00985581715026
21
-0.803159584745008
31
0
210
0
220
0
230
1
40
0.986145
41
1.36766873355424
42
2.41486628475079
0
ELLIPSE
5
17B
100
AcDbEntity
8
1
62
256
6
ByLayer
370
18
48
1
60
0
100
AcDbEllipse
10
93.553595
20
50.036019
30
0
11
1.00985581715026
21
-0.803159584745008
31
0
210
0
220
0
230
1
40
0.986145
41
0.320471182357656
42
1.36766873355424
0
ELLIPSE
5
17C
100
AcDbEntity
8
1
62
256
6
ByLayer
370
18
48
1
60
0
100
AcDbEllipse
10
93.553595
20
50.036019
30
0
11
1.00985581715026
21
-0.803159584745008
31
0
210
0
220
0
230
1
40
0.986145
41
-0.361974176889594
42
0.320471182357629
0
ELLIPSE
5
17D
100
AcDbEntity
8
1
62
256
6
ByLayer
370
13
48
1
60
0
100
AcDbEllipse
10
97.769788
20
27
30
0
11
-1.1148450462491E-15
21
6.9325
31
0
210
0
220
0
230
1
40
0.104528
41
0.0439573949194463
42
0.663930845039392
0
ELLIPSE
5
17E
100
AcDbEntity
8
1
62
256
6
ByLayer
370
18
48
1
60
0
100
AcDbEllipse
10
97.769788
20
27
30
0
11
-1.1148450462491E-15
21
6.9325
31
0
210
0
220
0
230
1
40
0.104528
41
0.663930845039392
42
2.46386703284895
0
ELLIPSE
5
17F
100
AcDbEntity
8
1
62
256
6
ByLayer
370
13
48
1
60
0
100
AcDbEllipse
10
97.769788
20
27
30
0
11
-1.1148450462491E-15
21
6.9325
31
0
210
0
220
0
230
1
40
0.104528
41
2.46386703284895
42
-2.10862285348626
0
ELLIPSE
5
180
100
AcDbEntity
8
1
62
256
6
ByLayer
370
18
48
1
60
0
100
AcDbEllipse
10
97.769788
20
27
30
0
11
-1.1148450462491E-15
21
6.9325
31
0
210
0
220
0
230
1
40
0.104528
41
-2.10862285348628
42
-0.974115125442951
0
ELLIPSE
5
181
100
AcDbEntity
8
1
62
256
6
ByLayer
370
13
48
1
60
0
100
AcDbEllipse
10
97.769788
20
27
30
0
11
-1.1148450462491E-15
21
6.9325
31
0
210
0
220
0
230
1
40
0.104528
41
-0.974115125442951
42
0
0
ELLIPSE
5
182
100
AcDbEntity
8
1
62
256
6
ByLayer
370
13
48
1
60
0
100
AcDbEllipse
10
97.769788
20
27
30
0
11
-1.1148450462491E-15
21
6.9325
31
0
210
0
220
0
230
1
40
0.104528
41
0
42
0.0439577188228903
0
ELLIPSE
5
183
100
AcDbEntity
8
1
62
256
6
ByLayer
370
18
48
1
60
0
100
AcDbEllipse
10
97.769788
20
27
30
0
11
-8.59037571757271E-16
21
-4.67653718043597
31
0
210
0
220
0
230
1
40
0.104528
41
-1.52683916109102
42
-0.479641609894317
0
ELLIPSE
5
184
100
AcDbEntity
8
1
62
256
6
ByLayer
370
18
48
1
60
0
100
AcDbEllipse
10
97.769788
20
27
30
0
11
-8.59037571757271E-16
21
-4.67653718043597
31
0
210
0
220
0
230
1
40
0.104528
41
-0.479641609894317
42
0.567555941302231
0
ELLIPSE
5
185
100
AcDbEntity
8
1
62
256
6
ByLayer
370
18
48
1
60
0
100
AcDbEllipse
10
97.769788
20
27
30
0
11
-8.59037571757271E-16
21
-4.67653718043597
31
0
210
0
220
0
230
1
40
0.104528
41
0.567555941302231
42
1.61475349249877
0
ELLIPSE
5
186
100
AcDbEntity
8
1
62
256
6
ByLayer
370
18
48
1
60
0
100
AcDbEllipse
10
97.769788
20
27
30
0
11
-8.59037571757271E-16
21
-4.67653718043597
31
0
210
0
220
0
230
1
40
0.104528
41
1.61475349249877
42
2.66195104369525
0
ELLIPSE
5
187
100
AcDbEntity
8
1
62
256
6
ByLayer
370
18
48
1
60
0
100
AcDbEllipse
10
97.769788
20
27
30
0
11
-8.59037571757271E-16
21
-4.67653718043597
31
0
210
0
220
0
230
1
40
0.104528
41
2.66195104369525
42
-2.57403671228776
0
ELLIPSE
5
188
100
AcDbEntity
8
1
62
256
6
ByLayer
370
18
48
1
60
0
100
AcDbEllipse
10
97.769788
20
27
30
0
11
-8.59037571757271E-16
21
-4.67653718043597
31
0
210
0
220
0
230
1
40
0.104528
41
-2.57403671228776
42
-1.52683916109103
0
ELLIPSE
5
189
100
AcDbEntity
8
1
62
256
6
ByLayer
370
18
48
1
60
0
100
AcDbEllipse
10
87.824569
20
27
30
0
11
-1.83690953073357E-15
21
-10
31
0
210
0
220
0
230
1
40
0.104528
41
0.584041621474665
42
0.65472751350759
0
ELLIPSE
5
18A
100
AcDbEntity
8
1
62
256
6
ByLayer
370
18
48
1
60
0
100
AcDbEllipse
10
91.242065
20
-46.102508
30
0
11
1.4336991383141
21
0.816704830889009
31
0
210
0
220
0
230
1
40
0.977999
41
0
42
6.28318530717959
0
ELLIPSE
5
18B
100
AcDbEntity
8
1
62
256
6
ByLayer
370
18
48
1
60
0
100
AcDbEllipse
10
91.242065
20
-46.102508
30
0
11
1.95504427951922
21
1.11368840575774
31
0
210
0
220
0
230
1
40
0.977999
41
1.06250618752501
42
2.63330251431981
0
ELLIPSE
5
18C
100
AcDbEntity
8
1
62
256
6
ByLayer
370
18
48
1
60
0
100
AcDbEllipse
10
84.959636
20
-66.586632
30
0
11
-10.4269028241025
21
-5.93967149737445
31
0
210
0
220
0
230
1
40
0.977999
41
-2.25361939126429
42
-2.11399305110474
0
ELLIPSE
5
18D
100
AcDbEntity
8
1
62
256
6
ByLayer
370
18
48
1
60
0
100
AcDbEllipse
10
98.719686
20
-44.744157
30
0
11
0.689913403528116
21
0.393008264076286
31
0
210
0
220
0
230
1
40
0.977999
41
-0.508290139269992
42
0.775900796930317
0
ELLIPSE
5
18E
100
AcDbEntity
8
1
62
256
6
ByLayer
370
18
48
1
60
0
100
AcDbEllipse
10
98.719686
20
-55.838635
30
0
11
0.689913403528113
21
0.393008264076284
31
0
210
0
220
0
230
1
40
0.977999
41
-2.25361939126431
42
-0.508290139269926
0
ELLIPSE
5
18F
100
AcDbEntity
8
1
62
256
6
ByLayer
370
18
48
1
60
0
100
AcDbEllipse
10
87.667081
20
-54.121192
30
0
11
0.689913403528113
21
0.393008264076284
31
0
210
0
220
0
230
1
40
0.977999
41
2.63330251431983
42
-2.2536193912642
0
ELLIPSE
5
190
100
AcDbEntity
8
1
62
256
6
ByLayer
370
18
48
1
60
0
100
AcDbEllipse
10
99.211181
20
-56.70144
30
0
11
0.689913403528113
21
0.393008264076284
31
0
210
0
220
0
230
1
40
0.977999
41
-2.2536193912642
42
-0.508290139269992
0
ELLIPSE
5
191
100
AcDbEntity
8
1
62
256
6
ByLayer
370
18
48
1
60
0
100
AcDbEllipse
10
88.158576
20
-54.983996
30
0
11
0.689913403528113
21
0.393008264076284
31
0
210
0
220
0
230
1
40
0.977999
41
-3.14157787962648
42
-2.25361939126426
0
ELLIPSE
5
192
100
AcDbEntity
8
1
62
256
6
ByLayer
370
18
48
1
60
0
100
AcDbEllipse
10
99.211181
20
-45.606961
30
0
11
0.689913403528116
21
0.393008264076286
31
0
210
0
220
0
230
1
40
0.977999
41
-0.508290139269992
42
1.50014027154148E-05
0
ELLIPSE
5
193
100
AcDbEntity
8
1
62
256
6
ByLayer
370
18
48
1
60
0
100
AcDbEllipse
10
93.594897
20
50.08795
30
0
11
-2.13272657655929
21
1.69620233157418
31
0
210
0
220
0
230
1
40
0.986145
41
0
42
3.14155611194446
0
ELLIPSE
5
194
100
AcDbEntity
8
1
62
256
6
ByLayer
370
18
48
1
60
0
100
AcDbEllipse
10
97.423398
20
-27
30
0
11
-1.1148450462491E-15
21
6.9325
31
0
210
0
220
0
230
1
40
0.104528
41
-2.18641541970122
42
-0.792922653915131
0
ELLIPSE
5
195
100
AcDbEntity
8
1
62
256
6
ByLayer
370
18
48
1
60
0
100
AcDbEllipse
10
86.528988
20
45.181361
30
0
11
-1.95116569875609
21
1.55180314433787
31
0
210
0
220
0
230
1
40
0.986145
41
1.54653858101958
42
2.08706772316169
0
ELLIPSE
5
196
100
AcDbEntity
8
1
62
256
6
ByLayer
370
18
48
1
60
0
100
AcDbEllipse
10
86.788068
20
43.713277
30
0
11
-0.917305056699968
21
0.729552017141104
31
0
210
0
220
0
230
1
40
0.986145
41
1.66827028541285
42
2.41042483184593
0
ELLIPSE
5
197
100
AcDbEntity
8
1
62
256
6
ByLayer
370
18
48
1
60
0
100
AcDbEllipse
10
85.377704
20
43.781625
30
0
11
2.0520980286006
21
-1.63207675047899
31
0
210
0
220
0
230
1
40
0.986145
41
2.41042483184589
42
2.68629605407044
0
ELLIPSE
5
198
100
AcDbEntity
8
1
62
256
6
ByLayer
370
18
48
1
60
0
100
AcDbEllipse
10
86.522079
20
45.22051
30
0
11
-1.95116569875609
21
1.55180314433787
31
0
210
0
220
0
230
1
40
0.986145
41
-0.731167821743905
42
-0.219952678963711
0
ELLIPSE
5
199
100
AcDbEntity
8
1
62
256
6
ByLayer
370
18
48
1
60
0
100
AcDbEllipse
10
84.959636
20
66.571699
30
0
11
9.39182345640795
21
-7.46951485463852
31
0
210
0
220
0
230
1
40
0.986145
41
-0.87079416190345
42
-0.731167821743903
0
ELLIPSE
5
19A
100
AcDbEntity
8
1
62
256
6
ByLayer
370
18
48
1
60
0
100
AcDbEllipse
10
85.359424
20
43.758641
30
0
11
-1.91514320790083
21
1.52315369923348
31
0
210
0
220
0
230
1
40
0.986145
41
-0.7311678217439
42
-0.400564181514698
0
ELLIPSE
5
19B
100
AcDbEntity
8
1
62
256
6
ByLayer
370
18
48
1
60
0
100
AcDbEllipse
10
97.295537
20
-53.81663
30
0
11
1.2164719961453
21
0.692961674693707
31
0
210
0
220
0
230
1
40
0.977999
41
-2.2536193912642
42
-0.508290139269955
0
ELLIPSE
5
19C
100
AcDbEntity
8
1
62
256
6
ByLayer
370
18
48
1
60
0
100
AcDbEllipse
10
97.262322
20
-53.758323
30
0
11
-1.08613571084403
21
-0.618715780976511
31
0
210
0
220
0
230
1
40
0.977999
41
0.887973262325457
42
2.63330251431974
0
ELLIPSE
5
19D
100
AcDbEntity
8
1
62
256
6
ByLayer
370
18
48
1
60
0
100
AcDbEllipse
10
97.262322
20
-44.273302
30
0
11
1.08613571084401
21
0.618715780976518
31
0
210
0
220
0
230
1
40
0.977999
41
-0.508290139269949
42
0.258694976205395
0
ELLIPSE
5
19E
100
AcDbEntity
8
1
62
256
6
ByLayer
370
18
48
1
60
0
100
AcDbEllipse
10
87.813101
20
-52.290026
30
0
11
1.08613571084402
21
0.618715780976524
31
0
210
0
220
0
230
1
40
0.977999
41
-3.02060440001066
42
-2.25361939126434
0
ELLIPSE
5
19F
100
AcDbEntity
8
1
62
256
6
ByLayer
370
18
48
1
60
0
100
AcDbEllipse
10
97.917994
20
-54.909333
30
0
11
1.39025370988033
21
0.791956199649944
31
0
210
0
220
0
230
1
40
0.977999
41
-2.25361939126428
42
-0.508290139269928
0
ELLIPSE
5
1A0
100
AcDbEntity
8
1
62
256
6
ByLayer
370
18
48
1
60
0
100
AcDbEllipse
10
97.295537
20
-53.81663
30
0
11
-1.39025370988035
21
-0.791956199649933
31
0
210
0
220
0
230
1
40
0.977999
41
0.887973262325518
42
2.63330251431981
0
ELLIPSE
5
1A1
100
AcDbEntity
8
1
62
256
6
ByLayer
370
18
48
1
60
0
100
AcDbEllipse
10
97.295537
20
-44.33161
30
0
11
-1.2164719961453
21
-0.692961674693685
31
0
210
0
220
0
230
1
40
0.977999
41
2.63330251431989
42
-2.74656580270106
0
ELLIPSE
5
1A2
100
AcDbEntity
8
1
62
256
6
ByLayer
370
18
48
1
60
0
100
AcDbEllipse
10
87.846316
20
-52.348333
30
0
11
-1.21647199614531
21
-0.692961674693691
31
0
210
0
220
0
230
1
40
0.977999
41
-0.0332549239027422
42
0.887973262325553
0
ELLIPSE
5
1A3
100
AcDbEntity
8
1
62
256
6
ByLayer
370
18
48
1
60
0
100
AcDbEllipse
10
87.846316
20
-52.348333
30
0
11
1.39025370988034
21
0.791956199649949
31
0
210
0
220
0
230
1
40
0.977999
41
3.01646751412715
42
-2.25361939126423
0
ELLIPSE
5
1A4
100
AcDbEntity
8
1
62
256
6
ByLayer
370
18
48
1
60
0
100
AcDbEllipse
10
97.295537
20
-44.33161
30
0
11
1.39025370988033
21
0.791956199649942
31
0
210
0
220
0
230
1
40
0.977999
41
-0.508290139269981
42
0.490125298805105
0
ELLIPSE
5
1A5
100
AcDbEntity
8
1
62
256
6
ByLayer
370
18
48
1
60
0
100
AcDbEllipse
10
88.468772
20
-53.441036
30
0
11
1.39025370988033
21
0.791956199649944
31
0
210
0
220
0
230
1
40
0.977999
41
-3.14157721803068
42
-2.25361939126433
0
ELLIPSE
5
1A6
100
AcDbEntity
8
1
62
256
6
ByLayer
370
18
48
1
60
0
100
AcDbEllipse
10
97.917994
20
-45.424313
30
0
11
1.39025370988033
21
0.791956199649944
31
0
210
0
220
0
230
1
40
0.977999
41
-0.508290139269956
42
1.52927624835536E-05
0
ELLIPSE
5
1A7
100
AcDbEntity
8
1
62
256
6
ByLayer
370
18
48
1
60
0
100
AcDbEllipse
10
93.633251
20
50.136175
30
0
11
-2.42622105957204
21
1.92962467078164
31
0
210
0
220
0
230
1
40
0.986145
41
-0.731167803944328
42
0
0
ELLIPSE
5
1A8
100
AcDbEntity
8
1
62
256
6
ByLayer
370
18
48
1
60
0
100
AcDbEllipse
10
93.633251
20
50.136175
30
0
11
-2.42622105957204
21
1.92962467078164
31
0
210
0
220
0
230
1
40
0.986145
41
0
42
0.262459148367453
0
ELLIPSE
5
1A9
100
AcDbEntity
8
1
62
256
6
ByLayer
370
18
48
1
60
0
100
AcDbEllipse
10
93.633251
20
50.136175
30
0
11
-2.42622105957204
21
1.92962467078164
31
0
210
0
220
0
230
1
40
0.986145
41
2.87901313843299
42
-0.731167803944334
0
ELLIPSE
5
1AA
100
AcDbEntity
8
1
62
256
6
ByLayer
370
18
48
1
60
0
100
AcDbEllipse
10
91.756952
20
-46.911065
30
0
11
-1.39025370988034
21
-0.791956199649927
31
0
210
0
220
0
230
1
40
0.977999
41
-2.83626657701725
42
-0.209109609362168
0
ELLIPSE
5
1AB
100
AcDbEntity
8
1
62
256
6
ByLayer
370
13
48
1
60
0
100
AcDbEllipse
10
96.428876
20
-27
30
0
11
-1.4571284852544E-15
21
-7.9325
31
0
210
0
220
0
230
1
40
0.104528
41
0
42
3.1415290847826
0
ELLIPSE
5
1AC
100
AcDbEntity
8
1
62
256
6
ByLayer
370
18
48
1
60
0
100
AcDbEllipse
10
87.667081
20
43.09325
30
0
11
-0.621425652032321
21
0.494232899548586
31
0
210
0
220
0
230
1
40
0.986145
41
0.665095579851508
42
1.24059125413228
0
ELLIPSE
5
1AD
100
AcDbEntity
8
1
62
256
6
ByLayer
370
18
48
1
60
0
100
AcDbEllipse
10
88.158576
20
43.711234
30
0
11
-0.621425652032321
21
0.494232899548586
31
0
210
0
220
0
230
1
40
0.986145
41
0.665095579851468
42
2.41042483184574
0
ELLIPSE
5
1AE
100
AcDbEntity
8
1
62
256
6
ByLayer
370
18
48
1
60
0
100
AcDbEllipse
10
88.158576
20
54.898123
30
0
11
-0.621425652032322
21
0.494232899548587
31
0
210
0
220
0
230
1
40
0.986145
41
-0.731167821744057
42
0.665095579851559
0
ELLIPSE
5
1AF
100
AcDbEntity
8
1
62
256
6
ByLayer
370
18
48
1
60
0
100
AcDbEllipse
10
99.211181
20
56.690944
30
0
11
-0.621425652032322
21
0.494232899548587
31
0
210
0
220
0
230
1
40
0.986145
41
-2.47649707373823
42
-0.731167821743974
0
ELLIPSE
5
1B0
100
AcDbEntity
8
1
62
256
6
ByLayer
370
18
48
1
60
0
100
AcDbEllipse
10
99.211181
20
45.504054
30
0
11
-0.621425652032324
21
0.494232899548588
31
0
210
0
220
0
230
1
40
0.986145
41
2.41042483184578
42
-2.47649707373831
0
ELLIPSE
5
1B1
100
AcDbEntity
8
1
62
256
6
ByLayer
370
18
48
1
60
0
100
AcDbEllipse
10
93.684879
20
50.201089
30
0
11
2.44330672072776
21
-1.94321325668257
31
0
210
0
220
0
230
1
40
0.986145
41
0
42
6.28318530717959
0
ELLIPSE
5
1B2
100
AcDbEntity
8
1
62
256
6
ByLayer
370
18
48
1
60
0
100
AcDbEllipse
10
98.719686
20
44.886071
30
0
11
-0.621425652032324
21
0.494232899548588
31
0
210
0
220
0
230
1
40
0.986145
41
3.09974250770768
42
3.14158637769389
0
ELLIPSE
5
1B3
100
AcDbEntity
8
1
62
256
6
ByLayer
370
18
48
1
60
0
100
AcDbEllipse
10
87.846316
20
43.252075
30
0
11
-1.25224312752105
21
0.995935313951811
31
0
210
0
220
0
230
1
40
0.986145
41
0.665095579851558
42
1.05163165007282
0
ELLIPSE
5
1B4
100
AcDbEntity
8
1
62
256
6
ByLayer
370
18
48
1
60
0
100
AcDbEllipse
10
87.478179
20
-27
30
0
11
-1.60814287233912E-15
21
10
31
0
210
0
220
0
230
1
40
0.104528
41
-2.64311352073738
42
-0.971589867829663
0
ELLIPSE
5
1B5
100
AcDbEntity
8
1
62
256
6
ByLayer
370
18
48
1
60
0
100
AcDbEllipse
10
87.478179
20
-27
30
0
11
-1.60814287233912E-15
21
10
31
0
210
0
220
0
230
1
40
0.104528
41
-0.971589867829671
42
-0.498485630662117
0
ELLIPSE
5
1B6
100
AcDbEntity
8
1
62
256
6
ByLayer
370
18
48
1
60
0
100
AcDbEllipse
10
94.50702
20
48.900681
30
0
11
0.299610352905637
21
0.247891227743945
31
0
210
0
220
0
230
-1
40
0.496028
41
-0.0607723913502434
42
0.810024986965975
0
ELLIPSE
5
1B7
100
AcDbEntity
8
1
62
256
6
ByLayer
370
18
48
1
60
0
100
AcDbEllipse
10
92.164972
20
50.55167
30
0
11
0.131441377759893
21
0.366321840706287
31
0
210
0
220
0
230
-1
40
0.495202
41
2.25348854154405
42
2.98654336155779
0
ELLIPSE
5
1B8
100
AcDbEntity
8
1
62
256
6
ByLayer
370
18
48
1
60
0
100
AcDbEllipse
10
92.60017
20
51.171357
30
0
11
0.299610352905678
21
0.247891227743989
31
0
210
0
220
0
230
-1
40
0.496028
41
-1.75583675581199
42
0.0535178280750433
0
ELLIPSE
5
1B9
100
AcDbEntity
8
1
62
256
6
ByLayer
370
18
48
1
60
0
100
AcDbEllipse
10
94.942218
20
49.520367
30
0
11
0.131441377763027
21
0.366321840706884
31
0
210
0
220
0
230
-1
40
0.495202
41
-2.97559621495338
42
-1.5653227535043
0
ELLIPSE
5
1BA
100
AcDbEntity
8
1
62
256
6
ByLayer
370
18
48
1
60
0
100
AcDbEllipse
10
94.942218
20
49.520367
30
0
11
0.131441377759309
21
0.366321840709968
31
0
210
0
220
0
230
-1
40
0.495202
41
-1.56532275347705
42
-0.888104892303539
0
ELLIPSE
5
1BB
100
AcDbEntity
8
1
62
256
6
ByLayer
370
18
48
1
60
0
100
AcDbEllipse
10
95.005498
20
50.278162
30
0
11
0.0714614491856861
21
-0.385137108158495
31
0
210
0
220
0
230
-1
40
0.488848
41
3.09334838516298
42
-0.918247895119696
0
ELLIPSE
5
1BC
100
AcDbEntity
8
1
62
256
6
ByLayer
370
18
48
1
60
0
100
AcDbEllipse
10
93.290949
20
51.486697
30
0
11
0.386022452222394
21
0.0626393801368853
31
0
210
0
220
0
230
-1
40
0.490447
41
0.151574487321358
42
1.56184794878899
0
ELLIPSE
5
1BD
100
AcDbEntity
8
1
62
256
6
ByLayer
370
18
48
1
60
0
100
AcDbEllipse
10
93.290949
20
51.486697
30
0
11
0.38602245222855
21
0.0626393801376242
31
0
210
0
220
0
230
-1
40
0.490447
41
1.56184794878681
42
2.97212141023731
0
ELLIPSE
5
1BE
100
AcDbEntity
8
1
62
256
6
ByLayer
370
18
48
1
60
0
100
AcDbEllipse
10
94.052073
20
51.4135
30
0
11
0.368597806863114
21
-0.137948043936733
31
0
210
0
220
0
230
-1
40
0.484251
41
-2.54235764636734
42
0.0518675925142666
0
ELLIPSE
5
1BF
100
AcDbEntity
8
1
62
256
6
ByLayer
370
18
48
1
60
0
100
AcDbEllipse
10
94.679572
20
50.971046
30
0
11
0.253807895845412
21
-0.301204036445325
31
0
210
0
220
0
230
-1
40
0.483475
41
0.164001627573395
42
1.57427508900063
0
ELLIPSE
5
1C0
100
AcDbEntity
8
1
62
256
6
ByLayer
370
18
48
1
60
0
100
AcDbEllipse
10
94.679572
20
50.971046
30
0
11
0.253807895838119
21
-0.301204036430602
31
0
210
0
220
0
230
-1
40
0.483475
41
1.57427508902397
42
2.98454855049673
0
ELLIPSE
5
1C1
100
AcDbEntity
8
1
62
256
6
ByLayer
370
18
48
1
60
0
100
AcDbEllipse
10
90.915198
20
-45.528703
30
0
11
2.11488026836685
21
-1.48092757101508
31
0
210
0
220
0
230
-1
40
0.839983
41
2.72863546027904
42
-2.12013207887345
0
ELLIPSE
5
1C2
100
AcDbEntity
8
1
62
256
6
ByLayer
370
18
48
1
60
0
100
AcDbEllipse
10
76.894969
20
-52.963494
30
0
11
0.999978081073046
21
-0.0365037281719529
31
0
210
0
220
0
230
-1
40
0.181378
41
-0.730932667746605
42
2.14886059804405
0
ELLIPSE
5
1C3
100
AcDbEntity
8
1
62
256
6
ByLayer
370
18
48
1
60
0
100
AcDbEllipse
10
84.734413
20
-54.920587
30
0
11
0.79998414378927
21
-0.0282214810635527
31
0
210
0
220
0
230
-1
40
0.178475
41
-2.71155642240069
42
-1.68053212326574
0
ELLIPSE
5
1C4
100
AcDbEntity
8
1
62
256
6
ByLayer
370
18
48
1
60
0
100
AcDbEllipse
10
-126.988295
20
-47.999823
30
0
11
201.532278418637
21
-6.88760386064229
31
0
210
0
220
0
230
-1
40
0.006199
41
0.179441964786625
42
0.223969322831104
0
ELLIPSE
5
1C5
100
AcDbEntity
8
1
62
256
6
ByLayer
370
18
48
1
60
0
100
AcDbEllipse
10
74.000937
20
-54.259741
30
0
11
2.024955614173
21
-0.0739200495482365
31
0
210
0
220
0
230
-1
40
0.181378
41
0
42
6.28318530717959
0
ELLIPSE
5
1C6
100
AcDbEntity
8
1
62
256
6
ByLayer
370
18
48
1
60
0
100
AcDbEllipse
10
97.664048
20
-27.749823
30
0
11
0.198142964954212
21
-10.2499793975569
31
0
210
0
220
0
230
-1
40
0.103709
41
-0.152157905784066
42
0.0020047990670597
0
ELLIPSE
5
1C7
100
AcDbEntity
8
1
62
256
6
ByLayer
370
18
48
1
60
0
100
AcDbEllipse
10
-113.359638
20
47.850176
30
0
11
201.532287824407
21
6.94349817998238
31
0
210
0
220
0
230
-1
40
0.004404
41
-0.430150183954364
42
-0.208820138119367
0
ELLIPSE
5
1C8
100
AcDbEntity
8
1
62
256
6
ByLayer
370
18
48
1
60
0
100
AcDbEllipse
10
84.476932
20
47.850176
30
0
11
0.540846291812909
21
-6.99557450849726
31
0
210
0
220
0
230
-1
40
0.460153
41
1.60635697073684
42
3.09547537052933
0
ELLIPSE
5
1C9
100
AcDbEntity
8
1
62
256
6
ByLayer
370
18
48
1
60
0
100
AcDbEllipse
10
82.785183
20
37.666347
30
0
11
0.154527511945424
21
-1.99873557385597
31
0
210
0
220
0
230
-1
40
0.460153
41
0.733692344737666
42
1.60635697073541
0
ELLIPSE
5
1CA
100
AcDbEntity
8
1
62
256
6
ByLayer
370
18
48
1
60
0
100
AcDbEllipse
10
86.212335
20
44.768852
30
0
11
1.05663237604582
21
-2.46007127822354
31
0
210
0
220
0
230
-1
40
0.729826
41
1.92363945149219
42
2.52183711941657
0
ELLIPSE
5
1CB
100
AcDbEntity
8
1
62
256
6
ByLayer
370
18
48
1
60
0
100
AcDbEllipse
10
86.218049
20
44.728197
30
0
11
1.05668866033827
21
-2.4602023230889
31
0
210
0
220
0
230
-1
40
0.729826
41
1.69028732261392
42
1.93943098589847
0
ELLIPSE
5
1CC
100
AcDbEntity
8
1
62
256
6
ByLayer
370
18
48
1
60
0
100
AcDbEllipse
10
83.379982
20
50.513735
30
0
11
0.185985649945727
21
1.67931215010416
31
0
210
0
220
0
230
-1
40
0.493738
41
0
42
6.28318530717959
0
ELLIPSE
5
1CD
100
AcDbEntity
8
1
62
256
6
ByLayer
370
18
48
1
60
0
100
AcDbEllipse
10
83.420151
20
46.612688
30
0
11
0.237731351884505
21
1.75526191655585
31
0
210
0
220
0
230
-1
40
0.462895
41
0
42
6.28318530717959
0
ELLIPSE
5
1CE
100
AcDbEntity
8
1
62
256
6
ByLayer
370
18
48
1
60
0
100
AcDbEllipse
10
85.034413
20
33.081766
30
0
11
0.800000000000371
21
8.08511244066265E-16
31
0
210
0
220
0
230
-1
40
0.762146
41
1.67423604146152
42
2.70526034059146
0
ELLIPSE
5
1CF
100
AcDbEntity
8
1
62
256
6
ByLayer
370
18
48
1
60
0
100
AcDbEllipse
10
94.039188
20
31.000176
30
0
11
5.63825059181669
21
5.69823625043119E-15
31
0
210
0
220
0
230
-1
40
1
41
3.14159265358979
42
-2.92854380498772
0
ELLIPSE
5
1D0
100
AcDbEntity
8
1
62
256
6
ByLayer
370
18
48
1
60
0
100
AcDbEllipse
10
85.034413
20
54.770805
30
0
11
0.799992121801315
21
0.0280000182680202
31
0
210
0
220
0
230
-1
40
0.126798
41
1.6786740047658
42
2.70969830390011
0
ELLIPSE
5
1D1
100
AcDbEntity
8
1
62
256
6
ByLayer
370
18
48
1
60
0
100
AcDbEllipse
10
89.658496
20
44.608
30
0
11
2.89137288601417
21
-0.37750325087742
31
0
210
0
220
0
230
-1
40
0.476396
41
1.01015157487077
42
1.34472665432895
0
ELLIPSE
5
1D2
100
AcDbEntity
8
1
62
256
6
ByLayer
370
18
48
1
60
0
100
AcDbEllipse
10
93.277057
20
45.194959
30
0
11
2.89137288782373
21
-0.377503251942838
31
0
210
0
220
0
230
-1
40
0.476396
41
0.675576495147851
42
1.0101515744475
0
ELLIPSE
5
1D3
100
AcDbEntity
8
1
62
256
6
ByLayer
370
18
48
1
60
0
100
AcDbEllipse
10
158.544691
20
0
30
0
11
170.163409217353
21
1.71973787101019E-13
31
0
210
0
220
0
230
-1
40
0.311465
41
2.08368169002154
42
2.18125247939486
0
ELLIPSE
5
1D4
100
AcDbEntity
8
1
62
256
6
ByLayer
370
18
48
1
60
0
100
AcDbEllipse
10
999.674017
20
0.006237
30
0
11
977.710449364422
21
0.00614721613543391
31
0
210
0
220
0
230
-1
40
0.158779
41
2.85806261421677
42
2.86174199977271
0
ELLIPSE
5
1D5
100
AcDbEntity
8
1
62
256
6
ByLayer
370
18
48
1
60
0
100
AcDbEllipse
10
158.544691
20
0
30
0
11
128.425214465544
21
1.29791537396207E-13
31
0
210
0
220
0
230
-1
40
0.311465
41
2.59348529484237
42
-2.6521591745769
0
ELLIPSE
5
1D6
100
AcDbEntity
8
1
62
256
6
ByLayer
370
18
48
1
60
0
100
AcDbEllipse
10
203.199938
20
0
30
0
11
166.318293047565
21
-29.7052750502775
31
0
210
0
220
0
230
-1
40
0.161065
41
2.79403435618091
42
2.97485613972516
0
ELLIPSE
5
1D7
100
AcDbEntity
8
1
62
256
6
ByLayer
370
18
48
1
60
0
100
AcDbEllipse
10
-6.763884
20
0
30
0
11
18.7348357595596
21
-39.4834983054948
31
0
210
0
220
0
230
-1
40
0.341999
41
-1.0879467671694
42
-0.161099005228965
0
ELLIPSE
5
1D8
100
AcDbEntity
8
1
62
256
6
ByLayer
370
18
48
1
60
0
100
AcDbEllipse
10
30.763884
20
0
30
0
11
18.7348357595985
21
39.483498305543
31
0
210
0
220
0
230
-1
40
0.341999
41
-2.98049364836097
42
-2.05364588642132
0
ELLIPSE
5
1D9
100
AcDbEntity
8
1
62
256
6
ByLayer
370
18
48
1
60
0
100
AcDbEllipse
10
-6.763884
20
0
30
0
11
18.7348357595717
21
39.4834983055108
31
0
210
0
220
0
230
-1
40
0.341999
41
0.161099005228924
42
1.08794676716911
0
ELLIPSE
5
1DA
100
AcDbEntity
8
1
62
256
6
ByLayer
370
18
48
1
60
0
100
AcDbEllipse
10
30.763884
20
0
30
0
11
18.734835759606
21
-39.4834983055535
31
0
210
0
220
0
230
-1
40
0.341999
41
2.05364588642151
42
2.98049364836101
0
ELLIPSE
5
1DB
100
AcDbEntity
8
1
62
256
6
ByLayer
370
18
48
1
60
0
100
AcDbEllipse
10
78.6785
20
0
30
0
11
-3.24520683769813E-15
21
53.0000000011242
31
0
210
0
220
0
230
-1
40
0.139651
41
-2.66715455953714
42
-2.62870729031814
0
POINT
5
6C
100
AcDbEntity
8
80
62
256
6
ByLayer
370
13
48
1
60
0
100
AcDbPoint
10
0
20
0
30
0
39
0
210
0
220
0
230
1
50
360
0
POINT
5
6E
100
AcDbEntity
8
81
62
256
6
ByLayer
370
18
48
1
60
0
100
AcDbPoint
10
100.000937
20
57.485353
30
0
39
0
210
0
220
0
230
1
50
360
0
SPLINE
5
1DC
100
AcDbEntity
8
SK1
62
256
6
ByLayer
370
18
48
1
60
0
100
AcDbSpline
70
4
71
2
72
6
73
3
40
0
40
0
40
0
40
1
40
1
40
1
41
1
10
-46.5
20
-26.3937603074471
30
0
41
1
10
-24.349999999999
20
-26.9499706126624
30
0
41
1
10
-2.19999999999999
20
-27.506180857905
30
0
0
SPLINE
5
1DD
100
AcDbEntity
8
SK1
62
256
6
ByLayer
370
18
48
1
60
0
100
AcDbSpline
70
4
71
2
72
6
73
3
40
0
40
0
40
0
40
1
40
1
40
1
41
1
10
-2.19999999999999
20
27.5061808177903
30
0
41
1
10
-24.349999999999
20
26.9499705725249
30
0
41
1
10
-46.5
20
26.3937602673102
30
0
0
SPLINE
5
1DE
100
AcDbEntity
8
SK1
62
256
6
ByLayer
370
18
48
1
60
0
100
AcDbSpline
70
4
71
3
72
13
73
9
40
0
40
0
40
0
40
0
40
0.239456135589017
40
0.368359721696244
40
0.499998983755028
40
0.631638415030047
40
0.76054246757783
40
1
40
1
40
1
40
1
41
1
10
-2.19999999999999
20
-27.5200986636549
30
0
41
1
10
-2.19909198642051
20
-27.4940411875707
30
0
41
1
10
-2.19103284106728
20
-27.4566686032803
30
0
41
1
10
-2.16563592203039
20
-27.4104494295044
30
0
41
1
10
-2.13886378678808
20
-27.3791678756855
30
0
41
1
10
-2.10627712749323
20
-27.3540005055177
30
0
41
1
10
-2.05884064232885
20
-27.3309567030813
30
0
41
1
10
-2.02111030872419
20
-27.3247844480697
30
0
41
1
10
-1.99503997793931
20
-27.3251860880175
30
0
0
SPLINE
5
1DF
100
AcDbEntity
8
SK1
62
256
6
ByLayer
370
18
48
1
60
0
100
AcDbSpline
70
4
71
3
72
13
73
9
40
0
40
0
40
0
40
0
40
0.23945753242716
40
0.368361584976481
40
0.500001016252312
40
0.631640278310556
40
0.760543864416139
40
1
40
1
40
1
40
1
41
1
10
-1.99503997793926
20
27.3251860847968
30
0
41
1
10
-2.02111030872419
20
27.3247844448489
30
0
41
1
10
-2.05884064232873
20
27.33095669986
30
0
41
1
10
-2.10627712749317
20
27.3540005022953
30
0
41
1
10
-2.13886378678791
20
27.3791678724618
30
0
41
1
10
-2.16563592203022
20
27.4104494262793
30
0
41
1
10
-2.19103284106723
20
27.4566686000527
30
0
41
1
10
-2.19909198642046
20
27.4940411843415
30
0
41
1
10
-2.19999999999993
20
27.5200986604247
30
0
0
SPLINE
5
1E0
100
AcDbEntity
8
SK1
62
256
6
ByLayer
370
18
48
1
60
0
100
AcDbSpline
70
4
71
2
72
6
73
3
40
0
40
0
40
0
40
1
40
1
40
1
41
1
10
-1.99503997793931
20
-27.3251858139979
30
0
41
1
10
-1.19500843340728
20
-27.3452852646243
30
0
41
1
10
-0.394976888875249
20
-27.3653847152514
30
0
0
SPLINE
5
1E1
100
AcDbEntity
8
SK1
62
256
6
ByLayer
370
18
48
1
60
0
100
AcDbSpline
70
4
71
2
72
6
73
3
40
0
40
0
40
0
40
1
40
1
40
1
41
1
10
-0.394976888875306
20
27.3653847121227
30
0
41
1
10
-1.19500843340728
20
27.3452852614965
30
0
41
1
10
-1.99503997793931
20
27.3251858108711
30
0
0
SPLINE
5
1E2
100
AcDbEntity
8
SK1
62
256
6
ByLayer
370
18
48
1
60
0
100
AcDbSpline
70
4
71
2
72
6
73
3
40
0
40
0
40
0
40
1
40
1
40
1
41
1
10
-48
20
-25.5410840926423
30
0
41
1
10
-47.2499999994058
20
-25.9740938984543
30
0
41
1
10
-46.5
20
-26.407103720226
30
0
0
SPLINE
5
1E3
100
AcDbEntity
8
SK1
62
256
6
ByLayer
370
18
48
1
60
0
100
AcDbSpline
70
4
71
2
72
6
73
3
40
0
40
0
40
0
40
1
40
1
40
1
41
1
10
-46.5
20
26.4071037337152
30
0
41
1
10
-47.249999999406
20
25.9740939119355
30
0
41
1
10
-48
20
25.5410841061085
30
0
0
SPLINE
5
1E4
100
AcDbEntity
8
SK1
62
256
6
ByLayer
370
18
48
1
60
0
100
AcDbSpline
70
4
71
2
72
6
73
3
40
0
40
0
40
0
40
1
40
1
40
1
41
1
10
-0.241994084393639
20
27.3724299991456
30
0
41
1
10
-0.267024100700382
20
27.38641982782
30
0
41
1
10
-0.394976888875306
20
27.3653849865938
30
0
0
SPLINE
5
1E5
100
AcDbEntity
8
SK1
62
256
6
ByLayer
370
18
48
1
60
0
100
AcDbSpline
70
4
71
2
72
6
73
3
40
0
40
0
40
0
40
1
40
1
40
1
41
1
10
-0.394976888875249
20
-27.3653849898142
30
0
41
1
10
-0.267024105978066
20
-27.3864192541247
30
0
41
1
10
-0.241994090375556
20
-27.3724291363865
30
0
0
SPLINE
5
1E6
100
AcDbEntity
8
SK1
62
256
6
ByLayer
370
18
48
1
60
0
100
AcDbSpline
70
4
71
3
72
24
73
20
40
0
40
0
40
0
40
0
40
0.492398027467277
40
0.492398027467277
40
0.668310127338856
40
0.668310127338856
40
0.846552263551676
40
0.846552263551676
40
0.878720061957127
40
0.878720061957127
40
0.911383033671987
40
0.911383033671987
40
0.931691696537675
40
0.931691696537675
40
0.95209301473688
40
0.95209301473688
40
0.977060216128463
40
0.977060216128463
40
1
40
1
40
1
40
1
41
1
10
-0.199999999999989
20
-6.57657332251961
30
0
41
1
10
-0.199999999999989
20
-6.44656682134712
30
0
41
1
10
-0.204502849321955
20
-6.31531168325705
30
0
41
1
10
-0.226582266321202
20
-6.13779637612026
30
0
41
1
10
-0.233974873652585
20
-6.09095488980506
30
0
41
1
10
-0.255353240585578
20
-5.99815512584257
30
0
41
1
10
-0.268322675838249
20
-5.95031064681496
30
0
41
1
10
-0.298180738230599
20
-5.90175502052421
30
0
41
1
10
-0.303352297620847
20
-5.89445922534446
30
0
41
1
10
-0.315220218164882
20
-5.88122229557996
30
0
41
1
10
-0.322100367577718
20
-5.87514733941885
30
0
41
1
10
-0.334669352278866
20
-5.86818428946981
30
0
41
1
10
-0.339945766887354
20
-5.86618567675112
30
0
41
1
10
-0.350686231006989
20
-5.86421072309599
30
0
41
1
10
-0.356276575016636
20
-5.86423055154353
30
0
41
1
10
-0.368095241519768
20
-5.86629174119173
30
0
41
1
10
-0.374371038114646
20
-5.86876466767728
30
0
41
1
10
-0.38540650056683
20
-5.87491523412279
30
0
41
1
10
-0.390359298661053
20
-5.8785208933615
30
0
41
1
10
-0.394976888875476
20
-5.88246902087076
30
0
0
SPLINE
5
1E7
100
AcDbEntity
8
SK1
62
256
6
ByLayer
370
18
48
1
60
0
100
AcDbSpline
70
4
71
3
72
301
73
297
40
0
40
0
40
0
40
0
40
0.0031724596612614
40
0.0066467921533353
40
0.0101211246454091
40
0.013595457137483
40
0.0170697896295569
40
0.0205441221216308
40
0.0240184546137047
40
0.0274927871057785
40
0.0344414520899263
40
0.0413901170740741
40
0.0448644495661479
40
0.0483387820582218
40
0.0518131145502957
40
0.0552874470423696
40
0.0587617795344435
40
0.0622361120265173
40
0.0657104445185912
40
0.0691847770106651
40
0.0761334419948129
40
0.0796077744868867
40
0.0830821069789606
40
0.0865564394710345
40
0.0900307719631084
40
0.0935051044551822
40
0.0969794369472561
40
0.10045376943933
40
0.103928101931404
40
0.107402434423478
40
0.110876766915552
40
0.117825431899699
40
0.121299764391773
40
0.124774096883847
40
0.131722761867995
40
0.138671426852143
40
0.142145759344217
40
0.14562009183629
40
0.152568756820438
40
0.159517421804586
40
0.166466086788734
40
0.169940419280808
40
0.173414751772881
40
0.180363416757029
40
0.187312081741177
40
0.194260746725325
40
0.201209411709473
40
0.20815807669362
40
0.215106741677768
40
0.218581074169842
40
0.222055406661916
40
0.229004071646064
40
0.235952736630211
40
0.242901401614359
40
0.246375734106433
40
0.249850066598507
40
0.256798731582655
40
0.263747396566802
40
0.267221729058876
40
0.27069606155095
40
0.277644726535098
40
0.284593391519246
40
0.28806772401132
40
0.291542056503393
40
0.298490721487541
40
0.301965053979615
40
0.305439386471689
40
0.308913718963763
40
0.312388051455837
40
0.315862383947911
40
0.319336716439984
40
0.322811048932058
40
0.326285381424132
40
0.329759713916206
40
0.33323404640828
40
0.336708378900354
40
0.340182711392428
40
0.347131376376575
40
0.350605708868649
40
0.354080041360723
40
0.357554373852797
40
0.361028706344871
40
0.364503038836945
40
0.367977371329019
40
0.374926036313166
40
0.37840036880524
40
0.381874701297314
40
0.385349033789388
40
0.388823366281462
40
0.392297698773536
40
0.39577203126561
40
0.399246363757684
40
0.402720696249757
40
0.406195028741831
40
0.409669361233905
40
0.413143693725979
40
0.416618026218053
40
0.420092358710127
40
0.423566691202201
40
0.427041023694275
40
0.430515356186349
40
0.433989688678422
40
0.437464021170496
40
0.439201187416533
40
0.44093835366257
40
0.444412686154644
40
0.447887018646718
40
0.449624184892755
40
0.451361351138792
40
0.454835683630866
40
0.456572849876903
40
0.458310016122939
40
0.459178599245958
40
0.460047182368977
40
0.461784348615013
40
0.46352151486105
40
0.465258681107087
40
0.466995847353124
40
0.468733013599161
40
0.470470179845198
40
0.471338762968216
40
0.472207346091235
40
0.473075929214254
40
0.473944512337272
40
0.47481309546029
40
0.475681678583309
40
0.477418844829346
40
0.478287427952364
40
0.479156011075383
40
0.48089317732142
40
0.481761760444438
40
0.482630343567457
40
0.484367509813494
40
0.485236092936512
40
0.486104676059531
40
0.487841842305567
40
0.489579008551605
40
0.491316174797641
40
0.49218475792066
40
0.493053341043678
40
0.493921924166697
40
0.494790507289715
40
0.495659090412734
40
0.496527673535752
40
0.497396256658771
40
0.498264839781789
40
0.499133422904808
40
0.500002006027826
40
0.500870589150845
40
0.501739172273863
40
0.502607755396882
40
0.5034763385199
40
0.504344921642918
40
0.505213504765937
40
0.506082087888955
40
0.506950671011974
40
0.507819254134992
40
0.508687837258011
40
0.510425003504048
40
0.512162169750085
40
0.513899335996122
40
0.51476791911914
40
0.515636502242159
40
0.517373668488195
40
0.518242251611214
40
0.519110834734232
40
0.520848000980269
40
0.521716584103288
40
0.522585167226306
40
0.524322333472343
40
0.525190916595362
40
0.52605949971838
40
0.526928082841399
40
0.527796665964417
40
0.528665249087436
40
0.529533832210454
40
0.531270998456491
40
0.533008164702528
40
0.534745330948565
40
0.536482497194602
40
0.538219663440639
40
0.539956829686676
40
0.540825412809694
40
0.541693995932713
40
0.54343116217875
40
0.545168328424786
40
0.54864266091686
40
0.550379827162897
40
0.552116993408934
40
0.555591325901008
40
0.559065658393082
40
0.560802824639119
40
0.562539990885156
40
0.56601432337723
40
0.569488655869304
40
0.572962988361378
40
0.576437320853451
40
0.579911653345525
40
0.583385985837599
40
0.586860318329673
40
0.590334650821747
40
0.593808983313821
40
0.597283315805895
40
0.600757648297969
40
0.604231980790042
40
0.607706313282116
40
0.61118064577419
40
0.614654978266264
40
0.618129310758338
40
0.625077975742486
40
0.632026640726634
40
0.635500973218707
40
0.638975305710781
40
0.642449638202855
40
0.645923970694929
40
0.649398303187003
40
0.652872635679077
40
0.659821300663225
40
0.663295633155298
40
0.666769965647372
40
0.670244298139446
40
0.67371863063152
40
0.677192963123594
40
0.680667295615668
40
0.684141628107742
40
0.687615960599816
40
0.691090293091889
40
0.692827459337926
40
0.694564625583963
40
0.698038958076037
40
0.701513290568111
40
0.708461955552259
40
0.711936288044333
40
0.715410620536407
40
0.722359285520554
40
0.729307950504702
40
0.732782282996776
40
0.73625661548885
40
0.743205280472998
40
0.750153945457145
40
0.753628277949219
40
0.757102610441293
40
0.764051275425441
40
0.770999940409589
40
0.777948605393736
40
0.78142293788581
40
0.784897270377884
40
0.791845935362032
40
0.79879460034618
40
0.805743265330327
40
0.812691930314475
40
0.819640595298623
40
0.826589260282771
40
0.830063592774845
40
0.833537925266919
40
0.840486590251066
40
0.847435255235214
40
0.854383920219362
40
0.857858252711436
40
0.861332585203509
40
0.868281250187657
40
0.875229915171805
40
0.878704247663879
40
0.882178580155953
40
0.88391574640199
40
0.885652912648027
40
0.889127245140101
40
0.892601577632174
40
0.896075910124248
40
0.899550242616322
40
0.903024575108396
40
0.90649890760047
40
0.909973240092544
40
0.913447572584618
40
0.916921905076692
40
0.920396237568765
40
0.923870570060839
40
0.930819235044987
40
0.934293567537061
40
0.937767900029135
40
0.941242232521209
40
0.944716565013283
40
0.948190897505357
40
0.95166522999743
40
0.955139562489504
40
0.958613894981578
40
0.965562559965726
40
0.972511224949874
40
0.975985557441948
40
0.979459889934021
40
0.982934222426095
40
0.986408554918169
40
0.989882887410243
40
0.993357219902317
40
0.996831552394391
40
1
40
1
40
1
40
1
41
1
10
-1.99503997793937
20
-27.325161421075
30
0
41
1
10
-1.99503997793937
20
-27.3252986673967
30
0
41
1
10
-1.99503997793937
20
-27.3243853605014
30
0
41
1
10
-1.99503997793931
20
-27.319236569139
30
0
41
1
10
-1.99503997793931
20
-27.3099684620727
30
0
41
1
10
-1.99503997793931
20
-27.2968118938474
30
0
41
1
10
-1.99503997793931
20
-27.2798390261951
30
0
41
1
10
-1.99503997793931
20
-27.2591194581005
30
0
41
1
10
-1.99503997793931
20
-27.2347185022954
30
0
41
1
10
-1.99503997793931
20
-27.197345231477
30
0
41
1
10
-1.99503997793931
20
-27.1417627098538
30
0
41
1
10
-1.99503997793931
20
-27.0746927526657
30
0
41
1
10
-1.99503997793931
20
-27.0143096332649
30
0
41
1
10
-1.99503997793931
20
-26.9657374886259
30
0
41
1
10
-1.99503997793931
20
-26.9139106605824
30
0
41
1
10
-1.99503997793931
20
-26.8588742790415
30
0
41
1
10
-1.99503997793931
20
-26.8006684388868
30
0
41
1
10
-1.99503997793931
20
-26.7393343627507
30
0
41
1
10
-1.99503997793931
20
-26.6749108160321
30
0
41
1
10
-1.99503997793931
20
-26.5849135103433
30
0
41
1
10
-1.99503997793931
20
-26.4889678259813
30
0
41
1
10
-1.99503997793931
20
-26.3870356638969
30
0
41
1
10
-1.99503997793931
20
-26.307691573879
30
0
41
1
10
-1.99503997793931
20
-26.2254595012835
30
0
41
1
10
-1.99503997793931
20
-26.1403699560892
30
0
41
1
10
-1.99503997793931
20
-26.0524524072106
30
0
41
1
10
-1.99503997793931
20
-25.961732550658
30
0
41
1
10
-1.99503997793931
20
-25.8682384460151
30
0
41
1
10
-1.99503997793931
20
-25.7719963599905
30
0
41
1
10
-1.99503997793931
20
-25.6730299792936
30
0
41
1
10
-1.99503997793931
20
-25.5374379046987
30
0
41
1
10
-1.99503997793931
20
-25.3966072761119
30
0
41
1
10
-1.99503997793931
20
-25.2503982620474
30
0
41
1
10
-1.99503997793931
20
-25.1007072668634
30
0
41
1
10
-1.99503997793931
20
-24.9072094682151
30
0
41
1
10
-1.99503997793931
20
-24.7052121640853
30
0
41
1
10
-1.99503997793931
20
-24.5385089830443
30
0
41
1
10
-1.99503997793931
20
-24.3684762369578
30
0
41
1
10
-1.99503997793931
20
-24.1498376513415
30
0
41
1
10
-1.99503997793931
20
-23.8776317176071
30
0
41
1
10
-1.99503997793931
20
-23.6427893382923
30
0
41
1
10
-1.99503997793931
20
-23.4500539432773
30
0
41
1
10
-1.99503997793931
20
-23.2541536051907
30
0
41
1
10
-1.99503997793931
20
-23.0034924093454
30
0
41
1
10
-1.99503997793931
20
-22.6933032821098
30
0
41
1
10
-1.99503997793931
20
-22.3738761877812
30
0
41
1
10
-1.99503997793931
20
-22.0453025545601
30
0
41
1
10
-1.99503997793931
20
-21.7076686178739
30
0
41
1
10
-1.99503997793931
20
-21.4188827033322
30
0
41
1
10
-1.99503997793931
20
-21.183296231241
30
0
41
1
10
-1.99503997793931
20
-20.9447536987916
30
0
41
1
10
-1.99503997793931
20
-20.6411931765509
30
0
41
1
10
-1.99503997793931
20
-20.2680830241603
30
0
41
1
10
-1.99503997793931
20
-19.9499723474756
30
0
41
1
10
-1.99503997793931
20
-19.6910450149659
30
0
41
1
10
-1.99503997793931
20
-19.429246386098
30
0
41
1
10
-1.99503997793931
20
-19.0967848636162
30
0
41
1
10
-1.99503997793931
20
-18.7572123771118
30
0
41
1
10
-1.99503997793931
20
-18.4811831142102
30
0
41
1
10
-1.99503997793931
20
-18.2023325900281
30
0
41
1
10
-1.99503997793931
20
-17.8486596771386
30
0
41
1
10
-1.99503997793931
20
-17.487986711463
30
0
41
1
10
-1.99503997793931
20
-17.1951273582894
30
0
41
1
10
-1.99503997793931
20
-16.8994865286445
30
0
41
1
10
-1.99503997793931
20
-16.5999232967459
30
0
41
1
10
-1.99503997793931
20
-16.2959645253135
30
0
41
1
10
-1.99503997793931
20
-16.0659886092783
30
0
41
1
10
-1.99503997793931
20
-15.8339451945693
30
0
41
1
10
-1.99503997793931
20
-15.5998376412757
30
0
41
1
10
-1.99503997793931
20
-15.3636701740731
30
0
41
1
10
-1.99503997793931
20
-15.1254443246959
30
0
41
1
10
-1.99503997793931
20
-14.8851633083157
30
0
41
1
10
-1.99503997793931
20
-14.6428305016925
30
0
41
1
10
-1.99503997793931
20
-14.3984468746313
30
0
41
1
10
-1.99503997793931
20
-14.1520156345788
30
0
41
1
10
-1.99503997793931
20
-13.903538977374
30
0
41
1
10
-1.99503997793931
20
-13.5694124056225
30
0
41
1
10
-1.99503997793931
20
-13.2315065874855
30
0
41
1
10
-1.99503997793931
20
-12.8892094092454
30
0
41
1
10
-1.99503997793931
20
-12.630529996325
30
0
41
1
10
-1.99503997793931
20
-12.3698136542137
30
0
41
1
10
-1.99503997793931
20
-12.1070624597528
30
0
41
1
10
-1.99503997793931
20
-11.8422771763273
30
0
41
1
10
-1.99503997793931
20
-11.4864047926356
30
0
41
1
10
-1.99503997793931
20
-11.1268240668469
30
0
41
1
10
-1.99503997793931
20
-10.7628135122141
30
0
41
1
10
-1.99503997793931
20
-10.4878712580384
30
0
41
1
10
-1.99503997793931
20
-10.2109002476074
30
0
41
1
10
-1.99503997793931
20
-9.93190148567101
30
0
41
1
10
-1.99503997793931
20
-9.65087577167401
30
0
41
1
10
-1.99503997793931
20
-9.36782442184722
30
0
41
1
10
-1.99503997793931
20
-9.08274836934049
30
0
41
1
10
-1.99503997793931
20
-8.79565051892371
30
0
41
1
10
-1.99503997793931
20
-8.50653184364376
30
0
41
1
10
-1.99503997793931
20
-8.21539468387994
30
0
41
1
10
-1.99503997793931
20
-7.92224242464158
30
0
41
1
10
-1.99503997793931
20
-7.62707899667748
30
0
41
1
10
-1.99503997793931
20
-7.32990848936902
30
0
41
1
10
-1.99503997793931
20
-7.03073643509242
30
0
41
1
10
-1.99503997793931
20
-6.72956956222447
30
0
41
1
10
-1.99503997793931
20
-6.42641644899936
30
0
41
1
10
-1.99503997793931
20
-6.12128654405478
30
0
41
1
10
-1.99503997793931
20
-5.86547224264382
30
0
41
1
10
-1.99503997793931
20
-5.65966031194296
30
0
41
1
10
-1.99503997793931
20
-5.45320486068488
30
0
41
1
10
-1.99503997793931
20
-5.19417516976091
30
0
41
1
10
-1.99503997793931
20
-4.93354783719792
30
0
41
1
10
-1.99503997793931
20
-4.7238949146082
30
0
41
1
10
-1.99503997793931
20
-4.51362418453471
30
0
41
1
10
-1.99503997793931
20
-4.30279737234503
30
0
41
1
10
-1.99503997793931
20
-4.09068017699951
30
0
41
1
10
-1.99503997793931
20
-3.95788264175951
30
0
41
1
10
-1.99503997793931
20
-3.85130375742835
30
0
41
1
10
-1.99503997793931
20
-3.74458054435991
30
0
41
1
10
-1.99503997793931
20
-3.61106188513384
30
0
41
1
10
-1.99503997793931
20
-3.45032619783547
30
0
41
1
10
-1.99503997793931
20
-3.28917309238056
30
0
41
1
10
-1.99503997793931
20
-3.12761066714143
30
0
41
1
10
-1.99503997793931
20
-2.96564924759366
30
0
41
1
10
-1.99503997793931
20
-2.83043415716213
30
0
41
1
10
-1.99503997793931
20
-2.72193088426968
30
0
41
1
10
-1.99503997793931
20
-2.64052218961081
30
0
41
1
10
-1.99503997793931
20
-2.55902307088399
30
0
41
1
10
-1.99503997793931
20
-2.4774350126512
30
0
41
1
10
-1.99503997793931
20
-2.39575870345573
30
0
41
1
10
-1.99503997793931
20
-2.28665935771653
30
0
41
1
10
-1.99503997793931
20
-2.17765163493266
30
0
41
1
10
-1.99503997793931
20
-2.06822032104492
30
0
41
1
10
-1.99503997793931
20
-1.95868775414533
30
0
41
1
10
-1.99503997793931
20
-1.84927659960158
30
0
41
1
10
-1.99503997793931
20
-1.73944749852944
30
0
41
1
10
-1.99503997793931
20
-1.62953014673872
30
0
41
1
10
-1.99503997793931
20
-1.51976604695517
30
0
41
1
10
-1.99503997793931
20
-1.40959256793394
30
0
41
1
10
-1.99503997793931
20
-1.29934600948991
30
0
41
1
10
-1.99503997793931
20
-1.16162399896859
30
0
41
1
10
-1.99503997793931
20
-0.996043871846723
30
0
41
1
10
-1.99503997793931
20
-0.858021465650268
30
0
41
1
10
-1.99503997793931
20
-0.747348246925981
30
0
41
1
10
-1.99503997793931
20
-0.664391443726458
30
0
41
1
10
-1.99503997793931
20
-0.581404932400346
30
0
41
1
10
-1.99503997793931
20
-0.498392839537701
30
0
41
1
10
-1.99503997793931
20
-0.415360877837088
30
0
41
1
10
-1.99503997793931
20
-0.332310822055092
30
0
41
1
10
-1.99503997793931
20
-0.249244906780291
30
0
41
1
10
-1.99503997793931
20
-0.166169118100811
30
0
41
1
10
-1.99503997793931
20
-0.0830872457044052
30
0
41
1
10
-1.99503997793931
20
7.3694082E-09
30
0
41
1
10
-1.99503997793931
20
0.083087258687442
30
0
41
1
10
-1.99503997793931
20
0.16616912676011
30
0
41
1
10
-1.99503997793931
20
0.249244909992626
30
0
41
1
10
-1.99503997793931
20
0.332310821896385
30
0
41
1
10
-1.99503997793931
20
0.415360879438595
30
0
41
1
10
-1.99503997793931
20
0.49839284769439
30
0
41
1
10
-1.99503997793931
20
0.581404948836621
30
0
41
1
10
-1.99503997793931
20
0.664391463462948
30
0
41
1
10
-1.99503997793931
20
0.747348262111132
30
0
41
1
10
-1.99503997793931
20
0.858021466226546
30
0
41
1
10
-1.99503997793931
20
0.996043867302774
30
0
41
1
10
-1.99503997793931
20
1.1616240155829
30
0
41
1
10
-1.99503997793931
20
1.29934603509321
30
0
41
1
10
-1.99503997793931
20
1.40959257648001
30
0
41
1
10
-1.99503997793931
20
1.51976603752371
30
0
41
1
10
-1.99503997793931
20
1.6295301381889
30
0
41
1
10
-1.99503997793931
20
1.73944751085298
30
0
41
1
10
-1.99503997793931
20
1.84927662995438
30
0
41
1
10
-1.99503997793931
20
1.95868778076374
30
0
41
1
10
-1.99503997793931
20
2.06822032488083
30
0
41
1
10
-1.99503997793931
20
2.17765162048647
30
0
41
1
10
-1.99503997793931
20
2.28665934688649
30
0
41
1
10
-1.99503997793931
20
2.39575871579825
30
0
41
1
10
-1.99503997793931
20
2.47743504267544
30
0
41
1
10
-1.99503997793931
20
2.55902310675026
30
0
41
1
10
-1.99503997793931
20
2.64052221841848
30
0
41
1
10
-1.99503997793931
20
2.72193089625398
30
0
41
1
10
-1.99503997793931
20
2.83043414688223
30
0
41
1
10
-1.99503997793931
20
2.96564923158394
30
0
41
1
10
-1.99503997793931
20
3.12761068170505
30
0
41
1
10
-1.99503997793931
20
3.28917313145485
30
0
41
1
10
-1.99503997793931
20
3.45032621656435
30
0
41
1
10
-1.99503997793931
20
3.61106187073108
30
0
41
1
10
-1.99503997793931
20
3.74458052899695
30
0
41
1
10
-1.99503997793931
20
3.8513037606989
30
0
41
1
10
-1.99503997793931
20
3.95788266698423
30
0
41
1
10
-1.99503997793931
20
4.09068021746157
30
0
41
1
10
-1.99503997793931
20
4.30279738744866
30
0
41
1
10
-1.99503997793931
20
4.51362416489167
30
0
41
1
10
-1.99503997793931
20
4.72389491984234
30
0
41
1
10
-1.99503997793931
20
4.93354787471697
30
0
41
1
10
-1.99503997793931
20
5.19417519283297
30
0
41
1
10
-1.99503997793931
20
5.45320484016281
30
0
41
1
10
-1.99503997793931
20
5.65966031743471
30
0
41
1
10
-1.99503997793931
20
5.86547227949211
30
0
41
1
10
-1.99503997793931
20
6.1212865745357
30
0
41
1
10
-1.99503997793931
20
6.4264164329453
30
0
41
1
10
-1.99503997793931
20
6.72956956969858
30
0
41
1
10
-1.99503997793931
20
7.03073644813685
30
0
41
1
10
-1.99503997793931
20
7.32990842680408
30
0
41
1
10
-1.99503997793931
20
7.62707900817009
30
0
41
1
10
-1.99503997793931
20
7.92224261249635
30
0
41
1
10
-1.99503997793931
20
8.2153947490774
30
0
41
1
10
-1.99503997793931
20
8.50653166333223
30
0
41
1
10
-1.99503997793931
20
8.79565052315388
30
0
41
1
10
-1.99503997793931
20
9.08274869992738
30
0
41
1
10
-1.99503997793931
20
9.36782441803416
30
0
41
1
10
-1.99503997793931
20
9.65087566691977
30
0
41
1
10
-1.99503997793931
20
9.93190145357084
30
0
41
1
10
-1.99503997793931
20
10.2109002581502
30
0
41
1
10
-1.99503997793931
20
10.5803285804451
30
0
41
1
10
-1.99503997793931
20
11.036753378672
30
0
41
1
10
-1.99503997793931
20
11.4864047694407
30
0
41
1
10
-1.99503997793931
20
11.8422771919954
30
0
41
1
10
-1.99503997793931
20
12.1070624362612
30
0
41
1
10
-1.99503997793931
20
12.3698135917845
30
0
41
1
10
-1.99503997793931
20
12.6305299496176
30
0
41
1
10
-1.99503997793931
20
12.8892093803249
30
0
41
1
10
-1.99503997793931
20
13.2315065950278
30
0
41
1
10
-1.99503997793931
20
13.5694123671834
30
0
41
1
10
-1.99503997793931
20
13.9035389822172
30
0
41
1
10
-1.99503997793931
20
14.1520156158997
30
0
41
1
10
-1.99503997793931
20
14.3984468555777
30
0
41
1
10
-1.99503997793931
20
14.6428305081908
30
0
41
1
10
-1.99503997793931
20
14.8851632986275
30
0
41
1
10
-1.99503997793931
20
15.1254444180464
30
0
41
1
10
-1.99503997793931
20
15.3636702284228
30
0
41
1
10
-1.99503997793931
20
15.5998373978987
30
0
41
1
10
-1.99503997793931
20
15.7948829493702
30
0
41
1
10
-1.99503997793931
20
15.9499656619051
30
0
41
1
10
-1.99503997793931
20
16.1043598435705
30
0
41
1
10
-1.99503997793931
20
16.2959649333064
30
0
41
1
10
-1.99503997793931
20
16.5999232615433
30
0
41
1
10
-1.99503997793931
20
16.8994864797488
30
0
41
1
10
-1.99503997793931
20
17.1951273648909
30
0
41
1
10
-1.99503997793931
20
17.4879867071929
30
0
41
1
10
-1.99503997793931
20
17.8486596758477
30
0
41
1
10
-1.99503997793931
20
18.202332595015
30
0
41
1
10
-1.99503997793931
20
18.4811831112868
30
0
41
1
10
-1.99503997793931
20
18.7572123739996
30
0
41
1
10
-1.99503997793931
20
19.096784863067
30
0
41
1
10
-1.99503997793931
20
19.4292463867237
30
0
41
1
10
-1.99503997793931
20
19.6910450135594
30
0
41
1
10
-1.99503997793931
20
19.9499723423375
30
0
41
1
10
-1.99503997793931
20
20.2680830253803
30
0
41
1
10
-1.99503997793931
20
20.6411931750869
30
0
41
1
10
-1.99503997793931
20
20.9447536956121
30
0
41
1
10
-1.99503997793931
20
21.1832962289191
30
0
41
1
10
-1.99503997793931
20
21.4188827024374
30
0
41
1
10
-1.99503997793931
20
21.7076686135251
30
0
41
1
10
-1.99503997793931
20
22.0453025532578
30
0
41
1
10
-1.99503997793931
20
22.3738761836524
30
0
41
1
10
-1.99503997793931
20
22.6933032792698
30
0
41
1
10
-1.99503997793931
20
23.0034924076521
30
0
41
1
10
-1.99503997793931
20
23.2541535983722
30
0
41
1
10
-1.99503997793931
20
23.4500539403358
30
0
41
1
10
-1.99503997793931
20
23.6427893362144
30
0
41
1
10
-1.99503997793931
20
23.8776317120835
30
0
41
1
10
-1.99503997793931
20
24.1498376426061
30
0
41
1
10
-1.99503997793931
20
24.3684762393368
30
0
41
1
10
-1.99503997793931
20
24.5385089750245
30
0
41
1
10
-1.99503997793931
20
24.7052121586236
30
0
41
1
10
-1.99503997793931
20
24.9072094601535
30
0
41
1
10
-1.99503997793931
20
25.1007072283818
30
0
41
1
10
-1.99503997793931
20
25.2503983881992
30
0
41
1
10
-1.99503997793931
20
25.3417349423789
30
0
41
1
10
-1.99503997793931
20
25.4135236324805
30
0
41
1
10
-1.99503997793931
20
25.4844312429182
30
0
41
1
10
-1.99503997793931
20
25.5713637005869
30
0
41
1
10
-1.99503997793931
20
25.6730295553062
30
0
41
1
10
-1.99503997793931
20
25.7719964787433
30
0
41
1
10
-1.99503997793931
20
25.8682385377286
30
0
41
1
10
-1.99503997793931
20
25.9617325512637
30
0
41
1
10
-1.99503997793931
20
26.0524523997801
30
0
41
1
10
-1.99503997793931
20
26.1403699848693
30
0
41
1
10
-1.99503997793931
20
26.2254595087627
30
0
41
1
10
-1.99503997793931
20
26.3076915686753
30
0
41
1
10
-1.99503997793931
20
26.387035697685
30
0
41
1
10
-1.99503997793931
20
26.4889678074055
30
0
41
1
10
-1.99503997793931
20
26.5849135587966
30
0
41
1
10
-1.99503997793931
20
26.674910802648
30
0
41
1
10
-1.99503997793931
20
26.7393343904956
30
0
41
1
10
-1.99503997793931
20
26.8006684557748
30
0
41
1
10
-1.99503997793931
20
26.8588742679962
30
0
41
1
10
-1.99503997793931
20
26.9139107109326
30
0
41
1
10
-1.99503997793931
20
26.9657375531884
30
0
41
1
10
-1.99503997793931
20
27.0143097024856
30
0
41
1
10
-1.99503997793931
20
27.074692746873
30
0
41
1
10
-1.99503997793931
20
27.1417627231677
30
0
41
1
10
-1.99503997793931
20
27.197345310989
30
0
41
1
10
-1.99503997793931
20
27.2347184649703
30
0
41
1
10
-1.99503997793931
20
27.2591194067693
30
0
41
1
10
-1.99503997793931
20
27.2798390211927
30
0
41
1
10
-1.99503997793931
20
27.2968118977756
30
0
41
1
10
-1.99503997793931
20
27.309968420024
30
0
41
1
10
-1.99503997793931
20
27.319236545434
30
0
41
1
10
-1.99503997793931
20
27.3243833766306
30
0
41
1
10
-1.99503997793926
20
27.3252975802244
30
0
41
1
10
-1.99503997793937
20
27.3251619257123
30
0
0
SPLINE
5
1E8
100
AcDbEntity
8
SK1
62
256
6
ByLayer
370
18
48
1
60
0
100
AcDbSpline
70
4
71
3
72
22
73
18
40
0
40
0
40
0
40
0
40
0.0276166365282475
40
0.0276166365282475
40
0.0512803322740609
40
0.0512803322740609
40
0.0708603965379502
40
0.0708603965379502
40
0.090380093346315
40
0.090380093346315
40
0.120092976656546
40
0.120092976656546
40
0.176362445146317
40
0.176362445146317
40
0.365833743481014
40
0.365833743481014
40
1
40
1
40
1
40
1
41
1
10
-0.394976888875249
20
5.88246916452647
30
0
41
1
10
-0.389431041122748
20
5.87772735505644
30
0
41
1
10
-0.383385953788945
20
5.87346388577339
30
0
41
1
10
-0.371253136804057
20
5.86750502434097
30
0
41
1
10
-0.365168155452693
20
5.86550357178896
30
0
41
1
10
-0.353783340186624
20
5.86416305490638
30
0
41
1
10
-0.34841570063179
20
5.86443681096557
30
0
41
1
10
-0.338160192115538
20
5.8667992026102
30
0
41
1
10
-0.333157430693518
20
5.86889480045636
30
0
41
1
10
-0.321590654821307
20
5.87567407240635
30
0
41
1
10
-0.315341997586472
20
5.88118861362102
30
0
41
1
10
-0.299493306550062
20
5.89858604824292
30
0
41
1
10
-0.291331302219021
20
5.91203800602841
30
0
41
1
10
-0.261121692327663
20
5.97162491315771
30
0
41
1
10
-0.248739051700454
20
6.0224672435852
30
0
41
1
10
-0.20496744481045
20
6.23921058743338
30
0
41
1
10
-0.200000000000159
20
6.40949348740787
30
0
41
1
10
-0.200000000000159
20
6.5765733851174
30
0
0
SPLINE
5
1E9
100
AcDbEntity
8
SK1
62
256
6
ByLayer
370
18
48
1
60
0
100
AcDbSpline
70
4
71
3
72
110
73
106
40
0
40
0
40
0
40
0
40
0.0065953833734406
40
0.0145535998017218
40
0.022511816230003
40
0.0304700326582842
40
0.0384282490865654
40
0.0463864655148466
40
0.0543446819431278
40
0.062302898371409
40
0.0702611147996902
40
0.0782193312279714
40
0.0861775476562526
40
0.0941357640845338
40
0.102093980512815
40
0.110052196941096
40
0.118010413369377
40
0.125968629797659
40
0.141885062654221
40
0.157801495510783
40
0.165759711939065
40
0.173717928367346
40
0.181676144795627
40
0.189634361223908
40
0.197592577652189
40
0.205550794080471
40
0.221467226937033
40
0.229425443365314
40
0.237383659793595
40
0.245341876221877
40
0.253300092650158
40
0.261258309078439
40
0.26921652550672
40
0.277174741935002
40
0.285132958363283
40
0.293091174791564
40
0.297070283005704
40
0.301049391219845
40
0.309007607648126
40
0.316965824076408
40
0.33288225693297
40
0.340840473361251
40
0.348798689789532
40
0.364715122646095
40
0.380631555502657
40
0.388589771930938
40
0.39654798835922
40
0.412464421215782
40
0.428380854072344
40
0.436339070500625
40
0.444297286928907
40
0.460213719785469
40
0.476130152642032
40
0.492046585498594
40
0.500004801926875
40
0.507963018355156
40
0.523879451211719
40
0.539795884068281
40
0.555712316924844
40
0.571628749781406
40
0.587545182637968
40
0.603461615494531
40
0.611419831922812
40
0.619378048351093
40
0.635294481207656
40
0.651210914064218
40
0.66712734692078
40
0.675085563349062
40
0.683043779777343
40
0.698960212633905
40
0.714876645490468
40
0.722834861918749
40
0.73079307834703
40
0.734772186561171
40
0.738751294775311
40
0.746709511203592
40
0.754667727631874
40
0.762625944060155
40
0.770584160488436
40
0.778542376916717
40
0.786500593344998
40
0.79445880977328
40
0.802417026201561
40
0.810375242629842
40
0.818333459058123
40
0.826291675486404
40
0.842208108342967
40
0.850166324771248
40
0.858124541199529
40
0.866082757627811
40
0.874040974056092
40
0.881999190484373
40
0.889957406912654
40
0.897915623340935
40
0.905873839769216
40
0.921790272625779
40
0.937706705482341
40
0.945664921910622
40
0.953623138338904
40
0.961581354767185
40
0.969539571195466
40
0.977497787623747
40
0.985456004052028
40
0.99341422048031
40
1
40
1
40
1
40
1
41
1
10
-0.394976888875249
20
5.88246916452647
30
0
41
1
10
-0.394976888875249
20
5.96764092579406
30
0
41
1
10
-0.394976888875249
20
6.15502928738749
30
0
41
1
10
-0.394976888875249
20
6.44325210311729
30
0
41
1
10
-0.394976888875249
20
6.7469277713501
30
0
41
1
10
-0.394976888875249
20
7.04859942112898
30
0
41
1
10
-0.394976888875249
20
7.34825961897889
30
0
41
1
10
-0.394976888875249
20
7.64590290818535
30
0
41
1
10
-0.394976888875249
20
7.94152469111089
30
0
41
1
10
-0.394976888875249
20
8.23512137696343
30
0
41
1
10
-0.394976888875249
20
8.52669000819799
30
0
41
1
10
-0.394976888875249
20
8.81622850233532
30
0
41
1
10
-0.394976888875249
20
9.10373490192171
30
0
41
1
10
-0.394976888875249
20
9.38920806992326
30
0
41
1
10
-0.394976888875249
20
9.67264656600764
30
0
41
1
10
-0.394976888875249
20
9.95404991412454
30
0
41
1
10
-0.394976888875249
20
10.2334171055167
30
0
41
1
10
-0.394976888875249
20
10.6032942253079
30
0
41
1
10
-0.394976888875249
20
11.0603255640275
30
0
41
1
10
-0.394976888875249
20
11.51055947116
30
0
41
1
10
-0.394976888875249
20
11.8668345044804
30
0
41
1
10
-0.394976888875249
20
12.1319348240103
30
0
41
1
10
-0.394976888875249
20
12.3949946525975
30
0
41
1
10
-0.394976888875249
20
12.6560136144781
30
0
41
1
10
-0.394976888875249
20
12.9149897871744
30
0
41
1
10
-0.394976888875249
20
13.2576504503012
30
0
41
1
10
-0.394976888875249
20
13.595980784257
30
0
41
1
10
-0.394976888875249
20
13.9304519502906
30
0
41
1
10
-0.394976888875249
20
14.1791991341329
30
0
41
1
10
-0.394976888875249
20
14.4258961509421
30
0
41
1
10
-0.394976888875249
20
14.6705410876498
30
0
41
1
10
-0.394976888875249
20
14.9131307556186
30
0
41
1
10
-0.394976888875249
20
15.1536644316209
30
0
41
1
10
-0.394976888875249
20
15.3921387609621
30
0
41
1
10
-0.394976888875249
20
15.6285504084944
30
0
41
1
10
-0.394976888875249
20
15.8238065102557
30
0
41
1
10
-0.394976888875249
20
15.9790378411121
30
0
41
1
10
-0.394976888875249
20
16.1335794000815
30
0
41
1
10
-0.394976888875249
20
16.3253883940748
30
0
41
1
10
-0.394976888875249
20
16.6296334809576
30
0
41
1
10
-0.394976888875249
20
16.9295332745893
30
0
41
1
10
-0.394976888875249
20
17.2254485445636
30
0
41
1
10
-0.394976888875249
20
17.5185779629222
30
0
41
1
10
-0.394976888875249
20
17.8796208110748
30
0
41
1
10
-0.394976888875249
20
18.2336536051105
30
0
41
1
10
-0.394976888875249
20
18.5127557060901
30
0
41
1
10
-0.394976888875249
20
18.789032857947
30
0
41
1
10
-0.394976888875249
20
19.1289452116702
30
0
41
1
10
-0.394976888875249
20
19.4617376778078
30
0
41
1
10
-0.394976888875249
20
19.7237678579096
30
0
41
1
10
-0.394976888875249
20
19.9829235092941
30
0
41
1
10
-0.394976888875249
20
20.3013474418474
30
0
41
1
10
-0.394976888875249
20
20.6748062117952
30
0
41
1
10
-0.394976888875249
20
20.9786637899232
30
0
41
1
10
-0.394976888875249
20
21.2174142726432
30
0
41
1
10
-0.394976888875249
20
21.453205904272
30
0
41
1
10
-0.394976888875249
20
21.7422733615616
30
0
41
1
10
-0.394976888875249
20
22.0802205832225
30
0
41
1
10
-0.394976888875249
20
22.4090991723375
30
0
41
1
10
-0.394976888875249
20
22.7288230545111
30
0
41
1
10
-0.394976888875249
20
23.0393009244132
30
0
41
1
10
-0.394976888875249
20
23.2902077684041
30
0
41
1
10
-0.394976888875249
20
23.4862798848862
30
0
41
1
10
-0.394976888875249
20
23.6791846777825
30
0
41
1
10
-0.394976888875249
20
23.9142591485119
30
0
41
1
10
-0.394976888875249
20
24.1867224773567
30
0
41
1
10
-0.394976888875249
20
24.4055794218945
30
0
41
1
10
-0.394976888875249
20
24.5757644878036
30
0
41
1
10
-0.394976888875249
20
24.7426176812545
30
0
41
1
10
-0.394976888875249
20
24.9448199373791
30
0
41
1
10
-0.394976888875249
20
25.1385155212165
30
0
41
1
10
-0.394976888875249
20
25.2883442684716
30
0
41
1
10
-0.394976888875249
20
25.3797753879956
30
0
41
1
10
-0.394976888875249
20
25.4516306650615
30
0
41
1
10
-0.394976888875249
20
25.5226042889744
30
0
41
1
10
-0.394976888875249
20
25.609627837172
30
0
41
1
10
-0.394976888875249
20
25.7113956543376
30
0
41
1
10
-0.394976888875249
20
25.810462475175
30
0
41
1
10
-0.394976888875249
20
25.90680231755
30
0
41
1
10
-0.394976888875249
20
26.0003919407076
30
0
41
1
10
-0.394976888875249
20
26.0912052473129
30
0
41
1
10
-0.394976888875249
20
26.1792140698964
30
0
41
1
10
-0.394976888875249
20
26.2643925590693
30
0
41
1
10
-0.394976888875249
20
26.3467113117503
30
0
41
1
10
-0.394976888875249
20
26.4261397788478
30
0
41
1
10
-0.394976888875249
20
26.5281744083644
30
0
41
1
10
-0.394976888875249
20
26.6242375656597
30
0
41
1
10
-0.394976888875249
20
26.7143277379812
30
0
41
1
10
-0.394976888875249
20
26.7788231109009
30
0
41
1
10
-0.394976888875249
20
26.8402262313527
30
0
41
1
10
-0.394976888875249
20
26.8984983126749
30
0
41
1
10
-0.394976888875249
20
26.9535981308651
30
0
41
1
10
-0.394976888875249
20
27.0054853645574
30
0
41
1
10
-0.394976888875249
20
27.0541148220589
30
0
41
1
10
-0.394976888875249
20
27.1145655761239
30
0
41
1
10
-0.394976888875249
20
27.1817216262674
30
0
41
1
10
-0.394976888875249
20
27.2373773347496
30
0
41
1
10
-0.394976888875249
20
27.27479540739
30
0
41
1
10
-0.394976888875249
20
27.2992282088758
30
0
41
1
10
-0.394976888875249
20
27.3199753370632
30
0
41
1
10
-0.394976888875249
20
27.3369711539198
30
0
41
1
10
-0.394976888875249
20
27.350145787712
30
0
41
1
10
-0.394976888875249
20
27.3594269183726
30
0
41
1
10
-0.394976888875249
20
27.3644317037775
30
0
41
1
10
-0.394976888875249
20
27.3654109980479
30
0
41
1
10
-0.394976888875249
20
27.3653838082718
30
0
0
SPLINE
5
1EA
100
AcDbEntity
8
SK1
62
256
6
ByLayer
370
18
48
1
60
0
100
AcDbSpline
70
4
71
3
72
20
73
16
40
0
40
0
40
0
40
0
40
0.040649643571122
40
0.040649643571122
40
0.0819863282288986
40
0.0819863282288986
40
0.119736700183767
40
0.119736700183767
40
0.159331058537086
40
0.159331058537086
40
0.224709017028576
40
0.224709017028576
40
0.413512533702576
40
0.413512533702576
40
1
40
1
40
1
40
1
41
1
10
-0.394976888875249
20
-5.88246902087485
30
0
41
1
10
-0.416011566091868
20
-5.90045407019966
30
0
41
1
10
-0.43906108838496
20
-5.91682924661427
30
0
41
1
10
-0.489461725989997
20
-5.94275107838655
30
0
41
1
10
-0.517648772344842
20
-5.95236129920659
30
0
41
1
10
-0.572820404185563
20
-5.95923768888179
30
0
41
1
10
-0.600427368008241
20
-5.95744746962771
30
0
41
1
10
-0.653338858151528
20
-5.94441127726418
30
0
41
1
10
-0.679289501071992
20
-5.93273995114203
30
0
41
1
10
-0.741510950838688
20
-5.89499382317194
30
0
41
1
10
-0.775142572169216
20
-5.86418184504055
30
0
41
1
10
-0.889702195357359
20
-5.73722946405996
30
0
41
1
10
-0.948923318613026
20
-5.62404508257816
30
0
41
1
10
-1.15697823913786
20
-5.15876570946284
30
0
41
1
10
-1.23929188630859
20
-4.77638761348987
30
0
41
1
10
-1.30710678118652
20
-4.3932391538923
30
0
0
SPLINE
5
1EB
100
AcDbEntity
8
SK1
62
256
6
ByLayer
370
18
48
1
60
0
100
AcDbSpline
70
4
71
3
72
297
73
293
40
0
40
0
40
0
40
0
40
0.0034445104030421
40
0.006966178702991
40
0.0104878470029398
40
0.0140095153028887
40
0.0175311836028375
40
0.0210528519027864
40
0.0280961885026841
40
0.0351395251025818
40
0.0386611934025307
40
0.0421828617024795
40
0.0457045300024284
40
0.0492261983023773
40
0.0527478666023261
40
0.056269534902275
40
0.0597912032022238
40
0.0633128715021727
40
0.0703562081020704
40
0.0738778764020193
40
0.0773995447019681
40
0.080921213001917
40
0.0844428813018659
40
0.0879645496018147
40
0.0914862179017636
40
0.0950078862017124
40
0.0985295545016612
40
0.10205122280161
40
0.105572891101559
40
0.112616227701457
40
0.116137896001406
40
0.119659564301355
40
0.126702900901252
40
0.13374623750115
40
0.137267905801099
40
0.140789574101048
40
0.147832910700945
40
0.154876247300843
40
0.161919583900741
40
0.16544125220069
40
0.168962920500638
40
0.176006257100536
40
0.183049593700434
40
0.190092930300332
40
0.197136266900229
40
0.204179603500127
40
0.211222940100025
40
0.214744608399974
40
0.218266276699922
40
0.22530961329982
40
0.232352949899718
40
0.239396286499616
40
0.242917954799565
40
0.246439623099513
40
0.253482959699411
40
0.260526296299309
40
0.264047964599258
40
0.267569632899206
40
0.274612969499104
40
0.281656306099002
40
0.285177974398951
40
0.2886996426989
40
0.295742979298797
40
0.299264647598746
40
0.302786315898695
40
0.306307984198644
40
0.309829652498593
40
0.313351320798542
40
0.31687298909849
40
0.320394657398439
40
0.323916325698388
40
0.327437993998337
40
0.330959662298286
40
0.334481330598235
40
0.338002998898184
40
0.345046335498082
40
0.34856800379803
40
0.352089672097979
40
0.355611340397928
40
0.359133008697877
40
0.362654676997826
40
0.366176345297775
40
0.373219681897672
40
0.376741350197621
40
0.38026301849757
40
0.383784686797519
40
0.387306355097468
40
0.390828023397417
40
0.394349691697365
40
0.397871359997314
40
0.401393028297263
40
0.404914696597212
40
0.408436364897161
40
0.41195803319711
40
0.415479701497058
40
0.419001369797007
40
0.422523038096956
40
0.426044706396905
40
0.429566374696854
40
0.433088042996803
40
0.436609711296752
40
0.438370545446726
40
0.440131379596701
40
0.44365304789665
40
0.447174716196598
40
0.448935550346573
40
0.450696384496547
40
0.454218052796496
40
0.45597888694647
40
0.457739721096445
40
0.458620138171432
40
0.459500555246419
40
0.461261389396394
40
0.463022223546368
40
0.464783057696343
40
0.466543891846317
40
0.468304725996292
40
0.470065560146266
40
0.470945977221253
40
0.47182639429624
40
0.472706811371228
40
0.473587228446215
40
0.474467645521202
40
0.475348062596189
40
0.477108896746164
40
0.477989313821151
40
0.478869730896138
40
0.480630565046113
40
0.4815109821211
40
0.482391399196087
40
0.484152233346061
40
0.485032650421048
40
0.485913067496036
40
0.48767390164601
40
0.489434735795985
40
0.491195569945959
40
0.492075987020946
40
0.492956404095934
40
0.493836821170921
40
0.494717238245908
40
0.495597655320895
40
0.496478072395882
40
0.49735848947087
40
0.498238906545857
40
0.499119323620844
40
0.499999740695831
40
0.500880157770818
40
0.501760574845806
40
0.502640991920793
40
0.50352140899578
40
0.504401826070767
40
0.505282243145754
40
0.506162660220742
40
0.507043077295729
40
0.507923494370716
40
0.508803911445703
40
0.510564745595678
40
0.512325579745652
40
0.514086413895627
40
0.514966830970614
40
0.515847248045601
40
0.517608082195576
40
0.518488499270563
40
0.51936891634555
40
0.521129750495524
40
0.522010167570512
40
0.522890584645499
40
0.524651418795473
40
0.52553183587046
40
0.526412252945448
40
0.527292670020435
40
0.528173087095422
40
0.529053504170409
40
0.529933921245397
40
0.531694755395371
40
0.533455589545345
40
0.53521642369532
40
0.536977257845294
40
0.538738091995269
40
0.540498926145243
40
0.54137934322023
40
0.542259760295217
40
0.544020594445192
40
0.545781428595166
40
0.549303096895115
40
0.55106393104509
40
0.552824765195064
40
0.556346433495013
40
0.559868101794962
40
0.561628935944936
40
0.563389770094911
40
0.56691143839486
40
0.570433106694808
40
0.573954774994757
40
0.577476443294706
40
0.580998111594655
40
0.584519779894604
40
0.588041448194553
40
0.591563116494502
40
0.59508478479445
40
0.598606453094399
40
0.602128121394348
40
0.605649789694297
40
0.609171457994246
40
0.612693126294195
40
0.616214794594144
40
0.619736462894092
40
0.62677979949399
40
0.633823136093888
40
0.637344804393837
40
0.640866472693785
40
0.644388140993734
40
0.647909809293683
40
0.651431477593632
40
0.654953145893581
40
0.661996482493479
40
0.665518150793428
40
0.669039819093376
40
0.672561487393325
40
0.676083155693274
40
0.679604823993223
40
0.683126492293172
40
0.686648160593121
40
0.69016982889307
40
0.693691497193018
40
0.695452331342993
40
0.697213165492968
40
0.700734833792916
40
0.704256502092865
40
0.711299838692763
40
0.714821506992712
40
0.71834317529266
40
0.725386511892558
40
0.732429848492456
40
0.735951516792405
40
0.739473185092354
40
0.746516521692251
40
0.753559858292149
40
0.757081526592098
40
0.760603194892047
40
0.767646531491944
40
0.774689868091842
40
0.78173320469174
40
0.785254872991689
40
0.788776541291638
40
0.795819877891535
40
0.802863214491433
40
0.809906551091331
40
0.816949887691229
40
0.823993224291126
40
0.831036560891024
40
0.834558229190973
40
0.838079897490922
40
0.845123234090819
40
0.852166570690717
40
0.859209907290615
40
0.862731575590564
40
0.866253243890513
40
0.87329658049041
40
0.880339917090308
40
0.883861585390257
40
0.887383253690206
40
0.88914408784018
40
0.890904921990154
40
0.894426590290103
40
0.897948258590052
40
0.901469926890001
40
0.90499159518995
40
0.908513263489899
40
0.912034931789848
40
0.915556600089797
40
0.919078268389746
40
0.922599936689694
40
0.926121604989643
40
0.929643273289592
40
0.93668660988949
40
0.940208278189439
40
0.943729946489387
40
0.947251614789336
40
0.950773283089285
40
0.954294951389234
40
0.957816619689183
40
0.961338287989132
40
0.964859956289081
40
0.971903292888978
40
0.978946629488876
40
0.982468297788825
40
0.985989966088774
40
0.989511634388723
40
0.993033302688671
40
0.99655497098862
40
1
40
1
40
1
40
1
41
1
10
-46.5000000000001
20
-26.4005849807149
30
0
41
1
10
-46.5
20
-26.3982590121593
30
0
41
1
10
-46.5
20
-26.3923165563954
30
0
41
1
10
-46.5
20
-26.3796666797908
30
0
41
1
10
-46.5
20
-26.3632177086405
30
0
41
1
10
-46.5
20
-26.3431264926158
30
0
41
1
10
-46.5
20
-26.3194531526336
30
0
41
1
10
-46.5
20
-26.2831057174252
30
0
41
1
10
-46.5
20
-26.2291930886236
30
0
41
1
10
-46.5
20
-26.1640888761727
30
0
41
1
10
-46.5
20
-26.1052520927383
30
0
41
1
10
-46.5
20
-26.0579887211792
30
0
41
1
10
-46.5
20
-26.0075410833254
30
0
41
1
10
-46.5
20
-25.9539520563292
30
0
41
1
10
-46.5
20
-25.8972596671495
30
0
41
1
10
-46.5
20
-25.8375026350058
30
0
41
1
10
-46.5
20
-25.7747185038326
30
0
41
1
10
-46.5
20
-25.6868434692657
30
0
41
1
10
-46.5
20
-25.5935790625545
30
0
41
1
10
-46.5
20
-25.4939882216236
30
0
41
1
10
-46.5
20
-25.4165702112604
30
0
41
1
10
-46.5
20
-25.3363180229215
30
0
41
1
10
-46.5
20
-25.2532602220169
30
0
41
1
10
-46.5
20
-25.1674263269856
30
0
41
1
10
-46.5
20
-25.0788408868142
30
0
41
1
10
-46.5
20
-24.9875302738736
30
0
41
1
10
-46.5
20
-24.8935210874344
30
0
41
1
10
-46.5
20
-24.7968362527739
30
0
41
1
10
-46.5
20
-24.6641535645997
30
0
41
1
10
-46.5
20
-24.5269227085665
30
0
41
1
10
-46.5
20
-24.3838015939208
30
0
41
1
10
-46.5
20
-24.2372525971634
30
0
41
1
10
-46.5
20
-24.0482725228685
30
0
41
1
10
-46.5
20
-23.850955898421
30
0
41
1
10
-46.5
20
-23.6876786019558
30
0
41
1
10
-46.5
20
-23.5211247254417
30
0
41
1
10
-46.5
20
-23.3074726991927
30
0
41
1
10
-46.5
20
-23.0411451576491
30
0
41
1
10
-46.5
20
-22.811603290218
30
0
41
1
10
-46.5
20
-22.6227365313406
30
0
41
1
10
-46.5
20
-22.430759131675
30
0
41
1
10
-46.5
20
-22.1857080938538
30
0
41
1
10
-46.5
20
-21.8821131574231
30
0
41
1
10
-46.5
20
-21.5694639882747
30
0
41
1
10
-46.5
20
-21.2478549114363
30
0
41
1
10
-46.5
20
-20.9173756153364
30
0
41
1
10
-46.5
20
-20.6350195698474
30
0
41
1
10
-46.5
20
-20.4041184359554
30
0
41
1
10
-46.5
20
-20.1703249928589
30
0
41
1
10
-46.5
20
-19.8735485854937
30
0
41
1
10
-46.5
20
-19.5084001148029
30
0
41
1
10
-46.5
20
-19.197443340025
30
0
41
1
10
-46.5
20
-18.9437303760812
30
0
41
1
10
-46.5
20
-18.6872198879946
30
0
41
1
10
-46.5
20
-18.3623163297431
30
0
41
1
10
-46.5
20
-18.0305055738421
30
0
41
1
10
-46.5
20
-17.760137536785
30
0
41
1
10
-46.5
20
-17.4870326238008
30
0
41
1
10
-46.5
20
-17.141578419983
30
0
41
1
10
-46.5
20
-16.7893526613563
30
0
41
1
10
-46.5
20
-16.5026611888573
30
0
41
1
10
-46.5
20
-16.213286735967
30
0
41
1
10
-46.5
20
-15.9214104773834
30
0
41
1
10
-46.5
20
-15.6239999053158
30
0
41
1
10
-46.5
20
-15.3993479391742
30
0
41
1
10
-46.5
20
-15.1727131739385
30
0
41
1
10
-46.5
20
-14.9440989510647
30
0
41
1
10
-46.5
20
-14.7135145143936
30
0
41
1
10
-46.5
20
-14.4809638211463
30
0
41
1
10
-46.5
20
-14.246450720846
30
0
41
1
10
-46.5
20
-14.0099844817145
30
0
41
1
10
-46.5
20
-13.7715679573404
30
0
41
1
10
-46.5
20
-13.5312065194643
30
0
41
1
10
-46.5
20
-13.2889085465965
30
0
41
1
10
-46.5
20
-12.9626507598828
30
0
41
1
10
-46.5
20
-12.6344409449825
30
0
41
1
10
-46.5
20
-12.3004440311799
30
0
41
1
10
-46.5
20
-12.0485415833541
30
0
41
1
10
-46.5
20
-11.7947361066789
30
0
41
1
10
-46.5
20
-11.5390343183575
30
0
41
1
10
-46.5
20
-11.281444487853
30
0
41
1
10
-46.5
20
-10.9347667406994
30
0
41
1
10
-46.5
20
-10.586566157494
30
0
41
1
10
-46.5
20
-10.232343426472
30
0
41
1
10
-46.5
20
-9.96542491303103
30
0
41
1
10
-46.5
20
-9.69666702608527
30
0
41
1
10
-46.5
20
-9.42608142898109
30
0
41
1
10
-46.5
20
-9.15367874030949
30
0
41
1
10
-46.5
20
-8.87947149804472
30
0
41
1
10
-46.5
20
-8.60347117534138
30
0
41
1
10
-46.5
20
-8.32569604592516
30
0
41
1
10
-46.5
20
-8.0461621387675
30
0
41
1
10
-46.5
20
-7.76488418006784
30
0
41
1
10
-46.5
20
-7.48188354614013
30
0
41
1
10
-46.5
20
-7.1971840165611
30
0
41
1
10
-46.5
20
-6.91080958282794
30
0
41
1
10
-46.5
20
-6.62278719976098
30
0
41
1
10
-46.5
20
-6.33314802823861
30
0
41
1
10
-46.5
20
-6.04192849679623
30
0
41
1
10
-46.5
20
-5.74916632270845
30
0
41
1
10
-46.5
20
-5.50455825405027
30
0
41
1
10
-46.5
20
-5.30698791061081
30
0
41
1
10
-46.5
20
-5.10896440271245
30
0
41
1
10
-46.5
20
-4.86210999380614
30
0
41
1
10
-46.5
20
-4.61410932418949
30
0
41
1
10
-46.5
20
-4.41377359776482
30
0
41
1
10
-46.5
20
-4.21306090369296
30
0
41
1
10
-46.5
20
-4.0140732255627
30
0
41
1
10
-46.5
20
-3.81214209897178
30
0
41
1
10
-46.5
20
-3.68664870804332
30
0
41
1
10
-46.5
20
-3.58538042142959
30
0
41
1
10
-46.5
20
-3.48404272537243
30
0
41
1
10
-46.5
20
-3.35820741865734
30
0
41
1
10
-46.5
20
-3.20645087454693
30
0
41
1
10
-46.5
20
-3.05450118032695
30
0
41
1
10
-46.5
20
-2.90237254212093
30
0
41
1
10
-46.5
20
-2.75008154091461
30
0
41
1
10
-46.5
20
-2.62353075560304
30
0
41
1
10
-46.5
20
-2.52133341402544
30
0
41
1
10
-46.5
20
-2.44503916247595
30
0
41
1
10
-46.5
20
-2.36872116745508
30
0
41
1
10
-46.5
20
-2.29238035464516
30
0
41
1
10
-46.5
20
-2.21601232318562
30
0
41
1
10
-46.5
20
-2.11363864625321
30
0
41
1
10
-46.5
20
-2.01284840665642
30
0
41
1
10
-46.5
20
-1.9103786891003
30
0
41
1
10
-46.5
20
-1.80790519746154
30
0
41
1
10
-46.5
20
-1.70711241828644
30
0
41
1
10
-46.5
20
-1.60457738401556
30
0
41
1
10
-46.5
20
-1.50205137220064
30
0
41
1
10
-46.5
20
-1.40129786220382
30
0
41
1
10
-46.5
20
-1.29873778818728
30
0
41
1
10
-46.5
20
-1.19620002438899
30
0
41
1
10
-46.5
20
-1.06942535695816
30
0
41
1
10
-46.5
20
-0.916562784856865
30
0
41
1
10
-46.5
20
-0.789831419581219
30
0
41
1
10
-46.5
20
-0.68730636387329
30
0
41
1
10
-46.5
20
-0.610920589347302
30
0
41
1
10
-46.5
20
-0.534534693051569
30
0
41
1
10
-46.5
20
-0.458151977723787
30
0
41
1
10
-46.5
20
-0.381785863077653
30
0
41
1
10
-46.5
20
-0.305424686924198
30
0
41
1
10
-46.5
20
-0.229059030613598
30
0
41
1
10
-46.5
20
-0.152702843052907
30
0
41
1
10
-46.5
20
-0.0763563105774665
30
0
41
1
10
-46.5
20
2.80731456E-08
30
0
41
1
10
-46.5
20
0.0763563556610052
30
0
41
1
10
-46.5
20
0.152702860966656
30
0
41
1
10
-46.5
20
0.229059014473137
30
0
41
1
10
-46.5
20
0.305424650134683
30
0
41
1
10
-46.5
20
0.381785837912503
30
0
41
1
10
-46.5
20
0.458151993845604
30
0
41
1
10
-46.5
20
0.534534760307793
30
0
41
1
10
-46.5
20
0.610920675348439
30
0
41
1
10
-46.5
20
0.687306419565971
30
0
41
1
10
-46.5
20
0.789831382943021
30
0
41
1
10
-46.5
20
0.91656272213288
30
0
41
1
10
-46.5
20
1.06942542909599
30
0
41
1
10
-46.5
20
1.19620014128839
30
0
41
1
10
-46.5
20
1.29873779453158
30
0
41
1
10
-46.5
20
1.40129776039692
30
0
41
1
10
-46.5
20
1.50205128730931
30
0
41
1
10
-46.5
20
1.60457743182712
30
0
41
1
10
-46.5
20
1.70711256984475
30
0
41
1
10
-46.5
20
1.80790531000537
30
0
41
1
10
-46.5
20
1.91037865662702
30
0
41
1
10
-46.5
20
2.01284827062045
30
0
41
1
10
-46.5
20
2.11363855078116
30
0
41
1
10
-46.5
20
2.21601237541188
30
0
41
1
10
-46.5
20
2.29238050761501
30
0
41
1
10
-46.5
20
2.36872134228486
30
0
41
1
10
-46.5
20
2.44503927940082
30
0
41
1
10
-46.5
20
2.52133342108164
30
0
41
1
10
-46.5
20
2.62353063115779
30
0
41
1
10
-46.5
20
2.75008141374235
30
0
41
1
10
-46.5
20
2.90237261804771
30
0
41
1
10
-46.5
20
3.05450136741513
30
0
41
1
10
-46.5
20
3.20645090100777
30
0
41
1
10
-46.5
20
3.35820726744203
30
0
41
1
10
-46.5
20
3.48404260664449
30
0
41
1
10
-46.5
20
3.58538042770658
30
0
41
1
10
-46.5
20
3.68664884198915
30
0
41
1
10
-46.5
20
3.81214228534714
30
0
41
1
10
-46.5
20
4.01407320205544
30
0
41
1
10
-46.5
20
4.21306074878714
30
0
41
1
10
-46.5
20
4.41377363153026
30
0
41
1
10
-46.5
20
4.6141095005429
30
0
41
1
10
-46.5
20
4.86210998685601
30
0
41
1
10
-46.5
20
5.10896425509634
30
0
41
1
10
-46.5
20
5.3069879511437
30
0
41
1
10
-46.5
20
5.50455842781798
30
0
41
1
10
-46.5
20
5.74916634577846
30
0
41
1
10
-46.5
20
6.04192837587698
30
0
41
1
10
-46.5
20
6.33314809321132
30
0
41
1
10
-46.5
20
6.62278715303694
30
0
41
1
10
-46.5
20
6.9108093263759
30
0
41
1
10
-46.5
20
7.19718434586196
30
0
41
1
10
-46.5
20
7.48188420282088
30
0
41
1
10
-46.5
20
7.76488385459561
30
0
41
1
10
-46.5
20
8.04616134412481
30
0
41
1
10
-46.5
20
8.32569671953036
30
0
41
1
10
-46.5
20
8.60347202441494
30
0
41
1
10
-46.5
20
8.8794708993521
30
0
41
1
10
-46.5
20
9.1536783112208
30
0
41
1
10
-46.5
20
9.42608146076122
30
0
41
1
10
-46.5
20
9.69666715624226
30
0
41
1
10
-46.5
20
10.0558459740262
30
0
41
1
10
-46.5
20
10.498418779835
30
0
41
1
10
-46.5
20
10.934766834136
30
0
41
1
10
-46.5
20
11.2814445510786
30
0
41
1
10
-46.5
20
11.5390341996307
30
0
41
1
10
-46.5
20
11.7947359709947
30
0
41
1
10
-46.5
20
12.0485415470732
30
0
41
1
10
-46.5
20
12.3004440719815
30
0
41
1
10
-46.5
20
12.6344409590498
30
0
41
1
10
-46.5
20
12.9626507143561
30
0
41
1
10
-46.5
20
13.288908575541
30
0
41
1
10
-46.5
20
13.5312064646772
30
0
41
1
10
-46.5
20
13.7715679648215
30
0
41
1
10
-46.5
20
14.009984488545
30
0
41
1
10
-46.5
20
14.2464507858614
30
0
41
1
10
-46.5
20
14.4809640927087
30
0
41
1
10
-46.5
20
14.7135143004555
30
0
41
1
10
-46.5
20
14.9440981523704
30
0
41
1
10
-46.5
20
15.1343352185844
30
0
41
1
10
-46.5
20
15.28602382984
30
0
41
1
10
-46.5
20
15.4370522522144
30
0
41
1
10
-46.5
20
15.6240006368157
30
0
41
1
10
-46.5
20
15.9214100558918
30
0
41
1
10
-46.5
20
16.2132866640401
30
0
41
1
10
-46.5
20
16.5026612295204
30
0
41
1
10
-46.5
20
16.7893526547043
30
0
41
1
10
-46.5
20
17.1415784247604
30
0
41
1
10
-46.5
20
17.4870326281007
30
0
41
1
10
-46.5
20
17.7601375272069
30
0
41
1
10
-46.5
20
18.0305055709471
30
0
41
1
10
-46.5
20
18.362316331505
30
0
41
1
10
-46.5
20
18.687219888641
30
0
41
1
10
-46.5
20
18.9437303704574
30
0
41
1
10
-46.5
20
19.1974433350662
30
0
41
1
10
-46.5
20
19.5084001184169
30
0
41
1
10
-46.5
20
19.8735485821408
30
0
41
1
10
-46.5
20
20.1703249889741
30
0
41
1
10
-46.5
20
20.4041184350775
30
0
41
1
10
-46.5
20
20.6350195683323
30
0
41
1
10
-46.5
20
20.9173756105157
30
0
41
1
10
-46.5
20
21.2478549102086
30
0
41
1
10
-46.5
20
21.5694639835234
30
0
41
1
10
-46.5
20
21.8821131555325
30
0
41
1
10
-46.5
20
22.1857080904646
30
0
41
1
10
-46.5
20
22.430759124426
30
0
41
1
10
-46.5
20
22.6227365307309
30
0
41
1
10
-46.5
20
22.8116032876094
30
0
41
1
10
-46.5
20
23.0411451496901
30
0
41
1
10
-46.5
20
23.307472693444
30
0
41
1
10
-46.5
20
23.5211247275232
30
0
41
1
10
-46.5
20
23.6876785906568
30
0
41
1
10
-46.5
20
23.8509558936155
30
0
41
1
10
-46.5
20
24.0482725027174
30
0
41
1
10
-46.5
20
24.2372526165609
30
0
41
1
10
-46.5
20
24.3838015951593
30
0
41
1
10
-46.5
20
24.4729784939732
30
0
41
1
10
-46.5
20
24.5432464906718
30
0
41
1
10
-46.5
20
24.6126465048792
30
0
41
1
10
-46.5
20
24.6974986639861
30
0
41
1
10
-46.5
20
24.7968359305099
30
0
41
1
10
-46.5
20
24.8935214266578
30
0
41
1
10
-46.5
20
24.9875303375031
30
0
41
1
10
-46.5
20
25.078840846753
30
0
41
1
10
-46.5
20
25.1674263270686
30
0
41
1
10
-46.5
20
25.2532602572421
30
0
41
1
10
-46.5
20
25.3363180183903
30
0
41
1
10
-46.5
20
25.4165702144948
30
0
41
1
10
-46.5
20
25.4939882551943
30
0
41
1
10
-46.5
20
25.5935790481261
30
0
41
1
10
-46.5
20
25.6868435181955
30
0
41
1
10
-46.5
20
25.7747184891248
30
0
41
1
10
-46.5
20
25.8375026707195
30
0
41
1
10
-46.5
20
25.8972596743867
30
0
41
1
10
-46.5
20
25.9539520524798
30
0
41
1
10
-46.5
20
26.0075411501124
30
0
41
1
10
-46.5
20
26.0579887905966
30
0
41
1
10
-46.5
20
26.1052521520729
30
0
41
1
10
-46.5
20
26.1640888628635
30
0
41
1
10
-46.5
20
26.2291931100504
30
0
41
1
10
-46.5
20
26.2831057898449
30
0
41
1
10
-46.5
20
26.3194531047684
30
0
41
1
10
-46.5
20
26.3431264444613
30
0
41
1
10
-46.5
20
26.3632177076784
30
0
41
1
10
-46.5
20
26.3796666810734
30
0
41
1
10
-46.5
20
26.3923171393772
30
0
41
1
10
-46.4999999999999
20
26.3982598688847
30
0
41
1
10
-46.4999999999999
20
26.4005860193433
30
0
0
SPLINE
5
1EC
100
AcDbEntity
8
SK1
62
256
6
ByLayer
370
18
48
1
60
0
100
AcDbSpline
70
4
71
3
72
297
73
293
40
0
40
0
40
0
40
0
40
0.0006515105887044
40
0.0041929884538886
40
0.0077344663190727
40
0.0112759441842569
40
0.0148174220494411
40
0.0183588999146253
40
0.0254418556449936
40
0.032524811375362
40
0.0360662892405462
40
0.0396077671057303
40
0.0431492449709145
40
0.0466907228360987
40
0.0502322007012829
40
0.0537736785664671
40
0.0573151564316512
40
0.0608566342968354
40
0.0679395900272038
40
0.071481067892388
40
0.0750225457575721
40
0.0785640236227563
40
0.0821055014879405
40
0.0856469793531247
40
0.0891884572183089
40
0.092729935083493
40
0.0962714129486772
40
0.0998128908138614
40
0.103354368679046
40
0.110437324409414
40
0.113978802274598
40
0.117520280139782
40
0.124603235870151
40
0.131686191600519
40
0.135227669465703
40
0.138769147330887
40
0.145852103061256
40
0.152935058791624
40
0.160018014521992
40
0.163559492387177
40
0.167100970252361
40
0.174183925982729
40
0.181266881713097
40
0.188349837443466
40
0.195432793173834
40
0.202515748904203
40
0.209598704634571
40
0.213140182499755
40
0.216681660364939
40
0.223764616095308
40
0.230847571825676
40
0.237930527556044
40
0.241472005421229
40
0.245013483286413
40
0.252096439016781
40
0.25917939474715
40
0.262720872612334
40
0.266262350477518
40
0.273345306207886
40
0.280428261938254
40
0.283969739803439
40
0.287511217668623
40
0.294594173398991
40
0.298135651264175
40
0.30167712912936
40
0.305218606994544
40
0.308760084859728
40
0.312301562724912
40
0.315843040590096
40
0.31938451845528
40
0.322925996320465
40
0.326467474185649
40
0.330008952050833
40
0.333550429916017
40
0.337091907781201
40
0.34417486351157
40
0.347716341376754
40
0.351257819241938
40
0.354799297107122
40
0.358340774972306
40
0.361882252837491
40
0.365423730702675
40
0.372506686433043
40
0.376048164298227
40
0.379589642163412
40
0.383131120028596
40
0.38667259789378
40
0.390214075758964
40
0.393755553624148
40
0.397297031489332
40
0.400838509354517
40
0.404379987219701
40
0.407921465084885
40
0.411462942950069
40
0.415004420815253
40
0.418545898680438
40
0.422087376545622
40
0.425628854410806
40
0.42917033227599
40
0.432711810141174
40
0.436253288006358
40
0.43802402693895
40
0.439794765871543
40
0.443336243736727
40
0.446877721601911
40
0.448648460534503
40
0.450419199467095
40
0.453960677332279
40
0.455731416264871
40
0.457502155197464
40
0.458387524663759
40
0.459272894130056
40
0.461043633062648
40
0.46281437199524
40
0.464585110927832
40
0.466355849860424
40
0.468126588793016
40
0.469897327725608
40
0.470782697191904
40
0.4716680666582
40
0.472553436124496
40
0.473438805590792
40
0.474324175057088
40
0.475209544523384
40
0.476980283455976
40
0.477865652922273
40
0.478751022388568
40
0.480521761321161
40
0.481407130787457
40
0.482292500253753
40
0.484063239186345
40
0.484948608652641
40
0.485833978118937
40
0.487604717051529
40
0.489375455984121
40
0.491146194916713
40
0.492031564383009
40
0.492916933849305
40
0.493802303315601
40
0.494687672781897
40
0.495573042248193
40
0.49645841171449
40
0.497343781180785
40
0.498229150647082
40
0.499114520113378
40
0.499999889579674
40
0.50088525904597
40
0.501770628512266
40
0.502655997978562
40
0.503541367444858
40
0.504426736911154
40
0.50531210637745
40
0.506197475843746
40
0.507082845310042
40
0.507968214776338
40
0.508853584242634
40
0.510624323175226
40
0.512395062107818
40
0.51416580104041
40
0.515051170506706
40
0.515936539973002
40
0.517707278905595
40
0.518592648371891
40
0.519478017838187
40
0.521248756770779
40
0.522134126237075
40
0.523019495703371
40
0.524790234635963
40
0.525675604102259
40
0.526560973568555
40
0.527446343034851
40
0.528331712501147
40
0.529217081967443
40
0.530102451433739
40
0.531873190366331
40
0.533643929298923
40
0.535414668231515
40
0.537185407164108
40
0.5389561460967
40
0.540726885029292
40
0.541612254495588
40
0.542497623961884
40
0.544268362894476
40
0.546039101827068
40
0.549580579692252
40
0.551351318624844
40
0.553122057557436
40
0.55666353542262
40
0.560205013287805
40
0.561975752220397
40
0.563746491152989
40
0.567287969018173
40
0.570829446883357
40
0.574370924748541
40
0.577912402613726
40
0.58145388047891
40
0.584995358344094
40
0.588536836209278
40
0.592078314074462
40
0.595619791939647
40
0.599161269804831
40
0.602702747670015
40
0.606244225535199
40
0.609785703400383
40
0.613327181265567
40
0.616868659130752
40
0.620410136995936
40
0.627493092726304
40
0.634576048456672
40
0.638117526321857
40
0.641659004187041
40
0.645200482052225
40
0.648741959917409
40
0.652283437782593
40
0.655824915647778
40
0.662907871378146
40
0.66644934924333
40
0.669990827108514
40
0.673532304973698
40
0.677073782838883
40
0.680615260704067
40
0.684156738569251
40
0.687698216434435
40
0.691239694299619
40
0.694781172164804
40
0.696551911097396
40
0.698322650029988
40
0.701864127895172
40
0.705405605760356
40
0.712488561490724
40
0.716030039355909
40
0.719571517221093
40
0.726654472951461
40
0.73373742868183
40
0.737278906547014
40
0.740820384412198
40
0.747903340142566
40
0.754986295872935
40
0.758527773738119
40
0.762069251603303
40
0.769152207333671
40
0.77623516306404
40
0.783318118794408
40
0.786859596659592
40
0.790401074524776
40
0.797484030255145
40
0.804566985985513
40
0.811649941715881
40
0.81873289744625
40
0.825815853176618
40
0.832898808906986
40
0.836440286772171
40
0.839981764637355
40
0.847064720367723
40
0.854147676098092
40
0.86123063182846
40
0.864772109693644
40
0.868313587558828
40
0.875396543289197
40
0.882479499019565
40
0.886020976884749
40
0.889562454749933
40
0.891333193682526
40
0.893103932615118
40
0.896645410480302
40
0.900186888345486
40
0.90372836621067
40
0.907269844075854
40
0.910811321941038
40
0.914352799806223
40
0.917894277671407
40
0.921435755536591
40
0.924977233401775
40
0.928518711266959
40
0.932060189132144
40
0.939143144862512
40
0.942684622727696
40
0.94622610059288
40
0.949767578458064
40
0.953309056323249
40
0.956850534188433
40
0.960392012053617
40
0.963933489918801
40
0.967474967783985
40
0.974557923514354
40
0.981640879244722
40
0.985182357109906
40
0.98872383497509
40
0.992265312840275
40
0.995806790705459
40
0.999348268570643
40
1
40
1
40
1
40
1
41
1
10
-2.19999999999999
20
-27.5061346863974
30
0
41
1
10
-2.19999999999999
20
-27.5054867256548
30
0
41
1
10
-2.19999999999999
20
-27.501174001321
30
0
41
1
10
-2.19999999999999
20
-27.4915322394785
30
0
41
1
10
-2.19999999999999
20
-27.4744481426486
30
0
41
1
10
-2.19999999999999
20
-27.4535951682728
30
0
41
1
10
-2.19999999999999
20
-27.4290397313646
30
0
41
1
10
-2.19999999999999
20
-27.391448663995
30
0
41
1
10
-2.19999999999999
20
-27.3355116051596
30
0
41
1
10
-2.19999999999999
20
-27.2680242980373
30
0
41
1
10
-2.19999999999999
20
-27.207312873948
30
0
41
1
10
-2.19999999999999
20
-27.1584628619196
30
0
41
1
10
-2.19999999999999
20
-27.1063432161342
30
0
41
1
10
-2.19999999999999
20
-27.0509995447849
30
0
41
1
10
-2.19999999999999
20
-26.9924723817989
30
0
41
1
10
-2.19999999999999
20
-26.9308034813115
30
0
41
1
10
-2.19999999999999
20
-26.8660318680526
30
0
41
1
10
-2.19999999999999
20
-26.7755839801004
30
0
41
1
10
-2.19999999999999
20
-26.6790690300398
30
0
41
1
10
-2.19999999999999
20
-26.5766397788825
30
0
41
1
10
-2.19999999999999
20
-26.496886760278
30
0
41
1
10
-2.19999999999999
20
-26.4142343357678
30
0
41
1
10
-2.19999999999999
20
-26.3287134281849
30
0
41
1
10
-2.19999999999999
20
-26.2403534959288
30
0
41
1
10
-2.19999999999999
20
-26.1491804785363
30
0
41
1
10
-2.19999999999999
20
-26.0552227938057
30
0
41
1
10
-2.19999999999999
20
-25.9585066378384
30
0
41
1
10
-2.19999999999999
20
-25.8590558590047
30
0
41
1
10
-2.19999999999999
20
-25.7228460886287
30
0
41
1
10
-2.19999999999999
20
-25.5812511874436
30
0
41
1
10
-2.19999999999999
20
-25.434386577261
30
0
41
1
10
-2.19999999999999
20
-25.284028500125
30
0
41
1
10
-2.19999999999999
20
-25.0895715372853
30
0
41
1
10
-2.19999999999999
20
-24.8865804716972
30
0
41
1
10
-2.19999999999999
20
-24.7191499364504
30
0
41
1
10
-2.19999999999999
20
-24.5483785868418
30
0
41
1
10
-2.19999999999999
20
-24.3286812980357
30
0
41
1
10
-2.19999999999999
20
-24.0552273148741
30
0
41
1
10
-2.19999999999999
20
-23.8192595766845
30
0
41
1
10
-2.19999999999999
20
-23.6257028262786
30
0
41
1
10
-2.19999999999999
20
-23.4289696038095
30
0
41
1
10
-2.19999999999999
20
-23.177117307697
30
0
41
1
10
-2.19999999999999
20
-22.8655281588585
30
0
41
1
10
-2.19999999999999
20
-22.5446620340323
30
0
41
1
10
-2.19999999999999
20
-22.2146097463897
30
0
41
1
10
-2.19999999999999
20
-21.8754567982466
30
0
41
1
10
-2.19999999999999
20
-21.5853057494762
30
0
41
1
10
-2.19999999999999
20
-21.3487245268705
30
0
41
1
10
-2.19999999999999
20
-21.1091737088126
30
0
41
1
10
-2.19999999999999
20
-20.8041728419317
30
0
41
1
10
-2.19999999999999
20
-20.4293723340896
30
0
41
1
10
-2.19999999999999
20
-20.1097428027781
30
0
41
1
10
-2.19999999999999
20
-19.8497084005983
30
0
41
1
10
-2.19999999999999
20
-19.5867870393814
30
0
41
1
10
-2.19999999999999
20
-19.2527208752522
30
0
41
1
10
-2.19999999999999
20
-18.9115004851851
30
0
41
1
10
-2.19999999999999
20
-18.634269279738
30
0
41
1
10
-2.19999999999999
20
-18.3541988970414
30
0
41
1
10
-2.19999999999999
20
-17.9987810588701
30
0
41
1
10
-2.19999999999999
20
-17.636314655197
30
0
41
1
10
-2.19999999999999
20
-17.342145790903
30
0
41
1
10
-2.19999999999999
20
-17.0451745383014
30
0
41
1
10
-2.19999999999999
20
-16.7439792746615
30
0
41
1
10
-2.19999999999999
20
-16.4386302461312
30
0
41
1
10
-2.19999999999999
20
-16.2075239950657
30
0
41
1
10
-2.19999999999999
20
-15.9743322626434
30
0
41
1
10
-2.19999999999999
20
-15.7390584129099
30
0
41
1
10
-2.19999999999999
20
-15.5017056049151
30
0
41
1
10
-2.19999999999999
20
-15.2622748554345
30
0
41
1
10
-2.19999999999999
20
-15.0207692449601
30
0
41
1
10
-2.19999999999999
20
-14.7771908994275
30
0
41
1
10
-2.19999999999999
20
-14.5315403886931
30
0
41
1
10
-2.19999999999999
20
-14.2838204606994
30
0
41
1
10
-2.19999999999999
20
-14.034031998634
30
0
41
1
10
-2.19999999999999
20
-13.6982347944476
30
0
41
1
10
-2.19999999999999
20
-13.3582704046987
30
0
41
1
10
-2.19999999999999
20
-13.0142109860464
30
0
41
1
10
-2.19999999999999
20
-12.7540927464655
30
0
41
1
10
-2.19999999999999
20
-12.4919091491304
30
0
41
1
10
-2.19999999999999
20
-12.2276612856808
30
0
41
1
10
-2.19999999999999
20
-11.9613483258762
30
0
41
1
10
-2.19999999999999
20
-11.6035238164174
30
0
41
1
10
-2.19999999999999
20
-11.2415269571055
30
0
41
1
10
-2.19999999999999
20
-10.8754383363527
30
0
41
1
10
-2.19999999999999
20
-10.5987925508875
30
0
41
1
10
-2.19999999999999
20
-10.3200778010582
30
0
41
1
10
-2.19999999999999
20
-10.0392928286735
30
0
41
1
10
-2.19999999999999
20
-9.75643634846188
30
0
41
1
10
-2.19999999999999
20
-9.47150729415068
30
0
41
1
10
-2.19999999999999
20
-9.1845043611271
30
0
41
1
10
-2.19999999999999
20
-8.89542719115695
30
0
41
1
10
-2.19999999999999
20
-8.60427356074342
30
0
41
1
10
-2.19999999999999
20
-8.31104318061546
30
0
41
1
10
-2.19999999999999
20
-8.01573561602436
30
0
41
1
10
-2.19999999999999
20
-7.71835058358692
30
0
41
1
10
-2.19999999999999
20
-7.41888794723957
30
0
41
1
10
-2.19999999999999
20
-7.11734869113025
30
0
41
1
10
-2.19999999999999
20
-6.81373435633816
30
0
41
1
10
-2.19999999999999
20
-6.50804760816209
30
0
41
1
10
-2.19999999999999
20
-6.20029189348725
30
0
41
1
10
-2.19999999999999
20
-5.94209838158554
30
0
41
1
10
-2.19999999999999
20
-5.73453666830335
30
0
41
1
10
-2.19999999999999
20
-5.52629101970228
30
0
41
1
10
-2.19999999999999
20
-5.26467637812243
30
0
41
1
10
-2.19999999999999
20
-5.00136826160576
30
0
41
1
10
-2.19999999999999
20
-4.78973719244789
30
0
41
1
10
-2.19999999999999
20
-4.57743718277368
30
0
41
1
10
-2.19999999999999
20
-4.36409678795758
30
0
41
1
10
-2.19999999999999
20
-4.14981697452481
30
0
41
1
10
-2.19999999999999
20
-4.01546868648904
30
0
41
1
10
-2.19999999999999
20
-3.90776230194615
30
0
41
1
10
-2.19999999999999
20
-3.79989568244889
30
0
41
1
10
-2.19999999999999
20
-3.66474576021937
30
0
41
1
10
-2.19999999999999
20
-3.5021036988395
30
0
41
1
10
-2.19999999999999
20
-3.33899660464965
30
0
41
1
10
-2.19999999999999
20
-3.17543127927684
30
0
41
1
10
-2.19999999999999
20
-3.01141672008134
30
0
41
1
10
-2.19999999999999
20
-2.87436209926591
30
0
41
1
10
-2.19999999999999
20
-2.76452000553434
30
0
41
1
10
-2.19999999999999
20
-2.68202545651479
30
0
41
1
10
-2.19999999999999
20
-2.59942632637944
30
0
41
1
10
-2.19999999999999
20
-2.51672421834655
30
0
41
1
10
-2.19999999999999
20
-2.4339209014978
30
0
41
1
10
-2.19999999999999
20
-2.32339361988261
30
0
41
1
10
-2.19999999999999
20
-2.21264123208619
30
0
41
1
10
-2.19999999999999
20
-2.10173189222928
30
0
41
1
10
-2.19999999999999
20
-1.99070060347674
30
0
41
1
10
-2.19999999999999
20
-1.87945966995699
30
0
41
1
10
-2.19999999999999
20
-1.76808195565889
30
0
41
1
10
-2.19999999999999
20
-1.65659533844246
30
0
41
1
10
-2.19999999999999
20
-1.54491818810743
30
0
41
1
10
-2.19999999999999
20
-1.43312829673266
30
0
41
1
10
-2.19999999999999
20
-1.32124507363096
30
0
41
1
10
-2.19999999999999
20
-1.18119881783468
30
0
41
1
10
-2.19999999999999
20
-1.01291860933941
30
0
41
1
10
-2.19999999999999
20
-0.87249898691482
30
0
41
1
10
-2.19999999999999
20
-0.760095820637503
30
0
41
1
10
-2.19999999999999
20
-0.675743913418614
30
0
41
1
10
-2.19999999999999
20
-0.591356016553505
30
0
41
1
10
-2.19999999999999
20
-0.506936431545682
30
0
41
1
10
-2.19999999999999
20
-0.422489234806449
30
0
41
1
10
-2.19999999999999
20
-0.338019053908852
30
0
41
1
10
-2.19999999999999
20
-0.253530597556278
30
0
41
1
10
-2.19999999999999
20
-0.169028161239794
30
0
41
1
10
-2.19999999999999
20
-0.08451629967999
30
0
41
1
10
-2.19999999999999
20
2.9738203E-09
30
0
41
1
10
-2.19999999999999
20
0.0845163058477283
30
0
41
1
10
-2.19999999999999
20
0.169028167934243
30
0
41
1
10
-2.19999999999999
20
0.253530604877369
30
0
41
1
10
-2.19999999999999
20
0.338019061527234
30
0
41
1
10
-2.19999999999999
20
0.422489242090819
30
0
41
1
10
-2.19999999999999
20
0.506936438011167
30
0
41
1
10
-2.19999999999999
20
0.591356022200102
30
0
41
1
10
-2.19999999999999
20
0.675743919086358
30
0
41
1
10
-2.19999999999999
20
0.760095827222472
30
0
41
1
10
-2.19999999999999
20
0.872498995392107
30
0
41
1
10
-2.19999999999999
20
1.01291861714776
30
0
41
1
10
-2.19999999999999
20
1.18119882266058
30
0
41
1
10
-2.19999999999999
20
1.32124507985111
30
0
41
1
10
-2.19999999999999
20
1.43312830574621
30
0
41
1
10
-2.19999999999999
20
1.54491819828843
30
0
41
1
10
-2.19999999999999
20
1.65659534610086
30
0
41
1
10
-2.19999999999999
20
1.76808196044794
30
0
41
1
10
-2.19999999999999
20
1.87945967457654
30
0
41
1
10
-2.19999999999999
20
1.99070061185216
30
0
41
1
10
-2.19999999999999
20
2.10173190377407
30
0
41
1
10
-2.19999999999999
20
2.21264124345487
30
0
41
1
10
-2.19999999999999
20
2.32339362702305
30
0
41
1
10
-2.19999999999999
20
2.43392090537259
30
0
41
1
10
-2.19999999999999
20
2.51672422226807
30
0
41
1
10
-2.19999999999999
20
2.59942633274227
30
0
41
1
10
-2.19999999999999
20
2.68202546661416
30
0
41
1
10
-2.19999999999999
20
2.7645200185649
30
0
41
1
10
-2.19999999999999
20
2.87436211322461
30
0
41
1
10
-2.19999999999999
20
3.01141672767267
30
0
41
1
10
-2.19999999999999
20
3.17543128081252
30
0
41
1
10
-2.19999999999999
20
3.33899661229884
30
0
41
1
10
-2.19999999999999
20
3.50210371592675
30
0
41
1
10
-2.19999999999999
20
3.66474577486338
30
0
41
1
10
-2.19999999999999
20
3.79989568903147
30
0
41
1
10
-2.19999999999999
20
3.90776230457834
30
0
41
1
10
-2.19999999999999
20
4.01546868863102
30
0
41
1
10
-2.19999999999999
20
4.14981698400788
30
0
41
1
10
-2.19999999999999
20
4.36409681125883
30
0
41
1
10
-2.19999999999999
20
4.5774371918485
30
0
41
1
10
-2.19999999999999
20
4.78973719162457
30
0
41
1
10
-2.19999999999999
20
5.00136826964865
30
0
41
1
10
-2.19999999999999
20
5.26467640756857
30
0
41
1
10
-2.19999999999999
20
5.52629102616368
30
0
41
1
10
-2.19999999999999
20
5.73453666635555
30
0
41
1
10
-2.19999999999999
20
5.94209838936433
30
0
41
1
10
-2.19999999999999
20
6.20029192554159
30
0
41
1
10
-2.19999999999999
20
6.50804761437212
30
0
41
1
10
-2.19999999999999
20
6.81373435160458
30
0
41
1
10
-2.19999999999999
20
7.11734871686417
30
0
41
1
10
-2.19999999999999
20
7.41888792583904
30
0
41
1
10
-2.19999999999999
20
7.71835052760537
30
0
41
1
10
-2.19999999999999
20
8.01573570434198
30
0
41
1
10
-2.19999999999999
20
8.31104332875668
30
0
41
1
10
-2.19999999999999
20
8.60427351086139
30
0
41
1
10
-2.19999999999999
20
8.89542705327119
30
0
41
1
10
-2.19999999999999
20
9.18450458163329
30
0
41
1
10
-2.19999999999999
20
9.47150741663734
30
0
41
1
10
-2.19999999999999
20
9.75643631256764
30
0
41
1
10
-2.19999999999999
20
10.0392927830109
30
0
41
1
10
-2.19999999999999
20
10.3200777862056
30
0
41
1
10
-2.19999999999999
20
10.6916821947193
30
0
41
1
10
-2.19999999999999
20
11.1510479282637
30
0
41
1
10
-2.19999999999999
20
11.6035237684601
30
0
41
1
10
-2.19999999999999
20
11.9613483314474
30
0
41
1
10
-2.19999999999999
20
12.2276612824087
30
0
41
1
10
-2.19999999999999
20
12.491909102254
30
0
41
1
10
-2.19999999999999
20
12.7540926975445
30
0
41
1
10
-2.19999999999999
20
13.0142109423232
30
0
41
1
10
-2.19999999999999
20
13.3582704108556
30
0
41
1
10
-2.19999999999999
20
13.6982347575132
30
0
41
1
10
-2.19999999999999
20
14.0340319983603
30
0
41
1
10
-2.19999999999999
20
14.2838204496866
30
0
41
1
10
-2.19999999999999
20
14.531540364006
30
0
41
1
10
-2.19999999999999
20
14.7771909058554
30
0
41
1
10
-2.19999999999999
20
15.0207692194115
30
0
41
1
10
-2.19999999999999
20
15.2622749109486
30
0
41
1
10
-2.19999999999999
20
15.5017057162253
30
0
41
1
10
-2.19999999999999
20
15.7390582874332
30
0
41
1
10
-2.19999999999999
20
15.9351247349383
30
0
41
1
10
-2.19999999999999
20
16.090928053724
30
0
41
1
10
-2.19999999999999
20
16.2460368243143
30
0
41
1
10
-2.19999999999999
20
16.4386305854399
30
0
41
1
10
-2.19999999999999
20
16.7439793214723
30
0
41
1
10
-2.19999999999999
20
17.0451744942956
30
0
41
1
10
-2.19999999999999
20
17.342145790273
30
0
41
1
10
-2.19999999999999
20
17.6363146514327
30
0
41
1
10
-2.19999999999999
20
17.9987810562909
30
0
41
1
10
-2.19999999999999
20
18.3541989021743
30
0
41
1
10
-2.19999999999999
20
18.6342692782274
30
0
41
1
10
-2.19999999999999
20
18.9115004820267
30
0
41
1
10
-2.19999999999999
20
19.2527208742123
30
0
41
1
10
-2.19999999999999
20
19.5867870400026
30
0
41
1
10
-2.19999999999999
20
19.8497084000872
30
0
41
1
10
-2.19999999999999
20
20.1097427976018
30
0
41
1
10
-2.19999999999999
20
20.4293723348014
30
0
41
1
10
-2.19999999999999
20
20.8041728408687
30
0
41
1
10
-2.19999999999999
20
21.1091737057828
30
0
41
1
10
-2.19999999999999
20
21.348724524242
30
0
41
1
10
-2.19999999999999
20
21.585305748713
30
0
41
1
10
-2.19999999999999
20
21.8754567939978
30
0
41
1
10
-2.19999999999999
20
22.2146097450715
30
0
41
1
10
-2.19999999999999
20
22.5446620300357
30
0
41
1
10
-2.19999999999999
20
22.865528155817
30
0
41
1
10
-2.19999999999999
20
23.1771173063638
30
0
41
1
10
-2.19999999999999
20
23.4289695970825
30
0
41
1
10
-2.19999999999999
20
23.6257028228421
30
0
41
1
10
-2.19999999999999
20
23.8192595747194
30
0
41
1
10
-2.19999999999999
20
24.0552273098675
30
0
41
1
10
-2.19999999999999
20
24.3286812886663
30
0
41
1
10
-2.19999999999999
20
24.5483785892839
30
0
41
1
10
-2.19999999999999
20
24.7191499291268
30
0
41
1
10
-2.19999999999999
20
24.8865804660961
30
0
41
1
10
-2.19999999999999
20
25.0895715317904
30
0
41
1
10
-2.19999999999999
20
25.2840284493551
30
0
41
1
10
-2.19999999999999
20
25.4343867299332
30
0
41
1
10
-2.19999999999999
20
25.5261818034759
30
0
41
1
10
-2.19999999999999
20
25.5982933540587
30
0
41
1
10
-2.19999999999999
20
25.6695210442988
30
0
41
1
10
-2.19999999999999
20
25.7568951729796
30
0
41
1
10
-2.19999999999999
20
25.8590554134204
30
0
41
1
10
-2.19999999999999
20
25.9585067097828
30
0
41
1
10
-2.19999999999999
20
26.0552228914818
30
0
41
1
10
-2.19999999999999
20
26.1491804877762
30
0
41
1
10
-2.19999999999999
20
26.2403534869032
30
0
41
1
10
-2.19999999999999
20
26.3287134555966
30
0
41
1
10
-2.19999999999999
20
26.4142343457969
30
0
41
1
10
-2.19999999999999
20
26.4968867532829
30
0
41
1
10
-2.19999999999999
20
26.5766398127168
30
0
41
1
10
-2.19999999999999
20
26.6790690105836
30
0
41
1
10
-2.19999999999999
20
26.7755840284526
30
0
41
1
10
-2.19999999999999
20
26.8660318549495
30
0
41
1
10
-2.19999999999999
20
26.9308035073645
30
0
41
1
10
-2.19999999999999
20
26.9924724007358
30
0
41
1
10
-2.19999999999999
20
27.0509995322118
30
0
41
1
10
-2.19999999999999
20
27.1063432629948
30
0
41
1
10
-2.19999999999999
20
27.1584629254513
30
0
41
1
10
-2.19999999999999
20
27.2073129452677
30
0
41
1
10
-2.19999999999999
20
27.2680242938405
30
0
41
1
10
-2.19999999999999
20
27.3355116167511
30
0
41
1
10
-2.19999999999999
20
27.3914487450129
30
0
41
1
10
-2.19999999999999
20
27.4290396962773
30
0
41
1
10
-2.19999999999999
20
27.4535951162672
30
0
41
1
10
-2.19999999999999
20
27.4744481367885
30
0
41
1
10
-2.19999999999999
20
27.4915322439684
30
0
41
1
10
-2.19999999999999
20
27.5011742473546
30
0
41
1
10
-2.19999999999999
20
27.5054871472849
30
0
41
1
10
-2.19999999999999
20
27.5061353124761
30
0
0
SPLINE
5
1ED
100
AcDbEntity
8
SK1
62
256
6
ByLayer
370
18
48
1
60
0
100
AcDbSpline
70
4
71
3
72
299
73
295
40
0
40
0
40
0
40
0
40
0.0016670525126179
40
0.005176440329479
40
0.0086858281463402
40
0.0121952159632014
40
0.0157046037800626
40
0.0192139915969238
40
0.0227233794137849
40
0.0297421550475073
40
0.0367609306812296
40
0.0402703184980908
40
0.043779706314952
40
0.0472890941318131
40
0.0507984819486743
40
0.0543078697655355
40
0.0578172575823966
40
0.0613266453992578
40
0.064836033216119
40
0.0718548088498414
40
0.0753641966667025
40
0.0788735844835637
40
0.0823829723004249
40
0.0858923601172861
40
0.0894017479341472
40
0.0929111357510085
40
0.0964205235678696
40
0.0999299113847307
40
0.103439299201592
40
0.106948687018453
40
0.110458074835314
40
0.112212768743745
40
0.113967462652176
40
0.117476850469037
40
0.120986238285898
40
0.12800501391962
40
0.135023789553343
40
0.138533177370204
40
0.142042565187065
40
0.149061340820787
40
0.15608011645451
40
0.163098892088232
40
0.166608279905093
40
0.170117667721954
40
0.177136443355677
40
0.184155218989399
40
0.191173994623121
40
0.198192770256844
40
0.205211545890566
40
0.212230321524288
40
0.21573970934115
40
0.219249097158011
40
0.226267872791733
40
0.233286648425455
40
0.240305424059178
40
0.243814811876039
40
0.2473241996929
40
0.254342975326622
40
0.261361750960345
40
0.264871138777206
40
0.268380526594067
40
0.27539930222779
40
0.282418077861512
40
0.285927465678373
40
0.289436853495234
40
0.296455629128957
40
0.299965016945818
40
0.303474404762679
40
0.305229098671109
40
0.30698379257954
40
0.310493180396401
40
0.314002568213263
40
0.317511956030124
40
0.321021343846985
40
0.324530731663846
40
0.328040119480707
40
0.331549507297568
40
0.335058895114429
40
0.338568282931291
40
0.345587058565013
40
0.349096446381874
40
0.352605834198735
40
0.356115222015596
40
0.359624609832458
40
0.363133997649319
40
0.36664338546618
40
0.373662161099903
40
0.380680936733625
40
0.384190324550486
40
0.387699712367347
40
0.391209100184208
40
0.39471848800107
40
0.398227875817931
40
0.401737263634792
40
0.405246651451653
40
0.408756039268514
40
0.412265427085375
40
0.415774814902237
40
0.419284202719098
40
0.422793590535959
40
0.42630297835282
40
0.429812366169681
40
0.433321753986542
40
0.436831141803403
40
0.438585835711834
40
0.440340529620265
40
0.443849917437126
40
0.447359305253987
40
0.449113999162418
40
0.450868693070848
40
0.45437808088771
40
0.45613277479614
40
0.457887468704571
40
0.458764815658786
40
0.459642162613001
40
0.461396856521432
40
0.463151550429862
40
0.464906244338293
40
0.466660938246724
40
0.468415632155154
40
0.470170326063585
40
0.4710476730178
40
0.471925019972015
40
0.472802366926231
40
0.473679713880446
40
0.474557060834661
40
0.475434407788877
40
0.477189101697307
40
0.478066448651522
40
0.478943795605738
40
0.480698489514168
40
0.481575836468383
40
0.482453183422599
40
0.484207877331029
40
0.485085224285245
40
0.48596257123946
40
0.487717265147891
40
0.489471959056321
40
0.491226652964752
40
0.492103999918967
40
0.492981346873183
40
0.493858693827398
40
0.494736040781613
40
0.495613387735828
40
0.496490734690044
40
0.497368081644259
40
0.498245428598474
40
0.49912277555269
40
0.500000122506905
40
0.50087746946112
40
0.501754816415335
40
0.502632163369551
40
0.503509510323766
40
0.504386857277981
40
0.505264204232197
40
0.506141551186412
40
0.507018898140627
40
0.507896245094842
40
0.508773592049058
40
0.510528285957488
40
0.512282979865919
40
0.514037673774349
40
0.514915020728565
40
0.51579236768278
40
0.517547061591211
40
0.518424408545426
40
0.519301755499641
40
0.521056449408072
40
0.521933796362287
40
0.522811143316502
40
0.524565837224933
40
0.525443184179148
40
0.526320531133364
40
0.527197878087579
40
0.528075225041794
40
0.528952571996009
40
0.529829918950225
40
0.531584612858655
40
0.533339306767086
40
0.535094000675516
40
0.536848694583947
40
0.538603388492378
40
0.540358082400808
40
0.541235429355024
40
0.542112776309239
40
0.54386747021767
40
0.5456221641261
40
0.549131551942961
40
0.550886245851392
40
0.552640939759822
40
0.556150327576683
40
0.559659715393545
40
0.561414409301975
40
0.563169103210406
40
0.566678491027267
40
0.570187878844128
40
0.573697266660989
40
0.577206654477851
40
0.580716042294712
40
0.584225430111573
40
0.587734817928434
40
0.591244205745295
40
0.594753593562157
40
0.598262981379018
40
0.601772369195879
40
0.60528175701274
40
0.608791144829601
40
0.612300532646462
40
0.615809920463324
40
0.619319308280185
40
0.622828696097046
40
0.626338083913907
40
0.63335685954763
40
0.636866247364491
40
0.640375635181352
40
0.643885022998213
40
0.647394410815074
40
0.650903798631935
40
0.654413186448796
40
0.661431962082519
40
0.66494134989938
40
0.668450737716241
40
0.671960125533102
40
0.675469513349964
40
0.678978901166825
40
0.682488288983686
40
0.685997676800547
40
0.689507064617408
40
0.693016452434269
40
0.696525840251131
40
0.700035228067992
40
0.703544615884853
40
0.710563391518575
40
0.714072779335436
40
0.717582167152298
40
0.72460094278602
40
0.731619718419742
40
0.735129106236603
40
0.738638494053465
40
0.745657269687187
40
0.752676045320909
40
0.756185433137771
40
0.759694820954632
40
0.766713596588354
40
0.773732372222076
40
0.780751147855799
40
0.78426053567266
40
0.787769923489521
40
0.794788699123243
40
0.801807474756966
40
0.808826250390688
40
0.815845026024411
40
0.822863801658133
40
0.829882577291855
40
0.833391965108716
40
0.836901352925578
40
0.8439201285593
40
0.850938904193022
40
0.857957679826745
40
0.861467067643606
40
0.864976455460467
40
0.871995231094189
40
0.879014006727912
40
0.882523394544773
40
0.886032782361634
40
0.893051557995357
40
0.896560945812217
40
0.900070333629079
40
0.90357972144594
40
0.907089109262801
40
0.910598497079662
40
0.914107884896523
40
0.917617272713384
40
0.921126660530246
40
0.924636048347107
40
0.928145436163968
40
0.935164211797691
40
0.938673599614552
40
0.942182987431413
40
0.945692375248274
40
0.949201763065135
40
0.952711150881996
40
0.956220538698858
40
0.959729926515719
40
0.96323931433258
40
0.970258089966302
40
0.977276865600025
40
0.980786253416886
40
0.984295641233747
40
0.987805029050608
40
0.991314416867469
40
0.99482380468433
40
0.998333192501192
40
1
40
1
40
1
40
1
41
1
10
-48
20
25.5377456854206
30
0
41
1
10
-48
20
25.5369458636997
30
0
41
1
10
-48
20
25.5340236285146
30
0
41
1
10
-48
20
25.5268535273441
30
0
41
1
10
-48
20
25.5145008149315
30
0
41
1
10
-48
20
25.498546052428
30
0
41
1
10
-48
20
25.4790475285131
30
0
41
1
10
-48
20
25.4560605539616
30
0
41
1
10
-48
20
25.4206809385045
30
0
41
1
10
-48
20
25.3683435244346
30
0
41
1
10
-48
20
25.3050935983468
30
0
41
1
10
-48
20
25.2477155824513
30
0
41
1
10
-48
20
25.2016868330385
30
0
41
1
10
-48
20
25.152540227847
30
0
41
1
10
-48
20
25.1003164469937
30
0
41
1
10
-48
20
25.0450517289096
30
0
41
1
10
-48
20
24.9867824066374
30
0
41
1
10
-48
20
24.9255447176865
30
0
41
1
10
-48
20
24.839671739525
30
0
41
1
10
-48
20
24.7489365887334
30
0
41
1
10
-48
20
24.6515544180899
30
0
41
1
10
-48
20
24.5759533043403
30
0
41
1
10
-48
20
24.497568762949
30
0
41
1
10
-48
20
24.4164276140701
30
0
41
1
10
-48
20
24.3325592473394
30
0
41
1
10
-48
20
24.2459871695687
30
0
41
1
10
-48
20
24.1567364141524
30
0
41
1
10
-48
20
24.0648340874221
30
0
41
1
10
-48
20
23.9703007183102
30
0
41
1
10
-48
20
23.8731600668768
30
0
41
1
10
-48
20
23.7902703050809
30
0
41
1
10
-48
20
23.7222924438482
30
0
41
1
10
-48
20
23.653458955013
30
0
41
1
10
-48
20
23.5663193127548
30
0
41
1
10
-48
20
23.4227344317564
30
0
41
1
10
-48
20
23.2380159335195
30
0
41
1
10
-48
20
23.0451147378601
30
0
41
1
10
-48
20
22.8850691532134
30
0
41
1
10
-48
20
22.7217969969803
30
0
41
1
10
-48
20
22.5128489113235
30
0
41
1
10
-48
20
22.2520665958364
30
0
41
1
10
-48
20
22.0275248400849
30
0
41
1
10
-48
20
21.8423074664778
30
0
41
1
10
-48
20
21.6540306628311
30
0
41
1
10
-48
20
21.4142718291048
30
0
41
1
10
-48
20
21.1168973606635
30
0
41
1
10
-48
20
20.8106419723679
30
0
41
1
10
-48
20
20.4956027387563
30
0
41
1
10
-48
20
20.1718725887446
30
0
41
1
10
-48
20
19.8955820016259
30
0
41
1
10
-48
20
19.6691006662323
30
0
41
1
10
-48
20
19.4397871520623
30
0
41
1
10
-48
20
19.149410368202
30
0
41
1
10
-48
20
18.7917723606454
30
0
41
1
10
-48
20
18.4875640285875
30
0
41
1
10
-48
20
18.2387699032321
30
0
41
1
10
-48
20
17.9872478599777
30
0
41
1
10
-48
20
17.6694739204115
30
0
41
1
10
-48
20
17.3449849911693
30
0
41
1
10
-48
20
17.0799573159189
30
0
41
1
10
-48
20
16.8122724002143
30
0
41
1
10
-48
20
16.4745711156787
30
0
41
1
10
-48
20
16.1303137979014
30
0
41
1
10
-48
20
15.8494407221551
30
0
41
1
10
-48
20
15.5659773316763
30
0
41
1
10
-48
20
15.2813516937416
30
0
41
1
10
-48
20
14.9901200233614
30
0
41
1
10
-48
20
14.8075644243928
30
0
41
1
10
-48
20
14.6597110063681
30
0
41
1
10
-48
20
14.5112241351637
30
0
41
1
10
-48
20
14.325523032543
30
0
41
1
10
-48
20
14.100206062781
30
0
41
1
10
-48
20
13.8730097919851
30
0
41
1
10
-48
20
13.6439374060174
30
0
41
1
10
-48
20
13.4130051173936
30
0
41
1
10
-48
20
13.180217534584
30
0
41
1
10
-48
20
12.9455817705228
30
0
41
1
10
-48
20
12.7091124446063
30
0
41
1
10
-48
20
12.3902773743985
30
0
41
1
10
-48
20
12.0712141126493
30
0
41
1
10
-48
20
11.7450471308309
30
0
41
1
10
-48
20
11.4995374295111
30
0
41
1
10
-48
20
11.2522509655356
30
0
41
1
10
-48
20
11.0031990533662
30
0
41
1
10
-48
20
10.7523971889997
30
0
41
1
10
-48
20
10.4143930662712
30
0
41
1
10
-48
20
9.99059437973426
30
0
41
1
10
-48
20
9.56108850247722
30
0
41
1
10
-48
20
9.21157829691117
30
0
41
1
10
-48
20
8.94892889623657
30
0
41
1
10
-48
20
8.68465969448141
30
0
41
1
10
-48
20
8.41879489376458
30
0
41
1
10
-48
20
8.15135843047153
30
0
41
1
10
-48
20
7.88237762223332
30
0
41
1
10
-48
20
7.61188258574543
30
0
41
1
10
-48
20
7.33990573648225
30
0
41
1
10
-48
20
7.06648317582801
30
0
41
1
10
-48
20
6.79165403169532
30
0
41
1
10
-48
20
6.51546273390829
30
0
41
1
10
-48
20
6.23795844891299
30
0
41
1
10
-48
20
5.95919386675257
30
0
41
1
10
-48
20
5.67923124039953
30
0
41
1
10
-48
20
5.3981360899819
30
0
41
1
10
-48
20
5.16409942590656
30
0
41
1
10
-48
20
4.97430334712465
30
0
41
1
10
-48
20
4.78423355976418
30
0
41
1
10
-48
20
4.54886462907325
30
0
41
1
10
-48
20
4.31277534686876
30
0
41
1
10
-48
20
4.12122851639981
30
0
41
1
10
-48
20
3.92953181194162
30
0
41
1
10
-48
20
3.74171250564348
30
0
41
1
10
-48
20
3.54939053469457
30
0
41
1
10
-48
20
3.43078723702683
30
0
41
1
10
-48
20
3.33452834177103
30
0
41
1
10
-48
20
3.23827071234689
30
0
41
1
10
-48
20
3.11968323888186
30
0
41
1
10
-48
20
2.97639725762417
30
0
41
1
10
-48
20
2.83312966280698
30
0
41
1
10
-48
20
2.68989995735706
30
0
41
1
10
-48
20
2.54673093615281
30
0
41
1
10
-48
20
2.42835340498937
30
0
41
1
10
-48
20
2.33210483961739
30
0
41
1
10
-48
20
2.2606353669438
30
0
41
1
10
-48
20
2.18920496049077
30
0
41
1
10
-48
20
2.11781396766753
30
0
41
1
10
-48
20
2.04645318736368
30
0
41
1
10
-48
20
1.95042373572574
30
0
41
1
10
-48
20
1.85738517673588
30
0
41
1
10
-48
20
1.76148268994552
30
0
41
1
10
-48
20
1.66566845968214
30
0
41
1
10
-48
20
1.57300568038056
30
0
41
1
10
-48
20
1.47735113591227
30
0
41
1
10
-48
20
1.38179732051378
30
0
41
1
10
-48
20
1.2895436916582
30
0
41
1
10
-48
20
1.19416572492491
30
0
41
1
10
-48
20
1.0989000573677
30
0
41
1
10
-48
20
0.98245221211539
30
0
41
1
10
-48
20
0.841586183466234
30
0
41
1
10
-48
20
0.725505983440371
30
0
41
1
10
-48
20
0.630667457966069
30
0
41
1
10
-48
20
0.560480352627565
30
0
41
1
10
-48
20
0.490320947144596
30
0
41
1
10
-48
20
0.420191796768449
30
0
41
1
10
-48
20
0.350113667187884
30
0
41
1
10
-48
20
0.280062256420138
30
0
41
1
10
-48
20
0.210017157782545
30
0
41
1
10
-48
20
0.139999797921973
30
0
41
1
10
-48
20
0.0700069276307431
30
0
41
1
10
-48
20
4.76035211E-08
30
0
41
1
10
-48
20
-0.0700068522659194
30
0
41
1
10
-48
20
-0.139999771278326
30
0
41
1
10
-48
20
-0.210017192178839
30
0
41
1
10
-48
20
-0.280062327764426
30
0
41
1
10
-48
20
-0.350113717602767
30
0
41
1
10
-48
20
-0.420191773132956
30
0
41
1
10
-48
20
-0.490320831948679
30
0
41
1
10
-48
20
-0.560480204117312
30
0
41
1
10
-48
20
-0.630667364061651
30
0
41
1
10
-48
20
-0.725506055183928
30
0
41
1
10
-48
20
-0.84158630107288
30
0
41
1
10
-48
20
-0.982452087600677
30
0
41
1
10
-48
20
-1.09889985434643
30
0
41
1
10
-48
20
-1.19416572065757
30
0
41
1
10
-48
20
-1.28954388060515
30
0
41
1
10
-48
20
-1.38179747741992
30
0
41
1
10
-48
20
-1.47735105462402
30
0
41
1
10
-48
20
-1.57300541448592
30
0
41
1
10
-48
20
-1.66566826608278
30
0
41
1
10
-48
20
-1.76148275667015
30
0
41
1
10
-48
20
-1.85738542747038
30
0
41
1
10
-48
20
-1.95042391104266
30
0
41
1
10
-48
20
-2.04645309751425
30
0
41
1
10
-48
20
-2.11781369872006
30
0
41
1
10
-48
20
-2.18920465457325
30
0
41
1
10
-48
20
-2.26063516689567
30
0
41
1
10
-48
20
-2.33210483720984
30
0
41
1
10
-48
20
-2.42835363712959
30
0
41
1
10
-48
20
-2.54673116818742
30
0
41
1
10
-48
20
-2.68989982354515
30
0
41
1
10
-48
20
-2.83312933609363
30
0
41
1
10
-48
20
-2.97639722386975
30
0
41
1
10
-48
20
-3.11968351915573
30
0
41
1
10
-48
20
-3.23827092858153
30
0
41
1
10
-48
20
-3.3345283326579
30
0
41
1
10
-48
20
-3.43078700052172
30
0
41
1
10
-48
20
-3.5493902106756
30
0
41
1
10
-48
20
-3.74171256557349
30
0
41
1
10
-48
20
-3.92953209444397
30
0
41
1
10
-48
20
-4.12122845571991
30
0
41
1
10
-48
20
-4.31277503954936
30
0
41
1
10
-48
20
-4.54886466434414
30
0
41
1
10
-48
20
-4.78423382727124
30
0
41
1
10
-48
20
-4.97430327353652
30
0
41
1
10
-48
20
-5.16409912297945
30
0
41
1
10
-48
20
-5.39813607390261
30
0
41
1
10
-48
20
-5.67923146024089
30
0
41
1
10
-48
20
-5.95919374753976
30
0
41
1
10
-48
20
-6.23795855201797
30
0
41
1
10
-48
20
-6.5154631732587
30
0
41
1
10
-48
20
-6.79165340259817
30
0
41
1
10
-48
20
-7.06648207689204
30
0
41
1
10
-48
20
-7.3399064304831
30
0
41
1
10
-48
20
-7.61188395990189
30
0
41
1
10
-48
20
-7.88237631719016
30
0
41
1
10
-48
20
-8.15135709229651
30
0
41
1
10
-48
20
-8.41879605362203
30
0
41
1
10
-48
20
-8.68466042952298
30
0
41
1
10
-48
20
-8.94892880419638
30
0
41
1
10
-48
20
-9.21157805391897
30
0
41
1
10
-48
20
-9.47258829745533
30
0
41
1
10
-48
20
-9.73193781693988
30
0
41
1
10
-48
20
-10.0769274508059
30
0
41
1
10
-48
20
-10.414392862813
30
0
41
1
10
-48
20
-10.7523970809122
30
0
41
1
10
-48
20
-11.0031992619305
30
0
41
1
10
-48
20
-11.2522511703231
30
0
41
1
10
-48
20
-11.4995374559564
30
0
41
1
10
-48
20
-11.7450470242588
30
0
41
1
10
-48
20
-12.0712140924269
30
0
41
1
10
-48
20
-12.3902774266109
30
0
41
1
10
-48
20
-12.7091123929265
30
0
41
1
10
-48
20
-12.9455818593715
30
0
41
1
10
-48
20
-13.180217502072
30
0
41
1
10
-48
20
-13.4130051102497
30
0
41
1
10
-48
20
-13.6439372705323
30
0
41
1
10
-48
20
-13.8730093523109
30
0
41
1
10
-48
20
-14.1002065298018
30
0
41
1
10
-48
20
-14.3255243550819
30
0
41
1
10
-48
20
-14.5489565829083
30
0
41
1
10
-48
20
-14.7704892347369
30
0
41
1
10
-48
20
-14.9901189866895
30
0
41
1
10
-48
20
-15.281352479629
30
0
41
1
10
-48
20
-15.5659774253293
30
0
41
1
10
-48
20
-15.8494406493609
30
0
41
1
10
-48
20
-16.1303138068004
30
0
41
1
10
-48
20
-16.474571105177
30
0
41
1
10
-48
20
-16.8122723965627
30
0
41
1
10
-48
20
-17.0799573317746
30
0
41
1
10
-48
20
-17.3449849938593
30
0
41
1
10
-48
20
-17.6694739164694
30
0
41
1
10
-48
20
-17.9872478593115
30
0
41
1
10
-48
20
-18.2387699128343
30
0
41
1
10
-48
20
-18.487564033377
30
0
41
1
10
-48
20
-18.791772354773
30
0
41
1
10
-48
20
-19.1494103733365
30
0
41
1
10
-48
20
-19.4397871566124
30
0
41
1
10
-48
20
-19.6691006657479
30
0
41
1
10
-48
20
-19.895582003726
30
0
41
1
10
-48
20
-20.1718725940103
30
0
41
1
10
-48
20
-20.4956027399135
30
0
41
1
10
-48
20
-20.8106419777063
30
0
41
1
10
-48
20
-21.1168973616586
30
0
41
1
10
-48
20
-21.4142718340936
30
0
41
1
10
-48
20
-21.6540306704864
30
0
41
1
10
-48
20
-21.8423074648877
30
0
41
1
10
-48
20
-22.0275248431941
30
0
41
1
10
-48
20
-22.2520666060929
30
0
41
1
10
-48
20
-22.512848914255
30
0
41
1
10
-48
20
-22.7217969951793
30
0
41
1
10
-48
20
-22.8850691676056
30
0
41
1
10
-48
20
-23.0451147420464
30
0
41
1
10
-48
20
-23.2380159650749
30
0
41
1
10
-48
20
-23.4227343577602
30
0
41
1
10
-48
20
-23.56631942935
30
0
41
1
10
-48
20
-23.7065276517659
30
0
41
1
10
-48
20
-23.8403627529258
30
0
41
1
10
-48
20
-23.970300944616
30
0
41
1
10
-48
20
-24.0648335402233
30
0
41
1
10
-48
20
-24.1567363770153
30
0
41
1
10
-48
20
-24.2459872479919
30
0
41
1
10
-48
20
-24.332559240169
30
0
41
1
10
-48
20
-24.4164275727652
30
0
41
1
10
-48
20
-24.4975687788098
30
0
41
1
10
-48
20
-24.5759532931461
30
0
41
1
10
-48
20
-24.6515543847243
30
0
41
1
10
-48
20
-24.7489365992492
30
0
41
1
10
-48
20
-24.8396716901456
30
0
41
1
10
-48
20
-24.9255447336428
30
0
41
1
10
-48
20
-24.9867823634066
30
0
41
1
10
-48
20
-25.0450517307761
30
0
41
1
10
-48
20
-25.1003164440549
30
0
41
1
10
-48
20
-25.1525401455548
30
0
41
1
10
-48
20
-25.2016867590413
30
0
41
1
10
-48
20
-25.2477155324425
30
0
41
1
10
-48
20
-25.3050936187466
30
0
41
1
10
-48
20
-25.3683434953549
30
0
41
1
10
-48
20
-25.4206808727754
30
0
41
1
10
-48
20
-25.4560606117695
30
0
41
1
10
-48
20
-25.479047573671
30
0
41
1
10
-48
20
-25.4985460495789
30
0
41
1
10
-48
20
-25.5145008161446
30
0
41
1
10
-48
20
-25.5268535709615
30
0
41
1
10
-48
20
-25.534023447771
30
0
41
1
10
-48
20
-25.536945578193
30
0
41
1
10
-48
20
-25.5377453157092
30
0
0
SPLINE
5
1EE
100
AcDbEntity
8
SK1
62
256
6
ByLayer
370
18
48
1
60
0
100
AcDbSpline
70
4
71
3
72
108
73
104
40
0
40
0
40
0
40
0
40
0.0065736698214512
40
0.0145319832358317
40
0.0224902966502123
40
0.0304486100645928
40
0.0384069234789734
40
0.046365236893354
40
0.0543235503077345
40
0.0622818637221151
40
0.0781984905508762
40
0.0941151173796373
40
0.102073430794018
40
0.110031744208398
40
0.117990057622779
40
0.12594837103716
40
0.13390668445154
40
0.141864997865921
40
0.149823311280301
40
0.157781624694682
40
0.173698251523443
40
0.181656564937824
40
0.189614878352204
40
0.197573191766585
40
0.205531505180965
40
0.213489818595346
40
0.221448132009726
40
0.229406445424107
40
0.237364758838487
40
0.245323072252868
40
0.253281385667249
40
0.26919801249601
40
0.27715632591039
40
0.285114639324771
40
0.301031266153532
40
0.316947892982293
40
0.324906206396674
40
0.332864519811054
40
0.348781146639815
40
0.364697773468576
40
0.380614400297338
40
0.388572713711718
40
0.396531027126099
40
0.41244765395486
40
0.428364280783621
40
0.444280907612382
40
0.460197534441143
40
0.476114161269904
40
0.492030788098665
40
0.499989101513046
40
0.507947414927427
40
0.523864041756188
40
0.539780668584949
40
0.55569729541371
40
0.563655608828091
40
0.571613922242471
40
0.587530549071232
40
0.603447175899993
40
0.611405489314374
40
0.619363802728754
40
0.635280429557516
40
0.651197056386277
40
0.659155369800657
40
0.667113683215038
40
0.683030310043799
40
0.69098862345818
40
0.69894693687256
40
0.706905250286941
40
0.714863563701321
40
0.722821877115702
40
0.730780190530082
40
0.738738503944463
40
0.746696817358844
40
0.754655130773224
40
0.762613444187604
40
0.770571757601985
40
0.778530071016366
40
0.794446697845127
40
0.802405011259507
40
0.810363324673888
40
0.818321638088268
40
0.826279951502649
40
0.83423826491703
40
0.84219657833141
40
0.858113205160171
40
0.866071518574552
40
0.874029831988932
40
0.881988145403313
40
0.889946458817693
40
0.897904772232074
40
0.905863085646455
40
0.913821399060835
40
0.921779712475216
40
0.929738025889596
40
0.937696339303977
40
0.945654652718357
40
0.953612966132738
40
0.961571279547119
40
0.969529592961499
40
0.97748790637588
40
0.98544621979026
40
0.993404533204641
40
1
40
1
40
1
40
1
41
1
10
-0.394976888875306
20
-27.3653839596462
30
0
41
1
10
-0.394976888875249
20
-27.3654093351202
30
0
41
1
10
-0.394976888875249
20
-27.3644289378229
30
0
41
1
10
-0.394976888875249
20
-27.3594269422325
30
0
41
1
10
-0.394976888875249
20
-27.3501458297252
30
0
41
1
10
-0.394976888875249
20
-27.3369711498757
30
0
41
1
10
-0.394976888875249
20
-27.3199753422425
30
0
41
1
10
-0.394976888875249
20
-27.299228260346
30
0
41
1
10
-0.394976888875249
20
-27.2747954442535
30
0
41
1
10
-0.394976888875249
20
-27.2373772549269
30
0
41
1
10
-0.394976888875249
20
-27.1817216133088
30
0
41
1
10
-0.394976888875249
20
-27.1145655815875
30
0
41
1
10
-0.394976888875249
20
-27.0541147524053
30
0
41
1
10
-0.394976888875249
20
-27.0054853002076
30
0
41
1
10
-0.394976888875249
20
-26.9535980812345
30
0
41
1
10
-0.394976888875249
20
-26.8984983240354
30
0
41
1
10
-0.394976888875249
20
-26.8402262140422
30
0
41
1
10
-0.394976888875249
20
-26.778823083505
30
0
41
1
10
-0.394976888875249
20
-26.7143277513072
30
0
41
1
10
-0.394976888875249
20
-26.6242375172271
30
0
41
1
10
-0.394976888875249
20
-26.5281744271217
30
0
41
1
10
-0.394976888875249
20
-26.4261397450501
30
0
41
1
10
-0.394976888875249
20
-26.3467113173234
30
0
41
1
10
-0.394976888875249
20
-26.2643925510641
30
0
41
1
10
-0.394976888875249
20
-26.1792140413985
30
0
41
1
10
-0.394976888875249
20
-26.0912052550724
30
0
41
1
10
-0.394976888875249
20
-26.0003919383211
30
0
41
1
10
-0.394976888875249
20
-25.9068022246068
30
0
41
1
10
-0.394976888875249
20
-25.810462366076
30
0
41
1
10
-0.394976888875249
20
-25.7113960827791
30
0
41
1
10
-0.394976888875249
20
-25.5756766141877
30
0
41
1
10
-0.394976888875249
20
-25.4346883615025
30
0
41
1
10
-0.394976888875249
20
-25.2883441368502
30
0
41
1
10
-0.394976888875249
20
-25.1385155622326
30
0
41
1
10
-0.394976888875249
20
-24.9448199449114
30
0
41
1
10
-0.394976888875249
20
-24.7426176867451
30
0
41
1
10
-0.394976888875249
20
-24.5757644956798
30
0
41
1
10
-0.394976888875249
20
-24.4055794195024
30
0
41
1
10
-0.394976888875249
20
-24.1867224862228
30
0
41
1
10
-0.394976888875249
20
-23.9142591539288
30
0
41
1
10
-0.394976888875249
20
-23.6791846798371
30
0
41
1
10
-0.394976888875249
20
-23.4862798879298
30
0
41
1
10
-0.394976888875249
20
-23.2902077752037
30
0
41
1
10
-0.394976888875249
20
-23.0393009260323
30
0
41
1
10
-0.394976888875249
20
-22.7288230573926
30
0
41
1
10
-0.394976888875249
20
-22.4090991764391
30
0
41
1
10
-0.394976888875249
20
-22.0802205845281
30
0
41
1
10
-0.394976888875249
20
-21.7422733658897
30
0
41
1
10
-0.394976888875249
20
-21.4532059051397
30
0
41
1
10
-0.394976888875249
20
-21.2174142750283
30
0
41
1
10
-0.394976888875249
20
-20.9786637930718
30
0
41
1
10
-0.394976888875249
20
-20.6748062131766
30
0
41
1
10
-0.394976888875249
20
-20.3013474407322
30
0
41
1
10
-0.394976888875249
20
-19.98292351444
30
0
41
1
10
-0.394976888875249
20
-19.7237678591314
30
0
41
1
10
-0.394976888875249
20
-19.4617376771831
30
0
41
1
10
-0.394976888875249
20
-19.1289452123206
30
0
41
1
10
-0.394976888875249
20
-18.7890328610688
30
0
41
1
10
-0.394976888875249
20
-18.5127557087221
30
0
41
1
10
-0.394976888875249
20
-18.2336536000934
30
0
41
1
10
-0.394976888875249
20
-17.8796208126314
30
0
41
1
10
-0.394976888875249
20
-17.5185779670879
30
0
41
1
10
-0.394976888875249
20
-17.2254485394535
30
0
41
1
10
-0.394976888875249
20
-16.9295333224765
30
0
41
1
10
-0.394976888875249
20
-16.6296334992458
30
0
41
1
10
-0.394976888875249
20
-16.3253880002474
30
0
41
1
10
-0.394976888875249
20
-16.0951789631496
30
0
41
1
10
-0.394976888875249
20
-15.8628987186173
30
0
41
1
10
-0.394976888875249
20
-15.6285506275557
30
0
41
1
10
-0.394976888875249
20
-15.3921386948649
30
0
41
1
10
-0.394976888875249
20
-15.1536643460738
30
0
41
1
10
-0.394976888875249
20
-14.9131307685778
30
0
41
1
10
-0.394976888875249
20
-14.6705410811659
30
0
41
1
10
-0.394976888875249
20
-14.4258961711576
30
0
41
1
10
-0.394976888875249
20
-14.1791991512308
30
0
41
1
10
-0.394976888875249
20
-13.9304519465027
30
0
41
1
10
-0.394976888875249
20
-13.5959808223857
30
0
41
1
10
-0.394976888875249
20
-13.2576504430446
30
0
41
1
10
-0.394976888875249
20
-12.9149898191478
30
0
41
1
10
-0.394976888875249
20
-12.656013661642
30
0
41
1
10
-0.394976888875249
20
-12.394994711819
30
0
41
1
10
-0.394976888875249
20
-12.1319348433318
30
0
41
1
10
-0.394976888875249
20
-11.8668344908947
30
0
41
1
10
-0.394976888875249
20
-11.510559499462
30
0
41
1
10
-0.394976888875249
20
-11.1504804686582
30
0
41
1
10
-0.394976888875249
20
-10.7860413322607
30
0
41
1
10
-0.394976888875249
20
-10.5107477406375
30
0
41
1
10
-0.394976888875249
20
-10.2334171002114
30
0
41
1
10
-0.394976888875249
20
-9.95404994902185
30
0
41
1
10
-0.394976888875249
20
-9.67264665656012
30
0
41
1
10
-0.394976888875249
20
-9.38920804768816
30
0
41
1
10
-0.394976888875249
20
-9.10373459403797
30
0
41
1
10
-0.394976888875249
20
-8.81622852741521
30
0
41
1
10
-0.394976888875249
20
-8.52669016160962
30
0
41
1
10
-0.394976888875249
20
-8.23512129465951
30
0
41
1
10
-0.394976888875249
20
-7.94152452378478
30
0
41
1
10
-0.394976888875249
20
-7.6459029106087
30
0
41
1
10
-0.394976888875249
20
-7.34825967305403
30
0
41
1
10
-0.394976888875249
20
-7.04859940546737
30
0
41
1
10
-0.394976888875249
20
-6.74692776639381
30
0
41
1
10
-0.394976888875249
20
-6.44325211457954
30
0
41
1
10
-0.394976888875249
20
-6.15502922001531
30
0
41
1
10
-0.394976888875249
20
-5.9676408167627
30
0
41
1
10
-0.394976888875249
20
-5.88246902087042
30
0
0
SPLINE
5
1EF
100
AcDbEntity
8
SK1
62
256
6
ByLayer
370
18
48
1
60
0
100
AcDbSpline
70
4
71
3
72
10
73
6
40
0
40
0
40
0
40
0
40
0.5
40
0.5
40
1
40
1
40
1
40
1
41
1
10
-1.30710678118658
20
4.3932393797021
30
0
41
1
10
-1.55689427820664
20
2.98196218343321
30
0
41
1
10
-1.74566864435434
20
1.49340994193858
30
0
41
1
10
-1.74565958557639
20
-1.49352420170635
30
0
41
1
10
-1.55700927680107
20
-2.98131104552101
30
0
41
1
10
-1.30710678118658
20
-4.3932391538923
30
0
0
SPLINE
5
1F0
100
AcDbEntity
8
SK1
62
256
6
ByLayer
370
18
48
1
60
0
100
AcDbSpline
70
4
71
3
72
22
73
18
40
0
40
0
40
0
40
0
40
0.351178839520645
40
0.351178839520645
40
0.705337869169047
40
0.705337869169047
40
0.812145382793218
40
0.812145382793218
40
0.852465533746092
40
0.852465533746092
40
0.893471625808601
40
0.893471625808601
40
0.930614638571559
40
0.930614638571559
40
0.970742440112558
40
0.970742440112558
40
1
40
1
40
1
40
1
41
1
10
-1.30710678118658
20
4.3932393797021
30
0
41
1
10
-1.26636350256149
20
4.62343528906808
30
0
41
1
10
-1.2178149710619
20
4.85138819750034
30
0
41
1
10
-1.09024836612519
20
5.29777381436577
30
0
41
1
10
-1.01544432095773
20
5.52235561861335
30
0
41
1
10
-0.850589253306566
20
5.77920802132758
30
0
41
1
10
-0.806248488510846
20
5.837425886505
30
0
41
1
10
-0.729216148055571
20
5.90188259982585
30
0
41
1
10
-0.705961072671698
20
5.91804026534476
30
0
41
1
10
-0.655328261638829
20
5.94346452812465
30
0
41
1
10
-0.627111790028721
20
5.95278241265123
30
0
41
1
10
-0.57247718565452
20
5.9591887160658
30
0
41
1
10
-0.545441337239367
20
5.95730944596096
30
0
41
1
10
-0.492971508296478
20
5.94432172621578
30
0
41
1
10
-0.467008693786113
20
5.93251770241091
30
0
41
1
10
-0.426325229837971
20
5.90753636851105
30
0
41
1
10
-0.410149891228343
20
5.89544238150927
30
0
41
1
10
-0.394976888875249
20
5.88246916452647
30
0
0
SPLINE
5
1F1
100
AcDbEntity
8
1
62
256
6
ByLayer
370
18
48
1
60
0
100
AcDbSpline
70
4
71
3
72
8
73
4
40
0
40
0
40
0
40
0
40
1
40
1
40
1
40
1
41
1
10
92.846603988376
20
49.0018597528641
30
0
41
1
10
92.8497320186916
20
49.0070607262003
30
0
41
1
10
92.8528600746758
20
49.0122617386592
30
0
41
1
10
92.8559881573879
20
49.0174627918543
30
0
0
SPLINE
5
1F2
100
AcDbEntity
8
1
62
256
6
ByLayer
370
18
48
1
60
0
100
AcDbSpline
70
4
71
3
72
22
73
18
40
0
40
0
40
0
40
0
40
0.170710140374127
40
0.170710140374127
40
0.379749854708222
40
0.379749854708222
40
0.483814789989021
40
0.483814789989021
40
0.588021581485185
40
0.588021581485185
40
0.692554919197006
40
0.692554919197006
40
0.819703167369287
40
0.819703167369287
40
0.902628734015307
40
0.902628734015307
40
1
40
1
40
1
40
1
41
1
10
93.1554703912742
20
48.6870443866396
30
0
41
1
10
93.1288570987105
20
48.6969269671746
30
0
41
1
10
93.1026564581495
20
48.7081589692048
30
0
41
1
10
93.0459229331204
20
48.7360472932834
30
0
41
1
10
93.015547798522
20
48.7534301111737
30
0
41
1
10
92.9725495474933
20
48.7826928187866
30
0
41
1
10
92.9586223055309
20
48.7929963521696
30
0
41
1
10
92.9319153431358
20
48.8147862967606
30
0
41
1
10
92.9190884678779
20
48.8263113725131
30
0
41
1
10
92.8951343441879
20
48.8506535532171
30
0
41
1
10
92.8839335044925
20
48.8635517617735
30
0
41
1
10
92.8622652329531
20
48.8934132114319
30
0
41
1
10
92.8522263889729
20
48.9110247991682
30
0
41
1
10
92.841876002341
20
48.9405885949616
30
0
41
1
10
92.8393748267771
20
48.9526015883417
30
0
41
1
10
92.8386293607889
20
48.977519225049
30
0
41
1
10
92.8412570834099
20
48.9905938544761
30
0
41
1
10
92.8466039883759
20
49.0018597528642
30
0
0
SPLINE
5
1F3
100
AcDbEntity
8
1
62
256
6
ByLayer
370
18
48
1
60
0
100
AcDbSpline
70
4
71
3
72
24
73
20
40
0
40
0
40
0
40
0
40
0.0666890986140208
40
0.0666890986140208
40
0.275523170540168
40
0.275523170540168
40
0.379553082846726
40
0.379553082846726
40
0.483651032309273
40
0.483651032309273
40
0.587890882990502
40
0.587890882990502
40
0.692457383482859
40
0.692457383482859
40
0.819645968924701
40
0.819645968924701
40
0.902597843373023
40
0.902597843373023
40
1
40
1
40
1
40
1
41
1
10
92.0779983545233
20
49.9700969344536
30
0
41
1
10
92.0799666532599
20
49.9592253967448
30
0
41
1
10
92.0821535325274
20
49.9483798868902
30
0
41
1
10
92.0920763297128
20
49.9037860176538
30
0
41
1
10
92.1017289197341
20
49.8702751499414
30
0
41
1
10
92.119588331363
20
49.8213399566517
30
0
41
1
10
92.1261136226923
20
49.8052307485665
30
0
41
1
10
92.1404103930946
20
49.7736032329502
30
0
41
1
10
92.1481976843967
20
49.7580491233679
30
0
41
1
10
92.1651777111505
20
49.727816648052
30
0
41
1
10
92.1744005766286
20
49.7130849161448
30
0
41
1
10
92.19446973239
20
49.6850042228097
30
0
41
1
10
92.2053839895266
20
49.6715677977353
30
0
41
1
10
92.2314616896506
20
49.6445733954538
30
0
41
1
10
92.2473617982586
20
49.6312969062187
30
0
41
1
10
92.2753029903409
20
49.6152631310742
30
0
41
1
10
92.2869847006656
20
49.6103871591228
30
0
41
1
10
92.3120759629859
20
49.6045384474213
30
0
41
1
10
92.3258269360965
20
49.6043675220739
30
0
41
1
10
92.3382755061748
20
49.6071767652493
30
0
0
SPLINE
5
1F4
100
AcDbEntity
8
1
62
256
6
ByLayer
370
18
48
1
60
0
100
AcDbSpline
70
4
71
3
72
8
73
4
40
0
40
0
40
0
40
0
40
1
40
1
40
1
40
1
41
1
10
92.3382755061747
20
49.6071767652493
30
0
41
1
10
92.344150811201
20
49.6091062868012
30
0
41
1
10
92.3500261567336
20
49.6110358298073
30
0
41
1
10
92.355901544443
20
49.6129653951529
30
0
0
SPLINE
5
1F5
100
AcDbEntity
8
1
62
256
6
ByLayer
370
18
48
1
60
0
100
AcDbSpline
70
4
71
3
72
30
73
26
40
0
40
0
40
0
40
0
40
0.0609220869308372
40
0.0609220869308372
40
0.100886513068853
40
0.100886513068853
40
0.152155130177914
40
0.152155130177914
40
0.2186662145369
40
0.2186662145369
40
0.302442044685488
40
0.302442044685488
40
0.40019949751081
40
0.40019949751081
40
0.499363938040205
40
0.499363938040205
40
0.530938733089091
40
0.530938733089091
40
0.728165219347546
40
0.728165219347546
40
0.864924758932191
40
0.864924758932191
40
0.948822771247101
40
0.948822771247101
40
1
40
1
40
1
40
1
41
1
10
92.355901544443
20
49.6129653951529
30
0
41
1
10
92.3699506281291
20
49.6175793247107
30
0
41
1
10
92.3855911703793
20
49.6187354269505
30
0
41
1
10
92.4116496833576
20
49.6165815397462
30
0
41
1
10
92.4221960170963
20
49.6146655219279
30
0
41
1
10
92.4461794006507
20
49.6084900628205
30
0
41
1
10
92.4596918492227
20
49.6037018012195
30
0
41
1
10
92.4903249638278
20
49.5905858459682
30
0
41
1
10
92.5074582310616
20
49.5815779144313
30
0
41
1
10
92.5453170185833
20
49.5588052031688
30
0
41
1
10
92.5659864365854
20
49.5443152163428
30
0
41
1
10
92.6093386570054
20
49.5103731161822
30
0
41
1
10
92.6319607541056
20
49.4903533459763
30
0
41
1
10
92.6754921926637
20
49.4477635653133
30
0
41
1
10
92.6965199734439
20
49.4250109667042
30
0
41
1
10
92.7226371074349
20
49.393910711509
30
0
41
1
10
92.7288407624965
20
49.3862895829285
30
0
41
1
10
92.7723755887037
20
49.3310905204499
30
0
41
1
10
92.8056288329859
20
49.279782150465
30
0
41
1
10
92.8476190785334
20
49.1917074630164
30
0
41
1
10
92.8612025597299
20
49.1543598208282
30
0
41
1
10
92.8712503313046
20
49.0957316667752
30
0
41
1
10
92.8723071527252
20
49.0733056354118
30
0
41
1
10
92.8664273298547
20
49.0401259787606
30
0
41
1
10
92.8623337409233
20
49.0280135734545
30
0
41
1
10
92.8559881573879
20
49.0174627918543
30
0
0
SPLINE
5
1F6
100
AcDbEntity
8
1
62
256
6
ByLayer
370
18
48
1
60
0
100
AcDbSpline
70
4
71
3
72
8
73
4
40
0
40
0
40
0
40
0
40
1
40
1
40
1
40
1
41
1
10
94.3573870189073
20
48.857399860117
30
0
41
1
10
94.3537454102996
20
48.8628633925474
30
0
41
1
10
94.3501037907993
20
48.8683269655185
30
0
41
1
10
94.3464621599579
20
48.8737905807023
30
0
0
SPLINE
5
1F7
100
AcDbEntity
8
1
62
256
6
ByLayer
370
18
48
1
60
0
100
AcDbSpline
70
4
71
3
72
22
73
18
40
0
40
0
40
0
40
0
40
0.170710140374257
40
0.170710140374257
40
0.37974985470832
40
0.37974985470832
40
0.483814789989103
40
0.483814789989103
40
0.588021581485251
40
0.588021581485251
40
0.692554919197055
40
0.692554919197055
40
0.819703167369316
40
0.819703167369316
40
0.902628734015322
40
0.902628734015322
40
1
40
1
40
1
40
1
41
1
10
94.7962754770415
20
48.9606918593197
30
0
41
1
10
94.774695862312
20
48.9427718419213
30
0
41
1
10
94.7520715317053
20
48.9259101747163
30
0
41
1
10
94.6997978721759
20
48.8912530944986
30
0
41
1
10
94.6695550935793
20
48.8739717892961
30
0
41
1
10
94.6224139960149
20
48.8519359707963
30
0
41
1
10
94.6063769936786
20
48.8452287748391
30
0
41
1
10
94.5737201735742
20
48.8334284471203
30
0
41
1
10
94.5570426810492
20
48.8283145546147
30
0
41
1
10
94.5232358024133
20
48.8202401888531
30
0
41
1
10
94.5059968478361
20
48.8172581779183
30
0
41
1
10
94.4679804623378
20
48.8140644745344
30
0
41
1
10
94.4467779459045
20
48.8145656747434
30
0
41
1
10
94.4140141415354
20
48.8210740940634
30
0
41
1
10
94.40144152767
20
48.825204723289
30
0
41
1
10
94.377271311564
20
48.8376487698646
30
0
41
1
10
94.3658844045447
20
48.8468125453727
30
0
41
1
10
94.3573870189073
20
48.857399860117
30
0
0
SPLINE
5
1F8
100
AcDbEntity
8
1
62
256
6
ByLayer
370
18
48
1
60
0
100
AcDbSpline
70
4
71
3
72
24
73
20
40
0
40
0
40
0
40
0
40
0.0380198325517647
40
0.0380198325517647
40
0.246834654674855
40
0.246834654674855
40
0.404726505663296
40
0.404726505663296
40
0.526150637962851
40
0.526150637962851
40
0.62153199550368
40
0.62153199550368
40
0.776890538332127
40
0.776890538332127
40
0.873684213898012
40
0.873684213898012
40
0.971746172255025
40
0.971746172255025
40
1
40
1
40
1
40
1
41
1
10
93.1554703912742
20
48.6870443866396
30
0
41
1
10
93.161404244382
20
48.6848409095208
30
0
41
1
10
93.1673613888057
20
48.6827038666934
30
0
41
1
10
93.2061162224896
20
48.6692871706695
30
0
41
1
10
93.2396139669638
20
48.6599180204041
30
0
41
1
10
93.298916184204
20
48.647576091235
30
0
41
1
10
93.3247152564811
20
48.6435811104529
30
0
41
1
10
93.3702679424223
20
48.6394480339171
30
0
41
1
10
93.3901160623495
20
48.6386271993038
30
0
41
1
10
93.4251536145065
20
48.639386277926
30
0
41
1
10
93.440487324531
20
48.6404919915011
30
0
41
1
10
93.4797159045257
20
48.6459285083744
30
0
41
1
10
93.5035868201187
20
48.6519030702642
30
0
41
1
10
93.5374304438717
20
48.6677396269632
30
0
41
1
10
93.5494578104936
20
48.6754754437329
30
0
41
1
10
93.5688295382545
20
48.6941405262163
30
0
41
1
10
93.5763036847768
20
48.7054249383119
30
0
41
1
10
93.5816544995765
20
48.721012480005
30
0
41
1
10
93.5826043294326
20
48.7246326262509
30
0
41
1
10
93.5832899376028
20
48.7282987793455
30
0
0
SPLINE
5
1F9
100
AcDbEntity
8
1
62
256
6
ByLayer
370
18
48
1
60
0
100
AcDbSpline
70
4
71
3
72
8
73
4
40
0
40
0
40
0
40
0
40
1
40
1
40
1
40
1
41
1
10
93.5849160317462
20
48.7467827019956
30
0
41
1
10
93.5843739883408
20
48.7406213489184
30
0
41
1
10
93.5838319571207
20
48.7344600419775
30
0
41
1
10
93.5832899376028
20
48.7282987793455
30
0
0
SPLINE
5
1FA
100
AcDbEntity
8
1
62
256
6
ByLayer
370
18
48
1
60
0
100
AcDbSpline
70
4
71
3
72
34
73
30
40
0
40
0
40
0
40
0
40
0.0191964292964526
40
0.0191964292964526
40
0.101124764419642
40
0.101124764419642
40
0.152453585606743
40
0.152453585606743
40
0.219042773077256
40
0.219042773077256
40
0.302916980105778
40
0.302916980105778
40
0.400789228251865
40
0.400789228251865
40
0.500070116309148
40
0.500070116309148
40
0.595484102374482
40
0.595484102374482
40
0.66256872146407
40
0.66256872146407
40
0.729684391124906
40
0.729684391124906
40
0.796868364781136
40
0.796868364781136
40
0.864213855264592
40
0.864213855264592
40
0.948553424479061
40
0.948553424479061
40
1
40
1
40
1
40
1
41
1
10
94.3464621599579
20
48.8737905807023
30
0
41
1
10
94.3436767952015
20
48.877969521907
30
0
41
1
10
94.3405494282845
20
48.8819836943786
30
0
41
1
10
94.3229065986968
20
48.9018282642786
30
0
41
1
10
94.30362865758
20
48.9147895298768
30
0
41
1
10
94.2696867618968
20
48.9313488067882
30
0
41
1
10
94.2556917713364
20
48.936775158125
30
0
41
1
10
94.2226067196858
20
48.9473203078669
30
0
41
1
10
94.2030977975932
20
48.9519190875677
30
0
41
1
10
94.1582922187309
20
48.9598429635919
30
0
41
1
10
94.1326129239071
20
48.9625641086112
30
0
41
1
10
94.0766933291985
20
48.9654856060502
30
0
41
1
10
94.0461745585218
20
48.9651991666335
30
0
41
1
10
93.985132161896
20
48.9614418357919
30
0
41
1
10
93.9544043442112
20
48.9579081620395
30
0
41
1
10
93.8952793826353
20
48.9480475171354
30
0
41
1
10
93.8666625467438
20
48.941804424534
30
0
41
1
10
93.8193895141897
20
48.9288322341388
30
0
41
1
10
93.8002203982227
20
48.9227737565309
30
0
41
1
10
93.7630132752686
20
48.9092314891378
30
0
41
1
10
93.7449104578238
20
48.9017247713898
30
0
41
1
10
93.7102238736163
20
48.8851555759603
30
0
41
1
10
93.6935633125032
20
48.8760573857572
30
0
41
1
10
93.6623663428545
20
48.8560782773615
30
0
41
1
10
93.6477274487039
20
48.8451310751882
30
0
41
1
10
93.6185434422242
20
48.8182318296445
30
0
41
1
10
93.6045574016931
20
48.8013918149064
30
0
41
1
10
93.5898311306892
20
48.7714971984628
30
0
41
1
10
93.5860156131913
20
48.7592815341055
30
0
41
1
10
93.5849160317462
20
48.7467827019956
30
0
0
SPLINE
5
1FB
100
AcDbEntity
8
1
62
256
6
ByLayer
370
18
48
1
60
0
100
AcDbSpline
70
4
71
3
72
22
73
18
40
0
40
0
40
0
40
0
40
0.142057608739061
40
0.142057608739061
40
0.351004812992666
40
0.351004812992666
40
0.487763342941806
40
0.487763342941806
40
0.591529353509346
40
0.591529353509346
40
0.758694969227042
40
0.758694969227042
40
0.858776631808846
40
0.858776631808846
40
0.960359919517349
40
0.960359919517349
40
1
40
1
40
1
40
1
41
1
10
92.0779983545233
20
49.9700969344536
30
0
41
1
10
92.0738102629637
20
49.9932290914123
30
0
41
1
10
92.070602025593
20
50.0165166726168
30
0
41
1
10
92.0652368385756
20
50.0740471025712
30
0
41
1
10
92.064249316188
20
50.1084714803018
30
0
41
1
10
92.0670545017474
20
50.1646670244377
30
0
41
1
10
92.0693258192879
20
50.1868005101978
30
0
41
1
10
92.0758381313299
20
50.2248993655412
30
0
41
1
10
92.079484620896
20
50.2411266255293
30
0
41
1
10
92.0916091019725
20
50.2819539235223
30
0
41
1
10
92.1018211507085
20
50.3062937068477
30
0
41
1
10
92.1240686331878
20
50.3391350801027
30
0
41
1
10
92.1339530456358
20
50.3502502026124
30
0
41
1
10
92.1564376264653
20
50.3673005791908
30
0
41
1
10
92.1694550782773
20
50.3733028358555
30
0
41
1
10
92.1881277067644
20
50.3765508895871
30
0
41
1
10
92.1935363744584
20
50.3769316197613
30
0
41
1
10
92.1989376273854
20
50.3767840282555
30
0
0
SPLINE
5
1FC
100
AcDbEntity
8
1
62
256
6
ByLayer
370
18
48
1
60
0
100
AcDbSpline
70
4
71
3
72
30
73
26
40
0
40
0
40
0
40
0
40
0.0749933354030009
40
0.0749933354030009
40
0.161112672078755
40
0.161112672078755
40
0.298665651961111
40
0.298665651961111
40
0.501028979217165
40
0.501028979217165
40
0.564632852264843
40
0.564632852264843
40
0.627572785467378
40
0.627572785467378
40
0.712044291317313
40
0.712044291317313
40
0.796661076956717
40
0.796661076956717
40
0.851814849557792
40
0.851814849557792
40
0.907122853923665
40
0.907122853923665
40
0.948480511069011
40
0.948480511069011
40
1
40
1
40
1
40
1
41
1
10
92.4794905547678
20
51.0969783693701
30
0
41
1
10
92.4940024296149
20
51.083016799092
30
0
41
1
10
92.5051696611185
20
51.0644136007506
30
0
41
1
10
92.5225407833052
20
51.0216643581862
30
0
41
1
10
92.5282314848401
20
50.9963595268386
30
0
41
1
10
92.5365518535573
20
50.9298649134075
30
0
41
1
10
92.5356047449644
20
50.8869799367511
30
0
41
1
10
92.524002318304
20
50.7831908931059
30
0
41
1
10
92.508755682374
20
50.7211474993865
30
0
41
1
10
92.4811919954483
20
50.6449787177442
30
0
41
1
10
92.4739187313006
20
50.6269154864261
30
0
41
1
10
92.4582986470143
20
50.591900280816
30
0
41
1
10
92.4499436927589
20
50.5748929291524
30
0
41
1
10
92.4290838294427
20
50.5364056586156
30
0
41
1
10
92.4160820725722
20
50.5152698514563
30
0
41
1
10
92.3880100674614
20
50.4757220176995
30
0
41
1
10
92.3728473677536
20
50.4571754946946
30
0
41
1
10
92.3459302763966
20
50.4297789746689
30
0
41
1
10
92.3347675864218
20
50.4197487385775
30
0
41
1
10
92.3113871209918
20
50.4019446197182
30
0
41
1
10
92.2990877909472
20
50.3941137423491
30
0
41
1
10
92.2767001526995
20
50.3833054469781
30
0
41
1
10
92.2667670591812
20
50.3795763915357
30
0
41
1
10
92.2440565222546
20
50.374044161391
30
0
41
1
10
92.2309420030412
20
50.3729017383214
30
0
41
1
10
92.2180310395009
20
50.3744678873649
30
0
0
SPLINE
5
1FD
100
AcDbEntity
8
1
62
256
6
ByLayer
370
18
48
1
60
0
100
AcDbSpline
70
4
71
3
72
8
73
4
40
0
40
0
40
0
40
0
40
1
40
1
40
1
40
1
41
1
10
92.2180310395009
20
50.3744678873649
30
0
41
1
10
92.2116665244616
20
50.3752399272757
30
0
41
1
10
92.2053020543494
20
50.3760119743338
30
0
41
1
10
92.1989376273852
20
50.3767840282555
30
0
0
SPLINE
5
1FE
100
AcDbEntity
8
1
62
256
6
ByLayer
370
18
48
1
60
0
100
AcDbSpline
70
4
71
3
72
24
73
20
40
0
40
0
40
0
40
0
40
0.0380198325518091
40
0.0380198325518091
40
0.246834654674889
40
0.246834654674889
40
0.404726505663322
40
0.404726505663322
40
0.526150637962872
40
0.526150637962872
40
0.621531995503696
40
0.621531995503696
40
0.776890538332136
40
0.776890538332136
40
0.873684213898017
40
0.873684213898017
40
0.971746172255025
40
0.971746172255025
40
1
40
1
40
1
40
1
41
1
10
92.6413314035398
20
51.5267969549477
30
0
41
1
10
92.6365198882557
20
51.5228014045784
30
0
41
1
10
92.6317538034897
20
51.5187453336841
30
0
41
1
10
92.6011638796745
20
51.4920677576674
30
0
41
1
10
92.5766319727635
20
51.4676812321057
30
0
41
1
10
92.5368328168552
20
51.421936431048
30
0
41
1
10
92.5206938975189
20
51.4012024142287
30
0
41
1
10
92.4946889575896
20
51.3627731562989
30
0
41
1
10
92.4841939983519
20
51.345418257116
30
0
41
1
10
92.4675452075656
20
51.3133679157885
30
0
41
1
10
92.4609168960748
20
51.2988461726916
30
0
41
1
10
92.4461715742145
20
51.2599856341434
30
0
41
1
10
92.4394614418868
20
51.2345960820131
30
0
41
1
10
92.4361731144531
20
51.1936101208622
30
0
41
1
10
92.4367855846779
20
51.177614839248
30
0
41
1
10
92.443007153842
20
51.1475841188313
30
0
41
1
10
92.4488517419107
20
51.1331870732569
30
0
41
1
10
92.4593663069982
20
51.1176851287039
30
0
41
1
10
92.4619520400055
20
51.1143431463317
30
0
41
1
10
92.4647062264886
20
51.1112021214122
30
0
0
SPLINE
5
1FF
100
AcDbEntity
8
1
62
256
6
ByLayer
370
18
48
1
60
0
100
AcDbSpline
70
4
71
3
72
8
73
4
40
0
40
0
40
0
40
0
40
1
40
1
40
1
40
1
41
1
10
92.4794905547678
20
51.0969783693701
30
0
41
1
10
92.4745624089779
20
51.1017196350241
30
0
41
1
10
92.469634300038
20
51.1064608855047
30
0
41
1
10
92.4647062264886
20
51.1112021214123
30
0
0
SPLINE
5
200
100
AcDbEntity
8
1
62
256
6
ByLayer
370
18
48
1
60
0
100
AcDbSpline
70
4
71
3
72
24
73
20
40
0
40
0
40
0
40
0
40
0.0380198325516149
40
0.0380198325516149
40
0.24683465467474
40
0.24683465467474
40
0.404726505663205
40
0.404726505663205
40
0.526150637962778
40
0.526150637962778
40
0.621531995503622
40
0.621531995503622
40
0.776890538332093
40
0.776890538332093
40
0.873684213897993
40
0.873684213897993
40
0.971746172255021
40
0.971746172255021
40
1
40
1
40
1
40
1
41
1
10
94.7962754770415
20
48.9606918593197
30
0
41
1
10
94.8010869923254
20
48.964687409689
30
0
41
1
10
94.8058484379687
20
48.9687376475643
30
0
41
1
10
94.8363780652041
20
48.9953394094427
30
0
41
1
10
94.8607220122403
20
49.0194896029273
30
0
41
1
10
94.8998988454323
20
49.0644519241052
30
0
41
1
10
94.9156731944383
20
49.0847275470067
30
0
41
1
10
94.9407992482865
20
49.1220517341154
30
0
41
1
10
94.950832369919
20
49.1388259399953
30
0
41
1
10
94.966460409047
20
49.1695928352686
30
0
41
1
10
94.9725700236896
20
49.1834623928727
30
0
41
1
10
94.9857172737368
20
49.2203135896323
30
0
41
1
10
94.9911814685382
20
49.244136557384
30
0
41
1
10
94.9918209517556
20
49.2817919839919
30
0
41
1
10
94.9900132131902
20
49.2962843903251
30
0
41
1
10
94.9810761713919
20
49.3229008006992
30
0
41
1
10
94.9736623256958
20
49.335324734113
30
0
41
1
10
94.9610460288992
20
49.3481840581545
30
0
41
1
10
94.9579760968505
20
49.350917230985
30
0
41
1
10
94.9547350893447
20
49.3534461496046
30
0
0
SPLINE
5
201
100
AcDbEntity
8
1
62
256
6
ByLayer
370
18
48
1
60
0
100
AcDbSpline
70
4
71
3
72
8
73
4
40
0
40
0
40
0
40
0
40
1
40
1
40
1
40
1
41
1
10
95.2205036884479
20
50.0878642427613
30
0
41
1
10
95.2133288375655
20
50.087617307028
30
0
41
1
10
95.2061539567084
20
50.0873703809944
30
0
41
1
10
95.1989790446411
20
50.0871234650609
30
0
0
SPLINE
5
202
100
AcDbEntity
8
1
62
256
6
ByLayer
370
18
48
1
60
0
100
AcDbSpline
70
4
71
3
72
22
73
18
40
0
40
0
40
0
40
0
40
0.170710140374132
40
0.170710140374132
40
0.379749854708225
40
0.379749854708225
40
0.483814789989024
40
0.483814789989024
40
0.588021581485187
40
0.588021581485187
40
0.692554919197007
40
0.692554919197007
40
0.819703167369288
40
0.819703167369288
40
0.902628734015307
40
0.902628734015307
40
1
40
1
40
1
40
1
41
1
10
95.3596085260577
20
50.5173918798138
30
0
41
1
10
95.364642203892
20
50.4895892818803
30
0
41
1
10
95.3681725302047
20
50.461437794935
30
0
41
1
10
95.3724175822265
20
50.3986222940798
30
0
41
1
10
95.3723566310156
20
50.3637151154136
30
0
41
1
10
95.3677625473813
20
50.311849224586
30
0
41
1
10
95.365474923145
20
50.294614857429
30
0
41
1
10
95.3590974339461
20
50.2604869010081
30
0
41
1
10
95.3549963885424
20
50.2435330559618
30
0
41
1
10
95.344543571969
20
50.2103620196827
30
0
41
1
10
95.3381538450361
20
50.1940396994164
30
0
41
1
10
95.3208751494785
20
50.1598144759936
30
0
41
1
10
95.3090882291267
20
50.1419204453047
30
0
41
1
10
95.2854127678058
20
50.1172782334394
30
0
41
1
10
95.2747714311095
20
50.1086793053289
30
0
41
1
10
95.2500020313139
20
50.0945150147129
30
0
41
1
10
95.2351706627394
20
50.0895772309291
30
0
41
1
10
95.2205036884479
20
50.0878642427613
30
0
0
SPLINE
5
203
100
AcDbEntity
8
1
62
256
6
ByLayer
370
18
48
1
60
0
100
AcDbSpline
70
4
71
3
72
8
73
4
40
0
40
0
40
0
40
0
40
1
40
1
40
1
40
1
41
1
10
94.9375195293742
20
49.3646129830556
30
0
41
1
10
94.943258072192
20
49.3608906732461
30
0
41
1
10
94.9489965918769
20
49.3571683958572
30
0
41
1
10
94.9547350893447
20
49.3534461496046
30
0
0
SPLINE
5
204
100
AcDbEntity
8
1
62
256
6
ByLayer
370
18
48
1
60
0
100
AcDbSpline
70
4
71
3
72
34
73
30
40
0
40
0
40
0
40
0
40
0.0191964292964288
40
0.0191964292964288
40
0.101124764419619
40
0.101124764419619
40
0.152453585606722
40
0.152453585606722
40
0.219042773077237
40
0.219042773077237
40
0.302916980105761
40
0.302916980105761
40
0.40078922825185
40
0.40078922825185
40
0.500070116309136
40
0.500070116309136
40
0.595484102374471
40
0.595484102374471
40
0.662568721464061
40
0.662568721464061
40
0.729684391124899
40
0.729684391124899
40
0.79686836478113
40
0.79686836478113
40
0.864213855264589
40
0.864213855264589
40
0.94855342447906
40
0.94855342447906
40
1
40
1
40
1
40
1
41
1
10
95.1989790446411
20
50.0871234650609
30
0
41
1
10
95.1934911882182
20
50.0869346071099
30
0
41
1
10
95.187980297307
20
50.0863660217737
30
0
41
1
10
95.1595809069702
20
50.0816849976003
30
0
41
1
10
95.1369251982691
20
50.0719822017283
30
0
41
1
10
95.1030875957547
20
50.0515994967439
30
0
41
1
10
95.0904902550109
20
50.0424567399501
30
0
41
1
10
95.0629358265738
20
50.0196364790301
30
0
41
1
10
95.0482673810159
20
50.0053247741151
30
0
41
1
10
95.0171919832131
20
49.9710554714789
30
0
41
1
10
95.0011851301814
20
49.9504487502741
30
0
41
1
10
94.96937063613
20
49.9039706203175
30
0
41
1
10
94.9539123856224
20
49.8775999489772
30
0
41
1
10
94.9262866183494
20
49.8231428297086
30
0
41
1
10
94.9140784328949
20
49.7948472581766
30
0
41
1
10
94.8937792241917
20
49.738752948319
30
0
41
1
10
94.8854869813974
20
49.7108107361994
30
0
41
1
10
94.8745403164047
20
49.6632226756295
30
0
41
1
10
94.8709270750104
20
49.6434967408089
30
0
41
1
10
94.8657356849905
20
49.6042539941761
30
0
41
1
10
94.8641478950817
20
49.5846691681642
30
0
41
1
10
94.8633065223477
20
49.5459773885876
30
0
41
1
10
94.8640502438619
20
49.5267852685748
30
0
41
1
10
94.8683636696047
20
49.4892853158341
30
0
41
1
10
94.8719483941491
20
49.4708539142931
30
0
41
1
10
94.8840748901989
20
49.4314231869122
30
0
41
1
10
94.8937618234121
20
49.410436454038
30
0
41
1
10
94.9158112085067
20
49.3819147285694
30
0
41
1
10
94.9258784040667
20
49.3721640071225
30
0
41
1
10
94.9375195293742
20
49.3646129830556
30
0
0
SPLINE
5
205
100
AcDbEntity
8
1
62
256
6
ByLayer
370
18
48
1
60
0
100
AcDbSpline
70
4
71
3
72
22
73
18
40
0
40
0
40
0
40
0
40
0.170710140374089
40
0.170710140374089
40
0.379749854708193
40
0.379749854708193
40
0.483814789988997
40
0.483814789988997
40
0.588021581485165
40
0.588021581485165
40
0.692554919196991
40
0.692554919196991
40
0.819703167369279
40
0.819703167369279
40
0.902628734015302
40
0.902628734015302
40
1
40
1
40
1
40
1
41
1
10
92.6413314035398
20
51.5267969549477
30
0
41
1
10
92.6629110182691
20
51.5447169723461
30
0
41
1
10
92.6854433815924
20
51.5614630041309
30
0
41
1
10
92.7372874141663
20
51.5955798912307
30
0
41
1
10
92.767143578337
20
51.612375085286
30
0
41
1
10
92.8133822017048
20
51.6332761743564
30
0
41
1
10
92.829063476316
20
51.6395360946797
30
0
41
1
10
92.8608650334412
20
51.6502610541762
30
0
41
1
10
92.8770416696933
20
51.6547451931057
30
0
41
1
10
92.909648425074
20
51.6613105792405
30
0
41
1
10
92.9261841555494
20
51.6634083886248
30
0
41
1
10
92.9623393778501
20
51.6642619512478
30
0
41
1
10
92.9822953984855
20
51.6621934647158
30
0
41
1
10
93.0125351156872
20
51.6525113746118
30
0
41
1
10
93.0239679327628
20
51.6469476174744
30
0
41
1
10
93.0454488495138
20
51.6311221699302
30
0
41
1
10
93.0552022786648
20
51.6199045346924
30
0
41
1
10
93.062054296926
20
51.6072484108998
30
0
0
SPLINE
5
206
100
AcDbEntity
8
1
62
256
6
ByLayer
370
18
48
1
60
0
100
AcDbSpline
70
4
71
3
72
8
73
4
40
0
40
0
40
0
40
0
40
1
40
1
40
1
40
1
41
1
10
93.062054296926
20
51.6072484108998
30
0
41
1
10
93.0648854816154
20
51.6007658888144
30
0
41
1
10
93.0677166903706
20
51.5942833427516
30
0
41
1
10
93.0705479241841
20
51.5878007717235
30
0
0
SPLINE
5
207
100
AcDbEntity
8
1
62
256
6
ByLayer
370
18
48
1
60
0
100
AcDbSpline
70
4
71
3
72
24
73
20
40
0
40
0
40
0
40
0
40
0.0380198325517407
40
0.0380198325517407
40
0.246834654674838
40
0.246834654674838
40
0.404726505663282
40
0.404726505663282
40
0.52615063796284
40
0.52615063796284
40
0.621531995503671
40
0.621531995503671
40
0.776890538332122
40
0.776890538332122
40
0.87368421389801
40
0.87368421389801
40
0.971746172255025
40
0.971746172255025
40
1
40
1
40
1
40
1
41
1
10
94.2821364893068
20
51.8004444276278
30
0
41
1
10
94.2762026361991
20
51.8026479047466
30
0
41
1
10
94.2702408526526
20
51.804779114555
30
0
41
1
10
94.2314257223888
20
51.8181199964406
30
0
41
1
10
94.19774001804
20
51.8272528146288
30
0
41
1
10
94.1378154780834
20
51.8388122639183
30
0
41
1
10
94.111651835476
20
51.8423488507824
30
0
41
1
10
94.0652202634539
20
51.8453768564971
30
0
41
1
10
94.0449103059212
20
51.8456169978074
30
0
41
1
10
94.0088520021061
20
51.8435744731311
30
0
41
1
10
93.9929995952335
20
51.8418165740632
30
0
41
1
10
93.9521729434257
20
51.8343707154013
30
0
41
1
10
93.9270560903063
20
51.8268295691329
30
0
41
1
10
93.8905636223369
20
51.8076624778909
30
0
41
1
10
93.8773409873746
20
51.7984237858402
30
0
41
1
10
93.8552537869795
20
51.7763443933143
30
0
41
1
10
93.8462103828298
20
51.763086869058
30
0
41
1
10
93.8387578363208
20
51.7448567068535
30
0
41
1
10
93.8373238074234
20
51.7406277510659
30
0
41
1
10
93.8361513782305
20
51.7363494916713
30
0
0
SPLINE
5
208
100
AcDbEntity
8
1
62
256
6
ByLayer
370
18
48
1
60
0
100
AcDbSpline
70
4
71
3
72
8
73
4
40
0
40
0
40
0
40
0
40
1
40
1
40
1
40
1
41
1
10
93.8320940523959
20
51.7148086504302
30
0
41
1
10
93.8334464928291
20
51.7219889593518
30
0
41
1
10
93.8347989347944
20
51.7291692393844
30
0
41
1
10
93.8361513782305
20
51.7363494916713
30
0
0
SPLINE
5
209
100
AcDbEntity
8
1
62
256
6
ByLayer
370
18
48
1
60
0
100
AcDbSpline
70
4
71
3
72
34
73
30
40
0
40
0
40
0
40
0
40
0.01919642929646
40
0.01919642929646
40
0.101124764419649
40
0.101124764419649
40
0.152453585606749
40
0.152453585606749
40
0.219042773077262
40
0.219042773077262
40
0.302916980105784
40
0.302916980105784
40
0.40078922825187
40
0.40078922825187
40
0.500070116309152
40
0.500070116309152
40
0.595484102374483
40
0.595484102374483
40
0.662568721464071
40
0.662568721464071
40
0.729684391124908
40
0.729684391124908
40
0.796868364781137
40
0.796868364781137
40
0.864213855264593
40
0.864213855264593
40
0.948553424479061
40
0.948553424479061
40
1
40
1
40
1
40
1
41
1
10
93.0705479241842
20
51.5878007717234
30
0
41
1
10
93.0727134426633
20
51.5828424643993
30
0
41
1
10
93.0752219412702
20
51.5780501554592
30
0
41
1
10
93.0896929282019
20
51.5542174569006
30
0
41
1
10
93.1064991533189
20
51.5381483696091
30
0
41
1
10
93.1368516514882
20
51.51707594982
30
0
41
1
10
93.1495375403213
20
51.5100035943518
30
0
41
1
10
93.1798305884431
20
51.4959479081505
30
0
41
1
10
93.1979081410607
20
51.4895493904919
30
0
41
1
10
93.2398268075048
20
51.4779956439483
30
0
41
1
10
93.2641280846732
20
51.4735418430884
30
0
41
1
10
93.317585723714
20
51.4675247961473
30
0
41
1
10
93.3470983628924
20
51.4665461722244
30
0
41
1
10
93.406784723082
20
51.4685984853967
30
0
41
1
10
93.4371682164141
20
51.4716992215893
30
0
41
1
10
93.49629317799
20
51.4815598664935
30
0
41
1
10
93.5252280525301
20
51.4882028462226
30
0
41
1
10
93.5735766441434
20
51.5025273949699
30
0
41
1
10
93.5933465125996
20
51.509341231049
30
0
41
1
10
93.6320599672841
20
51.5247774904823
30
0
41
1
10
93.651070957752
20
51.5334261031014
30
0
41
1
10
93.6878741937535
20
51.5526566788686
30
0
41
1
10
93.7057479330042
20
51.5632802633055
30
0
41
1
10
93.7396705071936
20
51.5866864211358
30
0
41
1
10
93.7558311372358
20
51.599546983831
30
0
41
1
10
93.7887604079026
20
51.6311553518182
30
0
41
1
10
93.8050955371837
20
51.6509490024017
30
0
41
1
10
93.823893416335
20
51.6859630711321
30
0
41
1
10
93.8293505112121
20
51.7002427791704
30
0
41
1
10
93.8320940523959
20
51.7148086504301
30
0
0
SPLINE
5
20A
100
AcDbEntity
8
1
62
256
6
ByLayer
370
18
48
1
60
0
100
AcDbSpline
70
4
71
3
72
24
73
20
40
0
40
0
40
0
40
0
40
0.038019832551759
40
0.038019832551759
40
0.24683465467485
40
0.24683465467485
40
0.404726505663291
40
0.404726505663291
40
0.526150637962847
40
0.526150637962847
40
0.621531995503677
40
0.621531995503677
40
0.776890538332125
40
0.776890538332125
40
0.873684213898011
40
0.873684213898011
40
0.971746172255024
40
0.971746172255024
40
1
40
1
40
1
40
1
41
1
10
95.3596085260577
20
50.5173918798138
30
0
41
1
10
95.358486188234
20
50.5235909073018
30
0
41
1
10
95.3572881698923
20
50.5297752714951
30
0
41
1
10
95.3490328151538
20
50.5697558223283
30
0
41
1
10
95.3397850377785
20
50.6031570000396
30
0
41
1
10
95.319348492372
20
50.6600700104469
30
0
41
1
10
95.3091414839358
20
50.6841114171714
30
0
41
1
10
95.2882754088023
20
50.7250161454053
30
0
41
1
10
95.2782294917048
20
50.7423208392471
30
0
41
1
10
95.2583096028469
20
50.7716869328711
30
0
41
1
10
95.2488261590408
20
50.7841246841537
30
0
41
1
10
95.2219457931868
20
50.8145346931457
30
0
41
1
10
95.202916103632
20
50.8315998068184
30
0
41
1
10
95.1683875409882
20
50.8517534094557
30
0
41
1
10
95.1539548016308
20
50.8577585613787
30
0
41
1
10
95.1242882957545
20
50.8640027342482
30
0
41
1
10
95.1086156747223
20
50.864155699486
30
0
41
1
10
95.0895976972715
20
50.8601061715788
30
0
41
1
10
95.085335835846
20
50.8589147933926
30
0
41
1
10
95.0811658096585
20
50.8574715057675
30
0
0
SPLINE
5
20B
100
AcDbEntity
8
1
62
256
6
ByLayer
370
18
48
1
60
0
100
AcDbSpline
70
4
71
3
72
8
73
4
40
0
40
0
40
0
40
0
40
1
40
1
40
1
40
1
41
1
10
94.5728373274573
20
51.4627885181526
30
0
41
1
10
94.5688988732236
20
51.4565685551615
30
0
41
1
10
94.5649604064942
20
51.4503485696109
30
0
41
1
10
94.5610219267543
20
51.4441285605715
30
0
0
SPLINE
5
20C
100
AcDbEntity
8
1
62
256
6
ByLayer
370
18
48
1
60
0
100
AcDbSpline
70
4
71
3
72
22
73
18
40
0
40
0
40
0
40
0
40
0.170710140374149
40
0.170710140374149
40
0.379749854708239
40
0.379749854708239
40
0.483814789989035
40
0.483814789989035
40
0.588021581485197
40
0.588021581485197
40
0.692554919197014
40
0.692554919197014
40
0.819703167369292
40
0.819703167369292
40
0.902628734015309
40
0.902628734015309
40
1
40
1
40
1
40
1
41
1
10
94.2821364893068
20
51.8004444276278
30
0
41
1
10
94.3087497818706
20
51.7905618470927
30
0
41
1
10
94.3348584551483
20
51.7792142096423
30
0
41
1
10
94.3911623532217
20
51.7507856924459
30
0
41
1
10
94.4211508733944
20
51.7329167634085
30
0
41
1
10
94.4632466502262
20
51.7025193263661
30
0
41
1
10
94.4768181644638
20
51.6917685173493
30
0
41
1
10
94.5026698638798
20
51.668903204536
30
0
41
1
10
94.5149958828647
20
51.6567483752074
30
0
41
1
10
94.5377498832995
20
51.6308972148765
30
0
41
1
10
94.5482474988928
20
51.6171148047696
30
0
41
1
10
94.5680546072348
20
51.5849132143503
30
0
41
1
10
94.5768469554172
20
51.5657343402909
30
0
41
1
10
94.5846732548816
20
51.5329968737136
30
0
41
1
10
94.5860346336557
20
51.5195507524216
30
0
41
1
10
94.5840908002888
20
51.4912517147457
30
0
41
1
10
94.5798295997994
20
51.4761232255889
30
0
41
1
10
94.5728373274573
20
51.4627885181527
30
0
0
SPLINE
5
20D
100
AcDbEntity
8
1
62
256
6
ByLayer
370
18
48
1
60
0
100
AcDbSpline
70
4
71
3
72
8
73
4
40
0
40
0
40
0
40
0
40
1
40
1
40
1
40
1
41
1
10
95.061108539699
20
50.8486259572729
30
0
41
1
10
95.0677943244363
20
50.8515744784628
30
0
41
1
10
95.074480080714
20
50.8545229945606
30
0
41
1
10
95.0811658096585
20
50.8574715057675
30
0
0
SPLINE
5
20E
100
AcDbEntity
8
1
62
256
6
ByLayer
370
18
48
1
60
0
100
AcDbSpline
70
4
71
3
72
34
73
30
40
0
40
0
40
0
40
0
40
0.0191964292964577
40
0.0191964292964577
40
0.101124764419647
40
0.101124764419647
40
0.152453585606747
40
0.152453585606747
40
0.21904277307726
40
0.21904277307726
40
0.302916980105781
40
0.302916980105781
40
0.400789228251868
40
0.400789228251868
40
0.50007011630915
40
0.50007011630915
40
0.595484102374483
40
0.595484102374483
40
0.662568721464071
40
0.662568721464071
40
0.729684391124907
40
0.729684391124907
40
0.796868364781136
40
0.796868364781136
40
0.864213855264593
40
0.864213855264593
40
0.948553424479061
40
0.948553424479061
40
1
40
1
40
1
40
1
41
1
10
94.5610219267543
20
51.4441285605715
30
0
41
1
10
94.5580095119492
20
51.439371078356
30
0
41
1
10
94.5553165537999
20
51.4343992523141
30
0
41
1
10
94.5429740717228
20
51.4078795939113
30
0
41
1
10
94.5383604461383
20
51.3836616215945
30
0
41
1
10
94.5366700405502
20
51.3444630682598
30
0
41
1
10
94.5374131395033
20
51.3290709580635
30
0
41
1
10
94.5415477609524
20
51.293950279172
30
0
41
1
10
94.5456725527496
20
51.2741399255772
30
0
41
1
10
94.5579592775999
20
51.2301318116571
30
0
41
1
10
94.5669427105644
20
51.2059376175128
30
0
41
1
10
94.5898168333875
20
51.154990215366
30
0
41
1
10
94.6043742878077
20
51.1282734517726
30
0
41
1
10
94.6371128989424
20
51.0767211545109
30
0
41
1
10
94.6554603689965
20
51.0517427879515
30
0
41
1
10
94.6942861218689
20
51.005509122998
30
0
41
1
10
94.7147697342906
20
50.9840099470438
30
0
41
1
10
94.7516338813816
20
50.950070256045
30
0
41
1
10
94.7674901321986
20
50.9367804780679
30
0
41
1
10
94.8002590309983
20
50.9120269948484
30
0
41
1
10
94.8172281450459
20
50.90051983402
30
0
41
1
10
94.8521316824161
20
50.8797279400418
30
0
41
1
10
94.8701425541125
20
50.8703967073489
30
0
41
1
10
94.9070157517742
20
50.8545893877212
30
0
41
1
10
94.9260002384151
20
50.8480618686145
30
0
41
1
10
94.969183373038
20
50.837884947999
30
0
41
1
10
94.9940308911574
20
50.8352150477857
30
0
41
1
10
95.0328423513297
20
50.8391476649041
30
0
41
1
10
95.0475458530771
20
50.842644629655
30
0
41
1
10
95.061108539699
20
50.8486259572729
30
0
0
SPLINE
5
20F
100
AcDbEntity
8
1
62
256
6
ByLayer
370
18
48
1
60
0
100
AcDbSpline
70
4
71
3
72
18
73
14
40
0
40
0
40
0
40
0
40
0.0401774247268809
40
0.16531397575878
40
0.291530690068497
40
0.419730492588176
40
0.55207048447834
40
0.695383820067822
40
0.785337643352403
40
0.842679904114522
40
0.89798427663332
40
0.952684666150601
40
1
40
1
40
1
40
1
41
1
10
98.3701359463573
20
30.9711202068638
30
0
41
1
10
98.3646996163845
20
31.0572333457168
30
0
41
1
10
98.3412992730169
20
31.4046920348636
30
0
41
1
10
98.2899073890494
20
31.9556089195074
30
0
41
1
10
98.215070911735
20
32.6057619190871
30
0
41
1
10
98.1278169009983
20
33.1744018197625
30
0
41
1
10
98.0233738897518
20
33.6739276717473
30
0
41
1
10
97.9093867940162
20
34.0485898723576
30
0
41
1
10
97.7665297637232
20
34.34660005017
30
0
41
1
10
97.5935187940014
20
34.5790294659908
30
0
41
1
10
97.3723554607292
20
34.76962365355
30
0
41
1
10
97.0850292873708
20
34.9051527364277
30
0
41
1
10
96.8790244391365
20
34.9270977637478
30
0
41
1
10
96.7771361561536
20
34.9260716202453
30
0
0
SPLINE
5
210
100
AcDbEntity
8
1
62
256
6
ByLayer
370
18
48
1
60
0
100
AcDbSpline
70
4
71
3
72
19
73
15
40
0
40
0
40
0
40
0
40
0.0175218110202761
40
0.0705134782237438
40
0.119271812275774
40
0.168384015964386
40
0.222661786074425
40
0.290011649191819
40
0.386851356899729
40
0.515903464684203
40
0.635275926913406
40
0.761117506571616
40
0.882689576184099
40
1
40
1
40
1
40
1
41
1
10
96.7739124643909
20
19.0794993565194
30
0
41
1
10
96.8122216058763
20
19.0745617956153
30
0
41
1
10
96.9638156240304
20
19.0648211381123
30
0
41
1
10
97.2160420746367
20
19.1480311187512
30
0
41
1
10
97.4707058588426
20
19.3044923359974
30
0
41
1
10
97.6525651889947
20
19.4926993870663
30
0
41
1
10
97.7851001824447
20
19.6925424529141
30
0
41
1
10
97.8959281711499
20
19.928313274576
30
0
41
1
10
98.0002938959155
20
20.243254512868
30
0
41
1
10
98.0983461066971
20
20.6675389635882
30
0
41
1
10
98.1907355533926
20
21.2192127514182
30
0
41
1
10
98.2703807092854
20
21.8517045438207
30
0
41
1
10
98.3390048183754
20
22.5684052956444
30
0
41
1
10
98.3765623382104
20
23.08499571932
30
0
41
1
10
98.3932812986181
20
23.3507368104193
30
0
0
SPLINE
5
211
100
AcDbEntity
8
1
62
256
6
ByLayer
370
18
48
1
60
0
100
AcDbSpline
70
4
71
3
72
8
73
4
40
0
40
0
40
0
40
0
40
1
40
1
40
1
40
1
41
1
10
97.9953649824575
20
31.1488384221056
30
0
41
1
10
97.7998814850051
20
31.1268980195298
30
0
41
1
10
97.6361032368433
20
31.1044003325732
30
0
41
1
10
97.5233865650138
20
31.0817063519339
30
0
0
SPLINE
5
212
100
AcDbEntity
8
1
62
256
6
ByLayer
370
18
48
1
60
0
100
AcDbSpline
70
4
71
3
72
8
73
4
40
0
40
0
40
0
40
0
40
1
40
1
40
1
40
1
41
1
10
98.0325706754247
20
23.0566627034107
30
0
41
1
10
97.8102925129032
20
23.0317149588027
30
0
41
1
10
97.6290068656664
20
23.0060466871839
30
0
41
1
10
97.5171703359709
20
22.9801885971284
30
0
0
SPLINE
5
213
100
AcDbEntity
8
1
62
256
6
ByLayer
370
18
48
1
60
0
100
AcDbSpline
70
4
71
3
72
10
73
6
40
0
40
0
40
0
40
0
40
0.5
40
0.5
40
1
40
1
40
1
40
1
41
1
10
98.2581473555084
20
27.2055011255163
30
0
41
1
10
97.9956917249849
20
27.850175039352
30
0
41
1
10
97.8109360205137
20
28.5104228457853
30
0
41
1
10
97.7225776140614
20
29.8514485117814
30
0
41
1
10
97.8190506854204
20
30.5049669100776
30
0
41
1
10
97.9953649824566
20
31.1488384221057
30
0
0
SPLINE
5
214
100
AcDbEntity
8
1
62
256
6
ByLayer
370
18
48
1
60
0
100
AcDbSpline
70
4
71
3
72
10
73
6
40
0
40
0
40
0
40
0
40
0.5
40
0.5
40
1
40
1
40
1
40
1
41
1
10
98.2581473555085
20
27.2055011255164
30
0
41
1
10
98.0017742733187
20
26.5272309948419
30
0
41
1
10
97.8232480580643
20
25.8325753614498
30
0
41
1
10
97.7475423326882
20
24.4216641485219
30
0
41
1
10
97.850181400777
20
23.7340886163073
30
0
41
1
10
98.0325706754238
20
23.0566627034106
30
0
0
SPLINE
5
215
100
AcDbEntity
8
1
62
256
6
ByLayer
370
18
48
1
60
0
100
AcDbSpline
70
4
71
3
72
8
73
4
40
0
40
0
40
0
40
0
40
1
40
1
40
1
40
1
41
1
10
93.9764835604909
20
-49.3152455555424
30
0
41
1
10
92.3191780759505
20
-49.4480319821794
30
0
41
1
10
90.6617119679999
20
-49.578231801398
30
0
41
1
10
89.0040913059187
20
-49.7059427501654
30
0
0
SPLINE
5
216
100
AcDbEntity
8
1
62
256
6
ByLayer
370
18
48
1
60
0
100
AcDbSpline
70
4
71
3
72
10
73
6
40
0
40
0
40
0
40
0
40
0.5
40
0.5
40
1
40
1
40
1
40
1
41
1
10
93.9764835604908
20
-49.3152455555424
30
0
41
1
10
94.5250222916243
20
-49.669252097152
30
0
41
1
10
95.0800961676284
20
-50.0062671564429
30
0
41
1
10
96.2023638754148
20
-50.6487851940525
30
0
41
1
10
96.7695596569037
20
-50.9542831031039
30
0
41
1
10
97.3424529762331
20
-51.2449673216554
30
0
0
SPLINE
5
217
100
AcDbEntity
8
1
62
256
6
ByLayer
370
18
48
1
60
0
100
AcDbSpline
70
4
71
3
72
20
73
16
40
0
40
0
40
0
40
0
40
0.125000000000005
40
0.125000000000005
40
0.187500000000004
40
0.187500000000004
40
0.250000000000004
40
0.500000000000003
40
0.750000000000001
40
0.750000000000001
40
0.874999999999997
40
0.874999999999997
40
0.937499999999998
40
0.937499999999998
40
1
40
1
40
1
40
1
41
1
10
97.3424529762328
20
-51.2449673216554
30
0
41
1
10
97.3622096204458
20
-51.3637549360237
30
0
41
1
10
97.382081907014
20
-51.4805889073414
30
0
41
1
10
97.4120645787715
20
-51.6528962500485
30
0
41
1
10
97.4220908301743
20
-51.7098580127076
30
0
41
1
10
97.4421839996136
20
-51.8226991388981
30
0
41
1
10
97.492517732045
20
-52.1020923392284
30
0
41
1
10
97.5840230414833
20
-52.5806858255647
30
0
41
1
10
97.6666423762892
20
-52.9716630038996
30
0
41
1
10
97.729088584658
20
-53.2519481999753
30
0
41
1
10
97.7499843050715
20
-53.3432177615775
30
0
41
1
10
97.7814488163446
20
-53.4768716395589
30
0
41
1
10
97.7919553913179
20
-53.5208733146313
30
0
41
1
10
97.8129866613268
20
-53.6077006195684
30
0
41
1
10
97.8235139664239
20
-53.6505373955019
30
0
41
1
10
97.8340529192247
20
-53.6927984016343
30
0
0
SPLINE
5
218
100
AcDbEntity
8
1
62
256
6
ByLayer
370
18
48
1
60
0
100
AcDbSpline
70
4
71
3
72
8
73
4
40
0
40
0
40
0
40
0
40
1
40
1
40
1
40
1
41
1
10
97.5399876623027
20
-54.5653882350944
30
0
41
1
10
97.5948778116469
20
-54.3067718459465
30
0
41
1
10
97.6934406018922
20
-54.0155040668106
30
0
41
1
10
97.8340529192247
20
-53.6927984016343
30
0
0
SPLINE
5
219
100
AcDbEntity
8
1
62
256
6
ByLayer
370
18
48
1
60
0
100
AcDbSpline
70
4
71
3
72
10
73
6
40
0
40
0
40
0
40
0
40
0.5
40
0.5
40
1
40
1
40
1
40
1
41
1
10
84.9170746380797
20
-51.2144487829907
30
0
41
1
10
87.1947123365136
20
-51.7468675804203
30
0
41
1
10
89.4292995130451
20
-52.2864508098384
30
0
41
1
10
93.7200420389162
20
-53.3953117446984
30
0
41
1
10
95.8537209276582
20
-53.9749830429924
30
0
41
1
10
97.5399876623026
20
-54.5653882350944
30
0
0
SPLINE
5
21A
100
AcDbEntity
8
1
62
256
6
ByLayer
370
18
48
1
60
0
100
AcDbSpline
70
4
71
3
72
12
73
8
40
0
40
0
40
0
40
0
40
0.25
40
0.25
40
0.499999999999999
40
0.499999999999999
40
1
40
1
40
1
40
1
41
1
10
83.2037685210872
20
-50.9732614170728
30
0
41
1
10
83.3521050470589
20
-50.9802675818977
30
0
41
1
10
83.4989447219485
20
-50.9908528517696
30
0
41
1
10
83.7898169947615
20
-51.0186761049818
30
0
41
1
10
83.9338491627765
20
-51.035914954578
30
0
41
1
10
84.3619393992871
20
-51.0969855538162
30
0
41
1
10
84.6420059430994
20
-51.1501489411448
30
0
41
1
10
84.9170746380797
20
-51.2144487829909
30
0
0
SPLINE
5
21B
100
AcDbEntity
8
1
62
256
6
ByLayer
370
18
48
1
60
0
100
AcDbSpline
70
4
71
3
72
8
73
4
40
0
40
0
40
0
40
0
40
1
40
1
40
1
40
1
41
1
10
75.8120093826801
20
-50.6268123357615
30
0
41
1
10
78.276264345558
20
-50.7414585345825
30
0
41
1
10
80.7401994200392
20
-50.8569032169155
30
0
41
1
10
83.2037685210872
20
-50.9732614170728
30
0
0
SPLINE
5
21C
100
AcDbEntity
8
1
62
256
6
ByLayer
370
18
48
1
60
0
100
AcDbSpline
70
4
71
3
72
16
73
12
40
0
40
0
40
0
40
0
40
0.38889702253668
40
0.38889702253668
40
0.583345533805022
40
0.583345533805022
40
0.680569789439197
40
0.680569789439197
40
0.777794045073371
40
0.777794045073371
40
1
40
1
40
1
40
1
41
1
10
75.8120093826801
20
-50.6268123357615
30
0
41
1
10
75.7356743125838
20
-50.2204226463078
30
0
41
1
10
75.6616639014878
20
-49.7942165345224
30
0
41
1
10
75.5541245468888
20
-49.1252741703984
30
0
41
1
10
75.518858097503
20
-48.8973491873155
30
0
41
1
10
75.4668327463127
20
-48.5480085973696
30
0
41
1
10
75.4496367226046
20
-48.4303192111046
30
0
41
1
10
75.4155373965428
20
-48.1924451521801
30
0
41
1
10
75.3986397528153
20
-48.072297324965
30
0
41
1
10
75.3437172549903
20
-47.6742653103848
30
0
41
1
10
75.3064122208718
20
-47.3918629926389
30
0
41
1
10
75.270004927449
20
-47.1039611645456
30
0
0
SPLINE
5
21D
100
AcDbEntity
8
1
62
256
6
ByLayer
370
18
48
1
60
0
100
AcDbSpline
70
4
71
3
72
8
73
4
40
0
40
0
40
0
40
0
40
1
40
1
40
1
40
1
41
1
10
88.4354908460483
20
-44.8412721006838
30
0
41
1
10
88.4499415917168
20
-44.8559328826481
30
0
41
1
10
88.4644031310829
20
-44.8705738496691
30
0
41
1
10
88.4788754240525
20
-44.8851950753518
30
0
0
SPLINE
5
21E
100
AcDbEntity
8
1
62
256
6
ByLayer
370
18
48
1
60
0
100
AcDbSpline
70
4
71
3
72
8
73
4
40
0
40
0
40
0
40
0
40
1
40
1
40
1
40
1
41
1
10
88.4915319858414
20
-45.2450639607548
30
0
41
1
10
88.4802354682201
20
-45.1259660775853
30
0
41
1
10
88.4758112061756
20
-45.0060150090137
30
0
41
1
10
88.4788754240678
20
-44.8851950753515
30
0
0
SPLINE
5
21F
100
AcDbEntity
8
1
62
256
6
ByLayer
370
18
48
1
60
0
100
AcDbSpline
70
4
71
3
72
11
73
7
40
0
40
0
40
0
40
0
40
0.25
40
0.5
40
0.75
40
1
40
1
40
1
40
1
41
1
10
89.0040913059188
20
-49.7059427501656
30
0
41
1
10
88.957822739038
20
-49.3751555164294
30
0
41
1
10
88.8670820550589
20
-48.6928881089951
30
0
41
1
10
88.7362881923993
20
-47.6082396742615
30
0
41
1
10
88.6107926208645
20
-46.4625613008029
30
0
41
1
10
88.5306833738434
20
-45.6578325316142
30
0
41
1
10
88.4915319858413
20
-45.2450639607549
30
0
0
SPLINE
5
220
100
AcDbEntity
8
1
62
256
6
ByLayer
370
18
48
1
60
0
100
AcDbSpline
70
4
71
3
72
8
73
4
40
0
40
0
40
0
40
0
40
1
40
1
40
1
40
1
41
1
10
76.013750963739
20
-18.4922595525047
30
0
41
1
10
78.0137509637387
20
-18.4922595525047
30
0
41
1
10
80.0137509637387
20
-18.4922595525047
30
0
41
1
10
82.0137509637387
20
-18.4922595525047
30
0
0
SPLINE
5
221
100
AcDbEntity
8
1
62
256
6
ByLayer
370
18
48
1
60
0
100
AcDbSpline
70
4
71
3
72
8
73
4
40
0
40
0
40
0
40
0
40
1
40
1
40
1
40
1
41
1
10
76.013750963739
20
-20.323111432781
30
0
41
1
10
76.013750963739
20
-19.7128274726889
30
0
41
1
10
76.013750963739
20
-19.1025435125968
30
0
41
1
10
76.013750963739
20
-18.4922595525047
30
0
0
SPLINE
5
222
100
AcDbEntity
8
1
62
256
6
ByLayer
370
18
48
1
60
0
100
AcDbSpline
70
4
71
3
72
18
73
14
40
0
40
0
40
0
40
0
40
0.191325435437368
40
0.191325435437368
40
0.382650870874735
40
0.382650870874735
40
0.536214707212622
40
0.536214707212622
40
0.690626528447
40
0.690626528447
40
0.845885455798054
40
0.845885455798054
40
1
40
1
40
1
40
1
41
1
10
79.2063833505387
20
-21.2133646944848
30
0
41
1
10
79.0989389913674
20
-21.5031574803635
30
0
41
1
10
78.9178185001932
20
-21.7266417474395
30
0
41
1
10
78.4051554150052
20
-22.0385373729191
30
0
41
1
10
78.1027762899092
20
-22.1171252470558
30
0
41
1
10
77.4719244096329
20
-22.1171252470558
30
0
41
1
10
77.2109881087887
20
-22.0692357612538
30
0
41
1
10
76.7276926989455
20
-21.8796115749713
30
0
41
1
10
76.5417632430941
20
-21.7622518779076
30
0
41
1
10
76.2801111915556
20
-21.481514617904
30
0
41
1
10
76.1810571801625
20
-21.3079157305554
30
0
41
1
10
76.0464820694694
20
-20.8870626571152
30
0
41
1
10
76.013750963739
20
-20.6276394450604
30
0
41
1
10
76.013750963739
20
-20.323111432781
30
0
0
SPLINE
5
223
100
AcDbEntity
8
1
62
256
6
ByLayer
370
18
48
1
60
0
100
AcDbSpline
70
4
71
3
72
18
73
14
40
0
40
0
40
0
40
0
40
0.252026352812657
40
0.252026352812657
40
0.40561296454716
40
0.40561296454716
40
0.559855857535999
40
0.559855857535999
40
0.714098750524839
40
0.714098750524839
40
0.857201879020039
40
0.857201879020039
40
1
40
1
40
1
40
1
41
1
10
82.0137509637387
20
-18.4922595525047
30
0
41
1
10
82.0137509637387
20
-19.0927200283297
30
0
41
1
10
82.0137509637387
20
-19.6931805041547
30
0
41
1
10
82.0137509637387
20
-20.6595657689284
30
0
41
1
10
81.9523541870697
20
-20.9542702969406
30
0
41
1
10
81.7093187766128
20
-21.397271551444
30
0
41
1
10
81.522576750385
20
-21.5706939346997
30
0
41
1
10
81.0191231816974
20
-21.8211927835101
30
0
41
1
10
80.7551170420197
20
-21.8838174957127
30
0
41
1
10
80.2225000044142
20
-21.8838174957127
30
0
41
1
10
79.9815176559875
20
-21.8285603967104
30
0
41
1
10
79.5276656907103
20
-21.6053142948713
30
0
41
1
10
79.3445260980442
20
-21.4380768970941
30
0
41
1
10
79.2063833505387
20
-21.2133646944848
30
0
0
SPLINE
5
224
100
AcDbEntity
8
1
62
256
6
ByLayer
370
18
48
1
60
0
100
AcDbSpline
70
4
71
3
72
8
73
4
40
0
40
0
40
0
40
0
40
1
40
1
40
1
40
1
41
1
10
81.306153112626
20
-19.1271022232645
30
0
41
1
10
80.7013948624341
20
-19.1271022232645
30
0
41
1
10
80.0966366122424
20
-19.1271022232645
30
0
41
1
10
79.4918783620504
20
-19.1271022232645
30
0
0
SPLINE
5
225
100
AcDbEntity
8
1
62
256
6
ByLayer
370
18
48
1
60
0
100
AcDbSpline
70
4
71
3
72
22
73
18
40
0
40
0
40
0
40
0
40
0.125919801008141
40
0.125919801008141
40
0.228173823812624
40
0.228173823812624
40
0.362000949327643
40
0.362000949327643
40
0.497453699158079
40
0.497453699158079
40
0.624996799363379
40
0.624996799363379
40
0.753577031326432
40
0.753577031326432
40
0.881194351724581
40
0.881194351724581
40
1
40
1
40
1
40
1
41
1
10
79.4918783620504
20
-19.1271022232645
30
0
41
1
10
79.4918783620504
20
-19.4733800436789
30
0
41
1
10
79.4918783620504
20
-19.8196578640934
30
0
41
1
10
79.4918783620504
20
-20.4471329216528
30
0
41
1
10
79.5164370727181
20
-20.6485143491279
30
0
41
1
10
79.6227504074528
20
-20.9320165750873
30
0
41
1
10
79.72211627456
20
-21.0549610106781
30
0
41
1
10
80.0000798165929
20
-21.2180329553374
30
0
41
1
10
80.1749175024955
20
-21.25879830922
30
0
41
1
10
80.5832060673459
20
-21.25879830922
30
0
41
1
10
80.75972180027
20
-21.2207323076851
30
0
41
1
10
81.0617891810144
20
-21.0678492251858
30
0
41
1
10
81.1664754457037
20
-20.9591820390742
30
0
41
1
10
81.2765758343779
20
-20.6753677038248
30
0
41
1
10
81.306153112626
20
-20.4311697597188
30
0
41
1
10
81.306153112626
20
-19.7672659480023
30
0
41
1
10
81.306153112626
20
-19.4471840856333
30
0
41
1
10
81.306153112626
20
-19.1271022232645
30
0
0
SPLINE
5
226
100
AcDbEntity
8
1
62
256
6
ByLayer
370
18
48
1
60
0
100
AcDbSpline
70
4
71
3
72
8
73
4
40
0
40
0
40
0
40
0
40
1
40
1
40
1
40
1
41
1
10
76.7505122837696
20
-20.7553447405323
30
0
41
1
10
76.7827455915209
20
-20.9014690690051
30
0
41
1
10
76.8380026905231
20
-21.0230346868101
30
0
41
1
10
76.9147486613598
20
-21.1212695294809
30
0
0
SPLINE
5
227
100
AcDbEntity
8
1
62
256
6
ByLayer
370
18
48
1
60
0
100
AcDbSpline
70
4
71
3
72
8
73
4
40
0
40
0
40
0
40
0
40
1
40
1
40
1
40
1
41
1
10
78.7842805109376
20
-19.1271022232645
30
0
41
1
10
78.0966366122424
20
-19.1271022232645
30
0
41
1
10
77.408992713547
20
-19.1271022232645
30
0
41
1
10
76.7213488148517
20
-19.1271022232645
30
0
0
SPLINE
5
228
100
AcDbEntity
8
1
62
256
6
ByLayer
370
18
48
1
60
0
100
AcDbSpline
70
4
71
3
72
10
73
6
40
0
40
0
40
0
40
0
40
0.660338983050846
40
0.660338983050846
40
1
40
1
40
1
40
1
41
1
10
76.7213488148517
20
-19.1271022232645
30
0
41
1
10
76.7213488148517
20
-19.52577195977
30
0
41
1
10
76.7213488148517
20
-19.9244416962755
30
0
41
1
10
76.7213488148517
20
-20.5281766668562
30
0
41
1
10
76.730558331352
20
-20.6718451242622
30
0
41
1
10
76.7505122837696
20
-20.7553447405323
30
0
0
SPLINE
5
229
100
AcDbEntity
8
1
62
256
6
ByLayer
370
18
48
1
60
0
100
AcDbSpline
70
4
71
3
72
18
73
14
40
0
40
0
40
0
40
0
40
0.144086644560491
40
0.144086644560491
40
0.287731062505125
40
0.287731062505125
40
0.456860780407679
40
0.456860780407679
40
0.627194363444242
40
0.627194363444242
40
0.795871414023982
40
0.795871414023982
40
1
40
1
40
1
40
1
41
1
10
76.9147486613598
20
-21.1212695294809
30
0
41
1
10
76.9899597127795
20
-21.2195043721517
30
0
41
1
10
77.1020088302008
20
-21.300548117355
30
0
41
1
10
77.3931959809487
20
-21.4280574381036
30
0
41
1
10
77.56248465522
20
-21.4589518011617
30
0
41
1
10
77.9769128977373
20
-21.4589518011617
30
0
41
1
10
78.1718476636621
20
-21.4135181864264
30
0
41
1
10
78.5014894531859
20
-21.2286723231421
30
0
41
1
10
78.6169742945141
20
-21.1028504964801
30
0
41
1
10
78.7513903959576
20
-20.7778079238983
30
0
41
1
10
78.7842805109376
20
-20.5429118932568
30
0
41
1
10
78.7842805109376
20
-19.8671380380509
30
0
41
1
10
78.7842805109376
20
-19.4971201306577
30
0
41
1
10
78.7842805109376
20
-19.1271022232645
30
0
0
SPLINE
5
22A
100
AcDbEntity
8
1
62
256
6
ByLayer
370
18
48
1
60
0
100
AcDbSpline
70
4
71
3
72
8
73
4
40
0
40
0
40
0
40
0
40
1
40
1
40
1
40
1
41
1
10
89.7100082691746
20
-34.948352190595
30
0
41
1
10
90.399436539486
20
-35.6641391604103
30
0
41
1
10
91.2622626455827
20
-36.1931139899006
30
0
41
1
10
92.3751713384465
20
-36.4705932916391
30
0
0
SPLINE
5
22B
100
AcDbEntity
8
1
62
256
6
ByLayer
370
18
48
1
60
0
100
AcDbSpline
70
4
71
3
72
24
73
20
40
0
40
0
40
0
40
0
40
0.125000000000005
40
0.125000000000005
40
0.25000000000001
40
0.25000000000001
40
0.375000000000015
40
0.375000000000015
40
0.500000000000021
40
0.500000000000021
40
0.562500000000023
40
0.562500000000023
40
0.625000000000026
40
0.625000000000026
40
0.750000000000017
40
0.750000000000017
40
0.875000000000009
40
0.875000000000009
40
1
40
1
40
1
40
1
41
1
10
84.3093665425462
20
44.2557699240792
30
0
41
1
10
84.3235353286894
20
44.2127673820801
30
0
41
1
10
84.3392324959265
20
44.1697505174345
30
0
41
1
10
84.3736212755625
20
44.0840306200887
30
0
41
1
10
84.3923151650386
20
44.041322607743
30
0
41
1
10
84.4327890758635
20
43.9563847115774
30
0
41
1
10
84.454569245739
20
43.914152985127
30
0
41
1
10
84.501420015575
20
43.8302653446173
30
0
41
1
10
84.5264895749641
20
43.7886086506455
30
0
41
1
10
84.5668111210942
20
43.7266037303463
30
0
41
1
10
84.58074369321
20
43.7059628672816
30
0
41
1
10
84.6093127631119
20
43.6652126266686
30
0
41
1
10
84.6239590134829
20
43.6450837452859
30
0
41
1
10
84.6690037783708
20
43.5854449094426
30
0
41
1
10
84.7005054485081
20
43.5466816221735
30
0
41
1
10
84.7666256587847
20
43.4712194811303
30
0
41
1
10
84.8012429154879
20
43.4345201359504
30
0
41
1
10
84.8738722544158
20
43.3632999234967
30
0
41
1
10
84.9118816209948
20
43.3287781409806
30
0
41
1
10
84.9518084923975
20
43.2954336380617
30
0
0
SPLINE
5
22C
100
AcDbEntity
8
1
62
256
6
ByLayer
370
18
48
1
60
0
100
AcDbSpline
70
4
71
3
72
26
73
22
40
0
40
0
40
0
40
0
40
0.124999999999932
40
0.124999999999932
40
0.249999999999865
40
0.249999999999865
40
0.312499999999926
40
0.312499999999926
40
0.374999999999987
40
0.374999999999987
40
0.499999999999948
40
0.499999999999948
40
0.62499999999991
40
0.62499999999991
40
0.749999999999871
40
0.749999999999871
40
0.812499999999907
40
0.812499999999907
40
0.874999999999942
40
0.874999999999942
40
1
40
1
40
1
40
1
41
1
10
84.9518084923976
20
47.1547408913463
30
0
41
1
10
84.9122260724226
20
47.1229949097827
30
0
41
1
10
84.8743777378829
20
47.0907005937115
30
0
41
1
10
84.8018214243012
20
47.0249228080047
30
0
41
1
10
84.7671152713189
20
46.9914401065919
30
0
41
1
10
84.7172625177112
20
46.9402820201409
30
0
41
1
10
84.7010134872932
20
46.923073849537
30
0
41
1
10
84.6692357653545
20
46.8883413084076
30
0
41
1
10
84.6537159118191
20
46.8708231499981
30
0
41
1
10
84.6086533433153
20
46.8183188220011
30
0
41
1
10
84.5804365613009
20
46.7832022987397
30
0
41
1
10
84.5272943205766
20
46.7127156391817
30
0
41
1
10
84.5023702595929
20
46.6773453209929
30
0
41
1
10
84.455587984515
20
46.6063852345749
30
0
41
1
10
84.4337302022949
20
46.5707943134743
30
0
41
1
10
84.4031498313861
20
46.5173274928108
30
0
41
1
10
84.393324845183
20
46.499492514591
30
0
41
1
10
84.3744057381647
20
46.463823240721
30
0
41
1
10
84.365322234454
20
46.4460069248689
30
0
41
1
10
84.3393019600637
20
46.3929074962949
30
0
41
1
10
84.323540871177
20
46.3578691784032
30
0
41
1
10
84.3093665425462
20
46.3234836432047
30
0
0
SPLINE
5
22D
100
AcDbEntity
8
1
62
256
6
ByLayer
370
18
48
1
60
0
100
AcDbSpline
70
4
71
3
72
24
73
20
40
0
40
0
40
0
40
0
40
0.250000000000117
40
0.250000000000117
40
0.375000000000265
40
0.375000000000265
40
0.500000000000414
40
0.500000000000414
40
0.625000000000563
40
0.625000000000563
40
0.687500000000518
40
0.687500000000518
40
0.750000000000474
40
0.750000000000474
40
0.875000000000384
40
0.875000000000384
40
0.937500000000192
40
0.937500000000192
40
1
40
1
40
1
40
1
41
1
10
86.1613106572441
20
42.7419747756065
30
0
41
1
10
86.2040374186315
20
42.7239990478559
30
0
41
1
10
86.2492358691881
20
42.7074019134982
30
0
41
1
10
86.3228681146135
20
42.6853181962914
30
0
41
1
10
86.3483971011475
20
42.6784301026921
30
0
41
1
10
86.4020686978305
20
42.6658294401577
30
0
41
1
10
86.4303002783623
20
42.6601055158669
30
0
41
1
10
86.4893255703413
20
42.6503555178514
30
0
41
1
10
86.5201928822922
20
42.6463020431393
30
0
41
1
10
86.5692819010729
20
42.6418345143264
30
0
41
1
10
86.5861129995903
20
42.6406159046112
30
0
41
1
10
86.6208976419765
20
42.6388150108183
30
0
41
1
10
86.6389346434356
20
42.6382330994885
30
0
41
1
10
86.6942165433499
20
42.6376345044933
30
0
41
1
10
86.7327095399716
20
42.638735764413
30
0
41
1
10
86.7936770632158
20
42.6432741152088
30
0
41
1
10
86.8146574057574
20
42.6452905553602
30
0
41
1
10
86.856587171222
20
42.6502621178718
30
0
41
1
10
86.8776578014255
20
42.6532216628942
30
0
41
1
10
86.8988349610476
20
42.6566567670134
30
0
0
SPLINE
5
22E
100
AcDbEntity
8
1
62
256
6
ByLayer
370
18
48
1
60
0
100
AcDbSpline
70
4
71
3
72
17
73
13
40
0
40
0
40
0
40
0
40
0.0695711193716127
40
0.225692534506245
40
0.385544817558413
40
0.554223785283296
40
0.669118387314873
40
0.75956993160484
40
0.82906779835033
40
0.896417498316689
40
0.963611253399949
40
1
40
1
40
1
40
1
41
1
10
97.9299595997688
20
-21.9601513722959
30
0
41
1
10
97.9197890680733
20
-21.8548374578397
30
0
41
1
10
97.8853458037719
20
-21.525067854377
30
0
41
1
10
97.816841882579
20
-21.0412649060442
30
0
41
1
10
97.7207451516688
20
-20.5139796588144
30
0
41
1
10
97.6174934481051
20
-20.1170616234279
30
0
41
1
10
97.5005535863274
20
-19.8110962786749
30
0
41
1
10
97.3673565801464
20
-19.5723826768696
30
0
41
1
10
97.1834402139335
20
-19.3550569609001
30
0
41
1
10
96.9349538752824
20
-19.1778288990409
30
0
41
1
10
96.6641394374986
20
-19.075610543833
30
0
41
1
10
96.4915514311734
20
-19.0753671628789
30
0
41
1
10
96.4288669993874
20
-19.0809479647493
30
0
0
SPLINE
5
22F
100
AcDbEntity
8
1
62
256
6
ByLayer
370
18
48
1
60
0
100
AcDbSpline
70
4
71
3
72
18
73
14
40
0
40
0
40
0
40
0
40
0.0487375038643745
40
0.102677181438505
40
0.154619460214824
40
0.209456048525169
40
0.273602056994073
40
0.359137903909231
40
0.494157767926169
40
0.625392076948064
40
0.764189484413581
40
0.896062973821244
40
1
40
1
40
1
40
1
41
1
10
96.4290193510817
20
-34.9226906483381
30
0
41
1
10
96.5321864843606
20
-34.9255191156624
30
0
41
1
10
96.7358954910079
20
-34.9063172478419
30
0
41
1
10
97.0130849686235
20
-34.7758172364289
30
0
41
1
10
97.2268968935227
20
-34.5990124018306
30
0
41
1
10
97.3797432768046
20
-34.4051304595575
30
0
41
1
10
97.4975083220324
20
-34.1921138856965
30
0
41
1
10
97.6080600483626
20
-33.9111085697766
30
0
41
1
10
97.7087481529026
20
-33.537795694589
30
0
41
1
10
97.8075185675636
20
-33.0225329340964
30
0
41
1
10
97.8931178868755
20
-32.4144254359477
30
0
41
1
10
97.9631199487882
20
-31.762155718731
30
0
41
1
10
98.0002561017404
20
-31.3033084444392
30
0
41
1
10
98.0153872270454
20
-31.0917867544253
30
0
0
SPLINE
5
230
100
AcDbEntity
8
1
62
256
6
ByLayer
370
18
48
1
60
0
100
AcDbSpline
70
4
71
3
72
8
73
4
40
0
40
0
40
0
40
0
40
1
40
1
40
1
40
1
41
1
10
48.932197087778
20
-20.842910826333
30
0
41
1
10
51.8011025127485
20
-28.6402218220298
30
0
41
1
10
55.7151520136678
20
-35.861674113571
30
0
41
1
10
60
20
-42.8788220032347
30
0
0
SPLINE
5
231
100
AcDbEntity
8
1
62
256
6
ByLayer
370
18
48
1
60
0
100
AcDbSpline
70
4
71
3
72
18
73
14
40
0
40
0
40
0
40
0
40
0.142798120979964
40
0.142798120979964
40
0.285901249475165
40
0.285901249475165
40
0.440144142464003
40
0.440144142464003
40
0.594387035452843
40
0.594387035452843
40
0.747973647187344
40
0.747973647187344
40
1
40
1
40
1
40
1
41
1
10
49.452006460475
20
-2.32899752399288
30
0
41
1
10
49.583899740529
20
-2.55370972660228
30
0
41
1
10
49.7587542444434
20
-2.72094712437945
30
0
41
1
10
50.1920743096674
20
-2.94419322621855
30
0
41
1
10
50.4221548093174
20
-2.99945032522084
30
0
41
1
10
50.9306766779704
20
-2.99945032522084
30
0
41
1
10
51.1827393909628
20
-2.93682561301824
30
0
41
1
10
51.6634171227155
20
-2.68632676420776
30
0
41
1
10
51.8417110889776
20
-2.51290438095214
30
0
41
1
10
52.0737517717727
20
-2.06990312644876
30
0
41
1
10
52.1323710073523
20
-1.77519859843648
30
0
41
1
10
52.1323710073523
20
-0.808813333662897
30
0
41
1
10
52.1323710073523
20
-0.208352857837895
30
0
41
1
10
52.1323710073523
20
0.392107617987165
30
0
0
SPLINE
5
232
100
AcDbEntity
8
1
62
256
6
ByLayer
370
18
48
1
60
0
100
AcDbSpline
70
4
71
3
72
8
73
4
40
0
40
0
40
0
40
0
40
1
40
1
40
1
40
1
41
1
10
52.1323710073523
20
0.392107617987165
30
0
41
1
10
50.2228494083466
20
0.392107617987165
30
0
41
1
10
48.3133278093411
20
0.392107617987165
30
0
41
1
10
46.4038062103356
20
0.392107617987165
30
0
0
SPLINE
5
233
100
AcDbEntity
8
1
62
256
6
ByLayer
370
18
48
1
60
0
100
AcDbSpline
70
4
71
3
72
8
73
4
40
0
40
0
40
0
40
0
40
1
40
1
40
1
40
1
41
1
10
46.4038062103356
20
0.392107617987165
30
0
41
1
10
46.4038062103356
20
-0.218176342104925
30
0
41
1
10
46.4038062103356
20
-0.828460302197016
30
0
41
1
10
46.4038062103356
20
-1.43874426228916
30
0
0
SPLINE
5
234
100
AcDbEntity
8
1
62
256
6
ByLayer
370
18
48
1
60
0
100
AcDbSpline
70
4
71
3
72
18
73
14
40
0
40
0
40
0
40
0
40
0.154114544201949
40
0.154114544201949
40
0.309373471553006
40
0.309373471553006
40
0.463785292787386
40
0.463785292787386
40
0.617349129125272
40
0.617349129125272
40
0.808674564562637
40
0.808674564562637
40
1
40
1
40
1
40
1
41
1
10
46.4038062103356
20
-1.43874426228916
30
0
41
1
10
46.4038062103356
20
-1.74327227456848
30
0
41
1
10
46.4350565870115
20
-2.0026954866234
30
0
41
1
10
46.56354362729
20
-2.42354856006352
30
0
41
1
10
46.6581165144016
20
-2.59714744741211
30
0
41
1
10
46.9079316363201
20
-2.87788470741577
30
0
41
1
10
47.0854497922397
20
-2.99524440447942
30
0
41
1
10
47.5468813041379
20
-3.18486859076188
30
0
41
1
10
47.7960130553512
20
-3.23275807656387
30
0
41
1
10
48.3983257009315
20
-3.23275807656387
30
0
41
1
10
48.6870254361611
20
-3.15417020242728
30
0
41
1
10
49.1764960532507
20
-2.8422745769476
30
0
41
1
10
49.3494227982106
20
-2.61879030987166
30
0
41
1
10
49.452006460475
20
-2.32899752399288
30
0
0
SPLINE
5
235
100
AcDbEntity
8
1
62
256
6
ByLayer
370
18
48
1
60
0
100
AcDbSpline
70
4
71
3
72
54
73
50
40
0
40
0
40
0
40
0
40
0.0156250000000049
40
0.0234375000000052
40
0.0234375000000052
40
0.0312500000000055
40
0.0312500000000055
40
0.062500000000003
40
0.062500000000003
40
0.124999999999994
40
0.124999999999994
40
0.15624999999999
40
0.15624999999999
40
0.171874999999987
40
0.171874999999987
40
0.179687499999986
40
0.179687499999986
40
0.187499999999985
40
0.187499999999985
40
0.249999999999982
40
0.249999999999982
40
0.31249999999998
40
0.31249999999998
40
0.374999999999977
40
0.374999999999977
40
0.382812499999977
40
0.382812499999977
40
0.390624999999977
40
0.390624999999977
40
0.406249999999977
40
0.406249999999977
40
0.437499999999978
40
0.437499999999978
40
0.499999999999981
40
0.499999999999981
40
0.562499999999983
40
0.562499999999983
40
0.624999999999986
40
0.624999999999986
40
0.687499999999988
40
0.687499999999988
40
0.74999999999999
40
0.74999999999999
40
0.812499999999993
40
0.812499999999993
40
0.874999999999995
40
0.874999999999995
40
0.937499999999998
40
1
40
1
40
1
40
1
41
1
10
38.3941525340234
20
24.8474418848378
30
0
41
1
10
38.2634679544782
20
24.9249795880972
30
0
41
1
10
38.069643196096
20
25.0437547077391
30
0
41
1
10
37.8791134940465
20
25.166147645544
30
0
41
1
10
37.7528257141563
20
25.2485379595591
30
0
41
1
10
37.6900013194582
20
25.2901620096748
30
0
41
1
10
37.3782725055298
20
25.4998673913663
30
0
41
1
10
37.1373971143909
20
25.6721041143957
30
0
41
1
10
36.4388888978648
20
26.2005971550819
30
0
41
1
10
36.0053157255777
20
26.5685989008869
30
0
41
1
10
35.3988930919211
20
27.1385184054573
30
0
41
1
10
35.2040915810867
20
27.3314885534362
30
0
41
1
10
34.9224905114926
20
27.6248143783621
30
0
41
1
10
34.8303910206897
20
27.7232351473086
30
0
41
1
10
34.6948474094155
20
27.8717594269339
30
0
41
1
10
34.6500847366206
20
27.9214341402135
30
0
41
1
10
34.5614887585174
20
28.0209924814
30
0
41
1
10
34.5177227561234
20
28.0707999680243
30
0
41
1
10
34.1285170547589
20
28.5192684372753
30
0
41
1
10
33.8157812047423
20
28.9192876129193
30
0
41
1
10
33.2471305111673
20
29.7167039604733
30
0
41
1
10
32.9912505149185
20
30.1141162420085
30
0
41
1
10
32.5288350926512
20
30.9018675144906
30
0
41
1
10
32.3223198595707
20
31.2922156616805
30
0
41
1
10
32.1142425909287
20
31.7251748568504
30
0
41
1
10
32.0914603436451
20
31.7731958209952
30
0
41
1
10
32.046559481172
20
31.8690592397136
30
0
41
1
10
32.0244290031043
20
31.9169279884961
30
0
41
1
10
31.9591349482008
20
32.0599940737934
30
0
41
1
10
31.9170536157618
20
32.1546796650857
30
0
41
1
10
31.7949349182494
20
32.4366323213789
30
0
41
1
10
31.7190190341902
20
32.6217948926221
30
0
41
1
10
31.5061627932345
20
33.1686511896461
30
0
41
1
10
31.3840699740494
20
33.5217103678898
30
0
41
1
10
31.1722669757806
20
34.203778951127
30
0
41
1
10
31.0825720340409
20
34.5327910572302
30
0
41
1
10
30.9295936982019
20
35.1658149387135
30
0
41
1
10
30.8663199383062
20
35.4698286464678
30
0
41
1
10
30.7610726793349
20
36.0519055442724
30
0
41
1
10
30.7191053613718
20
36.3299702888337
30
0
41
1
10
30.6519895025282
20
36.8591484990951
30
0
41
1
10
30.6270820229743
20
37.1082573457432
30
0
41
1
10
30.5899737738502
20
37.5759045179299
30
0
41
1
10
30.5777787440173
20
37.7944446364505
30
0
41
1
10
30.5622639463338
20
38.2011460181817
30
0
41
1
10
30.5589478134513
20
38.3893072284238
30
0
41
1
10
30.5579651848642
20
38.7352294803336
30
0
41
1
10
30.5626354024319
20
39.0507514907478
30
0
41
1
10
30.5732029636625
20
39.3050103026745
30
0
41
1
10
30.5788514718544
20
39.4165974487588
30
0
0
SPLINE
5
236
100
AcDbEntity
8
1
62
256
6
ByLayer
370
18
48
1
60
0
100
AcDbSpline
70
4
71
3
72
16
73
12
40
0
40
0
40
0
40
0
40
0.463076323289436
40
0.463076323289436
40
0.645417922138904
40
0.645417922138904
40
0.830321639273307
40
0.830321639273307
40
0.944651290970179
40
0.944651290970179
40
1
40
1
40
1
40
1
41
1
10
10.1056624327026
20
-37.9445010117191
30
0
41
1
10
10.1343124491107
20
-37.9796292418725
30
0
41
1
10
10.1735051369362
20
-38.0140162383101
30
0
41
1
10
10.2540961394292
20
-38.0567528229612
30
0
41
1
10
10.2802114910957
20
-38.0683724898051
30
0
41
1
10
10.3409361701455
20
-38.0892608704532
30
0
41
1
10
10.3764451765786
20
-38.0987416550407
30
0
41
1
10
10.4416217638846
20
-38.1096208051146
30
0
41
1
10
10.468977488351
20
-38.112760822145
30
0
41
1
10
10.5107386416704
20
-38.1150674153361
30
0
41
1
10
10.524733816084
20
-38.1154578595256
30
0
41
1
10
10.5386751345948
20
-38.1154578595256
30
0
0
SPLINE
5
237
100
AcDbEntity
8
1
62
256
6
ByLayer
370
18
48
1
60
0
100
AcDbSpline
70
4
71
3
72
16
73
12
40
0
40
0
40
0
40
0
40
0.111412770144071
40
0.111412770144071
40
0.248965452398456
40
0.248965452398456
40
0.467123877727651
40
0.467123877727651
40
0.889866934614001
40
0.889866934614001
40
1
40
1
40
1
40
1
41
1
10
13.4613248654051
20
-38.1154578595255
30
0
41
1
10
13.4891025941389
20
-38.1154578595255
30
0
41
1
10
13.5172256117113
20
-38.1138543599704
30
0
41
1
10
13.5755663174452
20
-38.1074356116134
30
0
41
1
10
13.6057164246602
20
-38.1019214555357
30
0
41
1
10
13.6749461812577
20
-38.0851194427552
30
0
41
1
10
13.7106943542741
20
-38.0721266199022
30
0
41
1
10
13.7995108663105
20
-38.0315976751083
30
0
41
1
10
13.8406224917979
20
-38.0009250413257
30
0
41
1
10
13.8799825988553
20
-37.9612613686128
30
0
41
1
10
13.8874729933638
20
-37.9529177724503
30
0
41
1
10
13.8943375672975
20
-37.9445010117191
30
0
0
SPLINE
5
238
100
AcDbEntity
8
1
62
256
6
ByLayer
370
18
48
1
60
0
100
AcDbSpline
70
4
71
3
72
16
73
12
40
0
40
0
40
0
40
0
40
0.463076323289526
40
0.463076323289526
40
0.645417922138983
40
0.645417922138983
40
0.830321639273368
40
0.830321639273368
40
0.944651290970226
40
0.944651290970226
40
1
40
1
40
1
40
1
41
1
10
13.8943375672974
20
-12.6576002058704
30
0
41
1
10
13.8656875508893
20
-12.5522940543948
30
0
41
1
10
13.8264948630637
20
-12.4476658274361
30
0
41
1
10
13.7459038605708
20
-12.3160508976659
30
0
41
1
10
13.7197885089043
20
-12.280072086829
30
0
41
1
10
13.6590638298544
20
-12.2151290969611
30
0
41
1
10
13.6235548234214
20
-12.1854983827961
30
0
41
1
10
13.5583782361154
20
-12.1514192676284
30
0
41
1
10
13.531022511649
20
-12.1415603847926
30
0
41
1
10
13.4892613583295
20
-12.1343167157599
30
0
41
1
10
13.475266183916
20
-12.1330899674705
30
0
41
1
10
13.4613248654052
20
-12.1330899674705
30
0
0
SPLINE
5
239
100
AcDbEntity
8
1
62
256
6
ByLayer
370
18
48
1
60
0
100
AcDbSpline
70
4
71
3
72
16
73
12
40
0
40
0
40
0
40
0
40
0.111412770144084
40
0.111412770144084
40
0.24896545239847
40
0.24896545239847
40
0.467123877727688
40
0.467123877727688
40
0.889866934614097
40
0.889866934614097
40
1
40
1
40
1
40
1
41
1
10
10.5386751345949
20
-12.1330899674707
30
0
41
1
10
10.5108974058611
20
-12.1330899674707
30
0
41
1
10
10.4827743882887
20
-12.1381298129189
30
0
41
1
10
10.4244336825546
20
-12.1582682733017
30
0
41
1
10
10.3942835753398
20
-12.1755507890902
30
0
41
1
10
10.3250538187423
20
-12.2280340568692
30
0
41
1
10
10.2893056457258
20
-12.2684634146654
30
0
41
1
10
10.2004891336895
20
-12.3937525277223
30
0
41
1
10
10.1593775082021
20
-12.4875806371415
30
0
41
1
10
10.1200174011447
20
-12.6072726192705
30
0
41
1
10
10.1125270066362
20
-12.6323687416998
30
0
41
1
10
10.1056624327025
20
-12.6576002058704
30
0
0
SPLINE
5
23A
100
AcDbEntity
8
1
62
256
6
ByLayer
370
18
48
1
60
0
100
AcDbSpline
70
4
71
3
72
16
73
12
40
0
40
0
40
0
40
0
40
0.463076323289496
40
0.463076323289496
40
0.645417922138953
40
0.645417922138953
40
0.830321639273342
40
0.830321639273342
40
0.944651290970198
40
0.944651290970198
40
1
40
1
40
1
40
1
41
1
10
10.1056624327026
20
12.6576002058703
30
0
41
1
10
10.1343124491107
20
12.5522940543948
30
0
41
1
10
10.1735051369362
20
12.4476658274361
30
0
41
1
10
10.2540961394292
20
12.3160508976659
30
0
41
1
10
10.2802114910957
20
12.2800720868289
30
0
41
1
10
10.3409361701455
20
12.2151290969611
30
0
41
1
10
10.3764451765786
20
12.1854983827961
30
0
41
1
10
10.4416217638846
20
12.1514192676284
30
0
41
1
10
10.468977488351
20
12.1415603847926
30
0
41
1
10
10.5107386416704
20
12.1343167157599
30
0
41
1
10
10.524733816084
20
12.1330899674705
30
0
41
1
10
10.5386751345948
20
12.1330899674705
30
0
0
SPLINE
5
23B
100
AcDbEntity
8
1
62
256
6
ByLayer
370
18
48
1
60
0
100
AcDbSpline
70
4
71
3
72
16
73
12
40
0
40
0
40
0
40
0
40
0.111412770144073
40
0.111412770144073
40
0.248965452398457
40
0.248965452398457
40
0.467123877727669
40
0.467123877727669
40
0.889866934614031
40
0.889866934614031
40
1
40
1
40
1
40
1
41
1
10
13.4613248654051
20
12.1330899674706
30
0
41
1
10
13.4891025941389
20
12.1330899674706
30
0
41
1
10
13.5172256117113
20
12.1381298129189
30
0
41
1
10
13.5755663174452
20
12.1582682733016
30
0
41
1
10
13.6057164246602
20
12.17555078909
30
0
41
1
10
13.6749461812577
20
12.2280340568692
30
0
41
1
10
13.7106943542742
20
12.2684634146653
30
0
41
1
10
13.7995108663105
20
12.3937525277222
30
0
41
1
10
13.8406224917979
20
12.4875806371415
30
0
41
1
10
13.8799825988553
20
12.6072726192704
30
0
41
1
10
13.8874729933638
20
12.6323687416997
30
0
41
1
10
13.8943375672975
20
12.6576002058703
30
0
0
SPLINE
5
23C
100
AcDbEntity
8
1
62
256
6
ByLayer
370
18
48
1
60
0
100
AcDbSpline
70
4
71
3
72
16
73
12
40
0
40
0
40
0
40
0
40
0.463076323289432
40
0.463076323289432
40
0.645417922138914
40
0.645417922138914
40
0.830321639273326
40
0.830321639273326
40
0.944651290970197
40
0.944651290970197
40
1
40
1
40
1
40
1
41
1
10
13.8943375672974
20
37.9445010117191
30
0
41
1
10
13.8656875508893
20
37.9796292418724
30
0
41
1
10
13.8264948630637
20
38.0140162383101
30
0
41
1
10
13.7459038605708
20
38.0567528229611
30
0
41
1
10
13.7197885089043
20
38.068372489805
30
0
41
1
10
13.6590638298545
20
38.0892608704532
30
0
41
1
10
13.6235548234214
20
38.0987416550407
30
0
41
1
10
13.5583782361154
20
38.1096208051146
30
0
41
1
10
13.531022511649
20
38.1127608221449
30
0
41
1
10
13.4892613583295
20
38.1150674153361
30
0
41
1
10
13.475266183916
20
38.1154578595255
30
0
41
1
10
13.4613248654052
20
38.1154578595255
30
0
0
SPLINE
5
23D
100
AcDbEntity
8
1
62
256
6
ByLayer
370
18
48
1
60
0
100
AcDbSpline
70
4
71
3
72
16
73
12
40
0
40
0
40
0
40
0
40
0.11141277014408
40
0.11141277014408
40
0.248965452398459
40
0.248965452398459
40
0.467123877727676
40
0.467123877727676
40
0.88986693461413
40
0.88986693461413
40
1
40
1
40
1
40
1
41
1
10
10.5386751345949
20
38.1154578595255
30
0
41
1
10
10.5108974058611
20
38.1154578595255
30
0
41
1
10
10.4827743882887
20
38.1138543599703
30
0
41
1
10
10.4244336825546
20
38.1074356116134
30
0
41
1
10
10.3942835753398
20
38.1019214555356
30
0
41
1
10
10.3250538187423
20
38.0851194427551
30
0
41
1
10
10.2893056457258
20
38.0721266199021
30
0
41
1
10
10.2004891336895
20
38.0315976751082
30
0
41
1
10
10.1593775082021
20
38.0009250413257
30
0
41
1
10
10.1200174011447
20
37.9612613686127
30
0
41
1
10
10.1125270066362
20
37.9529177724502
30
0
41
1
10
10.1056624327025
20
37.9445010117191
30
0
0
SPLINE
5
23E
100
AcDbEntity
8
1
62
256
6
ByLayer
370
18
48
1
60
0
100
AcDbSpline
70
4
71
3
72
8
73
4
40
0
40
0
40
0
40
0
40
1
40
1
40
1
40
1
41
1
10
59.3675649282693
20
-52.0000000000001
30
0
41
1
10
59.3662567766869
20
-52.0000000000001
30
0
41
1
10
59.580151886971
20
-52.0000000000001
30
0
41
1
10
60
20
-52.0000000000001
30
0
0
SPLINE
5
23F
100
AcDbEntity
8
1
62
256
6
ByLayer
370
18
48
1
60
0
100
AcDbSpline
70
4
71
3
72
10
73
6
40
0
40
0
40
0
40
0
40
0.500156454540597
40
0.500156454540597
40
1
40
1
40
1
40
1
41
1
10
49.3925314856593
20
-2.32899752399288
30
0
41
1
10
49.289947823395
20
-2.61879030987166
30
0
41
1
10
49.1170210784352
20
-2.8422745769476
30
0
41
1
10
48.6277035732365
20
-3.1540726379825
30
0
41
1
10
48.3392119429503
20
-3.23265971361616
30
0
41
1
10
48.005348146935
20
-3.23275798428546
30
0
0
SPLINE
5
240
100
AcDbEntity
8
1
62
256
6
ByLayer
370
18
48
1
60
0
100
AcDbSpline
70
4
71
3
72
16
73
12
40
0
40
0
40
0
40
0
40
0.253073295762151
40
0.253073295762151
40
0.458583170689571
40
0.458583170689571
40
0.727548587131675
40
0.727548587131675
40
0.999781179187766
40
0.999781179187766
40
1
40
1
40
1
40
1
41
1
10
49.6651109311046
20
-0.242735052772616
30
0
41
1
10
49.6651109311046
20
-0.589012873187073
30
0
41
1
10
49.6651109311046
20
-0.935290693601473
30
0
41
1
10
49.6651109311046
20
-1.56276575116095
30
0
41
1
10
49.6885586253363
20
-1.76414717863605
30
0
41
1
10
49.7900624298055
20
-2.0476494045954
30
0
41
1
10
49.884933064528
20
-2.17059384018631
30
0
41
1
10
50.1503217581519
20
-2.33366578484555
30
0
41
1
10
50.3172499269276
20
-2.37443113872814
30
0
41
1
10
50.5181821886105
20
-2.37443113872814
30
0
41
1
10
50.5183435534824
20
-2.37443111098878
30
0
41
1
10
50.5185049034006
20
-2.37443105551017
30
0
0
SPLINE
5
241
100
AcDbEntity
8
1
62
256
6
ByLayer
370
18
48
1
60
0
100
AcDbSpline
70
4
71
3
72
10
73
6
40
0
40
0
40
0
40
0
40
0.660338983050847
40
0.660338983050847
40
1
40
1
40
1
40
1
41
1
10
47.019917925575
20
-0.242735052772616
30
0
41
1
10
47.019917925575
20
-0.641404789278113
30
0
41
1
10
47.019917925575
20
-1.04007452578367
30
0
41
1
10
47.019917925575
20
-1.64380949636433
30
0
41
1
10
47.0287108109118
20
-1.78747795377035
30
0
41
1
10
47.0477620624752
20
-1.87097757004051
30
0
0
SPLINE
5
242
100
AcDbEntity
8
1
62
256
6
ByLayer
370
18
48
1
60
0
100
AcDbSpline
70
4
71
3
72
8
73
4
40
0
40
0
40
0
40
0
40
1
40
1
40
1
40
1
41
1
10
47.0477620624752
20
-1.87097757004051
30
0
41
1
10
47.0785371611545
20
-2.01710189851326
30
0
41
1
10
47.1312944731761
20
-2.13866751631832
30
0
41
1
10
47.2045685176506
20
-2.23690235898908
30
0
0
SPLINE
5
243
100
AcDbEntity
8
1
62
256
6
ByLayer
370
18
48
1
60
0
100
AcDbSpline
70
4
71
3
72
10
73
6
40
0
40
0
40
0
40
0
40
0.501198341444862
40
0.501198341444862
40
1
40
1
40
1
40
1
41
1
10
47.2045685176506
20
-2.23690235898908
30
0
41
1
10
47.2763770812356
20
-2.33513720165985
30
0
41
1
10
47.3833571861684
20
-2.41618094686322
30
0
41
1
10
47.6611328150744
20
-2.5435809050353
30
0
41
1
10
47.8224461569934
20
-2.57447838053872
30
0
41
1
10
48.0037846747063
20
-2.57458435710186
30
0
0
SPLINE
5
244
100
AcDbEntity
8
1
62
256
6
ByLayer
370
18
48
1
60
0
100
AcDbSpline
70
4
71
3
72
16
73
12
40
0
40
0
40
0
40
0
40
0.352746459658273
40
0.352746459658273
40
0.567712604807895
40
0.567712604807895
40
0.783597308221064
40
0.783597308221064
40
0.999482011634231
40
0.999482011634231
40
1
40
1
40
1
40
1
41
1
10
52.0728960325367
20
0.392107617987165
30
0
41
1
10
52.0728960325367
20
-0.208352857837895
30
0
41
1
10
52.0728960325367
20
-0.808813333662897
30
0
41
1
10
52.0728960325367
20
-1.77519859843648
30
0
41
1
10
52.0142767969571
20
-2.06990312644876
30
0
41
1
10
51.7822361141619
20
-2.51290438095214
30
0
41
1
10
51.6039421478999
20
-2.68632676420776
30
0
41
1
10
51.1232644161472
20
-2.93682561301824
30
0
41
1
10
50.8712017031548
20
-2.99945032522084
30
0
41
1
10
50.6067822201622
20
-2.99945032522084
30
0
41
1
10
50.6061493952919
20
-2.99944995565107
30
0
41
1
10
50.6055166684104
20
-2.99944921649035
30
0
0
SPLINE
5
245
100
AcDbEntity
8
1
62
256
6
ByLayer
370
18
48
1
60
0
100
AcDbSpline
70
4
71
3
72
10
73
6
40
0
40
0
40
0
40
0
40
0.339661016949153
40
0.339661016949153
40
1
40
1
40
1
40
1
41
1
10
47.1072370372907
20
-1.87097757004051
30
0
41
1
10
47.0881857857274
20
-1.78747795377035
30
0
41
1
10
47.0793929003904
20
-1.64380949636433
30
0
41
1
10
47.0793929003904
20
-1.04007452578367
30
0
41
1
10
47.0793929003904
20
-0.641404789278113
30
0
41
1
10
47.0793929003904
20
-0.242735052772616
30
0
0
SPLINE
5
246
100
AcDbEntity
8
1
62
256
6
ByLayer
370
18
48
1
60
0
100
AcDbSpline
70
4
71
3
72
8
73
4
40
0
40
0
40
0
40
0
40
1
40
1
40
1
40
1
41
1
10
47.2640434924662
20
-2.23690235898908
30
0
41
1
10
47.1907694479918
20
-2.13866751631832
30
0
41
1
10
47.1380121359701
20
-2.01710189851326
30
0
41
1
10
47.1072370372907
20
-1.87097757004051
30
0
0
SPLINE
5
247
100
AcDbEntity
8
1
62
256
6
ByLayer
370
18
48
1
60
0
100
AcDbSpline
70
4
71
3
72
18
73
14
40
0
40
0
40
0
40
0
40
0.204128585976027
40
0.204128585976027
40
0.372805636555774
40
0.372805636555774
40
0.543139219592337
40
0.543139219592337
40
0.712268937494883
40
0.712268937494883
40
0.855913355439514
40
0.855913355439514
40
1
40
1
40
1
40
1
41
1
10
49.0489992158651
20
-0.242735052772616
30
0
41
1
10
49.0489992158651
20
-0.612752960165835
30
0
41
1
10
49.0489992158651
20
-0.982770867559054
30
0
41
1
10
49.0489992158651
20
-1.65854472276499
30
0
41
1
10
49.0175970233911
20
-1.89344075340648
30
0
41
1
10
48.8892617989108
20
-2.2184833259883
30
0
41
1
10
48.7790013994738
20
-2.34430515265024
30
0
41
1
10
48.4642723409586
20
-2.52915101593459
30
0
41
1
10
48.2781562679934
20
-2.57458463066979
30
0
41
1
10
47.882476427831
20
-2.57458463066979
30
0
41
1
10
47.720846237837
20
-2.54369026761174
30
0
41
1
10
47.442832160984
20
-2.41618094686322
30
0
41
1
10
47.3358520560513
20
-2.33513720165985
30
0
41
1
10
47.2640434924662
20
-2.23690235898908
30
0
0
SPLINE
5
248
100
AcDbEntity
8
1
62
256
6
ByLayer
370
18
48
1
60
0
100
AcDbSpline
70
4
71
3
72
8
73
4
40
0
40
0
40
0
40
0
40
1
40
1
40
1
40
1
41
1
10
47.0793929003904
20
-0.242735052772616
30
0
41
1
10
47.735928338882
20
-0.242735052772616
30
0
41
1
10
48.3924637773736
20
-0.242735052772616
30
0
41
1
10
49.0489992158651
20
-0.242735052772616
30
0
0
SPLINE
5
249
100
AcDbEntity
8
1
62
256
6
ByLayer
370
18
48
1
60
0
100
AcDbSpline
70
4
71
3
72
22
73
18
40
0
40
0
40
0
40
0
40
0.118805648275417
40
0.118805648275417
40
0.246422968673564
40
0.246422968673564
40
0.37500320063662
40
0.37500320063662
40
0.502546300841916
40
0.502546300841916
40
0.63799905067235
40
0.63799905067235
40
0.771826176187373
40
0.771826176187373
40
0.874080198991857
40
0.874080198991857
40
1
40
1
40
1
40
1
41
1
10
51.4567843172973
20
-0.242735052772616
30
0
41
1
10
51.4567843172973
20
-0.562816915141525
30
0
41
1
10
51.4567843172973
20
-0.882898777510434
30
0
41
1
10
51.4567843172973
20
-1.54680258922696
30
0
41
1
10
51.42854509147
20
-1.79100053333286
30
0
41
1
10
51.3234255563537
20
-2.07481486858228
30
0
41
1
10
51.2234752145822
20
-2.18348205469391
30
0
41
1
10
50.9350731206389
20
-2.33636513719318
30
0
41
1
10
50.7665428183475
20
-2.37443113872814
30
0
41
1
10
50.3767249017432
20
-2.37443113872814
30
0
41
1
10
50.2097967329674
20
-2.33366578484555
30
0
41
1
10
49.9444080393436
20
-2.17059384018631
30
0
41
1
10
49.8495374046212
20
-2.0476494045954
30
0
41
1
10
49.7480336001519
20
-1.76414717863605
30
0
41
1
10
49.72458590592
20
-1.56276575116095
30
0
41
1
10
49.72458590592
20
-0.935290693601473
30
0
41
1
10
49.72458590592
20
-0.589012873187073
30
0
41
1
10
49.72458590592
20
-0.242735052772616
30
0
0
SPLINE
5
24A
100
AcDbEntity
8
1
62
256
6
ByLayer
370
18
48
1
60
0
100
AcDbSpline
70
4
71
3
72
8
73
4
40
0
40
0
40
0
40
0
40
1
40
1
40
1
40
1
41
1
10
49.72458590592
20
-0.242735052772616
30
0
41
1
10
50.3019853763791
20
-0.242735052772616
30
0
41
1
10
50.8793848468382
20
-0.242735052772616
30
0
41
1
10
51.4567843172973
20
-0.242735052772616
30
0
0
SPLINE
5
24B
100
AcDbEntity
8
1
62
256
6
ByLayer
370
18
48
1
60
0
100
AcDbSpline
70
4
71
3
72
8
73
4
40
0
40
0
40
0
40
0
40
1
40
1
40
1
40
1
41
1
10
60.0000000000001
20
-52.0000000000001
30
0
41
1
10
60.3161245693567
20
-52.0000000000001
30
0
41
1
10
60.6504047112882
20
-52.0000000000001
30
0
41
1
10
61
20
-52.0000000000001
30
0
0
SPLINE
5
24C
100
AcDbEntity
8
1
62
256
6
ByLayer
370
18
48
1
60
0
100
AcDbSpline
70
2053
71
3
72
193
73
189
40
0
40
0
40
0
40
0
40
0.0312500000000112
40
0.0312500000000112
40
0.0625000000000223
40
0.0625000000000223
40
0.0937500000000334
40
0.0937500000000334
40
0.109375000000039
40
0.109375000000039
40
0.117187500000042
40
0.117187500000042
40
0.125000000000045
40
0.125000000000045
40
0.140625000000053
40
0.140625000000053
40
0.156250000000061
40
0.156250000000061
40
0.164062500000065
40
0.164062500000065
40
0.16796875000007
40
0.16796875000007
40
0.171875000000075
40
0.171875000000075
40
0.17968750000008
40
0.17968750000008
40
0.187500000000086
40
0.187500000000086
40
0.191406250000091
40
0.191406250000091
40
0.195312500000097
40
0.195312500000097
40
0.203125000000108
40
0.203125000000108
40
0.21093750000012
40
0.21093750000012
40
0.212890625000119
40
0.212890625000119
40
0.214843750000118
40
0.214843750000118
40
0.218750000000116
40
0.218750000000116
40
0.226562500000112
40
0.226562500000112
40
0.228515625000112
40
0.228515625000112
40
0.230468750000111
40
0.234375000000109
40
0.234375000000109
40
0.242187500000106
40
0.242187500000106
40
0.250000000000102
40
0.250000000000102
40
0.253906250000101
40
0.253906250000101
40
0.257812500000099
40
0.257812500000099
40
0.265625000000103
40
0.265625000000103
40
0.273437500000106
40
0.273437500000106
40
0.277343750000108
40
0.277343750000108
40
0.28125000000011
40
0.28125000000011
40
0.296875000000124
40
0.296875000000124
40
0.312500000000138
40
0.312500000000138
40
0.31640625000014
40
0.31640625000014
40
0.320312500000143
40
0.320312500000143
40
0.328125000000148
40
0.328125000000148
40
0.343750000000158
40
0.343750000000158
40
0.359375000000168
40
0.359375000000168
40
0.375000000000178
40
0.375000000000178
40
0.390625000000188
40
0.390625000000188
40
0.398437500000192
40
0.398437500000192
40
0.406250000000197
40
0.406250000000197
40
0.437500000000218
40
0.437500000000218
40
0.468750000000239
40
0.468750000000239
40
0.50000000000026
40
0.50000000000026
40
0.531250000000281
40
0.531250000000281
40
0.562500000000302
40
0.562500000000302
40
0.570312500000307
40
0.570312500000307
40
0.578125000000312
40
0.578125000000312
40
0.593750000000321
40
0.593750000000321
40
0.609375000000329
40
0.609375000000329
40
0.625000000000338
40
0.625000000000338
40
0.640625000000346
40
0.640625000000346
40
0.648437500000351
40
0.648437500000351
40
0.656250000000355
40
0.656250000000355
40
0.671875000000363
40
0.671875000000363
40
0.679687500000367
40
0.679687500000367
40
0.687500000000371
40
0.687500000000371
40
0.69140625000037
40
0.69140625000037
40
0.69531250000037
40
0.69531250000037
40
0.703125000000368
40
0.703125000000368
40
0.710937500000366
40
0.710937500000366
40
0.714843750000365
40
0.714843750000365
40
0.718750000000364
40
0.718750000000364
40
0.722656250000364
40
0.722656250000364
40
0.724609375000363
40
0.724609375000363
40
0.726562500000363
40
0.726562500000363
40
0.734375000000385
40
0.734375000000385
40
0.736328125000387
40
0.736328125000387
40
0.738281250000388
40
0.742187500000383
40
0.742187500000383
40
0.744140625000381
40
0.744140625000381
40
0.746093750000378
40
0.746093750000378
40
0.75000000000038
40
0.75000000000038
40
0.757812500000377
40
0.757812500000377
40
0.761718750000375
40
0.761718750000375
40
0.765625000000373
40
0.765625000000373
40
0.773437500000365
40
0.773437500000365
40
0.781250000000356
40
0.781250000000356
40
0.785156250000352
40
0.785156250000352
40
0.789062500000348
40
0.789062500000348
40
0.796875000000335
40
0.796875000000335
40
0.81250000000031
40
0.81250000000031
40
0.828125000000286
40
0.828125000000286
40
0.843750000000261
40
0.843750000000261
40
0.859375000000236
40
0.859375000000236
40
0.875000000000211
40
0.875000000000211
40
0.906250000000159
40
0.906250000000159
40
0.937500000000106
40
0.937500000000106
40
0.968750000000054
40
0.968750000000054
40
0.984375000000028
40
0.984375000000028
40
0.992187500000014
40
0.996093750000007
40
0.996093750000007
40
1
40
1
40
1
40
1
41
1
10
61.05
20
-48.5
30
0
41
1
10
61.0500000000001
20
-48.4145012091804
30
0
41
1
10
61.0562305707859
20
-48.3281685578559
30
0
41
1
10
61.0822959087672
20
-48.1539501166994
30
0
41
1
10
61.1021153202439
20
-48.0660632779994
30
0
41
1
10
61.1575366781072
20
-47.888912689799
30
0
41
1
10
61.1930973574284
20
-47.7996462979719
30
0
41
1
10
61.2612692620355
20
-47.6649308000497
30
0
41
1
10
61.2864820272245
20
-47.6198907127546
30
0
41
1
10
61.3286645209754
20
-47.5521713440626
30
0
41
1
10
61.3434773501406
20
-47.5295407277696
30
0
41
1
10
61.3745448838911
20
-47.4844572187392
30
0
41
1
10
61.3908046539256
20
-47.4619925334975
30
0
41
1
10
61.4419304573199
20
-47.3948704994891
30
0
41
1
10
61.4791261925383
20
-47.3504815391053
30
0
41
1
10
61.5609631362883
20
-47.2627094288163
30
0
41
1
10
61.6055889564537
20
-47.2193229857906
30
0
41
1
10
61.6795476123462
20
-47.1553255836752
30
0
41
1
10
61.7053771866854
20
-47.1341749384607
30
0
41
1
10
61.7461600657418
20
-47.1027828753191
30
0
41
1
10
61.7600949100786
20
-47.0923746761979
30
0
41
1
10
61.7887031899061
20
-47.07168266476
30
0
41
1
10
61.8033980722114
20
-47.0613844714519
30
0
41
1
10
61.8485189429792
20
-47.0308152042915
30
0
41
1
10
61.8799364447311
20
-47.0108911614524
30
0
41
1
10
61.9458569162423
20
-46.9721251126994
30
0
41
1
10
61.9803572708899
20
-46.9532820842563
30
0
41
1
10
62.0348514580434
20
-46.92600497545
30
0
41
1
10
62.0534749709094
20
-46.9170777713575
30
0
41
1
10
62.0917355561442
20
-46.8995925898203
30
0
41
1
10
62.1113117733105
20
-46.8910640863706
30
0
41
1
10
62.1711738647011
20
-46.8663101020837
30
0
41
1
10
62.2127021708675
20
-46.8508580719159
30
0
41
1
10
62.2995626303988
20
-46.8224570711379
30
0
41
1
10
62.3448895074392
20
-46.8095045537032
30
0
41
1
10
62.4044488484443
20
-46.795245087292
30
0
41
1
10
62.4165066992752
20
-46.7924903904941
30
0
41
1
10
62.4409319612835
20
-46.7871875987639
30
0
41
1
10
62.4532894109826
20
-46.784642482948
30
0
41
1
10
62.4904964078947
20
-46.7774013520702
30
0
41
1
10
62.5155899474049
20
-46.7730748964409
30
0
41
1
10
62.5917773334402
20
-46.7616729633332
30
0
41
1
10
62.643773883659
20
-46.7561681724219
30
0
41
1
10
62.7104607943835
20
-46.7522410826143
30
0
41
1
10
62.7239210348263
20
-46.7516028954311
30
0
41
1
10
62.7507697284244
20
-46.7506409583181
30
0
41
1
10
62.7909590934811
20
-46.7496655714374
30
0
41
1
10
62.8309012913402
20
-46.7500716530402
30
0
41
1
10
62.9104635994946
20
-46.7526837062549
30
0
41
1
10
62.9630764295458
20
-46.7568212395986
30
0
41
1
10
63.0674652406113
20
-46.7697605779394
30
0
41
1
10
63.117734211991
20
-46.7783684507513
30
0
41
1
10
63.190634428942
20
-46.7939747076509
30
0
41
1
10
63.2145186234694
20
-46.7996284983366
30
0
41
1
10
63.2615096016931
20
-46.8117767267281
30
0
41
1
10
63.2846772571612
20
-46.8182921727214
30
0
41
1
10
63.3522130976796
20
-46.8387433267226
30
0
41
1
10
63.3948853810018
20
-46.8536325799794
30
0
41
1
10
63.4764141609149
20
-46.8854170256228
30
0
41
1
10
63.5152651294203
20
-46.9023152421781
30
0
41
1
10
63.5711150239764
20
-46.9289154009147
30
0
41
1
10
63.5893254417311
20
-46.9379919108866
30
0
41
1
10
63.6249902365001
20
-46.9565314926764
30
0
41
1
10
63.6424397627206
20
-46.9659940742006
30
0
41
1
10
63.7272261261477
20
-47.0137918523301
30
0
41
1
10
63.7879365579644
20
-47.0538740915785
30
0
41
1
10
63.8991551792501
20
-47.1364910423843
30
0
41
1
10
63.949611960351
20
-47.1790408269327
30
0
41
1
10
64.0076177593706
20
-47.2333461810656
30
0
41
1
10
64.0189629271891
20
-47.2442639689142
30
0
41
1
10
64.0411661505642
20
-47.2662049666486
30
0
41
1
10
64.0520333914533
20
-47.2772381122501
30
0
41
1
10
64.0838257401598
20
-47.3103662501968
30
0
41
1
10
64.1039710591182
20
-47.3325149836508
30
0
41
1
10
64.1616076105329
20
-47.3991040645864
30
0
41
1
10
64.1963155653776
20
-47.443685219939
30
0
41
1
10
64.2596204604023
20
-47.5330428219072
30
0
41
1
10
64.2882093641792
20
-47.5778202940028
30
0
41
1
10
64.340142485339
20
-47.6674475111823
30
0
41
1
10
64.3634826284346
20
-47.7122977802322
30
0
41
1
10
64.4055284708255
20
-47.801980626478
30
0
41
1
10
64.4242319194601
20
-47.8468134961051
30
0
41
1
10
64.4491429584915
20
-47.9139983048458
30
0
41
1
10
64.4569214902048
20
-47.9363826367189
30
0
41
1
10
64.471472403888
20
-47.9811229818793
30
0
41
1
10
64.4782438012254
20
-48.0034797775001
30
0
41
1
10
64.5095739098953
20
-48.1147592313364
30
0
41
1
10
64.5267309129132
20
-48.202516835744
30
0
41
1
10
64.5477440162512
20
-48.3755542998624
30
0
41
1
10
64.5515810815156
20
-48.4608338172521
30
0
41
1
10
64.5472671812109
20
-48.6289483325083
30
0
41
1
10
64.5391097850111
20
-48.7117831915962
30
0
41
1
10
64.5113469738866
20
-48.8750286649475
30
0
41
1
10
64.4917428974719
20
-48.9554392516132
30
0
41
1
10
64.4409181415467
20
-49.1138457426733
30
0
41
1
10
64.4097082718813
20
-49.1918417315722
30
0
41
1
10
64.3627815792305
20
-49.287826340002
30
0
41
1
10
64.3529923950051
20
-49.3069569207078
30
0
41
1
10
64.3326402460867
20
-49.3449726190218
30
0
41
1
10
64.3220730491163
20
-49.3638673009775
30
0
41
1
10
64.2891622414087
20
-49.420210921983
30
0
41
1
10
64.2656130777443
20
-49.4573197720094
30
0
41
1
10
64.2150296119115
20
-49.5306182789707
30
0
41
1
10
64.187997096013
20
-49.5668080868776
30
0
41
1
10
64.130043492284
20
-49.638244148415
30
0
41
1
10
64.099125695006
20
-49.6734906867852
30
0
41
1
10
64.0327879009009
20
-49.7429971660421
30
0
41
1
10
63.9973744856254
20
-49.7772576852311
30
0
41
1
10
63.940155403229
20
-49.8278531055109
30
0
41
1
10
63.9203959471403
20
-49.8445853977961
30
0
41
1
10
63.8793269664283
20
-49.8777700351926
30
0
41
1
10
63.8580103621184
20
-49.8942255111313
30
0
41
1
10
63.7917623150703
20
-49.9428826422691
30
0
41
1
10
63.7444763977522
20
-49.9744656397115
30
0
41
1
10
63.6672413903672
20
-50.0202922475578
30
0
41
1
10
63.6404367385335
20
-50.0353082896799
30
0
41
1
10
63.5842656453189
20
-50.0647468975554
30
0
41
1
10
63.5549030490418
20
-50.0791701526861
30
0
41
1
10
63.5084516800156
20
-50.1002766833362
30
0
41
1
10
63.4925646857233
20
-50.1072237867138
30
0
41
1
10
63.4598698074439
20
-50.1209213372998
30
0
41
1
10
63.4430239750255
20
-50.1276857358397
30
0
41
1
10
63.3913122367902
20
-50.1474867486759
30
0
41
1
10
63.3552278873576
20
-50.160065545712
30
0
41
1
10
63.2789042470146
20
-50.1836704977967
30
0
41
1
10
63.2386802520778
20
-50.1947019872217
30
0
41
1
10
63.1740709566251
20
-50.2096957965303
30
0
41
1
10
63.1518163736271
20
-50.2144327780433
30
0
41
1
10
63.1055584115081
20
-50.2232784361032
30
0
41
1
10
63.0818993189708
20
-50.2273192430399
30
0
41
1
10
63.0334842276265
20
-50.2345270562495
30
0
41
1
10
63.0087136460983
20
-50.237697238628
30
0
41
1
10
62.9705913793722
20
-50.2417123330462
30
0
41
1
10
62.9577225845635
20
-50.2429270966848
30
0
41
1
10
62.9316375431576
20
-50.2450910679018
30
0
41
1
10
62.918438620997
20
-50.2460373622335
30
0
41
1
10
62.8525699917228
20
-50.2500066377335
30
0
41
1
10
62.7994946172938
20
-50.2508174386529
30
0
41
1
10
62.7326548350921
20
-50.2487548430798
30
0
41
1
10
62.7192119789553
20
-50.2481848000576
30
0
41
1
10
62.6926570591887
20
-50.2467555588515
30
0
41
1
10
62.6532376658312
20
-50.2441780209754
30
0
41
1
10
62.6149838095561
20
-50.2403749657594
30
0
41
1
10
62.5774283818054
20
-50.2358343463063
30
0
41
1
10
62.5650264916573
20
-50.234197680116
30
0
41
1
10
62.5404447075035
20
-50.2306892249851
30
0
41
1
10
62.5282699748333
20
-50.228817251349
30
0
41
1
10
62.4924640873111
20
-50.222935530701
30
0
41
1
10
62.4694012478452
20
-50.2186409927839
30
0
41
1
10
62.4022425653439
20
-50.2048104326256
30
0
41
1
10
62.3601569521562
20
-50.1943362799784
30
0
41
1
10
62.3000319811589
20
-50.1771900054061
30
0
41
1
10
62.2804841814765
20
-50.1712262265747
30
0
41
1
10
62.2427210540777
20
-50.159015962105
30
0
41
1
10
62.2244401660181
20
-50.1527515143359
30
0
41
1
10
62.1711372754022
20
-50.1335416848503
30
0
41
1
10
62.1376423917565
20
-50.1201828430817
30
0
41
1
10
62.0737805002325
20
-50.0925813273965
30
0
41
1
10
62.0434204582572
20
-50.0783369730715
30
0
41
1
10
61.9997782780766
20
-50.0564094084299
30
0
41
1
10
61.9855492072363
20
-50.0490062363695
30
0
41
1
10
61.9576707165355
20
-50.0340247039612
30
0
41
1
10
61.9440083027038
20
-50.0264384220806
30
0
41
1
10
61.9040064143604
20
-50.0035423716903
30
0
41
1
10
61.8785908816226
20
-49.9880675438556
30
0
41
1
10
61.8054444561134
20
-49.9410823654971
30
0
41
1
10
61.760779678337
20
-49.9090151729031
30
0
41
1
10
61.6775086557592
20
-49.8436204138567
30
0
41
1
10
61.638925048663
20
-49.8102902655162
30
0
41
1
10
61.5666387810433
20
-49.7424877166807
30
0
41
1
10
61.5329454535188
20
-49.7080142632012
30
0
41
1
10
61.4697008905754
20
-49.637993832725
30
0
41
1
10
61.4401541008555
20
-49.6024463610596
30
0
41
1
10
61.3847210130938
20
-49.5303175421472
30
0
41
1
10
61.3588243586684
20
-49.4937163744855
30
0
41
1
10
61.2862296838595
20
-49.3825175796117
30
0
41
1
10
61.2448654870337
20
-49.3069821753959
30
0
41
1
10
61.1742473345818
20
-49.1531399970228
30
0
41
1
10
61.1450158731465
20
-49.074832524443
30
0
41
1
10
61.0979949119375
20
-48.9154317892313
30
0
41
1
10
61.0802122702763
20
-48.8343384008154
30
0
41
1
10
61.0622148041601
20
-48.7105721100045
30
0
41
1
10
61.0576674866229
20
-48.668962046163
30
0
41
1
10
61.0530870016477
20
-48.6060078593356
30
0
41
1
10
61.0513573808195
20
-48.574395967725
30
0
41
1
10
61.0504858065295
20
-48.5425802593354
30
0
41
1
10
61.0500976410235
20
-48.5213242980877
30
0
41
1
10
61.0499999999999
20
-48.5106873488525
30
0
41
1
10
61.05
20
-48.5
30
0
0
SPLINE
5
24D
100
AcDbEntity
8
1
62
256
6
ByLayer
370
18
48
1
60
0
100
AcDbSpline
70
4
71
3
72
10
73
6
40
0
40
0
40
0
40
0
40
0.5
40
0.5
40
1
40
1
40
1
40
1
41
1
10
58.8874676773456
20
51
30
0
41
1
10
57.2258049465221
20
49.0715257637472
30
0
41
1
10
55.5650728572306
20
47.142247865104
30
0
41
1
10
52.2462785083236
20
43.2813865166198
30
0
41
1
10
50.5881976674253
20
41.3498041408304
30
0
41
1
10
48.932197087778
20
39.4165974487588
30
0
0
SPLINE
5
24E
100
AcDbEntity
8
1
62
256
6
ByLayer
370
18
48
1
60
0
100
AcDbSpline
70
4
71
3
72
8
73
4
40
0
40
0
40
0
40
0
40
1
40
1
40
1
40
1
41
1
10
59.3658814475092
20
52
30
0
41
1
10
59.3663803479377
20
52
30
0
41
1
10
59.4591912002634
20
52
30
0
41
1
10
59.6446004475087
20
52
30
0
0
SPLINE
5
24F
100
AcDbEntity
8
1
62
256
6
ByLayer
370
18
48
1
60
0
100
AcDbSpline
70
4
71
3
72
16
73
12
40
0
40
0
40
0
40
0
40
0.149244107557796
40
0.149244107557796
40
0.298082621899769
40
0.298082621899769
40
0.452604751607352
40
0.452604751607352
40
0.684314560315409
40
0.684314560315409
40
1
40
1
40
1
40
1
41
1
10
59.6446004475087
20
52
30
0
41
1
10
59.6531473631122
20
52
30
0
41
1
10
59.6515043962289
20
51.987711504388
30
0
41
1
10
59.6283658152958
20
51.9410362401002
30
0
41
1
10
59.6067177159813
20
51.9062141899368
30
0
41
1
10
59.547715036196
20
51.8198092981645
30
0
41
1
10
59.5092294210647
20
51.7667691668318
30
0
41
1
10
59.4011757467807
20
51.6233139073371
30
0
41
1
10
59.3239945302872
20
51.5251446902832
30
0
41
1
10
59.1318916437298
20
51.2877572267243
30
0
41
1
10
59.0096083576137
20
51.1417526858647
30
0
41
1
10
58.8874676773456
20
51
30
0
0
SPLINE
5
250
100
AcDbEntity
8
1
62
256
6
ByLayer
370
18
48
1
60
0
100
AcDbSpline
70
4
71
3
72
16
73
12
40
0
40
0
40
0
40
0
40
0.250000000000089
40
0.250000000000089
40
0.500000000000179
40
0.500000000000179
40
0.625000000000163
40
0.625000000000163
40
0.750000000000148
40
0.750000000000148
40
1
40
1
40
1
40
1
41
1
10
66.6900756751979
20
52
30
0
41
1
10
66.5770286206345
20
52
30
0
41
1
10
66.4631863816279
20
51.9986471500531
30
0
41
1
10
66.2339621267779
20
51.9964779542836
30
0
41
1
10
66.118579932039
20
51.995652936643
30
0
41
1
10
65.9443326193885
20
51.9956377779992
30
0
41
1
10
65.8860539436793
20
51.9958207042167
30
0
41
1
10
65.7690936454263
20
51.9965037246909
30
0
41
1
10
65.7108904266651
20
51.9970007124624
30
0
41
1
10
65.5373550472372
20
51.9986402896218
30
0
41
1
10
65.4229793356177
20
52
30
0
41
1
10
65.309924324802
20
52
30
0
0
LINE
5
70
100
AcDbEntity
8
4
62
256
6
ByLayer
370
13
48
0.05
60
0
100
AcDbLine
10
0
20
0
30
0
11
100
21
0
31
0
39
0
210
0
220
0
230
1
0
LINE
5
72
100
AcDbEntity
8
80
62
256
6
ByLayer
370
13
48
1
60
0
100
AcDbLine
10
0
20
0
30
0
11
-4.28511
21
0
31
0
39
0
210
0
220
0
230
1
0
LINE
5
73
100
AcDbEntity
8
SK4
62
256
6
ByLayer
370
13
48
0.05
60
0
100
AcDbLine
10
-52.5
20
0
30
0
11
105.5
21
0
31
0
39
0
210
0
220
0
230
1
0
LINE
5
75
100
AcDbEntity
8
81
62
256
6
ByLayer
370
13
48
1
60
0
100
AcDbLine
10
100.000937
20
57.485353
30
0
11
102.000937
21
57.485353
31
0
39
0
210
0
220
0
230
1
0
LINE
5
76
100
AcDbEntity
8
SK1
62
256
6
ByLayer
370
18
48
1
60
0
100
AcDbLine
10
-0.2
20
6.576573
30
0
11
-0.2
21
28.683485
31
0
39
0
210
0
220
0
230
1
0
LINE
5
78
100
AcDbEntity
8
SK1
62
256
6
ByLayer
370
18
48
1
60
0
100
AcDbLine
10
-0.2
20
-28.683485
30
0
11
-0.2
21
-6.576573
31
0
39
0
210
0
220
0
230
1
0
LINE
5
79
100
AcDbEntity
8
SK1
62
256
6
ByLayer
370
18
48
1
60
0
100
AcDbLine
10
-1.307107
20
-4.393239
30
0
11
-1.307107
21
4.393239
31
0
39
0
210
0
220
0
230
1
0
LINE
5
7A
100
AcDbEntity
8
1
62
256
6
ByLayer
370
18
48
1
60
0
100
AcDbLine
10
93.58329
20
48.728299
30
0
11
93.536901
21
48.669972
31
0
39
0
210
0
220
0
230
1
0
LINE
5
7C
100
AcDbEntity
8
1
62
256
6
ByLayer
370
18
48
1
60
0
100
AcDbLine
10
92.198938
20
50.376784
30
0
11
92.076267
21
50.222543
31
0
39
0
210
0
220
0
230
1
0
LINE
5
7D
100
AcDbEntity
8
1
62
256
6
ByLayer
370
18
48
1
60
0
100
AcDbLine
10
93.612656
20
48.809633
30
0
11
93.486647
21
48.651195
31
0
39
0
210
0
220
0
230
1
0
LINE
5
7E
100
AcDbEntity
8
1
62
256
6
ByLayer
370
13
48
1
60
0
100
AcDbLine
10
93.584916
20
48.746783
30
0
11
93.51517
21
48.659087
31
0
39
0
210
0
220
0
230
1
0
LINE
5
7F
100
AcDbEntity
8
1
62
256
6
ByLayer
370
18
48
1
60
0
100
AcDbLine
10
94.954735
20
49.353446
30
0
11
94.798609
21
49.157141
31
0
39
0
210
0
220
0
230
1
0
LINE
5
80
100
AcDbEntity
8
1
62
256
6
ByLayer
370
18
48
1
60
0
100
AcDbLine
10
91.547488
20
51.891427
30
0
11
91.46217
21
51.784153
31
0
39
0
210
0
220
0
230
1
0
LINE
5
81
100
AcDbEntity
8
1
62
256
6
ByLayer
370
18
48
1
60
0
100
AcDbLine
10
95.727624
20
48.391748
30
0
11
95.812941
21
48.499022
31
0
39
0
210
0
220
0
230
1
0
LINE
5
82
100
AcDbEntity
8
1
62
256
6
ByLayer
370
18
48
1
60
0
100
AcDbLine
10
92.240238
20
50.290813
30
0
11
92.385596
21
50.473579
31
0
39
0
210
0
220
0
230
1
0
LINE
5
83
100
AcDbEntity
8
1
62
256
6
ByLayer
370
13
48
1
60
0
100
AcDbLine
10
92.218031
20
50.374468
30
0
11
92.063121
21
50.179691
31
0
39
0
210
0
220
0
230
1
0
LINE
5
84
100
AcDbEntity
8
1
62
256
6
ByLayer
370
18
48
1
60
0
100
AcDbLine
10
93.062054
20
51.607248
30
0
11
92.905929
21
51.410943
31
0
39
0
210
0
220
0
230
1
0
LINE
5
85
100
AcDbEntity
8
1
62
256
6
ByLayer
370
18
48
1
60
0
100
AcDbLine
10
95.012312
20
49.963994
30
0
11
94.866952
21
49.781225
31
0
39
0
210
0
220
0
230
1
0
LINE
5
86
100
AcDbEntity
8
1
62
256
6
ByLayer
370
13
48
1
60
0
100
AcDbLine
10
94.93752
20
49.364613
30
0
11
94.782609
21
49.169836
31
0
39
0
210
0
220
0
230
1
0
LINE
5
87
100
AcDbEntity
8
1
62
256
6
ByLayer
370
18
48
1
60
0
100
AcDbLine
10
94.798609
20
49.157141
30
0
11
94.782609
21
49.169836
31
0
39
0
210
0
220
0
230
1
0
LINE
5
88
100
AcDbEntity
8
1
62
256
6
ByLayer
370
18
48
1
60
0
100
AcDbLine
10
95.081166
20
50.857472
30
0
11
94.92504
21
50.661166
31
0
39
0
210
0
220
0
230
1
0
LINE
5
89
100
AcDbEntity
8
1
62
256
6
ByLayer
370
18
48
1
60
0
100
AcDbLine
10
93.645301
20
51.451973
30
0
11
93.796069
21
51.641541
31
0
39
0
210
0
220
0
230
1
0
LINE
5
8A
100
AcDbEntity
8
1
62
256
6
ByLayer
370
13
48
1
60
0
100
AcDbLine
10
93.070548
20
51.587801
30
0
11
92.915638
21
51.393024
31
0
39
0
210
0
220
0
230
1
0
LINE
5
8B
100
AcDbEntity
8
1
62
256
6
ByLayer
370
18
48
1
60
0
100
AcDbLine
10
92.915638
20
51.393024
30
0
11
92.905929
21
51.410943
31
0
39
0
210
0
220
0
230
1
0
LINE
5
8C
100
AcDbEntity
8
1
62
256
6
ByLayer
370
18
48
1
60
0
100
AcDbLine
10
93.856739
20
51.776681
30
0
11
93.823737
21
51.735186
31
0
39
0
210
0
220
0
230
1
0
LINE
5
8D
100
AcDbEntity
8
1
62
256
6
ByLayer
370
18
48
1
60
0
100
AcDbLine
10
94.572837
20
51.462789
30
0
11
94.416712
21
51.266483
31
0
39
0
210
0
220
0
230
1
0
LINE
5
8E
100
AcDbEntity
8
1
62
256
6
ByLayer
370
13
48
1
60
0
100
AcDbLine
10
95.061109
20
50.848626
30
0
11
94.906198
21
50.653849
31
0
39
0
210
0
220
0
230
1
0
LINE
5
8F
100
AcDbEntity
8
1
62
256
6
ByLayer
370
18
48
1
60
0
100
AcDbLine
10
94.561022
20
51.444129
30
0
11
94.406112
21
51.249352
31
0
39
0
210
0
220
0
230
1
0
LINE
5
90
100
AcDbEntity
8
1
62
256
6
ByLayer
370
18
48
1
60
0
100
AcDbLine
10
94.92504
20
50.661166
30
0
11
94.906198
21
50.653849
31
0
39
0
210
0
220
0
230
1
0
LINE
5
91
100
AcDbEntity
8
1
62
256
6
ByLayer
370
18
48
1
60
0
100
AcDbLine
10
94.406112
20
51.249352
30
0
11
94.416712
21
51.266483
31
0
39
0
210
0
220
0
230
1
0
LINE
5
92
100
AcDbEntity
8
1
62
256
6
ByLayer
370
18
48
1
60
0
100
AcDbLine
10
63.659405
20
-47.730459
30
0
11
63.470484
21
-47.899625
31
0
39
0
210
0
220
0
230
1
0
LINE
5
93
100
AcDbEntity
8
1
62
256
6
ByLayer
370
18
48
1
60
0
100
AcDbLine
10
63.159496
20
-47.403856
30
0
11
63.080469
21
-47.644817
31
0
39
0
210
0
220
0
230
1
0
LINE
5
94
100
AcDbEntity
8
1
62
256
6
ByLayer
370
18
48
1
60
0
100
AcDbLine
10
63.267448
20
-47.074696
30
0
11
63.159496
21
-47.403856
31
0
39
0
210
0
220
0
230
1
0
LINE
5
95
100
AcDbEntity
8
1
62
256
6
ByLayer
370
18
48
1
60
0
100
AcDbLine
10
63.659405
20
-47.730459
30
0
11
63.917474
21
-47.499374
31
0
39
0
210
0
220
0
230
1
0
LINE
5
96
100
AcDbEntity
8
1
62
256
6
ByLayer
370
18
48
1
60
0
100
AcDbLine
10
96.775266
20
34.9325
30
0
11
89.99861
21
34.9325
31
0
39
0
210
0
220
0
230
1
0
LINE
5
97
100
AcDbEntity
8
1
62
256
6
ByLayer
370
18
48
1
60
0
100
AcDbLine
10
88.40105
20
19.0675
30
0
11
96.775266
21
19.0675
31
0
39
0
210
0
220
0
230
1
0
LINE
5
98
100
AcDbEntity
8
1
62
256
6
ByLayer
370
18
48
1
60
0
100
AcDbLine
10
97.50695
20
23.056663
30
0
11
98.032571
21
23.056663
31
0
39
0
210
0
220
0
230
1
0
LINE
5
99
100
AcDbEntity
8
1
62
256
6
ByLayer
370
18
48
1
60
0
100
AcDbLine
10
97.281418
20
27.205501
30
0
11
98.258147
21
27.205501
31
0
39
0
210
0
220
0
230
1
0
LINE
5
9A
100
AcDbEntity
8
1
62
256
6
ByLayer
370
18
48
1
60
0
100
AcDbLine
10
75.013751
20
-44.841272
30
0
11
88.435491
21
-44.841272
31
0
39
0
210
0
220
0
230
1
0
LINE
5
9B
100
AcDbEntity
8
1
62
256
6
ByLayer
370
18
48
1
60
0
100
AcDbLine
10
88.435491
20
-44.841272
30
0
11
88.306065
21
-37.999823
31
0
39
0
210
0
220
0
230
1
0
LINE
5
9C
100
AcDbEntity
8
1
62
256
6
ByLayer
370
18
48
1
60
0
100
AcDbLine
10
97.342453
20
-51.244967
30
0
11
97.091883
21
-37.999823
31
0
39
0
210
0
220
0
230
1
0
LINE
5
9D
100
AcDbEntity
8
1
62
256
6
ByLayer
370
18
48
1
60
0
100
AcDbLine
10
93.976484
20
-49.315246
30
0
11
95.090766
21
-43.817375
31
0
39
0
210
0
220
0
230
1
0
LINE
5
9E
100
AcDbEntity
8
1
62
256
6
ByLayer
370
18
48
1
60
0
100
AcDbLine
10
95.090766
20
-43.817375
30
0
11
90.871908
21
-43.240385
31
0
39
0
210
0
220
0
230
1
0
LINE
5
9F
100
AcDbEntity
8
1
62
256
6
ByLayer
370
18
48
1
60
0
100
AcDbLine
10
88.306065
20
-37.999823
30
0
11
97.091883
21
-37.999823
31
0
39
0
210
0
220
0
230
1
0
LINE
5
A0
100
AcDbEntity
8
1
62
256
6
ByLayer
370
18
48
1
60
0
100
AcDbLine
10
75.013751
20
16.500177
30
0
11
87.977948
21
16.500177
31
0
39
0
210
0
220
0
230
1
0
LINE
5
A1
100
AcDbEntity
8
1
62
256
6
ByLayer
370
18
48
1
60
0
100
AcDbLine
10
87.977948
20
-37.999823
30
0
11
88.306065
21
-37.999823
31
0
39
0
210
0
220
0
230
1
0
LINE
5
A2
100
AcDbEntity
8
1
62
256
6
ByLayer
370
18
48
1
60
0
100
AcDbLine
10
87.977948
20
16.500177
30
0
11
87.977948
21
-37.999823
31
0
39
0
210
0
220
0
230
1
0
LINE
5
A3
100
AcDbEntity
8
1
62
256
6
ByLayer
370
18
48
1
60
0
100
AcDbLine
10
75.65019
20
21.000177
30
0
11
87.504979
21
21.000177
31
0
39
0
210
0
220
0
230
1
0
LINE
5
A4
100
AcDbEntity
8
1
62
256
6
ByLayer
370
18
48
1
60
0
100
AcDbLine
10
87.504979
20
21.000177
30
0
11
87.977948
21
16.500177
31
0
39
0
210
0
220
0
230
1
0
LINE
5
A5
100
AcDbEntity
8
1
62
256
6
ByLayer
370
13
48
1
60
0
100
AcDbLine
10
91.242065
20
-43.890184
30
0
11
90.871908
21
-43.240385
31
0
39
0
210
0
220
0
230
1
0
LINE
5
A6
100
AcDbEntity
8
1
62
256
6
ByLayer
370
13
48
1
60
0
100
AcDbLine
10
89.004091
20
-46.144845
30
0
11
88.491532
21
-45.245064
31
0
39
0
210
0
220
0
230
1
0
LINE
5
A7
100
AcDbEntity
8
1
62
256
6
ByLayer
370
18
48
1
60
0
100
AcDbLine
10
89.004091
20
-49.705943
30
0
11
89.004091
21
-46.144845
31
0
39
0
210
0
220
0
230
1
0
LINE
5
A8
100
AcDbEntity
8
1
62
256
6
ByLayer
370
18
48
1
60
0
100
AcDbLine
10
91.242065
20
-43.890184
30
0
11
95.090766
21
-43.817375
31
0
39
0
210
0
220
0
230
1
0
LINE
5
A9
100
AcDbEntity
8
1
62
256
6
ByLayer
370
18
48
1
60
0
100
AcDbLine
10
76.140753
20
-53.063997
30
0
11
69.500937
21
-52.829598
31
0
39
0
210
0
220
0
230
1
0
LINE
5
AA
100
AcDbEntity
8
1
62
256
6
ByLayer
370
18
48
1
60
0
100
AcDbLine
10
76.343032
20
-53.095453
30
0
11
76.140753
21
-53.063997
31
0
39
0
210
0
220
0
230
1
0
LINE
5
AB
100
AcDbEntity
8
1
62
256
6
ByLayer
370
18
48
1
60
0
100
AcDbLine
10
77.482399
20
-52.830735
30
0
11
77.643925
21
-52.869594
31
0
39
0
210
0
220
0
230
1
0
LINE
5
AC
100
AcDbEntity
8
1
62
256
6
ByLayer
370
13
48
1
60
0
100
AcDbLine
10
83.203769
20
-50.973261
30
0
11
85.376191
21
-54.78688
31
0
39
0
210
0
220
0
230
1
0
LINE
5
AD
100
AcDbEntity
8
1
62
256
6
ByLayer
370
18
48
1
60
0
100
AcDbLine
10
85.376191
20
-54.78688
30
0
11
84.651808
21
-54.775578
31
0
39
0
210
0
220
0
230
1
0
LINE
5
AE
100
AcDbEntity
8
1
62
256
6
ByLayer
370
18
48
1
60
0
100
AcDbLine
10
84.009367
20
-54.835411
30
0
11
83.538338
21
-54.999823
31
0
39
0
210
0
220
0
230
1
0
LINE
5
AF
100
AcDbEntity
8
1
62
256
6
ByLayer
370
18
48
1
60
0
100
AcDbLine
10
83.538338
20
-54.999823
30
0
11
71.300448
21
-54.999823
31
0
39
0
210
0
220
0
230
1
0
LINE
5
B0
100
AcDbEntity
8
1
62
256
6
ByLayer
370
18
48
1
60
0
100
AcDbLine
10
69.500937
20
-52.829598
30
0
11
69.500937
21
-54.992885
31
0
39
0
210
0
220
0
230
1
0
LINE
5
B1
100
AcDbEntity
8
1
62
256
6
ByLayer
370
18
48
1
60
0
100
AcDbLine
10
75.812009
20
-50.626812
30
0
11
77.482399
21
-52.830735
31
0
39
0
210
0
220
0
230
1
0
LINE
5
B2
100
AcDbEntity
8
1
62
256
6
ByLayer
370
13
48
1
60
0
100
AcDbLine
10
84.917075
20
-51.214449
30
0
11
87.032276
21
-54.927617
31
0
39
0
210
0
220
0
230
1
0
LINE
5
B3
100
AcDbEntity
8
1
62
256
6
ByLayer
370
18
48
1
60
0
100
AcDbLine
10
97.539988
20
-54.565388
30
0
11
97.624147
21
-54.713127
31
0
39
0
210
0
220
0
230
1
0
LINE
5
B4
100
AcDbEntity
8
1
62
256
6
ByLayer
370
18
48
1
60
0
100
AcDbLine
10
86.334231
20
-52.958808
30
0
11
97.624147
21
-54.713127
31
0
39
0
210
0
220
0
230
1
0
LINE
5
B5
100
AcDbEntity
8
1
62
256
6
ByLayer
370
18
48
1
60
0
100
AcDbLine
10
86.334231
20
-52.958808
30
0
11
86.178323
21
-52.963831
31
0
39
0
210
0
220
0
230
1
0
LINE
5
B6
100
AcDbEntity
8
1
62
256
6
ByLayer
370
18
48
1
60
0
100
AcDbLine
10
86.491077
20
-53.462386
30
0
11
86.178323
21
-52.963831
31
0
39
0
210
0
220
0
230
1
0
LINE
5
B7
100
AcDbEntity
8
1
62
256
6
ByLayer
370
18
48
1
60
0
100
AcDbLine
10
86.491077
20
-53.462386
30
0
11
86.455853
21
-53.463521
31
0
39
0
210
0
220
0
230
1
0
LINE
5
B8
100
AcDbEntity
8
1
62
256
6
ByLayer
370
18
48
1
60
0
100
AcDbLine
10
86.877327
20
-54.135384
30
0
11
86.455853
21
-53.463521
31
0
39
0
210
0
220
0
230
1
0
LINE
5
B9
100
AcDbEntity
8
1
62
256
6
ByLayer
370
18
48
1
60
0
100
AcDbLine
10
87.230188
20
-54.95837
30
0
11
87.032276
21
-54.927617
31
0
39
0
210
0
220
0
230
1
0
LINE
5
BA
100
AcDbEntity
8
1
62
256
6
ByLayer
370
18
48
1
60
0
100
AcDbLine
10
99.320167
20
-38.202175
30
0
11
98.021024
21
-37.878262
31
0
39
0
210
0
220
0
230
1
0
LINE
5
BB
100
AcDbEntity
8
1
62
256
6
ByLayer
370
18
48
1
60
0
100
AcDbLine
10
99.320167
20
-38.202175
30
0
11
99.320167
21
-44.225656
31
0
39
0
210
0
220
0
230
1
0
LINE
5
BC
100
AcDbEntity
8
1
62
256
6
ByLayer
370
18
48
1
60
0
100
AcDbLine
10
98.175792
20
-42.765166
30
0
11
98.393676
21
-43.17217
31
0
39
0
210
0
220
0
230
1
0
LINE
5
BD
100
AcDbEntity
8
1
62
256
6
ByLayer
370
18
48
1
60
0
100
AcDbLine
10
98.175792
20
-42.765166
30
0
11
98.157512
21
-42.907788
31
0
39
0
210
0
220
0
230
1
0
LINE
5
BE
100
AcDbEntity
8
1
62
256
6
ByLayer
370
18
48
1
60
0
100
AcDbLine
10
98.157512
20
-54.26062
30
0
11
98.157512
21
-42.907788
31
0
39
0
210
0
220
0
230
1
0
LINE
5
BF
100
AcDbEntity
8
1
62
256
6
ByLayer
370
18
48
1
60
0
100
AcDbLine
10
98.157512
20
-54.26062
30
0
11
97.834053
21
-53.692798
31
0
39
0
210
0
220
0
230
1
0
LINE
5
C0
100
AcDbEntity
8
1
62
256
6
ByLayer
370
18
48
1
60
0
100
AcDbLine
10
97.091883
20
-37.999823
30
0
11
97.860059
21
-37.999823
31
0
39
0
210
0
220
0
230
1
0
LINE
5
C1
100
AcDbEntity
8
1
62
256
6
ByLayer
370
18
48
1
60
0
100
AcDbLine
10
97.624147
20
-54.713127
30
0
11
98.157512
21
-54.26062
31
0
39
0
210
0
220
0
230
1
0
LINE
5
C2
100
AcDbEntity
8
1
62
256
6
ByLayer
370
18
48
1
60
0
100
AcDbLine
10
86.491077
20
-53.462386
30
0
11
86.489917
21
-53.199639
31
0
39
0
210
0
220
0
230
1
0
LINE
5
C3
100
AcDbEntity
8
1
62
256
6
ByLayer
370
13
48
1
60
0
100
AcDbLine
10
76.343032
20
-53.095453
30
0
11
76.343032
21
-51.999576
31
0
39
0
210
0
220
0
230
1
0
LINE
5
C4
100
AcDbEntity
8
1
62
256
6
ByLayer
370
18
48
1
60
0
100
AcDbLine
10
76.140753
20
-53.063997
30
0
11
76.140753
21
-51.999325
31
0
39
0
210
0
220
0
230
1
0
LINE
5
C5
100
AcDbEntity
8
1
62
256
6
ByLayer
370
18
48
1
60
0
100
AcDbLine
10
69.500937
20
-52.829598
30
0
11
69.500937
21
-51.999013
31
0
39
0
210
0
220
0
230
1
0
LINE
5
C6
100
AcDbEntity
8
1
62
256
6
ByLayer
370
18
48
1
60
0
100
AcDbLine
10
88.100937
20
17.386534
30
0
11
88.100937
21
-18.96798
31
0
39
0
210
0
220
0
230
1
0
LINE
5
C7
100
AcDbEntity
8
1
62
256
6
ByLayer
370
18
48
1
60
0
100
AcDbLine
10
87.882746
20
17.405777
30
0
11
88.100937
21
17.386534
31
0
39
0
210
0
220
0
230
1
0
LINE
5
C8
100
AcDbEntity
8
1
62
256
6
ByLayer
370
18
48
1
60
0
100
AcDbLine
10
99.509442
20
-55.823695
30
0
11
99.509442
21
-44.729216
31
0
39
0
210
0
220
0
230
1
0
LINE
5
C9
100
AcDbEntity
8
1
62
256
6
ByLayer
370
18
48
1
60
0
100
AcDbLine
10
87.529941
20
-54.89263
30
0
11
98.582546
21
-56.610074
31
0
39
0
210
0
220
0
230
1
0
LINE
5
CA
100
AcDbEntity
8
1
62
256
6
ByLayer
370
18
48
1
60
0
100
AcDbLine
10
86.877325
20
-53.879746
30
0
11
86.877325
21
-54.136132
31
0
39
0
210
0
220
0
230
1
0
LINE
5
CB
100
AcDbEntity
8
1
62
256
6
ByLayer
370
13
48
1
60
0
100
AcDbLine
10
98.582546
20
-56.610074
30
0
11
99.074041
21
-57.472878
31
0
39
0
210
0
220
0
230
1
0
LINE
5
CC
100
AcDbEntity
8
1
62
256
6
ByLayer
370
13
48
1
60
0
100
AcDbLine
10
99.509442
20
-55.823695
30
0
11
100.000937
21
-56.686499
31
0
39
0
210
0
220
0
230
1
0
LINE
5
CD
100
AcDbEntity
8
1
62
256
6
ByLayer
370
13
48
1
60
0
100
AcDbLine
10
87.529941
20
-54.89263
30
0
11
88.021436
21
-55.755434
31
0
39
0
210
0
220
0
230
1
0
LINE
5
CE
100
AcDbEntity
8
1
62
256
6
ByLayer
370
18
48
1
60
0
100
AcDbLine
10
88.021436
20
-55.755434
30
0
11
99.074041
21
-57.472878
31
0
39
0
210
0
220
0
230
1
0
LINE
5
CF
100
AcDbEntity
8
1
62
256
6
ByLayer
370
13
48
1
60
0
100
AcDbLine
10
99.509442
20
-44.729216
30
0
11
100.000937
21
-45.592021
31
0
39
0
210
0
220
0
230
1
0
LINE
5
D0
100
AcDbEntity
8
1
62
256
6
ByLayer
370
18
48
1
60
0
100
AcDbLine
10
100.000937
20
-56.686499
30
0
11
100.000937
21
-45.592021
31
0
39
0
210
0
220
0
230
1
0
LINE
5
D1
100
AcDbEntity
8
1
62
256
6
ByLayer
370
18
48
1
60
0
100
AcDbLine
10
86.977167
20
-54.5142
30
0
11
87.468663
21
-55.377005
31
0
39
0
210
0
220
0
230
1
0
LINE
5
D2
100
AcDbEntity
8
1
62
256
6
ByLayer
370
18
48
1
60
0
100
AcDbLine
10
99.901094
20
-45.213953
30
0
11
99.409599
21
-44.351149
31
0
39
0
210
0
220
0
230
1
0
LINE
5
D3
100
AcDbEntity
8
1
62
256
6
ByLayer
370
18
48
1
60
0
100
AcDbLine
10
63.098571
20
49.614282
30
0
11
63.188229
21
49.948889
31
0
39
0
210
0
220
0
230
1
0
LINE
5
D4
100
AcDbEntity
8
1
62
256
6
ByLayer
370
18
48
1
60
0
100
AcDbLine
10
62.411771
20
49.948889
30
0
11
62.501429
21
49.614282
31
0
39
0
210
0
220
0
230
1
0
LINE
5
D5
100
AcDbEntity
8
1
62
256
6
ByLayer
370
18
48
1
60
0
100
AcDbLine
10
63.098571
20
49.614282
30
0
11
63.032937
21
49.369333
31
0
39
0
210
0
220
0
230
1
0
LINE
5
D6
100
AcDbEntity
8
1
62
256
6
ByLayer
370
18
48
1
60
0
100
AcDbLine
10
62.501429
20
49.614282
30
0
11
62.567063
21
49.369333
31
0
39
0
210
0
220
0
230
1
0
LINE
5
D7
100
AcDbEntity
8
1
62
256
6
ByLayer
370
13
48
1
60
0
100
AcDbLine
10
69.800937
20
37.666347
30
0
11
81.860546
21
37.666347
31
0
39
0
210
0
220
0
230
1
0
LINE
5
D8
100
AcDbEntity
8
1
62
256
6
ByLayer
370
13
48
1
60
0
100
AcDbLine
10
81.240704
20
47.850176
30
0
11
69.800937
21
47.850176
31
0
39
0
210
0
220
0
230
1
0
LINE
5
D9
100
AcDbEntity
8
1
62
256
6
ByLayer
370
18
48
1
60
0
100
AcDbLine
10
81.240704
20
47.850176
30
0
11
81.860546
21
37.666347
31
0
39
0
210
0
220
0
230
1
0
LINE
5
DA
100
AcDbEntity
8
1
62
256
6
ByLayer
370
18
48
1
60
0
100
AcDbLine
10
69.800937
20
37.666347
30
0
11
69.800937
21
47.850176
31
0
39
0
210
0
220
0
230
1
0
LINE
5
DB
100
AcDbEntity
8
1
62
256
6
ByLayer
370
13
48
1
60
0
100
AcDbLine
10
82.284089
20
36.134259
30
0
11
69.800937
21
36.134259
31
0
39
0
210
0
220
0
230
1
0
LINE
5
DC
100
AcDbEntity
8
1
62
256
6
ByLayer
370
13
48
1
60
0
100
AcDbLine
10
84.309367
20
46.323484
30
0
11
84.309367
21
54.702915
31
0
39
0
210
0
220
0
230
1
0
LINE
5
DD
100
AcDbEntity
8
1
62
256
6
ByLayer
370
13
48
1
60
0
100
AcDbLine
10
84.309367
20
32.824089
30
0
11
84.309367
21
44.25577
31
0
39
0
210
0
220
0
230
1
0
LINE
5
DE
100
AcDbEntity
8
1
62
256
6
ByLayer
370
18
48
1
60
0
100
AcDbLine
10
82.284089
20
36.134259
30
0
11
84.309367
21
32.824089
31
0
39
0
210
0
220
0
230
1
0
LINE
5
DF
100
AcDbEntity
8
1
62
256
6
ByLayer
370
18
48
1
60
0
100
AcDbLine
10
84.309367
20
54.702915
30
0
11
83.788261
21
54.82684
31
0
39
0
210
0
220
0
230
1
0
LINE
5
E0
100
AcDbEntity
8
1
62
256
6
ByLayer
370
13
48
1
60
0
100
AcDbLine
10
69.800937
20
27.072146
30
0
11
88.400937
21
27.072146
31
0
39
0
210
0
220
0
230
1
0
LINE
5
E1
100
AcDbEntity
8
1
62
256
6
ByLayer
370
18
48
1
60
0
100
AcDbLine
10
84.951808
20
32.475308
30
0
11
88.528413
21
32.192333
31
0
39
0
210
0
220
0
230
1
0
LINE
5
E2
100
AcDbEntity
8
1
62
256
6
ByLayer
370
18
48
1
60
0
100
AcDbLine
10
88.400937
20
27.072146
30
0
11
88.400937
21
31.000176
31
0
39
0
210
0
220
0
230
1
0
LINE
5
E3
100
AcDbEntity
8
1
62
256
6
ByLayer
370
18
48
1
60
0
100
AcDbLine
10
69.800937
20
27.072146
30
0
11
69.800937
21
36.134259
31
0
39
0
210
0
220
0
230
1
0
LINE
5
E4
100
AcDbEntity
8
1
62
256
6
ByLayer
370
13
48
1
60
0
100
AcDbLine
10
84.951808
20
43.295434
30
0
11
84.951808
21
32.475308
31
0
39
0
210
0
220
0
230
1
0
LINE
5
E5
100
AcDbEntity
8
1
62
256
6
ByLayer
370
18
48
1
60
0
100
AcDbLine
10
86.990504
20
42.566167
30
0
11
99.320167
21
44.566137
31
0
39
0
210
0
220
0
230
1
0
LINE
5
E6
100
AcDbEntity
8
1
62
256
6
ByLayer
370
18
48
1
60
0
100
AcDbLine
10
99.320167
20
38.12773
30
0
11
99.320167
21
44.566137
31
0
39
0
210
0
220
0
230
1
0
LINE
5
E7
100
AcDbEntity
8
1
62
256
6
ByLayer
370
18
48
1
60
0
100
AcDbLine
10
99.320167
20
38.12773
30
0
11
92.675171
21
36.470947
31
0
39
0
210
0
220
0
230
1
0
LINE
5
E8
100
AcDbEntity
8
1
62
256
6
ByLayer
370
13
48
1
60
0
100
AcDbLine
10
84.924836
20
46.347818
30
0
11
86.091485
21
47.660484
31
0
39
0
210
0
220
0
230
1
0
LINE
5
E9
100
AcDbEntity
8
1
62
256
6
ByLayer
370
13
48
1
60
0
100
AcDbLine
10
84.951808
20
54.666942
30
0
11
84.951808
21
47.154741
31
0
39
0
210
0
220
0
230
1
0
LINE
5
EA
100
AcDbEntity
8
1
62
256
6
ByLayer
370
13
48
1
60
0
100
AcDbLine
10
86.898835
20
42.656657
30
0
11
86.990504
21
42.566167
31
0
39
0
210
0
220
0
230
1
0
LINE
5
EB
100
AcDbEntity
8
1
62
256
6
ByLayer
370
18
48
1
60
0
100
AcDbLine
10
90.13133
20
43.180993
30
0
11
86.898835
21
42.656657
31
0
39
0
210
0
220
0
230
1
0
LINE
5
EC
100
AcDbEntity
8
1
62
256
6
ByLayer
370
18
48
1
60
0
100
AcDbLine
10
91.043623
20
43.240699
30
0
11
94.662183
21
43.827658
31
0
39
0
210
0
220
0
230
1
0
LINE
5
ED
100
AcDbEntity
8
1
62
256
6
ByLayer
370
18
48
1
60
0
100
AcDbLine
10
99.258214
20
44.661447
30
0
11
95.420866
21
44.038998
31
0
39
0
210
0
220
0
230
1
0
LINE
5
EE
100
AcDbEntity
8
1
62
256
6
ByLayer
370
18
48
1
60
0
100
AcDbLine
10
99.320167
20
44.566137
30
0
11
99.258214
21
44.661447
31
0
39
0
210
0
220
0
230
1
0
LINE
5
EF
100
AcDbEntity
8
1
62
256
6
ByLayer
370
18
48
1
60
0
100
AcDbLine
10
87.202316
20
47.84067
30
0
11
86.091485
21
47.660484
31
0
39
0
210
0
220
0
230
1
0
LINE
5
F0
100
AcDbEntity
8
1
62
256
6
ByLayer
370
18
48
1
60
0
100
AcDbLine
10
87.233043
20
54.85959
30
0
11
87.032276
21
54.827024
31
0
39
0
210
0
220
0
230
1
0
LINE
5
F1
100
AcDbEntity
8
1
62
256
6
ByLayer
370
18
48
1
60
0
100
AcDbLine
10
87.233043
20
54.85959
30
0
11
87.202316
21
47.84067
31
0
39
0
210
0
220
0
230
1
0
LINE
5
F2
100
AcDbEntity
8
1
62
256
6
ByLayer
370
18
48
1
60
0
100
AcDbLine
10
85.376191
20
54.675964
30
0
11
84.951808
21
54.666942
31
0
39
0
210
0
220
0
230
1
0
LINE
5
F3
100
AcDbEntity
8
1
62
256
6
ByLayer
370
18
48
1
60
0
100
AcDbLine
10
87.311654
20
47.797586
30
0
11
86.425553
21
46.871362
31
0
39
0
210
0
220
0
230
1
0
LINE
5
F4
100
AcDbEntity
8
1
62
256
6
ByLayer
370
18
48
1
60
0
100
AcDbLine
10
86.460779
20
46.873021
30
0
11
86.425553
21
46.871362
31
0
39
0
210
0
220
0
230
1
0
LINE
5
F5
100
AcDbEntity
8
1
62
256
6
ByLayer
370
18
48
1
60
0
100
AcDbLine
10
86.460779
20
46.873021
30
0
11
86.148164
21
46.546251
31
0
39
0
210
0
220
0
230
1
0
LINE
5
F6
100
AcDbEntity
8
1
62
256
6
ByLayer
370
18
48
1
60
0
100
AcDbLine
10
84.924836
20
46.347818
30
0
11
86.148164
21
46.546251
31
0
39
0
210
0
220
0
230
1
0
LINE
5
F7
100
AcDbEntity
8
1
62
256
6
ByLayer
370
18
48
1
60
0
100
AcDbLine
10
87.311654
20
47.797586
30
0
11
87.202316
21
47.84067
31
0
39
0
210
0
220
0
230
1
0
LINE
5
F8
100
AcDbEntity
8
1
62
256
6
ByLayer
370
18
48
1
60
0
100
AcDbLine
10
87.34235
20
54.809472
30
0
11
87.233043
21
54.85959
31
0
39
0
210
0
220
0
230
1
0
LINE
5
F9
100
AcDbEntity
8
1
62
256
6
ByLayer
370
18
48
1
60
0
100
AcDbLine
10
87.311654
20
47.797586
30
0
11
87.34235
21
54.809472
31
0
39
0
210
0
220
0
230
1
0
LINE
5
FA
100
AcDbEntity
8
1
62
256
6
ByLayer
370
13
48
1
60
0
100
AcDbLine
10
88.400937
20
26.45931
30
0
11
69.800937
21
26.45931
31
0
39
0
210
0
220
0
230
1
0
LINE
5
FB
100
AcDbEntity
8
1
62
256
6
ByLayer
370
13
48
1
60
0
100
AcDbLine
10
88.100887
20
-13.727203
30
0
11
88.400937
21
-13.727203
31
0
39
0
210
0
220
0
230
1
0
LINE
5
FC
100
AcDbEntity
8
1
62
256
6
ByLayer
370
18
48
1
60
0
100
AcDbLine
10
88.400937
20
23.530206
30
0
11
69.800937
21
23.530206
31
0
39
0
210
0
220
0
230
1
0
LINE
5
FD
100
AcDbEntity
8
1
62
256
6
ByLayer
370
18
48
1
60
0
100
AcDbLine
10
88.400937
20
-13.727203
30
0
11
88.400937
21
23.530206
31
0
39
0
210
0
220
0
230
1
0
LINE
5
FE
100
AcDbEntity
8
1
62
256
6
ByLayer
370
18
48
1
60
0
100
AcDbLine
10
69.800937
20
21.785881
30
0
11
69.800937
21
23.530206
31
0
39
0
210
0
220
0
230
1
0
LINE
5
FF
100
AcDbEntity
8
1
62
256
6
ByLayer
370
13
48
1
60
0
100
AcDbLine
10
88.400937
20
24.059356
30
0
11
69.800937
21
24.059356
31
0
39
0
210
0
220
0
230
1
0
LINE
5
100
100
AcDbEntity
8
1
62
256
6
ByLayer
370
13
48
1
60
0
100
AcDbLine
10
88.400937
20
-16.025337
30
0
11
88.100887
21
-16.025337
31
0
39
0
210
0
220
0
230
1
0
LINE
5
101
100
AcDbEntity
8
1
62
256
6
ByLayer
370
18
48
1
60
0
100
AcDbLine
10
88.400937
20
24.059356
30
0
11
88.400937
21
26.45931
31
0
39
0
210
0
220
0
230
1
0
LINE
5
102
100
AcDbEntity
8
1
62
256
6
ByLayer
370
18
48
1
60
0
100
AcDbLine
10
69.800937
20
24.059356
30
0
11
69.800937
21
26.45931
31
0
39
0
210
0
220
0
230
1
0
LINE
5
103
100
AcDbEntity
8
1
62
256
6
ByLayer
370
18
48
1
60
0
100
AcDbLine
10
88.100925
20
-17.41264
30
0
11
88.400937
21
-17.386181
31
0
39
0
210
0
220
0
230
1
0
LINE
5
104
100
AcDbEntity
8
1
62
256
6
ByLayer
370
18
48
1
60
0
100
AcDbLine
10
88.400937
20
-17.386181
30
0
11
88.400937
21
-16.025337
31
0
39
0
210
0
220
0
230
1
0
LINE
5
105
100
AcDbEntity
8
1
62
256
6
ByLayer
370
18
48
1
60
0
100
AcDbLine
10
88.100932
20
-18.184019
30
0
11
88.182763
21
-17.405449
31
0
39
0
210
0
220
0
230
1
0
LINE
5
106
100
AcDbEntity
8
1
62
256
6
ByLayer
370
18
48
1
60
0
100
AcDbLine
10
86.460934
20
46.908383
30
0
11
86.460779
21
46.873021
31
0
39
0
210
0
220
0
230
1
0
LINE
5
107
100
AcDbEntity
8
1
62
256
6
ByLayer
370
13
48
1
60
0
100
AcDbLine
10
84.93678
20
46.153568
30
0
11
84.924836
21
46.347818
31
0
39
0
210
0
220
0
230
1
0
LINE
5
108
100
AcDbEntity
8
1
62
256
6
ByLayer
370
18
48
1
60
0
100
AcDbLine
10
86.254854
20
46.367371
30
0
11
84.93678
21
46.153568
31
0
39
0
210
0
220
0
230
1
0
LINE
5
109
100
AcDbEntity
8
1
62
256
6
ByLayer
370
18
48
1
60
0
100
AcDbLine
10
86.254867
20
46.428623
30
0
11
86.148164
21
46.546251
31
0
39
0
210
0
220
0
230
1
0
LINE
5
10A
100
AcDbEntity
8
1
62
256
6
ByLayer
370
13
48
1
60
0
100
AcDbLine
10
98.688054
20
-53.790287
30
0
11
98.505641
21
-53.734802
31
0
39
0
210
0
220
0
230
1
0
LINE
5
10B
100
AcDbEntity
8
1
62
256
6
ByLayer
370
13
48
1
60
0
100
AcDbLine
10
97.053729
20
-55.176849
30
0
11
97.046422
21
-54.972803
31
0
39
0
210
0
220
0
230
1
0
LINE
5
10C
100
AcDbEntity
8
1
62
256
6
ByLayer
370
18
48
1
60
0
100
AcDbLine
10
98.505641
20
-53.734802
30
0
11
98.505641
21
-44.249781
31
0
39
0
210
0
220
0
230
1
0
LINE
5
10D
100
AcDbEntity
8
1
62
256
6
ByLayer
370
18
48
1
60
0
100
AcDbLine
10
97.046422
20
-54.972803
30
0
11
87.597201
21
-53.504506
31
0
39
0
210
0
220
0
230
1
0
LINE
5
10E
100
AcDbEntity
8
1
62
256
6
ByLayer
370
18
48
1
60
0
100
AcDbLine
10
87.604508
20
-53.708552
30
0
11
97.053729
21
-55.176849
31
0
39
0
210
0
220
0
230
1
0
LINE
5
10F
100
AcDbEntity
8
1
62
256
6
ByLayer
370
13
48
1
60
0
100
AcDbLine
10
87.604508
20
-53.708552
30
0
11
87.597201
21
-53.504506
31
0
39
0
210
0
220
0
230
1
0
LINE
5
110
100
AcDbEntity
8
1
62
256
6
ByLayer
370
13
48
1
60
0
100
AcDbLine
10
98.688054
20
-44.305266
30
0
11
98.505641
21
-44.249781
31
0
39
0
210
0
220
0
230
1
0
LINE
5
111
100
AcDbEntity
8
1
62
256
6
ByLayer
370
18
48
1
60
0
100
AcDbLine
10
98.688054
20
-44.305266
30
0
11
98.688054
21
-53.790287
31
0
39
0
210
0
220
0
230
1
0
LINE
5
112
100
AcDbEntity
8
1
62
256
6
ByLayer
370
13
48
1
60
0
100
AcDbLine
10
97.641642
20
-56.463868
30
0
11
97.019185
21
-55.371166
31
0
39
0
210
0
220
0
230
1
0
LINE
5
113
100
AcDbEntity
8
1
62
256
6
ByLayer
370
13
48
1
60
0
100
AcDbLine
10
99.509442
20
-54.879226
30
0
11
98.886985
21
-53.786523
31
0
39
0
210
0
220
0
230
1
0
LINE
5
114
100
AcDbEntity
8
1
62
256
6
ByLayer
370
18
48
1
60
0
100
AcDbLine
10
97.019185
20
-55.371166
30
0
11
87.569964
21
-53.902869
31
0
39
0
210
0
220
0
230
1
0
LINE
5
115
100
AcDbEntity
8
1
62
256
6
ByLayer
370
18
48
1
60
0
100
AcDbLine
10
98.886985
20
-53.786523
30
0
11
98.886985
21
-44.301503
31
0
39
0
210
0
220
0
230
1
0
LINE
5
116
100
AcDbEntity
8
1
62
256
6
ByLayer
370
18
48
1
60
0
100
AcDbLine
10
88.19242
20
-54.995571
30
0
11
97.641642
21
-56.463868
31
0
39
0
210
0
220
0
230
1
0
LINE
5
117
100
AcDbEntity
8
1
62
256
6
ByLayer
370
13
48
1
60
0
100
AcDbLine
10
88.19242
20
-54.995571
30
0
11
87.569964
21
-53.902869
31
0
39
0
210
0
220
0
230
1
0
LINE
5
118
100
AcDbEntity
8
1
62
256
6
ByLayer
370
13
48
1
60
0
100
AcDbLine
10
99.509442
20
-45.394206
30
0
11
98.886985
21
-44.301503
31
0
39
0
210
0
220
0
230
1
0
LINE
5
119
100
AcDbEntity
8
1
62
256
6
ByLayer
370
18
48
1
60
0
100
AcDbLine
10
99.509442
20
-54.879226
30
0
11
99.509442
21
-45.394206
31
0
39
0
210
0
220
0
230
1
0
LINE
5
11A
100
AcDbEntity
8
1
62
256
6
ByLayer
370
18
48
1
60
0
100
AcDbLine
10
86.456062
20
-53.140289
30
0
11
87.078519
21
-54.232992
31
0
39
0
210
0
220
0
230
1
0
LINE
5
11B
100
AcDbEntity
8
1
62
256
6
ByLayer
370
18
48
1
60
0
100
AcDbLine
10
99.308247
20
-44.632356
30
0
11
98.685791
21
-43.539654
31
0
39
0
210
0
220
0
230
1
0
LINE
5
11C
100
AcDbEntity
8
1
62
256
6
ByLayer
370
18
48
1
60
0
100
AcDbLine
10
96.428876
20
-19.0675
30
0
11
88.114657
21
-19.0675
31
0
39
0
210
0
220
0
230
1
0
LINE
5
11D
100
AcDbEntity
8
1
62
256
6
ByLayer
370
18
48
1
60
0
100
AcDbLine
10
88.114657
20
-34.9325
30
0
11
96.428876
21
-34.9325
31
0
39
0
210
0
220
0
230
1
0
LINE
5
11E
100
AcDbEntity
8
1
62
256
6
ByLayer
370
13
48
1
60
0
100
AcDbLine
10
88.249246
20
42.875699
30
0
11
88.295716
21
42.934128
31
0
39
0
210
0
220
0
230
1
0
LINE
5
11F
100
AcDbEntity
8
1
62
256
6
ByLayer
370
13
48
1
60
0
100
AcDbLine
10
86.877325
20
43.103951
30
0
11
87.36882
21
43.721935
31
0
39
0
210
0
220
0
230
1
0
LINE
5
120
100
AcDbEntity
8
1
62
256
6
ByLayer
370
18
48
1
60
0
100
AcDbLine
10
87.36882
20
43.721935
30
0
11
87.36882
21
54.908824
31
0
39
0
210
0
220
0
230
1
0
LINE
5
121
100
AcDbEntity
8
1
62
256
6
ByLayer
370
18
48
1
60
0
100
AcDbLine
10
88.021436
20
55.675229
30
0
11
99.074041
21
57.46805
31
0
39
0
210
0
220
0
230
1
0
LINE
5
122
100
AcDbEntity
8
1
62
256
6
ByLayer
370
18
48
1
60
0
100
AcDbLine
10
100.000937
20
56.680243
30
0
11
100.000937
21
45.493353
31
0
39
0
210
0
220
0
230
1
0
LINE
5
123
100
AcDbEntity
8
1
62
256
6
ByLayer
370
18
48
1
60
0
100
AcDbLine
10
99.348321
20
44.726948
30
0
11
88.295716
21
42.934128
31
0
39
0
210
0
220
0
230
1
0
LINE
5
124
100
AcDbEntity
8
1
62
256
6
ByLayer
370
13
48
1
60
0
100
AcDbLine
10
99.275303
20
44.635139
30
0
11
99.348321
21
44.726948
31
0
39
0
210
0
220
0
230
1
0
LINE
5
125
100
AcDbEntity
8
1
62
256
6
ByLayer
370
18
48
1
60
0
100
AcDbLine
10
86.877325
20
43.103951
30
0
11
86.877325
21
47.343607
31
0
39
0
210
0
220
0
230
1
0
LINE
5
126
100
AcDbEntity
8
1
62
256
6
ByLayer
370
13
48
1
60
0
100
AcDbLine
10
87.303843
20
54.827125
30
0
11
87.36882
21
54.908824
31
0
39
0
210
0
220
0
230
1
0
LINE
5
127
100
AcDbEntity
8
1
62
256
6
ByLayer
370
18
48
1
60
0
100
AcDbLine
10
99.341111
20
44.391838
30
0
11
99.832607
21
45.009822
31
0
39
0
210
0
220
0
230
1
0
LINE
5
128
100
AcDbEntity
8
1
62
256
6
ByLayer
370
18
48
1
60
0
100
AcDbLine
10
87.53715
20
55.392356
30
0
11
87.095718
21
54.83732
31
0
39
0
210
0
220
0
230
1
0
LINE
5
129
100
AcDbEntity
8
1
62
256
6
ByLayer
370
18
48
1
60
0
100
AcDbLine
10
75.04663
20
17.762655
30
0
11
75.04663
21
-46.180612
31
0
39
0
210
0
220
0
230
1
0
LINE
5
12A
100
AcDbEntity
8
1
62
256
6
ByLayer
370
18
48
1
60
0
100
AcDbLine
10
75.04663
20
17.762655
30
0
11
45.196682
21
18.805038
31
0
39
0
210
0
220
0
230
1
0
LINE
5
12B
100
AcDbEntity
8
1
62
256
6
ByLayer
370
18
48
1
60
0
100
AcDbLine
10
0.3
20
-40
30
0
11
48.932197
21
-40
31
0
39
0
210
0
220
0
230
1
0
LINE
5
12C
100
AcDbEntity
8
1
62
256
6
ByLayer
370
18
48
1
60
0
100
AcDbLine
10
48.932197
20
40
30
0
11
0.3
21
40
31
0
39
0
210
0
220
0
230
1
0
LINE
5
12D
100
AcDbEntity
8
1
62
256
6
ByLayer
370
18
48
1
60
0
100
AcDbLine
10
48.932197
20
39.416597
30
0
11
30.578851
21
39.416597
31
0
39
0
210
0
220
0
230
1
0
LINE
5
12E
100
AcDbEntity
8
1
62
256
6
ByLayer
370
18
48
1
60
0
100
AcDbLine
10
10.538675
20
-38.115458
30
0
11
13.461325
21
-38.115458
31
0
39
0
210
0
220
0
230
1
0
LINE
5
12F
100
AcDbEntity
8
1
62
256
6
ByLayer
370
18
48
1
60
0
100
AcDbLine
10
13.461325
20
-12.13309
30
0
11
10.538675
21
-12.13309
31
0
39
0
210
0
220
0
230
1
0
LINE
5
130
100
AcDbEntity
8
1
62
256
6
ByLayer
370
18
48
1
60
0
100
AcDbLine
10
10.538675
20
12.13309
30
0
11
13.461325
21
12.13309
31
0
39
0
210
0
220
0
230
1
0
LINE
5
131
100
AcDbEntity
8
1
62
256
6
ByLayer
370
18
48
1
60
0
100
AcDbLine
10
13.461325
20
38.115458
30
0
11
10.538675
21
38.115458
31
0
39
0
210
0
220
0
230
1
0
LINE
5
132
100
AcDbEntity
8
1
62
256
6
ByLayer
370
18
48
1
60
0
100
AcDbLine
10
0.3
20
40
30
0
11
0
21
39.7
31
0
39
0
210
0
220
0
230
1
0
LINE
5
133
100
AcDbEntity
8
1
62
256
6
ByLayer
370
18
48
1
60
0
100
AcDbLine
10
0
20
-39.7
30
0
11
0.3
21
-40
31
0
39
0
210
0
220
0
230
1
0
LINE
5
134
100
AcDbEntity
8
1
62
256
6
ByLayer
370
13
48
1
60
0
100
AcDbLine
10
13.461325
20
-12.13309
30
0
11
13.461325
21
-38.115458
31
0
39
0
210
0
220
0
230
1
0
LINE
5
135
100
AcDbEntity
8
1
62
256
6
ByLayer
370
13
48
1
60
0
100
AcDbLine
10
13.894338
20
-12.6576
30
0
11
13.894338
21
-37.944501
31
0
39
0
210
0
220
0
230
1
0
LINE
5
136
100
AcDbEntity
8
1
62
256
6
ByLayer
370
13
48
1
60
0
100
AcDbLine
10
10.105662
20
37.944501
30
0
11
10.105662
21
12.6576
31
0
39
0
210
0
220
0
230
1
0
LINE
5
137
100
AcDbEntity
8
1
62
256
6
ByLayer
370
13
48
1
60
0
100
AcDbLine
10
10.538675
20
38.115458
30
0
11
10.538675
21
12.13309
31
0
39
0
210
0
220
0
230
1
0
LINE
5
138
100
AcDbEntity
8
1
62
256
6
ByLayer
370
13
48
1
60
0
100
AcDbLine
10
13.461325
20
38.115458
30
0
11
13.461325
21
12.13309
31
0
39
0
210
0
220
0
230
1
0
LINE
5
139
100
AcDbEntity
8
1
62
256
6
ByLayer
370
13
48
1
60
0
100
AcDbLine
10
13.894338
20
37.944501
30
0
11
13.894338
21
12.6576
31
0
39
0
210
0
220
0
230
1
0
LINE
5
13A
100
AcDbEntity
8
1
62
256
6
ByLayer
370
13
48
1
60
0
100
AcDbLine
10
10.105662
20
-12.6576
30
0
11
10.105662
21
-37.944501
31
0
39
0
210
0
220
0
230
1
0
LINE
5
13B
100
AcDbEntity
8
1
62
256
6
ByLayer
370
13
48
1
60
0
100
AcDbLine
10
10.538675
20
-12.13309
30
0
11
10.538675
21
-38.115458
31
0
39
0
210
0
220
0
230
1
0
LINE
5
13C
100
AcDbEntity
8
1
62
256
6
ByLayer
370
18
48
1
60
0
100
AcDbLine
10
48.932197
20
-40
30
0
11
59.363638
21
-52
31
0
39
0
210
0
220
0
230
1
0
LINE
5
13D
100
AcDbEntity
8
1
62
256
6
ByLayer
370
18
48
1
60
0
100
AcDbLine
10
46
20
22.617465
30
0
11
75.633557
21
21.582638
31
0
39
0
210
0
220
0
230
1
0
LINE
5
13E
100
AcDbEntity
8
1
62
256
6
ByLayer
370
18
48
1
60
0
100
AcDbLine
10
75.633557
20
21.582638
30
0
11
75.04663
21
17.762655
31
0
39
0
210
0
220
0
230
1
0
LINE
5
13F
100
AcDbEntity
8
1
62
256
6
ByLayer
370
18
48
1
60
0
100
AcDbLine
10
49.452006
20
-2.328998
30
0
11
49.392531
21
-2.328998
31
0
39
0
210
0
220
0
230
1
0
LINE
5
140
100
AcDbEntity
8
1
62
256
6
ByLayer
370
18
48
1
60
0
100
AcDbLine
10
47.107237
20
-1.870978
30
0
11
47.047762
21
-1.870978
31
0
39
0
210
0
220
0
230
1
0
LINE
5
141
100
AcDbEntity
8
1
62
256
6
ByLayer
370
18
48
1
60
0
100
AcDbLine
10
47.079393
20
-0.242735
30
0
11
47.019918
21
-0.242735
31
0
39
0
210
0
220
0
230
1
0
LINE
5
142
100
AcDbEntity
8
1
62
256
6
ByLayer
370
18
48
1
60
0
100
AcDbLine
10
47.264043
20
-2.236902
30
0
11
47.204569
21
-2.236902
31
0
39
0
210
0
220
0
230
1
0
LINE
5
143
100
AcDbEntity
8
1
62
256
6
ByLayer
370
18
48
1
60
0
100
AcDbLine
10
48.004721
20
-2.574585
30
0
11
48.064196
21
-2.574585
31
0
39
0
210
0
220
0
230
1
0
LINE
5
144
100
AcDbEntity
8
1
62
256
6
ByLayer
370
18
48
1
60
0
100
AcDbLine
10
50.518021
20
-2.374431
30
0
11
50.577496
21
-2.374431
31
0
39
0
210
0
220
0
230
1
0
LINE
5
145
100
AcDbEntity
8
1
62
256
6
ByLayer
370
18
48
1
60
0
100
AcDbLine
10
49.724586
20
-0.242735
30
0
11
49.665111
21
-0.242735
31
0
39
0
210
0
220
0
230
1
0
LINE
5
146
100
AcDbEntity
8
1
62
256
6
ByLayer
370
18
48
1
60
0
100
AcDbLine
10
61
20
-52
30
0
11
76.852739
21
-52
31
0
39
0
210
0
220
0
230
1
0
LINE
5
147
100
AcDbEntity
8
1
62
256
6
ByLayer
370
18
48
1
60
0
100
AcDbLine
10
77.626477
20
21.513044
30
0
11
77.626477
21
20.999601
31
0
39
0
210
0
220
0
230
1
0
LINE
5
148
100
AcDbEntity
8
1
62
256
6
ByLayer
370
18
48
1
60
0
100
AcDbLine
10
75.633557
20
21.582638
30
0
11
77.626477
21
21.513044
31
0
39
0
210
0
220
0
230
1
0
LINE
5
149
100
AcDbEntity
8
1
62
256
6
ByLayer
370
18
48
1
60
0
100
AcDbLine
10
59.363638
20
52
30
0
11
48.932197
21
40
31
0
39
0
210
0
220
0
230
1
0
LINE
5
14A
100
AcDbEntity
8
1
62
256
6
ByLayer
370
13
48
1
60
0
100
AcDbLine
10
69
20
51
30
0
11
58.887468
21
51
31
0
39
0
210
0
220
0
230
1
0
LINE
5
14B
100
AcDbEntity
8
1
62
256
6
ByLayer
370
18
48
1
60
0
100
AcDbLine
10
69
20
51
30
0
11
69
21
21.814287
31
0
39
0
210
0
220
0
230
1
0
LINE
5
14C
100
AcDbEntity
8
1
62
256
6
ByLayer
370
18
48
1
60
0
100
AcDbLine
10
65.309924
20
52
30
0
11
59.6446
21
52
31
0
39
0
210
0
220
0
230
1
0
LINE
5
14D
100
AcDbEntity
8
1
62
256
6
ByLayer
370
18
48
1
60
0
100
AcDbLine
10
69
20
52
30
0
11
66.690076
21
52
31
0
39
0
210
0
220
0
230
1
0
LINE
5
14E
100
AcDbEntity
8
1
62
256
6
ByLayer
370
18
48
1
60
0
100
AcDbLine
10
69
20
52
30
0
11
69.801019
21
52
31
0
39
0
210
0
220
0
230
1
0
LINE
5
14F
100
AcDbEntity
8
1
62
256
6
ByLayer
370
18
48
1
60
0
100
AcDbLine
10
86.877325
20
44.056287
30
0
11
86.877325
21
47.343622
31
0
39
0
210
0
220
0
230
1
0
LINE
5
150
100
AcDbEntity
8
1
62
256
6
ByLayer
370
13
48
1
60
0
100
AcDbLine
10
86.877325
20
44.056287
30
0
11
86.254868
21
43.273639
31
0
39
0
210
0
220
0
230
1
0
LINE
5
151
100
AcDbEntity
8
1
62
256
6
ByLayer
370
18
48
1
60
0
100
AcDbLine
10
86.254868
20
46.657809
30
0
11
86.254868
21
43.273639
31
0
39
0
210
0
220
0
230
1
0
LINE
5
152
100
AcDbEntity
8
1
62
256
6
ByLayer
370
18
48
1
60
0
100
AcDbLine
10
91.462396
20
51.784436
30
0
11
91.46217
21
51.784153
31
0
39
0
210
0
220
0
230
1
0
LINE
5
153
100
AcDbEntity
8
1
62
256
6
ByLayer
370
18
48
1
60
0
100
AcDbLine
10
69.800937
20
54.531279
30
0
11
69.800937
21
47.850176
31
0
39
0
210
0
220
0
230
1
0
LINE
5
154
100
AcDbEntity
8
1
62
256
6
ByLayer
370
18
48
1
60
0
100
AcDbLine
10
69.800937
20
36.134259
30
0
11
69.800937
21
37.666347
31
0
39
0
210
0
220
0
230
1
0
LINE
5
155
100
AcDbEntity
8
1
62
256
6
ByLayer
370
18
48
1
60
0
100
AcDbLine
10
88.400937
20
26.45931
30
0
11
88.400937
21
27.072146
31
0
39
0
210
0
220
0
230
1
0
LINE
5
156
100
AcDbEntity
8
1
62
256
6
ByLayer
370
18
48
1
60
0
100
AcDbLine
10
69.800937
20
26.45931
30
0
11
69.800937
21
27.072146
31
0
39
0
210
0
220
0
230
1
0
LINE
5
157
100
AcDbEntity
8
1
62
256
6
ByLayer
370
18
48
1
60
0
100
AcDbLine
10
88.400937
20
23.530206
30
0
11
88.400937
21
24.059356
31
0
39
0
210
0
220
0
230
1
0
LINE
5
158
100
AcDbEntity
8
1
62
256
6
ByLayer
370
18
48
1
60
0
100
AcDbLine
10
69.800937
20
23.530206
30
0
11
69.800937
21
24.059356
31
0
39
0
210
0
220
0
230
1
0
LINE
5
159
100
AcDbEntity
8
1
62
256
6
ByLayer
370
18
48
1
60
0
100
AcDbLine
10
88.400937
20
-16.025337
30
0
11
88.400937
21
-13.727203
31
0
39
0
210
0
220
0
230
1
0
LINE
5
15A
100
AcDbEntity
8
1
62
256
6
ByLayer
370
18
48
1
60
0
100
AcDbLine
10
0
20
-39.7
30
0
11
0
21
39.7
31
0
39
0
210
0
220
0
230
1
0
LINE
5
15B
100
AcDbEntity
8
1
62
256
6
ByLayer
370
13
48
1
60
0
100
AcDbLine
10
96.428823
20
-34.9325
30
0
11
96.428876
21
-34.9325
31
0
39
0
210
0
220
0
230
1
0
LINE
5
15C
100
AcDbEntity
8
1
62
256
6
ByLayer
370
18
48
1
60
0
100
AcDbLine
10
48.932197
20
40
30
0
11
48.932197
21
39.416597
31
0
39
0
210
0
220
0
230
1
0
LINE
5
15D
100
AcDbEntity
8
1
62
256
6
ByLayer
370
18
48
1
60
0
100
AcDbLine
10
48.932197
20
-40
30
0
11
48.932197
21
-20.842911
31
0
39
0
210
0
220
0
230
1
0
LINE
5
15E
100
AcDbEntity
8
1
62
256
6
ByLayer
370
18
48
1
60
0
100
AcDbLine
10
0.3
20
-40
30
0
11
0.3
21
40
31
0
39
0
210
0
220
0
230
1
0
LINE
5
15F
100
AcDbEntity
8
1
62
256
6
ByLayer
370
18
48
1
60
0
100
AcDbLine
10
60
20
-52
30
0
11
60
21
-42.878822
31
0
39
0
210
0
220
0
230
1
0
LINE
5
160
100
AcDbEntity
8
1
62
256
6
ByLayer
370
18
48
1
60
0
100
AcDbLine
10
61
20
-52
30
0
11
61
21
-43.427491
31
0
39
0
210
0
220
0
230
1
0
LINE
5
161
100
AcDbEntity
8
1
62
256
6
ByLayer
370
18
48
1
60
0
100
AcDbLine
10
69
20
51
30
0
11
69
21
52
31
0
39
0
210
0
220
0
230
1
0
LINE
5
162
100
AcDbEntity
8
1
62
256
6
ByLayer
370
18
48
1
60
0
100
AcDbLine
10
92.375171
20
-36.470593
30
0
11
98.021024
21
-37.878262
31
0
39
0
210
0
220
0
230
1
0
MTEXT
5
251
100
AcDbEntity
8
SK6
62
256
6
ByLayer
370
18
48
1
60
0
100
AcDbMText
10
108.028042
20
64.024009
30
0
210
0
220
0
230
1
1
\W0.7061;BR20-150CN12F-C8
40
3
41
0
44
1.084337
50
0
71
7
72
5
7
iso_b_vert
0
DIMENSION
5
25F
100
AcDbEntity
8
2
62
256
6
ByLayer
370
13
48
1
60
0
100
AcDbDimension
2
DimnDraft3D1
10
0
20
75.09377
30
0
11
45.832047
21
75.09377
31
0
70
32
71
5
72
1
41
1
210
0
220
0
230
1
3
Standard
100
AcDbAlignedDimension
13
100.000937
23
59.485353
33
0
14
0
24
41.7
34
0
50
0
100
AcDbRotatedDimension
1001
ACAD
1000
DSTYLE
1002
{
1070
   279
1070
     0
1070
   172
1070
     1
1070
   173
1070
     1
1070
   340
1005
252
1070
   271
1070
     1
1070
    77
1070
     1
1070
    73
1070
     0
1070
   171
1070
     4
1070
   274
1070
     4
1070
   177
1070
     7
1070
   176
1070
     7
1070
   178
1070
     7
1070
    41
1041
3.175
1070
   147
1041
1.5
1070
    42
1041
2.0
1070
    44
1041
2.0
1070
   140
1041
3.0
1070
   343
1005
0
1070
   344
1005
0
1002
}
0
DIMENSION
5
269
100
AcDbEntity
8
2
62
256
6
ByLayer
370
13
48
1
60
0
100
AcDbDimension
2
DimnDraft3D2
10
131.584749
20
-57.472878
30
0
11
131.584749
21
-12.791131
31
0
70
32
71
5
72
1
41
1
210
0
220
0
230
1
3
Standard
100
AcDbAlignedDimension
13
102.000937
23
57.485353
33
0
14
101.074041
24
-57.472878
34
0
50
90
100
AcDbRotatedDimension
1001
ACAD
1000
DSTYLE
1002
{
1070
    74
1070
     0
1070
   279
1070
     0
1070
   172
1070
     1
1070
   173
1070
     1
1070
   340
1005
252
1070
   271
1070
     1
1070
    77
1070
     1
1070
    73
1070
     0
1070
   171
1070
     4
1070
   274
1070
     4
1070
   177
1070
     7
1070
   176
1070
     7
1070
   178
1070
     7
1070
    41
1041
3.175
1070
   147
1041
1.5
1070
    42
1041
2.0
1070
    44
1041
2.0
1070
   140
1041
3.0
1070
   343
1005
0
1070
   344
1005
0
1002
}
0
DIMENSION
5
273
100
AcDbEntity
8
2
62
256
6
ByLayer
370
13
48
1
60
0
100
AcDbDimension
2
DimnDraft3D3
10
101.000937
20
57.485353
30
0
11
110.735356
21
46.750934
31
0
70
34
71
5
72
1
41
1
210
0
220
0
230
1
3
Standard
100
AcDb2LineAngularDimension
13
100.000937
23
56.680243
33
0
14
100.000937
24
45.493353
34
0
15
100.000937
25
57.485353
35
0
16
112.856676
26
44.629614
36
0
40
0
0
DIMENSION
5
27F
100
AcDbEntity
8
SK2
62
256
6
ByLayer
370
13
48
1
60
0
100
AcDbDimension
2
DimnDraft3D4
10
-65.651502
20
-40
30
0
11
-65.151502
21
0.414474
31
0
70
33
71
5
72
1
41
1
210
0
220
0
230
1
3
Standard
100
AcDbAlignedDimension
13
-1.7
23
40
33
0
14
-1.7
24
-40
34
0
1001
ACAD
1000
DSTYLE
1002
{
1070
   279
1070
     0
1070
    74
1070
     0
1070
   173
1070
     1
1070
   340
1005
252
1070
   271
1070
     0
1070
    77
1070
     1
1070
    73
1070
     0
1070
   171
1070
     4
1070
   274
1070
     4
1070
   177
1070
     7
1070
   176
1070
     7
1070
   178
1070
     7
1070
    41
1041
3.175
1070
   147
1041
1.5
1070
    42
1041
2.0
1070
    44
1041
2.0
1070
   140
1041
3.0
1070
   343
1005
0
1070
   344
1005
0
1002
}
0
ENDSEC
0
SECTION
2
OBJECTS
0
DICTIONARY
5
2ef
330
0
100
AcDbDictionary
280
0
281
1
3
ACAD_GROUP
350
2f0
3
ACAD_GROUP
350
2f1
3
ACAD_MLINESTYLE
350
2f2
0
DICTIONARY
5
2f0
330
0
100
AcDbDictionary
280
0
281
1
0
DICTIONARY
5
2f1
330
0
100
AcDbDictionary
280
0
281
1
3
<200940960NDI000_00>
350
28A
3
<201752555MOD000_00>
350
288
3
391_68A_1_03213C06B_A1
350
289
3
DIT-000-00-UG_TO_2D CONVERT_BR20_SIZEF,G AND_H_CN12
350
28B
0
DICTIONARY
5
2f2
330
0
100
AcDbDictionary
280
0
281
1
3
Standard
350
18
0
GROUP
5
28A
330
2f1
100
AcDbGroup
300

70
0
71
1
340
76
340
78
340
79
340
163
340
164
340
1DC
340
1DD
340
1DE
340
1DF
340
1E0
340
1E1
340
1E2
340
1E3
340
1E4
340
1E5
340
1E6
340
1E7
340
1E8
340
1E9
340
1EA
340
1EB
340
1EC
340
1ED
340
1EE
340
1EF
340
1F0
0
GROUP
5
288
330
2f1
100
AcDbGroup
300

70
0
71
1
340
6C
340
6E
340
70
340
72
340
73
340
75
340
76
340
78
340
79
340
7A
340
7C
340
7D
340
7E
340
7F
340
80
340
81
340
82
340
83
340
84
340
85
340
86
340
87
340
88
340
89
340
8A
340
8B
340
8C
340
8D
340
8E
340
8F
340
90
340
91
340
92
340
93
340
94
340
95
340
96
340
97
340
98
340
99
340
9A
340
9B
340
9C
340
9D
340
9E
340
9F
340
A0
340
A1
340
A2
340
A3
340
A4
340
A5
340
A6
340
A7
340
A8
340
A9
340
AA
340
AB
340
AC
340
AD
340
AE
340
AF
340
B0
340
B1
340
B2
340
B3
340
B4
340
B5
340
B6
340
B7
340
B8
340
B9
340
BA
340
BB
340
BC
340
BD
340
BE
340
BF
340
C0
340
C1
340
C2
340
C3
340
C4
340
C5
340
C6
340
C7
340
C8
340
C9
340
CA
340
CB
340
CC
340
CD
340
CE
340
CF
340
D0
340
D1
340
D2
340
D3
340
D4
340
D5
340
D6
340
D7
340
D8
340
D9
340
DA
340
DB
340
DC
340
DD
340
DE
340
DF
340
E0
340
E1
340
E2
340
E3
340
E4
340
E5
340
E6
340
E7
340
E8
340
E9
340
EA
340
EB
340
EC
340
ED
340
EE
340
EF
340
F0
340
F1
340
F2
340
F3
340
F4
340
F5
340
F6
340
F7
340
F8
340
F9
340
FA
340
FB
340
FC
340
FD
340
FE
340
FF
340
100
340
101
340
102
340
103
340
104
340
105
340
106
340
107
340
108
340
109
340
10A
340
10B
340
10C
340
10D
340
10E
340
10F
340
110
340
111
340
112
340
113
340
114
340
115
340
116
340
117
340
118
340
119
340
11A
340
11B
340
11C
340
11D
340
11E
340
11F
340
120
340
121
340
122
340
123
340
124
340
125
340
126
340
127
340
128
340
129
340
12A
340
12B
340
12C
340
12D
340
12E
340
12F
340
130
340
131
340
132
340
133
340
134
340
135
340
136
340
137
340
138
340
139
340
13A
340
13B
340
13C
340
13D
340
13E
340
13F
340
140
340
141
340
142
340
143
340
144
340
145
340
146
340
147
340
148
340
149
340
14A
340
14B
340
14C
340
14D
340
14E
340
14F
340
150
340
151
340
152
340
153
340
154
340
155
340
156
340
157
340
158
340
159
340
15A
340
15B
340
15C
340
15D
340
15E
340
15F
340
160
340
161
340
162
340
163
340
164
340
165
340
166
340
167
340
168
340
169
340
16A
340
16B
340
16C
340
16D
340
16E
340
16F
340
170
340
171
340
172
340
173
340
174
340
175
340
176
340
177
340
178
340
179
340
17A
340
17B
340
17C
340
17D
340
17E
340
17F
340
180
340
181
340
182
340
183
340
184
340
185
340
186
340
187
340
188
340
189
340
18A
340
18B
340
18C
340
18D
340
18E
340
18F
340
190
340
191
340
192
340
193
340
194
340
195
340
196
340
197
340
198
340
199
340
19A
340
19B
340
19C
340
19D
340
19E
340
19F
340
1A0
340
1A1
340
1A2
340
1A3
340
1A4
340
1A5
340
1A6
340
1A7
340
1A8
340
1A9
340
1AA
340
1AB
340
1AC
340
1AD
340
1AE
340
1AF
340
1B0
340
1B1
340
1B2
340
1B3
340
1B4
340
1B5
340
1B6
340
1B7
340
1B8
340
1B9
340
1BA
340
1BB
340
1BC
340
1BD
340
1BE
340
1BF
340
1C0
340
1C1
340
1C2
340
1C3
340
1C4
340
1C5
340
1C6
340
1C7
340
1C8
340
1C9
340
1CA
340
1CB
340
1CC
340
1CD
340
1CE
340
1CF
340
1D0
340
1D1
340
1D2
340
1D3
340
1D4
340
1D5
340
1D6
340
1D7
340
1D8
340
1D9
340
1DA
340
1DB
340
1DC
340
1DD
340
1DE
340
1DF
340
1E0
340
1E1
340
1E2
340
1E3
340
1E4
340
1E5
340
1E6
340
1E7
340
1E8
340
1E9
340
1EA
340
1EB
340
1EC
340
1ED
340
1EE
340
1EF
340
1F0
340
1F1
340
1F2
340
1F3
340
1F4
340
1F5
340
1F6
340
1F7
340
1F8
340
1F9
340
1FA
340
1FB
340
1FC
340
1FD
340
1FE
340
1FF
340
200
340
201
340
202
340
203
340
204
340
205
340
206
340
207
340
208
340
209
340
20A
340
20B
340
20C
340
20D
340
20E
340
20F
340
210
340
211
340
212
340
213
340
214
340
215
340
216
340
217
340
218
340
219
340
21A
340
21B
340
21C
340
21D
340
21E
340
21F
340
220
340
221
340
222
340
223
340
224
340
225
340
226
340
227
340
228
340
229
340
22A
340
22B
340
22C
340
22D
340
22E
340
22F
340
230
340
231
340
232
340
233
340
234
340
235
340
236
340
237
340
238
340
239
340
23A
340
23B
340
23C
340
23D
340
23E
340
23F
340
240
340
241
340
242
340
243
340
244
340
245
340
246
340
247
340
248
340
249
340
24A
340
24B
340
24C
340
24D
340
24E
340
24F
340
250
340
75
340
251
340
269
340
273
340
76
340
78
340
79
340
163
340
164
340
1DC
340
1DD
340
1DE
340
1DF
340
1E0
340
1E1
340
1E2
340
1E3
340
1E4
340
1E5
340
1E6
340
1E7
340
1E8
340
1E9
340
1EA
340
1EB
340
1EC
340
1ED
340
1EE
340
1EF
340
1F0
340
7A
340
7C
340
7D
340
7E
340
7F
340
80
340
81
340
82
340
83
340
84
340
85
340
86
340
87
340
88
340
89
340
8A
340
8B
340
8C
340
8D
340
8E
340
8F
340
90
340
91
340
92
340
93
340
94
340
95
340
96
340
97
340
98
340
99
340
9A
340
9B
340
9C
340
9D
340
9E
340
9F
340
A0
340
A1
340
A2
340
A3
340
A4
340
A5
340
A6
340
A7
340
A8
340
A9
340
AA
340
AB
340
AC
340
AD
340
AE
340
AF
340
B0
340
B1
340
B2
340
B3
340
B4
340
B5
340
B6
340
B7
340
B8
340
B9
340
BA
340
BB
340
BC
340
BD
340
BE
340
BF
340
C0
340
C1
340
C2
340
C3
340
C4
340
C5
340
C6
340
C7
340
C8
340
C9
340
CA
340
CB
340
CC
340
CD
340
CE
340
CF
340
D0
340
D1
340
D2
340
D3
340
D4
340
D5
340
D6
340
D7
340
D8
340
D9
340
DA
340
DB
340
DC
340
DD
340
DE
340
DF
340
E0
340
E1
340
E2
340
E3
340
E4
340
E5
340
E6
340
E7
340
E8
340
E9
340
EA
340
EB
340
EC
340
ED
340
EE
340
EF
340
F0
340
F1
340
F2
340
F3
340
F4
340
F5
340
F6
340
F7
340
F8
340
F9
340
FA
340
FB
340
FC
340
FD
340
FE
340
FF
340
100
340
101
340
102
340
103
340
104
340
105
340
106
340
107
340
108
340
109
340
10A
340
10B
340
10C
340
10D
340
10E
340
10F
340
110
340
111
340
112
340
113
340
114
340
115
340
116
340
117
340
118
340
119
340
11A
340
11B
340
11C
340
11D
340
11E
340
11F
340
120
340
121
340
122
340
123
340
124
340
125
340
126
340
127
340
128
340
129
340
12A
340
12B
340
12C
340
12D
340
12E
340
12F
340
130
340
131
340
132
340
133
340
134
340
135
340
136
340
137
340
138
340
139
340
13A
340
13B
340
13C
340
13D
340
13E
340
13F
340
140
340
141
340
142
340
143
340
144
340
145
340
146
340
147
340
148
340
149
340
14A
340
14B
340
14C
340
14D
340
14E
340
14F
340
150
340
151
340
152
340
153
340
154
340
155
340
156
340
157
340
158
340
159
340
15A
340
15B
340
15C
340
15D
340
15E
340
15F
340
160
340
161
340
162
340
165
340
166
340
167
340
168
340
169
340
16A
340
16B
340
16C
340
16D
340
16E
340
16F
340
170
340
171
340
172
340
173
340
174
340
175
340
176
340
177
340
178
340
179
340
17A
340
17B
340
17C
340
17D
340
17E
340
17F
340
180
340
181
340
182
340
183
340
184
340
185
340
186
340
187
340
188
340
189
340
18A
340
18B
340
18C
340
18D
340
18E
340
18F
340
190
340
191
340
192
340
193
340
194
340
195
340
196
340
197
340
198
340
199
340
19A
340
19B
340
19C
340
19D
340
19E
340
19F
340
1A0
340
1A1
340
1A2
340
1A3
340
1A4
340
1A5
340
1A6
340
1A7
340
1A8
340
1A9
340
1AA
340
1AB
340
1AC
340
1AD
340
1AE
340
1AF
340
1B0
340
1B1
340
1B2
340
1B3
340
1B4
340
1B5
340
1B6
340
1B7
340
1B8
340
1B9
340
1BA
340
1BB
340
1BC
340
1BD
340
1BE
340
1BF
340
1C0
340
1C1
340
1C2
340
1C3
340
1C4
340
1C5
340
1C6
340
1C7
340
1C8
340
1C9
340
1CA
340
1CB
340
1CC
340
1CD
340
1CE
340
1CF
340
1D0
340
1D1
340
1D2
340
1D3
340
1D4
340
1D5
340
1D6
340
1D7
340
1D8
340
1D9
340
1DA
340
1DB
340
1F1
340
1F2
340
1F3
340
1F4
340
1F5
340
1F6
340
1F7
340
1F8
340
1F9
340
1FA
340
1FB
340
1FC
340
1FD
340
1FE
340
1FF
340
200
340
201
340
202
340
203
340
204
340
205
340
206
340
207
340
208
340
209
340
20A
340
20B
340
20C
340
20D
340
20E
340
20F
340
210
340
211
340
212
340
213
340
214
340
215
340
216
340
217
340
218
340
219
340
21A
340
21B
340
21C
340
21D
340
21E
340
21F
340
220
340
221
340
222
340
223
340
224
340
225
340
226
340
227
340
228
340
229
340
22A
340
22B
340
22C
340
22D
340
22E
340
22F
340
230
340
231
340
232
340
233
340
234
340
235
340
236
340
237
340
238
340
239
340
23A
340
23B
340
23C
340
23D
340
23E
340
23F
340
240
340
241
340
242
340
243
340
244
340
245
340
246
340
247
340
248
340
249
340
24A
340
24B
340
24C
340
24D
340
24E
340
24F
340
250
340
251
340
25F
340
269
340
273
340
27F
0
GROUP
5
289
330
2f1
100
AcDbGroup
300

70
0
71
1
340
75
340
251
340
269
340
273
0
GROUP
5
28B
330
2f1
100
AcDbGroup
300

70
0
71
1
340
7A
340
7C
340
7D
340
7E
340
7F
340
80
340
81
340
82
340
83
340
84
340
85
340
86
340
87
340
88
340
89
340
8A
340
8B
340
8C
340
8D
340
8E
340
8F
340
90
340
91
340
92
340
93
340
94
340
95
340
96
340
97
340
98
340
99
340
9A
340
9B
340
9C
340
9D
340
9E
340
9F
340
A0
340
A1
340
A2
340
A3
340
A4
340
A5
340
A6
340
A7
340
A8
340
A9
340
AA
340
AB
340
AC
340
AD
340
AE
340
AF
340
B0
340
B1
340
B2
340
B3
340
B4
340
B5
340
B6
340
B7
340
B8
340
B9
340
BA
340
BB
340
BC
340
BD
340
BE
340
BF
340
C0
340
C1
340
C2
340
C3
340
C4
340
C5
340
C6
340
C7
340
C8
340
C9
340
CA
340
CB
340
CC
340
CD
340
CE
340
CF
340
D0
340
D1
340
D2
340
D3
340
D4
340
D5
340
D6
340
D7
340
D8
340
D9
340
DA
340
DB
340
DC
340
DD
340
DE
340
DF
340
E0
340
E1
340
E2
340
E3
340
E4
340
E5
340
E6
340
E7
340
E8
340
E9
340
EA
340
EB
340
EC
340
ED
340
EE
340
EF
340
F0
340
F1
340
F2
340
F3
340
F4
340
F5
340
F6
340
F7
340
F8
340
F9
340
FA
340
FB
340
FC
340
FD
340
FE
340
FF
340
100
340
101
340
102
340
103
340
104
340
105
340
106
340
107
340
108
340
109
340
10A
340
10B
340
10C
340
10D
340
10E
340
10F
340
110
340
111
340
112
340
113
340
114
340
115
340
116
340
117
340
118
340
119
340
11A
340
11B
340
11C
340
11D
340
11E
340
11F
340
120
340
121
340
122
340
123
340
124
340
125
340
126
340
127
340
128
340
129
340
12A
340
12B
340
12C
340
12D
340
12E
340
12F
340
130
340
131
340
132
340
133
340
134
340
135
340
136
340
137
340
138
340
139
340
13A
340
13B
340
13C
340
13D
340
13E
340
13F
340
140
340
141
340
142
340
143
340
144
340
145
340
146
340
147
340
148
340
149
340
14A
340
14B
340
14C
340
14D
340
14E
340
14F
340
150
340
151
340
152
340
153
340
154
340
155
340
156
340
157
340
158
340
159
340
15A
340
15B
340
15C
340
15D
340
15E
340
15F
340
160
340
161
340
162
340
165
340
166
340
167
340
168
340
169
340
16A
340
16B
340
16C
340
16D
340
16E
340
16F
340
170
340
171
340
172
340
173
340
174
340
175
340
176
340
177
340
178
340
179
340
17A
340
17B
340
17C
340
17D
340
17E
340
17F
340
180
340
181
340
182
340
183
340
184
340
185
340
186
340
187
340
188
340
189
340
18A
340
18B
340
18C
340
18D
340
18E
340
18F
340
190
340
191
340
192
340
193
340
194
340
195
340
196
340
197
340
198
340
199
340
19A
340
19B
340
19C
340
19D
340
19E
340
19F
340
1A0
340
1A1
340
1A2
340
1A3
340
1A4
340
1A5
340
1A6
340
1A7
340
1A8
340
1A9
340
1AA
340
1AB
340
1AC
340
1AD
340
1AE
340
1AF
340
1B0
340
1B1
340
1B2
340
1B3
340
1B4
340
1B5
340
1B6
340
1B7
340
1B8
340
1B9
340
1BA
340
1BB
340
1BC
340
1BD
340
1BE
340
1BF
340
1C0
340
1C1
340
1C2
340
1C3
340
1C4
340
1C5
340
1C6
340
1C7
340
1C8
340
1C9
340
1CA
340
1CB
340
1CC
340
1CD
340
1CE
340
1CF
340
1D0
340
1D1
340
1D2
340
1D3
340
1D4
340
1D5
340
1D6
340
1D7
340
1D8
340
1D9
340
1DA
340
1DB
340
1F1
340
1F2
340
1F3
340
1F4
340
1F5
340
1F6
340
1F7
340
1F8
340
1F9
340
1FA
340
1FB
340
1FC
340
1FD
340
1FE
340
1FF
340
200
340
201
340
202
340
203
340
204
340
205
340
206
340
207
340
208
340
209
340
20A
340
20B
340
20C
340
20D
340
20E
340
20F
340
210
340
211
340
212
340
213
340
214
340
215
340
216
340
217
340
218
340
219
340
21A
340
21B
340
21C
340
21D
340
21E
340
21F
340
220
340
221
340
222
340
223
340
224
340
225
340
226
340
227
340
228
340
229
340
22A
340
22B
340
22C
340
22D
340
22E
340
22F
340
230
340
231
340
232
340
233
340
234
340
235
340
236
340
237
340
238
340
239
340
23A
340
23B
340
23C
340
23D
340
23E
340
23F
340
240
340
241
340
242
340
243
340
244
340
245
340
246
340
247
340
248
340
249
340
24A
340
24B
340
24C
340
24D
340
24E
340
24F
340
250
0
MLINESTYLE
5
18
330
2f2
100
AcDbMlineStyle
2
Standard
70
0
3

62
256
51
90
52
90
71
2
49
-0.5
62
256
6
ByLayer
49
0.5
62
256
6
ByLayer
0
RASTERVARIABLES
5
2dc
330

100
AcDbRasterVariables
90
0
70
1
71
1
72
1
0
ENDSEC
0
EOF
