  0
SECTION
  2
HEADER
  9
$ACADVER
  1
AC1015
  9
$ACADMAINTVER
 70
     6
  9
$DWGCODEPAGE
  3
ANSI_1252
  9
$INSBASE
 10
0.0
 20
0.0
 30
0.0
  9
$EXTMIN
 10
1.000000000000000E+20
 20
1.000000000000000E+20
 30
1.000000000000000E+20
  9
$EXTMAX
 10
-1.000000000000000E+20
 20
-1.000000000000000E+20
 30
-1.000000000000000E+20
  9
$LIMMIN
 10
-170.0
 20
-170.0
  9
$LIMMAX
 10
519.0
 20
260.0
  9
$ORTHOMODE
 70
     0
  9
$REGENMODE
 70
     1
  9
$FILLMODE
 70
     1
  9
$QTEXTMODE
 70
     0
  9
$MIRRTEXT
 70
     0
  9
$LTSCALE
 40
1.0
  9
$ATTMODE
 70
     1
  9
$TEXTSIZE
 40
3.5
  9
$TRACEWID
 40
1.0
  9
$TEXTSTYLE
  7
SIMPLEX
  9
$CLAYER
  8
1
  9
$CELTYPE
  6
BYLAYER
  9
$CECOLOR
 62
   256
  9
$CELTSCALE
 40
1.0
  9
$DISPSILH
 70
     0
  9
$DIMSCALE
 40
1.0
  9
$DIMASZ
 40
2.5
  9
$DIMEXO
 40
0.0
  9
$DIMDLI
 40
3.75
  9
$DIMRND
 40
0.0
  9
$DIMDLE
 40
0.0
  9
$DIMEXE
 40
1.25
  9
$DIMTP
 40
0.0
  9
$DIMTM
 40
0.0
  9
$DIMTXT
 40
3.5
  9
$DIMCEN
 40
0.0
  9
$DIMTSZ
 40
0.0
  9
$DIMTOL
 70
     0
  9
$DIMLIM
 70
     0
  9
$DIMTIH
 70
     0
  9
$DIMTOH
 70
     0
  9
$DIMSE1
 70
     0
  9
$DIMSE2
 70
     0
  9
$DIMTAD
 70
     1
  9
$DIMZIN
 70
     8
  9
$DIMBLK
  1

  9
$DIMASO
 70
     1
  9
$DIMSHO
 70
     1
  9
$DIMPOST
  1

  9
$DIMAPOST
  1

  9
$DIMALT
 70
     0
  9
$DIMALTD
 70
     3
  9
$DIMALTF
 40
0.039370078
  9
$DIMLFAC
 40
1.0
  9
$DIMTOFL
 70
     0
  9
$DIMTVP
 40
0.0
  9
$DIMTIX
 70
     0
  9
$DIMSOXD
 70
     0
  9
$DIMSAH
 70
     0
  9
$DIMBLK1
  1

  9
$DIMBLK2
  1

  9
$DIMSTYLE
  2
STANDARD
  9
$DIMCLRD
 70
     0
  9
$DIMCLRE
 70
     0
  9
$DIMCLRT
 70
     0
  9
$DIMTFAC
 40
1.0
  9
$DIMGAP
 40
0.625
  9
$DIMJUST
 70
     0
  9
$DIMSD1
 70
     0
  9
$DIMSD2
 70
     0
  9
$DIMTOLJ
 70
     0
  9
$DIMTZIN
 70
     8
  9
$DIMALTZ
 70
     0
  9
$DIMALTTZ
 70
     0
  9
$DIMUPT
 70
     0
  9
$DIMDEC
 70
     2
  9
$DIMTDEC
 70
     2
  9
$DIMALTU
 70
     2
  9
$DIMALTTD
 70
     3
  9
$DIMTXSTY
  7
SIMPLEX
  9
$DIMAUNIT
 70
     0
  9
$DIMADEC
 70
     2
  9
$DIMALTRND
 40
0.0
  9
$DIMAZIN
 70
     2
  9
$DIMDSEP
 70
    46
  9
$DIMATFIT
 70
     3
  9
$DIMFRAC
 70
     0
  9
$DIMLDRBLK
  1

  9
$DIMLUNIT
 70
     2
  9
$DIMLWD
 70
    -2
  9
$DIMLWE
 70
    -2
  9
$DIMTMOVE
 70
     0
  9
$LUNITS
 70
     2
  9
$LUPREC
 70
     4
  9
$SKETCHINC
 40
1.0
  9
$FILLETRAD
 40
0.0
  9
$AUNITS
 70
     0
  9
$AUPREC
 70
     0
  9
$MENU
  1
c:\tdm21\cad\caduti13\tdm13
  9
$ELEVATION
 40
0.0
  9
$PELEVATION
 40
0.0
  9
$THICKNESS
 40
0.0
  9
$LIMCHECK
 70
     0
  9
$CHAMFERA
 40
0.0
  9
$CHAMFERB
 40
0.0
  9
$CHAMFERC
 40
0.0
  9
$CHAMFERD
 40
0.0
  9
$SKPOLY
 70
     0
  9
$TDCREATE
 40
2454957.593642639
  9
$TDUCREATE
 40
2454957.510309306
  9
$TDUPDATE
 40
2456860.658728021
  9
$TDUUPDATE
 40
2456860.575394688
  9
$TDINDWG
 40
0.0009643519
  9
$TDUSRTIMER
 40
0.0009475231
  9
$USRTIMER
 70
     1
  9
$ANGBASE
 50
0.0
  9
$ANGDIR
 70
     0
  9
$PDMODE
 70
     1
  9
$PDSIZE
 40
0.0
  9
$PLINEWID
 40
0.0
  9
$SPLFRAME
 70
     0
  9
$SPLINETYPE
 70
     6
  9
$SPLINESEGS
 70
     8
  9
$HANDSEED
  5
679
  9
$SURFTAB1
 70
     6
  9
$SURFTAB2
 70
     6
  9
$SURFTYPE
 70
     6
  9
$SURFU
 70
     6
  9
$SURFV
 70
     6
  9
$UCSBASE
  2

  9
$UCSNAME
  2

  9
$UCSORG
 10
0.0
 20
0.0
 30
0.0
  9
$UCSXDIR
 10
1.0
 20
0.0
 30
0.0
  9
$UCSYDIR
 10
0.0
 20
1.0
 30
0.0
  9
$UCSORTHOREF
  2

  9
$UCSORTHOVIEW
 70
     0
  9
$UCSORGTOP
 10
0.0
 20
0.0
 30
0.0
  9
$UCSORGBOTTOM
 10
0.0
 20
0.0
 30
0.0
  9
$UCSORGLEFT
 10
0.0
 20
0.0
 30
0.0
  9
$UCSORGRIGHT
 10
0.0
 20
0.0
 30
0.0
  9
$UCSORGFRONT
 10
0.0
 20
0.0
 30
0.0
  9
$UCSORGBACK
 10
0.0
 20
0.0
 30
0.0
  9
$PUCSBASE
  2

  9
$PUCSNAME
  2

  9
$PUCSORG
 10
0.0
 20
0.0
 30
0.0
  9
$PUCSXDIR
 10
1.0
 20
0.0
 30
0.0
  9
$PUCSYDIR
 10
0.0
 20
1.0
 30
0.0
  9
$PUCSORTHOREF
  2

  9
$PUCSORTHOVIEW
 70
     0
  9
$PUCSORGTOP
 10
0.0
 20
0.0
 30
0.0
  9
$PUCSORGBOTTOM
 10
0.0
 20
0.0
 30
0.0
  9
$PUCSORGLEFT
 10
0.0
 20
0.0
 30
0.0
  9
$PUCSORGRIGHT
 10
0.0
 20
0.0
 30
0.0
  9
$PUCSORGFRONT
 10
0.0
 20
0.0
 30
0.0
  9
$PUCSORGBACK
 10
0.0
 20
0.0
 30
0.0
  9
$USERI1
 70
     0
  9
$USERI2
 70
     0
  9
$USERI3
 70
     0
  9
$USERI4
 70
     0
  9
$USERI5
 70
     0
  9
$USERR1
 40
0.0
  9
$USERR2
 40
0.0
  9
$USERR3
 40
0.0
  9
$USERR4
 40
0.0
  9
$USERR5
 40
0.0
  9
$WORLDVIEW
 70
     1
  9
$SHADEDGE
 70
     3
  9
$SHADEDIF
 70
    70
  9
$TILEMODE
 70
     1
  9
$MAXACTVP
 70
    64
  9
$PINSBASE
 10
0.0
 20
0.0
 30
0.0
  9
$PLIMCHECK
 70
     0
  9
$PEXTMIN
 10
0.0
 20
0.0
 30
0.0
  9
$PEXTMAX
 10
0.0
 20
0.0
 30
0.0
  9
$PLIMMIN
 10
0.0
 20
0.0
  9
$PLIMMAX
 10
12.0
 20
9.0
  9
$UNITMODE
 70
     0
  9
$VISRETAIN
 70
     0
  9
$PLINEGEN
 70
     0
  9
$PSLTSCALE
 70
     1
  9
$TREEDEPTH
 70
  3020
  9
$CMLSTYLE
  2
STANDARD
  9
$CMLJUST
 70
     0
  9
$CMLSCALE
 40
20.0
  9
$PROXYGRAPHICS
 70
     1
  9
$MEASUREMENT
 70
     1
  9
$CELWEIGHT
370
    -1
  9
$ENDCAPS
280
     0
  9
$JOINSTYLE
280
     0
  9
$LWDISPLAY
290
     0
  9
$INSUNITS
 70
     4
  9
$HYPERLINKBASE
  1

  9
$STYLESHEET
  1
MONOCHROME.CTB
  9
$XEDIT
290
     1
  9
$CEPSNTYPE
380
     0
  9
$PSTYLEMODE
290
     1
  9
$FINGERPRINTGUID
  2
{46B44192-1510-48B1-B61B-CBE2ADA013A7}
  9
$VERSIONGUID
  2
{6160D478-9A74-4C97-9D8A-D4A65CE74B12}
  9
$EXTNAMES
290
     1
  9
$PSVPSCALE
 40
0.0
  9
$OLESTARTUP
290
     0
  0
ENDSEC
  0
SECTION
  2
CLASSES
  0
CLASS
  1
ACDBDICTIONARYWDFLT
  2
AcDbDictionaryWithDefault
  3
ObjectDBX Classes
 90
        0
280
     0
281
     0
  0
CLASS
  1
ACDBPLACEHOLDER
  2
AcDbPlaceHolder
  3
ObjectDBX Classes
 90
        0
280
     0
281
     0
  0
CLASS
  1
LAYOUT
  2
AcDbLayout
  3
ObjectDBX Classes
 90
        0
280
     0
281
     0
  0
CLASS
  1
DICTIONARYVAR
  2
AcDbDictionaryVar
  3
ObjectDBX Classes
 90
        0
280
     0
281
     0
  0
CLASS
  1
TABLESTYLE
  2
AcDbTableStyle
  3
ObjectDBX Classes
 90
     4095
280
     0
281
     0
  0
CLASS
  1
SCALE
  2
AcDbScale
  3
ObjectDBX Classes
 90
     1153
280
     0
281
     0
  0
CLASS
  1
MATERIAL
  2
AcDbMaterial
  3
ObjectDBX Classes
 90
     1153
280
     0
281
     0
  0
CLASS
  1
VISUALSTYLE
  2
AcDbVisualStyle
  3
ObjectDBX Classes
 90
     4095
280
     0
281
     0
  0
ENDSEC
  0
SECTION
  2
TABLES
  0
TABLE
  2
VPORT
  5
8
330
0
100
AcDbSymbolTable
 70
     1
  0
VPORT
  5
39A
330
8
100
AcDbSymbolTableRecord
100
AcDbViewportTableRecord
  2
*Active
 70
     0
 10
0.0
 20
0.0
 11
1.0
 21
1.0
 12
218.9201881351169
 22
109.7549380673833
 13
0.0
 23
0.0
 14
5.0
 24
5.0
 15
5.0
 25
5.0
 16
0.0
 26
0.0
 36
1.0
 17
0.0
 27
0.0
 37
0.0
 40
564.6711112651689
 41
1.066073697585768
 42
50.0
 43
0.0
 44
0.0
 50
0.0
 51
0.0
 71
     0
 72
  2000
 73
     1
 74
     1
 75
     0
 76
     0
 77
     0
 78
     0
281
     0
 65
     1
110
0.0
120
0.0
130
0.0
111
1.0
121
0.0
131
0.0
112
0.0
122
1.0
132
0.0
 79
     0
146
0.0
  0
ENDTAB
  0
TABLE
  2
LTYPE
  5
5
330
0
100
AcDbSymbolTable
 70
     3
  0
LTYPE
  5
12
330
5
100
AcDbSymbolTableRecord
100
AcDbLinetypeTableRecord
  2
BYBLOCK
 70
     0
  3

 72
    65
 73
     0
 40
0.0
  0
LTYPE
  5
13
330
5
100
AcDbSymbolTableRecord
100
AcDbLinetypeTableRecord
  2
BYLAYER
 70
     0
  3

 72
    65
 73
     0
 40
0.0
  0
LTYPE
  5
14
330
5
100
AcDbSymbolTableRecord
100
AcDbLinetypeTableRecord
  2
CONTINUOUS
 70
     0
  3
Solid line
 72
    65
 73
     0
 40
0.0
  0
LTYPE
  5
20
330
5
100
AcDbSymbolTableRecord
100
AcDbLinetypeTableRecord
  2
HIDDEN
 70
     0
  3
Hidden __ __ __ __ __ __ __ __ __ __ __ __ __ _
 72
    65
 73
     2
 40
9.524999999999997
 49
6.349999999999998
 74
     0
 49
-3.174999999999998
 74
     0
  0
LTYPE
  5
351
330
5
100
AcDbSymbolTableRecord
100
AcDbLinetypeTableRecord
  2
CENTER
 70
     0
  3
Dash dot __ . __ . __ . __ . __ . __ . __ . __
 72
    65
 73
     4
 40
25.4
 49
12.7
 74
     0
 49
-6.349999999999998
 74
     0
 49
0.0
 74
     0
 49
-6.349999999999998
 74
     0
  0
ENDTAB
  0
TABLE
  2
LAYER
  5
2
330
0
100
AcDbSymbolTable
 70
    16
  0
LAYER
  5
F
330
2
100
AcDbSymbolTableRecord
100
AcDbLayerTableRecord
  2
0
 70
     0
 62
     7
  6
CONTINUOUS
370
    -3
390
300
  0
LAYER
  5
23
330
2
100
AcDbSymbolTableRecord
100
AcDbLayerTableRecord
  2
1
 70
     0
 62
     4
  6
CONTINUOUS
370
    -3
390
300
  0
LAYER
  5
24
330
2
100
AcDbSymbolTableRecord
100
AcDbLayerTableRecord
  2
SK1
 70
     0
 62
     4
  6
CONTINUOUS
370
    -3
390
300
  0
LAYER
  5
25
330
2
100
AcDbSymbolTableRecord
100
AcDbLayerTableRecord
  2
2
 70
     0
 62
     7
  6
CONTINUOUS
370
    -3
390
300
  0
LAYER
  5
26
330
2
100
AcDbSymbolTableRecord
100
AcDbLayerTableRecord
  2
2L
 70
     0
 62
     7
  6
CONTINUOUS
370
    -3
390
300
  0
LAYER
  5
27
330
2
100
AcDbSymbolTableRecord
100
AcDbLayerTableRecord
  2
SK2
 70
     0
 62
     7
  6
CONTINUOUS
370
    -3
390
300
  0
LAYER
  5
28
330
2
100
AcDbSymbolTableRecord
100
AcDbLayerTableRecord
  2
3
 70
     0
 62
     1
  6
HIDDEN
370
    -3
390
300
  0
LAYER
  5
29
330
2
100
AcDbSymbolTableRecord
100
AcDbLayerTableRecord
  2
SK3
 70
     0
 62
     1
  6
HIDDEN
370
    -3
390
300
  0
LAYER
  5
2A
330
2
100
AcDbSymbolTableRecord
100
AcDbLayerTableRecord
  2
4
 70
     0
 62
     2
  6
CENTER
370
    -3
390
300
  0
LAYER
  5
2B
330
2
100
AcDbSymbolTableRecord
100
AcDbLayerTableRecord
  2
SK4
 70
     0
 62
     2
  6
CENTER
370
    -3
390
300
  0
LAYER
  5
2C
330
2
100
AcDbSymbolTableRecord
100
AcDbLayerTableRecord
  2
5
 70
     0
 62
    -7
  6
CONTINUOUS
370
    -3
390
300
  0
LAYER
  5
2D
330
2
100
AcDbSymbolTableRecord
100
AcDbLayerTableRecord
  2
6
 70
     0
 62
     5
  6
CONTINUOUS
370
    -3
390
300
  0
LAYER
  5
2E
330
2
100
AcDbSymbolTableRecord
100
AcDbLayerTableRecord
  2
SK6
 70
     0
 62
     5
  6
CONTINUOUS
370
    -3
390
300
  0
LAYER
  5
2F
330
2
100
AcDbSymbolTableRecord
100
AcDbLayerTableRecord
  2
DEFPOINTS
 70
     0
 62
     7
  6
CONTINUOUS
290
     0
370
    -3
390
300
  0
LAYER
  5
375
330
2
100
AcDbSymbolTableRecord
100
AcDbLayerTableRecord
  2
CUT
 70
     0
 62
     1
  6
CONTINUOUS
370
    -3
390
300
  0
LAYER
  5
376
330
2
100
AcDbSymbolTableRecord
100
AcDbLayerTableRecord
  2
NOCUT
 70
     0
 62
     7
  6
CONTINUOUS
370
    -3
390
300
  0
ENDTAB
  0
TABLE
  2
STYLE
  5
3
330
0
100
AcDbSymbolTable
 70
     4
  0
STYLE
  5
10
330
3
100
AcDbSymbolTableRecord
100
AcDbTextStyleTableRecord
  2
STANDARD
 70
     0
 40
0.0
 41
1.0
 50
0.0
 71
     0
 42
5.0
  3
txt
  4

  0
STYLE
  5
1D
330
3
100
AcDbSymbolTableRecord
100
AcDbTextStyleTableRecord
  2
TXT
 70
     0
 40
8.0
 41
1.0
 50
0.0
 71
     0
 42
8.0
  3
txt
  4

  0
STYLE
  5
1E
330
3
100
AcDbSymbolTableRecord
100
AcDbTextStyleTableRecord
  2
SIMPLEX
 70
     0
 40
0.0
 41
1.0
 50
0.0
 71
     0
 42
3.5
  3
simplex
  4

  0
STYLE
  5
34C
330
3
100
AcDbSymbolTableRecord
100
AcDbTextStyleTableRecord
  2

 70
     1
 40
0.0
 41
1.0
 50
0.0
 71
     0
 42
2.5
  3
ltypeshp.shx
  4

  0
ENDTAB
  0
TABLE
  2
VIEW
  5
6
330
0
100
AcDbSymbolTable
 70
     0
  0
ENDTAB
  0
TABLE
  2
UCS
  5
7
330
0
100
AcDbSymbolTable
 70
     0
  0
ENDTAB
  0
TABLE
  2
APPID
  5
9
330
0
100
AcDbSymbolTable
 70
     1
  0
APPID
  5
11
330
9
100
AcDbSymbolTableRecord
100
AcDbRegAppTableRecord
  2
ACAD
 70
     0
  0
ENDTAB
  0
TABLE
  2
DIMSTYLE
  5
A
330
0
100
AcDbSymbolTable
 70
     1
100
AcDbDimStyleTable
  0
DIMSTYLE
105
3F
102
{ACAD_REACTORS
330
60B
330
619
330
626
330
634
330
641
102
}
330
A
100
AcDbSymbolTableRecord
100
AcDbDimStyleTableRecord
  2
STANDARD
 70
     0
 41
2.5
 42
0.0
 43
3.75
 44
1.25
 73
     0
 74
     0
 77
     1
 78
     8
 79
     2
140
3.5
141
0.0
143
0.039370078
147
0.625
171
     3
178
     0
179
     2
271
     2
272
     2
274
     3
283
     0
284
     8
340
1E
  0
ENDTAB
  0
TABLE
  2
BLOCK_RECORD
  5
1
330
0
100
AcDbSymbolTable
 70
     5
  0
BLOCK_RECORD
  5
18
330
1
100
AcDbSymbolTableRecord
100
AcDbBlockTableRecord
  2
*MODEL_SPACE
340
303
  0
BLOCK_RECORD
  5
338
330
1
100
AcDbSymbolTableRecord
100
AcDbBlockTableRecord
  2
*Paper_Space
340
33B
  0
BLOCK_RECORD
  5
60C
330
1
100
AcDbSymbolTableRecord
100
AcDbBlockTableRecord
  2
*D0
340
0
  0
BLOCK_RECORD
  5
61A
330
1
100
AcDbSymbolTableRecord
100
AcDbBlockTableRecord
  2
*D1
340
0
  0
BLOCK_RECORD
  5
627
330
1
100
AcDbSymbolTableRecord
100
AcDbBlockTableRecord
  2
*D2
340
0
  0
BLOCK_RECORD
  5
635
330
1
100
AcDbSymbolTableRecord
100
AcDbBlockTableRecord
  2
*D3
340
0
  0
BLOCK_RECORD
  5
642
330
1
100
AcDbSymbolTableRecord
100
AcDbBlockTableRecord
  2
*D4
340
0
  0
ENDTAB
  0
ENDSEC
  0
SECTION
  2
BLOCKS
  0
BLOCK
  5
32
330
18
100
AcDbEntity
  8
0
100
AcDbBlockBegin
  2
*MODEL_SPACE
 70
     0
 10
0.0
 20
0.0
 30
0.0
  3
*MODEL_SPACE
  1

  0
ENDBLK
  5
33
330
18
100
AcDbEntity
  8
0
100
AcDbBlockEnd
  0
BLOCK
  5
339
330
338
100
AcDbEntity
 67
     1
  8
0
100
AcDbBlockBegin
  2
*Paper_Space
 70
     0
 10
0.0
 20
0.0
 30
0.0
  3
*Paper_Space
  1

  0
ENDBLK
  5
33A
330
338
100
AcDbEntity
 67
     1
  8
0
100
AcDbBlockEnd
  0
BLOCK
  5
60D
330
60C
100
AcDbEntity
  8
0
100
AcDbBlockBegin
  2
*D0
 70
     1
 10
0.0
 20
0.0
 30
0.0
  3
*D0
  1

  0
LINE
  5
60F
330
60C
100
AcDbEntity
  8
2
 62
     0
370
    -2
100
AcDbLine
 10
67.0
 20
4.0
 30
0.0
 11
83.25
 21
4.000000000000056
 31
0.0
  0
LINE
  5
610
330
60C
100
AcDbEntity
  8
2
 62
     0
370
    -2
100
AcDbLine
 10
67.0
 20
-4.0
 30
0.0
 11
83.25000000000003
 21
-3.999999999999943
 31
0.0
  0
LINE
  5
611
330
60C
100
AcDbEntity
  8
2
 62
     0
370
    -2
100
AcDbLine
 10
82.00000000000003
 20
-3.999999999999948
 30
0.0
 11
82.00000000000009
 21
-21.59949999999995
 31
0.0
  0
LINE
  5
612
330
60C
100
AcDbEntity
  8
2
 62
     0
370
    -2
100
AcDbLine
 10
82.00000000000001
 20
1.500000000000052
 30
0.0
 11
82.00000000000001
 21
-1.499999999999948
 31
0.0
  0
SOLID
  5
613
330
60C
100
AcDbEntity
  8
2
 62
     0
100
AcDbTrace
 10
82.41666666666669
 20
1.500000000000053
 30
0.0
 11
81.58333333333334
 21
1.50000000000005
 31
0.0
 12
82.0
 22
4.000000000000052
 32
0.0
 13
82.0
 23
4.000000000000052
 33
0.0
  0
SOLID
  5
614
330
60C
100
AcDbEntity
  8
2
 62
     0
100
AcDbTrace
 10
81.58333333333334
 20
-1.499999999999949
 30
0.0
 11
82.41666666666669
 21
-1.499999999999946
 31
0.0
 12
82.00000000000003
 22
-3.999999999999948
 32
0.0
 13
82.00000000000003
 23
-3.999999999999948
 33
0.0
  0
MTEXT
  5
615
330
60C
100
AcDbEntity
  8
2
 62
     0
100
AcDbMText
 10
79.60925000000007
 20
-14.04974999999996
 30
0.0
 40
3.5
 41
0.0
 71
     5
 72
     1
  1
MF8x1
  7
SIMPLEX
 11
-3.552713678800502E-15
 21
1.0
 31
0.0
 73
     1
 44
1.0
  0
POINT
  5
616
330
60C
100
AcDbEntity
  8
DEFPOINTS
 62
     0
100
AcDbPoint
 10
67.0
 20
4.0
 30
0.0
  0
POINT
  5
617
330
60C
100
AcDbEntity
  8
DEFPOINTS
 62
     0
100
AcDbPoint
 10
67.0
 20
-4.0
 30
0.0
  0
POINT
  5
618
330
60C
100
AcDbEntity
  8
DEFPOINTS
 62
     0
100
AcDbPoint
 10
82.00000000000003
 20
-3.999999999999948
 30
0.0
  0
ENDBLK
  5
60E
330
60C
100
AcDbEntity
  8
0
100
AcDbBlockEnd
  0
BLOCK
  5
61B
330
61A
100
AcDbEntity
  8
0
100
AcDbBlockBegin
  2
*D1
 70
     1
 10
0.0
 20
0.0
 30
0.0
  3
*D1
  1

  0
LINE
  5
61D
330
61A
100
AcDbEntity
  8
2
 62
     0
370
    -2
100
AcDbLine
 10
0.0
 20
0.0
 30
0.0
 11
0.0
 21
76.25
 31
0.0
  0
LINE
  5
61E
330
61A
100
AcDbEntity
  8
2
 62
     0
370
    -2
100
AcDbLine
 10
67.0
 20
0.0
 30
0.0
 11
67.0
 21
76.25
 31
0.0
  0
LINE
  5
61F
330
61A
100
AcDbEntity
  8
2
 62
     0
370
    -2
100
AcDbLine
 10
2.5
 20
75.0
 30
0.0
 11
64.5
 21
75.0
 31
0.0
  0
SOLID
  5
620
330
61A
100
AcDbEntity
  8
2
 62
     0
100
AcDbTrace
 10
2.5
 20
75.41666666666667
 30
0.0
 11
2.5
 21
74.58333333333333
 31
0.0
 12
0.0
 22
75.0
 32
0.0
 13
0.0
 23
75.0
 33
0.0
  0
SOLID
  5
621
330
61A
100
AcDbEntity
  8
2
 62
     0
100
AcDbTrace
 10
64.5
 20
74.58333333333333
 30
0.0
 11
64.5
 21
75.41666666666667
 31
0.0
 12
67.0
 22
75.0
 32
0.0
 13
67.0
 23
75.0
 33
0.0
  0
MTEXT
  5
622
330
61A
100
AcDbEntity
  8
2
 62
     0
100
AcDbMText
 10
33.5
 20
77.39075
 30
0.0
 40
3.5
 41
0.0
 71
     5
 72
     1
  1
67
  7
SIMPLEX
 73
     1
 44
1.0
  0
POINT
  5
623
330
61A
100
AcDbEntity
  8
DEFPOINTS
 62
     0
100
AcDbPoint
 10
0.0
 20
0.0
 30
0.0
  0
POINT
  5
624
330
61A
100
AcDbEntity
  8
DEFPOINTS
 62
     0
100
AcDbPoint
 10
67.0
 20
0.0
 30
0.0
  0
POINT
  5
625
330
61A
100
AcDbEntity
  8
DEFPOINTS
 62
     0
100
AcDbPoint
 10
67.0
 20
75.0
 30
0.0
  0
ENDBLK
  5
61C
330
61A
100
AcDbEntity
  8
0
100
AcDbBlockEnd
  0
BLOCK
  5
628
330
627
100
AcDbEntity
  8
0
100
AcDbBlockBegin
  2
*D2
 70
     1
 10
0.0
 20
0.0
 30
0.0
  3
*D2
  1

  0
LINE
  5
62A
330
627
100
AcDbEntity
  8
SK2
 62
     0
370
    -2
100
AcDbLine
 10
-15.0
 20
3.0
 30
0.0
 11
-39.25000000001531
 21
2.999999999876242
 31
0.0
  0
LINE
  5
62B
330
627
100
AcDbEntity
  8
SK2
 62
     0
370
    -2
100
AcDbLine
 10
-15.0
 20
-3.0
 30
0.0
 11
-39.24999999998469
 21
-3.000000000123758
 31
0.0
  0
LINE
  5
62C
330
627
100
AcDbEntity
  8
SK2
 62
     0
370
    -2
100
AcDbLine
 10
-37.99999999997193
 20
-5.500000000117378
 30
0.0
 11
-37.99999999992224
 21
-15.23850000011738
 31
0.0
  0
LINE
  5
62D
330
627
100
AcDbEntity
  8
SK2
 62
     0
370
    -2
100
AcDbLine
 10
-38.00000000002806
 20
5.499999999882622
 30
0.0
 11
-38.00000000004081
 21
7.999999999882622
 31
0.0
  0
SOLID
  5
62E
330
627
100
AcDbEntity
  8
SK2
 62
     0
100
AcDbTrace
 10
-38.41666666669472
 20
5.499999999880496
 30
0.0
 11
-37.5833333333614
 21
5.499999999884748
 31
0.0
 12
-38.00000000001531
 22
2.999999999882621
 32
0.0
 13
-38.00000000001531
 23
2.999999999882621
 33
0.0
  0
SOLID
  5
62F
330
627
100
AcDbEntity
  8
SK2
 62
     0
100
AcDbTrace
 10
-37.58333333330527
 20
-5.500000000115252
 30
0.0
 11
-38.4166666666386
 21
-5.500000000119504
 31
0.0
 12
-37.99999999998469
 22
-3.000000000117379
 32
0.0
 13
-37.99999999998469
 23
-3.000000000117379
 33
0.0
  0
MTEXT
  5
630
330
627
100
AcDbEntity
  8
SK2
 62
     0
100
AcDbMText
 10
-40.3907499999407
 20
-11.61925000012958
 30
0.0
 40
3.5
 41
0.0
 71
     5
 72
     1
  1
%%c6
  7
SIMPLEX
 11
-5.102881080650453E-12
 21
1.0
 31
0.0
 73
     1
 44
1.0
  0
POINT
  5
631
330
627
100
AcDbEntity
  8
DEFPOINTS
 62
     0
100
AcDbPoint
 10
-15.0
 20
3.0
 30
0.0
  0
POINT
  5
632
330
627
100
AcDbEntity
  8
DEFPOINTS
 62
     0
100
AcDbPoint
 10
-15.0
 20
-3.0
 30
0.0
  0
POINT
  5
633
330
627
100
AcDbEntity
  8
DEFPOINTS
 62
     0
100
AcDbPoint
 10
-37.99999999998469
 20
-3.000000000117379
 30
0.0
  0
ENDBLK
  5
629
330
627
100
AcDbEntity
  8
0
100
AcDbBlockEnd
  0
BLOCK
  5
636
330
635
100
AcDbEntity
  8
0
100
AcDbBlockBegin
  2
*D3
 70
     1
 10
0.0
 20
0.0
 30
0.0
  3
*D3
  1

  0
LINE
  5
638
330
635
100
AcDbEntity
  8
2
 62
     0
370
    -2
100
AcDbLine
 10
47.26794919
 20
3.0
 30
0.0
 11
47.26794919
 21
61.25
 31
0.0
  0
LINE
  5
639
330
635
100
AcDbEntity
  8
2
 62
     0
370
    -2
100
AcDbLine
 10
67.0
 20
4.0
 30
0.0
 11
67.0
 21
61.25
 31
0.0
  0
LINE
  5
63A
330
635
100
AcDbEntity
  8
2
 62
     0
370
    -2
100
AcDbLine
 10
49.76794919
 20
60.0
 30
0.0
 11
64.5
 21
60.0
 31
0.0
  0
SOLID
  5
63B
330
635
100
AcDbEntity
  8
2
 62
     0
100
AcDbTrace
 10
49.76794919
 20
60.41666666666666
 30
0.0
 11
49.76794919
 21
59.58333333333334
 31
0.0
 12
47.26794919
 22
60.0
 32
0.0
 13
47.26794919
 23
60.0
 33
0.0
  0
SOLID
  5
63C
330
635
100
AcDbEntity
  8
2
 62
     0
100
AcDbTrace
 10
64.5
 20
59.58333333333334
 30
0.0
 11
64.5
 21
60.41666666666666
 31
0.0
 12
67.0
 22
60.0
 32
0.0
 13
67.0
 23
60.0
 33
0.0
  0
MTEXT
  5
63D
330
635
100
AcDbEntity
  8
2
 62
     0
100
AcDbMText
 10
57.133974595
 20
62.39775
 30
0.0
 40
3.5
 41
0.0
 71
     5
 72
     1
  1
19.73
  7
SIMPLEX
 73
     1
 44
1.0
  0
POINT
  5
63E
330
635
100
AcDbEntity
  8
DEFPOINTS
 62
     0
100
AcDbPoint
 10
47.26794919
 20
3.0
 30
0.0
  0
POINT
  5
63F
330
635
100
AcDbEntity
  8
DEFPOINTS
 62
     0
100
AcDbPoint
 10
67.0
 20
4.0
 30
0.0
  0
POINT
  5
640
330
635
100
AcDbEntity
  8
DEFPOINTS
 62
     0
100
AcDbPoint
 10
67.0
 20
60.0
 30
0.0
  0
ENDBLK
  5
637
330
635
100
AcDbEntity
  8
0
100
AcDbBlockEnd
  0
BLOCK
  5
643
330
642
100
AcDbEntity
  8
0
100
AcDbBlockBegin
  2
*D4
 70
     1
 10
0.0
 20
0.0
 30
0.0
  3
*D4
  1

  0
LINE
  5
645
330
642
100
AcDbEntity
  8
SK2
 62
     0
370
    -2
100
AcDbLine
 10
-23.0
 20
4.0
 30
0.0
 11
-23.0
 21
91.25
 31
0.0
  0
LINE
  5
646
330
642
100
AcDbEntity
  8
SK2
 62
     0
370
    -2
100
AcDbLine
 10
68.57
 20
4.0
 30
0.0
 11
68.57
 21
91.25
 31
0.0
  0
LINE
  5
647
330
642
100
AcDbEntity
  8
SK2
 62
     0
370
    -2
100
AcDbLine
 10
-20.5
 20
90.0
 30
0.0
 11
66.07
 21
90.0
 31
0.0
  0
SOLID
  5
648
330
642
100
AcDbEntity
  8
SK2
 62
     0
100
AcDbTrace
 10
-20.5
 20
90.41666666666667
 30
0.0
 11
-20.5
 21
89.58333333333333
 31
0.0
 12
-23.0
 22
90.0
 32
0.0
 13
-23.0
 23
90.0
 33
0.0
  0
SOLID
  5
649
330
642
100
AcDbEntity
  8
SK2
 62
     0
100
AcDbTrace
 10
66.07
 20
89.58333333333333
 30
0.0
 11
66.07
 21
90.41666666666667
 31
0.0
 12
68.57
 22
90.0
 32
0.0
 13
68.57
 23
90.0
 33
0.0
  0
MTEXT
  5
64A
330
642
100
AcDbEntity
  8
SK2
 62
     0
100
AcDbMText
 10
22.785
 20
92.39775
 30
0.0
 40
3.5
 41
0.0
 71
     5
 72
     1
  1
91.57
  7
SIMPLEX
 73
     1
 44
1.0
  0
POINT
  5
64B
330
642
100
AcDbEntity
  8
DEFPOINTS
 62
     0
100
AcDbPoint
 10
-23.0
 20
4.0
 30
0.0
  0
POINT
  5
64C
330
642
100
AcDbEntity
  8
DEFPOINTS
 62
     0
100
AcDbPoint
 10
68.57
 20
4.0
 30
0.0
  0
POINT
  5
64D
330
642
100
AcDbEntity
  8
DEFPOINTS
 62
     0
100
AcDbPoint
 10
68.57
 20
90.0
 30
0.0
  0
ENDBLK
  5
644
330
642
100
AcDbEntity
  8
0
100
AcDbBlockEnd
  0
ENDSEC
  0
SECTION
  2
ENTITIES
  0
LINE
  5
3D6
330
18
100
AcDbEntity
  8
SK4
100
AcDbLine
 10
-25.0
 20
0.0
 30
0.0
 11
47.26794919
 21
0.0
 31
0.0
  0
LINE
  5
3D7
330
18
100
AcDbEntity
  8
4
100
AcDbLine
 10
45.26794919
 20
0.0
 30
0.0
 11
70.57
 21
0.0
 31
0.0
  0
LINE
  5
3D8
330
18
100
AcDbEntity
  8
SK4
100
AcDbLine
 10
45.26794919
 20
0.0
 30
0.0
 11
70.57
 21
0.0
 31
0.0
  0
LINE
  5
3D9
330
18
100
AcDbEntity
  8
1
100
AcDbLine
 10
47.26794919
 20
3.0
 30
0.0
 11
42.14100861664607
 21
3.0
 31
0.0
  0
LINE
  5
3DA
330
18
100
AcDbEntity
  8
1
100
AcDbLine
 10
35.00000000000001
 20
-0.9809963411265482
 30
0.0
 11
35.00000000000001
 21
-3.0
 31
0.0
  0
LINE
  5
3DB
330
18
100
AcDbEntity
  8
1
100
AcDbLine
 10
35.0
 20
-0.980996341126547
 30
0.0
 11
36.78525285309232
 21
-1.797701413725557
 31
0.0
  0
LINE
  5
3DC
330
18
100
AcDbEntity
  8
1
100
AcDbLine
 10
36.78525285309232
 20
-1.797701413725557
 30
0.0
 11
37.67788189091772
 21
-2.146317764814977
 31
0.0
  0
LINE
  5
3DD
330
18
100
AcDbEntity
  8
1
100
AcDbLine
 10
37.67788189091772
 20
-2.146317764814977
 30
0.0
 11
38.57050548054158
 21
-2.443664485137171
 31
0.0
  0
LINE
  5
3DE
330
18
100
AcDbEntity
  8
1
100
AcDbLine
 10
38.57050548054158
 20
-2.443664485137171
 30
0.0
 11
39.4631361968044
 21
-2.682639246552473
 31
0.0
  0
LINE
  5
3DF
330
18
100
AcDbEntity
  8
1
100
AcDbLine
 10
39.4631361968044
 20
-2.682639246552473
 30
0.0
 11
39.9094435946841
 21
-2.778393677480866
 31
0.0
  0
LINE
  5
3E0
330
18
100
AcDbEntity
  8
1
100
AcDbLine
 10
39.9094435946841
 20
-2.778393677480866
 30
0.0
 11
40.35575795931593
 21
-2.857533389932518
 31
0.0
  0
LINE
  5
3E1
330
18
100
AcDbEntity
  8
1
100
AcDbLine
 10
40.35575795931593
 20
-2.857533389932518
 30
0.0
 11
40.80207959371961
 21
-2.919582732989756
 31
0.0
  0
LINE
  5
3E2
330
18
100
AcDbEntity
  8
1
100
AcDbLine
 10
40.80207959371961
 20
-2.919582732989756
 30
0.0
 11
41.24839026480919
 21
-2.964168840197433
 31
0.0
  0
LINE
  5
3E3
330
18
100
AcDbEntity
  8
1
100
AcDbLine
 10
41.24839026480919
 20
-2.964168840197433
 30
0.0
 11
41.69469740860039
 21
-2.991027999672734
 31
0.0
  0
LINE
  5
3E4
330
18
100
AcDbEntity
  8
1
100
AcDbLine
 10
41.69469740860039
 20
-2.991027999672734
 30
0.0
 11
42.14100861664691
 21
-2.99999999998893
 31
0.0
  0
LINE
  5
3E5
330
18
100
AcDbEntity
  8
1
100
AcDbLine
 10
35.0
 20
-2.983314871488056
 30
0.0
 11
35.4082680489437
 21
-2.953509539572338
 31
0.0
  0
LINE
  5
3E6
330
18
100
AcDbEntity
  8
1
100
AcDbLine
 10
35.4082680489437
 20
-2.953509539572338
 30
0.0
 11
35.81652240786394
 21
-2.908923758739645
 31
0.0
  0
LINE
  5
3E7
330
18
100
AcDbEntity
  8
1
100
AcDbLine
 10
35.81652240786394
 20
-2.908923758739645
 30
0.0
 11
36.63305689717242
 21
-2.776370861623333
 31
0.0
  0
LINE
  5
3E8
330
18
100
AcDbEntity
  8
1
100
AcDbLine
 10
36.63305689717242
 20
-2.776370861623333
 30
0.0
 11
37.44957251877678
 21
-2.588309807700749
 31
0.0
  0
LINE
  5
3E9
330
18
100
AcDbEntity
  8
1
100
AcDbLine
 10
37.44957251877678
 20
-2.588309807700749
 30
0.0
 11
38.26610374606787
 21
-2.348492517893076
 31
0.0
  0
LINE
  5
3EA
330
18
100
AcDbEntity
  8
1
100
AcDbLine
 10
35.00000000000001
 20
2.983314871488056
 30
0.0
 11
35.43005821907468
 21
2.951501707513046
 31
0.0
  0
LINE
  5
3EB
330
18
100
AcDbEntity
  8
1
100
AcDbLine
 10
35.43005821907468
 20
2.951501707513046
 30
0.0
 11
35.86010374207795
 21
2.903299555037563
 31
0.0
  0
LINE
  5
3EC
330
18
100
AcDbEntity
  8
1
100
AcDbLine
 10
35.86010374207795
 20
2.903299555037563
 30
0.0
 11
36.29015286554717
 21
2.838977003011251
 31
0.0
  0
LINE
  5
3ED
330
18
100
AcDbEntity
  8
1
100
AcDbLine
 10
36.29015286554717
 20
2.838977003011251
 30
0.0
 11
36.72021429541122
 21
2.758886363919232
 31
0.0
  0
LINE
  5
3EE
330
18
100
AcDbEntity
  8
1
100
AcDbLine
 10
36.72021429541122
 20
2.758886363919232
 30
0.0
 11
37.58031243782873
 21
2.553277678193058
 31
0.0
  0
LINE
  5
3EF
330
18
100
AcDbEntity
  8
1
100
AcDbLine
 10
37.58031243782873
 20
2.553277678193058
 30
0.0
 11
38.4404260223348
 21
2.291030599555985
 31
0.0
  0
LINE
  5
3F0
330
18
100
AcDbEntity
  8
1
100
AcDbLine
 10
38.4404260223348
 20
2.291030599555985
 30
0.0
 11
39.30052117423537
 21
1.977970823236978
 31
0.0
  0
LINE
  5
3F1
330
18
100
AcDbEntity
  8
1
100
AcDbLine
 10
39.30052117423537
 20
1.977970823236978
 30
0.0
 11
40.16063598232826
 21
1.621029310027788
 31
0.0
  0
LINE
  5
3F2
330
18
100
AcDbEntity
  8
1
100
AcDbLine
 10
40.16063598232826
 20
1.621029310027788
 30
0.0
 11
41.88084463193079
 21
0.8079995107392708
 31
0.0
  0
LINE
  5
3F3
330
18
100
AcDbEntity
  8
1
100
AcDbLine
 10
35.00000000000001
 20
3.0
 30
0.0
 11
-0.0000000000000018
 21
3.0
 31
0.0
  0
LINE
  5
3F4
330
18
100
AcDbEntity
  8
1
100
AcDbLine
 10
35.00000000000001
 20
3.0
 30
0.0
 11
35.00000000000001
 21
2.999996085511667
 31
0.0
  0
LINE
  5
3F5
330
18
100
AcDbEntity
  8
1
100
AcDbLine
 10
35.00000000000001
 20
2.999996085511667
 30
0.0
 11
35.00000000000001
 21
2.998856720249653
 31
0.0
  0
LINE
  5
3F6
330
18
100
AcDbEntity
  8
1
100
AcDbLine
 10
35.00000000000001
 20
2.998856720249653
 30
0.0
 11
34.99999999999999
 21
2.983314871488056
 31
0.0
  0
LINE
  5
3F7
330
18
100
AcDbEntity
  8
1
100
AcDbLine
 10
47.26794919
 20
-1.338437838895399
 30
0.0
 11
47.26794918999998
 21
1.891510393938138
 31
0.0
  0
LINE
  5
3F8
330
18
100
AcDbEntity
  8
1
100
AcDbLine
 10
42.14100861664607
 20
3.0
 30
0.0
 11
42.7818753039811
 21
2.981512693777347
 31
0.0
  0
LINE
  5
3F9
330
18
100
AcDbEntity
  8
1
100
AcDbLine
 10
42.7818753039811
 20
2.981512693777347
 30
0.0
 11
43.42274388091628
 21
2.926278497328561
 31
0.0
  0
LINE
  5
3FA
330
18
100
AcDbEntity
  8
1
100
AcDbLine
 10
43.42274388091628
 20
2.926278497328561
 30
0.0
 11
44.0636139749879
 21
2.834978020762815
 31
0.0
  0
LINE
  5
3FB
330
18
100
AcDbEntity
  8
1
100
AcDbLine
 10
44.0636139749879
 20
2.834978020762815
 30
0.0
 11
44.70448520318814
 21
2.708736455406846
 31
0.0
  0
LINE
  5
3FC
330
18
100
AcDbEntity
  8
1
100
AcDbLine
 10
44.70448520318814
 20
2.708736455406846
 30
0.0
 11
45.3453571727238
 21
2.549109703192024
 31
0.0
  0
LINE
  5
3FD
330
18
100
AcDbEntity
  8
1
100
AcDbLine
 10
45.3453571727238
 20
2.549109703192024
 30
0.0
 11
45.98622948164608
 21
2.358065196928634
 31
0.0
  0
LINE
  5
3FE
330
18
100
AcDbEntity
  8
1
100
AcDbLine
 10
45.98622948164608
 20
2.358065196928634
 30
0.0
 11
46.62710171936668
 21
2.137957647971917
 31
0.0
  0
LINE
  5
3FF
330
18
100
AcDbEntity
  8
1
100
AcDbLine
 10
46.62710171936668
 20
2.137957647971917
 30
0.0
 11
47.26794918999998
 21
1.891510393938139
 31
0.0
  0
LINE
  5
400
330
18
100
AcDbEntity
  8
1
100
AcDbLine
 10
38.26610374606787
 20
2.348492517893075
 30
0.0
 11
39.23482574207281
 21
2.627413738594474
 31
0.0
  0
LINE
  5
401
330
18
100
AcDbEntity
  8
1
100
AcDbLine
 10
39.23482574207281
 20
2.627413738594474
 30
0.0
 11
39.71919502771545
 21
2.739577964283698
 31
0.0
  0
LINE
  5
402
330
18
100
AcDbEntity
  8
1
100
AcDbLine
 10
39.71919502771545
 20
2.739577964283698
 30
0.0
 11
40.2035639567337
 21
2.832445131713698
 31
0.0
  0
LINE
  5
403
330
18
100
AcDbEntity
  8
1
100
AcDbLine
 10
40.2035639567337
 20
2.832445131713698
 30
0.0
 11
40.68792624332113
 21
2.905360936226704
 31
0.0
  0
LINE
  5
404
330
18
100
AcDbEntity
  8
1
100
AcDbLine
 10
40.68792624332113
 20
2.905360936226704
 30
0.0
 11
41.1722856079811
 21
2.957813547587359
 31
0.0
  0
LINE
  5
405
330
18
100
AcDbEntity
  8
1
100
AcDbLine
 10
41.1722856079811
 20
2.957813547587359
 30
0.0
 11
41.65664573922393
 21
2.989434220638941
 31
0.0
  0
LINE
  5
406
330
18
100
AcDbEntity
  8
1
100
AcDbLine
 10
41.65664573922393
 20
2.989434220638941
 30
0.0
 11
42.14100861664608
 21
3.0
 31
0.0
  0
LINE
  5
407
330
18
100
AcDbEntity
  8
1
100
AcDbLine
 10
47.26794918999999
 20
-1.841684635469755
 30
0.0
 11
47.26794918999999
 21
-1.33843783889539
 31
0.0
  0
LINE
  5
408
330
18
100
AcDbEntity
  8
1
100
AcDbLine
 10
47.26794919
 20
-1.841684635469756
 30
0.0
 11
47.26794919
 21
-3.0
 31
0.0
  0
LINE
  5
409
330
18
100
AcDbEntity
  8
1
100
AcDbLine
 10
47.26794919
 20
3.0
 30
0.0
 11
47.26794919
 21
2.999767201325068
 31
0.0
  0
LINE
  5
40A
330
18
100
AcDbEntity
  8
1
100
AcDbLine
 10
47.26794919
 20
2.999767201325068
 30
0.0
 11
47.26794918999999
 21
2.92768179520284
 31
0.0
  0
LINE
  5
40B
330
18
100
AcDbEntity
  8
1
100
AcDbLine
 10
47.26794918999999
 20
2.92768179520284
 30
0.0
 11
47.26794918999998
 21
1.891510393938139
 31
0.0
  0
LINE
  5
40C
330
18
100
AcDbEntity
  8
1
100
AcDbLine
 10
-0.0000000000000027
 20
-3.0
 30
0.0
 11
35.00000000000001
 21
-3.0
 31
0.0
  0
LINE
  5
40D
330
18
100
AcDbEntity
  8
1
100
AcDbLine
 10
42.1410086166469
 20
-3.0
 30
0.0
 11
47.26794919
 21
-3.0
 31
0.0
  0
LINE
  5
40E
330
18
100
AcDbEntity
  8
1
100
AcDbLine
 10
41.88084463193079
 20
0.8079995107392708
 30
0.0
 11
44.57439917009872
 21
-0.5787761015719337
 31
0.0
  0
LINE
  5
40F
330
18
100
AcDbEntity
  8
1
100
AcDbLine
 10
44.57439917009872
 20
-0.5787761015719337
 30
0.0
 11
45.92117658781457
 21
-1.243966850493695
 31
0.0
  0
LINE
  5
410
330
18
100
AcDbEntity
  8
1
100
AcDbLine
 10
45.92117658781457
 20
-1.243966850493695
 30
0.0
 11
47.26794918999999
 21
-1.841684635469755
 31
0.0
  0
LINE
  5
411
330
18
100
AcDbEntity
  8
1
 62
     1
100
AcDbLine
 10
62.48845298923244
 20
4.0
 30
0.0
 11
62.51154701076759
 21
4.0
 31
0.0
  0
LINE
  5
412
330
18
100
AcDbEntity
  8
1
 62
     1
100
AcDbLine
 10
64.48845298923241
 20
4.0
 30
0.0
 11
64.51154701076759
 21
4.0
 31
0.0
  0
LINE
  5
413
330
18
100
AcDbEntity
  8
1
 62
     1
100
AcDbLine
 10
61.48845298923244
 20
4.0
 30
0.0
 11
61.51154701076759
 21
4.0
 31
0.0
  0
LINE
  5
414
330
18
100
AcDbEntity
  8
1
 62
     1
100
AcDbLine
 10
49.4884529892324
 20
4.0
 30
0.0
 11
49.51154701076759
 21
4.0
 31
0.0
  0
LINE
  5
415
330
18
100
AcDbEntity
  8
1
 62
     1
100
AcDbLine
 10
50.48845298923241
 20
4.0
 30
0.0
 11
50.51154701076758
 21
4.0
 31
0.0
  0
LINE
  5
416
330
18
100
AcDbEntity
  8
1
 62
     1
100
AcDbLine
 10
51.48845298923241
 20
4.0
 30
0.0
 11
51.51154701076758
 21
4.0
 31
0.0
  0
LINE
  5
417
330
18
100
AcDbEntity
  8
1
 62
     1
100
AcDbLine
 10
47.26794919
 20
3.0
 30
0.0
 11
47.8836603878074
 21
3.355481025298212
 31
0.0
  0
LINE
  5
418
330
18
100
AcDbEntity
  8
1
 62
     1
100
AcDbLine
 10
67.0
 20
-3.153975
 30
0.0
 11
66.7810671973861
 21
-3.533177560767416
 31
0.0
  0
LINE
  5
419
330
18
100
AcDbEntity
  8
1
 62
     1
100
AcDbLine
 10
65.45699101642343
 20
-3.945506289996202
 30
0.0
 11
65.0
 21
-3.153975
 31
0.0
  0
LINE
  5
41A
330
18
100
AcDbEntity
  8
1
 62
     1
100
AcDbLine
 10
66.0
 20
-3.153975
 30
0.0
 11
65.56186436556412
 21
-3.912847825624667
 31
0.0
  0
LINE
  5
41B
330
18
100
AcDbEntity
  8
1
 62
     1
100
AcDbLine
 10
66.30459810157167
 20
-3.681554141827212
 30
0.0
 11
66.0
 21
-3.153975
 31
0.0
  0
LINE
  5
41C
330
18
100
AcDbEntity
  8
1
 62
     1
100
AcDbLine
 10
61.48845298923244
 20
-4.000000000000039
 30
0.0
 11
61.00000000000001
 21
-3.153975
 31
0.0
  0
LINE
  5
41D
330
18
100
AcDbEntity
  8
1
 62
     1
100
AcDbLine
 10
62.48845298923244
 20
-4.000000000000039
 30
0.0
 11
62.00000000000001
 21
-3.153975
 31
0.0
  0
LINE
  5
41E
330
18
100
AcDbEntity
  8
1
 62
     1
100
AcDbLine
 10
63.48845298923243
 20
-4.000000000000014
 30
0.0
 11
63.00000000000001
 21
-3.153975
 31
0.0
  0
LINE
  5
41F
330
18
100
AcDbEntity
  8
1
 62
     1
100
AcDbLine
 10
64.0
 20
-3.153975
 30
0.0
 11
63.51154701076759
 21
-4.000000000000002
 31
0.0
  0
LINE
  5
420
330
18
100
AcDbEntity
  8
1
 62
     1
100
AcDbLine
 10
49.48845298923241
 20
-3.99999999999999
 30
0.0
 11
49.0
 21
-3.153975
 31
0.0
  0
LINE
  5
421
330
18
100
AcDbEntity
  8
1
 62
     1
100
AcDbLine
 10
50.48845298923241
 20
-4.000000000000002
 30
0.0
 11
50.0
 21
-3.153975
 31
0.0
  0
LINE
  5
422
330
18
100
AcDbEntity
  8
1
 62
     1
100
AcDbLine
 10
51.48845298923242
 20
-4.000000000000003
 30
0.0
 11
51.0
 21
-3.153975
 31
0.0
  0
LINE
  5
423
330
18
100
AcDbEntity
  8
1
 62
     1
100
AcDbLine
 10
52.0
 20
-3.153975
 30
0.0
 11
51.51154701076759
 21
-4.000000000000002
 31
0.0
  0
LINE
  5
424
330
18
100
AcDbEntity
  8
1
 62
     1
100
AcDbLine
 10
48.23267930550535
 20
-3.556987191100541
 30
0.0
 11
48.0
 21
-3.153975
 31
0.0
  0
LINE
  5
425
330
18
100
AcDbEntity
  8
1
 62
     1
100
AcDbLine
 10
66.78106719738608
 20
1.479253255948719
 30
0.0
 11
66.30459810157166
 21
1.785993617639509
 31
0.0
  0
LINE
  5
426
330
18
100
AcDbEntity
  8
1
 62
     1
100
AcDbLine
 10
66.30459810157167
 20
3.681554141827215
 30
0.0
 11
66.7810671973861
 21
3.533177560767427
 31
0.0
  0
LINE
  5
427
330
18
100
AcDbEntity
  8
1
 62
     1
100
AcDbLine
 10
65.56186436556413
 20
2.269860689162607
 30
0.0
 11
65.45699101642344
 21
2.33838924251015
 31
0.0
  0
LINE
  5
428
330
18
100
AcDbEntity
  8
1
 62
     1
100
AcDbLine
 10
65.45699101642343
 20
3.945506289996195
 30
0.0
 11
65.56186436556412
 21
3.912847825624676
 31
0.0
  0
ARC
  5
429
330
18
100
AcDbEntity
  8
1
 62
     1
100
AcDbCircle
 10
13.02474203582828
 20
-29.61399537459094
 30
0.0
 40
59.64022788633969
100
AcDbArc
 50
26.70219957922372
 51
27.34620061769556
  0
LINE
  5
42A
330
18
100
AcDbEntity
  8
1
 62
     1
100
AcDbLine
 10
63.48845298923243
 20
4.0
 30
0.0
 11
63.51154701076759
 21
4.0
 31
0.0
  0
LINE
  5
42B
330
18
100
AcDbEntity
  8
1
 62
     1
100
AcDbLine
 10
60.48845298923244
 20
4.0
 30
0.0
 11
60.5115470107676
 21
4.0
 31
0.0
  0
LINE
  5
42C
330
18
100
AcDbEntity
  8
1
 62
     1
100
AcDbLine
 10
50.51154701076759
 20
-3.846058303931901
 30
0.0
 11
50.51154701076759
 21
-4.0
 31
0.0
  0
ARC
  5
42D
330
18
100
AcDbEntity
  8
1
 62
     1
100
AcDbCircle
 10
57.97707673841558
 20
-3.240157524682395
 30
0.0
 40
4.635458638842183
100
AcDbArc
 50
40.76097072042841
 51
49.29681300446036
  0
LINE
  5
42E
330
18
100
AcDbEntity
  8
1
 62
     1
100
AcDbLine
 10
61.00000000000001
 20
-3.153975
 30
0.0
 11
61.0
 21
-3.153100751845359
 31
0.0
  0
LINE
  5
42F
330
18
100
AcDbEntity
  8
1
 62
     1
100
AcDbLine
 10
61.0
 20
-3.153100751845359
 30
0.0
 11
61.00000000000001
 21
-3.078204992247628
 31
0.0
  0
LINE
  5
430
330
18
100
AcDbEntity
  8
1
 62
     1
100
AcDbLine
 10
61.00000000000001
 20
-3.078204992247628
 30
0.0
 11
61.0
 21
0.2739195994800568
 31
0.0
  0
LINE
  5
431
330
18
100
AcDbEntity
  8
1
 62
     1
100
AcDbLine
 10
61.48845298923245
 20
-0.2133904626606185
 30
0.0
 11
61.48845298923244
 21
-4.0
 31
0.0
  0
ARC
  5
432
330
18
100
AcDbEntity
  8
1
 62
     1
100
AcDbCircle
 10
34.95247936507699
 20
-18.34315496083475
 30
0.0
 40
34.30190274841436
100
AcDbArc
 50
27.21542568881547
 51
28.83969108687866
  0
ARC
  5
433
330
18
100
AcDbEntity
  8
1
 62
     1
100
AcDbCircle
 10
62.31226423017769
 20
1.099050385998699
 30
0.0
 40
3.950974659131718
100
AcDbArc
 50
303.824515757067
 51
312.8607484493998
  0
LINE
  5
434
330
18
100
AcDbEntity
  8
1
 62
     1
100
AcDbLine
 10
64.51154701076759
 20
-2.183160118714864
 30
0.0
 11
64.51154701076759
 21
-4.0
 31
0.0
  0
LINE
  5
435
330
18
100
AcDbEntity
  8
1
 62
     1
100
AcDbLine
 10
65.0
 20
-3.153975
 30
0.0
 11
64.51154701076759
 21
-4.000000000000002
 31
0.0
  0
LINE
  5
436
330
18
100
AcDbEntity
  8
1
 62
     1
100
AcDbLine
 10
65.0
 20
-3.153975
 30
0.0
 11
65.0
 21
-3.153688421621062
 31
0.0
  0
LINE
  5
437
330
18
100
AcDbEntity
  8
1
 62
     1
100
AcDbLine
 10
65.0
 20
-3.153688421621062
 30
0.0
 11
65.0
 21
-3.064510238890587
 31
0.0
  0
LINE
  5
438
330
18
100
AcDbEntity
  8
1
 62
     1
100
AcDbLine
 10
65.0
 20
-3.064510238890587
 30
0.0
 11
65.00000000000001
 21
-1.797274291103026
 31
0.0
  0
ARC
  5
439
330
18
100
AcDbEntity
  8
1
 62
     1
100
AcDbCircle
 10
60.86255594747401
 20
2.197641073162765
 30
0.0
 40
6.773697887729601
100
AcDbArc
 50
313.9285836522382
 51
319.3253365644574
  0
LINE
  5
43A
330
18
100
AcDbEntity
  8
1
 62
     1
100
AcDbLine
 10
65.56186436556412
 20
-2.680789480518121
 30
0.0
 11
65.56186436556412
 21
-3.912847825624676
 31
0.0
  0
LINE
  5
43B
330
18
100
AcDbEntity
  8
1
 62
     1
100
AcDbLine
 10
66.0
 20
-3.153975
 30
0.0
 11
66.00000000000001
 21
-3.153778912340977
 31
0.0
  0
LINE
  5
43C
330
18
100
AcDbEntity
  8
1
 62
     1
100
AcDbLine
 10
66.00000000000001
 20
-3.153778912340977
 30
0.0
 11
66.0
 21
-3.093457826105026
 31
0.0
  0
LINE
  5
43D
330
18
100
AcDbEntity
  8
1
 62
     1
100
AcDbLine
 10
66.0
 20
-3.093457826105026
 30
0.0
 11
66.0
 21
-2.21730686505649
 31
0.0
  0
ARC
  5
43E
330
18
100
AcDbEntity
  8
1
 62
     1
100
AcDbCircle
 10
56.04683821439571
 20
-5.409495116121268
 30
0.0
 40
7.863485889821945
100
AcDbArc
 50
35.00004711998175
 51
40.79351578147806
  0
LINE
  5
43F
330
18
100
AcDbEntity
  8
1
 62
     1
100
AcDbLine
 10
62.48845298923244
 20
-0.8990199976046492
 30
0.0
 11
62.48845298923244
 21
-4.0
 31
0.0
  0
ARC
  5
440
330
18
100
AcDbEntity
  8
1
 62
     1
100
AcDbCircle
 10
61.90004922119719
 20
1.397508911989686
 30
0.0
 40
1.672611881030215
100
AcDbArc
 50
256.56922828786
 51
273.4260351253367
  0
LINE
  5
441
330
18
100
AcDbEntity
  8
1
 62
     1
100
AcDbLine
 10
61.5115470107676
 20
-0.2293764145472908
 30
0.0
 11
61.51154701076759
 21
-4.0
 31
0.0
  0
LINE
  5
442
330
18
100
AcDbEntity
  8
1
 62
     1
100
AcDbLine
 10
62.00000000000001
 20
-3.153975
 30
0.0
 11
61.51154701076759
 21
-4.000000000000002
 31
0.0
  0
LINE
  5
443
330
18
100
AcDbEntity
  8
1
 62
     1
100
AcDbLine
 10
62.00000000000001
 20
-3.153975
 30
0.0
 11
62.00000000000001
 21
-3.153288842180494
 31
0.0
  0
LINE
  5
444
330
18
100
AcDbEntity
  8
1
 62
     1
100
AcDbLine
 10
62.00000000000001
 20
-3.153288842180494
 30
0.0
 11
62.00000000000001
 21
-2.933119475049016
 31
0.0
  0
LINE
  5
445
330
18
100
AcDbEntity
  8
1
 62
     1
100
AcDbLine
 10
62.00000000000001
 20
-2.933119475049016
 30
0.0
 11
62.00000000000001
 21
-0.2720392923092127
 31
0.0
  0
ARC
  5
446
330
18
100
AcDbEntity
  8
1
 62
     1
100
AcDbCircle
 10
62.3837803561031
 20
0.8677507282551344
 30
0.0
 40
1.786975586000351
100
AcDbArc
 50
274.100165876312
 51
290.1694327967525
  0
LINE
  5
447
330
18
100
AcDbEntity
  8
1
 62
     1
100
AcDbLine
 10
62.51154701076761
 20
-0.9146136612451087
 30
0.0
 11
62.5115470107676
 21
-4.0
 31
0.0
  0
LINE
  5
448
330
18
100
AcDbEntity
  8
1
 62
     1
100
AcDbLine
 10
63.00000000000001
 20
-3.153975
 30
0.0
 11
62.5115470107676
 21
-3.99999999999999
 31
0.0
  0
LINE
  5
449
330
18
100
AcDbEntity
  8
1
 62
     1
100
AcDbLine
 10
63.00000000000001
 20
-3.153975
 30
0.0
 11
63.00000000000001
 21
-3.153447210853005
 31
0.0
  0
LINE
  5
44A
330
18
100
AcDbEntity
  8
1
 62
     1
100
AcDbLine
 10
63.00000000000001
 20
-3.153447210853005
 30
0.0
 11
63.00000000000001
 21
-2.98571743294746
 31
0.0
  0
LINE
  5
44B
330
18
100
AcDbEntity
  8
1
 62
     1
100
AcDbLine
 10
63.00000000000001
 20
-2.98571743294746
 30
0.0
 11
63.00000000000001
 21
-0.809846497737009
 31
0.0
  0
ARC
  5
44C
330
18
100
AcDbEntity
  8
1
 62
     1
100
AcDbCircle
 10
52.37886570420351
 20
-8.276373252062205
 30
0.0
 40
12.98300582677857
100
AcDbArc
 50
31.16397601587164
 51
35.10674660768844
  0
LINE
  5
44D
330
18
100
AcDbEntity
  8
1
 62
     1
100
AcDbLine
 10
63.48845298923242
 20
-1.557711357642173
 30
0.0
 11
63.48845298923243
 21
-4.0
 31
0.0
  0
ARC
  5
44E
330
18
100
AcDbEntity
  8
1
 62
     1
100
AcDbCircle
 10
62.63785031796336
 20
0.740547750819122
 30
0.0
 40
2.472567871423708
100
AcDbArc
 50
290.6932673953123
 51
303.423888459953
  0
LINE
  5
44F
330
18
100
AcDbEntity
  8
1
 62
     1
100
AcDbLine
 10
63.5115470107676
 20
-1.572445394088036
 30
0.0
 11
63.51154701076759
 21
-4.0
 31
0.0
  0
LINE
  5
450
330
18
100
AcDbEntity
  8
1
 62
     1
100
AcDbLine
 10
64.0
 20
-3.153975
 30
0.0
 11
63.99999999999999
 21
-3.153578873291377
 31
0.0
  0
LINE
  5
451
330
18
100
AcDbEntity
  8
1
 62
     1
100
AcDbLine
 10
63.99999999999999
 20
-3.153578873291377
 30
0.0
 11
64.0
 21
-3.028970118923225
 31
0.0
  0
LINE
  5
452
330
18
100
AcDbEntity
  8
1
 62
     1
100
AcDbLine
 10
64.0
 20
-3.028970118923225
 30
0.0
 11
64.0
 21
-1.323387702327056
 31
0.0
  0
ARC
  5
453
330
18
100
AcDbEntity
  8
1
 62
     1
100
AcDbCircle
 10
46.02979994367982
 20
-12.25505996411794
 30
0.0
 40
21.03403291709662
100
AcDbArc
 50
28.65105652787828
 51
31.31307914016223
  0
LINE
  5
454
330
18
100
AcDbEntity
  8
1
 62
     1
100
AcDbLine
 10
64.48845298923241
 20
-4.000000000000002
 30
0.0
 11
64.0
 21
-3.153975
 31
0.0
  0
LINE
  5
455
330
18
100
AcDbEntity
  8
1
 62
     1
100
AcDbLine
 10
64.4884529892324
 20
-2.1697271044192
 30
0.0
 11
64.48845298923241
 21
-4.0
 31
0.0
  0
ARC
  5
456
330
18
100
AcDbEntity
  8
1
 62
     1
100
AcDbCircle
 10
44.47226876017647
 20
-9.639276941545067
 30
0.0
 40
14.34050698028784
100
AcDbArc
 50
24.82185145292338
 51
29.12061324753604
  0
ARC
  5
457
330
18
100
AcDbEntity
  8
1
 62
     1
100
AcDbCircle
 10
57.86111585981848
 20
0.533099173252314
 30
0.0
 40
1.892716308372681
100
AcDbArc
 50
101.3571163837272
 51
117.0616390233332
  0
ARC
  5
458
330
18
100
AcDbEntity
  8
1
 62
     1
100
AcDbCircle
 10
61.49781354333854
 20
2.283820064300409
 30
0.0
 40
2.070946226923235
100
AcDbArc
 50
241.5608394773811
 51
256.0888941826935
  0
LINE
  5
459
330
18
100
AcDbEntity
  8
1
 62
     1
100
AcDbLine
 10
61.00000000000001
 20
-3.153975
 30
0.0
 11
60.5115470107676
 21
-3.99999999999999
 31
0.0
  0
LINE
  5
45A
330
18
100
AcDbEntity
  8
1
 62
     1
100
AcDbLine
 10
60.48845298923244
 20
-4.000000000000027
 30
0.0
 11
60.21316337330217
 21
-3.523184620727999
 31
0.0
  0
LINE
  5
45B
330
18
100
AcDbEntity
  8
1
 62
     1
100
AcDbLine
 10
60.00000000000001
 20
0.8116708553747753
 30
0.0
 11
60.00694827817841
 21
0.8079999586546585
 31
0.0
  0
ARC
  5
45C
330
18
100
AcDbEntity
  8
1
 62
     1
100
AcDbCircle
 10
267.783715267115
 20
-125.5151903027506
 30
0.0
 40
241.1371623489122
100
AcDbArc
 50
149.5059915504914
 51
149.7355445591984
  0
LINE
  5
45D
330
18
100
AcDbEntity
  8
1
 62
     1
100
AcDbLine
 10
60.00000000000001
 20
-3.150494142894939
 30
0.0
 11
60.00000000000001
 21
-2.787241190869726
 31
0.0
  0
LINE
  5
45E
330
18
100
AcDbEntity
  8
1
 62
     1
100
AcDbLine
 10
60.00000000000001
 20
-2.787241190869726
 30
0.0
 11
60.00000000000001
 21
0.8116708553747753
 31
0.0
  0
ARC
  5
45F
330
18
100
AcDbEntity
  8
1
 62
     1
100
AcDbCircle
 10
61.46557775438973
 20
3.508292589150532
 30
0.0
 40
3.06952255441047
100
AcDbArc
 50
230.4630099942572
 51
241.4765129250831
  0
LINE
  5
460
330
18
100
AcDbEntity
  8
1
 62
     1
100
AcDbLine
 10
59.5115470107676
 20
1.140979279778182
 30
0.0
 11
59.51154701076761
 21
-3.984024263706964
 31
0.0
  0
ARC
  5
461
330
18
100
AcDbEntity
  8
1
 62
     1
100
AcDbCircle
 10
95.8789438796015
 20
-26.57893919314575
 30
0.0
 40
43.73042532865183
100
AcDbArc
 50
147.4925803676491
 51
148.7039623758007
  0
LINE
  5
462
330
18
100
AcDbEntity
  8
1
 62
     1
100
AcDbLine
 10
59.00000000000001
 20
-3.077746266541138
 30
0.0
 11
59.00000000000001
 21
1.32510059740791
 31
0.0
  0
ARC
  5
463
330
18
100
AcDbEntity
  8
1
 62
     1
100
AcDbCircle
 10
62.08203796831969
 20
5.083542915051222
 30
0.0
 40
4.860860189657978
100
AcDbArc
 50
222.7325107199638
 51
230.6471966797301
  0
LINE
  5
464
330
18
100
AcDbEntity
  8
1
 62
     1
100
AcDbLine
 10
58.51154701076759
 20
1.785035626566363
 30
0.0
 11
58.51154701076759
 21
-3.862745143161938
 31
0.0
  0
ARC
  5
465
330
18
100
AcDbEntity
  8
1
 62
     1
100
AcDbCircle
 10
74.5187150125501
 20
-14.75865088128135
 30
0.0
 40
20.32700037650007
100
AcDbArc
 50
144.354995771511
 51
146.7911543023794
  0
LINE
  5
466
330
18
100
AcDbEntity
  8
1
 62
     1
100
AcDbLine
 10
58.00000000000001
 20
-2.912776044940772
 30
0.0
 11
58.00000000000001
 21
1.798825024423933
 31
0.0
  0
ARC
  5
467
330
18
100
AcDbEntity
  8
1
 62
     1
100
AcDbCircle
 10
63.64655253308222
 20
7.072031421335364
 30
0.0
 40
7.726189443774946
100
AcDbArc
 50
217.4345251209896
 51
223.0418222793227
  0
LINE
  5
468
330
18
100
AcDbEntity
  8
1
 62
     1
100
AcDbLine
 10
57.5115470107676
 20
2.375605038780358
 30
0.0
 11
57.51154701076761
 21
-3.62572157841949
 31
0.0
  0
ARC
  5
469
330
18
100
AcDbEntity
  8
1
 62
     1
100
AcDbCircle
 10
36.32161400718741
 20
-14.69397312157035
 30
0.0
 40
24.67292751544127
100
AcDbArc
 50
26.04993986437068
 51
28.52202815384153
  0
LINE
  5
46A
330
18
100
AcDbEntity
  8
1
 62
     1
100
AcDbLine
 10
58.48845298923243
 20
1.799349140105772
 30
0.0
 11
58.48845298923243
 21
-3.858556108581574
 31
0.0
  0
ARC
  5
46B
330
18
100
AcDbEntity
  8
1
 62
     1
100
AcDbCircle
 10
58.24569594755902
 20
0.2877386419290116
 30
0.0
 40
1.530934270774387
100
AcDbArc
 50
80.87648783408196
 51
99.23522089411003
  0
ARC
  5
46C
330
18
100
AcDbEntity
  8
1
 62
     1
100
AcDbCircle
 10
-34.80051308584931
 20
-54.23773501989717
 30
0.0
 40
106.8452092665769
100
AcDbArc
 50
28.05721503205674
 51
28.60861071990402
  0
ARC
  5
46D
330
18
100
AcDbEntity
  8
1
 62
     1
100
AcDbCircle
 10
58.66511173984713
 20
-0.4303012101132631
 30
0.0
 40
1.787131156436926
100
AcDbArc
 50
62.57389676671045
 51
79.19913530079842
  0
ARC
  5
46E
330
18
100
AcDbEntity
  8
1
 62
     1
100
AcDbCircle
 10
54.73500197207962
 20
-3.566589571728745
 30
0.0
 40
2.224201172341543
100
AcDbArc
 50
109.2964293497889
 51
123.3714645929697
  0
LINE
  5
46F
330
18
100
AcDbEntity
  8
1
 62
     1
100
AcDbLine
 10
53.99999999999999
 20
-1.467334024233441
 30
0.0
 11
53.99999999999999
 21
3.039198228957611
 31
0.0
  0
ARC
  5
470
330
18
100
AcDbEntity
  8
1
 62
     1
100
AcDbCircle
 10
102.909166248177
 20
31.88371814741215
 30
0.0
 40
56.78132454589536
100
AcDbArc
 50
209.5457437278367
 51
210.5302731590265
  0
LINE
  5
471
330
18
100
AcDbEntity
  8
1
 62
     1
100
AcDbLine
 10
54.0
 20
-1.467334024233441
 30
0.0
 11
54.12823460795745
 21
-1.649271709792597
 31
0.0
  0
LINE
  5
472
330
18
100
AcDbEntity
  8
1
 62
     1
100
AcDbLine
 10
54.12823460795745
 20
-1.649271709792597
 30
0.0
 11
54.25255040967575
 21
-1.849878007874613
 31
0.0
  0
LINE
  5
473
330
18
100
AcDbEntity
  8
1
 62
     1
100
AcDbLine
 10
54.25255040967575
 20
-1.849878007874613
 30
0.0
 11
54.37266559776684
 21
-2.065819393056235
 31
0.0
  0
LINE
  5
474
330
18
100
AcDbEntity
  8
1
 62
     1
100
AcDbLine
 10
54.37266559776684
 20
-2.065819393056235
 30
0.0
 11
54.48845298923241
 21
-2.294077233197982
 31
0.0
  0
LINE
  5
475
330
18
100
AcDbEntity
  8
1
 62
     1
100
AcDbLine
 10
54.48845298923243
 20
3.666985573491815
 30
0.0
 11
54.48845298923241
 21
-2.294077233197962
 31
0.0
  0
ARC
  5
476
330
18
100
AcDbEntity
  8
1
 62
     1
100
AcDbCircle
 10
61.56636788023433
 20
-2.340300011538378
 30
0.0
 40
9.283759992757009
100
AcDbArc
 50
139.6775135242378
 51
144.5881253291638
  0
ARC
  5
477
330
18
100
AcDbEntity
  8
1
 62
     1
100
AcDbCircle
 10
56.98718376024031
 20
-4.982664353256405
 30
0.0
 40
3.645138335559359
100
AcDbArc
 50
123.0354708257572
 51
132.7781562353354
  0
ARC
  5
478
330
18
100
AcDbEntity
  8
1
 62
     1
100
AcDbCircle
 10
80.90659663561317
 20
18.97614099049959
 30
0.0
 40
30.51663069822751
100
AcDbArc
 50
210.1242114810284
 51
211.9038832655003
  0
LINE
  5
479
330
18
100
AcDbEntity
  8
1
 62
     1
100
AcDbLine
 10
54.5115470107676
 20
3.660560503635867
 30
0.0
 11
54.51154701076759
 21
-2.30717450919708
 31
0.0
  0
LINE
  5
47A
330
18
100
AcDbEntity
  8
1
 62
     1
100
AcDbLine
 10
55.0
 20
-1.926813090301013
 30
0.0
 11
55.12823465573322
 21
-2.132575109479899
 31
0.0
  0
LINE
  5
47B
330
18
100
AcDbEntity
  8
1
 62
     1
100
AcDbLine
 10
55.12823465573322
 20
-2.132575109479899
 30
0.0
 11
55.25255047341244
 21
-2.353028624317713
 31
0.0
  0
LINE
  5
47C
330
18
100
AcDbEntity
  8
1
 62
     1
100
AcDbLine
 10
55.25255047341244
 20
-2.353028624317713
 30
0.0
 11
55.48845298923241
 21
-2.824793460750893
 31
0.0
  0
LINE
  5
47D
330
18
100
AcDbEntity
  8
1
 62
     1
100
AcDbLine
 10
55.48845298923243
 20
3.336488370089989
 30
0.0
 11
55.48845298923243
 21
-2.824793460750877
 31
0.0
  0
ARC
  5
47E
330
18
100
AcDbEntity
  8
1
 62
     1
100
AcDbCircle
 10
58.97827328680627
 20
-0.6396109337343687
 30
0.0
 40
5.2906861786238
100
AcDbArc
 50
131.2734081481452
 51
138.7579183658226
  0
LINE
  5
47F
330
18
100
AcDbEntity
  8
1
 62
     1
100
AcDbLine
 10
55.0
 20
-1.926813090301011
 30
0.0
 11
54.99999999999999
 21
2.848268569297256
 31
0.0
  0
ARC
  5
480
330
18
100
AcDbEntity
  8
1
 62
     1
100
AcDbCircle
 10
60.27909976763237
 20
-6.936494463945231
 30
0.0
 40
6.288314707987844
100
AcDbArc
 50
132.8809087665837
 51
139.3024472155334
  0
ARC
  5
481
330
18
100
AcDbEntity
  8
1
 62
     1
100
AcDbCircle
 10
71.62593912160635
 20
13.20499535193254
 30
0.0
 40
18.90066485337855
100
AcDbArc
 50
211.5063391351736
 51
214.2341624860122
  0
LINE
  5
482
330
18
100
AcDbEntity
  8
1
 62
     1
100
AcDbLine
 10
55.51154701076759
 20
3.327630608606896
 30
0.0
 11
55.51154701076759
 21
-2.836106434080863
 31
0.0
  0
ARC
  5
483
330
18
100
AcDbEntity
  8
1
 62
     1
100
AcDbCircle
 10
47.60577893215441
 20
-7.268387498991023
 30
0.0
 40
9.74000857197163
100
AcDbArc
 50
24.22944924323661
 51
30.47595856417991
  0
LINE
  5
484
330
18
100
AcDbEntity
  8
1
 62
     1
100
AcDbLine
 10
56.48845298923242
 20
2.906015949100774
 30
0.0
 11
56.48845298923244
 21
-3.270866513301162
 31
0.0
  0
ARC
  5
485
330
18
100
AcDbEntity
  8
1
 62
     1
100
AcDbCircle
 10
57.94497199139823
 20
0.2559336573627875
 30
0.0
 40
3.024336649392857
100
AcDbArc
 50
118.7937559542129
 51
130.0227526623273
  0
LINE
  5
486
330
18
100
AcDbEntity
  8
1
 62
     1
100
AcDbLine
 10
56.00000000000001
 20
-2.328556597538873
 30
0.0
 11
55.99999999999999
 21
2.571992561280092
 31
0.0
  0
ARC
  5
487
330
18
100
AcDbEntity
  8
1
 62
     1
100
AcDbCircle
 10
65.43801561620344
 20
-9.818088670892722
 30
0.0
 40
11.06472746607588
100
AcDbArc
 50
139.6936638593828
 51
143.7797546223968
  0
LINE
  5
488
330
18
100
AcDbEntity
  8
1
 62
     1
100
AcDbLine
 10
57.0
 20
-2.660526635013736
 30
0.0
 11
57.00000000000001
 21
2.218648969706046
 31
0.0
  0
ARC
  5
489
330
18
100
AcDbEntity
  8
1
 62
     1
100
AcDbCircle
 10
66.56800376318694
 20
9.639546040122804
 30
0.0
 40
12.10869773296177
100
AcDbArc
 50
213.8485376126899
 51
217.7969811749479
  0
LINE
  5
48A
330
18
100
AcDbEntity
  8
1
 62
     1
100
AcDbLine
 10
56.51154701076759
 20
2.894990866717247
 30
0.0
 11
56.51154701076759
 21
-3.280056294568424
 31
0.0
  0
LINE
  5
48B
330
18
100
AcDbEntity
  8
1
 62
     1
100
AcDbLine
 10
53.0
 20
-0.963887493184611
 30
0.0
 11
53.06458590191154
 21
-1.037254922594217
 31
0.0
  0
LINE
  5
48C
330
18
100
AcDbEntity
  8
1
 62
     1
100
AcDbLine
 10
53.06458590191154
 20
-1.037254922594217
 30
0.0
 11
53.1282346402208
 21
-1.116549143556238
 31
0.0
  0
LINE
  5
48D
330
18
100
AcDbEntity
  8
1
 62
     1
100
AcDbLine
 10
53.1282346402208
 20
-1.116549143556238
 30
0.0
 11
53.1909032042109
 21
-1.201364411149134
 31
0.0
  0
LINE
  5
48E
330
18
100
AcDbEntity
  8
1
 62
     1
100
AcDbLine
 10
53.1909032042109
 20
-1.201364411149134
 30
0.0
 11
53.3131418894477
 21
-1.385949149431762
 31
0.0
  0
LINE
  5
48F
330
18
100
AcDbEntity
  8
1
 62
     1
100
AcDbLine
 10
53.3131418894477
 20
-1.385949149431762
 30
0.0
 11
53.4020227993698
 21
-1.53598719717129
 31
0.0
  0
LINE
  5
490
330
18
100
AcDbEntity
  8
1
 62
     1
100
AcDbLine
 10
53.4020227993698
 20
-1.53598719717129
 30
0.0
 11
53.48845298923241
 21
-1.694621321825161
 31
0.0
  0
LINE
  5
491
330
18
100
AcDbEntity
  8
1
 62
     1
100
AcDbLine
 10
53.48845298923243
 20
3.887604119734493
 30
0.0
 11
53.48845298923241
 21
-1.694621321778777
 31
0.0
  0
ARC
  5
492
330
18
100
AcDbEntity
  8
1
 62
     1
100
AcDbCircle
 10
66.68050182460763
 20
-5.250898590636652
 30
0.0
 40
16.04826265929116
100
AcDbArc
 50
145.2885670932966
 51
148.4801010474563
  0
ARC
  5
493
330
18
100
AcDbEntity
  8
1
 62
     1
100
AcDbCircle
 10
53.05323691048667
 20
-2.529546096670048
 30
0.0
 40
1.566391827088351
100
AcDbArc
 50
91.94747151813256
 51
110.232303969059
  0
LINE
  5
494
330
18
100
AcDbEntity
  8
1
 62
     1
100
AcDbLine
 10
52.99999999999999
 20
-0.9638874931846095
 30
0.0
 11
52.99999999999999
 21
3.139060589382961
 31
0.0
  0
LINE
  5
495
330
18
100
AcDbEntity
  8
1
 62
     1
100
AcDbLine
 10
52.5115470107676
 20
3.99067286359467
 30
0.0
 11
53.0
 21
3.139060589382961
 31
0.0
  0
LINE
  5
496
330
18
100
AcDbEntity
  8
1
 62
     1
100
AcDbLine
 10
48.23267930550535
 20
3.556987191100561
 30
0.0
 11
48.23267930550536
 21
3.556593858641086
 31
0.0
  0
LINE
  5
497
330
18
100
AcDbEntity
  8
1
 62
     1
100
AcDbLine
 10
48.23267930550536
 20
3.556593858641086
 30
0.0
 11
48.23267930550535
 21
3.433402006196876
 31
0.0
  0
LINE
  5
498
330
18
100
AcDbEntity
  8
1
 62
     1
100
AcDbLine
 10
48.23267930550535
 20
3.433402006196876
 30
0.0
 11
48.23267930550535
 21
1.717837721993546
 31
0.0
  0
LINE
  5
499
330
18
100
AcDbEntity
  8
1
 62
     1
100
AcDbLine
 10
48.0
 20
1.664683472728062
 30
0.0
 11
48.0
 21
3.153975
 31
0.0
  0
LINE
  5
49A
330
18
100
AcDbEntity
  8
1
 62
     1
100
AcDbLine
 10
47.8836603878074
 20
3.355481025298212
 30
0.0
 11
47.8836603878074
 21
3.355155100008583
 31
0.0
  0
LINE
  5
49B
330
18
100
AcDbEntity
  8
1
 62
     1
100
AcDbLine
 10
47.8836603878074
 20
3.355155100008583
 30
0.0
 11
47.88366038780739
 21
3.253513634605226
 31
0.0
  0
LINE
  5
49C
330
18
100
AcDbEntity
  8
1
 62
     1
100
AcDbLine
 10
47.88366038780739
 20
3.253513634605226
 30
0.0
 11
47.88366038780738
 21
1.817906328228573
 31
0.0
  0
LINE
  5
49D
330
18
100
AcDbEntity
  8
1
 62
     1
100
AcDbLine
 10
52.0
 20
-0.4315587250263373
 30
0.0
 11
52.06458590656835
 21
-0.4876741339049521
 31
0.0
  0
LINE
  5
49E
330
18
100
AcDbEntity
  8
1
 62
     1
100
AcDbLine
 10
52.06458590656835
 20
-0.4876741339049521
 30
0.0
 11
52.12823463813838
 21
-0.5503699033485224
 31
0.0
  0
LINE
  5
49F
330
18
100
AcDbEntity
  8
1
 62
     1
100
AcDbLine
 10
52.12823463813838
 20
-0.5503699033485224
 30
0.0
 11
52.19090318295029
 21
-0.6192761195586081
 31
0.0
  0
LINE
  5
4A0
330
18
100
AcDbEntity
  8
1
 62
     1
100
AcDbLine
 10
52.19090318295029
 20
-0.6192761195586081
 30
0.0
 11
52.25255044470671
 21
-0.6940236835864397
 31
0.0
  0
LINE
  5
4A1
330
18
100
AcDbEntity
  8
1
 62
     1
100
AcDbLine
 10
52.25255044470671
 20
-0.6940236835864397
 30
0.0
 11
52.31314181663674
 21
-0.77424536143984
 31
0.0
  0
LINE
  5
4A2
330
18
100
AcDbEntity
  8
1
 62
     1
100
AcDbLine
 10
52.31314181663674
 20
-0.77424536143984
 30
0.0
 11
52.3726656000596
 21
-0.8596041139560423
 31
0.0
  0
LINE
  5
4A3
330
18
100
AcDbEntity
  8
1
 62
     1
100
AcDbLine
 10
52.3726656000596
 20
-0.8596041139560423
 30
0.0
 11
52.48845298923241
 21
-1.044386965847114
 31
0.0
  0
LINE
  5
4A4
330
18
100
AcDbEntity
  8
1
 62
     1
100
AcDbLine
 10
52.48845298923242
 20
3.991733616280818
 30
0.0
 11
52.48845298923243
 21
2.262557450110774
 31
0.0
  0
LINE
  5
4A5
330
18
100
AcDbEntity
  8
1
 62
     1
100
AcDbLine
 10
52.48845298923243
 20
2.262557450110774
 30
0.0
 11
52.48845298923242
 21
-1.044386965268372
 31
0.0
  0
ARC
  5
4A6
330
18
100
AcDbEntity
  8
1
 62
     1
100
AcDbCircle
 10
51.60287449493206
 20
-1.804455774639819
 30
0.0
 40
1.428676499898621
100
AcDbArc
 50
73.86690823091716
 51
93.66535757710767
  0
LINE
  5
4A7
330
18
100
AcDbEntity
  8
1
 62
     1
100
AcDbLine
 10
52.0
 20
-0.4315587250263371
 30
0.0
 11
52.0
 21
3.153975
 31
0.0
  0
LINE
  5
4A8
330
18
100
AcDbEntity
  8
1
 62
     1
100
AcDbLine
 10
51.51154701076759
 20
4.0
 30
0.0
 11
51.51154701076759
 21
3.998879907271919
 31
0.0
  0
LINE
  5
4A9
330
18
100
AcDbEntity
  8
1
 62
     1
100
AcDbLine
 10
51.51154701076759
 20
3.998879907271919
 30
0.0
 11
51.5115470107676
 21
3.902895015875613
 31
0.0
  0
LINE
  5
4AA
330
18
100
AcDbEntity
  8
1
 62
     1
100
AcDbLine
 10
51.5115470107676
 20
3.902895015875613
 30
0.0
 11
51.51154701076759
 21
-0.3787997201459871
 31
0.0
  0
LINE
  5
4AB
330
18
100
AcDbEntity
  8
1
 62
     1
100
AcDbLine
 10
50.99999999999999
 20
0.113701388455474
 30
0.0
 11
51.01964100332489
 21
0.1032112711781756
 31
0.0
  0
LINE
  5
4AC
330
18
100
AcDbEntity
  8
1
 62
     1
100
AcDbLine
 10
51.48845298923242
 20
4.0
 30
0.0
 11
51.48845298923242
 21
3.99888566579743
 31
0.0
  0
LINE
  5
4AD
330
18
100
AcDbEntity
  8
1
 62
     1
100
AcDbLine
 10
51.48845298923242
 20
3.99888566579743
 30
0.0
 11
51.48845298923242
 21
3.903408335782308
 31
0.0
  0
LINE
  5
4AE
330
18
100
AcDbEntity
  8
1
 62
     1
100
AcDbLine
 10
51.48845298923242
 20
3.903408335782308
 30
0.0
 11
51.48845298923242
 21
-0.362858142433396
 31
0.0
  0
LINE
  5
4AF
330
18
100
AcDbEntity
  8
1
 62
     1
100
AcDbLine
 10
51.00000000000001
 20
0.113701388455474
 30
0.0
 11
51.0
 21
3.153975
 31
0.0
  0
LINE
  5
4B0
330
18
100
AcDbEntity
  8
1
 62
     1
100
AcDbLine
 10
50.51154701076759
 20
4.0
 30
0.0
 11
50.51154701076758
 21
3.99911972040843
 31
0.0
  0
LINE
  5
4B1
330
18
100
AcDbEntity
  8
1
 62
     1
100
AcDbLine
 10
50.51154701076758
 20
3.99911972040843
 30
0.0
 11
50.51154701076758
 21
3.716542158059956
 31
0.0
  0
LINE
  5
4B2
330
18
100
AcDbEntity
  8
1
 62
     1
100
AcDbLine
 10
50.51154701076758
 20
3.716542158059956
 30
0.0
 11
50.51154701076759
 21
0.3135841069553301
 31
0.0
  0
ARC
  5
4B3
330
18
100
AcDbEntity
  8
1
 62
     1
100
AcDbCircle
 10
49.86063046309383
 20
0.0047274261595932
 30
0.0
 40
0.6656252241587722
100
AcDbArc
 50
58.05290641898513
 51
77.9131041169804
  0
LINE
  5
4B4
330
18
100
AcDbEntity
  8
1
 62
     1
100
AcDbLine
 10
50.48845298923241
 20
4.0
 30
0.0
 11
50.48845298923241
 21
3.999124842115891
 31
0.0
  0
LINE
  5
4B5
330
18
100
AcDbEntity
  8
1
 62
     1
100
AcDbLine
 10
50.48845298923241
 20
3.999124842115891
 30
0.0
 11
50.48845298923241
 21
3.718251827216948
 31
0.0
  0
LINE
  5
4B6
330
18
100
AcDbEntity
  8
1
 62
     1
100
AcDbLine
 10
50.48845298923241
 20
3.718251827216948
 30
0.0
 11
50.48845298923241
 21
0.3295427957523982
 31
0.0
  0
LINE
  5
4B7
330
18
100
AcDbEntity
  8
1
 62
     1
100
AcDbLine
 10
50.0
 20
0.6555544345422347
 30
0.0
 11
50.0
 21
3.153975
 31
0.0
  0
ARC
  5
4B8
330
18
100
AcDbEntity
  8
1
 62
     1
100
AcDbCircle
 10
48.60541415689286
 20
-0.7428233270979477
 30
0.0
 40
1.961273646021565
100
AcDbArc
 50
57.63592801307991
 51
62.48287659351919
  0
LINE
  5
4B9
330
18
100
AcDbEntity
  8
1
 62
     1
100
AcDbLine
 10
49.65529321571852
 20
0.913816605090862
 30
0.0
 11
49.6555439662301
 21
0.9136585366100077
 31
0.0
  0
LINE
  5
4BA
330
18
100
AcDbEntity
  8
1
 62
     1
100
AcDbLine
 10
49.51154701076759
 20
4.0
 30
0.0
 11
49.51154701076759
 21
3.999322288783678
 31
0.0
  0
LINE
  5
4BB
330
18
100
AcDbEntity
  8
1
 62
     1
100
AcDbLine
 10
49.51154701076759
 20
3.999322288783678
 30
0.0
 11
49.51154701076759
 21
3.783850638842792
 31
0.0
  0
LINE
  5
4BC
330
18
100
AcDbEntity
  8
1
 62
     1
100
AcDbLine
 10
49.51154701076759
 20
3.783850638842792
 30
0.0
 11
49.51154701076761
 21
0.9965722884791431
 31
0.0
  0
ARC
  5
4BD
330
18
100
AcDbEntity
  8
1
 62
     1
100
AcDbCircle
 10
45.73803343076951
 20
-1.69069699297304
 30
0.0
 40
4.343583124739318
100
AcDbArc
 50
41.3272877341583
 51
48.19088057929291
  0
LINE
  5
4BE
330
18
100
AcDbEntity
  8
1
 62
     1
100
AcDbLine
 10
49.0
 20
1.177764386254937
 30
0.0
 11
49.0
 21
3.153975
 31
0.0
  0
LINE
  5
4BF
330
18
100
AcDbEntity
  8
1
 62
     1
100
AcDbLine
 10
48.63366030064865
 20
3.788493676261524
 30
0.0
 11
48.63366030064865
 21
3.788007473638948
 31
0.0
  0
LINE
  5
4C0
330
18
100
AcDbEntity
  8
1
 62
     1
100
AcDbLine
 10
48.63366030064865
 20
3.788007473638948
 30
0.0
 11
48.63366030064865
 21
3.634948897754016
 31
0.0
  0
LINE
  5
4C1
330
18
100
AcDbEntity
  8
1
 62
     1
100
AcDbLine
 10
48.63366030064865
 20
3.634948897754016
 30
0.0
 11
48.63366030064866
 21
1.54684820812794
 31
0.0
  0
LINE
  5
4C2
330
18
100
AcDbEntity
  8
1
 62
     1
100
AcDbLine
 10
49.0
 20
1.177764386254936
 30
0.0
 11
49.0264218051702
 21
1.180055416874291
 31
0.0
  0
LINE
  5
4C3
330
18
100
AcDbEntity
  8
1
 62
     1
100
AcDbLine
 10
49.0264218051702
 20
1.180055416874291
 30
0.0
 11
49.05270060273691
 21
1.181113743877694
 31
0.0
  0
LINE
  5
4C4
330
18
100
AcDbEntity
  8
1
 62
     1
100
AcDbLine
 10
49.05270060273691
 20
1.181113743877694
 30
0.0
 11
49.07882539945228
 21
1.180952555094689
 31
0.0
  0
LINE
  5
4C5
330
18
100
AcDbEntity
  8
1
 62
     1
100
AcDbLine
 10
49.07882539945228
 20
1.180952555094689
 30
0.0
 11
49.10478711810827
 21
1.179584964258829
 31
0.0
  0
LINE
  5
4C6
330
18
100
AcDbEntity
  8
1
 62
     1
100
AcDbLine
 10
49.10478711810827
 20
1.179584964258829
 30
0.0
 11
49.13059247824117
 21
1.177024009385134
 31
0.0
  0
LINE
  5
4C7
330
18
100
AcDbEntity
  8
1
 62
     1
100
AcDbLine
 10
49.13059247824117
 20
1.177024009385134
 30
0.0
 11
49.15623656882598
 21
1.173284166062495
 31
0.0
  0
LINE
  5
4C8
330
18
100
AcDbEntity
  8
1
 62
     1
100
AcDbLine
 10
49.15623656882598
 20
1.173284166062495
 30
0.0
 11
49.18171061197977
 21
1.168380153503817
 31
0.0
  0
LINE
  5
4C9
330
18
100
AcDbEntity
  8
1
 62
     1
100
AcDbLine
 10
49.18171061197977
 20
1.168380153503817
 30
0.0
 11
49.20701279492503
 21
1.162325325474696
 31
0.0
  0
LINE
  5
4CA
330
18
100
AcDbEntity
  8
1
 62
     1
100
AcDbLine
 10
49.20701279492503
 20
1.162325325474696
 30
0.0
 11
49.2321487247406
 21
1.155132387550933
 31
0.0
  0
LINE
  5
4CB
330
18
100
AcDbEntity
  8
1
 62
     1
100
AcDbLine
 10
49.2321487247406
 20
1.155132387550933
 30
0.0
 11
49.2571116132785
 21
1.146817123481426
 31
0.0
  0
LINE
  5
4CC
330
18
100
AcDbEntity
  8
1
 62
     1
100
AcDbLine
 10
49.2571116132785
 20
1.146817123481426
 30
0.0
 11
49.28189482535416
 21
1.137395206315342
 31
0.0
  0
LINE
  5
4CD
330
18
100
AcDbEntity
  8
1
 62
     1
100
AcDbLine
 10
49.28189482535416
 20
1.137395206315342
 30
0.0
 11
49.30650405142602
 21
1.126877964147112
 31
0.0
  0
LINE
  5
4CE
330
18
100
AcDbEntity
  8
1
 62
     1
100
AcDbLine
 10
49.30650405142602
 20
1.126877964147112
 30
0.0
 11
49.33093878380472
 21
1.115279915319863
 31
0.0
  0
LINE
  5
4CF
330
18
100
AcDbEntity
  8
1
 62
     1
100
AcDbLine
 10
49.33093878380472
 20
1.115279915319863
 30
0.0
 11
49.35519315204711
 21
1.102617738924778
 31
0.0
  0
LINE
  5
4D0
330
18
100
AcDbEntity
  8
1
 62
     1
100
AcDbLine
 10
49.35519315204711
 20
1.102617738924778
 30
0.0
 11
49.37926474817217
 21
1.088906241570561
 31
0.0
  0
LINE
  5
4D1
330
18
100
AcDbEntity
  8
1
 62
     1
100
AcDbLine
 10
49.37926474817217
 20
1.088906241570561
 30
0.0
 11
49.40316045803915
 21
1.074155691008943
 31
0.0
  0
LINE
  5
4D2
330
18
100
AcDbEntity
  8
1
 62
     1
100
AcDbLine
 10
49.48845298923241
 20
4.0
 30
0.0
 11
49.4884529892324
 21
3.999326535722273
 31
0.0
  0
LINE
  5
4D3
330
18
100
AcDbEntity
  8
1
 62
     1
100
AcDbLine
 10
49.4884529892324
 20
3.999326535722273
 30
0.0
 11
49.48845298923241
 21
3.78525412122766
 31
0.0
  0
LINE
  5
4D4
330
18
100
AcDbEntity
  8
1
 62
     1
100
AcDbLine
 10
49.48845298923241
 20
3.78525412122766
 30
0.0
 11
49.48845298923241
 21
1.012069849560126
 31
0.0
  0
LINE
  5
4D5
330
18
100
AcDbEntity
  8
1
 62
     1
100
AcDbLine
 10
48.63366030064865
 20
-3.093607820417959
 30
0.0
 11
48.23267930550537
 21
-2.722678586557804
 31
0.0
  0
LINE
  5
4D6
330
18
100
AcDbEntity
  8
1
 62
     1
100
AcDbLine
 10
48.63366030064865
 20
-3.09360782041796
 30
0.0
 11
48.63366030064865
 21
-3.788493676261524
 31
0.0
  0
LINE
  5
4D7
330
18
100
AcDbEntity
  8
1
 62
     1
100
AcDbLine
 10
66.7810671973861
 20
3.533177560767427
 30
0.0
 11
66.7810671973861
 21
3.532733022733863
 31
0.0
  0
LINE
  5
4D8
330
18
100
AcDbEntity
  8
1
 62
     1
100
AcDbLine
 10
66.7810671973861
 20
3.532733022733863
 30
0.0
 11
66.78106719738608
 21
3.392887042759038
 31
0.0
  0
LINE
  5
4D9
330
18
100
AcDbEntity
  8
1
 62
     1
100
AcDbLine
 10
66.78106719738608
 20
3.392887042759038
 30
0.0
 11
66.78106719738608
 21
1.479253255948721
 31
0.0
  0
ARC
  5
4DA
330
18
100
AcDbEntity
  8
1
 62
     1
100
AcDbCircle
 10
63.15295723862031
 20
-2.079405759360582
 30
0.0
 40
5.082057240660231
100
AcDbArc
 50
40.80130212639489
 51
44.44632670204241
  0
LINE
  5
4DB
330
18
100
AcDbEntity
  8
1
 62
     1
100
AcDbLine
 10
66.0
 20
1.722831030206092
 30
0.0
 11
66.0
 21
3.153975
 31
0.0
  0
ARC
  5
4DC
330
18
100
AcDbEntity
  8
1
 62
     1
100
AcDbCircle
 10
66.28072296221146
 20
1.140237048918141
 30
0.0
 40
0.6466085587859254
100
AcDbArc
 50
87.88260469755947
 51
115.727096369205
  0
LINE
  5
4DD
330
18
100
AcDbEntity
  8
1
 62
     1
100
AcDbLine
 10
66.30459810157167
 20
3.681554141827215
 30
0.0
 11
66.30459810157167
 21
3.681148892370466
 31
0.0
  0
LINE
  5
4DE
330
18
100
AcDbEntity
  8
1
 62
     1
100
AcDbLine
 10
66.30459810157167
 20
3.681148892370466
 30
0.0
 11
66.30459810157166
 21
3.554244198707648
 31
0.0
  0
LINE
  5
4DF
330
18
100
AcDbEntity
  8
1
 62
     1
100
AcDbLine
 10
66.30459810157166
 20
3.554244198707648
 30
0.0
 11
66.30459810157167
 21
1.785993617639498
 31
0.0
  0
LINE
  5
4E0
330
18
100
AcDbEntity
  8
1
 62
     1
100
AcDbLine
 10
66.7810671973861
 20
-2.860211748709157
 30
0.0
 11
66.7810671973861
 21
-3.533177560767427
 31
0.0
  0
ARC
  5
4E1
330
18
100
AcDbEntity
  8
1
 62
     1
100
AcDbCircle
 10
67.26904557747002
 20
4.726429562698359
 30
0.0
 40
7.602317348274154
100
AcDbArc
 50
262.7116791944099
 51
266.3197627401867
  0
LINE
  5
4E2
330
18
100
AcDbEntity
  8
1
 62
     1
100
AcDbLine
 10
66.30459810157166
 20
-2.81445660546327
 30
0.0
 11
66.30459810157167
 21
-3.681554141827215
 31
0.0
  0
LINE
  5
4E3
330
18
100
AcDbEntity
  8
1
 62
     1
100
AcDbLine
 10
65.45699101642343
 20
-2.655582134577696
 30
0.0
 11
65.45699101642343
 21
-3.945506289996195
 31
0.0
  0
LINE
  5
4E4
330
18
100
AcDbEntity
  8
1
 62
     1
100
AcDbLine
 10
67.0
 20
1.57
 30
0.0
 11
68.57
 21
0.0
 31
0.0
  0
LINE
  5
4E5
330
18
100
AcDbEntity
  8
1
 62
     1
100
AcDbLine
 10
67.0
 20
-0.6721204915584365
 30
0.0
 11
67.01103337474723
 21
-0.636679191749343
 31
0.0
  0
LINE
  5
4E6
330
18
100
AcDbEntity
  8
1
 62
     1
100
AcDbLine
 10
67.01103337474723
 20
-0.636679191749343
 30
0.0
 11
67.02060472711925
 21
-0.6009265114255802
 31
0.0
  0
LINE
  5
4E7
330
18
100
AcDbEntity
  8
1
 62
     1
100
AcDbLine
 10
67.02060472711925
 20
-0.6009265114255802
 30
0.0
 11
67.02865459902463
 21
-0.564948651172374
 31
0.0
  0
LINE
  5
4E8
330
18
100
AcDbEntity
  8
1
 62
     1
100
AcDbLine
 10
67.02865459902463
 20
-0.564948651172374
 30
0.0
 11
67.03515677908476
 21
-0.5287903695916341
 31
0.0
  0
LINE
  5
4E9
330
18
100
AcDbEntity
  8
1
 62
     1
100
AcDbLine
 10
67.03515677908476
 20
-0.5287903695916341
 30
0.0
 11
67.04008764002172
 21
-0.4925549901519027
 31
0.0
  0
LINE
  5
4EA
330
18
100
AcDbEntity
  8
1
 62
     1
100
AcDbLine
 10
67.04008764002172
 20
-0.4925549901519027
 30
0.0
 11
67.04344710394611
 21
-0.4562883092754868
 31
0.0
  0
LINE
  5
4EB
330
18
100
AcDbEntity
  8
1
 62
     1
100
AcDbLine
 10
67.04344710394611
 20
-0.4562883092754868
 30
0.0
 11
67.04525408440807
 21
-0.4200749412864219
 31
0.0
  0
LINE
  5
4EC
330
18
100
AcDbEntity
  8
1
 62
     1
100
AcDbLine
 10
67.04525408440807
 20
-0.4200749412864219
 30
0.0
 11
67.04553496334917
 21
-0.3839756904551956
 31
0.0
  0
LINE
  5
4ED
330
18
100
AcDbEntity
  8
1
 62
     1
100
AcDbLine
 10
67.04553496334917
 20
-0.3839756904551956
 30
0.0
 11
67.04433933481505
 21
-0.3480359236725923
 31
0.0
  0
LINE
  5
4EE
330
18
100
AcDbEntity
  8
1
 62
     1
100
AcDbLine
 10
67.04433933481505
 20
-0.3480359236725923
 30
0.0
 11
67.04172083883695
 21
-0.3123218398253492
 31
0.0
  0
LINE
  5
4EF
330
18
100
AcDbEntity
  8
1
 62
     1
100
AcDbLine
 10
67.04172083883695
 20
-0.3123218398253492
 30
0.0
 11
67.03774334671164
 21
-0.2768508123993246
 31
0.0
  0
LINE
  5
4F0
330
18
100
AcDbEntity
  8
1
 62
     1
100
AcDbLine
 10
67.03774334671164
 20
-0.2768508123993246
 30
0.0
 11
67.03247883985942
 21
-0.241671863273689
 31
0.0
  0
LINE
  5
4F1
330
18
100
AcDbEntity
  8
1
 62
     1
100
AcDbLine
 10
67.03247883985942
 20
-0.241671863273689
 30
0.0
 11
67.01837539430835
 21
-0.1722401386872172
 31
0.0
  0
LINE
  5
4F2
330
18
100
AcDbEntity
  8
1
 62
     1
100
AcDbLine
 10
67.01837539430835
 20
-0.1722401386872172
 30
0.0
 11
67.0
 21
-0.1041339392876831
 31
0.0
  0
LINE
  5
4F3
330
18
100
AcDbEntity
  8
1
 62
     1
100
AcDbLine
 10
67.0
 20
1.241425048659679
 30
0.0
 11
67.0
 21
3.153974999999999
 31
0.0
  0
LINE
  5
4F4
330
18
100
AcDbEntity
  8
1
 62
     1
100
AcDbLine
 10
67.0
 20
-3.153974999999999
 30
0.0
 11
67.0
 21
-3.153852192559599
 31
0.0
  0
LINE
  5
4F5
330
18
100
AcDbEntity
  8
1
 62
     1
100
AcDbLine
 10
67.0
 20
-3.153852192559599
 30
0.0
 11
67.00000000000001
 21
-3.116535995244359
 31
0.0
  0
LINE
  5
4F6
330
18
100
AcDbEntity
  8
1
 62
     1
100
AcDbLine
 10
67.00000000000001
 20
-3.116535995244359
 30
0.0
 11
67.00000000000001
 21
-2.570899772692786
 31
0.0
  0
LINE
  5
4F7
330
18
100
AcDbEntity
  8
1
 62
     1
100
AcDbLine
 10
60.5115470107676
 20
0.4627343444227505
 30
0.0
 11
60.5115470107676
 21
-4.0
 31
0.0
  0
LINE
  5
4F8
330
18
100
AcDbEntity
  8
1
 62
     1
100
AcDbLine
 10
60.48845298923244
 20
0.478633575780437
 30
0.0
 11
60.48845298923244
 21
-4.0
 31
0.0
  0
LINE
  5
4F9
330
18
100
AcDbEntity
  8
1
 62
     1
100
AcDbLine
 10
59.48845298923242
 20
1.156315470469686
 30
0.0
 11
59.48845298923243
 21
-3.9825628415282
 31
0.0
  0
LINE
  5
4FA
330
18
100
AcDbEntity
  8
1
 62
     1
100
AcDbLine
 10
57.48845298923244
 20
2.388467018734648
 30
0.0
 11
57.48845298923242
 21
-3.618930441380677
 31
0.0
  0
LINE
  5
4FB
330
18
100
AcDbEntity
  8
1
 62
     1
100
AcDbLine
 10
53.51154701076761
 20
3.883804272735826
 30
0.0
 11
53.51154701076759
 21
-1.70911042706297
 31
0.0
  0
LINE
  5
4FC
330
18
100
AcDbEntity
  8
1
 62
     1
100
AcDbLine
 10
52.51154701076759
 20
3.990672863594668
 30
0.0
 11
52.51154701076759
 21
2.248060603975834
 31
0.0
  0
LINE
  5
4FD
330
18
100
AcDbEntity
  8
1
 62
     1
100
AcDbLine
 10
52.51154701076759
 20
2.248060603975834
 30
0.0
 11
52.5115470107676
 21
-1.059833649042614
 31
0.0
  0
LINE
  5
4FE
330
18
100
AcDbEntity
  8
1
 62
     1
100
AcDbLine
 10
63.51154701076759
 20
4.0
 30
0.0
 11
63.5115470107676
 21
3.999850831608384
 31
0.0
  0
LINE
  5
4FF
330
18
100
AcDbEntity
  8
1
 62
     1
100
AcDbLine
 10
63.5115470107676
 20
3.999850831608384
 30
0.0
 11
63.5115470107676
 21
3.954571375578927
 31
0.0
  0
LINE
  5
500
330
18
100
AcDbEntity
  8
1
 62
     1
100
AcDbLine
 10
63.5115470107676
 20
3.954571375578927
 30
0.0
 11
63.51154701076759
 21
3.292576843297065
 31
0.0
  0
ARC
  5
501
330
18
100
AcDbEntity
  8
1
 62
     1
100
AcDbCircle
 10
51.12665660785868
 20
-5.054852452687005
 30
0.0
 40
14.93539092518397
100
AcDbArc
 50
30.46618112762169
 51
33.98001197808062
  0
LINE
  5
502
330
18
100
AcDbEntity
  8
1
 62
     1
100
AcDbLine
 10
63.0
 20
2.807729302379427
 30
0.0
 11
63.12823463120484
 21
2.963665122968104
 31
0.0
  0
LINE
  5
503
330
18
100
AcDbEntity
  8
1
 62
     1
100
AcDbLine
 10
63.12823463120484
 20
2.963665122968104
 30
0.0
 11
63.25255042937371
 21
3.098365340747061
 31
0.0
  0
LINE
  5
504
330
18
100
AcDbEntity
  8
1
 62
     1
100
AcDbLine
 10
63.25255042937371
 20
3.098365340747061
 30
0.0
 11
63.31314180616776
 21
3.157523831869465
 31
0.0
  0
LINE
  5
505
330
18
100
AcDbEntity
  8
1
 62
     1
100
AcDbLine
 10
63.31314180616776
 20
3.157523831869465
 30
0.0
 11
63.37266558681526
 21
3.211148082803856
 31
0.0
  0
LINE
  5
506
330
18
100
AcDbEntity
  8
1
 62
     1
100
AcDbLine
 10
63.37266558681526
 20
3.211148082803856
 30
0.0
 11
63.43110962859417
 21
3.259198535700311
 31
0.0
  0
LINE
  5
507
330
18
100
AcDbEntity
  8
1
 62
     1
100
AcDbLine
 10
63.43110962859417
 20
3.259198535700311
 30
0.0
 11
63.48845298923242
 21
3.301641694993166
 31
0.0
  0
LINE
  5
508
330
18
100
AcDbEntity
  8
1
 62
     1
100
AcDbLine
 10
63.48845298923243
 20
4.0
 30
0.0
 11
63.48845298923243
 21
3.999852692044534
 31
0.0
  0
LINE
  5
509
330
18
100
AcDbEntity
  8
1
 62
     1
100
AcDbLine
 10
63.48845298923243
 20
3.999852692044534
 30
0.0
 11
63.48845298923242
 21
3.955151236843132
 31
0.0
  0
LINE
  5
50A
330
18
100
AcDbEntity
  8
1
 62
     1
100
AcDbLine
 10
63.48845298923242
 20
3.955151236843132
 30
0.0
 11
63.48845298923244
 21
3.301641695091833
 31
0.0
  0
LINE
  5
50B
330
18
100
AcDbEntity
  8
1
 62
     1
100
AcDbLine
 10
62.5115470107676
 20
4.0
 30
0.0
 11
62.5115470107676
 21
3.999921277551694
 31
0.0
  0
LINE
  5
50C
330
18
100
AcDbEntity
  8
1
 62
     1
100
AcDbLine
 10
62.5115470107676
 20
3.999921277551694
 30
0.0
 11
62.5115470107676
 21
3.976342835223884
 31
0.0
  0
LINE
  5
50D
330
18
100
AcDbEntity
  8
1
 62
     1
100
AcDbLine
 10
62.5115470107676
 20
3.976342835223884
 30
0.0
 11
62.5115470107676
 21
3.634942959182029
 31
0.0
  0
ARC
  5
50E
330
18
100
AcDbEntity
  8
1
 62
     1
100
AcDbCircle
 10
43.09479411518883
 20
-8.386993679080314
 30
0.0
 40
22.83719962970587
100
AcDbArc
 50
29.35347787418607
 51
31.76383608268879
  0
LINE
  5
50F
330
18
100
AcDbEntity
  8
1
 62
     1
100
AcDbLine
 10
63.00000000000001
 20
2.807729302379427
 30
0.0
 11
63.00000000000001
 21
3.153975
 31
0.0
  0
LINE
  5
510
330
18
100
AcDbEntity
  8
1
 62
     1
100
AcDbLine
 10
61.51154701076759
 20
4.0
 30
0.0
 11
61.51154701076759
 21
3.999970522381759
 31
0.0
  0
LINE
  5
511
330
18
100
AcDbEntity
  8
1
 62
     1
100
AcDbLine
 10
61.51154701076759
 20
3.999970522381759
 30
0.0
 11
61.51154701076759
 21
3.991269512987441
 31
0.0
  0
LINE
  5
512
330
18
100
AcDbEntity
  8
1
 62
     1
100
AcDbLine
 10
61.51154701076759
 20
3.991269512987441
 30
0.0
 11
61.51154701076759
 21
3.868390688338923
 31
0.0
  0
ARC
  5
513
330
18
100
AcDbEntity
  8
1
 62
     1
100
AcDbCircle
 10
28.79260201666353
 20
-15.39346428062132
 30
0.0
 40
37.96772423999261
100
AcDbArc
 50
28.99965048381886
 51
30.48559770053577
  0
LINE
  5
514
330
18
100
AcDbEntity
  8
1
 62
     1
100
AcDbLine
 10
62.00000000000001
 20
3.013432183606065
 30
0.0
 11
62.00000000000001
 21
3.153975
 31
0.0
  0
LINE
  5
515
330
18
100
AcDbEntity
  8
1
 62
     1
100
AcDbLine
 10
62.0
 20
3.013432183606065
 30
0.0
 11
62.252550441027
 21
3.365140688765958
 31
0.0
  0
LINE
  5
516
330
18
100
AcDbEntity
  8
1
 62
     1
100
AcDbLine
 10
62.252550441027
 20
3.365140688765958
 30
0.0
 11
62.37266564579984
 21
3.513263124607155
 31
0.0
  0
LINE
  5
517
330
18
100
AcDbEntity
  8
1
 62
     1
100
AcDbLine
 10
62.37266564579984
 20
3.513263124607155
 30
0.0
 11
62.48845298923245
 21
3.641596179297184
 31
0.0
  0
LINE
  5
518
330
18
100
AcDbEntity
  8
1
 62
     1
100
AcDbLine
 10
62.48845298923244
 20
4.0
 30
0.0
 11
62.48845298923244
 21
3.999922658225254
 31
0.0
  0
LINE
  5
519
330
18
100
AcDbEntity
  8
1
 62
     1
100
AcDbLine
 10
62.48845298923244
 20
3.999922658225254
 30
0.0
 11
62.48845298923244
 21
3.976765210589269
 31
0.0
  0
LINE
  5
51A
330
18
100
AcDbEntity
  8
1
 62
     1
100
AcDbLine
 10
62.48845298923244
 20
3.976765210589269
 30
0.0
 11
62.48845298923244
 21
3.64159617929716
 31
0.0
  0
LINE
  5
51B
330
18
100
AcDbEntity
  8
1
 62
     1
100
AcDbLine
 10
61.00000000000002
 20
3.128839825433956
 30
0.0
 11
61.00000000000001
 21
3.153975
 31
0.0
  0
ARC
  5
51C
330
18
100
AcDbEntity
  8
1
 62
     1
100
AcDbCircle
 10
70.30762129389184
 20
-2.439289323042837
 30
0.0
 40
10.84585807481861
100
AcDbArc
 50
144.4093740913183
 51
149.1107305641066
  0
LINE
  5
51D
330
18
100
AcDbEntity
  8
1
 62
     1
100
AcDbLine
 10
61.48845298923244
 20
4.0
 30
0.0
 11
61.48845298923244
 21
3.999971397349975
 31
0.0
  0
LINE
  5
51E
330
18
100
AcDbEntity
  8
1
 62
     1
100
AcDbLine
 10
61.48845298923244
 20
3.999971397349975
 30
0.0
 11
61.48845298923242
 21
3.991531642052766
 31
0.0
  0
LINE
  5
51F
330
18
100
AcDbEntity
  8
1
 62
     1
100
AcDbLine
 10
61.48845298923242
 20
3.991531642052766
 30
0.0
 11
61.48845298923244
 21
3.872432846075739
 31
0.0
  0
LINE
  5
520
330
18
100
AcDbEntity
  8
1
 62
     1
100
AcDbLine
 10
65.0
 20
2.15261371568265
 30
0.0
 11
65.0601662040224
 21
2.195692005703215
 31
0.0
  0
LINE
  5
521
330
18
100
AcDbEntity
  8
1
 62
     1
100
AcDbLine
 10
65.0601662040224
 20
2.195692005703215
 30
0.0
 11
65.1195230469843
 21
2.233005386929049
 31
0.0
  0
LINE
  5
522
330
18
100
AcDbEntity
  8
1
 62
     1
100
AcDbLine
 10
65.1195230469843
 20
2.233005386929049
 30
0.0
 11
65.17803903221434
 21
2.264592578989944
 31
0.0
  0
LINE
  5
523
330
18
100
AcDbEntity
  8
1
 62
     1
100
AcDbLine
 10
65.17803903221434
 20
2.264592578989944
 30
0.0
 11
65.20696280919103
 21
2.27824726712154
 31
0.0
  0
LINE
  5
524
330
18
100
AcDbEntity
  8
1
 62
     1
100
AcDbLine
 10
65.20696280919103
 20
2.27824726712154
 30
0.0
 11
65.23566893424756
 21
2.290489006056143
 31
0.0
  0
LINE
  5
525
330
18
100
AcDbEntity
  8
1
 62
     1
100
AcDbLine
 10
65.23566893424756
 20
2.290489006056143
 30
0.0
 11
65.2641478599636
 21
2.301322130534796
 31
0.0
  0
LINE
  5
526
330
18
100
AcDbEntity
  8
1
 62
     1
100
AcDbLine
 10
65.2641478599636
 20
2.301322130534796
 30
0.0
 11
65.29239295034736
 21
2.310751898985797
 31
0.0
  0
LINE
  5
527
330
18
100
AcDbEntity
  8
1
 62
     1
100
AcDbLine
 10
65.29239295034736
 20
2.310751898985797
 30
0.0
 11
65.32041248309658
 21
2.318789863331378
 31
0.0
  0
LINE
  5
528
330
18
100
AcDbEntity
  8
1
 62
     1
100
AcDbLine
 10
65.32041248309658
 20
2.318789863331378
 30
0.0
 11
65.34819987226138
 21
2.325443451336817
 31
0.0
  0
LINE
  5
529
330
18
100
AcDbEntity
  8
1
 62
     1
100
AcDbLine
 10
65.34819987226138
 20
2.325443451336817
 30
0.0
 11
65.37574826077001
 21
2.330719776441387
 31
0.0
  0
LINE
  5
52A
330
18
100
AcDbEntity
  8
1
 62
     1
100
AcDbLine
 10
65.37574826077001
 20
2.330719776441387
 30
0.0
 11
65.40306518656865
 21
2.334629674349293
 31
0.0
  0
LINE
  5
52B
330
18
100
AcDbEntity
  8
1
 62
     1
100
AcDbLine
 10
65.40306518656865
 20
2.334629674349293
 30
0.0
 11
65.43014803238418
 21
2.33718304849701
 31
0.0
  0
LINE
  5
52C
330
18
100
AcDbEntity
  8
1
 62
     1
100
AcDbLine
 10
65.43014803238418
 20
2.33718304849701
 30
0.0
 11
65.45699101642344
 21
2.33838924251016
 31
0.0
  0
LINE
  5
52D
330
18
100
AcDbEntity
  8
1
 62
     1
100
AcDbLine
 10
65.45699101642343
 20
3.945506289996195
 30
0.0
 11
65.45699101642342
 21
3.94516765474044
 31
0.0
  0
LINE
  5
52E
330
18
100
AcDbEntity
  8
1
 62
     1
100
AcDbLine
 10
65.45699101642342
 20
3.94516765474044
 30
0.0
 11
65.45699101642344
 21
3.839981178230288
 31
0.0
  0
LINE
  5
52F
330
18
100
AcDbEntity
  8
1
 62
     1
100
AcDbLine
 10
65.45699101642344
 20
3.839981178230288
 30
0.0
 11
65.45699101642343
 21
2.33838924251015
 31
0.0
  0
LINE
  5
530
330
18
100
AcDbEntity
  8
1
 62
     1
100
AcDbLine
 10
64.51154701076759
 20
4.0
 30
0.0
 11
64.51154701076759
 21
3.999759593154613
 31
0.0
  0
LINE
  5
531
330
18
100
AcDbEntity
  8
1
 62
     1
100
AcDbLine
 10
64.51154701076759
 20
3.999759593154613
 30
0.0
 11
64.51154701076757
 21
3.925875910653341
 31
0.0
  0
LINE
  5
532
330
18
100
AcDbEntity
  8
1
 62
     1
100
AcDbLine
 10
64.51154701076757
 20
3.925875910653341
 30
0.0
 11
64.51154701076757
 21
2.851550896528912
 31
0.0
  0
ARC
  5
533
330
18
100
AcDbEntity
  8
1
 62
     1
100
AcDbCircle
 10
56.64003894049473
 20
-3.165566213283301
 30
0.0
 40
9.907942913794848
100
AcDbArc
 50
32.46243374809021
 51
37.394922557242
  0
LINE
  5
534
330
18
100
AcDbEntity
  8
1
 62
     1
100
AcDbLine
 10
65.0
 20
2.152613715682649
 30
0.0
 11
65.0
 21
3.153975
 31
0.0
  0
LINE
  5
535
330
18
100
AcDbEntity
  8
1
 62
     1
100
AcDbLine
 10
65.56186436556412
 20
3.912847825624676
 30
0.0
 11
65.56186436556412
 21
3.912501175107192
 31
0.0
  0
LINE
  5
536
330
18
100
AcDbEntity
  8
1
 62
     1
100
AcDbLine
 10
65.56186436556412
 20
3.912501175107192
 30
0.0
 11
65.56186436556412
 21
3.804716746784684
 31
0.0
  0
LINE
  5
537
330
18
100
AcDbEntity
  8
1
 62
     1
100
AcDbLine
 10
65.56186436556412
 20
3.804716746784684
 30
0.0
 11
65.56186436556412
 21
2.269860689162629
 31
0.0
  0
ARC
  5
538
330
18
100
AcDbEntity
  8
1
 62
     1
100
AcDbCircle
 10
60.52963769551691
 20
-2.205825846372033
 30
0.0
 40
6.734670271524237
100
AcDbArc
 50
35.68482037478885
 51
41.65004754777139
  0
LINE
  5
539
330
18
100
AcDbEntity
  8
1
 62
     1
100
AcDbLine
 10
64.0
 20
2.517894891613261
 30
0.0
 11
64.0
 21
3.153975
 31
0.0
  0
LINE
  5
53A
330
18
100
AcDbEntity
  8
1
 62
     1
100
AcDbLine
 10
63.99999999999999
 20
2.517894891613261
 30
0.0
 11
64.06458590895546
 21
2.582161230943179
 31
0.0
  0
LINE
  5
53B
330
18
100
AcDbEntity
  8
1
 62
     1
100
AcDbLine
 10
64.06458590895546
 20
2.582161230943179
 30
0.0
 11
64.12823465520148
 21
2.640410949134165
 31
0.0
  0
LINE
  5
53C
330
18
100
AcDbEntity
  8
1
 62
     1
100
AcDbLine
 10
64.12823465520148
 20
2.640410949134165
 30
0.0
 11
64.1909032183593
 21
2.692614860251686
 31
0.0
  0
LINE
  5
53D
330
18
100
AcDbEntity
  8
1
 62
     1
100
AcDbLine
 10
64.1909032183593
 20
2.692614860251686
 30
0.0
 11
64.2525505072285
 21
2.738750024781577
 31
0.0
  0
LINE
  5
53E
330
18
100
AcDbEntity
  8
1
 62
     1
100
AcDbLine
 10
64.2525505072285
 20
2.738750024781577
 30
0.0
 11
64.31314189472107
 21
2.778810211021262
 31
0.0
  0
LINE
  5
53F
330
18
100
AcDbEntity
  8
1
 62
     1
100
AcDbLine
 10
64.31314189472107
 20
2.778810211021262
 30
0.0
 11
64.37266565926645
 21
2.812813718365099
 31
0.0
  0
LINE
  5
540
330
18
100
AcDbEntity
  8
1
 62
     1
100
AcDbLine
 10
64.37266565926645
 20
2.812813718365099
 30
0.0
 11
64.40202279911307
 21
2.827550777613718
 31
0.0
  0
LINE
  5
541
330
18
100
AcDbEntity
  8
1
 62
     1
100
AcDbLine
 10
64.40202279911307
 20
2.827550777613718
 30
0.0
 11
64.43110967060734
 21
2.840784795863518
 31
0.0
  0
LINE
  5
542
330
18
100
AcDbEntity
  8
1
 62
     1
100
AcDbLine
 10
64.43110967060734
 20
2.840784795863518
 30
0.0
 11
64.45991838102557
 21
2.852517221499414
 31
0.0
  0
LINE
  5
543
330
18
100
AcDbEntity
  8
1
 62
     1
100
AcDbLine
 10
64.45991838102557
 20
2.852517221499414
 30
0.0
 11
64.4884529892324
 21
2.862755849548587
 31
0.0
  0
LINE
  5
544
330
18
100
AcDbEntity
  8
1
 62
     1
100
AcDbLine
 10
64.48845298923241
 20
4.0
 30
0.0
 11
64.48845298923241
 21
3.999761939048328
 31
0.0
  0
LINE
  5
545
330
18
100
AcDbEntity
  8
1
 62
     1
100
AcDbLine
 10
64.48845298923241
 20
3.999761939048328
 30
0.0
 11
64.48845298923241
 21
3.926619415809766
 31
0.0
  0
LINE
  5
546
330
18
100
AcDbEntity
  8
1
 62
     1
100
AcDbLine
 10
64.48845298923241
 20
3.926619415809766
 30
0.0
 11
64.48845298923241
 21
2.86275584954857
 31
0.0
  0
ARC
  5
547
330
18
100
AcDbEntity
  8
1
 62
     1
100
AcDbCircle
 10
-34.8005130871824
 20
54.23773502061545
 30
0.0
 40
106.8452092680911
100
AcDbArc
 50
331.3913892801002
 51
331.9427849679396
  0
ARC
  5
548
330
18
100
AcDbEntity
  8
1
 62
     1
100
AcDbCircle
 10
36.32161400718647
 20
14.69397312157038
 30
0.0
 40
24.67292751544213
100
AcDbArc
 50
331.4779718461595
 51
333.9500601356302
  0
ARC
  5
549
330
18
100
AcDbEntity
  8
1
 62
     1
100
AcDbCircle
 10
74.51871501246993
 20
14.75865088122661
 30
0.0
 40
20.327000376403
100
AcDbArc
 50
213.2088456976153
 51
215.6450042284953
  0
ARC
  5
54A
330
18
100
AcDbEntity
  8
1
 62
     1
100
AcDbCircle
 10
95.87894387987782
 20
26.57893919331789
 30
0.0
 40
43.73042532897739
100
AcDbArc
 50
211.2960376242039
 51
212.5074196323466
  0
ARC
  5
54B
330
18
100
AcDbEntity
  8
1
 62
     1
100
AcDbCircle
 10
267.7837152738055
 20
125.5151903066727
 30
0.0
 40
241.1371623566675
100
AcDbArc
 50
210.2644554408053
 51
210.4940084495049
  0
ARC
  5
54C
330
18
100
AcDbEntity
  8
1
 62
     1
100
AcDbCircle
 10
126.2662425986668
 20
-34.4948550865245
 30
0.0
 40
76.21276910510687
100
AcDbArc
 50
150.0766458288161
 51
150.399422090962
  0
LINE
  5
54D
330
18
100
AcDbEntity
  8
1
 62
     1
100
AcDbLine
 10
60.48845298923244
 20
4.0
 30
0.0
 11
60.48845298923244
 21
3.999996977923349
 31
0.0
  0
LINE
  5
54E
330
18
100
AcDbEntity
  8
1
 62
     1
100
AcDbLine
 10
60.48845298923244
 20
3.999996977923349
 30
0.0
 11
60.48845298923244
 21
3.99911955753949
 31
0.0
  0
LINE
  5
54F
330
18
100
AcDbEntity
  8
1
 62
     1
100
AcDbLine
 10
60.48845298923244
 20
3.99911955753949
 30
0.0
 11
60.48845298923244
 21
3.987235137234772
 31
0.0
  0
LINE
  5
550
330
18
100
AcDbEntity
  8
1
 62
     1
100
AcDbLine
 10
60.5115470107676
 20
4.0
 30
0.0
 11
60.5115470107676
 21
3.999996672591025
 31
0.0
  0
LINE
  5
551
330
18
100
AcDbEntity
  8
1
 62
     1
100
AcDbLine
 10
60.5115470107676
 20
3.999996672591025
 30
0.0
 11
60.51154701076761
 21
3.999030222693105
 31
0.0
  0
LINE
  5
552
330
18
100
AcDbEntity
  8
1
 62
     1
100
AcDbLine
 10
60.51154701076761
 20
3.999030222693105
 30
0.0
 11
60.51154701076761
 21
3.985925144488625
 31
0.0
  0
ARC
  5
553
330
18
100
AcDbEntity
  8
1
 62
     1
100
AcDbCircle
 10
-16.37997697497055
 20
-40.41315041446239
 30
0.0
 40
88.78953620673447
100
AcDbArc
 50
29.36661356623583
 51
30.00320413101382
  0
ARC
  5
554
330
18
100
AcDbEntity
  8
1
 62
     1
100
AcDbCircle
 10
44.47226876020449
 20
9.639276941530564
 30
0.0
 40
14.34050698025629
100
AcDbArc
 50
330.8793867524601
 51
335.1781485470822
  0
LINE
  5
555
330
18
100
AcDbEntity
  8
1
 62
     1
100
AcDbLine
 10
52.51154701076759
 20
-3.99067286359467
 30
0.0
 11
53.0
 21
-3.13906058938296
 31
0.0
  0
ARC
  5
556
330
18
100
AcDbEntity
  8
1
 62
     1
100
AcDbCircle
 10
66.68050182459501
 20
5.250898590628329
 30
0.0
 40
16.04826265927606
100
AcDbArc
 50
211.5198989525419
 51
214.7114329067046
  0
ARC
  5
557
330
18
100
AcDbEntity
  8
1
 62
     1
100
AcDbCircle
 10
65.43801561620117
 20
9.818088670890937
 30
0.0
 40
11.06472746607299
100
AcDbArc
 50
216.2202453776027
 51
220.3063361406178
  0
ARC
  5
558
330
18
100
AcDbEntity
  8
1
 62
     1
100
AcDbCircle
 10
58.14017428667816
 20
-0.0009015281979008
 30
0.0
 40
3.345265816468496
100
AcDbArc
 50
230.2260279096394
 51
235.2645197346876
  0
ARC
  5
559
330
18
100
AcDbEntity
  8
1
 62
     1
100
AcDbCircle
 10
45.20132735292361
 20
8.457172035540152
 30
0.0
 40
12.42153987969111
100
AcDbArc
 50
332.6477275833351
 51
335.3217583863327
  0
ARC
  5
55A
330
18
100
AcDbEntity
  8
1
 62
     1
100
AcDbCircle
 10
71.62593912166885
 20
-13.20499535197301
 30
0.0
 40
18.90066485345301
100
AcDbArc
 50
145.765837513993
 51
148.4936608648208
  0
ARC
  5
55B
330
18
100
AcDbEntity
  8
1
 62
     1
100
AcDbCircle
 10
58.97827328681325
 20
0.63961093374134
 30
0.0
 40
5.290686178633652
100
AcDbArc
 50
221.2420816341843
 51
228.7265918518478
  0
ARC
  5
55C
330
18
100
AcDbEntity
  8
1
 62
     1
100
AcDbCircle
 10
80.9065966355922
 20
-18.97614099048736
 30
0.0
 40
30.51663069820323
100
AcDbArc
 50
148.0961167344983
 51
149.8757885189717
  0
ARC
  5
55D
330
18
100
AcDbEntity
  8
1
 62
     1
100
AcDbCircle
 10
61.56636788022605
 20
2.34030001153186
 30
0.0
 40
9.283759992746473
100
AcDbArc
 50
215.411874670833
 51
220.3224864757646
  0
ARC
  5
55E
330
18
100
AcDbEntity
  8
1
 62
     1
100
AcDbCircle
 10
102.9091662488349
 20
-31.88371814779122
 30
0.0
 40
56.78132454665457
100
AcDbArc
 50
149.4697268409812
 51
150.4542562721578
  0
ARC
  5
55F
330
18
100
AcDbEntity
  8
1
 62
     1
100
AcDbCircle
 10
38.78881553798417
 20
4.746144400371509
 30
0.0
 40
12.58502851145535
100
AcDbArc
 50
321.4686133588776
 51
324.2302046192888
  0
LINE
  5
560
330
18
100
AcDbEntity
  8
1
 62
     1
100
AcDbLine
 10
49.0
 20
-3.153975
 30
0.0
 11
48.63366030064864
 21
-3.788493676261505
 31
0.0
  0
ARC
  5
561
330
18
100
AcDbEntity
  8
1
 62
     1
100
AcDbCircle
 10
47.10829320983866
 20
-1.473468261470753
 30
0.0
 40
3.383636171373908
100
AcDbArc
 50
63.20460291691921
 51
70.59121774590564
  0
LINE
  5
562
330
18
100
AcDbEntity
  8
1
 62
     1
100
AcDbLine
 10
48.23267930550535
 20
3.556987191100561
 30
0.0
 11
48.63366030064865
 21
3.788493676261524
 31
0.0
  0
ARC
  5
563
330
18
100
AcDbEntity
  8
1
 62
     1
100
AcDbCircle
 10
47.21422458916715
 20
-1.172590585514261
 30
0.0
 40
3.064517370493374
100
AcDbArc
 50
77.38210876032606
 51
88.99550389364833
  0
LINE
  5
564
330
18
100
AcDbEntity
  8
1
 62
     1
100
AcDbLine
 10
47.99999999999999
 20
-2.265797041226942
 30
0.0
 11
48.23267930550536
 21
-2.722678586557777
 31
0.0
  0
LINE
  5
565
330
18
100
AcDbEntity
  8
1
 62
     1
100
AcDbLine
 10
48.23267930550535
 20
-2.722678586557784
 30
0.0
 11
48.23267930550535
 21
-3.556987191100561
 31
0.0
  0
ARC
  5
566
330
18
100
AcDbEntity
  8
1
 62
     1
100
AcDbCircle
 10
78.1919186299437
 20
11.37300090372225
 30
0.0
 40
29.94636657024026
100
AcDbArc
 50
208.9990741368816
 51
209.9820986275438
  0
LINE
  5
567
330
18
100
AcDbEntity
  8
1
 62
     1
100
AcDbLine
 10
52.25293647144197
 20
-3.592073615361056
 30
0.0
 11
52.0
 21
-3.153975
 31
0.0
  0
ARC
  5
568
330
18
100
AcDbEntity
  8
1
 62
     1
100
AcDbCircle
 10
74.37570749891424
 20
9.174640174970602
 30
0.0
 40
25.54223704008636
100
AcDbArc
 50
209.9885888465853
 51
211.0291964423225
  0
ARC
  5
569
330
18
100
AcDbEntity
  8
1
 62
     1
100
AcDbCircle
 10
-44.36885434412532
 20
52.7907147696192
 30
0.0
 40
111.4259216682455
100
AcDbArc
 50
329.3711570458596
 51
329.8677440680277
  0
LINE
  5
56A
330
18
100
AcDbEntity
  8
1
 62
     1
100
AcDbLine
 10
51.51154701076759
 20
-3.977963906670163
 30
0.0
 11
51.51154701076759
 21
-4.0
 31
0.0
  0
LINE
  5
56B
330
18
100
AcDbEntity
  8
1
 62
     1
100
AcDbLine
 10
52.0
 20
-3.153975
 30
0.0
 11
52.0
 21
-3.153972839787061
 31
0.0
  0
LINE
  5
56C
330
18
100
AcDbEntity
  8
1
 62
     1
100
AcDbLine
 10
52.0
 20
-3.153972839787061
 30
0.0
 11
52.0
 21
-3.153345890139665
 31
0.0
  0
LINE
  5
56D
330
18
100
AcDbEntity
  8
1
 62
     1
100
AcDbLine
 10
52.0
 20
-3.153345890139665
 30
0.0
 11
52.0
 21
-3.144863382564857
 31
0.0
  0
ARC
  5
56E
330
18
100
AcDbEntity
  8
1
 62
     1
100
AcDbCircle
 10
98.4152406723269
 20
21.52891025829621
 30
0.0
 40
53.41013958306404
100
AcDbArc
 50
207.4072541416195
 51
208.5245089444569
  0
LINE
  5
56F
330
18
100
AcDbEntity
  8
1
 62
     1
100
AcDbLine
 10
51.48845298923242
 20
-3.976253787233463
 30
0.0
 11
51.48845298923242
 21
-4.0
 31
0.0
  0
ARC
  5
570
330
18
100
AcDbEntity
  8
1
 62
     1
100
AcDbCircle
 10
17.14413753866557
 20
17.33724792310185
 30
0.0
 40
39.52362995269203
100
AcDbArc
 50
327.5905700713802
 51
328.9365949584226
  0
LINE
  5
571
330
18
100
AcDbEntity
  8
1
 62
     1
100
AcDbLine
 10
51.0
 20
-3.153975
 30
0.0
 11
50.51154701076759
 21
-4.000000000000002
 31
0.0
  0
LINE
  5
572
330
18
100
AcDbEntity
  8
1
 62
     1
100
AcDbLine
 10
51.0
 20
-3.153975
 30
0.0
 11
51.0
 21
-3.153953106686777
 31
0.0
  0
LINE
  5
573
330
18
100
AcDbEntity
  8
1
 62
     1
100
AcDbLine
 10
51.0
 20
-3.153953106686777
 30
0.0
 11
51.00000000000001
 21
-3.147495289581755
 31
0.0
  0
LINE
  5
574
330
18
100
AcDbEntity
  8
1
 62
     1
100
AcDbLine
 10
51.00000000000001
 20
-3.147495289581755
 30
0.0
 11
51.00000000000001
 21
-3.056432714573018
 31
0.0
  0
ARC
  5
575
330
18
100
AcDbEntity
  8
1
 62
     1
100
AcDbCircle
 10
187.8201366691074
 20
66.25412838492721
 30
0.0
 40
154.1863162277431
100
AcDbArc
 50
206.6383315990501
 51
207.040317619216
  0
LINE
  5
576
330
18
100
AcDbEntity
  8
1
 62
     1
100
AcDbLine
 10
50.48845298923241
 20
-3.841628554593492
 30
0.0
 11
50.48845298923241
 21
-4.0
 31
0.0
  0
ARC
  5
577
330
18
100
AcDbEntity
  8
1
 62
     1
100
AcDbCircle
 10
32.53399764765676
 20
8.40250920096386
 30
0.0
 40
20.79114940922552
100
AcDbArc
 50
324.7435367480886
 51
327.1470535767825
  0
LINE
  5
578
330
18
100
AcDbEntity
  8
1
 62
     1
100
AcDbLine
 10
49.51154701076759
 20
-3.598908355949493
 30
0.0
 11
49.51154701076759
 21
-4.0
 31
0.0
  0
LINE
  5
579
330
18
100
AcDbEntity
  8
1
 62
     1
100
AcDbLine
 10
50.0
 20
-3.153975
 30
0.0
 11
49.51154701076759
 21
-3.99999999999999
 31
0.0
  0
LINE
  5
57A
330
18
100
AcDbEntity
  8
1
 62
     1
100
AcDbLine
 10
50.0
 20
-3.153975
 30
0.0
 11
50.0
 21
-3.153915063559247
 31
0.0
  0
LINE
  5
57B
330
18
100
AcDbEntity
  8
1
 62
     1
100
AcDbLine
 10
50.0
 20
-3.153915063559247
 30
0.0
 11
49.99999999999999
 21
-3.135974687931744
 31
0.0
  0
LINE
  5
57C
330
18
100
AcDbEntity
  8
1
 62
     1
100
AcDbLine
 10
49.99999999999999
 20
-3.135974687931744
 30
0.0
 11
50.0
 21
-2.876418361564961
 31
0.0
  0
LINE
  5
57D
330
18
100
AcDbEntity
  8
1
 62
     1
100
AcDbLine
 10
48.99999999999999
 20
-2.610214129981483
 30
0.0
 11
49.48845298923241
 21
-3.591891729739444
 31
0.0
  0
LINE
  5
57E
330
18
100
AcDbEntity
  8
1
 62
     1
100
AcDbLine
 10
49.0
 20
-3.153975
 30
0.0
 11
49.0
 21
-3.153860262604422
 31
0.0
  0
LINE
  5
57F
330
18
100
AcDbEntity
  8
1
 62
     1
100
AcDbLine
 10
49.0
 20
-3.153860262604422
 30
0.0
 11
49.0
 21
-3.119052571481717
 31
0.0
  0
LINE
  5
580
330
18
100
AcDbEntity
  8
1
 62
     1
100
AcDbLine
 10
49.0
 20
-3.119052571481717
 30
0.0
 11
48.99999999999999
 21
-2.610214129981483
 31
0.0
  0
LINE
  5
581
330
18
100
AcDbEntity
  8
1
 62
     1
100
AcDbLine
 10
49.48845298923241
 20
-3.59189172973944
 30
0.0
 11
49.48845298923241
 21
-4.0
 31
0.0
  0
LINE
  5
582
330
18
100
AcDbEntity
  8
1
 62
     1
100
AcDbLine
 10
47.8836603878074
 20
-2.400543289256202
 30
0.0
 11
47.8836603878074
 21
-3.355481025298212
 31
0.0
  0
LINE
  5
583
330
18
100
AcDbEntity
  8
1
 62
     1
100
AcDbLine
 10
48.0
 20
-3.153975
 30
0.0
 11
47.88366038780739
 21
-3.355481025298199
 31
0.0
  0
LINE
  5
584
330
18
100
AcDbEntity
  8
1
 62
     1
100
AcDbLine
 10
48.0
 20
-3.153975
 30
0.0
 11
48.0
 21
-3.153789075268696
 31
0.0
  0
LINE
  5
585
330
18
100
AcDbEntity
  8
1
 62
     1
100
AcDbLine
 10
48.0
 20
-3.153789075268696
 30
0.0
 11
47.99999999999999
 21
-3.096680349564414
 31
0.0
  0
LINE
  5
586
330
18
100
AcDbEntity
  8
1
 62
     1
100
AcDbLine
 10
47.99999999999999
 20
-3.096680349564414
 30
0.0
 11
48.0
 21
-2.265797041226941
 31
0.0
  0
LINE
  5
587
330
18
100
AcDbEntity
  8
1
 62
     1
100
AcDbLine
 10
47.26794919
 20
-1.338437838895399
 30
0.0
 11
47.26794918999998
 21
1.891510393938138
 31
0.0
  0
ARC
  5
588
330
18
100
AcDbEntity
  8
1
 62
     1
100
AcDbCircle
 10
126.266243740647
 20
34.49485573806553
 30
0.0
 40
76.21277041987521
100
AcDbArc
 50
209.6005779108623
 51
209.923354167454
  0
LINE
  5
589
330
18
100
AcDbEntity
  8
1
 62
     1
100
AcDbLine
 10
59.51154701076759
 20
-3.984024263706964
 30
0.0
 11
59.48845298923244
 21
-3.982562840022972
 31
0.0
  0
LINE
  5
58A
330
18
100
AcDbEntity
  8
1
 62
     1
100
AcDbLine
 10
58.51154701076759
 20
-3.862745143161944
 30
0.0
 11
58.48845298923244
 21
-3.858556100086543
 31
0.0
  0
LINE
  5
58B
330
18
100
AcDbEntity
  8
1
 62
     1
100
AcDbLine
 10
57.51154701076757
 20
-3.62572157841948
 30
0.0
 11
57.48845298923241
 21
-3.618930441380681
 31
0.0
  0
LINE
  5
58C
330
18
100
AcDbEntity
  8
1
 62
     1
100
AcDbLine
 10
56.51154701076758
 20
-3.280056294568417
 30
0.0
 11
56.48845298923241
 21
-3.27086651330116
 31
0.0
  0
LINE
  5
58D
330
18
100
AcDbEntity
  8
1
 62
     1
100
AcDbLine
 10
55.51154701076761
 20
-2.836106434080876
 30
0.0
 11
55.4884529892324
 21
-2.824793460750873
 31
0.0
  0
LINE
  5
58E
330
18
100
AcDbEntity
  8
1
 62
     1
100
AcDbLine
 10
54.51154701076759
 20
-2.307174508698352
 30
0.0
 11
54.48845298923243
 21
-2.294077233197974
 31
0.0
  0
LINE
  5
58F
330
18
100
AcDbEntity
  8
1
 62
     1
100
AcDbLine
 10
53.51154701076761
 20
-1.709110427062974
 30
0.0
 11
53.48845298923243
 21
-1.694621320642604
 31
0.0
  0
LINE
  5
590
330
18
100
AcDbEntity
  8
1
 62
     1
100
AcDbLine
 10
52.51154701076759
 20
-1.059833649042591
 30
0.0
 11
52.48845298923244
 21
-1.044386962744436
 31
0.0
  0
LINE
  5
591
330
18
100
AcDbEntity
  8
1
 62
     1
100
AcDbLine
 10
51.51154701076759
 20
-0.3787997201459921
 30
0.0
 11
51.48845298923241
 21
-0.362858142433392
 31
0.0
  0
ARC
  5
592
330
18
100
AcDbEntity
  8
1
 62
     1
100
AcDbCircle
 10
50.11555164955075
 20
-1.337966944087331
 30
0.0
 40
1.698483611839414
100
AcDbArc
 50
59.89106829993273
 51
76.51663039126491
  0
LINE
  5
593
330
18
100
AcDbEntity
  8
1
 62
     1
100
AcDbLine
 10
50.5115470107676
 20
0.3135841069553162
 30
0.0
 11
50.48845298923244
 21
0.3295427950943551
 31
0.0
  0
LINE
  5
594
330
18
100
AcDbEntity
  8
1
 62
     1
100
AcDbLine
 10
49.51154701076759
 20
0.9965722884791327
 30
0.0
 11
49.4884529892324
 21
1.012069849560126
 31
0.0
  0
ARC
  5
595
330
18
100
AcDbEntity
  8
1
 62
     1
100
AcDbCircle
 10
48.25985213267785
 20
1.066045274671807
 30
0.0
 40
0.652560230517391
100
AcDbArc
 50
92.38724351648692
 51
113.4643191048459
  0
LINE
  5
596
330
18
100
AcDbEntity
  8
1
 62
     1
100
AcDbLine
 10
47.88366038780741
 20
1.817906328228569
 30
0.0
 11
48.0
 21
1.664683472727973
 31
0.0
  0
ARC
  5
597
330
18
100
AcDbEntity
  8
1
 62
     1
100
AcDbCircle
 10
8.402399594276929
 20
-45.26985795961266
 30
0.0
 40
58.27989678525313
100
AcDbArc
 50
47.35592491562537
 51
48.17340988268152
  0
LINE
  5
598
330
18
100
AcDbEntity
  8
1
 62
     1
100
AcDbLine
 10
47.8836603878074
 20
-2.400543289256168
 30
0.0
 11
47.99999999999999
 21
-2.265797041226942
 31
0.0
  0
LINE
  5
599
330
18
100
AcDbEntity
  8
1
 62
     1
100
AcDbLine
 10
49.51154701076759
 20
-3.598908355949497
 30
0.0
 11
49.48845298923239
 21
-3.591891729739439
 31
0.0
  0
LINE
  5
59A
330
18
100
AcDbEntity
  8
1
 62
     1
100
AcDbLine
 10
50.51154701076761
 20
-3.846058303931909
 30
0.0
 11
50.48845298923241
 21
-3.841628551181365
 31
0.0
  0
LINE
  5
59B
330
18
100
AcDbEntity
  8
1
 62
     1
100
AcDbLine
 10
51.51154701076758
 20
-3.977963906670164
 30
0.0
 11
51.48845298923241
 21
-3.976253787233465
 31
0.0
  0
LINE
  5
59C
330
18
100
AcDbEntity
  8
1
 62
     1
100
AcDbLine
 10
52.51154701076761
 20
-3.990672863594668
 30
0.0
 11
52.48845298923241
 21
-3.991733611430581
 31
0.0
  0
LINE
  5
59D
330
18
100
AcDbEntity
  8
1
 62
     1
100
AcDbLine
 10
53.51154701076759
 20
-3.883804266900608
 30
0.0
 11
53.48845298923243
 21
-3.887604119734496
 31
0.0
  0
LINE
  5
59E
330
18
100
AcDbEntity
  8
1
 62
     1
100
AcDbLine
 10
54.51154701076758
 20
-3.660560503635871
 30
0.0
 11
54.48845298923241
 21
-3.666985573491818
 31
0.0
  0
LINE
  5
59F
330
18
100
AcDbEntity
  8
1
 62
     1
100
AcDbLine
 10
55.51154701076761
 20
-3.327630608606888
 30
0.0
 11
55.48845298923242
 21
-3.336488370089984
 31
0.0
  0
LINE
  5
5A0
330
18
100
AcDbEntity
  8
1
 62
     1
100
AcDbLine
 10
67.0
 20
-1.835272248849774
 30
0.0
 11
67.0
 21
-0.6721204791941379
 31
0.0
  0
LINE
  5
5A1
330
18
100
AcDbEntity
  8
1
 62
     1
100
AcDbLine
 10
66.99999999999999
 20
-0.1041339392876911
 30
0.0
 11
67.0
 21
1.241425031651823
 31
0.0
  0
LINE
  5
5A2
330
18
100
AcDbEntity
  8
1
 62
     1
100
AcDbLine
 10
64.5115470107676
 20
2.851550896528913
 30
0.0
 11
64.48845298923241
 21
2.862755849548567
 31
0.0
  0
LINE
  5
5A3
330
18
100
AcDbEntity
  8
1
 62
     1
100
AcDbLine
 10
63.51154701076759
 20
3.292576843297065
 30
0.0
 11
63.48845298923245
 21
3.301641691515737
 31
0.0
  0
LINE
  5
5A4
330
18
100
AcDbEntity
  8
1
 62
     1
100
AcDbLine
 10
62.51154701076757
 20
3.63494295918204
 30
0.0
 11
62.48845298923244
 21
3.64159617929716
 31
0.0
  0
LINE
  5
5A5
330
18
100
AcDbEntity
  8
1
 62
     1
100
AcDbLine
 10
61.51154701076759
 20
3.868390688338928
 30
0.0
 11
61.48845298923244
 21
3.872432846075738
 31
0.0
  0
LINE
  5
5A6
330
18
100
AcDbEntity
  8
1
 62
     1
100
AcDbLine
 10
60.51154701076759
 20
3.985925144488626
 30
0.0
 11
60.48845298923241
 21
3.987235137234769
 31
0.0
  0
LINE
  5
5A7
330
18
100
AcDbEntity
  8
1
 62
     1
100
AcDbLine
 10
59.51154701076759
 20
3.984024263706964
 30
0.0
 11
59.48845298923241
 21
3.982562835227573
 31
0.0
  0
LINE
  5
5A8
330
18
100
AcDbEntity
  8
1
 62
     1
100
AcDbLine
 10
58.51154701076759
 20
3.862745143161942
 30
0.0
 11
58.48845298923241
 21
3.858556108695517
 31
0.0
  0
LINE
  5
5A9
330
18
100
AcDbEntity
  8
1
 62
     1
100
AcDbLine
 10
57.5115470107676
 20
3.625721578419488
 30
0.0
 11
57.48845298923241
 21
3.618930441380685
 31
0.0
  0
LINE
  5
5AA
330
18
100
AcDbEntity
  8
1
 62
     1
100
AcDbLine
 10
56.51154701076759
 20
3.280056294568415
 30
0.0
 11
56.48845298923241
 21
3.270866513301161
 31
0.0
  0
LINE
  5
5AB
330
18
100
AcDbEntity
  8
1
 62
     1
100
AcDbLine
 10
52.5115470107676
 20
3.990672863594668
 30
0.0
 11
52.48845298923243
 21
3.99173361143058
 31
0.0
  0
LINE
  5
5AC
330
18
100
AcDbEntity
  8
1
 62
     1
100
AcDbLine
 10
53.51154701076761
 20
3.883804266900606
 30
0.0
 11
53.48845298923243
 21
3.887604119734496
 31
0.0
  0
LINE
  5
5AD
330
18
100
AcDbEntity
  8
1
 62
     1
100
AcDbLine
 10
54.51154701076759
 20
3.660560503635866
 30
0.0
 11
54.48845298923242
 21
3.666985573491814
 31
0.0
  0
LINE
  5
5AE
330
18
100
AcDbEntity
  8
1
 62
     1
100
AcDbLine
 10
55.51154701076761
 20
3.327630608606887
 30
0.0
 11
55.48845298923244
 21
3.336488370089985
 31
0.0
  0
LINE
  5
5AF
330
18
100
AcDbEntity
  8
1
 62
     1
100
AcDbLine
 10
56.51154701076759
 20
2.894990866717253
 30
0.0
 11
56.48845298923241
 21
2.906015949100778
 31
0.0
  0
LINE
  5
5B0
330
18
100
AcDbEntity
  8
1
 62
     1
100
AcDbLine
 10
57.51154701076759
 20
2.375605038780373
 30
0.0
 11
57.48845298923241
 21
2.388467018734653
 31
0.0
  0
LINE
  5
5B1
330
18
100
AcDbEntity
  8
1
 62
     1
100
AcDbLine
 10
58.51154701076757
 20
1.78503562656638
 30
0.0
 11
58.48845298923244
 21
1.799349138167521
 31
0.0
  0
LINE
  5
5B2
330
18
100
AcDbEntity
  8
1
 62
     1
100
AcDbLine
 10
59.51154701076761
 20
1.140979279621904
 30
0.0
 11
59.48845298923242
 21
1.156315470469686
 31
0.0
  0
LINE
  5
5B3
330
18
100
AcDbEntity
  8
1
 62
     1
100
AcDbLine
 10
60.5115470107676
 20
0.4627343444227504
 30
0.0
 11
60.48845298923241
 21
0.4786335757804461
 31
0.0
  0
LINE
  5
5B4
330
18
100
AcDbEntity
  8
1
 62
     1
100
AcDbLine
 10
61.51154701076759
 20
-0.2293764145472914
 30
0.0
 11
61.48845298923241
 21
-0.2133904626606191
 31
0.0
  0
LINE
  5
5B5
330
18
100
AcDbEntity
  8
1
 62
     1
100
AcDbLine
 10
62.51154701076757
 20
-0.9146136612450687
 30
0.0
 11
62.48845298923241
 21
-0.8990199976046379
 31
0.0
  0
LINE
  5
5B6
330
18
100
AcDbEntity
  8
1
 62
     1
100
AcDbLine
 10
63.51154701076761
 20
-1.572445394088049
 30
0.0
 11
63.48845298923243
 21
-1.557711355979388
 31
0.0
  0
LINE
  5
5B7
330
18
100
AcDbEntity
  8
1
 62
     1
100
AcDbLine
 10
64.5115470107676
 20
-2.183160118714861
 30
0.0
 11
64.48845298923241
 21
-2.169727104419187
 31
0.0
  0
LINE
  5
5B8
330
18
100
AcDbEntity
  8
1
 62
     1
100
AcDbLine
 10
65.5618643655641
 20
-2.680789480518126
 30
0.0
 11
65.45699101642342
 21
-2.655582134577696
 31
0.0
  0
ARC
  5
5B9
330
18
100
AcDbEntity
  8
1
 62
     1
100
AcDbCircle
 10
56.9722956438721
 20
4.789360602380146
 30
0.0
 40
12.43897140314173
100
AcDbArc
 50
322.0503797567559
 51
323.7216080382084
  0
LINE
  5
5BA
330
18
100
AcDbEntity
  8
1
 62
     1
100
AcDbLine
 10
67.0
 20
-1.835272248849774
 30
0.0
 11
67.00000000000003
 21
-2.570899772692791
 31
0.0
  0
LINE
  5
5BB
330
18
100
AcDbEntity
  8
1
 62
     1
100
AcDbLine
 10
47.26794919
 20
3.0
 30
0.0
 11
47.26794919
 21
2.999767201325068
 31
0.0
  0
LINE
  5
5BC
330
18
100
AcDbEntity
  8
1
 62
     1
100
AcDbLine
 10
47.26794919
 20
2.999767201325068
 30
0.0
 11
47.26794918999999
 21
2.92768179520284
 31
0.0
  0
LINE
  5
5BD
330
18
100
AcDbEntity
  8
1
 62
     1
100
AcDbLine
 10
47.26794918999999
 20
2.92768179520284
 30
0.0
 11
47.26794918999998
 21
1.891510393938139
 31
0.0
  0
LINE
  5
5BE
330
18
100
AcDbEntity
  8
1
 62
     1
100
AcDbLine
 10
47.26794919
 20
-1.841684635469756
 30
0.0
 11
47.26794919
 21
-3.0
 31
0.0
  0
LINE
  5
5BF
330
18
100
AcDbEntity
  8
1
 62
     1
100
AcDbLine
 10
47.26794918999999
 20
-1.841684635469755
 30
0.0
 11
47.26794918999999
 21
-1.33843783889539
 31
0.0
  0
LINE
  5
5C0
330
18
100
AcDbEntity
  8
1
 62
     1
100
AcDbLine
 10
51.48845298923241
 20
-4.0
 30
0.0
 11
51.51154701076758
 21
-4.0
 31
0.0
  0
LINE
  5
5C1
330
18
100
AcDbEntity
  8
1
 62
     1
100
AcDbLine
 10
50.48845298923241
 20
-4.0
 30
0.0
 11
50.51154701076758
 21
-4.0
 31
0.0
  0
LINE
  5
5C2
330
18
100
AcDbEntity
  8
1
 62
     1
100
AcDbLine
 10
49.4884529892324
 20
-4.0
 30
0.0
 11
49.51154701076759
 21
-4.0
 31
0.0
  0
LINE
  5
5C3
330
18
100
AcDbEntity
  8
1
 62
     1
100
AcDbLine
 10
48.23267930550536
 20
3.556987191100556
 30
0.0
 11
48.0
 21
3.153974999999999
 31
0.0
  0
LINE
  5
5C4
330
18
100
AcDbEntity
  8
1
 62
     1
100
AcDbLine
 10
47.99999999999999
 20
3.153974999999999
 30
0.0
 11
47.8836603878074
 21
3.355481025298209
 31
0.0
  0
ARC
  5
5C5
330
18
100
AcDbEntity
  8
1
 62
     1
100
AcDbCircle
 10
74.37577338896885
 20
-9.174678850342932
 30
0.0
 40
25.54231344049503
100
AcDbArc
 50
148.970805405048
 51
150.0114098887536
  0
LINE
  5
5C6
330
18
100
AcDbEntity
  8
1
 62
     1
100
AcDbLine
 10
52.25293647131154
 20
3.592073615135135
 30
0.0
 11
52.0
 21
3.153975
 31
0.0
  0
LINE
  5
5C7
330
18
100
AcDbEntity
  8
1
 62
     1
100
AcDbLine
 10
52.0
 20
3.153975
 30
0.0
 11
51.51154701076759
 21
4.000000000000002
 31
0.0
  0
LINE
  5
5C8
330
18
100
AcDbEntity
  8
1
 62
     1
100
AcDbLine
 10
51.48845298923242
 20
4.000000000000003
 30
0.0
 11
51.0
 21
3.153975
 31
0.0
  0
LINE
  5
5C9
330
18
100
AcDbEntity
  8
1
 62
     1
100
AcDbLine
 10
51.0
 20
3.153975
 30
0.0
 11
50.51154701076759
 21
4.000000000000002
 31
0.0
  0
LINE
  5
5CA
330
18
100
AcDbEntity
  8
1
 62
     1
100
AcDbLine
 10
50.48845298923241
 20
4.0
 30
0.0
 11
50.0
 21
3.153975
 31
0.0
  0
LINE
  5
5CB
330
18
100
AcDbEntity
  8
1
 62
     1
100
AcDbLine
 10
50.0
 20
3.153975
 30
0.0
 11
49.51154701076759
 21
3.999999999999997
 31
0.0
  0
LINE
  5
5CC
330
18
100
AcDbEntity
  8
1
 62
     1
100
AcDbLine
 10
49.0
 20
3.153975
 30
0.0
 11
48.63366030064864
 21
3.788493676261519
 31
0.0
  0
LINE
  5
5CD
330
18
100
AcDbEntity
  8
1
 62
     1
100
AcDbLine
 10
49.48845298923242
 20
3.999999999999997
 30
0.0
 11
49.0
 21
3.153975
 31
0.0
  0
LINE
  5
5CE
330
18
100
AcDbEntity
  8
1
 62
     1
100
AcDbLine
 10
48.23267930550536
 20
-3.556987191100561
 30
0.0
 11
48.63366030064866
 21
-3.788493676261524
 31
0.0
  0
LINE
  5
5CF
330
18
100
AcDbEntity
  8
1
 62
     1
100
AcDbLine
 10
47.26794919
 20
-3.0
 30
0.0
 11
47.8836603878074
 21
-3.355481025298212
 31
0.0
  0
LINE
  5
5D0
330
18
100
AcDbEntity
  8
1
 62
     1
100
AcDbLine
 10
67.00000000000001
 20
3.153975
 30
0.0
 11
66.78106719738608
 21
3.533177560767424
 31
0.0
  0
LINE
  5
5D1
330
18
100
AcDbEntity
  8
1
 62
     1
100
AcDbLine
 10
66.30459810157167
 20
3.681554141827214
 30
0.0
 11
66.0
 21
3.153975
 31
0.0
  0
LINE
  5
5D2
330
18
100
AcDbEntity
  8
1
 62
     1
100
AcDbLine
 10
66.30459810157167
 20
-3.681554141827215
 30
0.0
 11
66.7810671973861
 21
-3.533177560767427
 31
0.0
  0
LINE
  5
5D3
330
18
100
AcDbEntity
  8
1
 62
     1
100
AcDbLine
 10
65.45699101642343
 20
-3.945506289996195
 30
0.0
 11
65.56186436556412
 21
-3.912847825624676
 31
0.0
  0
LINE
  5
5D4
330
18
100
AcDbEntity
  8
1
 62
     1
100
AcDbLine
 10
67.0
 20
-1.57
 30
0.0
 11
68.57
 21
0.0
 31
0.0
  0
LINE
  5
5D5
330
18
100
AcDbEntity
  8
1
 62
     1
100
AcDbLine
 10
64.48845298923241
 20
-4.0
 30
0.0
 11
64.51154701076759
 21
-4.0
 31
0.0
  0
LINE
  5
5D6
330
18
100
AcDbEntity
  8
1
 62
     1
100
AcDbLine
 10
63.48845298923243
 20
-4.0
 30
0.0
 11
63.51154701076759
 21
-4.0
 31
0.0
  0
LINE
  5
5D7
330
18
100
AcDbEntity
  8
1
 62
     1
100
AcDbLine
 10
62.48845298923244
 20
-4.0
 30
0.0
 11
62.51154701076759
 21
-4.0
 31
0.0
  0
LINE
  5
5D8
330
18
100
AcDbEntity
  8
1
 62
     1
100
AcDbLine
 10
61.48845298923244
 20
-4.0
 30
0.0
 11
61.51154701076759
 21
-4.0
 31
0.0
  0
LINE
  5
5D9
330
18
100
AcDbEntity
  8
1
 62
     1
100
AcDbLine
 10
60.48845298923243
 20
-4.0
 30
0.0
 11
60.51154701076759
 21
-4.0
 31
0.0
  0
LINE
  5
5DA
330
18
100
AcDbEntity
  8
1
 62
     1
100
AcDbLine
 10
64.0
 20
3.153975
 30
0.0
 11
63.51154701076759
 21
4.000000000000002
 31
0.0
  0
LINE
  5
5DB
330
18
100
AcDbEntity
  8
1
 62
     1
100
AcDbLine
 10
63.48845298923242
 20
4.000000000000014
 30
0.0
 11
63.00000000000001
 21
3.153975
 31
0.0
  0
LINE
  5
5DC
330
18
100
AcDbEntity
  8
1
 62
     1
100
AcDbLine
 10
63.00000000000001
 20
3.153975
 30
0.0
 11
62.5115470107676
 21
3.999999999999997
 31
0.0
  0
LINE
  5
5DD
330
18
100
AcDbEntity
  8
1
 62
     1
100
AcDbLine
 10
62.00000000000001
 20
3.153975
 30
0.0
 11
61.51154701076759
 21
4.000000000000002
 31
0.0
  0
LINE
  5
5DE
330
18
100
AcDbEntity
  8
1
 62
     1
100
AcDbLine
 10
62.48845298923244
 20
4.000000000000039
 30
0.0
 11
62.0
 21
3.153974999999999
 31
0.0
  0
LINE
  5
5DF
330
18
100
AcDbEntity
  8
1
 62
     1
100
AcDbLine
 10
61.48845298923244
 20
4.000000000000039
 30
0.0
 11
61.00000000000001
 21
3.153975
 31
0.0
  0
LINE
  5
5E0
330
18
100
AcDbEntity
  8
1
 62
     1
100
AcDbLine
 10
65.45699101642343
 20
3.945506289996202
 30
0.0
 11
65.0
 21
3.153974999999999
 31
0.0
  0
LINE
  5
5E1
330
18
100
AcDbEntity
  8
1
 62
     1
100
AcDbLine
 10
65.0
 20
3.153975
 30
0.0
 11
64.51154701076759
 21
4.000000000000002
 31
0.0
  0
LINE
  5
5E2
330
18
100
AcDbEntity
  8
1
 62
     1
100
AcDbLine
 10
66.00000000000001
 20
3.153975
 30
0.0
 11
65.56186436556413
 21
3.912847825624674
 31
0.0
  0
LINE
  5
5E3
330
18
100
AcDbEntity
  8
1
 62
     1
100
AcDbLine
 10
64.48845298923241
 20
4.000000000000002
 30
0.0
 11
64.0
 21
3.153975
 31
0.0
  0
ARC
  5
5E4
330
18
100
AcDbEntity
  8
1
 62
     1
100
AcDbCircle
 10
77.63421473771481
 20
-6.491737593655689
 30
0.0
 40
20.0945462420113
100
AcDbArc
 50
148.5679838386878
 51
150.10649245484
  0
LINE
  5
5E5
330
18
100
AcDbEntity
  8
1
 62
     1
100
AcDbLine
 10
60.48845298923244
 20
4.000000000000027
 30
0.0
 11
60.21316337329274
 21
3.523184620711697
 31
0.0
  0
LINE
  5
5E6
330
18
100
AcDbEntity
  8
1
 62
     1
100
AcDbLine
 10
61.00000000000001
 20
3.153975
 30
0.0
 11
60.5115470107676
 21
3.999999999999997
 31
0.0
  0
LINE
  5
5E7
330
18
100
AcDbEntity
  8
1
 62
     1
100
AcDbLine
 10
51.01964100332489
 20
0.1032112711781756
 30
0.0
 11
51.05069723852178
 21
0.0851670767582082
 31
0.0
  0
LINE
  5
5E8
330
18
100
AcDbEntity
  8
1
 62
     1
100
AcDbLine
 10
51.05069723852178
 20
0.0851670767582082
 30
0.0
 11
51.08153995912221
 21
0.0654776868959892
 31
0.0
  0
LINE
  5
5E9
330
18
100
AcDbEntity
  8
1
 62
     1
100
AcDbLine
 10
51.08153995912221
 20
0.0654776868959892
 30
0.0
 11
51.11215585159927
 21
0.0441837351019331
 31
0.0
  0
LINE
  5
5EA
330
18
100
AcDbEntity
  8
1
 62
     1
100
AcDbLine
 10
51.11215585159927
 20
0.0441837351019331
 30
0.0
 11
51.14254865458335
 21
0.0213160987306472
 31
0.0
  0
LINE
  5
5EB
330
18
100
AcDbEntity
  8
1
 62
     1
100
AcDbLine
 10
51.14254865458335
 20
0.0213160987306472
 30
0.0
 11
51.20263448248884
 21
-0.0289865838899749
 31
0.0
  0
LINE
  5
5EC
330
18
100
AcDbEntity
  8
1
 62
     1
100
AcDbLine
 10
51.20263448248884
 20
-0.0289865838899749
 30
0.0
 11
51.26178209147074
 21
-0.0851587295188334
 31
0.0
  0
LINE
  5
5ED
330
18
100
AcDbEntity
  8
1
 62
     1
100
AcDbLine
 10
51.26178209147074
 20
-0.0851587295188334
 30
0.0
 11
51.31994846161655
 21
-0.1469022765424354
 31
0.0
  0
LINE
  5
5EE
330
18
100
AcDbEntity
  8
1
 62
     1
100
AcDbLine
 10
51.31994846161655
 20
-0.1469022765424354
 30
0.0
 11
51.37712229969451
 21
-0.2139449987351023
 31
0.0
  0
LINE
  5
5EF
330
18
100
AcDbEntity
  8
1
 62
     1
100
AcDbLine
 10
51.37712229969451
 20
-0.2139449987351023
 30
0.0
 11
51.43329791899885
 21
-0.2860251160409002
 31
0.0
  0
LINE
  5
5F0
330
18
100
AcDbEntity
  8
1
 62
     1
100
AcDbLine
 10
51.43329791899885
 20
-0.2860251160409002
 30
0.0
 11
51.48845298923241
 21
-0.3628581424333761
 31
0.0
  0
LINE
  5
5F1
330
18
100
AcDbEntity
  8
1
 62
     1
100
AcDbLine
 10
50.96789773241748
 20
0.1318790655783217
 30
0.0
 11
50.99999999999999
 21
0.113701388455474
 31
0.0
  0
ARC
  5
5F2
330
18
100
AcDbEntity
  8
1
 62
     1
100
AcDbCircle
 10
49.60822941860521
 20
-0.3981702395387965
 30
0.0
 40
1.141419136705533
100
AcDbArc
 50
39.5817846276428
 51
58.00350740154716
  0
ARC
  5
5F3
330
18
100
AcDbEntity
  8
1
 62
     1
100
AcDbCircle
 10
48.12666095973697
 20
-1.482803983692058
 30
0.0
 40
2.842667545829086
100
AcDbArc
 50
48.77956228482677
 51
57.4631453472532
  0
ARC
  5
5F4
330
18
100
AcDbEntity
  8
1
 62
     1
100
AcDbCircle
 10
48.90786004256982
 20
0.3044406602539735
 30
0.0
 40
0.9153089903797849
100
AcDbArc
 50
50.63193489519316
 51
57.23930893812949
  0
LINE
  5
5F5
330
18
100
AcDbEntity
  8
1
 62
     1
100
AcDbLine
 10
49.65554395612253
 20
0.9136585205780419
 30
0.0
 11
49.6552932157276
 21
0.9138166050851544
 31
0.0
  0
ARC
  5
5F6
330
18
100
AcDbEntity
  8
1
 62
     1
100
AcDbCircle
 10
58.70329072743527
 20
-1.609998566651324
 30
0.0
 40
2.747125769502206
100
AcDbArc
 50
49.47935607455231
 51
61.66879002730512
  0
LINE
  5
5F7
330
18
100
AcDbEntity
  8
SK1
100
AcDbLine
 10
-15.0
 20
-2.45
 30
0.0
 11
-15.0
 21
-3.0
 31
0.0
  0
ARC
  5
5F8
330
18
100
AcDbEntity
  8
SK1
100
AcDbCircle
 10
-18.196718771668
 20
-0.909944363947712
 30
0.0
 40
5.220406378876308
100
AcDbArc
 50
149.6074408112723
 51
156.9418773502778
  0
LINE
  5
5F9
330
18
100
AcDbEntity
  8
SK1
100
AcDbLine
 10
-22.7
 20
2.450000000000001
 30
0.0
 11
-22.7
 21
1.73132896931808
 31
0.0
  0
LINE
  5
5FA
330
18
100
AcDbEntity
  8
SK1
100
AcDbLine
 10
-23.0
 20
2.45
 30
0.0
 11
-22.7
 21
2.450000000000001
 31
0.0
  0
LINE
  5
5FB
330
18
100
AcDbEntity
  8
SK1
100
AcDbLine
 10
-15.0
 20
3.0
 30
0.0
 11
-15.0
 21
2.999884134508326
 31
0.0
  0
LINE
  5
5FC
330
18
100
AcDbEntity
  8
SK1
100
AcDbLine
 10
-15.0
 20
2.999884134508326
 30
0.0
 11
-15.0
 21
2.96468420831774
 31
0.0
  0
LINE
  5
5FD
330
18
100
AcDbEntity
  8
SK1
100
AcDbLine
 10
-15.0
 20
2.96468420831774
 30
0.0
 11
-15.0
 21
2.450000000000001
 31
0.0
  0
LINE
  5
5FE
330
18
100
AcDbEntity
  8
SK1
100
AcDbLine
 10
-22.7
 20
2.45
 30
0.0
 11
-15.0
 21
2.45
 31
0.0
  0
LINE
  5
5FF
330
18
100
AcDbEntity
  8
SK1
100
AcDbLine
 10
-22.7
 20
-1.731328969318078
 30
0.0
 11
-15.0
 21
-1.731328969318078
 31
0.0
  0
LINE
  5
600
330
18
100
AcDbEntity
  8
SK1
100
AcDbLine
 10
-22.7
 20
-2.45
 30
0.0
 11
-15.0
 21
-2.45
 31
0.0
  0
LINE
  5
601
330
18
100
AcDbEntity
  8
SK1
100
AcDbLine
 10
-23.0
 20
1.134680571791021
 30
0.0
 11
-23.0
 21
-1.134680571791021
 31
0.0
  0
LINE
  5
602
330
18
100
AcDbEntity
  8
SK1
100
AcDbLine
 10
-23.0
 20
2.449999999999999
 30
0.0
 11
-23.0
 21
1.134680571791021
 31
0.0
  0
LINE
  5
603
330
18
100
AcDbEntity
  8
SK1
100
AcDbLine
 10
-23.0
 20
-1.13468057179102
 30
0.0
 11
-23.0
 21
-2.45
 31
0.0
  0
ARC
  5
604
330
18
100
AcDbEntity
  8
SK1
100
AcDbCircle
 10
-18.19671877166964
 20
0.9099443639469063
 30
0.0
 40
5.220406378874482
100
AcDbArc
 50
203.0581226497212
 51
210.3925591887292
  0
LINE
  5
605
330
18
100
AcDbEntity
  8
SK1
100
AcDbLine
 10
-23.0
 20
-2.450000000000001
 30
0.0
 11
-22.7
 21
-2.45
 31
0.0
  0
LINE
  5
606
330
18
100
AcDbEntity
  8
SK1
100
AcDbLine
 10
-22.70000000000001
 20
-1.731328969318078
 30
0.0
 11
-22.7
 21
-2.45
 31
0.0
  0
LINE
  5
607
330
18
100
AcDbEntity
  8
SK1
100
AcDbLine
 10
-15.0
 20
1.731328969318079
 30
0.0
 11
-15.0
 21
-1.731328969318082
 31
0.0
  0
LINE
  5
608
330
18
100
AcDbEntity
  8
SK1
100
AcDbLine
 10
-22.7
 20
1.73132896931808
 30
0.0
 11
-15.0
 21
1.73132896931808
 31
0.0
  0
LINE
  5
609
330
18
100
AcDbEntity
  8
SK1
100
AcDbLine
 10
0.0000000000000036
 20
3.0
 30
0.0
 11
-15.0
 21
3.0
 31
0.0
  0
LINE
  5
60A
330
18
100
AcDbEntity
  8
SK1
100
AcDbLine
 10
-15.0
 20
-3.0
 30
0.0
 11
0.0000000000000018
 21
-3.0
 31
0.0
  0
DIMENSION
  5
60B
330
18
100
AcDbEntity
  8
2
100
AcDbDimension
  2
*D0
 10
82.00000000000003
 20
-3.999999999999948
 30
0.0
 11
79.60925000000007
 21
-14.04974999999996
 31
0.0
 70
    32
  1
MF8x1
 71
     5
 42
8.0
  3
STANDARD
100
AcDbAlignedDimension
 13
67.0
 23
4.0
 33
0.0
 14
67.0
 24
-4.0
 34
0.0
 50
90.0000000000002
100
AcDbRotatedDimension
  0
DIMENSION
  5
619
330
18
100
AcDbEntity
  8
2
100
AcDbDimension
  2
*D1
 10
67.0
 20
75.0
 30
0.0
 11
33.5
 21
77.39075
 31
0.0
 70
    32
  1
<>
 71
     5
 42
67.0
  3
STANDARD
100
AcDbAlignedDimension
 13
0.0
 23
0.0
 33
0.0
 14
67.0
 24
0.0
 34
0.0
100
AcDbRotatedDimension
  0
DIMENSION
  5
626
330
18
100
AcDbEntity
  8
SK2
100
AcDbDimension
  2
*D2
 10
-37.99999999998469
 20
-3.000000000117379
 30
0.0
 11
-40.3907499999407
 21
-11.61925000012958
 31
0.0
 70
    32
  1
%%c<>
 71
     5
 42
6.000000000000001
  3
STANDARD
100
AcDbAlignedDimension
 13
-15.0
 23
3.0
 33
0.0
 14
-15.0
 24
-3.0
 34
0.0
 50
90.0000000002924
100
AcDbRotatedDimension
  0
DIMENSION
  5
634
330
18
100
AcDbEntity
  8
2
100
AcDbDimension
  2
*D3
 10
67.0
 20
60.0
 30
0.0
 11
57.133974595
 21
62.39775
 31
0.0
 70
    32
  1
<>
 71
     5
 42
19.73205081
  3
STANDARD
100
AcDbAlignedDimension
 13
47.26794919
 23
3.0
 33
0.0
 14
67.0
 24
4.0
 34
0.0
100
AcDbRotatedDimension
  0
DIMENSION
  5
641
330
18
100
AcDbEntity
  8
SK2
100
AcDbDimension
  2
*D4
 10
68.57
 20
90.0
 30
0.0
 11
22.785
 21
92.39775
 31
0.0
 70
    32
  1
<>
 71
     5
 42
91.57
  3
STANDARD
100
AcDbAlignedDimension
 13
-23.0
 23
4.0
 33
0.0
 14
68.57
 24
4.0
 34
0.0
100
AcDbRotatedDimension
  0
ENDSEC
  0
SECTION
  2
OBJECTS
  0
DICTIONARY
  5
C
330
0
100
AcDbDictionary
281
     1
  3
ACAD_COLOR
350
387
  3
ACAD_GROUP
350
D
  3
ACAD_LAYOUT
350
301
  3
ACAD_MATERIAL
350
386
  3
ACAD_MLEADERSTYLE
350
64E
  3
ACAD_MLINESTYLE
350
E
  3
ACAD_PLOTSETTINGS
350
302
  3
ACAD_PLOTSTYLENAME
350
2FF
  3
ACAD_SCALELIST
350
3A0
  3
ACAD_TABLESTYLE
350
388
  3
ACAD_VISUALSTYLE
350
3C5
  3
ACDBHEADERROUNDTRIPXREC
350
64F
  3
AcDbVariableDictionary
350
357
  0
DICTIONARY
  5
387
102
{ACAD_REACTORS
330
C
102
}
330
C
100
AcDbDictionary
281
     1
  0
DICTIONARY
  5
D
102
{ACAD_REACTORS
330
C
102
}
330
C
100
AcDbDictionary
281
     1
  0
DICTIONARY
  5
301
102
{ACAD_REACTORS
330
C
102
}
330
C
100
AcDbDictionary
281
     1
  3
Layout1
350
33B
  3
Model
350
303
  0
DICTIONARY
  5
386
102
{ACAD_REACTORS
330
C
102
}
330
C
100
AcDbDictionary
281
     1
  3
ByBlock
350
3C3
  3
ByLayer
350
3C2
  3
Global
350
3C4
  0
DICTIONARY
  5
64E
102
{ACAD_REACTORS
330
C
102
}
330
C
100
AcDbDictionary
281
     1
  0
DICTIONARY
  5
E
102
{ACAD_REACTORS
330
C
102
}
330
C
100
AcDbDictionary
281
     1
  3
STANDARD
350
1B
  0
DICTIONARY
  5
302
102
{ACAD_REACTORS
330
C
102
}
330
C
100
AcDbDictionary
281
     1
  0
ACDBDICTIONARYWDFLT
  5
2FF
102
{ACAD_REACTORS
330
C
102
}
330
C
100
AcDbDictionary
281
     1
  3
Normal
350
300
100
AcDbDictionaryWithDefault
340
300
  0
DICTIONARY
  5
3A0
102
{ACAD_REACTORS
330
C
102
}
330
C
100
AcDbDictionary
281
     1
  3
A0
350
3A1
  3
A1
350
3A2
  3
A2
350
3A3
  3
A3
350
3A4
  3
A4
350
3A5
  3
A5
350
3A6
  3
A6
350
3A7
  3
A7
350
3A8
  3
A8
350
3A9
  3
A9
350
3AA
  3
B0
350
3AB
  3
B1
350
3AC
  3
B2
350
3AD
  3
B3
350
3AE
  3
B4
350
3AF
  3
B5
350
3B0
  3
B6
350
3B1
  3
B7
350
3B2
  3
B8
350
3B3
  3
B9
350
3B4
  3
C0
350
3B5
  3
C1
350
3B6
  3
C2
350
3B7
  3
C3
350
3B8
  3
C4
350
3B9
  3
C5
350
3BA
  3
C6
350
3BB
  3
C7
350
3BC
  3
C8
350
3BD
  3
C9
350
3BE
  3
D0
350
3BF
  3
D1
350
3C0
  3
D2
350
3C1
  0
DICTIONARY
  5
388
102
{ACAD_REACTORS
330
C
102
}
330
C
100
AcDbDictionary
281
     1
  3
Standard
350
389
  0
DICTIONARY
  5
3C5
102
{ACAD_REACTORS
330
C
102
}
330
C
100
AcDbDictionary
281
     1
  3
2dWireframe
350
3CA
  3
3D Hidden
350
3CC
  3
3dWireframe
350
3CB
  3
Basic
350
3CD
  3
Brighten
350
3D1
  3
ColorChange
350
3D5
  3
Conceptual
350
3CF
  3
Dim
350
3D0
  3
Facepattern
350
3D4
  3
Flat
350
3C6
  3
FlatWithEdges
350
3C7
  3
Gouraud
350
3C8
  3
GouraudWithEdges
350
3C9
  3
Linepattern
350
3D3
  3
Realistic
350
3CE
  3
Thicken
350
3D2
  0
DICTIONARY
  5
64F
102
{ACAD_REACTORS
330
C
102
}
330
C
100
AcDbDictionary
281
     1
  3
COLORDICT
350
650
  3
MATERIALDICT
350
651
  0
DICTIONARY
  5
357
102
{ACAD_REACTORS
330
C
102
}
330
C
100
AcDbDictionary
281
     1
  3
CANNOSCALE
350
652
  3
CTABLESTYLE
350
38D
  3
DIMASSOC
350
359
  3
HIDETEXT
350
358
  3
PROJECTNAME
350
38E
  0
LAYOUT
  5
33B
102
{ACAD_REACTORS
330
301
102
}
330
301
100
AcDbPlotSettings
  1

  2
Lexmark Optra PS2
  4

  6

 40
0.0
 41
0.0
 42
0.0
 43
0.0
 44
0.0
 45
0.0
 46
0.0
 47
0.0
 48
0.0
 49
0.0
140
0.0
141
0.0
142
1.0
143
1.0
 70
   688
 72
     0
 73
     0
 74
     5
  7
monochrome.ctb
 75
    16
147
1.0
148
0.0
149
0.0
100
AcDbLayout
  1
Layout1
 70
     1
 71
     1
 10
0.0
 20
0.0
 11
12.0
 21
9.0
 12
0.0
 22
0.0
 32
0.0
 14
0.0
 24
0.0
 34
0.0
 15
0.0
 25
0.0
 35
0.0
146
0.0
 13
0.0
 23
0.0
 33
0.0
 16
1.0
 26
0.0
 36
0.0
 17
0.0
 27
1.0
 37
0.0
 76
     0
330
338
  0
LAYOUT
  5
303
102
{ACAD_REACTORS
330
301
102
}
330
301
100
AcDbPlotSettings
  1

  2
Lexmark Optra Rx
  4
A4
  6

 40
6.805083274841307
 41
5.535083293914794
 42
6.974411010742187
 43
7.14373779296875
 44
209.9733276367186
 45
296.9259948730469
 46
0.0
 47
0.0
 48
0.0
 49
0.0
140
0.0
141
0.0
142
1.0
143
2.976565420630886
 70
 11952
 72
     1
 73
     1
 74
     0
  7
monochrome.ctb
 75
     0
147
0.335957675604539
148
204.1199660668592
149
172.3933209647495
100
AcDbLayout
  1
Model
 70
     1
 71
     0
 10
0.0
 20
0.0
 11
12.0
 21
9.0
 12
0.0
 22
0.0
 32
0.0
 14
0.0
 24
0.0
 34
0.0
 15
0.0
 25
0.0
 35
0.0
146
0.0
 13
0.0
 23
0.0
 33
0.0
 16
1.0
 26
0.0
 36
0.0
 17
0.0
 27
1.0
 37
0.0
 76
     0
330
18
331
39A
  0
MATERIAL
  5
3C3
102
{ACAD_REACTORS
330
386
102
}
102
{ACAD_XDICTIONARY
360
655
102
}
330
386
100
AcDbMaterial
  1
ByBlock
  0
MATERIAL
  5
3C2
102
{ACAD_REACTORS
330
386
102
}
102
{ACAD_XDICTIONARY
360
653
102
}
330
386
100
AcDbMaterial
  1
ByLayer
  0
MATERIAL
  5
3C4
102
{ACAD_REACTORS
330
386
102
}
102
{ACAD_XDICTIONARY
360
657
102
}
330
386
100
AcDbMaterial
  1
Global
  0
MLINESTYLE
  5
1B
102
{ACAD_REACTORS
330
E
102
}
330
E
100
AcDbMlineStyle
  2
STANDARD
 70
     0
  3

 62
     0
 51
90.0
 52
90.0
 71
     2
 49
0.5
 62
   256
  6
BYLAYER
 49
-0.5
 62
   256
  6
BYLAYER
  0
ACDBPLACEHOLDER
  5
300
102
{ACAD_REACTORS
330
2FF
102
}
330
2FF
  0
SCALE
  5
3A1
102
{ACAD_REACTORS
330
3A0
102
}
330
3A0
100
AcDbScale
 70
     0
300
1:1
140
1.0
141
1.0
290
     1
  0
SCALE
  5
3A2
102
{ACAD_REACTORS
330
3A0
102
}
330
3A0
100
AcDbScale
 70
     0
300
1:2
140
1.0
141
2.0
290
     0
  0
SCALE
  5
3A3
102
{ACAD_REACTORS
330
3A0
102
}
330
3A0
100
AcDbScale
 70
     0
300
1:4
140
1.0
141
4.0
290
     0
  0
SCALE
  5
3A4
102
{ACAD_REACTORS
330
3A0
102
}
330
3A0
100
AcDbScale
 70
     0
300
1:5
140
1.0
141
5.0
290
     0
  0
SCALE
  5
3A5
102
{ACAD_REACTORS
330
3A0
102
}
330
3A0
100
AcDbScale
 70
     0
300
1:8
140
1.0
141
8.0
290
     0
  0
SCALE
  5
3A6
102
{ACAD_REACTORS
330
3A0
102
}
330
3A0
100
AcDbScale
 70
     0
300
1:10
140
1.0
141
10.0
290
     0
  0
SCALE
  5
3A7
102
{ACAD_REACTORS
330
3A0
102
}
330
3A0
100
AcDbScale
 70
     0
300
1:16
140
1.0
141
16.0
290
     0
  0
SCALE
  5
3A8
102
{ACAD_REACTORS
330
3A0
102
}
330
3A0
100
AcDbScale
 70
     0
300
1:20
140
1.0
141
20.0
290
     0
  0
SCALE
  5
3A9
102
{ACAD_REACTORS
330
3A0
102
}
330
3A0
100
AcDbScale
 70
     0
300
1:30
140
1.0
141
30.0
290
     0
  0
SCALE
  5
3AA
102
{ACAD_REACTORS
330
3A0
102
}
330
3A0
100
AcDbScale
 70
     0
300
1:40
140
1.0
141
40.0
290
     0
  0
SCALE
  5
3AB
102
{ACAD_REACTORS
330
3A0
102
}
330
3A0
100
AcDbScale
 70
     0
300
1:50
140
1.0
141
50.0
290
     0
  0
SCALE
  5
3AC
102
{ACAD_REACTORS
330
3A0
102
}
330
3A0
100
AcDbScale
 70
     0
300
1:100
140
1.0
141
100.0
290
     0
  0
SCALE
  5
3AD
102
{ACAD_REACTORS
330
3A0
102
}
330
3A0
100
AcDbScale
 70
     0
300
2:1
140
2.0
141
1.0
290
     0
  0
SCALE
  5
3AE
102
{ACAD_REACTORS
330
3A0
102
}
330
3A0
100
AcDbScale
 70
     0
300
4:1
140
4.0
141
1.0
290
     0
  0
SCALE
  5
3AF
102
{ACAD_REACTORS
330
3A0
102
}
330
3A0
100
AcDbScale
 70
     0
300
8:1
140
8.0
141
1.0
290
     0
  0
SCALE
  5
3B0
102
{ACAD_REACTORS
330
3A0
102
}
330
3A0
100
AcDbScale
 70
     0
300
10:1
140
10.0
141
1.0
290
     0
  0
SCALE
  5
3B1
102
{ACAD_REACTORS
330
3A0
102
}
330
3A0
100
AcDbScale
 70
     0
300
100:1
140
100.0
141
1.0
290
     0
  0
SCALE
  5
3B2
102
{ACAD_REACTORS
330
3A0
102
}
330
3A0
100
AcDbScale
 70
     0
300
1/128" = 1'-0"
140
0.0078125
141
12.0
290
     0
  0
SCALE
  5
3B3
102
{ACAD_REACTORS
330
3A0
102
}
330
3A0
100
AcDbScale
 70
     0
300
1/64" = 1'-0"
140
0.015625
141
12.0
290
     0
  0
SCALE
  5
3B4
102
{ACAD_REACTORS
330
3A0
102
}
330
3A0
100
AcDbScale
 70
     0
300
1/32" = 1'-0"
140
0.03125
141
12.0
290
     0
  0
SCALE
  5
3B5
102
{ACAD_REACTORS
330
3A0
102
}
330
3A0
100
AcDbScale
 70
     0
300
1/16" = 1'-0"
140
0.0625
141
12.0
290
     0
  0
SCALE
  5
3B6
102
{ACAD_REACTORS
330
3A0
102
}
330
3A0
100
AcDbScale
 70
     0
300
3/32" = 1'-0"
140
0.09375
141
12.0
290
     0
  0
SCALE
  5
3B7
102
{ACAD_REACTORS
330
3A0
102
}
330
3A0
100
AcDbScale
 70
     0
300
1/8" = 1'-0"
140
0.125
141
12.0
290
     0
  0
SCALE
  5
3B8
102
{ACAD_REACTORS
330
3A0
102
}
330
3A0
100
AcDbScale
 70
     0
300
3/16" = 1'-0"
140
0.1875
141
12.0
290
     0
  0
SCALE
  5
3B9
102
{ACAD_REACTORS
330
3A0
102
}
330
3A0
100
AcDbScale
 70
     0
300
1/4" = 1'-0"
140
0.25
141
12.0
290
     0
  0
SCALE
  5
3BA
102
{ACAD_REACTORS
330
3A0
102
}
330
3A0
100
AcDbScale
 70
     0
300
3/8" = 1'-0"
140
0.375
141
12.0
290
     0
  0
SCALE
  5
3BB
102
{ACAD_REACTORS
330
3A0
102
}
330
3A0
100
AcDbScale
 70
     0
300
1/2" = 1'-0"
140
0.5
141
12.0
290
     0
  0
SCALE
  5
3BC
102
{ACAD_REACTORS
330
3A0
102
}
330
3A0
100
AcDbScale
 70
     0
300
3/4" = 1'-0"
140
0.75
141
12.0
290
     0
  0
SCALE
  5
3BD
102
{ACAD_REACTORS
330
3A0
102
}
330
3A0
100
AcDbScale
 70
     0
300
1" = 1'-0"
140
1.0
141
12.0
290
     0
  0
SCALE
  5
3BE
102
{ACAD_REACTORS
330
3A0
102
}
330
3A0
100
AcDbScale
 70
     0
300
1-1/2" = 1'-0"
140
1.5
141
12.0
290
     0
  0
SCALE
  5
3BF
102
{ACAD_REACTORS
330
3A0
102
}
330
3A0
100
AcDbScale
 70
     0
300
3" = 1'-0"
140
3.0
141
12.0
290
     0
  0
SCALE
  5
3C0
102
{ACAD_REACTORS
330
3A0
102
}
330
3A0
100
AcDbScale
 70
     0
300
6" = 1'-0"
140
6.0
141
12.0
290
     0
  0
SCALE
  5
3C1
102
{ACAD_REACTORS
330
3A0
102
}
330
3A0
100
AcDbScale
 70
     0
300
1'-0" = 1'-0"
140
12.0
141
12.0
290
     0
  0
TABLESTYLE
  5
389
102
{ACAD_REACTORS
330
388
102
}
330
388
100
AcDbTableStyle
  3
Standard
 70
     0
 71
     0
 40
1.5
 41
1.5
280
     0
281
     0
  7
STANDARD
140
4.5
170
     2
 62
     0
 63
   257
283
     0
274
    -2
284
     1
 64
     0
275
    -2
285
     1
 65
     0
276
    -2
286
     1
 66
     0
277
    -2
287
     1
 67
     0
278
    -2
288
     1
 68
     0
279
    -2
289
     1
 69
     0
  7
STANDARD
140
6.0
170
     5
 62
     0
 63
   257
283
     0
274
    -2
284
     1
 64
     0
275
    -2
285
     1
 65
     0
276
    -2
286
     1
 66
     0
277
    -2
287
     1
 67
     0
278
    -2
288
     1
 68
     0
279
    -2
289
     1
 69
     0
  7
STANDARD
140
4.5
170
     5
 62
     0
 63
   257
283
     0
274
    -2
284
     1
 64
     0
275
    -2
285
     1
 65
     0
276
    -2
286
     1
 66
     0
277
    -2
287
     1
 67
     0
278
    -2
288
     1
 68
     0
279
    -2
289
     1
 69
     0
  0
VISUALSTYLE
  5
3CA
102
{ACAD_REACTORS
330
3C5
102
}
102
{ACAD_XDICTIONARY
360
661
102
}
330
3C5
100
AcDbVisualStyle
  2
2dWireframe
 70
     4
 71
     0
 72
     2
 73
     0
 90
        0
 40
-0.6
 41
-30.0
 62
     5
 63
     7
 74
     1
 91
        4
 64
     7
 65
   257
 75
     1
175
     1
 42
1.0
 92
        0
 66
   257
 43
1.0
 76
     1
 77
     6
 78
     2
 67
     7
 79
     5
170
     0
171
     0
290
     0
174
     0
 93
        1
 44
0.0
173
     0
291
     0
 45
0.0
1001
ACAD
1000
AcDbSavedByObjectVersion
1070
     0
  0
VISUALSTYLE
  5
3CC
102
{ACAD_REACTORS
330
3C5
102
}
102
{ACAD_XDICTIONARY
360
665
102
}
330
3C5
100
AcDbVisualStyle
  2
3D Hidden
 70
     6
 71
     1
 72
     2
 73
     2
 90
        0
 40
-0.6
 41
-30.0
 62
     5
 63
     7
 74
     2
 91
        2
 64
     7
 65
   257
 75
     2
175
     1
 42
40.0
 92
        0
 66
   257
 43
1.0
 76
     1
 77
     6
 78
     2
 67
     7
 79
     3
170
     0
171
     0
290
     0
174
     0
 93
        1
 44
0.0
173
     0
291
     0
 45
0.0
1001
ACAD
1000
AcDbSavedByObjectVersion
1070
     0
  0
VISUALSTYLE
  5
3CB
102
{ACAD_REACTORS
330
3C5
102
}
102
{ACAD_XDICTIONARY
360
663
102
}
330
3C5
100
AcDbVisualStyle
  2
3dWireframe
 70
     5
 71
     0
 72
     2
 73
     0
 90
        0
 40
-0.6
 41
-30.0
 62
     5
 63
     7
 74
     1
 91
        4
 64
     7
 65
   257
 75
     1
175
     1
 42
1.0
 92
        0
 66
   257
 43
1.0
 76
     1
 77
     6
 78
     2
 67
     7
 79
     5
170
     0
171
     0
290
     0
174
     0
 93
        1
 44
0.0
173
     0
291
     0
 45
0.0
1001
ACAD
1000
AcDbSavedByObjectVersion
1070
     0
  0
VISUALSTYLE
  5
3CD
102
{ACAD_REACTORS
330
3C5
102
}
102
{ACAD_XDICTIONARY
360
667
102
}
330
3C5
100
AcDbVisualStyle
  2
Basic
 70
     7
 71
     1
 72
     0
 73
     1
 90
        0
 40
-0.6
 41
-30.0
 62
     5
 63
     7
 74
     0
 91
        4
 64
     7
 65
   257
 75
     1
175
     1
 42
1.0
 92
        8
 66
     7
 43
1.0
 76
     1
 77
     6
 78
     2
 67
     7
 79
     5
170
     0
171
     0
290
     0
174
     0
 93
        1
 44
0.0
173
     0
291
     1
 45
0.0
1001
ACAD
1000
AcDbSavedByObjectVersion
1070
     0
  0
VISUALSTYLE
  5
3D1
102
{ACAD_REACTORS
330
3C5
102
}
102
{ACAD_XDICTIONARY
360
66F
102
}
330
3C5
100
AcDbVisualStyle
  2
Brighten
 70
    12
 71
     2
 72
     2
 73
     0
 90
        0
 40
-0.6
 41
-30.0
 62
     5
 63
     7
 74
     1
 91
        4
 64
     7
 65
   257
 75
     1
175
     1
 42
1.0
 92
        8
 66
     7
 43
1.0
 76
     1
 77
     6
 78
     2
 67
     7
 79
     5
170
     0
171
     0
290
     0
174
     0
 93
        1
 44
50.0
173
     0
291
     1
 45
0.0
1001
ACAD
1000
AcDbSavedByObjectVersion
1070
     0
  0
VISUALSTYLE
  5
3D5
102
{ACAD_REACTORS
330
3C5
102
}
102
{ACAD_XDICTIONARY
360
677
102
}
330
3C5
100
AcDbVisualStyle
  2
ColorChange
 70
    16
 71
     2
 72
     2
 73
     3
 90
        0
 40
-0.6
 41
-30.0
 62
     5
 63
     8
 74
     1
 91
        4
 64
     7
 65
   257
 75
     1
175
     1
 42
1.0
 92
        8
 66
     8
 43
1.0
 76
     1
 77
     6
 78
     2
 67
     7
 79
     5
170
     0
171
     0
290
     0
174
     0
 93
        1
 44
0.0
173
     0
291
     1
 45
0.0
1001
ACAD
1000
AcDbSavedByObjectVersion
1070
     0
  0
VISUALSTYLE
  5
3CF
102
{ACAD_REACTORS
330
3C5
102
}
102
{ACAD_XDICTIONARY
360
66B
102
}
330
3C5
100
AcDbVisualStyle
  2
Conceptual
 70
     9
 71
     3
 72
     2
 73
     0
 90
        0
 40
-0.6
 41
-30.0
 62
     5
 63
     7
 74
     2
 91
        2
 64
     7
 65
   257
 75
     1
175
     1
 42
40.0
 92
        8
 66
     7
 43
1.0
 76
     1
 77
     6
 78
     2
 67
     7
 79
     3
170
     0
171
     0
290
     0
174
     0
 93
        1
 44
0.0
173
     0
291
     0
 45
0.0
1001
ACAD
1000
AcDbSavedByObjectVersion
1070
     0
  0
VISUALSTYLE
  5
3D0
102
{ACAD_REACTORS
330
3C5
102
}
102
{ACAD_XDICTIONARY
360
66D
102
}
330
3C5
100
AcDbVisualStyle
  2
Dim
 70
    11
 71
     2
 72
     2
 73
     0
 90
        0
 40
-0.6
 41
-30.0
 62
     5
 63
     7
 74
     1
 91
        4
 64
     7
 65
   257
 75
     1
175
     1
 42
1.0
 92
        8
 66
     7
 43
1.0
 76
     1
 77
     6
 78
     2
 67
     7
 79
     5
170
     0
171
     0
290
     0
174
     0
 93
        1
 44
-50.0
173
     0
291
     1
 45
0.0
1001
ACAD
1000
AcDbSavedByObjectVersion
1070
     0
  0
VISUALSTYLE
  5
3D4
102
{ACAD_REACTORS
330
3C5
102
}
102
{ACAD_XDICTIONARY
360
675
102
}
330
3C5
100
AcDbVisualStyle
  2
Facepattern
 70
    15
 71
     2
 72
     2
 73
     0
 90
        0
 40
-0.6
 41
-30.0
 62
     5
 63
     7
 74
     1
 91
        4
 64
     7
 65
   257
 75
     1
175
     1
 42
1.0
 92
        8
 66
     7
 43
1.0
 76
     1
 77
     6
 78
     2
 67
     7
 79
     5
170
     0
171
     0
290
     0
174
     0
 93
        1
 44
0.0
173
     0
291
     1
 45
0.0
1001
ACAD
1000
AcDbSavedByObjectVersion
1070
     0
  0
VISUALSTYLE
  5
3C6
102
{ACAD_REACTORS
330
3C5
102
}
102
{ACAD_XDICTIONARY
360
659
102
}
330
3C5
100
AcDbVisualStyle
  2
Flat
 70
     0
 71
     2
 72
     1
 73
     1
 90
        2
 40
-0.6
 41
30.0
 62
     5
 63
     7
 74
     0
 91
        4
 64
     7
 65
   257
 75
     1
175
     1
 42
1.0
 92
        8
 66
     7
 43
1.0
 76
     1
 77
     6
 78
     2
 67
     7
 79
     5
170
     0
171
     0
290
     0
174
     0
 93
       13
 44
0.0
173
     0
291
     1
 45
0.0
1001
ACAD
1000
AcDbSavedByObjectVersion
1070
     0
  0
VISUALSTYLE
  5
3C7
102
{ACAD_REACTORS
330
3C5
102
}
102
{ACAD_XDICTIONARY
360
65B
102
}
330
3C5
100
AcDbVisualStyle
  2
FlatWithEdges
 70
     1
 71
     2
 72
     1
 73
     1
 90
        2
 40
-0.6
 41
30.0
 62
     5
 63
     7
 74
     1
 91
        4
 64
     7
 65
   257
 75
     1
175
     1
 42
1.0
 92
        0
 66
   257
 43
1.0
 76
     1
 77
     6
 78
     2
 67
     7
 79
     5
170
     0
171
     0
290
     0
174
     0
 93
       13
 44
0.0
173
     0
291
     1
 45
0.0
1001
ACAD
1000
AcDbSavedByObjectVersion
1070
     0
  0
VISUALSTYLE
  5
3C8
102
{ACAD_REACTORS
330
3C5
102
}
102
{ACAD_XDICTIONARY
360
65D
102
}
330
3C5
100
AcDbVisualStyle
  2
Gouraud
 70
     2
 71
     2
 72
     2
 73
     1
 90
        2
 40
-0.6
 41
30.0
 62
     5
 63
     7
 74
     0
 91
        4
 64
     7
 65
   257
 75
     1
175
     1
 42
1.0
 92
        0
 66
     7
 43
1.0
 76
     1
 77
     6
 78
     2
 67
     7
 79
     5
170
     0
171
     0
290
     0
174
     0
 93
       13
 44
0.0
173
     0
291
     1
 45
0.0
1001
ACAD
1000
AcDbSavedByObjectVersion
1070
     0
  0
VISUALSTYLE
  5
3C9
102
{ACAD_REACTORS
330
3C5
102
}
102
{ACAD_XDICTIONARY
360
65F
102
}
330
3C5
100
AcDbVisualStyle
  2
GouraudWithEdges
 70
     3
 71
     2
 72
     2
 73
     1
 90
        2
 40
-0.6
 41
30.0
 62
     5
 63
     7
 74
     1
 91
        4
 64
     7
 65
   257
 75
     1
175
     1
 42
1.0
 92
        0
 66
   257
 43
1.0
 76
     1
 77
     6
 78
     2
 67
     7
 79
     5
170
     0
171
     0
290
     0
174
     0
 93
       13
 44
0.0
173
     0
291
     1
 45
0.0
1001
ACAD
1000
AcDbSavedByObjectVersion
1070
     0
  0
VISUALSTYLE
  5
3D3
102
{ACAD_REACTORS
330
3C5
102
}
102
{ACAD_XDICTIONARY
360
673
102
}
330
3C5
100
AcDbVisualStyle
  2
Linepattern
 70
    14
 71
     2
 72
     2
 73
     0
 90
        0
 40
-0.6
 41
-30.0
 62
     5
 63
     7
 74
     1
 91
        4
 64
     7
 65
   257
 75
     7
175
     7
 42
1.0
 92
        8
 66
     7
 43
1.0
 76
     1
 77
     6
 78
     2
 67
     7
 79
     5
170
     0
171
     0
290
     0
174
     0
 93
        1
 44
0.0
173
     0
291
     1
 45
0.0
1001
ACAD
1000
AcDbSavedByObjectVersion
1070
     0
  0
VISUALSTYLE
  5
3CE
102
{ACAD_REACTORS
330
3C5
102
}
102
{ACAD_XDICTIONARY
360
669
102
}
330
3C5
100
AcDbVisualStyle
  2
Realistic
 70
     8
 71
     2
 72
     2
 73
     0
 90
        0
 40
-0.6
 41
-30.0
 62
     5
 63
     7
 74
     1
 91
        0
 64
     7
 65
   257
 75
     1
175
     1
 42
1.0
 92
        8
 66
     8
 43
1.0
 76
     1
 77
     6
 78
     2
 67
     7
 79
     5
170
     0
171
     0
290
     0
174
     0
 93
       13
 44
0.0
173
     0
291
     0
 45
0.0
1001
ACAD
1000
AcDbSavedByObjectVersion
1070
     0
  0
VISUALSTYLE
  5
3D2
102
{ACAD_REACTORS
330
3C5
102
}
102
{ACAD_XDICTIONARY
360
671
102
}
330
3C5
100
AcDbVisualStyle
  2
Thicken
 70
    13
 71
     2
 72
     2
 73
     0
 90
        0
 40
-0.6
 41
-30.0
 62
     5
 63
     7
 74
     1
 91
        4
 64
     7
 65
   257
 75
     1
175
     1
 42
1.0
 92
       12
 66
     7
 43
1.0
 76
     1
 77
     6
 78
     2
 67
     7
 79
     5
170
     0
171
     0
290
     0
174
     0
 93
        1
 44
0.0
173
     0
291
     1
 45
0.0
1001
ACAD
1000
AcDbSavedByObjectVersion
1070
     0
  0
XRECORD
  5
650
102
{ACAD_REACTORS
330
64F
102
}
330
64F
100
AcDbXrecord
280
     1
340
387
  0
XRECORD
  5
651
102
{ACAD_REACTORS
330
64F
102
}
330
64F
100
AcDbXrecord
280
     1
340
386
  0
DICTIONARYVAR
  5
652
102
{ACAD_REACTORS
330
357
102
}
330
357
100
DictionaryVariables
280
     0
  1
1:1
  0
DICTIONARYVAR
  5
38D
102
{ACAD_REACTORS
330
357
102
}
330
357
100
DictionaryVariables
280
     0
  1
Standard
  0
DICTIONARYVAR
  5
359
102
{ACAD_REACTORS
330
357
102
}
330
357
100
DictionaryVariables
280
     0
  1
2
  0
DICTIONARYVAR
  5
358
102
{ACAD_REACTORS
330
357
102
}
330
357
100
DictionaryVariables
280
     0
  1
1
  0
DICTIONARYVAR
  5
38E
102
{ACAD_REACTORS
330
357
102
}
330
357
100
DictionaryVariables
280
     0
  1

  0
DICTIONARY
  5
655
330
3C3
100
AcDbDictionary
280
     1
281
     1
  3
ACAD_XREC_ROUNDTRIP
360
656
  0
DICTIONARY
  5
653
330
3C2
100
AcDbDictionary
280
     1
281
     1
  3
ACAD_XREC_ROUNDTRIP
360
654
  0
DICTIONARY
  5
657
330
3C4
100
AcDbDictionary
280
     1
281
     1
  3
ACAD_XREC_ROUNDTRIP
360
658
  0
DICTIONARY
  5
661
330
3CA
100
AcDbDictionary
280
     1
281
     1
  3
ACAD_XREC_ROUNDTRIP
360
662
  0
DICTIONARY
  5
665
330
3CC
100
AcDbDictionary
280
     1
281
     1
  3
ACAD_XREC_ROUNDTRIP
360
666
  0
DICTIONARY
  5
663
330
3CB
100
AcDbDictionary
280
     1
281
     1
  3
ACAD_XREC_ROUNDTRIP
360
664
  0
DICTIONARY
  5
667
330
3CD
100
AcDbDictionary
280
     1
281
     1
  3
ACAD_XREC_ROUNDTRIP
360
668
  0
DICTIONARY
  5
66F
330
3D1
100
AcDbDictionary
280
     1
281
     1
  3
ACAD_XREC_ROUNDTRIP
360
670
  0
DICTIONARY
  5
677
330
3D5
100
AcDbDictionary
280
     1
281
     1
  3
ACAD_XREC_ROUNDTRIP
360
678
  0
DICTIONARY
  5
66B
330
3CF
100
AcDbDictionary
280
     1
281
     1
  3
ACAD_XREC_ROUNDTRIP
360
66C
  0
DICTIONARY
  5
66D
330
3D0
100
AcDbDictionary
280
     1
281
     1
  3
ACAD_XREC_ROUNDTRIP
360
66E
  0
DICTIONARY
  5
675
330
3D4
100
AcDbDictionary
280
     1
281
     1
  3
ACAD_XREC_ROUNDTRIP
360
676
  0
DICTIONARY
  5
659
330
3C6
100
AcDbDictionary
280
     1
281
     1
  3
ACAD_XREC_ROUNDTRIP
360
65A
  0
DICTIONARY
  5
65B
330
3C7
100
AcDbDictionary
280
     1
281
     1
  3
ACAD_XREC_ROUNDTRIP
360
65C
  0
DICTIONARY
  5
65D
330
3C8
100
AcDbDictionary
280
     1
281
     1
  3
ACAD_XREC_ROUNDTRIP
360
65E
  0
DICTIONARY
  5
65F
330
3C9
100
AcDbDictionary
280
     1
281
     1
  3
ACAD_XREC_ROUNDTRIP
360
660
  0
DICTIONARY
  5
673
330
3D3
100
AcDbDictionary
280
     1
281
     1
  3
ACAD_XREC_ROUNDTRIP
360
674
  0
DICTIONARY
  5
669
330
3CE
100
AcDbDictionary
280
     1
281
     1
  3
ACAD_XREC_ROUNDTRIP
360
66A
  0
DICTIONARY
  5
671
330
3D2
100
AcDbDictionary
280
     1
281
     1
  3
ACAD_XREC_ROUNDTRIP
360
672
  0
XRECORD
  5
656
102
{ACAD_REACTORS
330
655
102
}
330
655
100
AcDbXrecord
280
     1
102
MATERIAL
148
0.0
149
0.0
149
0.0
 93
        0
 94
      127
282
     0
 72
     1
 77
     1
171
     1
175
     1
179
     1
273
     0
  0
XRECORD
  5
654
102
{ACAD_REACTORS
330
653
102
}
330
653
100
AcDbXrecord
280
     1
102
MATERIAL
148
0.0
149
0.0
149
0.0
 93
        0
 94
      127
282
     0
 72
     1
 77
     1
171
     1
175
     1
179
     1
273
     0
  0
XRECORD
  5
658
102
{ACAD_REACTORS
330
657
102
}
330
657
100
AcDbXrecord
280
     1
102
MATERIAL
148
0.0
149
0.0
149
0.0
 93
        0
 94
      127
282
     0
 72
     1
 77
     1
171
     1
175
     1
179
     1
273
     0
  0
XRECORD
  5
662
102
{ACAD_REACTORS
330
661
102
}
330
661
100
AcDbXrecord
280
     1
102
RTVSPropertyOp0
 70
     1
102
RTVSPropertyOp1
 70
     1
102
RTVSPropertyOp2
 70
     1
102
RTVSPropertyOp3
 70
     1
102
RTVSPropertyOp4
 70
     1
102
RTVSPropertyOp5
 70
     1
102
RTVSPropertyOp6
 70
     1
102
RTVSPropertyOp7
 70
     1
102
RTVSPropertyOp8
 70
     1
102
RTVSPropertyOp9
 70
     1
102
RTVSPropertyOp10
 70
     1
102
RTVSPropertyOp11
 70
     1
102
RTVSPropertyOp12
 70
     1
102
RTVSPropertyOp13
 70
     1
102
RTVSPropertyOp14
 70
     1
102
RTVSPropertyOp15
 70
     1
102
RTVSPropertyOp16
 70
     1
102
RTVSPropertyOp17
 70
     1
102
RTVSPropertyOp18
 70
     1
102
RTVSPropertyOp19
 70
     1
102
RTVSPropertyOp20
 70
     1
102
RTVSPropertyOp21
 70
     1
102
RTVSPropertyOp22
 70
     1
102
RTVSPropertyOp23
 70
     1
102
RTVSPropertyOp24
 70
     1
102
RTVSPropertyOp25
 70
     1
102
RTVSPropertyOp26
 70
     1
102
RTVSPropertyOp27
 70
     1
102
RTVSPropertyOp28
 70
     1
102
RTVSPropertyOp29
 70
     1
102
RTVSPropertyOp30
 70
     1
102
RTVSPropertyOp31
 70
     1
102
RTVSPropertyOp32
 70
     1
  0
XRECORD
  5
666
102
{ACAD_REACTORS
330
665
102
}
330
665
100
AcDbXrecord
280
     1
102
RTVSPropertyOp0
 70
     1
102
RTVSPropertyOp1
 70
     1
102
RTVSPropertyOp2
 70
     1
102
RTVSPropertyOp3
 70
     1
102
RTVSPropertyOp4
 70
     1
102
RTVSPropertyOp5
 70
     1
102
RTVSPropertyOp6
 70
     1
102
RTVSPropertyOp7
 70
     1
102
RTVSPropertyOp8
 70
     1
102
RTVSPropertyOp9
 70
     1
102
RTVSPropertyOp10
 70
     1
102
RTVSPropertyOp11
 70
     1
102
RTVSPropertyOp12
 70
     1
102
RTVSPropertyOp13
 70
     1
102
RTVSPropertyOp14
 70
     1
102
RTVSPropertyOp15
 70
     1
102
RTVSPropertyOp16
 70
     1
102
RTVSPropertyOp17
 70
     1
102
RTVSPropertyOp18
 70
     1
102
RTVSPropertyOp19
 70
     1
102
RTVSPropertyOp20
 70
     1
102
RTVSPropertyOp21
 70
     1
102
RTVSPropertyOp22
 70
     1
102
RTVSPropertyOp23
 70
     1
102
RTVSPropertyOp24
 70
     1
102
RTVSPropertyOp25
 70
     1
102
RTVSPropertyOp26
 70
     1
102
RTVSPropertyOp27
 70
     1
102
RTVSPropertyOp28
 70
     1
102
RTVSPropertyOp29
 70
     1
102
RTVSPropertyOp30
 70
     1
102
RTVSPropertyOp31
 70
     1
102
RTVSPropertyOp32
 70
     1
  0
XRECORD
  5
664
102
{ACAD_REACTORS
330
663
102
}
330
663
100
AcDbXrecord
280
     1
102
RTVSPropertyOp0
 70
     1
102
RTVSPropertyOp1
 70
     1
102
RTVSPropertyOp2
 70
     1
102
RTVSPropertyOp3
 70
     1
102
RTVSPropertyOp4
 70
     1
102
RTVSPropertyOp5
 70
     1
102
RTVSPropertyOp6
 70
     1
102
RTVSPropertyOp7
 70
     1
102
RTVSPropertyOp8
 70
     1
102
RTVSPropertyOp9
 70
     1
102
RTVSPropertyOp10
 70
     1
102
RTVSPropertyOp11
 70
     1
102
RTVSPropertyOp12
 70
     1
102
RTVSPropertyOp13
 70
     1
102
RTVSPropertyOp14
 70
     1
102
RTVSPropertyOp15
 70
     1
102
RTVSPropertyOp16
 70
     1
102
RTVSPropertyOp17
 70
     1
102
RTVSPropertyOp18
 70
     1
102
RTVSPropertyOp19
 70
     1
102
RTVSPropertyOp20
 70
     1
102
RTVSPropertyOp21
 70
     1
102
RTVSPropertyOp22
 70
     1
102
RTVSPropertyOp23
 70
     1
102
RTVSPropertyOp24
 70
     1
102
RTVSPropertyOp25
 70
     1
102
RTVSPropertyOp26
 70
     1
102
RTVSPropertyOp27
 70
     1
102
RTVSPropertyOp28
 70
     1
102
RTVSPropertyOp29
 70
     1
102
RTVSPropertyOp30
 70
     1
102
RTVSPropertyOp31
 70
     1
102
RTVSPropertyOp32
 70
     1
  0
XRECORD
  5
668
102
{ACAD_REACTORS
330
667
102
}
330
667
100
AcDbXrecord
280
     1
102
RTVSPropertyOp0
 70
     1
102
RTVSPropertyOp1
 70
     1
102
RTVSPropertyOp2
 70
     1
102
RTVSPropertyOp3
 70
     1
102
RTVSPropertyOp4
 70
     1
102
RTVSPropertyOp5
 70
     1
102
RTVSPropertyOp6
 70
     1
102
RTVSPropertyOp7
 70
     1
102
RTVSPropertyOp8
 70
     1
102
RTVSPropertyOp9
 70
     1
102
RTVSPropertyOp10
 70
     1
102
RTVSPropertyOp11
 70
     1
102
RTVSPropertyOp12
 70
     1
102
RTVSPropertyOp13
 70
     1
102
RTVSPropertyOp14
 70
     1
102
RTVSPropertyOp15
 70
     1
102
RTVSPropertyOp16
 70
     1
102
RTVSPropertyOp17
 70
     1
102
RTVSPropertyOp18
 70
     1
102
RTVSPropertyOp19
 70
     1
102
RTVSPropertyOp20
 70
     1
102
RTVSPropertyOp21
 70
     1
102
RTVSPropertyOp22
 70
     1
102
RTVSPropertyOp23
 70
     1
102
RTVSPropertyOp24
 70
     1
102
RTVSPropertyOp25
 70
     1
102
RTVSPropertyOp26
 70
     1
102
RTVSPropertyOp27
 70
     1
102
RTVSPropertyOp28
 70
     1
102
RTVSPropertyOp29
 70
     1
102
RTVSPropertyOp30
 70
     1
102
RTVSPropertyOp31
 70
     1
102
RTVSPropertyOp32
 70
     1
  0
XRECORD
  5
670
102
{ACAD_REACTORS
330
66F
102
}
330
66F
100
AcDbXrecord
280
     1
102
RTVSPropertyOp0
 70
     1
102
RTVSPropertyOp1
 70
     1
102
RTVSPropertyOp2
 70
     1
102
RTVSPropertyOp3
 70
     1
102
RTVSPropertyOp4
 70
     1
102
RTVSPropertyOp5
 70
     1
102
RTVSPropertyOp6
 70
     1
102
RTVSPropertyOp7
 70
     1
102
RTVSPropertyOp8
 70
     1
102
RTVSPropertyOp9
 70
     1
102
RTVSPropertyOp10
 70
     1
102
RTVSPropertyOp11
 70
     1
102
RTVSPropertyOp12
 70
     1
102
RTVSPropertyOp13
 70
     1
102
RTVSPropertyOp14
 70
     1
102
RTVSPropertyOp15
 70
     1
102
RTVSPropertyOp16
 70
     1
102
RTVSPropertyOp17
 70
     1
102
RTVSPropertyOp18
 70
     1
102
RTVSPropertyOp19
 70
     1
102
RTVSPropertyOp20
 70
     1
102
RTVSPropertyOp21
 70
     1
102
RTVSPropertyOp22
 70
     1
102
RTVSPropertyOp23
 70
     1
102
RTVSPropertyOp24
 70
     1
102
RTVSPropertyOp25
 70
     1
102
RTVSPropertyOp26
 70
     1
102
RTVSPropertyOp27
 70
     1
102
RTVSPropertyOp28
 70
     1
102
RTVSPropertyOp29
 70
     1
102
RTVSPropertyOp30
 70
     1
102
RTVSPropertyOp31
 70
     1
102
RTVSPropertyOp32
 70
     1
  0
XRECORD
  5
678
102
{ACAD_REACTORS
330
677
102
}
330
677
100
AcDbXrecord
280
     1
102
RTVSPropertyOp0
 70
     1
102
RTVSPropertyOp1
 70
     1
102
RTVSPropertyOp2
 70
     1
102
RTVSPropertyOp3
 70
     1
102
RTVSPropertyOp4
 70
     1
102
RTVSPropertyOp5
 70
     1
102
RTVSPropertyOp6
 70
     1
102
RTVSPropertyOp7
 70
     1
102
RTVSPropertyOp8
 70
     1
102
RTVSPropertyOp9
 70
     1
102
RTVSPropertyOp10
 70
     1
102
RTVSPropertyOp11
 70
     1
102
RTVSPropertyOp12
 70
     1
102
RTVSPropertyOp13
 70
     1
102
RTVSPropertyOp14
 70
     1
102
RTVSPropertyOp15
 70
     1
102
RTVSPropertyOp16
 70
     1
102
RTVSPropertyOp17
 70
     1
102
RTVSPropertyOp18
 70
     1
102
RTVSPropertyOp19
 70
     1
102
RTVSPropertyOp20
 70
     1
102
RTVSPropertyOp21
 70
     1
102
RTVSPropertyOp22
 70
     1
102
RTVSPropertyOp23
 70
     1
102
RTVSPropertyOp24
 70
     1
102
RTVSPropertyOp25
 70
     1
102
RTVSPropertyOp26
 70
     1
102
RTVSPropertyOp27
 70
     1
102
RTVSPropertyOp28
 70
     1
102
RTVSPropertyOp29
 70
     1
102
RTVSPropertyOp30
 70
     1
102
RTVSPropertyOp31
 70
     1
102
RTVSPropertyOp32
 70
     1
  0
XRECORD
  5
66C
102
{ACAD_REACTORS
330
66B
102
}
330
66B
100
AcDbXrecord
280
     1
102
RTVSPropertyOp0
 70
     1
102
RTVSPropertyOp1
 70
     1
102
RTVSPropertyOp2
 70
     1
102
RTVSPropertyOp3
 70
     1
102
RTVSPropertyOp4
 70
     1
102
RTVSPropertyOp5
 70
     1
102
RTVSPropertyOp6
 70
     1
102
RTVSPropertyOp7
 70
     1
102
RTVSPropertyOp8
 70
     1
102
RTVSPropertyOp9
 70
     1
102
RTVSPropertyOp10
 70
     1
102
RTVSPropertyOp11
 70
     1
102
RTVSPropertyOp12
 70
     1
102
RTVSPropertyOp13
 70
     1
102
RTVSPropertyOp14
 70
     1
102
RTVSPropertyOp15
 70
     1
102
RTVSPropertyOp16
 70
     1
102
RTVSPropertyOp17
 70
     1
102
RTVSPropertyOp18
 70
     1
102
RTVSPropertyOp19
 70
     1
102
RTVSPropertyOp20
 70
     1
102
RTVSPropertyOp21
 70
     1
102
RTVSPropertyOp22
 70
     1
102
RTVSPropertyOp23
 70
     1
102
RTVSPropertyOp24
 70
     1
102
RTVSPropertyOp25
 70
     1
102
RTVSPropertyOp26
 70
     1
102
RTVSPropertyOp27
 70
     1
102
RTVSPropertyOp28
 70
     1
102
RTVSPropertyOp29
 70
     1
102
RTVSPropertyOp30
 70
     1
102
RTVSPropertyOp31
 70
     1
102
RTVSPropertyOp32
 70
     1
  0
XRECORD
  5
66E
102
{ACAD_REACTORS
330
66D
102
}
330
66D
100
AcDbXrecord
280
     1
102
RTVSPropertyOp0
 70
     1
102
RTVSPropertyOp1
 70
     1
102
RTVSPropertyOp2
 70
     1
102
RTVSPropertyOp3
 70
     1
102
RTVSPropertyOp4
 70
     1
102
RTVSPropertyOp5
 70
     1
102
RTVSPropertyOp6
 70
     1
102
RTVSPropertyOp7
 70
     1
102
RTVSPropertyOp8
 70
     1
102
RTVSPropertyOp9
 70
     1
102
RTVSPropertyOp10
 70
     1
102
RTVSPropertyOp11
 70
     1
102
RTVSPropertyOp12
 70
     1
102
RTVSPropertyOp13
 70
     1
102
RTVSPropertyOp14
 70
     1
102
RTVSPropertyOp15
 70
     1
102
RTVSPropertyOp16
 70
     1
102
RTVSPropertyOp17
 70
     1
102
RTVSPropertyOp18
 70
     1
102
RTVSPropertyOp19
 70
     1
102
RTVSPropertyOp20
 70
     1
102
RTVSPropertyOp21
 70
     1
102
RTVSPropertyOp22
 70
     1
102
RTVSPropertyOp23
 70
     1
102
RTVSPropertyOp24
 70
     1
102
RTVSPropertyOp25
 70
     1
102
RTVSPropertyOp26
 70
     1
102
RTVSPropertyOp27
 70
     1
102
RTVSPropertyOp28
 70
     1
102
RTVSPropertyOp29
 70
     1
102
RTVSPropertyOp30
 70
     1
102
RTVSPropertyOp31
 70
     1
102
RTVSPropertyOp32
 70
     1
  0
XRECORD
  5
676
102
{ACAD_REACTORS
330
675
102
}
330
675
100
AcDbXrecord
280
     1
102
RTVSPropertyOp0
 70
     1
102
RTVSPropertyOp1
 70
     1
102
RTVSPropertyOp2
 70
     1
102
RTVSPropertyOp3
 70
     1
102
RTVSPropertyOp4
 70
     1
102
RTVSPropertyOp5
 70
     1
102
RTVSPropertyOp6
 70
     1
102
RTVSPropertyOp7
 70
     1
102
RTVSPropertyOp8
 70
     1
102
RTVSPropertyOp9
 70
     1
102
RTVSPropertyOp10
 70
     1
102
RTVSPropertyOp11
 70
     1
102
RTVSPropertyOp12
 70
     1
102
RTVSPropertyOp13
 70
     1
102
RTVSPropertyOp14
 70
     1
102
RTVSPropertyOp15
 70
     1
102
RTVSPropertyOp16
 70
     1
102
RTVSPropertyOp17
 70
     1
102
RTVSPropertyOp18
 70
     1
102
RTVSPropertyOp19
 70
     1
102
RTVSPropertyOp20
 70
     1
102
RTVSPropertyOp21
 70
     1
102
RTVSPropertyOp22
 70
     1
102
RTVSPropertyOp23
 70
     1
102
RTVSPropertyOp24
 70
     1
102
RTVSPropertyOp25
 70
     1
102
RTVSPropertyOp26
 70
     1
102
RTVSPropertyOp27
 70
     1
102
RTVSPropertyOp28
 70
     1
102
RTVSPropertyOp29
 70
     1
102
RTVSPropertyOp30
 70
     1
102
RTVSPropertyOp31
 70
     1
102
RTVSPropertyOp32
 70
     1
  0
XRECORD
  5
65A
102
{ACAD_REACTORS
330
659
102
}
330
659
100
AcDbXrecord
280
     1
102
RTVSPropertyOp0
 70
     1
102
RTVSPropertyOp1
 70
     1
102
RTVSPropertyOp2
 70
     1
102
RTVSPropertyOp3
 70
     1
102
RTVSPropertyOp4
 70
     1
102
RTVSPropertyOp5
 70
     1
102
RTVSPropertyOp6
 70
     1
102
RTVSPropertyOp7
 70
     1
102
RTVSPropertyOp8
 70
     1
102
RTVSPropertyOp9
 70
     1
102
RTVSPropertyOp10
 70
     1
102
RTVSPropertyOp11
 70
     1
102
RTVSPropertyOp12
 70
     1
102
RTVSPropertyOp13
 70
     1
102
RTVSPropertyOp14
 70
     1
102
RTVSPropertyOp15
 70
     1
102
RTVSPropertyOp16
 70
     1
102
RTVSPropertyOp17
 70
     1
102
RTVSPropertyOp18
 70
     1
102
RTVSPropertyOp19
 70
     1
102
RTVSPropertyOp20
 70
     1
102
RTVSPropertyOp21
 70
     1
102
RTVSPropertyOp22
 70
     1
102
RTVSPropertyOp23
 70
     1
102
RTVSPropertyOp24
 70
     1
102
RTVSPropertyOp25
 70
     1
102
RTVSPropertyOp26
 70
     1
102
RTVSPropertyOp27
 70
     1
102
RTVSPropertyOp28
 70
     1
102
RTVSPropertyOp29
 70
     1
102
RTVSPropertyOp30
 70
     1
102
RTVSPropertyOp31
 70
     1
102
RTVSPropertyOp32
 70
     1
  0
XRECORD
  5
65C
102
{ACAD_REACTORS
330
65B
102
}
330
65B
100
AcDbXrecord
280
     1
102
RTVSPropertyOp0
 70
     1
102
RTVSPropertyOp1
 70
     1
102
RTVSPropertyOp2
 70
     1
102
RTVSPropertyOp3
 70
     1
102
RTVSPropertyOp4
 70
     1
102
RTVSPropertyOp5
 70
     1
102
RTVSPropertyOp6
 70
     1
102
RTVSPropertyOp7
 70
     1
102
RTVSPropertyOp8
 70
     1
102
RTVSPropertyOp9
 70
     1
102
RTVSPropertyOp10
 70
     1
102
RTVSPropertyOp11
 70
     1
102
RTVSPropertyOp12
 70
     1
102
RTVSPropertyOp13
 70
     1
102
RTVSPropertyOp14
 70
     1
102
RTVSPropertyOp15
 70
     1
102
RTVSPropertyOp16
 70
     1
102
RTVSPropertyOp17
 70
     1
102
RTVSPropertyOp18
 70
     1
102
RTVSPropertyOp19
 70
     1
102
RTVSPropertyOp20
 70
     1
102
RTVSPropertyOp21
 70
     1
102
RTVSPropertyOp22
 70
     1
102
RTVSPropertyOp23
 70
     1
102
RTVSPropertyOp24
 70
     1
102
RTVSPropertyOp25
 70
     1
102
RTVSPropertyOp26
 70
     1
102
RTVSPropertyOp27
 70
     1
102
RTVSPropertyOp28
 70
     1
102
RTVSPropertyOp29
 70
     1
102
RTVSPropertyOp30
 70
     1
102
RTVSPropertyOp31
 70
     1
102
RTVSPropertyOp32
 70
     1
  0
XRECORD
  5
65E
102
{ACAD_REACTORS
330
65D
102
}
330
65D
100
AcDbXrecord
280
     1
102
RTVSPropertyOp0
 70
     1
102
RTVSPropertyOp1
 70
     1
102
RTVSPropertyOp2
 70
     1
102
RTVSPropertyOp3
 70
     1
102
RTVSPropertyOp4
 70
     1
102
RTVSPropertyOp5
 70
     1
102
RTVSPropertyOp6
 70
     1
102
RTVSPropertyOp7
 70
     1
102
RTVSPropertyOp8
 70
     1
102
RTVSPropertyOp9
 70
     1
102
RTVSPropertyOp10
 70
     1
102
RTVSPropertyOp11
 70
     1
102
RTVSPropertyOp12
 70
     1
102
RTVSPropertyOp13
 70
     1
102
RTVSPropertyOp14
 70
     1
102
RTVSPropertyOp15
 70
     1
102
RTVSPropertyOp16
 70
     1
102
RTVSPropertyOp17
 70
     1
102
RTVSPropertyOp18
 70
     1
102
RTVSPropertyOp19
 70
     1
102
RTVSPropertyOp20
 70
     1
102
RTVSPropertyOp21
 70
     1
102
RTVSPropertyOp22
 70
     1
102
RTVSPropertyOp23
 70
     1
102
RTVSPropertyOp24
 70
     1
102
RTVSPropertyOp25
 70
     1
102
RTVSPropertyOp26
 70
     1
102
RTVSPropertyOp27
 70
     1
102
RTVSPropertyOp28
 70
     1
102
RTVSPropertyOp29
 70
     1
102
RTVSPropertyOp30
 70
     1
102
RTVSPropertyOp31
 70
     1
102
RTVSPropertyOp32
 70
     1
  0
XRECORD
  5
660
102
{ACAD_REACTORS
330
65F
102
}
330
65F
100
AcDbXrecord
280
     1
102
RTVSPropertyOp0
 70
     1
102
RTVSPropertyOp1
 70
     1
102
RTVSPropertyOp2
 70
     1
102
RTVSPropertyOp3
 70
     1
102
RTVSPropertyOp4
 70
     1
102
RTVSPropertyOp5
 70
     1
102
RTVSPropertyOp6
 70
     1
102
RTVSPropertyOp7
 70
     1
102
RTVSPropertyOp8
 70
     1
102
RTVSPropertyOp9
 70
     1
102
RTVSPropertyOp10
 70
     1
102
RTVSPropertyOp11
 70
     1
102
RTVSPropertyOp12
 70
     1
102
RTVSPropertyOp13
 70
     1
102
RTVSPropertyOp14
 70
     1
102
RTVSPropertyOp15
 70
     1
102
RTVSPropertyOp16
 70
     1
102
RTVSPropertyOp17
 70
     1
102
RTVSPropertyOp18
 70
     1
102
RTVSPropertyOp19
 70
     1
102
RTVSPropertyOp20
 70
     1
102
RTVSPropertyOp21
 70
     1
102
RTVSPropertyOp22
 70
     1
102
RTVSPropertyOp23
 70
     1
102
RTVSPropertyOp24
 70
     1
102
RTVSPropertyOp25
 70
     1
102
RTVSPropertyOp26
 70
     1
102
RTVSPropertyOp27
 70
     1
102
RTVSPropertyOp28
 70
     1
102
RTVSPropertyOp29
 70
     1
102
RTVSPropertyOp30
 70
     1
102
RTVSPropertyOp31
 70
     1
102
RTVSPropertyOp32
 70
     1
  0
XRECORD
  5
674
102
{ACAD_REACTORS
330
673
102
}
330
673
100
AcDbXrecord
280
     1
102
RTVSPropertyOp0
 70
     1
102
RTVSPropertyOp1
 70
     1
102
RTVSPropertyOp2
 70
     1
102
RTVSPropertyOp3
 70
     1
102
RTVSPropertyOp4
 70
     1
102
RTVSPropertyOp5
 70
     1
102
RTVSPropertyOp6
 70
     1
102
RTVSPropertyOp7
 70
     1
102
RTVSPropertyOp8
 70
     1
102
RTVSPropertyOp9
 70
     1
102
RTVSPropertyOp10
 70
     1
102
RTVSPropertyOp11
 70
     1
102
RTVSPropertyOp12
 70
     1
102
RTVSPropertyOp13
 70
     1
102
RTVSPropertyOp14
 70
     1
102
RTVSPropertyOp15
 70
     1
102
RTVSPropertyOp16
 70
     1
102
RTVSPropertyOp17
 70
     1
102
RTVSPropertyOp18
 70
     1
102
RTVSPropertyOp19
 70
     1
102
RTVSPropertyOp20
 70
     1
102
RTVSPropertyOp21
 70
     1
102
RTVSPropertyOp22
 70
     1
102
RTVSPropertyOp23
 70
     1
102
RTVSPropertyOp24
 70
     1
102
RTVSPropertyOp25
 70
     1
102
RTVSPropertyOp26
 70
     1
102
RTVSPropertyOp27
 70
     1
102
RTVSPropertyOp28
 70
     1
102
RTVSPropertyOp29
 70
     1
102
RTVSPropertyOp30
 70
     1
102
RTVSPropertyOp31
 70
     1
102
RTVSPropertyOp32
 70
     1
  0
XRECORD
  5
66A
102
{ACAD_REACTORS
330
669
102
}
330
669
100
AcDbXrecord
280
     1
102
RTVSPropertyOp0
 70
     1
102
RTVSPropertyOp1
 70
     1
102
RTVSPropertyOp2
 70
     1
102
RTVSPropertyOp3
 70
     1
102
RTVSPropertyOp4
 70
     1
102
RTVSPropertyOp5
 70
     1
102
RTVSPropertyOp6
 70
     1
102
RTVSPropertyOp7
 70
     1
102
RTVSPropertyOp8
 70
     1
102
RTVSPropertyOp9
 70
     1
102
RTVSPropertyOp10
 70
     1
102
RTVSPropertyOp11
 70
     1
102
RTVSPropertyOp12
 70
     1
102
RTVSPropertyOp13
 70
     1
102
RTVSPropertyOp14
 70
     1
102
RTVSPropertyOp15
 70
     1
102
RTVSPropertyOp16
 70
     1
102
RTVSPropertyOp17
 70
     1
102
RTVSPropertyOp18
 70
     1
102
RTVSPropertyOp19
 70
     1
102
RTVSPropertyOp20
 70
     1
102
RTVSPropertyOp21
 70
     1
102
RTVSPropertyOp22
 70
     1
102
RTVSPropertyOp23
 70
     1
102
RTVSPropertyOp24
 70
     1
102
RTVSPropertyOp25
 70
     1
102
RTVSPropertyOp26
 70
     1
102
RTVSPropertyOp27
 70
     1
102
RTVSPropertyOp28
 70
     1
102
RTVSPropertyOp29
 70
     1
102
RTVSPropertyOp30
 70
     1
102
RTVSPropertyOp31
 70
     1
102
RTVSPropertyOp32
 70
     1
  0
XRECORD
  5
672
102
{ACAD_REACTORS
330
671
102
}
330
671
100
AcDbXrecord
280
     1
102
RTVSPropertyOp0
 70
     1
102
RTVSPropertyOp1
 70
     1
102
RTVSPropertyOp2
 70
     1
102
RTVSPropertyOp3
 70
     1
102
RTVSPropertyOp4
 70
     1
102
RTVSPropertyOp5
 70
     1
102
RTVSPropertyOp6
 70
     1
102
RTVSPropertyOp7
 70
     1
102
RTVSPropertyOp8
 70
     1
102
RTVSPropertyOp9
 70
     1
102
RTVSPropertyOp10
 70
     1
102
RTVSPropertyOp11
 70
     1
102
RTVSPropertyOp12
 70
     1
102
RTVSPropertyOp13
 70
     1
102
RTVSPropertyOp14
 70
     1
102
RTVSPropertyOp15
 70
     1
102
RTVSPropertyOp16
 70
     1
102
RTVSPropertyOp17
 70
     1
102
RTVSPropertyOp18
 70
     1
102
RTVSPropertyOp19
 70
     1
102
RTVSPropertyOp20
 70
     1
102
RTVSPropertyOp21
 70
     1
102
RTVSPropertyOp22
 70
     1
102
RTVSPropertyOp23
 70
     1
102
RTVSPropertyOp24
 70
     1
102
RTVSPropertyOp25
 70
     1
102
RTVSPropertyOp26
 70
     1
102
RTVSPropertyOp27
 70
     1
102
RTVSPropertyOp28
 70
     1
102
RTVSPropertyOp29
 70
     1
102
RTVSPropertyOp30
 70
     1
102
RTVSPropertyOp31
 70
     1
102
RTVSPropertyOp32
 70
     1
  0
ENDSEC
  0
EOF
