0
SECTION
2
HEADER
9
$ACADVER
1
AC1015
9
$DWGCODEPAGE
3
ANSI_1252
9
$HANDSEED
5
28d
9
$ANGBASE
50
0
9
$ANGDIR
70
0
9
$ATTMODE
70
1
9
$AUNITS
70
0
9
$AUPREC
70
0
9
$CECOLOR
62
256
9
$CELTSCALE
40
1
9
$CELTYPE
6
ByLayer
9
$CELWEIGHT
370
18
9
$CLAYER
8
0
9
$CMLJUST
70
0
9
$CMLSCALE
40
1
9
$CMLSTYLE
2
Standard
9
$DIMSTYLE
2
Standard
9
$TEXTSIZE
40
0.2
9
$TEXTSTYLE
7
Standard
9
$LUNITS
70
2
9
$LUPREC
70
4
9
$EXTNAMES
290
1
9
$INSUNITS
70
4
9
$LTSCALE
40
1
9
$LWDISPLAY
290
1
9
$PDMODE
70
0
9
$PDSIZE
40
0
9
$PLINEGEN
70
0
0
ENDSEC
0
SECTION
2
CLASSES
0
CLASS
1
RASTERVARIABLES
2
AcDbRasterVariables
3
ISM
90
0
280
0
281
0
0
ENDSEC
0
SECTION
2
TABLES
0
TABLE
2
VPORT
5
283
100
AcDbSymbolTable
0
VPORT
5
1
100
AcDbSymbolTableRecord
100
AcDbViewportTableRecord
2
*Active
70
0
10
0
20
0
11
1
21
1
12
-1
22
1
13
0
23
0
14
0.5
24
0.5
15
10
25
10
16
0
26
0
36
1
17
0
27
0
37
0
0
ENDTAB
0
TABLE
2
LTYPE
5
284
100
AcDbSymbolTable
0
LTYPE
5
14
100
AcDbSymbolTableRecord
100
AcDbLinetypeTableRecord
70
0
2
ByBlock
3

72
65
73
0
40
0
0
LTYPE
5
15
100
AcDbSymbolTableRecord
100
AcDbLinetypeTableRecord
70
0
2
ByLayer
3

72
65
73
0
40
0
0
LTYPE
5
16
100
AcDbSymbolTableRecord
100
AcDbLinetypeTableRecord
70
0
2
CONTINUOUS
3
Solid line
72
65
73
0
40
0
0
LTYPE
5
6A
100
AcDbSymbolTableRecord
100
AcDbLinetypeTableRecord
70
0
2
CENTER
3
____ _ ____ _ ____ _ ____
72
65
73
4
40
47.5
49
22
74
0
49
-8.5
74
0
49
8.5
74
0
49
-8.5
74
0
0
LTYPE
5
6B
100
AcDbSymbolTableRecord
100
AcDbLinetypeTableRecord
70
0
2
DASHED
3
__ __ __ __ __ __ __ __ __
72
65
73
2
40
25.72
49
12.86
74
0
49
-12.86
74
0
0
ENDTAB
0
TABLE
2
LAYER
5
285
100
AcDbSymbolTable
0
LAYER
5
10
100
AcDbSymbolTableRecord
100
AcDbLayerTableRecord
2
0
70
0
62
7
6
CONTINUOUS
290
1
370
-3
390
0
0
LAYER
5
6D
100
AcDbSymbolTableRecord
100
AcDbLayerTableRecord
2
81
70
0
62
-3
6
CONTINUOUS
290
1
370
-3
390
0
0
LAYER
5
6F
100
AcDbSymbolTableRecord
100
AcDbLayerTableRecord
2
80
70
0
62
-6
6
CONTINUOUS
290
1
370
-3
390
0
0
LAYER
5
73
100
AcDbSymbolTableRecord
100
AcDbLayerTableRecord
2
2
70
0
62
7
6
CONTINUOUS
290
1
370
-3
390
0
0
LAYER
5
8D
100
AcDbSymbolTableRecord
100
AcDbLayerTableRecord
2
4
70
0
62
-2
6
CENTER
290
1
370
-3
390
0
0
LAYER
5
8F
100
AcDbSymbolTableRecord
100
AcDbLayerTableRecord
2
1
70
0
62
4
6
CONTINUOUS
290
1
370
-3
390
0
0
LAYER
5
26e
100
AcDbSymbolTableRecord
100
AcDbLayerTableRecord
2
SK4
70
0
62
2
6
CENTER
290
1
370
-3
390
0
0
LAYER
5
26f
100
AcDbSymbolTableRecord
100
AcDbLayerTableRecord
2
SK1
70
0
62
4
6
CONTINUOUS
290
1
370
-3
390
0
0
LAYER
5
270
100
AcDbSymbolTableRecord
100
AcDbLayerTableRecord
2
SK6
70
0
62
5
6
CONTINUOUS
290
1
370
-3
390
0
0
ENDTAB
0
TABLE
2
STYLE
5
286
100
AcDbSymbolTable
0
STYLE
5
11
100
AcDbSymbolTableRecord
100
AcDbTextStyleTableRecord
2
Standard
3
txt
70
0
71
0
40
0
41
1
42
0
50
0
0
STYLE
5
1FA
100
AcDbSymbolTableRecord
100
AcDbTextStyleTableRecord
2
iso_b_vert
3
simplex.shx
70
0
71
0
40
0
41
1
42
0
50
0
0
STYLE
5
1FB
100
AcDbSymbolTableRecord
100
AcDbTextStyleTableRecord
2
DWGDirectTextStyle
3
simplex
70
0
71
0
40
0
41
1
42
0
50
0
0
ENDTAB
0
TABLE
2
DIMSTYLE
5
287
100
AcDbSymbolTable
100
AcDbDimStyleTable
0
DIMSTYLE
105
27
100
AcDbSymbolTableRecord
100
AcDbDimStyleTableRecord
2
Standard
70
0
3
<>
41
0.18
42
0.0625
44
0.18
140
0.18
147
0.09
73
0
74
0
77
1
271
2
275
0
278
52
280
0
340
11
0
ENDTAB
0
TABLE
2
VIEW
5
288
100
AcDbSymbolTable
0
ENDTAB
0
TABLE
2
UCS
5
289
100
AcDbSymbolTable
0
ENDTAB
0
TABLE
2
APPID
5
28a
100
AcDbSymbolTable
0
APPID
5
12
100
AcDbSymbolTableRecord
100
AcDbRegAppTableRecord
2
ACAD
70
0
0
ENDTAB
0
TABLE
2
BLOCK_RECORD
5
28b
100
AcDbSymbolTable
0
BLOCK_RECORD
5
1F
100
AcDbSymbolTableRecord
100
AcDbBlockTableRecord
2
*Model_Space
340
0
70
0
0
BLOCK_RECORD
5
1B
100
AcDbSymbolTableRecord
100
AcDbBlockTableRecord
2
*Paper_Space
340
0
70
0
0
BLOCK_RECORD
5
23
100
AcDbSymbolTableRecord
100
AcDbBlockTableRecord
2
*Paper_Space0
340
0
70
0
0
BLOCK_RECORD
5
1FD
100
AcDbSymbolTableRecord
100
AcDbBlockTableRecord
2
DimnDraft3D1
340
0
70
0
0
BLOCK_RECORD
5
207
100
AcDbSymbolTableRecord
100
AcDbBlockTableRecord
2
DimnDraft3D2
340
0
70
0
0
ENDTAB
0
ENDSEC
0
SECTION
2
BLOCKS
0
BLOCK
5
20
100
AcDbEntity
8
0
100
AcDbBlockBegin
2
*Model_Space
70
0
10
0
20
0
30
0
3
*Model_Space
0
ENDBLK
5
21
100
AcDbEntity
8
0
100
AcDbBlockEnd
0
BLOCK
5
1C
100
AcDbEntity
8
0
100
AcDbBlockBegin
2
*Paper_Space
70
0
10
0
20
0
30
0
3
*Paper_Space
0
ENDBLK
5
1D
100
AcDbEntity
8
0
100
AcDbBlockEnd
0
BLOCK
5
24
100
AcDbEntity
8
0
100
AcDbBlockBegin
2
*Paper_Space0
70
0
10
0
20
0
30
0
3
*Paper_Space0
0
ENDBLK
5
25
100
AcDbEntity
8
0
100
AcDbBlockEnd
0
BLOCK
5
204
100
AcDbEntity
8
0
100
AcDbBlockBegin
2
DimnDraft3D1
70
0
10
0
20
0
30
0
3
DimnDraft3D1
0
MTEXT
5
1FE
100
AcDbEntity
8
2
62
256
6
ByLayer
370
18
48
1
60
0
100
AcDbMText
10
17.15
20
59.25
30
0
210
0
220
0
230
1
1
\W0.7295;40.0
40
3
41
0
44
1.084337
50
0
71
7
72
5
7
iso_b_vert
0
LINE
5
1FF
100
AcDbEntity
8
2
62
256
6
ByLayer
370
13
48
1
60
0
100
AcDbLine
10
0
20
35.200145
30
0
11
0
21
60.5
31
0
39
0
210
0
220
0
230
1
0
LINE
5
200
100
AcDbEntity
8
2
62
256
6
ByLayer
370
13
48
1
60
0
100
AcDbLine
10
40
20
44
30
0
11
40
21
60.5
31
0
39
0
210
0
220
0
230
1
0
LINE
5
201
100
AcDbEntity
8
2
62
256
6
ByLayer
370
13
48
1
60
0
100
AcDbLine
10
0
20
58.5
30
0
11
40
21
58.5
31
0
39
0
210
0
220
0
230
1
0
SOLID
5
202
100
AcDbEntity
8
2
62
256
6
ByLayer
370
13
48
1
60
0
100
AcDbTrace
10
0
20
58.5
30
0
11
3.174998
21
58.917997
31
0
12
3.175002
22
58.082003
32
0
13
0
23
58.5
33
0
39
0
210
0
220
0
230
1
0
SOLID
5
203
100
AcDbEntity
8
2
62
256
6
ByLayer
370
13
48
1
60
0
100
AcDbTrace
10
40
20
58.5
30
0
11
36.825002
21
58.082003
31
0
12
36.824998
22
58.917997
32
0
13
40
23
58.5
33
0
39
0
210
0
220
0
230
1
0
ENDBLK
5
205
100
AcDbEntity
8
0
100
AcDbBlockEnd
0
BLOCK
5
20D
100
AcDbEntity
8
0
100
AcDbBlockBegin
2
DimnDraft3D2
70
0
10
0
20
0
30
0
3
DimnDraft3D2
0
MTEXT
5
208
100
AcDbEntity
8
2
62
256
6
ByLayer
370
18
48
1
60
0
100
AcDbMText
10
49.91854
20
30.224887
30
0
210
0
220
0
230
1
1
\W0.6258;84%%d
40
3
41
0
44
1.084337
50
48.0000000000003
71
7
72
5
7
iso_b_vert
0
LINE
5
209
100
AcDbEntity
8
2
62
256
6
ByLayer
370
13
48
1
60
0
100
AcDbLine
10
41.403454
20
28.647029
30
0
11
41.881512
21
24.098606
31
0
39
0
210
0
220
0
230
1
0
ARC
5
20A
100
AcDbEntity
8
2
62
256
6
ByLayer
370
13
48
1
60
0
100
AcDbCircle
39
0
10
40
20
42
30
0
40
16
210
0
220
0
230
1
100
AcDbArc
50
276
51
0
0
SOLID
5
20B
100
AcDbEntity
8
2
62
256
6
ByLayer
370
13
48
1
60
0
100
AcDbTrace
10
56
20
42
30
0
11
56.260554
21
38.808222
31
0
12
55.425582
22
38.84954
32
0
13
56
23
42
33
0
39
0
210
0
220
0
230
1
0
SOLID
5
20C
100
AcDbEntity
8
2
62
256
6
ByLayer
370
13
48
1
60
0
100
AcDbTrace
10
41.672455
20
26.08765
30
0
11
44.745611
21
26.988233
31
0
12
44.873987
22
26.162155
32
0
13
41.672455
23
26.08765
33
0
39
0
210
0
220
0
230
1
0
ENDBLK
5
20E
100
AcDbEntity
8
0
100
AcDbBlockEnd
0
ENDSEC
0
SECTION
2
ENTITIES
0
ARC
5
10E
100
AcDbEntity
8
1
62
256
6
ByLayer
370
18
48
1
60
0
100
AcDbCircle
39
0
10
-41.3
20
21.5
30
0
40
5.00000000000038
210
0
220
0
230
-1
100
AcDbArc
50
0
51
79.621076
0
ELLIPSE
5
10F
100
AcDbEntity
8
SK1
62
256
6
ByLayer
370
13
48
1
60
0
100
AcDbEllipse
10
24.677364
20
-1.865745
30
0
11
-4.07811205656529
21
0.124105012375937
31
0
210
0
220
0
230
1
40
0.819027
41
0.427023896598392
42
2.71459422226388
0
ELLIPSE
5
110
100
AcDbEntity
8
SK1
62
256
6
ByLayer
370
18
48
1
60
0
100
AcDbEllipse
10
24.598828
20
-4.446446
30
0
11
9.99537268766002
21
-0.304178951901811
31
0
210
0
220
0
230
1
40
0.819027
41
-3.14159264475647
42
-3.25329355332654E-16
0
ELLIPSE
5
111
100
AcDbEntity
8
SK1
62
256
6
ByLayer
370
18
48
1
60
0
100
AcDbEllipse
10
24.61279
20
-3.987655
30
0
11
9.99537268766002
21
-0.304178951901811
31
0
210
0
220
0
230
1
40
0.819027
41
3.00031916724172
42
-3.25329355332654E-16
0
ELLIPSE
5
112
100
AcDbEntity
8
SK1
62
256
6
ByLayer
370
18
48
1
60
0
100
AcDbEllipse
10
24.61279
20
-3.987655
30
0
11
9.99537268766002
21
-0.304178951901811
31
0
210
0
220
0
230
1
40
0.819027
41
0
42
0.21568996921787
0
ELLIPSE
5
113
100
AcDbEntity
8
SK1
62
256
6
ByLayer
370
18
48
1
60
0
100
AcDbEllipse
10
24.61279
20
-3.987655
30
0
11
5.09764007070661
21
-0.155131265469924
31
0
210
0
220
0
230
1
40
0.819027
41
2.9432796504767
42
-3.18950348365347E-16
0
ELLIPSE
5
114
100
AcDbEntity
8
SK1
62
256
6
ByLayer
370
18
48
1
60
0
100
AcDbEllipse
10
24.61279
20
-3.987655
30
0
11
5.09764007070661
21
-0.155131265469924
31
0
210
0
220
0
230
1
40
0.819027
41
0
42
0.198411103868061
0
ELLIPSE
5
115
100
AcDbEntity
8
SK1
62
256
6
ByLayer
370
18
48
1
60
0
100
AcDbEllipse
10
24.441756
20
-9.607848
30
0
11
-7.92882938448631
21
0.241289953596107
31
0
210
0
220
0
230
1
40
0.819027
41
0
42
-3.14159264033581
0
ELLIPSE
5
116
100
AcDbEntity
8
SK1
62
256
6
ByLayer
370
18
48
1
60
0
100
AcDbEllipse
10
24.605809
20
-4.21705
30
0
11
-4.99768634383001
21
0.152089475950903
31
0
210
0
220
0
230
1
40
0.819027
41
0
42
0.338899422891169
0
ELLIPSE
5
117
100
AcDbEntity
8
SK1
62
256
6
ByLayer
370
18
48
1
60
0
100
AcDbEllipse
10
24.605809
20
-4.21705
30
0
11
-4.99768634383001
21
0.152089475950903
31
0
210
0
220
0
230
1
40
0.819027
41
2.80279146279741
42
-3.14159264475646
0
ELLIPSE
5
118
100
AcDbEntity
8
1
62
256
6
ByLayer
370
18
48
1
60
0
100
AcDbEllipse
10
34.390485
20
35.13833
30
0
11
-0.278364087565398
21
2.64845738006431
31
0
210
0
220
0
230
1
40
0.996195
41
-0.92598451666142
42
0
0
ELLIPSE
5
119
100
AcDbEntity
8
1
62
256
6
ByLayer
370
18
48
1
60
0
100
AcDbEllipse
10
34.390485
20
35.13833
30
0
11
-0.278364087565398
21
2.64845738006431
31
0
210
0
220
0
230
1
40
0.996195
41
0
42
-2.21550992406688
0
ELLIPSE
5
11A
100
AcDbEntity
8
1
62
256
6
ByLayer
370
18
48
1
60
0
100
AcDbEllipse
10
34.345981
20
35.133652
30
0
11
-0.282116967194846
21
2.68416364461171
31
0
210
0
220
0
230
1
40
0.996195
41
0
42
6.28318530717959
0
ELLIPSE
5
11B
100
AcDbEntity
8
1
62
256
6
ByLayer
370
18
48
1
60
0
100
AcDbEllipse
10
37.799668
20
32.325994
30
0
11
0.0341172799593253
21
-0.3246042357198
31
0
210
0
220
0
230
1
40
0.996195
41
0
42
1.57079632679492
0
ELLIPSE
5
11C
100
AcDbEntity
8
1
62
256
6
ByLayer
370
18
48
1
60
0
100
AcDbEllipse
10
37.626968
20
34.922164
30
0
11
0.023664433632561
21
-0.225152046182972
31
0
210
0
220
0
230
1
40
0.996195
41
1.5707963267949
42
-1.7392545688758
0
ELLIPSE
5
11D
100
AcDbEntity
8
1
62
256
6
ByLayer
370
18
48
1
60
0
100
AcDbEllipse
10
34.345981
20
35.133652
30
0
11
-0.321279495150694
21
3.05677020853233
31
0
210
0
220
0
230
1
40
0.996195
41
-2.97313441150893
42
-1.73925456887578
0
ELLIPSE
5
11E
100
AcDbEntity
8
1
62
256
6
ByLayer
370
18
48
1
60
0
100
AcDbEllipse
10
35.234204
20
31.955801
30
0
11
0.0236644336325609
21
-0.225152046182971
31
0
210
0
220
0
230
1
40
0.996195
41
-2.97313441150908
42
2.52042793209363E-13
0
ELLIPSE
5
11F
100
AcDbEntity
8
1
62
256
6
ByLayer
370
18
48
1
60
0
100
AcDbEllipse
10
30.892293
20
37.941311
30
0
11
0.0341172799593253
21
-0.3246042357198
31
0
210
0
220
0
230
1
40
0.996195
41
3.14159265358979
42
-1.5707963267949
0
ELLIPSE
5
120
100
AcDbEntity
8
1
62
256
6
ByLayer
370
18
48
1
60
0
100
AcDbEllipse
10
31.064994
20
35.345141
30
0
11
0.0236644336325609
21
-0.225152046182971
31
0
210
0
220
0
230
1
40
0.996195
41
-1.5707963267949
42
1.40233808471399
0
ELLIPSE
5
121
100
AcDbEntity
8
1
62
256
6
ByLayer
370
18
48
1
60
0
100
AcDbEllipse
10
34.345981
20
35.133652
30
0
11
-0.321279495150694
21
3.05677020853233
31
0
210
0
220
0
230
1
40
0.996195
41
0.168458242080879
42
1.40233808471402
0
ELLIPSE
5
122
100
AcDbEntity
8
1
62
256
6
ByLayer
370
18
48
1
60
0
100
AcDbEllipse
10
33.457758
20
38.311503
30
0
11
0.023664433632561
21
-0.225152046182972
31
0
210
0
220
0
230
1
40
0.996195
41
0.168458242080966
42
3.14159265358929
0
ELLIPSE
5
123
100
AcDbEntity
8
1
62
256
6
ByLayer
370
18
48
1
60
0
100
AcDbEllipse
10
34.554081
20
38.426731
30
0
11
0.023664433632561
21
-0.225152046182972
31
0
210
0
220
0
230
1
40
0.996195
41
3.14159265358954
42
-0.168458242080966
0
ELLIPSE
5
124
100
AcDbEntity
8
1
62
256
6
ByLayer
370
18
48
1
60
0
100
AcDbEllipse
10
34.345981
20
35.133652
30
0
11
-0.321279495150694
21
3.05677020853233
31
0
210
0
220
0
230
1
40
0.996195
41
-1.40233808471402
42
-0.168458242080879
0
ELLIPSE
5
125
100
AcDbEntity
8
1
62
256
6
ByLayer
370
18
48
1
60
0
100
AcDbEllipse
10
37.511299
20
36.022675
30
0
11
0.0236644336325609
21
-0.225152046182971
31
0
210
0
220
0
230
1
40
0.996195
41
-1.40233808471386
42
1.5707963267949
0
ELLIPSE
5
126
100
AcDbEntity
8
1
62
256
6
ByLayer
370
18
48
1
60
0
100
AcDbEllipse
10
37.140452
20
38.598019
30
0
11
0.0341172799593253
21
-0.3246042357198
31
0
210
0
220
0
230
1
40
0.996195
41
1.5707963267949
42
3.14159265358979
0
ELLIPSE
5
127
100
AcDbEntity
8
1
62
256
6
ByLayer
370
18
48
1
60
0
100
AcDbEllipse
10
31.55151
20
31.669286
30
0
11
0.0341172799593253
21
-0.3246042357198
31
0
210
0
220
0
230
1
40
0.996195
41
-1.5707963267949
42
0
0
ELLIPSE
5
128
100
AcDbEntity
8
1
62
256
6
ByLayer
370
18
48
1
60
0
100
AcDbEllipse
10
34.13788
20
31.840573
30
0
11
0.023664433632561
21
-0.225152046182972
31
0
210
0
220
0
230
1
40
0.996195
41
0
42
2.97313441150859
0
ELLIPSE
5
129
100
AcDbEntity
8
1
62
256
6
ByLayer
370
18
48
1
60
0
100
AcDbEllipse
10
34.345981
20
35.133652
30
0
11
-0.321279495150694
21
3.05677020853233
31
0
210
0
220
0
230
1
40
0.996195
41
1.73925456887577
42
2.97313441150893
0
ELLIPSE
5
12A
100
AcDbEntity
8
1
62
256
6
ByLayer
370
18
48
1
60
0
100
AcDbEllipse
10
31.180662
20
34.244629
30
0
11
0.0236644336325609
21
-0.225152046182971
31
0
210
0
220
0
230
1
40
0.996195
41
1.73925456887586
42
-1.5707963267949
0
ELLIPSE
5
12B
100
AcDbEntity
8
1
62
256
6
ByLayer
370
18
48
1
60
0
100
AcDbEllipse
10
37.401946
20
35.994323
30
0
11
-0.192617575984814
21
-0.0538374351333206
31
0
210
0
220
0
230
1
40
0.014613
41
0.972752381902772
42
1.65683361369372
0
ELLIPSE
5
12C
100
AcDbEntity
8
1
62
256
6
ByLayer
370
18
48
1
60
0
100
AcDbEllipse
10
37.5152
20
36.023085
30
0
11
0.0104528463267642
21
-0.0994521895368266
31
0
210
0
220
0
230
1
40
0.996195
41
-1.40233808471433
42
1.5707963267949
0
ELLIPSE
5
12D
100
AcDbEntity
8
1
62
256
6
ByLayer
370
18
48
1
60
0
100
AcDbEllipse
10
37.144352
20
38.598429
30
0
11
0.0209056926535285
21
-0.198904379073655
31
0
210
0
220
0
230
1
40
0.996195
41
1.57079632679486
42
3.14159265358979
0
ELLIPSE
5
12E
100
AcDbEntity
8
1
62
256
6
ByLayer
370
18
48
1
60
0
100
AcDbEllipse
10
37.106111
20
38.795511
30
0
11
0.0209056926535285
21
-0.198904379073655
31
0
210
0
220
0
230
1
40
0.087156
41
1.5707963267949
42
2.25487755859152
0
ELLIPSE
5
12F
100
AcDbEntity
8
1
62
256
6
ByLayer
370
18
48
1
60
0
100
AcDbEllipse
10
37.630868
20
34.922573
30
0
11
-0.0104528463267654
21
0.0994521895368271
31
0
210
0
220
0
230
1
40
0.996195
41
-1.5707963267949
42
1.40233808471412
0
ELLIPSE
5
130
100
AcDbEntity
8
1
62
256
6
ByLayer
370
18
48
1
60
0
100
AcDbEllipse
10
37.514109
20
34.92716
30
0
11
0.199601851976567
21
-0.0126135121011061
31
0
210
0
220
0
230
1
40
0.014613
41
1.48475903989639
42
2.1688402716908
0
ELLIPSE
5
131
100
AcDbEntity
8
1
62
256
6
ByLayer
370
18
48
1
60
0
100
AcDbEllipse
10
37.807139
20
32.125677
30
0
11
0.0209056926535285
21
-0.198904379073655
31
0
210
0
220
0
230
1
40
0.087156
41
0.886715095000254
42
1.5707963267949
0
ELLIPSE
5
132
100
AcDbEntity
8
1
62
256
6
ByLayer
370
18
48
1
60
0
100
AcDbEllipse
10
37.803569
20
32.326403
30
0
11
-0.0209056926535308
21
0.198904379073655
31
0
210
0
220
0
230
1
40
0.996195
41
3.14159265358951
42
-1.5707963267949
0
ELLIPSE
5
133
100
AcDbEntity
8
1
62
256
6
ByLayer
370
18
48
1
60
0
100
AcDbEllipse
10
34.530193
20
38.524771
30
0
11
-0.0209056926535308
21
0.198904379073655
31
0
210
0
220
0
230
1
40
0.087156
41
-1.5707963267949
42
-0.886715094998297
0
ELLIPSE
5
134
100
AcDbEntity
8
1
62
256
6
ByLayer
370
18
48
1
60
0
100
AcDbEllipse
10
35.231221
20
31.854937
30
0
11
0.0209056926535285
21
-0.198904379073655
31
0
210
0
220
0
230
1
40
0.087156
41
0.886715095000199
42
1.5707963267949
0
ELLIPSE
5
135
100
AcDbEntity
8
1
62
256
6
ByLayer
370
18
48
1
60
0
100
AcDbEllipse
10
34.53434
20
38.325529
30
0
11
-0.0128650708014414
21
-0.19958579597074
31
0
210
0
220
0
230
1
40
0.085922
41
0.901382621218372
42
1.58546385301636
0
ELLIPSE
5
136
100
AcDbEntity
8
1
62
256
6
ByLayer
370
18
48
1
60
0
100
AcDbEllipse
10
34.349881
20
35.134062
30
0
11
-0.334491082456493
21
3.18247006517848
31
0
210
0
220
0
230
1
40
0.996195
41
-1.40233808471402
42
-0.168458242080875
0
ELLIPSE
5
137
100
AcDbEntity
8
1
62
256
6
ByLayer
370
18
48
1
60
0
100
AcDbEllipse
10
34.349881
20
35.134062
30
0
11
0.334491082456456
21
-3.18247006517848
31
0
210
0
220
0
230
1
40
0.996195
41
0.168458242080873
42
1.40233808471402
0
ELLIPSE
5
138
100
AcDbEntity
8
1
62
256
6
ByLayer
370
18
48
1
60
0
100
AcDbEllipse
10
35.193853
20
32.050688
30
0
11
0.0540801584412007
21
-0.192549568846504
31
0
210
0
220
0
230
1
40
0.085922
41
1.55612880057347
42
2.24021003236535
0
ELLIPSE
5
139
100
AcDbEntity
8
1
62
256
6
ByLayer
370
18
48
1
60
0
100
AcDbEllipse
10
35.238104
20
31.956211
30
0
11
-0.0104528463267653
21
0.0994521895368265
31
0
210
0
220
0
230
1
40
0.996195
41
0.168458242080678
42
-3.14159265358922
0
ELLIPSE
5
13A
100
AcDbEntity
8
1
62
256
6
ByLayer
370
18
48
1
60
0
100
AcDbEllipse
10
34.557982
20
38.427141
30
0
11
0.0104528463267641
21
-0.0994521895368273
31
0
210
0
220
0
230
1
40
0.996195
41
3.14159265358922
42
-0.168458242081217
0
ELLIPSE
5
13B
100
AcDbEntity
8
1
62
256
6
ByLayer
370
18
48
1
60
0
100
AcDbEllipse
10
30.20174
20
39.915451
30
0
11
-1.03066457613002
21
9.80611840735786
31
0
210
0
220
0
230
1
40
0.996195
41
-1.5707963267949
42
-1.56169569787671
0
ELLIPSE
5
13C
100
AcDbEntity
8
1
62
256
6
ByLayer
370
18
48
1
60
0
100
AcDbEllipse
10
31.287022
20
29.594766
30
0
11
1.04528463267643
21
-9.94521895368276
31
0
210
0
220
0
230
1
40
0.996195
41
1.5616956978767
42
1.57079632679489
0
ELLIPSE
5
13D
100
AcDbEntity
8
1
62
256
6
ByLayer
370
18
48
1
60
0
100
AcDbEllipse
10
31.286493
20
29.59471
30
0
11
-1.03066457613002
21
9.80611840735786
31
0
210
0
220
0
230
1
40
0.996195
41
-1.57989695571309
42
-1.57079632679489
0
ELLIPSE
5
13E
100
AcDbEntity
8
1
62
256
6
ByLayer
370
18
48
1
60
0
100
AcDbEllipse
10
30.202269
20
39.915507
30
0
11
1.04528463267643
21
-9.94521895368276
31
0
210
0
220
0
230
1
40
0.996195
41
1.57079632679489
42
1.57989695571309
0
ELLIPSE
5
13F
100
AcDbEntity
8
1
62
256
6
ByLayer
370
18
48
1
60
0
100
AcDbEllipse
10
36.244732
20
30.070089
30
0
11
-0.508022259791756
21
4.8335089305165
31
0
210
0
220
0
230
1
40
0.996195
41
-1.58969694879989
42
-1.57989695571309
0
ELLIPSE
5
140
100
AcDbEntity
8
1
62
256
6
ByLayer
370
18
48
1
60
0
100
AcDbEllipse
10
36.245261
20
30.070145
30
0
11
0.522642316338193
21
-4.97260947684119
31
0
210
0
220
0
230
1
40
0.996195
41
1.5518957047899
42
1.5616956978767
0
ELLIPSE
5
141
100
AcDbEntity
8
1
62
256
6
ByLayer
370
18
48
1
60
0
100
AcDbEllipse
10
35.150465
20
40.481337
30
0
11
-0.508022259791756
21
4.8335089305165
31
0
210
0
220
0
230
1
40
0.996195
41
-1.5616956978767
42
-1.5518957047899
0
ELLIPSE
5
142
100
AcDbEntity
8
1
62
256
6
ByLayer
370
18
48
1
60
0
100
AcDbEllipse
10
31.282581
20
29.643564
30
0
11
1.04528463267643
21
-9.94521895368278
31
0
210
0
220
0
230
1
40
0.996195
41
1.53588974175501
42
1.5518957047899
0
ELLIPSE
5
143
100
AcDbEntity
8
1
62
256
6
ByLayer
370
18
48
1
60
0
100
AcDbEllipse
10
30.207541
20
39.866796
30
0
11
-1.03066457613004
21
9.80611840735805
31
0
210
0
220
0
230
1
40
0.996195
41
-1.5518957047899
42
-1.53588974175502
0
ELLIPSE
5
144
100
AcDbEntity
8
1
62
256
6
ByLayer
370
18
48
1
60
0
100
AcDbEllipse
10
35.150995
20
40.481392
30
0
11
0.522642316338193
21
-4.97260947684119
31
0
210
0
220
0
230
1
40
0.996195
41
1.57989695571309
42
1.58969694879989
0
ELLIPSE
5
145
100
AcDbEntity
8
1
62
256
6
ByLayer
370
18
48
1
60
0
100
AcDbEllipse
10
31.282051
20
29.643508
30
0
11
-1.03066457613004
21
9.80611840735805
31
0
210
0
220
0
230
1
40
0.996195
41
-1.60570291183478
42
-1.58969694879989
0
ELLIPSE
5
146
100
AcDbEntity
8
1
62
256
6
ByLayer
370
18
48
1
60
0
100
AcDbEllipse
10
39.579686
20
41.18522
30
0
11
0.0522642316338214
21
-0.497260947684139
31
0
210
0
220
0
230
1
40
0.996195
41
1.60570291183479
42
1.83259571459399
0
ELLIPSE
5
147
100
AcDbEntity
8
1
62
256
6
ByLayer
370
18
48
1
60
0
100
AcDbEllipse
10
40.722979
20
30.302419
30
0
11
-0.0376441750873299
21
0.358160401359422
31
0
210
0
220
0
230
1
40
0.996195
41
-1.83259571459401
42
-1.60570291183477
0
ELLIPSE
5
148
100
AcDbEntity
8
1
62
256
6
ByLayer
370
18
48
1
60
0
100
AcDbEllipse
10
30.20807
20
39.866852
30
0
11
1.04528463267643
21
-9.94521895368278
31
0
210
0
220
0
230
1
40
0.996195
41
1.58969694879989
42
1.60570291183478
0
ELLIPSE
5
149
100
AcDbEntity
8
1
62
256
6
ByLayer
370
18
48
1
60
0
100
AcDbEllipse
10
39.579157
20
41.185164
30
0
11
-0.0376441750873299
21
0.358160401359422
31
0
210
0
220
0
230
1
40
0.996195
41
-1.53588974175498
42
-1.30899693899577
0
ELLIPSE
5
14A
100
AcDbEntity
8
1
62
256
6
ByLayer
370
18
48
1
60
0
100
AcDbEllipse
10
40.723509
20
30.302474
30
0
11
0.0522642316338214
21
-0.497260947684139
31
0
210
0
220
0
230
1
40
0.996195
41
1.30899693899577
42
1.535889741755
0
ELLIPSE
5
14B
100
AcDbEntity
8
1
62
256
6
ByLayer
370
18
48
1
60
0
100
AcDbEllipse
10
40.230963
20
30.380828
30
0
11
-0.0899084067211589
21
0.855421349043579
31
0
210
0
220
0
230
1
40
0.996195
41
-2.87979326579059
42
-1.83259571459405
0
ELLIPSE
5
14C
100
AcDbEntity
8
1
62
256
6
ByLayer
370
18
48
1
60
0
100
AcDbEllipse
10
40.231492
20
30.380884
30
0
11
0.104528463267641
21
-0.994521895368274
31
0
210
0
220
0
230
1
40
0.996195
41
0.261799387799108
42
1.30899693899573
0
ELLIPSE
5
14D
100
AcDbEntity
8
1
62
256
6
ByLayer
370
18
48
1
60
0
100
AcDbEllipse
10
39.114194
20
41.006172
30
0
11
-0.0899084067211589
21
0.855421349043579
31
0
210
0
220
0
230
1
40
0.996195
41
-1.30899693899574
42
-0.261799387799274
0
ELLIPSE
5
14E
100
AcDbEntity
8
1
62
256
6
ByLayer
370
18
48
1
60
0
100
AcDbEllipse
10
39.114724
20
41.006228
30
0
11
0.104528463267641
21
-0.994521895368274
31
0
210
0
220
0
230
1
40
0.996195
41
1.83259571459407
42
2.87979326579063
0
ELLIPSE
5
14F
100
AcDbEntity
8
1
62
256
6
ByLayer
370
18
48
1
60
0
100
AcDbEllipse
10
39.904476
20
32.027658
30
0
11
-1.03066457613002
21
9.80611840735786
31
0
210
0
220
0
230
1
40
0.996195
41
-0.00910062891819124
42
0
0
ELLIPSE
5
150
100
AcDbEntity
8
1
62
256
6
ByLayer
370
18
48
1
60
0
100
AcDbEllipse
10
39.426936
20
37.0048
30
0
11
-0.508022259791756
21
4.8335089305165
31
0
210
0
220
0
230
1
40
0.996195
41
-0.0189006220050091
42
-0.00910062891819817
0
ELLIPSE
5
151
100
AcDbEntity
8
1
62
256
6
ByLayer
370
18
48
1
60
0
100
AcDbEllipse
10
39.855863
20
32.023239
30
0
11
-1.03066457613004
21
9.80611840735805
31
0
210
0
220
0
230
1
40
0.996195
41
-0.0349065850398838
42
-0.0189006220050006
0
ELLIPSE
5
152
100
AcDbEntity
8
1
62
256
6
ByLayer
370
18
48
1
60
0
100
AcDbEllipse
10
39.191922
20
41.499965
30
0
11
-0.0376441750873299
21
0.358160401359422
31
0
210
0
220
0
230
1
40
0.996195
41
-0.261799387799357
42
-0.0349065850399244
0
ELLIPSE
5
153
100
AcDbEntity
8
1
62
256
6
ByLayer
370
18
48
1
60
0
100
AcDbEllipse
10
40.409657
20
29.913986
30
0
11
-0.0376441750873299
21
0.358160401359422
31
0
210
0
220
0
230
1
40
0.996195
41
-3.10668606854987
42
-2.8797932657906
0
ELLIPSE
5
154
100
AcDbEntity
8
1
62
256
6
ByLayer
370
18
48
1
60
0
100
AcDbEllipse
10
39.088768
20
39.321665
30
0
11
-1.03066457613004
21
9.80611840735805
31
0
210
0
220
0
230
1
40
0.996195
41
-3.12269203158479
42
-3.1066860685499
0
ELLIPSE
5
155
100
AcDbEntity
8
1
62
256
6
ByLayer
370
18
48
1
60
0
100
AcDbEllipse
10
39.704939
20
34.359784
30
0
11
-0.508022259791756
21
4.8335089305165
31
0
210
0
220
0
230
1
40
0.996195
41
-3.13249202467159
42
-3.12269203158479
0
ELLIPSE
5
156
100
AcDbEntity
8
1
62
256
6
ByLayer
370
18
48
1
60
0
100
AcDbEllipse
10
39.137237
20
39.327449
30
0
11
-1.03066457613002
21
9.80611840735786
31
0
210
0
220
0
230
1
40
0.996195
41
3.14159265358979
42
-3.13249202467161
0
ELLIPSE
5
157
100
AcDbEntity
8
1
62
256
6
ByLayer
370
18
48
1
60
0
100
AcDbEllipse
10
40.410187
20
29.914042
30
0
11
0.0522642316338214
21
-0.497260947684139
31
0
210
0
220
0
230
1
40
0.996195
41
0.0349065850398898
42
0.261799387798997
0
ELLIPSE
5
158
100
AcDbEntity
8
1
62
256
6
ByLayer
370
18
48
1
60
0
100
AcDbEllipse
10
39.192451
20
41.500021
30
0
11
0.0522642316338214
21
-0.497260947684139
31
0
210
0
220
0
230
1
40
0.996195
41
2.8797932657908
42
3.10668606855001
0
ELLIPSE
5
159
100
AcDbEntity
8
1
62
256
6
ByLayer
370
18
48
1
60
0
100
AcDbEllipse
10
39.089297
20
39.32172
30
0
11
1.04528463267643
21
-9.94521895368278
31
0
210
0
220
0
230
1
40
0.996195
41
0.0189006220049981
42
0.0349065850398898
0
ELLIPSE
5
15A
100
AcDbEntity
8
1
62
256
6
ByLayer
370
18
48
1
60
0
100
AcDbEllipse
10
39.856392
20
32.023294
30
0
11
1.04528463267643
21
-9.94521895368278
31
0
210
0
220
0
230
1
40
0.996195
41
3.1066860685499
42
3.1226920315848
0
ELLIPSE
5
15B
100
AcDbEntity
8
1
62
256
6
ByLayer
370
18
48
1
60
0
100
AcDbEllipse
10
39.705468
20
34.359839
30
0
11
0.522642316338193
21
-4.97260947684119
31
0
210
0
220
0
230
1
40
0.996195
41
0.00910062891819624
42
0.0189006220049931
0
ELLIPSE
5
15C
100
AcDbEntity
8
1
62
256
6
ByLayer
370
18
48
1
60
0
100
AcDbEllipse
10
39.905005
20
32.027714
30
0
11
1.04528463267643
21
-9.94521895368276
31
0
210
0
220
0
230
1
40
0.996195
41
3.1324920246716
42
3.14159265358979
0
ELLIPSE
5
15D
100
AcDbEntity
8
1
62
256
6
ByLayer
370
18
48
1
60
0
100
AcDbEllipse
10
39.427466
20
37.004856
30
0
11
0.522642316338193
21
-4.97260947684119
31
0
210
0
220
0
230
1
40
0.996195
41
3.12269203158479
42
3.1324920246716
0
ELLIPSE
5
15E
100
AcDbEntity
8
1
62
256
6
ByLayer
370
18
48
1
60
0
100
AcDbEllipse
10
39.137766
20
39.327504
30
0
11
1.04528463267643
21
-9.94521895368276
31
0
210
0
220
0
230
1
40
0.996195
41
0
42
0.00910062891819017
0
ELLIPSE
5
15F
100
AcDbEntity
8
1
62
256
6
ByLayer
370
18
48
1
60
0
100
AcDbEllipse
10
34.134898
20
31.739709
30
0
11
-0.0209056926535308
21
0.198904379073655
31
0
210
0
220
0
230
1
40
0.087156
41
-2.25487755858933
42
-1.5707963267949
0
ELLIPSE
5
160
100
AcDbEntity
8
1
62
256
6
ByLayer
370
18
48
1
60
0
100
AcDbEllipse
10
34.141781
20
31.840983
30
0
11
-0.0104528463267654
21
0.0994521895368271
31
0
210
0
220
0
230
1
40
0.996195
41
3.14159265358922
42
-0.168458242080642
0
ELLIPSE
5
161
100
AcDbEntity
8
1
62
256
6
ByLayer
370
18
48
1
60
0
100
AcDbEllipse
10
34.130751
20
31.938951
30
0
11
-0.0128650708014414
21
-0.19958579597074
31
0
210
0
220
0
230
1
40
0.085922
41
1.58546385301636
42
2.26954508481228
0
ELLIPSE
5
162
100
AcDbEntity
8
1
62
256
6
ByLayer
370
18
48
1
60
0
100
AcDbEllipse
10
33.471239
20
38.213792
30
0
11
-0.0540801584412009
21
0.192549568846504
31
0
210
0
220
0
230
1
40
0.085922
41
-2.26954508481249
42
-1.5854638530164
0
ELLIPSE
5
163
100
AcDbEntity
8
1
62
256
6
ByLayer
370
18
48
1
60
0
100
AcDbEllipse
10
33.461658
20
38.311913
30
0
11
0.0104528463267641
21
-0.0994521895368273
31
0
210
0
220
0
230
1
40
0.996195
41
0.168458242079552
42
-3.14159265358922
0
ELLIPSE
5
164
100
AcDbEntity
8
1
62
256
6
ByLayer
370
18
48
1
60
0
100
AcDbEllipse
10
33.43387
20
38.409543
30
0
11
0.0209056926535285
21
-0.198904379073655
31
0
210
0
220
0
230
1
40
0.087156
41
1.57079632679493
42
2.25487755859152
0
ELLIPSE
5
165
100
AcDbEntity
8
1
62
256
6
ByLayer
370
18
48
1
60
0
100
AcDbEllipse
10
34.349881
20
35.134062
30
0
11
0.334491082456456
21
-3.18247006517848
31
0
210
0
220
0
230
1
40
0.996195
41
-1.40233808471402
42
-0.168458242080893
0
ELLIPSE
5
166
100
AcDbEntity
8
1
62
256
6
ByLayer
370
18
48
1
60
0
100
AcDbEllipse
10
31.263146
20
34.270157
30
0
11
-0.192617575984814
21
-0.0538374351333206
31
0
210
0
220
0
230
1
40
0.014613
41
1.65683361369342
42
2.34091484549615
0
ELLIPSE
5
167
100
AcDbEntity
8
1
62
256
6
ByLayer
370
18
48
1
60
0
100
AcDbEllipse
10
31.150982
20
35.33732
30
0
11
-0.199601851976567
21
0.012613512101106
31
0
210
0
220
0
230
1
40
0.014613
41
-2.3409148454897
42
-1.65683361369391
0
ELLIPSE
5
168
100
AcDbEntity
8
1
62
256
6
ByLayer
370
18
48
1
60
0
100
AcDbEllipse
10
34.349881
20
35.134062
30
0
11
-0.334491082456493
21
3.18247006517848
31
0
210
0
220
0
230
1
40
0.996195
41
0.168458242080875
42
1.40233808471402
0
ELLIPSE
5
169
100
AcDbEntity
8
1
62
256
6
ByLayer
370
18
48
1
60
0
100
AcDbEllipse
10
30.857953
20
38.138803
30
0
11
-0.0209056926535308
21
0.198904379073655
31
0
210
0
220
0
230
1
40
0.087156
41
-1.57079632679497
42
-0.886715094998283
0
ELLIPSE
5
16A
100
AcDbEntity
8
1
62
256
6
ByLayer
370
18
48
1
60
0
100
AcDbEllipse
10
31.55898
20
31.468969
30
0
11
0.0209056926535285
21
-0.198904379073655
31
0
210
0
220
0
230
1
40
0.087156
41
0.886715095000479
42
1.57079632679497
0
ELLIPSE
5
16B
100
AcDbEntity
8
1
62
256
6
ByLayer
370
18
48
1
60
0
100
AcDbEllipse
10
31.184563
20
34.245039
30
0
11
-0.0104528463267653
21
0.0994521895368265
31
0
210
0
220
0
230
1
40
0.996195
41
-1.40233808471408
42
1.5707963267949
0
ELLIPSE
5
16C
100
AcDbEntity
8
1
62
256
6
ByLayer
370
18
48
1
60
0
100
AcDbEllipse
10
31.55541
20
31.669696
30
0
11
-0.0209056926535308
21
0.198904379073655
31
0
210
0
220
0
230
1
40
0.996195
41
1.57079632679493
42
-3.14159265358922
0
ELLIPSE
5
16D
100
AcDbEntity
8
1
62
256
6
ByLayer
370
18
48
1
60
0
100
AcDbEllipse
10
30.896194
20
37.941721
30
0
11
0.0209056926535285
21
-0.198904379073655
31
0
210
0
220
0
230
1
40
0.996195
41
3.14159265358979
42
-1.5707963267949
0
ELLIPSE
5
16E
100
AcDbEntity
8
1
62
256
6
ByLayer
370
18
48
1
60
0
100
AcDbEllipse
10
31.068894
20
35.345551
30
0
11
0.0104528463267642
21
-0.0994521895368266
31
0
210
0
220
0
230
1
40
0.996195
41
-1.5707963267949
42
1.40233808471387
0
ELLIPSE
5
16F
100
AcDbEntity
8
1
62
256
6
ByLayer
370
18
48
1
60
0
100
AcDbEllipse
10
28.85577
20
38.246823
30
0
11
-1.03066457613002
21
9.80611840735786
31
0
210
0
220
0
230
1
40
0.996195
41
3.1324920246716
42
3.14159265358979
0
ELLIPSE
5
170
100
AcDbEntity
8
1
62
256
6
ByLayer
370
18
48
1
60
0
100
AcDbEllipse
10
29.333309
20
33.269681
30
0
11
-0.508022259791756
21
4.8335089305165
31
0
210
0
220
0
230
1
40
0.996195
41
3.12269203158479
42
3.1324920246716
0
ELLIPSE
5
171
100
AcDbEntity
8
1
62
256
6
ByLayer
370
18
48
1
60
0
100
AcDbEllipse
10
28.904382
20
38.251243
30
0
11
-1.03066457613004
21
9.80611840735805
31
0
210
0
220
0
230
1
40
0.996195
41
3.10668606854991
42
3.1226920315848
0
ELLIPSE
5
172
100
AcDbEntity
8
1
62
256
6
ByLayer
370
18
48
1
60
0
100
AcDbEllipse
10
29.568324
20
28.774516
30
0
11
-0.0376441750873299
21
0.358160401359422
31
0
210
0
220
0
230
1
40
0.996195
41
2.87979326579092
42
3.10668606855003
0
ELLIPSE
5
173
100
AcDbEntity
8
1
62
256
6
ByLayer
370
18
48
1
60
0
100
AcDbEllipse
10
29.646051
20
29.268309
30
0
11
-0.0899084067211589
21
0.855421349043579
31
0
210
0
220
0
230
1
40
0.996195
41
1.83259571459407
42
2.87979326579066
0
ELLIPSE
5
174
100
AcDbEntity
8
1
62
256
6
ByLayer
370
18
48
1
60
0
100
AcDbEllipse
10
29.181089
20
29.089317
30
0
11
-0.0376441750873299
21
0.358160401359422
31
0
210
0
220
0
230
1
40
0.996195
41
1.60570291183482
42
1.83259571459407
0
ELLIPSE
5
175
100
AcDbEntity
8
1
62
256
6
ByLayer
370
18
48
1
60
0
100
AcDbEllipse
10
38.552705
20
30.407685
30
0
11
-1.03066457613004
21
9.80611840735805
31
0
210
0
220
0
230
1
40
0.996195
41
1.58969694879989
42
1.60570291183478
0
ELLIPSE
5
176
100
AcDbEntity
8
1
62
256
6
ByLayer
370
18
48
1
60
0
100
AcDbEllipse
10
33.60978
20
29.793145
30
0
11
-0.508022259791756
21
4.8335089305165
31
0
210
0
220
0
230
1
40
0.996195
41
1.57989695571309
42
1.58969694879989
0
ELLIPSE
5
177
100
AcDbEntity
8
1
62
256
6
ByLayer
370
18
48
1
60
0
100
AcDbEllipse
10
38.558506
20
30.35903
30
0
11
-1.03066457613002
21
9.80611840735786
31
0
210
0
220
0
230
1
40
0.996195
41
1.5707963267949
42
1.57989695571309
0
ELLIPSE
5
178
100
AcDbEntity
8
1
62
256
6
ByLayer
370
18
48
1
60
0
100
AcDbEllipse
10
37.473752
20
40.679771
30
0
11
-1.03066457613002
21
9.80611840735786
31
0
210
0
220
0
230
1
40
0.996195
41
1.56169569787671
42
1.5707963267949
0
ELLIPSE
5
179
100
AcDbEntity
8
1
62
256
6
ByLayer
370
18
48
1
60
0
100
AcDbEllipse
10
32.515514
20
40.204392
30
0
11
-0.508022259791756
21
4.8335089305165
31
0
210
0
220
0
230
1
40
0.996195
41
1.5518957047899
42
1.56169569787671
0
ELLIPSE
5
17A
100
AcDbEntity
8
1
62
256
6
ByLayer
370
18
48
1
60
0
100
AcDbEllipse
10
37.478194
20
40.630973
30
0
11
-1.03066457613004
21
9.80611840735805
31
0
210
0
220
0
230
1
40
0.996195
41
1.53588974175502
42
1.5518957047899
0
ELLIPSE
5
17B
100
AcDbEntity
8
1
62
256
6
ByLayer
370
18
48
1
60
0
100
AcDbEllipse
10
28.037266
20
39.972063
30
0
11
-0.0376441750873299
21
0.358160401359422
31
0
210
0
220
0
230
1
40
0.996195
41
1.30899693899582
42
1.535889741755
0
ELLIPSE
5
17C
100
AcDbEntity
8
1
62
256
6
ByLayer
370
18
48
1
60
0
100
AcDbEllipse
10
28.529282
20
39.893653
30
0
11
-0.0899084067211589
21
0.855421349043579
31
0
210
0
220
0
230
1
40
0.996195
41
0.261799387799207
42
1.30899693899576
0
ELLIPSE
5
17D
100
AcDbEntity
8
1
62
256
6
ByLayer
370
18
48
1
60
0
100
AcDbEllipse
10
28.350588
20
40.360495
30
0
11
-0.0376441750873299
21
0.358160401359422
31
0
210
0
220
0
230
1
40
0.996195
41
0.034906585039766
42
0.26179938779905
0
ELLIPSE
5
17E
100
AcDbEntity
8
1
62
256
6
ByLayer
370
18
48
1
60
0
100
AcDbEllipse
10
29.671478
20
30.952817
30
0
11
-1.03066457613004
21
9.80611840735805
31
0
210
0
220
0
230
1
40
0.996195
41
0.018900622005001
42
0.0349065850398849
0
ELLIPSE
5
17F
100
AcDbEntity
8
1
62
256
6
ByLayer
370
18
48
1
60
0
100
AcDbEllipse
10
29.055307
20
35.914698
30
0
11
-0.508022259791756
21
4.8335089305165
31
0
210
0
220
0
230
1
40
0.996195
41
0.0091006289181967
42
0.0189006220049871
0
ELLIPSE
5
180
100
AcDbEntity
8
1
62
256
6
ByLayer
370
18
48
1
60
0
100
AcDbEllipse
10
29.623009
20
30.947032
30
0
11
-1.03066457613002
21
9.80611840735786
31
0
210
0
220
0
230
1
40
0.996195
41
0
42
0.00910062891820209
0
ELLIPSE
5
181
100
AcDbEntity
8
1
62
256
6
ByLayer
370
18
48
1
60
0
100
AcDbEllipse
10
29.623538
20
30.947088
30
0
11
1.04528463267643
21
-9.94521895368276
31
0
210
0
220
0
230
1
40
0.996195
41
3.14159265358979
42
-3.1324920246716
0
ELLIPSE
5
182
100
AcDbEntity
8
1
62
256
6
ByLayer
370
18
48
1
60
0
100
AcDbEllipse
10
29.055836
20
35.914753
30
0
11
0.522642316338193
21
-4.97260947684119
31
0
210
0
220
0
230
1
40
0.996195
41
-3.1324920246716
42
-3.12269203158479
0
ELLIPSE
5
183
100
AcDbEntity
8
1
62
256
6
ByLayer
370
18
48
1
60
0
100
AcDbEllipse
10
28.856299
20
38.246879
30
0
11
1.04528463267643
21
-9.94521895368276
31
0
210
0
220
0
230
1
40
0.996195
41
-0.00910062891818589
42
4.99279674192371E-15
0
ELLIPSE
5
184
100
AcDbEntity
8
1
62
256
6
ByLayer
370
18
48
1
60
0
100
AcDbEllipse
10
28.904912
20
38.251298
30
0
11
1.04528463267643
21
-9.94521895368278
31
0
210
0
220
0
230
1
40
0.996195
41
-0.0349065850398912
42
-0.0189006220049881
0
ELLIPSE
5
185
100
AcDbEntity
8
1
62
256
6
ByLayer
370
18
48
1
60
0
100
AcDbEllipse
10
29.333839
20
33.269737
30
0
11
0.522642316338193
21
-4.97260947684119
31
0
210
0
220
0
230
1
40
0.996195
41
-0.0189006220049931
42
-0.00910062891820907
0
ELLIPSE
5
186
100
AcDbEntity
8
1
62
256
6
ByLayer
370
18
48
1
60
0
100
AcDbEllipse
10
29.672007
20
30.952872
30
0
11
1.04528463267643
21
-9.94521895368278
31
0
210
0
220
0
230
1
40
0.996195
41
-3.1226920315848
42
-3.10668606854992
0
ELLIPSE
5
187
100
AcDbEntity
8
1
62
256
6
ByLayer
370
18
48
1
60
0
100
AcDbEllipse
10
28.351118
20
40.360551
30
0
11
0.0522642316338214
21
-0.497260947684139
31
0
210
0
220
0
230
1
40
0.996195
41
-3.10668606855001
42
-2.87979326579069
0
ELLIPSE
5
188
100
AcDbEntity
8
1
62
256
6
ByLayer
370
18
48
1
60
0
100
AcDbEllipse
10
29.64658
20
29.268364
30
0
11
0.104528463267641
21
-0.994521895368274
31
0
210
0
220
0
230
1
40
0.996195
41
-1.30899693899576
42
-0.261799387799223
0
ELLIPSE
5
189
100
AcDbEntity
8
1
62
256
6
ByLayer
370
18
48
1
60
0
100
AcDbEllipse
10
29.568853
20
28.774572
30
0
11
0.0522642316338214
21
-0.497260947684139
31
0
210
0
220
0
230
1
40
0.996195
41
-0.261799387799108
42
-0.0349065850401181
0
ELLIPSE
5
18A
100
AcDbEntity
8
1
62
256
6
ByLayer
370
18
48
1
60
0
100
AcDbEllipse
10
28.529812
20
39.893709
30
0
11
0.104528463267641
21
-0.994521895368274
31
0
210
0
220
0
230
1
40
0.996195
41
-2.87979326579063
42
-1.83259571459406
0
ELLIPSE
5
18B
100
AcDbEntity
8
1
62
256
6
ByLayer
370
18
48
1
60
0
100
AcDbEllipse
10
29.181618
20
29.089373
30
0
11
0.0522642316338214
21
-0.497260947684139
31
0
210
0
220
0
230
1
40
0.996195
41
-1.53588974175501
42
-1.30899693899577
0
ELLIPSE
5
18C
100
AcDbEntity
8
1
62
256
6
ByLayer
370
18
48
1
60
0
100
AcDbEllipse
10
28.037795
20
39.972118
30
0
11
0.0522642316338214
21
-0.497260947684139
31
0
210
0
220
0
230
1
40
0.996195
41
-1.83259571459402
42
-1.6057029118348
0
ELLIPSE
5
18D
100
AcDbEntity
8
1
62
256
6
ByLayer
370
18
48
1
60
0
100
AcDbEllipse
10
38.553234
20
30.407741
30
0
11
1.04528463267643
21
-9.94521895368278
31
0
210
0
220
0
230
1
40
0.996195
41
-1.5518957047899
42
-1.53588974175501
0
ELLIPSE
5
18E
100
AcDbEntity
8
1
62
256
6
ByLayer
370
18
48
1
60
0
100
AcDbEllipse
10
37.478723
20
40.631028
30
0
11
1.04528463267643
21
-9.94521895368278
31
0
210
0
220
0
230
1
40
0.996195
41
-1.60570291183478
42
-1.5896969487999
0
ELLIPSE
5
18F
100
AcDbEntity
8
1
62
256
6
ByLayer
370
18
48
1
60
0
100
AcDbEllipse
10
33.61031
20
29.7932
30
0
11
0.522642316338193
21
-4.97260947684119
31
0
210
0
220
0
230
1
40
0.996195
41
-1.56169569787671
42
-1.5518957047899
0
ELLIPSE
5
190
100
AcDbEntity
8
1
62
256
6
ByLayer
370
18
48
1
60
0
100
AcDbEllipse
10
32.516043
20
40.204448
30
0
11
0.522642316338193
21
-4.97260947684119
31
0
210
0
220
0
230
1
40
0.996195
41
-1.5896969487999
42
-1.57989695571309
0
ELLIPSE
5
191
100
AcDbEntity
8
1
62
256
6
ByLayer
370
18
48
1
60
0
100
AcDbEllipse
10
38.559035
20
30.359085
30
0
11
1.04528463267643
21
-9.94521895368276
31
0
210
0
220
0
230
1
40
0.996195
41
-1.5707963267949
42
-1.56169569787671
0
ELLIPSE
5
192
100
AcDbEntity
8
1
62
256
6
ByLayer
370
18
48
1
60
0
100
AcDbEllipse
10
34.467063
20
35.146378
30
0
11
-0.112305380934767
21
1.06851432438367
31
0
210
0
220
0
230
1
40
0.996195
41
-1.8989938501937
42
-1.22592464552863
0
ELLIPSE
5
193
100
AcDbEntity
8
1
62
256
6
ByLayer
370
18
48
1
60
0
100
AcDbEllipse
10
30.632259
20
29.911857
30
0
11
-0.219509772862073
21
2.08849598027337
31
0
210
0
220
0
230
1
40
0.996195
41
2.29352258137512
42
3.00314238031093
0
ELLIPSE
5
194
100
AcDbEntity
8
1
62
256
6
ByLayer
370
18
48
1
60
0
100
AcDbEllipse
10
30.632259
20
29.911857
30
0
11
-0.219509772862073
21
2.08849598027337
31
0
210
0
220
0
230
1
40
0.996195
41
1.57079632679491
42
1.812711185921
0
ELLIPSE
5
195
100
AcDbEntity
8
1
62
256
6
ByLayer
370
18
48
1
60
0
100
AcDbEllipse
10
30.645261
20
29.913224
30
0
11
0.203830503371905
21
-1.93931769596816
31
0
210
0
220
0
230
1
40
0.996195
41
-0.677688599544644
42
0.111010830623241
0
ELLIPSE
5
196
100
AcDbEntity
8
1
62
256
6
ByLayer
370
18
48
1
60
0
100
AcDbEllipse
10
34.467063
20
35.146378
30
0
11
-0.112305380934767
21
1.06851432438367
31
0
210
0
220
0
230
1
40
0.996195
41
-0.782387088380263
42
-1.0621841808156E-13
0
ELLIPSE
5
197
100
AcDbEntity
8
1
62
256
6
ByLayer
370
18
48
1
60
0
100
AcDbEllipse
10
34.416881
20
35.141104
30
0
11
-0.264604505792555
21
2.51754370433981
31
0
210
0
220
0
230
1
40
0.996195
41
0
42
6.28318530717959
0
ELLIPSE
5
198
100
AcDbEntity
8
1
62
256
6
ByLayer
370
18
48
1
60
0
100
AcDbEllipse
10
34.355931
20
35.134698
30
0
11
0.250868311842342
21
-2.38685254888386
31
0
210
0
220
0
230
1
40
0.996195
41
0
42
6.28318530717959
0
ELLIPSE
5
199
100
AcDbEntity
8
1
62
256
6
ByLayer
370
18
48
1
60
0
100
AcDbEllipse
10
34.350047
20
35.13408
30
0
11
0.156792694901463
21
-1.49178284305241
31
0
210
0
220
0
230
1
40
0.996195
41
0
42
6.28318530717959
0
ELLIPSE
5
19A
100
AcDbEntity
8
1
62
256
6
ByLayer
370
18
48
1
60
0
100
AcDbEllipse
10
34.350047
20
35.13408
30
0
11
-0.147353774668412
21
1.40197751590065
31
0
210
0
220
0
230
1
40
0.996195
41
-1.5707963267949
42
-0.523598775598328
0
ELLIPSE
5
19B
100
AcDbEntity
8
1
62
256
6
ByLayer
370
18
48
1
60
0
100
AcDbEllipse
10
34.350047
20
35.13408
30
0
11
-0.147353774668412
21
1.40197751590065
31
0
210
0
220
0
230
1
40
0.996195
41
-2.61799387799151
42
-1.5707963267949
0
ELLIPSE
5
19C
100
AcDbEntity
8
1
62
256
6
ByLayer
370
18
48
1
60
0
100
AcDbEllipse
10
34.350047
20
35.13408
30
0
11
-0.147353774668412
21
1.40197751590065
31
0
210
0
220
0
230
1
40
0.996195
41
-0.523598775598328
42
0.523598775598254
0
ELLIPSE
5
19D
100
AcDbEntity
8
1
62
256
6
ByLayer
370
18
48
1
60
0
100
AcDbEllipse
10
34.350047
20
35.13408
30
0
11
-0.147353774668412
21
1.40197751590065
31
0
210
0
220
0
230
1
40
0.996195
41
0.523598775598254
42
1.57079632679489
0
ELLIPSE
5
19E
100
AcDbEntity
8
1
62
256
6
ByLayer
370
18
48
1
60
0
100
AcDbEllipse
10
34.350047
20
35.13408
30
0
11
-0.147353774668412
21
1.40197751590065
31
0
210
0
220
0
230
1
40
0.996195
41
1.57079632679489
42
2.61799387799146
0
ELLIPSE
5
19F
100
AcDbEntity
8
1
62
256
6
ByLayer
370
18
48
1
60
0
100
AcDbEllipse
10
34.350047
20
35.13408
30
0
11
-0.147353774668412
21
1.40197751590065
31
0
210
0
220
0
230
1
40
0.996195
41
2.61799387799146
42
-2.61799387799151
0
ELLIPSE
5
1A0
100
AcDbEntity
8
1
62
256
6
ByLayer
370
18
48
1
60
0
100
AcDbEllipse
10
34.467063
20
35.146378
30
0
11
0.112305380934755
21
-1.06851432438367
31
0
210
0
220
0
230
1
40
0.996195
41
0
42
0.78101252770087
0
ELLIPSE
5
1A1
100
AcDbEntity
8
1
62
256
6
ByLayer
370
18
48
1
60
0
100
AcDbEllipse
10
34.467063
20
35.146378
30
0
11
-0.112305380934767
21
1.06851432438367
31
0
210
0
220
0
230
1
40
0.996195
41
2.09439510239319
42
-3.14159265358974
0
ELLIPSE
5
1A2
100
AcDbEntity
8
1
62
256
6
ByLayer
370
18
48
1
60
0
100
AcDbEllipse
10
34.467063
20
35.146378
30
0
11
-0.112305380934767
21
1.06851432438367
31
0
210
0
220
0
230
1
40
0.996195
41
1.04719755119661
42
2.09439510239318
0
ELLIPSE
5
1A3
100
AcDbEntity
8
1
62
256
6
ByLayer
370
18
48
1
60
0
100
AcDbEllipse
10
34.467063
20
35.146378
30
0
11
-0.112305380934767
21
1.06851432438367
31
0
210
0
220
0
230
1
40
0.996195
41
0.128313614159224
42
1.04719755119663
0
ELLIPSE
5
1A4
100
AcDbEntity
8
1
62
256
6
ByLayer
370
18
48
1
60
0
100
AcDbEllipse
10
30.031883
20
30.100132
30
0
11
0.219509772862047
21
-2.08849598027336
31
0
210
0
220
0
230
1
40
0.996195
41
-2.35619449019232
42
-1.57079632679489
0
ELLIPSE
5
1A5
100
AcDbEntity
8
1
62
256
6
ByLayer
370
18
48
1
60
0
100
AcDbEllipse
10
30.058016
20
29.851502
30
0
11
0.219509772862049
21
-2.08849598027339
31
0
210
0
220
0
230
1
40
0.996195
41
-1.5707963267949
42
0.758007146177024
0
ELLIPSE
5
1A6
100
AcDbEntity
8
1
62
256
6
ByLayer
370
18
48
1
60
0
100
AcDbEllipse
10
30.606127
20
30.160487
30
0
11
-0.219509772862071
21
2.08849598027336
31
0
210
0
220
0
230
1
40
0.996195
41
1.33039131860738
42
1.5707963267949
0
ELLIPSE
5
1A7
100
AcDbEntity
8
1
62
256
6
ByLayer
370
18
48
1
60
0
100
AcDbEllipse
10
37.474282
20
40.679826
30
0
11
1.04528463267643
21
-9.94521895368276
31
0
210
0
220
0
230
1
40
0.996195
41
-1.57989695571309
42
-1.5707963267949
0
ELLIPSE
5
1A8
100
AcDbEntity
8
1
62
256
6
ByLayer
370
18
48
1
60
0
100
AcDbEllipse
10
34.428058
20
35.142279
30
0
11
0.250868311842342
21
-2.38685254888386
31
0
210
0
220
0
230
1
40
0.996195
41
0
42
3.14149413072531
0
ELLIPSE
5
1A9
100
AcDbEntity
8
1
62
256
6
ByLayer
370
18
48
1
60
0
100
AcDbEllipse
10
35.194801
20
34.141251
30
0
11
0.265509374245882
21
0.194045260686876
31
0
210
0
220
0
230
-1
40
0.509152
41
2.52890196913082
42
-2.92850617208828
0
ELLIPSE
5
1AA
100
AcDbEntity
8
1
62
256
6
ByLayer
370
18
48
1
60
0
100
AcDbEllipse
10
34.96992
20
36.280846
30
0
11
0.300051635635526
21
-0.134602403247201
31
0
210
0
220
0
230
-1
40
0.509152
41
2.92850617208841
42
-2.43486252013292
0
ELLIPSE
5
1AB
100
AcDbEntity
8
1
62
256
6
ByLayer
370
18
48
1
60
0
100
AcDbEllipse
10
33.964206
20
34.011911
30
0
11
0.300051635635542
21
-0.134602403247218
31
0
210
0
220
0
230
-1
40
0.509152
41
0.706729114783545
42
-2.93304503394676
0
ELLIPSE
5
1AC
100
AcDbEntity
8
1
62
256
6
ByLayer
370
18
48
1
60
0
100
AcDbEllipse
10
33.739325
20
36.151505
30
0
11
0.2655093742459
21
0.194045260686856
31
0
210
0
220
0
230
-1
40
0.509152
41
2.93304503394649
42
-0.612689599861611
0
ELLIPSE
5
1AD
100
AcDbEntity
8
1
62
256
6
ByLayer
370
18
48
1
60
0
100
AcDbEllipse
10
34.337239
20
36.381575
30
0
11
0.326745207483319
21
0.0343423051584497
31
0
210
0
220
0
230
-1
40
0.510128
41
0.317077564753995
42
1.5707963267949
0
ELLIPSE
5
1AE
100
AcDbEntity
8
1
62
256
6
ByLayer
370
18
48
1
60
0
100
AcDbEllipse
10
34.596887
20
33.911182
30
0
11
0.326745207485902
21
0.0343423051620601
31
0
210
0
220
0
230
-1
40
0.510128
41
-1.5707963267949
42
-0.317077564752438
0
ELLIPSE
5
1AF
100
AcDbEntity
8
1
62
256
6
ByLayer
370
18
48
1
60
0
100
AcDbEllipse
10
33.236468
20
35.017038
30
0
11
0.0344734871856561
21
-0.327993321092447
31
0
210
0
220
0
230
-1
40
0.506253
41
0.210864849217036
42
2.72650604461439
0
ELLIPSE
5
1B0
100
AcDbEntity
8
1
62
256
6
ByLayer
370
18
48
1
60
0
100
AcDbEllipse
10
33.466335
20
34.416777
30
0
11
0.192922535712366
21
-0.267100713769294
31
0
210
0
220
0
230
-1
40
0.507214
41
-2.82676989002684
42
-1.57305112799823
0
ELLIPSE
5
1B1
100
AcDbEntity
8
1
62
256
6
ByLayer
370
18
48
1
60
0
100
AcDbEllipse
10
33.466335
20
34.416777
30
0
11
0.192922535710698
21
-0.267100713765102
31
0
210
0
220
0
230
-1
40
0.507214
41
-1.57305112799168
42
-0.3193323659479
0
ELLIPSE
5
1B2
100
AcDbEntity
8
1
62
256
6
ByLayer
370
18
48
1
60
0
100
AcDbEllipse
10
33.33651
20
35.651973
30
0
11
0.133173354405909
21
0.301374772913136
31
0
210
0
220
0
230
-1
40
0.507214
41
0.319332365953275
42
1.57305112802874
0
ELLIPSE
5
1B3
100
AcDbEntity
8
1
62
256
6
ByLayer
370
18
48
1
60
0
100
AcDbEllipse
10
33.33651
20
35.651973
30
0
11
0.133173354417282
21
0.301374772913229
31
0
210
0
220
0
230
-1
40
0.507214
41
1.57305112796114
42
2.82676989001825
0
ELLIPSE
5
1B4
100
AcDbEntity
8
1
62
256
6
ByLayer
370
18
48
1
60
0
100
AcDbEllipse
10
41.3
20
21.5
30
0
11
4.9495926053681
21
0.708189900715832
31
0
210
0
220
0
230
-1
40
1
41
-1.60982683519801
42
-1.53649417120206
0
ELLIPSE
5
1B5
100
AcDbEntity
8
1
62
256
6
ByLayer
370
18
48
1
60
0
100
AcDbEllipse
10
20.645036
20
-0.003697
30
0
11
3.11707570268344
21
-6.85472478138594E-07
31
0
210
0
220
0
230
-1
40
0.001446
41
-2.00728067070415
42
-1.48368189510806
0
POINT
5
6C
100
AcDbEntity
8
81
62
256
6
ByLayer
370
13
48
1
60
0
100
AcDbPoint
10
40
20
42
30
0
39
0
210
0
220
0
230
1
50
360
0
POINT
5
6E
100
AcDbEntity
8
80
62
256
6
ByLayer
370
13
48
1
60
0
100
AcDbPoint
10
0
20
0
30
0
39
0
210
0
220
0
230
1
50
360
0
SPLINE
5
1B6
100
AcDbEntity
8
SK1
62
256
6
ByLayer
370
18
48
1
60
0
100
AcDbSpline
70
4
71
3
72
50
73
46
40
0
40
0
40
0
40
0
40
0.0108739079698778
40
0.0343883874184808
40
0.0578994295413426
40
0.0814275435731089
40
0.104992154878939
40
0.12860958809828
40
0.152292063508582
40
0.176047160615667
40
0.199877782594958
40
0.223782584651981
40
0.247756763708176
40
0.271793061698572
40
0.295882821600325
40
0.32001695536024
40
0.344186726603767
40
0.368384302888074
40
0.392603077832653
40
0.416837794184069
40
0.441084513121722
40
0.465340476126336
40
0.489603898647933
40
0.513873724396131
40
0.538149358704724
40
0.562430266918257
40
0.586715841173377
40
0.611005002080368
40
0.635295898550369
40
0.659585627088144
40
0.683869976393831
40
0.7081432257471
40
0.732398038509124
40
0.756625503332132
40
0.780815380237975
40
0.80495660007457
40
0.829038038070011
40
0.853049533694676
40
0.876983066489135
40
0.900833937124951
40
0.924601766243687
40
0.948291127977577
40
0.971911684190871
40
0.994199066150023
40
1
40
1
40
1
40
1
41
1
10
16.519270724657
20
-9.34076096551698
30
0
41
1
10
16.5141652560551
20
-9.41768301400239
30
0
41
1
10
16.5043418164501
20
-9.66088511040508
30
0
41
1
10
16.5291637187787
20
-10.0711955779632
30
0
41
1
10
16.5967507552569
20
-10.5678087915976
30
0
41
1
10
16.7096297536187
20
-11.0588181500558
30
0
41
1
10
16.8649270936988
20
-11.5415425357017
30
0
41
1
10
17.0624512906758
20
-12.0134849578599
30
0
41
1
10
17.3010536901308
20
-12.472128250784
30
0
41
1
10
17.5795828017517
20
-12.9149890050053
30
0
41
1
10
17.8966048870864
20
-13.3396155275204
30
0
41
1
10
18.2504617636065
20
-13.743612355599
30
0
41
1
10
18.6392480244599
20
-14.1246661556422
30
0
41
1
10
19.0608222776989
20
-14.4805753225035
30
0
41
1
10
19.5128211943786
20
-14.8092779043467
30
0
41
1
10
19.9926823195815
20
-15.1088753649303
30
0
41
1
10
20.4976704682274
20
-15.3776504425514
30
0
41
1
10
21.0249054306244
20
-15.6140788458456
30
0
41
1
10
21.5713886197033
20
-15.8168355020715
30
0
41
1
10
22.1340273742237
20
-15.9847966366613
30
0
41
1
10
22.7096563885187
20
-16.1170390847666
30
0
41
1
10
23.2950563382215
20
-16.2128380733977
30
0
41
1
10
23.88697009305
20
-16.2716644203407
30
0
41
1
10
24.4821170233008
20
-16.293181797518
30
0
41
1
10
25.077204878575
20
-16.2772444977928
30
0
41
1
10
25.6689419325496
20
-16.223896244349
30
0
41
1
10
26.2540477082742
20
-16.1333699655843
30
0
41
1
10
26.8292644151204
20
-16.0060886194134
30
0
41
1
10
27.3913674557683
20
-15.8426675602608
30
0
41
1
10
27.9371776617644
20
-15.6439181463223
30
0
41
1
10
28.4635751252652
20
-15.41085246043
30
0
41
1
10
28.9675153576469
20
-15.1446887762308
30
0
41
1
10
29.4460486521719
20
-14.8468569864032
30
0
41
1
10
29.8963433863392
20
-14.5190026967507
30
0
41
1
10
30.3157135546478
20
-14.1629881752757
30
0
41
1
10
30.7016500162633
20
-13.780887986578
30
0
41
1
10
31.051853825659
20
-13.374977240858
30
0
41
1
10
31.3642688325988
20
-12.9477108724787
30
0
41
1
10
31.6371098064239
20
-12.5016942930801
30
0
41
1
10
31.8688823481868
20
-12.0396451947464
30
0
41
1
10
32.0583911143063
20
-11.5643566558456
30
0
41
1
10
32.2047369092282
20
-11.0786408419399
30
0
41
1
10
32.3054469459964
20
-10.5942513820876
30
0
41
1
10
32.3490352015362
20
-10.2300725349167
30
0
41
1
10
32.3622251499303
20
-10.0316557072929
30
0
41
1
10
32.3645038893443
20
-9.99063666271164
30
0
0
SPLINE
5
1B7
100
AcDbEntity
8
1
62
256
6
ByLayer
370
18
48
1
60
0
100
AcDbSpline
70
4
71
3
72
20
73
16
40
0
40
0
40
0
40
0
40
0.332431012821212
40
0.664862025642424
40
0.83107753205303
40
0.914185285258333
40
0.955739161860984
40
0.97651610016231
40
0.986255289991056
40
0.995690130137654
40
0.995994479819803
40
0.996643759141719
40
0.997293038463636
40
0.999890155751301
40
1
40
1
40
1
40
1
41
1
10
40.5129195059392
20
35.7818235347521
30
0
41
1
10
40.4606544306394
20
36.2790925093828
30
0
41
1
10
40.3561242800395
20
37.2736304586442
30
0
41
1
10
40.2254670096484
20
38.516803485443
30
0
41
1
10
40.1339895832269
20
39.3870227154915
30
0
41
1
10
40.0882779593094
20
39.8221352816262
30
0
41
1
10
40.0653799896381
20
40.0396869720279
30
0
41
1
10
40.0540926907315
20
40.1474980822143
30
0
41
1
10
40.0478135175067
20
40.2072591952125
30
0
41
1
10
40.0447427787309
20
40.2363951492719
30
0
41
1
10
40.0431018869369
20
40.251933984538
30
0
41
1
10
40.0428486543351
20
40.254331573087
30
0
41
1
10
40.0422256799598
20
40.260157783158
30
0
41
1
10
40.0416569056251
20
40.2651736526392
30
0
41
1
10
40.0411803957063
20
40.2692171814218
30
0
41
1
10
40.0411610318396
20
40.2693812583362
30
0
0
SPLINE
5
1B8
100
AcDbEntity
8
1
62
256
6
ByLayer
370
18
48
1
60
0
100
AcDbSpline
70
4
71
3
72
21
73
17
40
0
40
0
40
0
40
0
40
0.0592792738438798
40
0.122239377580443
40
0.185199481317005
40
0.248159585053571
40
0.311119688790136
40
0.374079792526698
40
0.499999999999825
40
0.625920207472953
40
0.75184041494608
40
0.814800518682644
40
0.877760622419208
40
0.909240674287489
40
0.940720726155771
40
1
40
1
40
1
40
1
41
1
10
30.1667892617134
20
38.3946719262711
30
0
41
1
10
30.1663707720443
20
38.3992008133102
30
0
41
1
10
30.165762927993
20
38.4081836336001
30
0
41
1
10
30.1661484007677
20
38.4212669697046
30
0
41
1
10
30.1678898261375
20
38.4356016896286
30
0
41
1
10
30.171079156627
20
38.4502999696125
30
0
41
1
10
30.1758160060119
20
38.4647340165099
30
0
41
1
10
30.1841687624933
20
38.48343409096
30
0
41
1
10
30.1983795007375
20
38.505424811441
30
0
41
1
10
30.2205457634145
20
38.5276567807366
30
0
41
1
10
30.2418611719156
20
38.541631443564
30
0
41
1
10
30.2600719047957
20
38.5498818230809
30
0
41
1
10
30.2714092850979
20
38.5537904899561
30
0
41
1
10
30.2801363945225
20
38.556152376755
30
0
41
1
10
30.2886307799956
20
38.5579982004749
30
0
41
1
10
30.2952229811256
20
38.558941707243
30
0
41
1
10
30.2997226761422
20
38.5594723794864
30
0
0
SPLINE
5
1B9
100
AcDbEntity
8
1
62
256
6
ByLayer
370
18
48
1
60
0
100
AcDbSpline
70
4
71
3
72
46
73
42
40
0
40
0
40
0
40
0
40
0.0002356819181292
40
0.0012435088516794
40
0.0022513357852297
40
0.0026922600686579
40
0.0093061243200816
40
0.0163609128549335
40
0.0324861437917379
40
0.0486113747285423
40
0.0647366056653466
40
0.0687679133995477
40
0.0707835672666483
40
0.0727992211337488
40
0.0768305288679499
40
0.0788461827350505
40
0.080861836602151
40
0.0848931443363521
40
0.0889244520705532
40
0.0969870675389554
40
0.129237529412564
40
0.161487991286173
40
0.193738453159782
40
0.209863684096586
40
0.217926299564988
40
0.219941953432089
40
0.221957607299189
40
0.22296543423274
40
0.22397326116629
40
0.22598891503339
40
0.226492828500166
40
0.226996741966941
40
0.227232951404492
40
0.234555443968568
40
0.242114145970195
40
0.258239376906999
40
0.290489838780608
40
0.354990762527825
40
0.48399261002226
40
0.74199630501113
40
1
40
1
40
1
40
1
41
1
10
30.2997226761422
20
38.5594723794864
30
0
41
1
10
30.3000020758523
20
38.5595053305353
30
0
41
1
10
30.3014801959678
20
38.5596774465342
30
0
41
1
10
30.3041948613927
20
38.5599735930425
30
0
41
1
10
30.3071904474444
20
38.5602833315493
30
0
41
1
10
30.3170189380448
20
38.5613011826892
30
0
41
1
10
30.3341925736906
20
38.5630929352882
30
0
41
1
10
30.3704011729155
20
38.5668986124198
30
0
41
1
10
30.4181689655509
20
38.571919209735
30
0
41
1
10
30.4769600949479
20
38.5780984064307
30
0
41
1
10
30.5210534419957
20
38.5827328039525
30
0
41
1
10
30.5479993763029
20
38.5855649357713
30
0
41
1
10
30.557797897869
20
38.5865948018874
30
0
41
1
10
30.5675964194352
20
38.5876246680033
30
0
41
1
10
30.5773949410013
20
38.5886545341192
30
0
41
1
10
30.5871934625676
20
38.5896844002351
30
0
41
1
10
30.5969919841339
20
38.5907142663511
30
0
41
1
10
30.6092401360916
20
38.592001598996
30
0
41
1
10
30.6288371792239
20
38.594061331228
30
0
41
1
10
30.6827290478379
20
38.5997255948656
30
0
41
1
10
30.7709157419336
20
38.6089943899092
30
0
41
1
10
30.888498000728
20
38.6213527833006
30
0
41
1
10
30.9864832163898
20
38.6316514444601
30
0
41
1
10
31.0550728673532
20
38.6388605072717
30
0
41
1
10
31.0869180624433
20
38.6422075721486
30
0
41
1
10
31.1016158447926
20
38.6437523713224
30
0
41
1
10
31.1077399207713
20
38.6443960376449
30
0
41
1
10
31.1126391815545
20
38.6449109707029
30
0
41
1
10
31.1175384423376
20
38.6454259037608
30
0
41
1
10
31.1218252955227
20
38.6458764701866
30
0
41
1
10
31.1254997411102
20
38.64626266998
30
0
41
1
10
31.1270116223675
20
38.6464215751034
30
0
41
1
10
31.1368101439336
20
38.6474514412195
30
0
41
1
10
31.1551823718703
20
38.6493824401869
30
0
41
1
10
31.1928645768777
20
38.6533429995272
30
0
41
1
10
31.2608418202432
20
38.6604876957066
30
0
41
1
10
31.3980211221699
20
38.67490582133
30
0
41
1
10
31.6723797260231
20
38.7037420725765
30
0
41
1
10
32.2210969337298
20
38.7614145750696
30
0
41
1
10
33.004978659025
20
38.8438038643456
30
0
41
1
10
33.6320840392611
20
38.9097152957662
30
0
41
1
10
33.9456367293792
20
38.9426710114766
30
0
0
SPLINE
5
1BA
100
AcDbEntity
8
1
62
256
6
ByLayer
370
18
48
1
60
0
100
AcDbSpline
70
4
71
3
72
42
73
38
40
0
40
0
40
0
40
0
40
0.258003694988871
40
0.516007389977743
40
0.645009237472179
40
0.709510161219397
40
0.741760623093006
40
0.749823238561408
40
0.75788585402981
40
0.765444556031437
40
0.769223907032251
40
0.773003258033064
40
0.773507171499839
40
0.774011084966615
40
0.776026738833715
40
0.778042392700816
40
0.782073700435017
40
0.790136315903419
40
0.806261546840224
40
0.838512008713832
40
0.870762470587442
40
0.90301293246105
40
0.911075547929453
40
0.915106855663654
40
0.919138163397855
40
0.923169471132056
40
0.927200778866257
40
0.931232086600458
40
0.935263394334659
40
0.951388625271464
40
0.967513856208268
40
0.983639087145073
40
0.990693875679925
40
0.997748664214777
40
0.998756491148327
40
0.999764318081877
40
1
40
1
40
1
40
1
41
1
10
33.9456367293792
20
38.9426710114766
30
0
41
1
10
34.2591894194973
20
38.975626727187
30
0
41
1
10
34.8862947997335
20
39.0415381586076
30
0
41
1
10
35.6701765250286
20
39.1239274478835
30
0
41
1
10
36.2188937327353
20
39.1815999503766
30
0
41
1
10
36.4932523365887
20
39.2104362016232
30
0
41
1
10
36.6206331169492
20
39.2238244611306
30
0
41
1
10
36.6794242463463
20
39.2300036578263
30
0
41
1
10
36.708207403447
20
39.2330288895419
30
0
41
1
10
36.7317850959656
20
39.2355070048833
30
0
41
1
10
36.7501573239022
20
39.2374380038508
30
0
41
1
10
36.7599558454684
20
39.2384678699667
30
0
41
1
10
36.7657737176482
20
39.239079352973
30
0
41
1
10
36.7694481632357
20
39.2394655527666
30
0
41
1
10
36.7749598316166
20
39.2400448524568
30
0
41
1
10
36.7847583531828
20
39.2410747185727
30
0
41
1
10
36.8019057659237
20
39.2428769842756
30
0
41
1
10
36.8362005914054
20
39.2464815156815
30
0
41
1
10
36.9047902423686
20
39.2536905784931
30
0
41
1
10
37.0027754580306
20
39.2639892396526
30
0
41
1
10
37.1203577168249
20
39.2763476330439
30
0
41
1
10
37.2085444109205
20
39.2856164280875
30
0
41
1
10
37.2624362795345
20
39.2912806917252
30
0
41
1
10
37.282033322667
20
39.2933404239571
30
0
41
1
10
37.2967311050163
20
39.294885223131
30
0
41
1
10
37.3114288873655
20
39.2964300223049
30
0
41
1
10
37.3261266697148
20
39.2979748214789
30
0
41
1
10
37.3408244520641
20
39.2995196206528
30
0
41
1
10
37.3702200167627
20
39.3026092190006
30
0
41
1
10
37.4143133638106
20
39.3072436165224
30
0
41
1
10
37.4731044932076
20
39.313422813218
30
0
41
1
10
37.5208722858429
20
39.3184434105334
30
0
41
1
10
37.5576167417161
20
39.3223054084682
30
0
41
1
10
37.5760149207026
20
39.3242538106606
30
0
41
1
10
37.5870716231002
20
39.325434785616
30
0
41
1
10
37.5897885388936
20
39.325709521298
30
0
41
1
10
37.5912701434666
20
39.325848484899
30
0
41
1
10
37.5915502885309
20
39.3258743443756
30
0
0
SPLINE
5
1BB
100
AcDbEntity
8
1
62
256
6
ByLayer
370
18
48
1
60
0
100
AcDbSpline
70
4
71
3
72
21
73
17
40
0
40
0
40
0
40
0
40
0.0592792738440906
40
0.122239377580663
40
0.185199481317234
40
0.248159585053809
40
0.311119688790384
40
0.374079792526955
40
0.5000000000001
40
0.625920207473246
40
0.751840414946391
40
0.814800518682964
40
0.877760622419537
40
0.909240674287824
40
0.94072072615611
40
1
40
1
40
1
40
1
41
1
10
37.5915502885309
20
39.3258743443756
30
0
41
1
10
37.5960619873788
20
39.326290807793
30
0
41
1
10
37.6050108918939
20
39.3268938025856
30
0
41
1
10
37.6180458375327
20
39.3264965186124
30
0
41
1
10
37.6323285841887
20
39.3247372235509
30
0
41
1
10
37.6469746854609
20
39.3215243250518
30
0
41
1
10
37.6613587638026
20
39.3167583347678
30
0
41
1
10
37.6799958578429
20
39.3083595448793
30
0
41
1
10
37.7019159936606
20
39.2940782763178
30
0
41
1
10
37.7240827865355
20
39.2718115660849
30
0
41
1
10
37.7380223320855
20
39.2504054346485
30
0
41
1
10
37.7462564390319
20
39.2321201170397
30
0
41
1
10
37.7501595447854
20
39.2207372760333
30
0
41
1
10
37.7525195584558
20
39.2119756853418
30
0
41
1
10
37.7543652453526
20
39.2034480972522
30
0
41
1
10
37.7553104658913
20
39.1968305163093
30
0
41
1
10
37.7558427297873
20
39.1923135874233
30
0
0
SPLINE
5
1BC
100
AcDbEntity
8
1
62
256
6
ByLayer
370
18
48
1
60
0
100
AcDbSpline
70
4
71
3
72
46
73
42
40
0
40
0
40
0
40
0
40
0.0002356819181369
40
0.0012435088516872
40
0.0022513357852375
40
0.0026922600686657
40
0.0093061243200893
40
0.0163609128549412
40
0.0324861437917454
40
0.0486113747285497
40
0.0647366056653539
40
0.068767913399555
40
0.0707835672666555
40
0.072799221133756
40
0.0768305288679571
40
0.0788461827350576
40
0.0808618366021582
40
0.0848931443363592
40
0.0889244520705603
40
0.0969870675389624
40
0.129237529412571
40
0.161487991286179
40
0.193738453159788
40
0.209863684096592
40
0.217926299564994
40
0.219941953432095
40
0.221957607299195
40
0.222965434232746
40
0.223973261166296
40
0.225988915033396
40
0.226492828500171
40
0.226996741966947
40
0.227232951404498
40
0.234555443968574
40
0.242114145970201
40
0.258239376907005
40
0.290489838780613
40
0.35499076252783
40
0.483992610022264
40
0.741996305011132
40
1
40
1
40
1
40
1
41
1
10
37.7558427297872
20
39.1923135874233
30
0
41
1
10
37.7558757796669
20
39.1920331176101
30
0
41
1
10
37.7560484267251
20
39.190549338031
30
0
41
1
10
37.7563456228347
20
39.1878242944456
30
0
41
1
10
37.756656583033
20
39.1848172697925
30
0
41
1
10
37.7576784365697
20
39.1749512479755
30
0
41
1
10
37.7594771334468
20
39.1577120223499
30
0
41
1
10
37.7632973476467
20
39.1213651121581
30
0
41
1
10
37.768337122828
20
39.0734148543153
30
0
41
1
10
37.7745399230513
20
39.0143991523548
30
0
41
1
10
37.7791920232187
20
38.9701373758845
30
0
41
1
10
37.7820349733211
20
38.9430885124859
30
0
41
1
10
37.7830687733582
20
38.9332525621592
30
0
41
1
10
37.7841025733954
20
38.9234166118325
30
0
41
1
10
37.7851363734326
20
38.9135806615058
30
0
41
1
10
37.7861701734698
20
38.903744711179
30
0
41
1
10
37.7872039735071
20
38.8939087608522
30
0
41
1
10
37.7884962235535
20
38.8816138229438
30
0
41
1
10
37.790563823628
20
38.8619419222904
30
0
41
1
10
37.7962497238325
20
38.8078441954933
30
0
41
1
10
37.8055539241673
20
38.7193206425527
30
0
41
1
10
37.8179595246138
20
38.6012892386318
30
0
41
1
10
37.8282975249858
20
38.5029297353644
30
0
41
1
10
37.8355341252462
20
38.4340780830772
30
0
41
1
10
37.8388939753672
20
38.4021112445154
30
0
41
1
10
37.840444675423
20
38.3873573190252
30
0
41
1
10
37.8410908004462
20
38.3812098500711
30
0
41
1
10
37.8416077004648
20
38.3762918749077
30
0
41
1
10
37.8421246004834
20
38.3713738997443
30
0
41
1
10
37.8425768879997
20
38.3670706714763
30
0
41
1
10
37.8429645630137
20
38.3633821901038
30
0
41
1
10
37.8431240751288
20
38.3618645337058
30
0
41
1
10
37.844157875166
20
38.352028583379
30
0
41
1
10
37.8460962502356
20
38.3335861765164
30
0
41
1
10
37.8500719382694
20
38.2957600316075
30
0
41
1
10
37.8572439260275
20
38.2275231262157
30
0
41
1
10
37.8717171265483
20
38.0898198216414
30
0
41
1
10
37.90066352759
20
37.8144132124928
30
0
41
1
10
37.9585563296735
20
37.2635999941955
30
0
41
1
10
38.0412603326497
20
36.4767239680564
30
0
41
1
10
38.1074235350306
20
35.8472231471452
30
0
41
1
10
38.1405051362211
20
35.5324727366896
30
0
0
SPLINE
5
1BD
100
AcDbEntity
8
1
62
256
6
ByLayer
370
18
48
1
60
0
100
AcDbSpline
70
4
71
3
72
42
73
38
40
0
40
0
40
0
40
0
40
0.258003694988868
40
0.516007389977736
40
0.64500923747217
40
0.709510161219387
40
0.741760623092995
40
0.749823238561397
40
0.757885854029799
40
0.765444556031426
40
0.76922390703224
40
0.773003258033053
40
0.773507171499828
40
0.774011084966604
40
0.776026738833704
40
0.778042392700805
40
0.782073700435006
40
0.790136315903408
40
0.806261546840212
40
0.838512008713821
40
0.870762470587429
40
0.903012932461038
40
0.91107554792944
40
0.915106855663641
40
0.919138163397842
40
0.923169471132043
40
0.927200778866244
40
0.931232086600445
40
0.935263394334646
40
0.95138862527145
40
0.967513856208255
40
0.983639087145059
40
0.990693875679911
40
0.997748664214762
40
0.998756491148313
40
0.999764318081863
40
1
40
1
40
1
40
1
41
1
10
38.1405051362211
20
35.5324727366896
30
0
41
1
10
38.1735867374116
20
35.2177223262339
30
0
41
1
10
38.2397499397926
20
34.5882215053227
30
0
41
1
10
38.3224539427688
20
33.8013454791837
30
0
41
1
10
38.3803467448522
20
33.2505322608864
30
0
41
1
10
38.4092931458939
20
32.9751256517377
30
0
41
1
10
38.4227325463776
20
32.8472582974902
30
0
41
1
10
38.4289353466008
20
32.7882425955297
30
0
41
1
10
38.4319721342101
20
32.7593494914449
30
0
41
1
10
38.4344597155496
20
32.7356817359712
30
0
41
1
10
38.4363980906194
20
32.7172393291086
30
0
41
1
10
38.4374318906565
20
32.7074033787818
30
0
41
1
10
38.4380457094286
20
32.7015632832753
30
0
41
1
10
38.4384333844425
20
32.6978748019028
30
0
41
1
10
38.4390148969635
20
32.692342079844
30
0
41
1
10
38.4400486970007
20
32.6825061295173
30
0
41
1
10
38.4418578470659
20
32.6652932164454
30
0
41
1
10
38.445476147196
20
32.6308673903019
30
0
41
1
10
38.4527127474564
20
32.5620157380147
30
0
41
1
10
38.4630507478284
20
32.4636562347473
30
0
41
1
10
38.475456348275
20
32.3456248308265
30
0
41
1
10
38.4847605486098
20
32.2571012778858
30
0
41
1
10
38.4904464488143
20
32.2030035510887
30
0
41
1
10
38.4925140488888
20
32.1833316504353
30
0
41
1
10
38.4940647489445
20
32.1685777249452
30
0
41
1
10
38.4956154490003
20
32.1538237994551
30
0
41
1
10
38.4971661490562
20
32.139069873965
30
0
41
1
10
38.498716849112
20
32.1243159484749
30
0
41
1
10
38.5018182492236
20
32.0948080974947
30
0
41
1
10
38.506470349391
20
32.0505463210244
30
0
41
1
10
38.5126731496142
20
31.991530619064
30
0
41
1
10
38.5177129247956
20
31.943580361221
30
0
41
1
10
38.5215896749351
20
31.9066955474958
30
0
41
1
10
38.5235454090262
20
31.8882270788214
30
0
41
1
10
38.5247307528096
20
31.8771281266601
30
0
41
1
10
38.5250066195674
20
31.8744008412694
30
0
41
1
10
38.5251462403826
20
31.8729135904923
30
0
41
1
10
38.5251722256753
20
31.872632378161
30
0
0
SPLINE
5
1BE
100
AcDbEntity
8
1
62
256
6
ByLayer
370
18
48
1
60
0
100
AcDbSpline
70
4
71
3
72
21
73
17
40
0
40
0
40
0
40
0
40
0.059279273843877
40
0.12223937758046
40
0.185199481317042
40
0.248159585053628
40
0.311119688790213
40
0.374079792526795
40
0.499999999999961
40
0.625920207473129
40
0.751840414946296
40
0.814800518682879
40
0.877760622419463
40
0.909240674287754
40
0.940720726156046
40
1
40
1
40
1
40
1
41
1
10
38.5251722256753
20
31.872632378161
30
0
41
1
10
38.5255907153446
20
31.8681034911219
30
0
41
1
10
38.5261985593957
20
31.8591206708321
30
0
41
1
10
38.5258130866209
20
31.8460373347276
30
0
41
1
10
38.5240716612511
20
31.8317026148036
30
0
41
1
10
38.5208823307617
20
31.8170043348197
30
0
41
1
10
38.5161454813768
20
31.8025702879223
30
0
41
1
10
38.5077927248955
20
31.7838702134721
30
0
41
1
10
38.4935819866512
20
31.7618794929912
30
0
41
1
10
38.4714157239741
20
31.7396475236956
30
0
41
1
10
38.450100315473
20
31.7256728608681
30
0
41
1
10
38.4318895825929
20
31.7174224813512
30
0
41
1
10
38.4205522022908
20
31.7135138144761
30
0
41
1
10
38.4118250928661
20
31.7111519276772
30
0
41
1
10
38.4033307073931
20
31.7093061039573
30
0
41
1
10
38.3967385062631
20
31.7083625971892
30
0
41
1
10
38.3922388112466
20
31.7078319249458
30
0
0
SPLINE
5
1BF
100
AcDbEntity
8
1
62
256
6
ByLayer
370
18
48
1
60
0
100
AcDbSpline
70
4
71
3
72
46
73
42
40
0
40
0
40
0
40
0
40
0.0002356819181456
40
0.0012435088516959
40
0.0022513357852462
40
0.0026922600686744
40
0.009306124320098
40
0.0163609128549498
40
0.0324861437917539
40
0.048611374728558
40
0.0647366056653621
40
0.0687679133995631
40
0.0707835672666636
40
0.0727992211337641
40
0.0768305288679651
40
0.0788461827350657
40
0.0808618366021662
40
0.0848931443363672
40
0.0889244520705682
40
0.0969870675389703
40
0.129237529412578
40
0.161487991286187
40
0.193738453159795
40
0.209863684096599
40
0.217926299565001
40
0.219941953432102
40
0.221957607299202
40
0.222965434232752
40
0.223973261166303
40
0.225988915033403
40
0.226492828500178
40
0.226996741966953
40
0.227232951404504
40
0.23455544396858
40
0.242114145970207
40
0.258239376907011
40
0.29048983878062
40
0.354990762527836
40
0.483992610022269
40
0.741996305011134
40
1
40
1
40
1
40
1
41
1
10
38.3922388112467
20
31.7078319249458
30
0
41
1
10
38.3919594115366
20
31.7077989738968
30
0
41
1
10
38.390481291421
20
31.7076268578978
30
0
41
1
10
38.3877666259961
20
31.7073307113897
30
0
41
1
10
38.3847710399443
20
31.7070209728829
30
0
41
1
10
38.3749425493439
20
31.7060031217429
30
0
41
1
10
38.3577689136982
20
31.704211369144
30
0
41
1
10
38.3215603144731
20
31.7004056920124
30
0
41
1
10
38.273792521838
20
31.6953850946971
30
0
41
1
10
38.2150013924407
20
31.6892058980014
30
0
41
1
10
38.1709080453929
20
31.6845715004797
30
0
41
1
10
38.1439621110859
20
31.6817393686608
30
0
41
1
10
38.1341635895196
20
31.6807095025448
30
0
41
1
10
38.1243650679535
20
31.6796796364289
30
0
41
1
10
38.1145665463873
20
31.678649770313
30
0
41
1
10
38.1047680248212
20
31.6776199041971
30
0
41
1
10
38.094969503255
20
31.676590038081
30
0
41
1
10
38.0827213512972
20
31.6753027054361
30
0
41
1
10
38.0631243081648
20
31.6732429732042
30
0
41
1
10
38.0092324395507
20
31.6675787095666
30
0
41
1
10
37.9210457454551
20
31.658309914523
30
0
41
1
10
37.8034634866608
20
31.6459515211316
30
0
41
1
10
37.7054782709989
20
31.6356528599721
30
0
41
1
10
37.6368886200355
20
31.6284437971605
30
0
41
1
10
37.6050434249455
20
31.6250967322836
30
0
41
1
10
37.5903456425962
20
31.6235519331097
30
0
41
1
10
37.5842215666173
20
31.6229082667872
30
0
41
1
10
37.5793223058342
20
31.6223933337293
30
0
41
1
10
37.5744230450512
20
31.6218784006713
30
0
41
1
10
37.5701361918659
20
31.6214278342455
30
0
41
1
10
37.5664617462786
20
31.6210416344521
30
0
41
1
10
37.5649498650213
20
31.6208827293287
30
0
41
1
10
37.5551513434551
20
31.6198528632127
30
0
41
1
10
37.5367791155185
20
31.6179218642453
30
0
41
1
10
37.4990969105111
20
31.6139613049049
30
0
41
1
10
37.4311196671456
20
31.6068166087256
30
0
41
1
10
37.293940365219
20
31.5923984831022
30
0
41
1
10
37.0195817613655
20
31.5635622318557
30
0
41
1
10
36.4708645536589
20
31.5058897293626
30
0
41
1
10
35.6869828283637
20
31.4235004400866
30
0
41
1
10
35.0598774481275
20
31.357589008666
30
0
41
1
10
34.7463247580095
20
31.3246332929556
30
0
0
SPLINE
5
1C0
100
AcDbEntity
8
1
62
256
6
ByLayer
370
18
48
1
60
0
100
AcDbSpline
70
4
71
3
72
42
73
38
40
0
40
0
40
0
40
0
40
0.258003694988866
40
0.516007389977732
40
0.645009237472165
40
0.709510161219381
40
0.74176062309299
40
0.749823238561392
40
0.757885854029794
40
0.765444556031421
40
0.769223907032235
40
0.773003258033048
40
0.773507171499823
40
0.774011084966598
40
0.776026738833699
40
0.778042392700799
40
0.782073700435
40
0.790136315903402
40
0.806261546840206
40
0.838512008713814
40
0.870762470587423
40
0.903012932461031
40
0.911075547929433
40
0.915106855663635
40
0.919138163397835
40
0.923169471132036
40
0.927200778866237
40
0.931232086600438
40
0.935263394334639
40
0.951388625271443
40
0.967513856208247
40
0.983639087145052
40
0.990693875679903
40
0.997748664214755
40
0.998756491148306
40
0.999764318081856
40
1
40
1
40
1
40
1
41
1
10
34.7463247580095
20
31.3246332929556
30
0
41
1
10
34.4327720678914
20
31.2916775772452
30
0
41
1
10
33.8056666876553
20
31.2257661458245
30
0
41
1
10
33.02178496236
20
31.1433768565487
30
0
41
1
10
32.4730677546534
20
31.0857043540555
30
0
41
1
10
32.1987091508001
20
31.0568681028089
30
0
41
1
10
32.0713283704396
20
31.0434798433016
30
0
41
1
10
32.0125372410425
20
31.0373006466059
30
0
41
1
10
31.9837540839418
20
31.0342754148903
30
0
41
1
10
31.9601763914232
20
31.0317972995488
30
0
41
1
10
31.9418041634865
20
31.0298663005814
30
0
41
1
10
31.9320056419203
20
31.0288364344655
30
0
41
1
10
31.9261877697404
20
31.0282249514592
30
0
41
1
10
31.922513324153
20
31.0278387516656
30
0
41
1
10
31.9170016557721
20
31.0272594519754
30
0
41
1
10
31.9072031342059
20
31.0262295858595
30
0
41
1
10
31.8900557214651
20
31.0244273201565
30
0
41
1
10
31.8557608959834
20
31.0208227887507
30
0
41
1
10
31.7871712450201
20
31.0136137259391
30
0
41
1
10
31.6891860293581
20
31.0033150647796
30
0
41
1
10
31.5716037705639
20
30.9909566713882
30
0
41
1
10
31.4834170764682
20
30.9816878763447
30
0
41
1
10
31.4295252078541
20
30.976023612707
30
0
41
1
10
31.4099281647218
20
30.973963880475
30
0
41
1
10
31.3952303823725
20
30.9724190813012
30
0
41
1
10
31.3805326000232
20
30.9708742821273
30
0
41
1
10
31.3658348176739
20
30.9693294829533
30
0
41
1
10
31.3511370353247
20
30.9677846837794
30
0
41
1
10
31.321741470626
20
30.9646950854316
30
0
41
1
10
31.2776481235782
20
30.9600606879097
30
0
41
1
10
31.2188569941811
20
30.9538814912141
30
0
41
1
10
31.1710892015458
20
30.9488608938989
30
0
41
1
10
31.1343447456727
20
30.944998895964
30
0
41
1
10
31.1159465666862
20
30.9430504937716
30
0
41
1
10
31.1048898642886
20
30.9418695188161
30
0
41
1
10
31.1021729484951
20
30.9415947831342
30
0
41
1
10
31.1006913439221
20
30.9414558195332
30
0
41
1
10
31.1004111988577
20
30.9414299600565
30
0
0
SPLINE
5
1C1
100
AcDbEntity
8
1
62
256
6
ByLayer
370
18
48
1
60
0
100
AcDbSpline
70
4
71
3
72
21
73
17
40
0
40
0
40
0
40
0
40
0.0592792738437777
40
0.122239377580375
40
0.185199481316972
40
0.248159585053571
40
0.311119688790171
40
0.374079792526767
40
0.499999999999962
40
0.625920207473158
40
0.751840414946354
40
0.814800518682952
40
0.877760622419549
40
0.909240674287848
40
0.940720726156147
40
1
40
1
40
1
40
1
41
1
10
31.1004111988577
20
30.9414299600565
30
0
41
1
10
31.0958995000099
20
30.9410134966391
30
0
41
1
10
31.0869505954947
20
30.9404105018466
30
0
41
1
10
31.0739156498561
20
30.9408077858197
30
0
41
1
10
31.0596329032001
20
30.9425670808813
30
0
41
1
10
31.0449868019278
20
30.9457799793804
30
0
41
1
10
31.0306027235861
20
30.9505459696644
30
0
41
1
10
31.0119656295458
20
30.9589447595529
30
0
41
1
10
30.9900454937281
20
30.9732260281144
30
0
41
1
10
30.9678787008533
20
30.9954927383472
30
0
41
1
10
30.9539391553033
20
31.0168988697836
30
0
41
1
10
30.9457050483568
20
31.0351841873924
30
0
41
1
10
30.9418019426034
20
31.0465670283988
30
0
41
1
10
30.939441928933
20
31.0553286190904
30
0
41
1
10
30.9375962420362
20
31.0638562071799
30
0
41
1
10
30.9366510214975
20
31.0704737881229
30
0
41
1
10
30.9361187576014
20
31.0749907170089
30
0
0
SPLINE
5
1C2
100
AcDbEntity
8
1
62
256
6
ByLayer
370
18
48
1
60
0
100
AcDbSpline
70
4
71
3
72
46
73
42
40
0
40
0
40
0
40
0
40
0.000235681918139
40
0.0012435088516893
40
0.0022513357852395
40
0.0026922600686678
40
0.0093061243200914
40
0.0163609128549432
40
0.0324861437917474
40
0.0486113747285516
40
0.0647366056653559
40
0.0687679133995569
40
0.0707835672666574
40
0.072799221133758
40
0.076830528867959
40
0.0788461827350595
40
0.0808618366021601
40
0.0848931443363611
40
0.0889244520705622
40
0.0969870675389643
40
0.129237529412573
40
0.161487991286181
40
0.193738453159789
40
0.209863684096594
40
0.217926299564996
40
0.219941953432096
40
0.221957607299197
40
0.222965434232747
40
0.223973261166298
40
0.225988915033398
40
0.226492828500173
40
0.226996741966948
40
0.227232951404499
40
0.234555443968575
40
0.242114145970202
40
0.258239376907006
40
0.290489838780615
40
0.354990762527832
40
0.483992610022265
40
0.741996305011133
40
1
40
1
40
1
40
1
41
1
10
30.9361187576014
20
31.0749907170089
30
0
41
1
10
30.936085707722
20
31.0752711868221
30
0
41
1
10
30.9359130606636
20
31.0767549664012
30
0
41
1
10
30.9356158645541
20
31.0794800099866
30
0
41
1
10
30.9353049043557
20
31.0824870346397
30
0
41
1
10
30.9342830508192
20
31.0923530564567
30
0
41
1
10
30.9324843539421
20
31.1095922820823
30
0
41
1
10
30.9286641397421
20
31.1459391922741
30
0
41
1
10
30.9236243645607
20
31.1938894501169
30
0
41
1
10
30.9174215643375
20
31.2529051520774
30
0
41
1
10
30.91276946417
20
31.2971669285477
30
0
41
1
10
30.9099265140678
20
31.3242157919462
30
0
41
1
10
30.9088927140306
20
31.334051742273
30
0
41
1
10
30.9078589139933
20
31.3438876925997
30
0
41
1
10
30.9068251139561
20
31.3537236429264
30
0
41
1
10
30.9057913139189
20
31.3635595932532
30
0
41
1
10
30.9047575138817
20
31.3733955435799
30
0
41
1
10
30.9034652638352
20
31.3856904814884
30
0
41
1
10
30.9013976637608
20
31.4053623821418
30
0
41
1
10
30.8957117635562
20
31.4594601089389
30
0
41
1
10
30.8864075632214
20
31.5479836618795
30
0
41
1
10
30.874001962775
20
31.6660150658004
30
0
41
1
10
30.8636639624029
20
31.7643745690677
30
0
41
1
10
30.8564273621425
20
31.8332262213549
30
0
41
1
10
30.8530675120216
20
31.8651930599168
30
0
41
1
10
30.8515168119658
20
31.8799469854069
30
0
41
1
10
30.8508706869425
20
31.8860944543611
30
0
41
1
10
30.850353786924
20
31.8910124295245
30
0
41
1
10
30.8498368869053
20
31.8959304046879
30
0
41
1
10
30.8493845993891
20
31.9002336329559
30
0
41
1
10
30.8489969243751
20
31.9039221143283
30
0
41
1
10
30.84883741226
20
31.9054397707264
30
0
41
1
10
30.8478036122228
20
31.9152757210531
30
0
41
1
10
30.845865237153
20
31.9337181279158
30
0
41
1
10
30.8418895491193
20
31.9715442728246
30
0
41
1
10
30.8347175613612
20
32.0397811782165
30
0
41
1
10
30.8202443608404
20
32.1774844827908
30
0
41
1
10
30.7912979597986
20
32.4528910919394
30
0
41
1
10
30.7334051577153
20
33.0037043102367
30
0
41
1
10
30.6507011547392
20
33.7905803363758
30
0
41
1
10
30.5845379523581
20
34.420081157287
30
0
41
1
10
30.5514563511676
20
34.7348315677426
30
0
0
SPLINE
5
1C3
100
AcDbEntity
8
1
62
256
6
ByLayer
370
18
48
1
60
0
100
AcDbSpline
70
4
71
3
72
42
73
38
40
0
40
0
40
0
40
0
40
0.258003694988868
40
0.516007389977736
40
0.645009237472171
40
0.709510161219388
40
0.741760623092996
40
0.749823238561398
40
0.7578858540298
40
0.765444556031427
40
0.769223907032241
40
0.773003258033054
40
0.773507171499829
40
0.774011084966605
40
0.776026738833705
40
0.778042392700806
40
0.782073700435007
40
0.790136315903409
40
0.806261546840213
40
0.838512008713822
40
0.87076247058743
40
0.903012932461039
40
0.911075547929441
40
0.915106855663642
40
0.919138163397843
40
0.923169471132044
40
0.927200778866245
40
0.931232086600446
40
0.935263394334647
40
0.951388625271452
40
0.967513856208256
40
0.98363908714506
40
0.990693875679912
40
0.997748664214764
40
0.998756491148314
40
0.999764318081864
40
1
40
1
40
1
40
1
41
1
10
30.5514563511676
20
34.7348315677426
30
0
41
1
10
30.5183747499771
20
35.0495819781983
30
0
41
1
10
30.4522115475961
20
35.6790827991094
30
0
41
1
10
30.3695075446199
20
36.4659588252484
30
0
41
1
10
30.3116147425364
20
37.0167720435458
30
0
41
1
10
30.2826683414949
20
37.2921786526945
30
0
41
1
10
30.2692289410112
20
37.420046006942
30
0
41
1
10
30.2630261407879
20
37.4790617089025
30
0
41
1
10
30.2599893531787
20
37.5079548129872
30
0
41
1
10
30.2575017718391
20
37.531622568461
30
0
41
1
10
30.2555633967695
20
37.5500649753236
30
0
41
1
10
30.2545295967323
20
37.5599009256504
30
0
41
1
10
30.2539157779602
20
37.5657410211569
30
0
41
1
10
30.2535281029461
20
37.5694295025294
30
0
41
1
10
30.2529465904253
20
37.5749622245881
30
0
41
1
10
30.251912790388
20
37.5847981749149
30
0
41
1
10
30.250103640323
20
37.6020110879867
30
0
41
1
10
30.2464853401927
20
37.6364369141303
30
0
41
1
10
30.2392487399322
20
37.7052885664175
30
0
41
1
10
30.2289107395603
20
37.8036480696849
30
0
41
1
10
30.2165051391139
20
37.9216794736057
30
0
41
1
10
30.2072009387789
20
38.0102030265464
30
0
41
1
10
30.2015150385744
20
38.0643007533433
30
0
41
1
10
30.1994474385
20
38.0839726539969
30
0
41
1
10
30.1978967384441
20
38.098726579487
30
0
41
1
10
30.1963460383884
20
38.113480504977
30
0
41
1
10
30.1947953383326
20
38.1282344304672
30
0
41
1
10
30.1932446382768
20
38.1429883559573
30
0
41
1
10
30.1901432381651
20
38.1724962069375
30
0
41
1
10
30.1854911379977
20
38.2167579834078
30
0
41
1
10
30.1792883377746
20
38.2757736853682
30
0
41
1
10
30.1742485625932
20
38.3237239432111
30
0
41
1
10
30.1703718124536
20
38.3606087569364
30
0
41
1
10
30.1684160783627
20
38.3790772256108
30
0
41
1
10
30.1672307345793
20
38.3901761777721
30
0
41
1
10
30.1669548678213
20
38.3929034631627
30
0
41
1
10
30.1668152470061
20
38.3943907139399
30
0
41
1
10
30.1667892617134
20
38.3946719262711
30
0
0
SPLINE
5
1C4
100
AcDbEntity
8
1
62
256
6
ByLayer
370
18
48
1
60
0
100
AcDbSpline
70
4
71
3
72
41
73
37
40
0
40
0
40
0
40
0
40
0.0078125
40
0.01171875
40
0.013671875
40
0.015625
40
0.03125
40
0.0625
40
0.09375
40
0.125
40
0.1328125
40
0.140625
40
0.15625
40
0.1875
40
0.25
40
0.3125
40
0.375
40
0.4375
40
0.46875
40
0.4765625
40
0.484375
40
0.5
40
0.5625
40
0.625
40
0.6875
40
0.71875
40
0.734375
40
0.7421875
40
0.75
40
0.78125
40
0.8125
40
0.875
40
0.90625
40
0.921875
40
0.9375
40
1
40
1
40
1
40
1
41
1
10
38.1405051362211
20
35.5324727366896
30
0
41
1
10
38.1468180127839
20
35.5331362467531
30
0
41
1
10
38.1567571196697
20
35.5341808889815
30
0
41
1
10
38.1671488106258
20
35.5352730997125
30
0
41
1
10
38.172654320403
20
35.5358517521074
30
0
41
1
10
38.1866089069483
20
35.5373184382547
30
0
41
1
10
38.221424197237
20
35.5409776727161
30
0
41
1
10
38.2771801662626
20
35.546837861202
30
0
41
1
10
38.3440716568887
20
35.55386844017
30
0
41
1
10
38.3942460110277
20
35.5591419772918
30
0
41
1
10
38.4276744291862
20
35.5626554456185
30
0
41
1
10
38.4499134081323
20
35.5649928564936
30
0
41
1
10
38.4887084768588
20
35.5690703825243
30
0
41
1
10
38.5687693028456
20
35.5774851144143
30
0
41
1
10
38.6880946953818
20
35.5900267185447
30
0
41
1
10
38.8375286844134
20
35.6057328636845
30
0
41
1
10
38.9906446614852
20
35.6218260013616
30
0
41
1
10
39.1192493160995
20
35.6353428952365
30
0
41
1
10
39.2023740952868
20
35.6440796615846
30
0
41
1
10
39.2404833973336
20
35.6480851106327
30
0
41
1
10
39.2660478232695
20
35.6507720400707
30
0
41
1
10
39.3369054765831
20
35.658219479535
30
0
41
1
10
39.4525852194527
20
35.6703779104449
30
0
41
1
10
39.6069164918573
20
35.6865987808086
30
0
41
1
10
39.7355201569721
20
35.7001155706829
30
0
41
1
10
39.8255591270529
20
35.7095790477773
30
0
41
1
10
39.8705530825896
20
35.7143081030656
30
0
41
1
10
39.8963054382163
20
35.7170147847101
30
0
41
1
10
39.934810855922
20
35.7210618671916
30
0
41
1
10
39.9924701853456
20
35.7271221069166
30
0
41
1
10
40.0947770875416
20
35.7378749956343
30
0
41
1
10
40.1960652535445
20
35.7485208108635
30
0
41
1
10
40.2827154173426
20
35.7576281100652
30
0
41
1
10
40.3315471660398
20
35.7627605336687
30
0
41
1
10
40.40396731192
20
35.7703721977192
30
0
41
1
10
40.4645320836194
20
35.7767378117327
30
0
41
1
10
40.5129195059392
20
35.7818235347521
30
0
0
SPLINE
5
1C5
100
AcDbEntity
8
1
62
256
6
ByLayer
370
18
48
1
60
0
100
AcDbSpline
70
4
71
3
72
21
73
17
40
0
40
0
40
0
40
0
40
0.0001096836879314
40
0.0027068013926381
40
0.003356080818815
40
0.0040053602449914
40
0.008874955941316
40
0.0137445516376414
40
0.0234837430302914
40
0.0338722138491183
40
0.0442606846679448
40
0.0858145679432516
40
0.168922334493865
40
0.335137867595092
40
0.667568933797546
40
1
40
1
40
1
40
1
41
1
10
40.9844857337832
20
31.294246333777
30
0
41
1
10
40.9844705830935
20
31.2944106106799
30
0
41
1
10
40.9840960043872
20
31.2984646100373
30
0
41
1
10
40.9836095150104
20
31.303488885173
30
0
41
1
10
40.983007538714
20
31.309317302231
30
0
41
1
10
40.9820424817587
20
31.3185444545547
30
0
41
1
10
40.9804153167136
20
31.3340847361429
30
0
41
1
10
40.9773590354016
20
31.363222216249
30
0
41
1
10
40.9734277253887
20
31.4006143878449
30
0
41
1
10
40.9686172592435
20
31.4462608397782
30
0
41
1
10
40.9587883922297
20
31.5394958189004
30
0
41
1
10
40.9375854426547
20
31.7415143513794
30
0
41
1
10
40.8918331685943
20
32.1766226450119
30
0
41
1
10
40.8003828422682
20
33.0468447233951
30
0
41
1
10
40.6697147318389
20
34.29001661086
30
0
41
1
10
40.565184581239
20
35.2845545601214
30
0
41
1
10
40.5129195059392
20
35.7818235347521
30
0
0
SPLINE
5
1C6
100
AcDbEntity
8
1
62
256
6
ByLayer
370
18
48
1
60
0
100
AcDbSpline
70
4
71
1
72
4
73
2
40
0
40
0
40
1
40
1
41
1
10
40.9844883465446
20
31.2942465744858
30
0
41
1
10
41.060619186529
20
30.4451253248907
30
0
0
SPLINE
5
1C7
100
AcDbEntity
8
1
62
256
6
ByLayer
370
18
48
1
60
0
100
AcDbSpline
70
4
71
3
72
45
73
41
40
0
40
0
40
0
40
0
40
0.0011565097570282
40
0.0196321945810037
40
0.0288700369929914
40
0.0381078794049791
40
0.0565835642289545
40
0.130486303524856
40
0.204389042820758
40
0.278291782116659
40
0.310624230558616
40
0.340935900972951
40
0.342956679000573
40
0.347575600206567
40
0.352194521412561
40
0.370670206236537
40
0.379908048648524
40
0.389145891060512
40
0.407621575884487
40
0.426097260708463
40
0.463048630356414
40
0.500000000004365
40
0.536951369652316
40
0.55542705447629
40
0.573902739300267
40
0.592378424124242
40
0.610854108948217
40
0.629329793772193
40
0.647805478596168
40
0.652424399802161
40
0.657043321008156
40
0.689375769450113
40
0.72170821789207
40
0.795610957187972
40
0.869513696483873
40
0.943416435779775
40
0.96189212060375
40
0.980367805427726
40
0.998843490251701
40
1
40
1
40
1
40
1
41
1
10
40.3408112864674
20
29.5527685799246
30
0
41
1
10
40.3412704743389
20
29.5528259994867
30
0
41
1
10
40.3490595751332
20
29.5538031829854
30
0
41
1
10
40.3603707542102
20
29.5553076066166
30
0
41
1
10
40.3746316427796
20
29.5575255368816
30
0
41
1
10
40.3888112504995
20
29.5599382505081
30
0
41
1
10
40.4277300574174
20
29.567376112265
30
0
41
1
10
40.4923379213119
20
29.5841312517056
30
0
41
1
10
40.5781787250155
20
29.6167978372146
30
0
41
1
10
40.6463298808992
20
29.6521273867562
30
0
41
1
10
40.6962494157642
20
29.6835386297329
30
0
41
1
10
40.7192976417259
20
29.6996881996349
30
0
41
1
10
40.7322639349483
20
29.7092869842205
30
0
41
1
10
40.7362017078146
20
29.7122347713179
30
0
41
1
10
40.74584956544
20
29.7195699979476
30
0
41
1
10
40.7569709914401
20
29.7283580689825
30
0
41
1
10
40.7694836710577
20
29.7387074013691
30
0
41
1
10
40.78186027276
20
29.7492572733556
30
0
41
1
10
40.7970676346113
20
29.762814358548
30
0
41
1
10
40.8208023391271
20
29.7852677473952
30
0
41
1
10
40.8492852517047
20
29.8147131996403
30
0
41
1
10
40.8813569467525
20
29.8520932647908
30
0
41
1
10
40.9061509833068
20
29.884814234929
30
0
41
1
10
40.9247705734583
20
29.9118132608157
30
0
41
1
10
40.9381133931507
20
29.9324435801861
30
0
41
1
10
40.9508202865469
20
29.9534248745789
30
0
41
1
10
40.9628772002716
20
29.9747270690614
30
0
41
1
10
40.9742700809496
20
29.9963200887006
30
0
41
1
10
40.9823061766418
20
30.0127104160979
30
0
41
1
10
40.9874472800834
20
30.0237093870579
30
0
41
1
10
40.995029205833
20
30.0402496256896
30
0
41
1
10
41.0068011979902
20
30.0680854418496
30
0
41
1
10
41.0273268984945
20
30.1244576992151
30
0
41
1
10
41.0475804423686
20
30.1987253841164
30
0
41
1
10
41.0615614368501
20
30.2898100589834
30
0
41
1
10
41.0644538474196
20
30.3567364820126
30
0
41
1
10
41.0635323438357
20
30.4001147633965
30
0
41
1
10
41.0624912895976
20
30.4217361414964
30
0
41
1
10
41.061321892515
20
30.4368103126568
30
0
41
1
10
41.0606545466907
20
30.4446621241196
30
0
41
1
10
41.0606150217692
20
30.4451249698661
30
0
0
SPLINE
5
1C8
100
AcDbEntity
8
1
62
256
6
ByLayer
370
18
48
1
60
0
100
AcDbSpline
70
4
71
1
72
4
73
2
40
0
40
0
40
1
40
1
41
1
10
40.3408118064709
20
29.5527644164539
30
0
41
1
10
39.4976493009301
20
29.450978978996
30
0
0
SPLINE
5
1C9
100
AcDbEntity
8
1
62
256
6
ByLayer
370
18
48
1
60
0
100
AcDbSpline
70
4
71
3
72
41
73
37
40
0
40
0
40
0
40
0
40
0.0078125
40
0.01171875
40
0.013671875
40
0.015625
40
0.03125
40
0.0625
40
0.09375
40
0.125
40
0.1328125
40
0.140625
40
0.15625
40
0.1875
40
0.25
40
0.3125
40
0.375
40
0.4375
40
0.46875
40
0.4765625
40
0.484375
40
0.5
40
0.5625
40
0.625
40
0.6875
40
0.71875
40
0.734375
40
0.7421875
40
0.75
40
0.78125
40
0.8125
40
0.875
40
0.90625
40
0.921875
40
0.9375
40
1
40
1
40
1
40
1
41
1
10
34.7463247580095
20
31.3246332929556
30
0
41
1
10
34.7469908025736
20
31.3182963022299
30
0
41
1
10
34.7481875232147
20
31.3085028175548
30
0
41
1
10
34.7496981973212
20
31.2985850379978
30
0
41
1
10
34.7505713245684
20
31.2934208247356
30
0
41
1
10
34.7527607729238
20
31.2803020124649
30
0
41
1
10
34.758235873767
20
31.2475875741457
30
0
41
1
10
34.7669949641884
20
31.1951847071991
30
0
41
1
10
34.7775061985642
20
31.1323194528106
30
0
41
1
10
34.7853884626634
20
31.0851625634971
30
0
41
1
10
34.790646524955
20
31.0537526272452
30
0
41
1
10
34.7941397342606
20
31.0328504986422
30
0
41
1
10
34.800171857552
20
30.9963110866396
30
0
41
1
10
34.8123048697705
20
30.9205142262599
30
0
41
1
10
34.8295255779062
20
30.8064744261818
30
0
41
1
10
34.8497228359189
20
30.661962977156
30
0
41
1
10
34.86911438223
20
30.5122750214185
30
0
41
1
10
34.8843376286487
20
30.3852305106451
30
0
41
1
10
34.8936775349371
20
30.3024945607735
30
0
41
1
10
34.897866135176
20
30.2644477759619
30
0
41
1
10
34.9006484088102
20
30.2388911743009
30
0
41
1
10
34.9083669827381
20
30.168063719954
30
0
41
1
10
34.9209648549434
20
30.0524293075315
30
0
41
1
10
34.9377729882122
20
29.8981597428563
30
0
41
1
10
34.9517786220995
20
29.7696068539742
30
0
41
1
10
34.961585841353
20
29.6796052796714
30
0
41
1
10
34.9664843534324
20
29.6346271392028
30
0
41
1
10
34.9692917943835
20
29.6088885096832
30
0
41
1
10
34.9734872611072
20
29.5704007976141
30
0
41
1
10
34.9796388007078
20
29.5126057068834
30
0
41
1
10
34.9901323776365
20
29.4095356137702
30
0
41
1
10
34.9998967393211
20
29.3067173726037
30
0
41
1
10
35.0076891929974
20
29.218063048639
30
0
41
1
10
35.0119241969026
20
29.1679079150453
30
0
41
1
10
35.0180146342293
20
29.0932891927162
30
0
41
1
10
35.023101710419
20
29.0308778976086
30
0
41
1
10
35.0271678578456
20
28.9810175694724
30
0
0
SPLINE
5
1CA
100
AcDbEntity
8
1
62
256
6
ByLayer
370
18
48
1
60
0
100
AcDbSpline
70
4
71
3
72
41
73
37
40
0
40
0
40
0
40
0
40
0.0078125
40
0.01171875
40
0.013671875
40
0.015625
40
0.03125
40
0.0625
40
0.09375
40
0.125
40
0.1328125
40
0.140625
40
0.15625
40
0.1875
40
0.25
40
0.3125
40
0.375
40
0.4375
40
0.46875
40
0.4765625
40
0.484375
40
0.5
40
0.5625
40
0.625
40
0.6875
40
0.71875
40
0.734375
40
0.7421875
40
0.75
40
0.78125
40
0.8125
40
0.875
40
0.90625
40
0.921875
40
0.9375
40
1
40
1
40
1
40
1
41
1
10
33.9456367293792
20
38.9426710114766
30
0
41
1
10
33.9449706848152
20
38.9490080022023
30
0
41
1
10
33.9441050742812
20
38.9588362879521
30
0
41
1
10
33.9435207142171
20
38.9688514270381
30
0
41
1
10
33.9433010612281
20
38.9740843232124
30
0
41
1
10
33.942715110443
20
38.987371669869
30
0
41
1
10
33.9412688530115
20
39.020509556694
30
0
41
1
10
33.9389413676213
20
39.0735884125688
30
0
41
1
10
33.936152484973
20
39.1372653188302
30
0
41
1
10
33.9340580340991
20
39.1850305318267
30
0
41
1
10
33.9326707021596
20
39.216847298232
30
0
41
1
10
33.9317417795612
20
39.2380189442283
30
0
41
1
10
33.930045115555
20
39.2750140313638
30
0
41
1
10
33.9261539389461
20
39.3516771435724
30
0
41
1
10
33.9192881256372
20
39.4668052869525
30
0
41
1
10
33.9089984053942
20
39.6123580601589
30
0
41
1
10
33.8968443239204
20
39.7628067041033
30
0
41
1
10
33.8853208668363
20
39.8902400784054
30
0
41
1
10
33.8772549025342
20
39.9731099249752
30
0
41
1
10
33.8734416004478
20
40.0111961552122
30
0
41
1
10
33.8708495584649
20
40.0367727510255
30
0
41
1
10
33.863673607244
20
40.107657237317
30
0
41
1
10
33.8519544395124
20
40.2233840053013
30
0
41
1
10
33.8363208287087
20
40.377777017262
30
0
41
1
10
33.8232927574054
20
40.5064326521118
30
0
41
1
10
33.8141732858985
20
40.5965065116156
30
0
41
1
10
33.8096132725016
20
40.6415202297293
30
0
41
1
10
33.8070080021493
20
40.6672801082351
30
0
41
1
10
33.8031097425669
20
40.7057990580336
30
0
41
1
10
33.7971105812333
20
40.7636101643656
30
0
41
1
10
33.7859453709973
20
40.8666096659734
30
0
41
1
10
33.774119243584
20
40.9692112068299
30
0
41
1
10
33.7633091430575
20
41.0575483633301
30
0
41
1
10
33.7570237633379
20
41.1074879937418
30
0
41
1
10
33.7474670052702
20
41.1817423910802
30
0
41
1
10
33.7394668787481
20
41.2438475122603
30
0
41
1
10
33.73307762597
20
41.2934636721851
30
0
0
SPLINE
5
1CB
100
AcDbEntity
8
1
62
256
6
ByLayer
370
18
48
1
60
0
100
AcDbSpline
70
4
71
3
72
20
73
16
40
0
40
0
40
0
40
0
40
0.332431012821216
40
0.664862025642431
40
0.831077532053039
40
0.914185285258343
40
0.955739161860995
40
0.976516100162321
40
0.986255289991067
40
0.995690130137666
40
0.995994479819814
40
0.99664375914173
40
0.997293038463647
40
0.999890155751312
40
1
40
1
40
1
40
1
41
1
10
35.0271678578456
20
28.9810175694724
30
0
41
1
10
35.5225445738982
20
29.0330837603816
30
0
41
1
10
36.5132980060034
20
29.1372161421998
30
0
41
1
10
37.7517403884549
20
29.2673761809023
30
0
41
1
10
38.6186481607472
20
29.3585056114193
30
0
41
1
10
39.0521050084928
20
29.4040431338257
30
0
41
1
10
39.2688288233765
20
29.426854213905
30
0
41
1
10
39.3762297147009
20
29.4380982285965
30
0
41
1
10
39.4357634201856
20
29.4443534927924
30
0
41
1
10
39.4647884964638
20
29.4474126100323
30
0
41
1
10
39.4802681956712
20
29.4490473157673
30
0
41
1
10
39.4826566596923
20
29.4492995940635
30
0
41
1
10
39.4884606908607
20
29.4499202778899
30
0
41
1
10
39.4934574404804
20
29.450487201495
30
0
41
1
10
39.4974855415783
20
29.4509622866888
30
0
41
1
10
39.4976489924511
20
29.4509815928489
30
0
0
SPLINE
5
1CC
100
AcDbEntity
8
1
62
256
6
ByLayer
370
18
48
1
60
0
100
AcDbSpline
70
4
71
3
72
21
73
17
40
0
40
0
40
0
40
0
40
0.000109683687949
40
0.0027068013926556
40
0.0033560808188325
40
0.0040053602450089
40
0.0088749559413334
40
0.0137445516376587
40
0.0234837430303086
40
0.0338722138491352
40
0.0442606846679616
40
0.0858145679432676
40
0.16892233449388
40
0.335137867595104
40
0.667568933797552
40
1
40
1
40
1
40
1
41
1
10
38.2035783178612
20
41.7632347155339
30
0
41
1
10
38.2034146644047
20
41.763219638452
30
0
41
1
10
38.1993760509049
20
41.7628468736388
30
0
41
1
10
38.1943708616909
20
41.7623625491143
30
0
41
1
10
38.1885646151052
20
41.7617629435761
30
0
41
1
10
38.1793725711118
20
41.7608015948216
30
0
41
1
10
38.1638914200846
20
41.7591806682722
30
0
41
1
10
38.1348648119795
20
41.7561360637266
30
0
41
1
10
38.097614929864
20
41.7522197042253
30
0
41
1
10
38.0521421866319
20
41.7474274465892
30
0
41
1
10
37.9592620181186
20
41.7376357590803
30
0
41
1
10
37.7580122033239
20
41.7165137197901
30
0
41
1
10
37.3245596444007
20
41.670935391964
30
0
41
1
10
36.4576490128934
20
41.5798331650601
30
0
41
1
10
35.2192077741279
20
41.4496622449125
30
0
41
1
10
34.2284543420227
20
41.3455298630942
30
0
41
1
10
33.73307762597
20
41.2934636721851
30
0
0
SPLINE
5
1CD
100
AcDbEntity
8
1
62
256
6
ByLayer
370
18
48
1
60
0
100
AcDbSpline
70
4
71
1
72
4
73
2
40
0
40
0
40
1
40
1
41
1
10
38.2035780759774
20
41.7632373382488
30
0
41
1
10
39.0494785591473
20
41.8389795633453
30
0
0
SPLINE
5
1CE
100
AcDbEntity
8
1
62
256
6
ByLayer
370
18
48
1
60
0
100
AcDbSpline
70
4
71
3
72
45
73
41
40
0
40
0
40
0
40
0
40
0.0011565097570492
40
0.0196321945810242
40
0.0288700369930117
40
0.0381078794049992
40
0.0565835642289742
40
0.130486303524874
40
0.204389042820774
40
0.278291782116674
40
0.31062423055863
40
0.340935900972964
40
0.342956679000587
40
0.347575600206581
40
0.352194521412574
40
0.370670206236549
40
0.379908048648537
40
0.389145891060524
40
0.407621575884499
40
0.426097260708474
40
0.463048630356424
40
0.500000000004374
40
0.536951369652324
40
0.555427054476299
40
0.573902739300274
40
0.592378424124249
40
0.610854108948224
40
0.629329793772199
40
0.647805478596174
40
0.652424399802168
40
0.657043321008162
40
0.689375769450118
40
0.721708217892074
40
0.795610957187974
40
0.869513696483874
40
0.943416435779774
40
0.961892120603749
40
0.980367805427724
40
0.9988434902517
40
1
40
1
40
1
40
1
41
1
10
39.9390845386722
20
41.1157747325739
30
0
41
1
10
39.939026968837
20
41.1162356817271
30
0
41
1
10
39.9380472481563
20
41.1240546612731
30
0
41
1
10
39.9365394578513
20
41.1354092973625
30
0
41
1
10
39.9343184784062
20
41.1497252301849
30
0
41
1
10
39.9319035050106
20
41.1639597328505
30
0
41
1
10
39.9244624768119
20
41.2030298566425
30
0
41
1
10
39.9077184865805
20
41.2678924107821
30
0
41
1
10
39.8751054416134
20
41.354079854765
30
0
41
1
10
39.8398533663258
20
41.4225136640114
30
0
41
1
10
39.8085194655141
20
41.4726446233994
30
0
41
1
10
39.7924117343018
20
41.4957917710105
30
0
41
1
10
39.7828383981853
20
41.5088141218391
30
0
41
1
10
39.7798984613312
20
41.5127689449329
30
0
41
1
10
39.7725828886851
20
41.5224586664788
30
0
41
1
10
39.7638187110384
20
41.53362861406
30
0
41
1
10
39.7534979802204
20
41.5461962512885
30
0
41
1
10
39.7429775640743
20
41.5586274611065
30
0
41
1
10
39.7294588836535
20
41.5739023920272
30
0
41
1
10
39.7070702520788
20
41.5977435801333
30
0
41
1
10
39.677711817684
20
41.6263562605469
30
0
41
1
10
39.6404454581702
20
41.6585774225935
30
0
41
1
10
39.6078266214113
20
41.6834900398413
30
0
41
1
10
39.5809133262417
20
41.7022006040624
30
0
41
1
10
39.5603492161176
20
41.7156096327141
30
0
41
1
10
39.5394359413806
20
41.7283806371258
30
0
41
1
10
39.5182034761647
20
41.740499487572
30
0
41
1
10
39.4966817946041
20
41.751952054327
30
0
41
1
10
39.4803461017757
20
41.7600311693306
30
0
41
1
10
39.4693839936162
20
41.7652002012676
30
0
41
1
10
39.4528993075318
20
41.7728235681431
30
0
41
1
10
39.4251577645515
20
41.7846616114625
30
0
41
1
10
39.3689790537903
20
41.8053086917721
30
0
41
1
10
39.2949717377944
20
41.8256967838403
30
0
41
1
10
39.2042149965803
20
41.8398022194409
30
0
41
1
10
39.1375353801524
20
41.8427584886622
30
0
41
1
10
39.0943192826716
20
41.8418679268599
30
0
41
1
10
39.0727792043045
20
41.8408401214846
30
0
41
1
10
39.0577620659851
20
41.8396783038831
30
0
41
1
10
39.0499400078613
20
41.839014688462
30
0
41
1
10
39.0494789161518
20
41.8389753827424
30
0
0
SPLINE
5
1CF
100
AcDbEntity
8
1
62
256
6
ByLayer
370
18
48
1
60
0
100
AcDbSpline
70
4
71
1
72
4
73
2
40
0
40
0
40
1
40
1
41
1
10
39.9390886862343
20
41.1157752512202
30
0
41
1
10
40.0411636357192
20
40.2693815658961
30
0
0
SPLINE
5
1D0
100
AcDbEntity
8
1
62
256
6
ByLayer
370
18
48
1
60
0
100
AcDbSpline
70
4
71
3
72
21
73
17
40
0
40
0
40
0
40
0
40
0.000109683687946
40
0.0027068013926526
40
0.0033560808188296
40
0.0040053602450059
40
0.0088749559413304
40
0.0137445516376558
40
0.0234837430303057
40
0.0338722138491324
40
0.0442606846679588
40
0.0858145679432649
40
0.168922334493877
40
0.335137867595102
40
0.667568933797551
40
1
40
1
40
1
40
1
41
1
10
30.5566671659544
20
28.5112465261235
30
0
41
1
10
30.5568308194111
20
28.5112616032055
30
0
41
1
10
30.5608694329107
20
28.5116343680187
30
0
41
1
10
30.5658746221248
20
28.5121186925431
30
0
41
1
10
30.5716808687106
20
28.5127182980814
30
0
41
1
10
30.5808729127039
20
28.513679646836
30
0
41
1
10
30.596354063731
20
28.5153005733854
30
0
41
1
10
30.6253806718362
20
28.518345177931
30
0
41
1
10
30.6626305539517
20
28.5222615374321
30
0
41
1
10
30.7081032971837
20
28.5270537950682
30
0
41
1
10
30.8009834656971
20
28.5368454825772
30
0
41
1
10
31.0022332804919
20
28.5579675218673
30
0
41
1
10
31.4356858394151
20
28.6035458496934
30
0
41
1
10
32.3025964709223
20
28.6946480765973
30
0
41
1
10
33.5410377096878
20
28.8248189967451
30
0
41
1
10
34.5317911417931
20
28.9289513785633
30
0
41
1
10
35.0271678578456
20
28.9810175694724
30
0
0
SPLINE
5
1D1
100
AcDbEntity
8
1
62
256
6
ByLayer
370
18
48
1
60
0
100
AcDbSpline
70
4
71
3
72
20
73
16
40
0
40
0
40
0
40
0
40
0.332431012821208
40
0.664862025642415
40
0.831077532053019
40
0.914185285258321
40
0.955739161860972
40
0.976516100162298
40
0.986255289991044
40
0.995690130137642
40
0.99599447981979
40
0.996643759141707
40
0.997293038463623
40
0.999890155751289
40
1
40
1
40
1
40
1
41
1
10
33.73307762597
20
41.2934636721851
30
0
41
1
10
33.2377009099175
20
41.241397481276
30
0
41
1
10
32.2469474778122
20
41.1372650994576
30
0
41
1
10
31.0085050953608
20
41.0071050607553
30
0
41
1
10
30.1415973230685
20
40.9159756302382
30
0
41
1
10
29.7081404753228
20
40.8704381078318
30
0
41
1
10
29.4914166604392
20
40.8476270277525
30
0
41
1
10
29.3840157691147
20
40.836383013061
30
0
41
1
10
29.3244820636301
20
40.830127748865
30
0
41
1
10
29.2954569873518
20
40.8270686316253
30
0
41
1
10
29.2799772881444
20
40.8254339258903
30
0
41
1
10
29.2775888241233
20
40.825181647594
30
0
41
1
10
29.2717847929549
20
40.8245609637677
30
0
41
1
10
29.2667880433353
20
40.8239940401626
30
0
41
1
10
29.2627599422374
20
40.8235189549688
30
0
41
1
10
29.2625964913646
20
40.8234996488086
30
0
0
SPLINE
5
1D2
100
AcDbEntity
8
1
62
256
6
ByLayer
370
18
48
1
60
0
100
AcDbSpline
70
4
71
1
72
4
73
2
40
0
40
0
40
1
40
1
41
1
10
30.5566674078384
20
28.5112439034087
30
0
41
1
10
29.7107669246684
20
28.4355016783122
30
0
0
SPLINE
5
1D3
100
AcDbEntity
8
1
62
256
6
ByLayer
370
18
48
1
60
0
100
AcDbSpline
70
4
71
3
72
45
73
41
40
0
40
0
40
0
40
0
40
0.0011565097570502
40
0.0196321945810248
40
0.0288700369930121
40
0.0381078794049994
40
0.0565835642289739
40
0.130486303524872
40
0.20438904282077
40
0.278291782116669
40
0.310624230558624
40
0.340935900972957
40
0.342956679000579
40
0.347575600206573
40
0.352194521412567
40
0.370670206236541
40
0.379908048648529
40
0.389145891060516
40
0.40762157588449
40
0.426097260708465
40
0.463048630356414
40
0.500000000004363
40
0.536951369652312
40
0.555427054476286
40
0.573902739300261
40
0.592378424124237
40
0.61085410894821
40
0.629329793772185
40
0.64780547859616
40
0.652424399802152
40
0.657043321008147
40
0.689375769450103
40
0.721708217892058
40
0.795610957187956
40
0.869513696483854
40
0.943416435779752
40
0.961892120603727
40
0.980367805427701
40
0.998843490251677
40
1
40
1
40
1
40
1
41
1
10
28.8211609451436
20
29.1587065090836
30
0
41
1
10
28.8212185149787
20
29.1582455599304
30
0
41
1
10
28.8221982356595
20
29.1504265803843
30
0
41
1
10
28.8237060259645
20
29.139071944295
30
0
41
1
10
28.8259270054095
20
29.1247560114726
30
0
41
1
10
28.828341978805
20
29.1105215088071
30
0
41
1
10
28.8357830070038
20
29.0714513850149
30
0
41
1
10
28.8525269972351
20
29.0065888308753
30
0
41
1
10
28.8851400422022
20
28.9204013868925
30
0
41
1
10
28.92039211749
20
28.8519675776461
30
0
41
1
10
28.9517260183018
20
28.8018366182581
30
0
41
1
10
28.9678337495141
20
28.778689470647
30
0
41
1
10
28.9774070856304
20
28.7656671198184
30
0
41
1
10
28.9803470224845
20
28.7617122967247
30
0
41
1
10
28.9876625951306
20
28.7520225751788
30
0
41
1
10
28.9964267727773
20
28.7408526275974
30
0
41
1
10
29.0067475035953
20
28.7282849903689
30
0
41
1
10
29.0172679197415
20
28.715853780551
30
0
41
1
10
29.0307866001623
20
28.7005788496304
30
0
41
1
10
29.0531752317369
20
28.6767376615243
30
0
41
1
10
29.0825336661317
20
28.6481249811106
30
0
41
1
10
29.1198000256454
20
28.6159038190641
30
0
41
1
10
29.1524188624044
20
28.5909912018162
30
0
41
1
10
29.179332157574
20
28.572280637595
30
0
41
1
10
29.199896267698
20
28.5588716089434
30
0
41
1
10
29.2208095424351
20
28.5461006045317
30
0
41
1
10
29.242042007651
20
28.5339817540855
30
0
41
1
10
29.2635636892115
20
28.5225291873305
30
0
41
1
10
29.27989938204
20
28.5144500723269
30
0
41
1
10
29.2908614901994
20
28.50928104039
30
0
41
1
10
29.307346176284
20
28.5016576735145
30
0
41
1
10
29.3350877192641
20
28.489819630195
30
0
41
1
10
29.3912664300253
20
28.4691725498855
30
0
41
1
10
29.4652737460212
20
28.4487844578173
30
0
41
1
10
29.5560304872354
20
28.4346790222166
30
0
41
1
10
29.6227101036634
20
28.4317227529953
30
0
41
1
10
29.6659262011441
20
28.4326133147977
30
0
41
1
10
29.6874662795111
20
28.4336411201729
30
0
41
1
10
29.7024834178305
20
28.4348029377744
30
0
41
1
10
29.7103054759543
20
28.4354665531954
30
0
41
1
10
29.710766567664
20
28.4355058589151
30
0
0
SPLINE
5
1D4
100
AcDbEntity
8
1
62
256
6
ByLayer
370
18
48
1
60
0
100
AcDbSpline
70
4
71
1
72
4
73
2
40
0
40
0
40
1
40
1
41
1
10
28.8211567975813
20
29.1587059904373
30
0
41
1
10
28.7190818480965
20
30.0050996757615
30
0
0
SPLINE
5
1D5
100
AcDbEntity
8
1
62
256
6
ByLayer
370
18
48
1
60
0
100
AcDbSpline
70
4
71
3
72
41
73
37
40
0
40
0
40
0
40
0
40
0.0625
40
0.078125
40
0.09375
40
0.125
40
0.1875
40
0.21875
40
0.25
40
0.2578125
40
0.265625
40
0.28125
40
0.3125
40
0.375
40
0.4375
40
0.5
40
0.515625
40
0.5234375
40
0.53125
40
0.5625
40
0.625
40
0.6875
40
0.75
40
0.8125
40
0.84375
40
0.859375
40
0.8671875
40
0.875
40
0.90625
40
0.9375
40
0.96875
40
0.984375
40
0.986328125
40
0.98828125
40
0.9921875
40
1
40
1
40
1
40
1
41
1
10
28.2473259778765
20
34.4926577069054
30
0
41
1
10
28.2980365055477
20
34.4979875981362
30
0
41
1
10
28.3615143275795
20
34.5046593860772
30
0
41
1
10
28.4374007942006
20
34.5126353751184
30
0
41
1
10
28.4882829187122
20
34.5179833019039
30
0
41
1
10
28.5779507293607
20
34.52740776857
30
0
41
1
10
28.6813006610923
20
34.5382702841094
30
0
41
1
10
28.7842791965954
20
34.5490937643323
30
0
41
1
10
28.841786147752
20
34.5551379884561
30
0
41
1
10
28.8799943583165
20
34.5591538332084
30
0
41
1
10
28.9055445433444
20
34.5618392658666
30
0
41
1
10
28.9502000001987
20
34.5665327435097
30
0
41
1
10
29.0395512225327
20
34.5759239354031
30
0
41
1
10
29.1671773250637
20
34.5893379793097
30
0
41
1
10
29.3203340750031
20
34.6054354023878
30
0
41
1
10
29.4351351133989
20
34.6175014777361
30
0
41
1
10
29.5054501440056
20
34.6248918852557
30
0
41
1
10
29.5308243382901
20
34.6275588205415
30
0
41
1
10
29.5685583421846
20
34.6315248241643
30
0
41
1
10
29.6504091793854
20
34.6401276938142
30
0
41
1
10
29.775314044665
20
34.6532557241603
30
0
41
1
10
29.9211925568995
20
34.6685881736304
30
0
41
1
10
30.0607190081616
20
34.6832529945897
30
0
41
1
10
30.1696895058711
20
34.6947062554179
30
0
41
1
10
30.2415084962481
20
34.7022547354791
30
0
41
1
10
30.2759681056897
20
34.7058765863769
30
0
41
1
10
30.2956427979284
20
34.7079444798588
30
0
41
1
10
30.3252004857347
20
34.711051118032
30
0
41
1
10
30.3695870266487
20
34.7157163314707
30
0
41
1
10
30.4287561655469
20
34.721935258566
30
0
41
1
10
30.4780805295416
20
34.7271194581236
30
0
41
1
10
30.5088669764184
20
34.7303552440792
30
0
41
1
10
30.5212180653937
20
34.7316533958406
30
0
41
1
10
30.5260701009127
20
34.7321633653232
30
0
41
1
10
30.5355354778261
20
34.7331582165252
30
0
41
1
10
30.5451434746049
20
34.7341680576791
30
0
41
1
10
30.5514563511676
20
34.7348315677426
30
0
0
SPLINE
5
1D6
100
AcDbEntity
8
1
62
256
6
ByLayer
370
18
48
1
60
0
100
AcDbSpline
70
4
71
3
72
20
73
16
40
0
40
0
40
0
40
0
40
0.332431012821213
40
0.664862025642427
40
0.831077532053033
40
0.914185285258337
40
0.955739161860989
40
0.976516100162314
40
0.986255289991061
40
0.995690130137659
40
0.995994479819807
40
0.996643759141724
40
0.99729303846364
40
0.999890155751306
40
1
40
1
40
1
40
1
41
1
10
28.2473259778765
20
34.4926577069053
30
0
41
1
10
28.2995910531764
20
33.9953887322747
30
0
41
1
10
28.4041212037762
20
33.0008507830133
30
0
41
1
10
28.5347784741674
20
31.7576777562146
30
0
41
1
10
28.6262559005888
20
30.887458526166
30
0
41
1
10
28.6719675245064
20
30.4523459600314
30
0
41
1
10
28.6948654941775
20
30.2347942696296
30
0
41
1
10
28.7061527930841
20
30.1269831594432
30
0
41
1
10
28.7124319663089
20
30.0672220464451
30
0
41
1
10
28.7155027050849
20
30.0380860923857
30
0
41
1
10
28.7171435968787
20
30.0225472571195
30
0
41
1
10
28.7173968294807
20
30.0201496685705
30
0
41
1
10
28.7180198038559
20
30.0143234584995
30
0
41
1
10
28.7185885781906
20
30.0093075890184
30
0
41
1
10
28.7190650881095
20
30.0052640602357
30
0
41
1
10
28.7190844519762
20
30.0050999833213
30
0
0
SPLINE
5
1D7
100
AcDbEntity
8
1
62
256
6
ByLayer
370
18
48
1
60
0
100
AcDbSpline
70
4
71
3
72
21
73
17
40
0
40
0
40
0
40
0
40
0.000109683687932
40
0.0027068013926386
40
0.0033560808188156
40
0.004005360244992
40
0.0088749559413165
40
0.013744551637642
40
0.023483743030292
40
0.0338722138491188
40
0.0442606846679454
40
0.0858145679432521
40
0.168922334493866
40
0.335137867595092
40
0.667568933797546
40
1
40
1
40
1
40
1
41
1
10
27.7757597500324
20
38.9802349078806
30
0
41
1
10
27.7757749007221
20
38.9800706309776
30
0
41
1
10
27.7761494794285
20
38.9760166316203
30
0
41
1
10
27.7766359688053
20
38.9709923564845
30
0
41
1
10
27.7772379451017
20
38.9651639394265
30
0
41
1
10
27.7782030020569
20
38.9559367871028
30
0
41
1
10
27.7798301671021
20
38.9403965055145
30
0
41
1
10
27.7828864484142
20
38.9112590254084
30
0
41
1
10
27.7868177584271
20
38.8738668538126
30
0
41
1
10
27.7916282245722
20
38.8282204018792
30
0
41
1
10
27.8014570915859
20
38.7349854227571
30
0
41
1
10
27.8226600411609
20
38.5329668902781
30
0
41
1
10
27.8684123152213
20
38.0978585966457
30
0
41
1
10
27.9598626415475
20
37.2276365182623
30
0
41
1
10
28.0905307519768
20
35.9844646307974
30
0
41
1
10
28.1950609025766
20
34.9899266815361
30
0
41
1
10
28.2473259778765
20
34.4926577069054
30
0
0
SPLINE
5
1D8
100
AcDbEntity
8
1
62
256
6
ByLayer
370
18
48
1
60
0
100
AcDbSpline
70
4
71
1
72
4
73
2
40
0
40
0
40
1
40
1
41
1
10
27.7757571372711
20
38.9802346671718
30
0
41
1
10
27.6996262972867
20
39.8293559167669
30
0
0
SPLINE
5
1D9
100
AcDbEntity
8
1
62
256
6
ByLayer
370
18
48
1
60
0
100
AcDbSpline
70
4
71
3
72
45
73
41
40
0
40
0
40
0
40
0
40
0.0011565097571122
40
0.019632194581086
40
0.0288700369930729
40
0.0381078794050598
40
0.0565835642290337
40
0.130486303524929
40
0.204389042820824
40
0.27829178211672
40
0.310624230558674
40
0.340935900973006
40
0.342956679000628
40
0.347575600206621
40
0.352194521412615
40
0.370670206236589
40
0.379908048648576
40
0.389145891060563
40
0.407621575884537
40
0.42609726070851
40
0.463048630356458
40
0.500000000004406
40
0.536951369652353
40
0.555427054476327
40
0.573902739300301
40
0.592378424124275
40
0.610854108948249
40
0.629329793772223
40
0.647805478596196
40
0.65242439980219
40
0.657043321008183
40
0.689375769450137
40
0.721708217892092
40
0.795610957187987
40
0.869513696483882
40
0.943416435779778
40
0.961892120603752
40
0.980367805427725
40
0.9988434902517
40
1
40
1
40
1
40
1
41
1
10
28.4194341973484
20
40.7217126617328
30
0
41
1
10
28.4189750094768
20
40.7216552421709
30
0
41
1
10
28.4111859086825
20
40.7206780586722
30
0
41
1
10
28.3998747296056
20
40.7191736350409
30
0
41
1
10
28.3856138410362
20
40.7169557047758
30
0
41
1
10
28.3714342333162
20
40.7145429911493
30
0
41
1
10
28.3325154263982
20
40.7071051293925
30
0
41
1
10
28.2679075625038
20
40.690349989952
30
0
41
1
10
28.1820667588002
20
40.6576834044429
30
0
41
1
10
28.1139156029165
20
40.6223538549012
30
0
41
1
10
28.0639960680514
20
40.5909426119246
30
0
41
1
10
28.0409478420897
20
40.5747930420225
30
0
41
1
10
28.0279815488675
20
40.565194257437
30
0
41
1
10
28.024043776001
20
40.5622464703396
30
0
41
1
10
28.0143959183756
20
40.55491124371
30
0
41
1
10
28.0032744923757
20
40.546123172675
30
0
41
1
10
27.9907618127579
20
40.5357738402885
30
0
41
1
10
27.9783852110556
20
40.5252239683019
30
0
41
1
10
27.9631778492044
20
40.5116668831096
30
0
41
1
10
27.9394431446885
20
40.4892134942623
30
0
41
1
10
27.9109602321111
20
40.4597680420172
30
0
41
1
10
27.8788885370632
20
40.4223879768667
30
0
41
1
10
27.8540945005088
20
40.3896670067286
30
0
41
1
10
27.8354749103573
20
40.3626679808418
30
0
41
1
10
27.822132090665
20
40.3420376614714
30
0
41
1
10
27.8094251972689
20
40.3210563670785
30
0
41
1
10
27.7973682835442
20
40.2997541725962
30
0
41
1
10
27.7859754028661
20
40.2781611529569
30
0
41
1
10
27.7779393071739
20
40.2617708255596
30
0
41
1
10
27.7727982037322
20
40.2507718545995
30
0
41
1
10
27.7652162779827
20
40.2342316159679
30
0
41
1
10
27.7534442858255
20
40.2063957998079
30
0
41
1
10
27.7329185853212
20
40.1500235424424
30
0
41
1
10
27.7126650414471
20
40.0757558575411
30
0
41
1
10
27.6986840469657
20
39.9846711826741
30
0
41
1
10
27.695791636396
20
39.917744759645
30
0
41
1
10
27.6967131399799
20
39.8743664782611
30
0
41
1
10
27.6977541942181
20
39.8527451001612
30
0
41
1
10
27.6989235913006
20
39.8376709290008
30
0
41
1
10
27.6995909371251
20
39.8298191175378
30
0
41
1
10
27.6996304620465
20
39.8293562717913
30
0
0
SPLINE
5
1DA
100
AcDbEntity
8
1
62
256
6
ByLayer
370
18
48
1
60
0
100
AcDbSpline
70
4
71
1
72
4
73
2
40
0
40
0
40
1
40
1
41
1
10
28.4194336773448
20
40.7217168252037
30
0
41
1
10
29.2625961828855
20
40.8235022626616
30
0
0
SPLINE
5
1DB
100
AcDbEntity
8
1
62
256
6
ByLayer
370
18
48
1
60
0
100
AcDbSpline
70
4
71
3
72
8
73
4
40
0
40
0
40
0
40
0
40
1
40
1
40
1
40
1
41
1
10
35.1402895141006
20
36.1060749905764
30
0
41
1
10
35.1382112162629
20
36.0998854186989
30
0
41
1
10
35.1361322884086
20
36.0936946896185
30
0
41
1
10
35.1340527008118
20
36.0875027495789
30
0
0
SPLINE
5
1DC
100
AcDbEntity
8
1
62
256
6
ByLayer
370
18
48
1
60
0
100
AcDbSpline
70
4
71
3
72
26
73
22
40
0
40
0
40
0
40
0
40
0.0286869624045608
40
0.0286869624045608
40
0.141758577072855
40
0.141758577072855
40
0.254859186747131
40
0.254859186747131
40
0.368025661656521
40
0.368025661656521
40
0.481336136143542
40
0.481336136143542
40
0.594988764681281
40
0.594988764681281
40
0.731770501834066
40
0.731770501834066
40
0.814572892185905
40
0.814572892185905
40
0.903908109635031
40
0.903908109635031
40
1
40
1
40
1
40
1
41
1
10
34.9207565796112
20
36.421624244668
30
0
41
1
10
34.9247111806451
20
36.4198557068748
30
0
41
1
10
34.9286495204765
20
36.4180473571789
30
0
41
1
10
34.948016460243
20
36.4089208026135
30
0
41
1
10
34.9632078772777
20
36.401025497441
30
0
41
1
10
34.9928986769899
20
36.3840372257067
30
0
41
1
10
35.0074276383012
20
36.374927559404
30
0
41
1
10
35.0356057067203
20
36.3554720501428
30
0
41
1
10
35.0492902882147
20
36.345102141345
30
0
41
1
10
35.0754781288297
20
36.3230414708935
30
0
41
1
10
35.0880296803116
20
36.3113102037709
30
0
41
1
10
35.1114266014464
20
36.2864069889438
30
0
41
1
10
35.1223451954073
20
36.2731523546029
30
0
41
1
10
35.1433044589735
20
36.2424593335113
30
0
41
1
10
35.1529674770518
20
36.2243434525944
30
0
41
1
10
35.1625546557923
20
36.1944494701338
30
0
41
1
10
35.1648330042915
20
36.1827835355767
30
0
41
1
10
35.1656812432677
20
36.1592961776684
30
0
41
1
10
35.1639047494045
20
36.147239361411
30
0
41
1
10
35.1556643440469
20
36.1249407224359
30
0
41
1
10
35.1487602981733
20
36.1145677179832
30
0
41
1
10
35.1402895141006
20
36.1060749905764
30
0
0
SPLINE
5
1DD
100
AcDbEntity
8
1
62
256
6
ByLayer
370
18
48
1
60
0
100
AcDbSpline
70
4
71
3
72
8
73
4
40
0
40
0
40
0
40
0
40
1
40
1
40
1
40
1
41
1
10
35.5202087609443
20
35.5813432166085
30
0
41
1
10
35.5138883384232
20
35.5810127256518
30
0
41
1
10
35.5075665108069
20
35.5806821480045
30
0
41
1
10
35.5012432123988
20
35.5803514795922
30
0
0
SPLINE
5
1DE
100
AcDbEntity
8
1
62
256
6
ByLayer
370
18
48
1
60
0
100
AcDbSpline
70
4
71
3
72
26
73
22
40
0
40
0
40
0
40
0
40
0.0286988395658621
40
0.0286988395658621
40
0.141769071600764
40
0.141769071600764
40
0.254868298287101
40
0.254868298287101
40
0.368033389403153
40
0.368033389403153
40
0.481342478336019
40
0.481342478336019
40
0.594993717135763
40
0.594993717135763
40
0.731773781728584
40
0.731773781728584
40
0.814575159577657
40
0.814575159577657
40
0.903909284641006
40
0.903909284641006
40
1
40
1
40
1
40
1
41
1
10
35.7466899759095
20
35.2808726248976
30
0
41
1
10
35.7462358587059
20
35.2851932614778
30
0
41
1
10
35.745739680757
20
35.2895097196223
30
0
41
1
10
35.7430814674561
20
35.3108035708062
30
0
41
1
10
35.7403092607968
20
35.3277190226724
30
0
41
1
10
35.7334389999725
20
35.3612276665664
30
0
41
1
10
35.7293342980622
20
35.377854193518
30
0
41
1
10
35.719708524417
20
35.4106120882208
30
0
41
1
10
35.7141757046272
20
35.4267846121927
30
0
41
1
10
35.7015277289879
20
35.458362673987
30
0
41
1
10
35.694389359159
20
35.4738264685102
30
0
41
1
10
35.6782673550108
20
35.5035054733028
30
0
41
1
10
35.6692287644253
20
35.5178150356628
30
0
41
1
10
35.6470189980253
20
35.5467456368616
30
0
41
1
10
35.6331085724712
20
35.5611886089076
30
0
41
1
10
35.6082925693386
20
35.5788111521415
30
0
41
1
10
35.5981801515707
20
35.5842589300856
30
0
41
1
10
35.5767326610212
20
35.5915656890934
30
0
41
1
10
35.565079606358
20
35.5931500487233
30
0
41
1
10
35.5420918308723
20
35.5912199847887
30
0
41
1
10
35.5305085395801
20
35.5873097978156
30
0
41
1
10
35.5202087609443
20
35.5813432166085
30
0
0
SPLINE
5
1DF
100
AcDbEntity
8
1
62
256
6
ByLayer
370
18
48
1
60
0
100
AcDbSpline
70
4
71
3
72
26
73
22
40
0
40
0
40
0
40
0
40
0.19263543426524
40
0.19263543426524
40
0.302770898699819
40
0.302770898699819
40
0.41297646518318
40
0.41297646518318
40
0.523333561905852
40
0.523333561905852
40
0.619800125856669
40
0.619800125856669
40
0.690514804516468
40
0.690514804516468
40
0.807896947452435
40
0.807896947452435
40
0.891597280195613
40
0.891597280195613
40
0.975315961249751
40
0.975315961249751
40
1
40
1
40
1
40
1
41
1
10
35.7466899759095
20
35.2808726248976
30
0
41
1
10
35.7497304583999
20
35.2519443663672
30
0
41
1
10
35.750909187539
20
35.2227377073319
30
0
41
1
10
35.7495786756424
20
35.1770696513633
30
0
41
1
10
35.7484247218263
20
35.1604468283764
30
0
41
1
10
35.7446310339553
20
35.1274617622116
30
0
41
1
10
35.7419865799968
20
35.1110545033454
30
0
41
1
10
35.7349649620103
20
35.0787697484049
30
0
41
1
10
35.7305729936762
20
35.0628239169669
30
0
41
1
10
35.7203656826993
20
35.0339401071336
30
0
41
1
10
35.7147708828867
20
35.0207997088069
30
0
41
1
10
35.7033774847619
20
34.9993203692461
30
0
41
1
10
35.6980006440335
20
34.9905868899512
30
0
41
1
10
35.6822431645109
20
34.9692252626041
30
0
41
1
10
35.6705438856567
20
34.9574082979767
30
0
41
1
10
35.6481944154441
20
34.9431883232417
30
0
41
1
10
35.6379695327947
20
34.93897202271
30
0
41
1
10
35.6173511243101
20
34.9350527031571
30
0
41
1
10
35.6067162566136
20
34.9352971371314
30
0
41
1
10
35.5935725752654
20
34.9381042475987
30
0
41
1
10
35.5905797487258
20
34.9389165256713
30
0
41
1
10
35.5876292676437
20
34.9398799441827
30
0
0
SPLINE
5
1E0
100
AcDbEntity
8
1
62
256
6
ByLayer
370
18
48
1
60
0
100
AcDbSpline
70
4
71
3
72
26
73
22
40
0
40
0
40
0
40
0
40
0.0753632465605918
40
0.0753632465605918
40
0.133990653438595
40
0.133990653438595
40
0.208552868369835
40
0.208552868369835
40
0.300524113423266
40
0.300524113423266
40
0.399920035818964
40
0.399920035818964
40
0.499275462063613
40
0.499275462063613
40
0.577746029348554
40
0.577746029348554
40
0.777160361616589
40
0.777160361616589
40
0.913864695659914
40
0.913864695659914
40
1
40
1
40
1
40
1
41
1
10
35.5012432123988
20
35.5803514795922
30
0
41
1
10
35.486241813285
20
35.5795670015384
30
0
41
1
10
35.4707113747684
20
35.5818130256401
30
0
41
1
10
35.4436897545669
20
35.5892575286277
30
0
41
1
10
35.4319005264933
20
35.5937384477959
30
0
41
1
10
35.4056561575838
20
35.6058847298491
30
0
41
1
10
35.39123319739
20
35.6141323609548
30
0
41
1
10
35.3599763357183
20
35.6347849312966
30
0
41
1
10
35.3432300330741
20
35.6477987906276
30
0
41
1
10
35.309814721508
20
35.6771584820426
30
0
41
1
10
35.2931391938562
20
35.6937998391975
30
0
41
1
10
35.26154515911
20
35.7289812062802
30
0
41
1
10
35.24652972992
20
35.7476310293242
30
0
41
1
10
35.2214318322475
20
35.7822954072885
30
0
41
1
10
35.2109293861622
20
35.7981074999467
30
0
41
1
10
35.1765144630656
20
35.854888055089
30
0
41
1
10
35.1558180544926
20
35.8984954376003
30
0
41
1
10
35.1330092811597
20
35.9724867890125
30
0
41
1
10
35.1268766154786
20
36.0034947132408
30
0
41
1
10
35.1262751282096
20
36.052005062191
30
0
41
1
10
35.1284023461403
20
36.0706789055724
30
0
41
1
10
35.1340527008117
20
36.0875027495789
30
0
0
SPLINE
5
1E1
100
AcDbEntity
8
1
62
256
6
ByLayer
370
18
48
1
60
0
100
AcDbSpline
70
4
71
3
72
26
73
22
40
0
40
0
40
0
40
0
40
0.0369679839398746
40
0.0369679839398746
40
0.140366078223018
40
0.140366078223018
40
0.298318733654425
40
0.298318733654425
40
0.500628765508187
40
0.500628765508187
40
0.645354084681086
40
0.645354084681086
40
0.712297154914701
40
0.712297154914701
40
0.779275168169086
40
0.779275168169086
40
0.846325584405817
40
0.846325584405817
40
0.913536350357164
40
0.913536350357164
40
1
40
1
40
1
40
1
41
1
10
35.3151481282375
20
34.3644948520409
30
0
41
1
10
35.3112360930525
20
34.3711190191593
30
0
41
1
10
35.3079023332696
20
34.3782189403396
30
0
41
1
10
35.2973134983538
20
34.4060101135692
30
0
41
1
10
35.2933601597182
20
34.4288376796345
30
0
41
1
10
35.2898305066828
20
34.4872479927428
30
0
41
1
10
35.2934815940757
20
34.5243884354122
30
0
41
1
10
35.3099048602162
20
34.607453446171
30
0
41
1
10
35.3252702341933
20
34.6543722936165
30
0
41
1
10
35.3588869510896
20
34.7302130663879
30
0
41
1
10
35.3753545363677
20
34.7609958125404
30
0
41
1
10
35.4023990508964
20
34.8028701359593
30
0
41
1
10
35.4114500686953
20
34.8157405171929
30
0
41
1
10
35.4304385557966
20
34.8403362522263
30
0
41
1
10
35.4404081038421
20
34.8521036336104
30
0
41
1
10
35.4612523206949
20
34.8741634428256
30
0
41
1
10
35.4721728088938
20
34.8845044500513
30
0
41
1
10
35.4949472210138
20
34.9031992959607
30
0
41
1
10
35.5068774325175
20
34.9116127820735
30
0
41
1
10
35.5350376800813
20
34.9274937314742
30
0
41
1
10
35.5518798597086
20
34.9342135821331
30
0
41
1
10
35.5688719681173
20
34.9369068501004
30
0
0
SPLINE
5
1E2
100
AcDbEntity
8
1
62
256
6
ByLayer
370
18
48
1
60
0
100
AcDbSpline
70
4
71
3
72
8
73
4
40
0
40
0
40
0
40
0
40
1
40
1
40
1
40
1
41
1
10
35.5688719681173
20
34.9369068501004
30
0
41
1
10
35.5751258371126
20
34.9378980952498
30
0
41
1
10
35.5813782485852
20
34.9388891233859
30
0
41
1
10
35.5876292676437
20
34.9398799441827
30
0
0
SPLINE
5
1E3
100
AcDbEntity
8
1
62
256
6
ByLayer
370
18
48
1
60
0
100
AcDbSpline
70
4
71
3
72
26
73
22
40
0
40
0
40
0
40
0
40
0.0843971137813624
40
0.0843971137813624
40
0.289834052492055
40
0.289834052492055
40
0.39209513087107
40
0.39209513087107
40
0.49445277153727
40
0.49445277153727
40
0.597019768820977
40
0.597019768820977
40
0.672954859099038
40
0.672954859099038
40
0.79688355788434
40
0.79688355788434
40
0.881282445819646
40
0.881282445819646
40
0.965825257041697
40
0.965825257041697
40
1
40
1
40
1
40
1
41
1
10
35.1759808040238
20
33.9933279560588
30
0
41
1
10
35.1862725228901
20
34.0008313425918
30
0
41
1
10
35.1963588227548
20
34.0086441758514
30
0
41
1
10
35.2301238700837
20
34.0364281787865
30
0
41
1
10
35.2527720807618
20
34.0579093872693
30
0
41
1
10
35.2837542392621
20
34.0925778677523
30
0
41
1
10
35.2936000763361
20
34.1045635594879
30
0
41
1
10
35.3120482018639
20
34.1293917541909
30
0
41
1
10
35.3206806115833
20
34.1422744633353
30
0
41
1
10
35.3362640112342
20
34.1688902393155
30
0
41
1
10
35.3432562239897
20
34.1826971499748
30
0
41
1
10
35.3532911962608
20
34.2073291101441
30
0
41
1
10
35.3569078503
20
34.2180583317983
30
0
41
1
10
35.3639535893267
20
34.246319050687
30
0
41
1
10
35.3659360047568
20
34.2644652284337
30
0
41
1
10
35.3629337373025
20
34.2929756369357
30
0
41
1
10
35.3598817746297
20
34.3042261239874
30
0
41
1
10
35.3501832260117
20
34.3239939611345
30
0
41
1
10
35.3434138522125
20
34.3327413493197
30
0
41
1
10
35.3322062468936
20
34.3426422231447
30
0
41
1
10
35.3287375399239
20
34.3452627613849
30
0
41
1
10
35.3251100382223
20
34.3476251654618
30
0
0
SPLINE
5
1E4
100
AcDbEntity
8
1
62
256
6
ByLayer
370
18
48
1
60
0
100
AcDbSpline
70
4
71
3
72
8
73
4
40
0
40
0
40
0
40
0
40
1
40
1
40
1
40
1
41
1
10
35.3151481282396
20
34.3644948520375
30
0
41
1
10
35.3184696485811
20
34.3588705913174
30
0
41
1
10
35.3217902718243
20
34.3532473779259
30
0
41
1
10
35.3251100382223
20
34.3476251654618
30
0
0
SPLINE
5
1E5
100
AcDbEntity
8
1
62
256
6
ByLayer
370
18
48
1
60
0
100
AcDbSpline
70
4
71
3
72
26
73
22
40
0
40
0
40
0
40
0
40
0.0286869624045574
40
0.0286869624045574
40
0.141758577072852
40
0.141758577072852
40
0.254859186747129
40
0.254859186747129
40
0.368025661656519
40
0.368025661656519
40
0.48133613614354
40
0.48133613614354
40
0.59498876468128
40
0.59498876468128
40
0.731770501834066
40
0.731770501834066
40
0.814572892185903
40
0.814572892185903
40
0.90390810963503
40
0.90390810963503
40
1
40
1
40
1
40
1
41
1
10
35.1759808040238
20
33.9933279560588
30
0
41
1
10
35.1724803201935
20
33.9907758572722
30
0
41
1
10
35.168955264782
20
33.988259036363
30
0
41
1
10
35.1514270915729
20
33.9760056124216
30
0
41
1
10
35.1370684775191
20
33.9667816261873
30
0
41
1
10
35.1077184670385
20
33.949574978909
30
0
41
1
10
35.0926979867697
20
33.9415750359807
30
0
41
1
10
35.0620943698627
20
33.9270060055422
30
0
41
1
10
35.0464729908662
20
33.920418301955
30
0
41
1
10
35.0147627785136
20
33.9089911301464
30
0
41
1
10
34.9986154851906
20
33.9041304021475
30
0
41
1
10
34.9660426853017
20
33.8966956975456
30
0
41
1
10
34.9495111407689
20
33.8941008304976
30
0
41
1
10
34.9135241577699
20
33.8919494329185
30
0
41
1
10
34.8937193171377
20
33.8930943486455
30
0
41
1
10
34.8644587508704
20
33.9006897644894
30
0
41
1
10
34.8538275489651
20
33.9049671428967
30
0
41
1
10
34.8344510371116
20
33.9169461197531
30
0
41
1
10
34.8257045310071
20
33.9250877791173
30
0
41
1
10
34.812229084095
20
33.9446179414183
30
0
41
1
10
34.8076347528515
20
33.9564751517373
30
0
41
1
10
34.8054107366513
20
33.9687278411902
30
0
0
SPLINE
5
1E6
100
AcDbEntity
8
1
62
256
6
ByLayer
370
18
48
1
60
0
100
AcDbSpline
70
4
71
3
72
26
73
22
40
0
40
0
40
0
40
0
40
0.0843971137813577
40
0.0843971137813577
40
0.289834052492051
40
0.289834052492051
40
0.392095130871066
40
0.392095130871066
40
0.494452771537266
40
0.494452771537266
40
0.597019768820974
40
0.597019768820974
40
0.672954859099036
40
0.672954859099036
40
0.796883557884339
40
0.796883557884339
40
0.881282445819646
40
0.881282445819646
40
0.965825257041696
40
0.965825257041696
40
1
40
1
40
1
40
1
41
1
10
34.9207565796112
20
36.421624244668
30
0
41
1
10
34.9091297177138
20
36.4268238955316
30
0
41
1
10
34.8973548583719
20
36.4316832532121
30
0
41
1
10
34.8565891955664
20
36.4471108268447
30
0
41
1
10
34.8268906218947
20
36.4559938716025
30
0
41
1
10
34.7819166800787
20
36.4654135802541
30
0
41
1
10
34.7668277935803
20
36.4679061438981
30
0
41
1
10
34.7366141844939
20
36.4713463529361
30
0
41
1
10
34.7214403038702
20
36.4722998318432
30
0
41
1
10
34.6913090673745
20
36.4722721457098
30
0
41
1
10
34.6762690408905
20
36.4712891907822
30
0
41
1
10
34.6507732510759
20
36.4673638213865
30
0
41
1
10
34.6400810130576
20
36.4649823468919
30
0
41
1
10
34.6132896510537
20
36.456495212296
30
0
41
1
10
34.5974922394561
20
36.4487769211045
30
0
41
1
10
34.5761012342893
20
36.431169201535
30
0
41
1
10
34.568707667406
20
36.4225475338902
30
0
41
1
10
34.5581629017672
20
36.4035064647011
30
0
41
1
10
34.5548949667182
20
36.3928564055527
30
0
41
1
10
34.5532001513025
20
36.3776175940937
30
0
41
1
10
34.5530354309078
20
36.3731331163449
30
0
41
1
10
34.5531697058302
20
36.3686409387307
30
0
0
SPLINE
5
1E7
100
AcDbEntity
8
1
62
256
6
ByLayer
370
18
48
1
60
0
100
AcDbSpline
70
4
71
3
72
8
73
4
40
0
40
0
40
0
40
0
40
1
40
1
40
1
40
1
41
1
10
33.910731229565
20
36.3011179339775
30
0
41
1
10
33.9152219210328
20
36.2959526029165
30
0
41
1
10
33.9197131827035
20
36.2907863017914
30
0
41
1
10
33.9242050405527
20
36.2856189855311
30
0
0
SPLINE
5
1E8
100
AcDbEntity
8
1
62
256
6
ByLayer
370
18
48
1
60
0
100
AcDbSpline
70
4
71
3
72
26
73
22
40
0
40
0
40
0
40
0
40
0.0286869624046346
40
0.0286869624046346
40
0.14175857707292
40
0.14175857707292
40
0.254859186747189
40
0.254859186747189
40
0.36802566165657
40
0.36802566165657
40
0.481336136143582
40
0.481336136143582
40
0.594988764681312
40
0.594988764681312
40
0.731770501834087
40
0.731770501834087
40
0.814572892185919
40
0.814572892185919
40
0.903908109635038
40
0.903908109635038
40
1
40
1
40
1
40
1
41
1
10
33.524114011427
20
36.2748311955995
30
0
41
1
10
33.5276144952572
20
36.2773832943861
30
0
41
1
10
33.5311419058271
20
36.2799003628323
30
0
41
1
10
33.5486933808685
20
36.2921562358952
30
0
41
1
10
33.5631070150721
20
36.3013860049802
30
0
41
1
10
33.5926451846812
20
36.3186124285797
30
0
41
1
10
33.6077989370237
20
36.3266263789675
30
0
41
1
10
33.638760813197
20
36.3412330639721
30
0
41
1
10
33.6546075123881
20
36.3478444496661
30
0
41
1
10
33.686885258876
20
36.359331271716
30
0
41
1
10
33.7033756198266
20
36.3642280575755
30
0
41
1
10
33.7367948374239
20
36.3717517242634
30
0
41
1
10
33.7538323815932
20
36.3743997740163
30
0
41
1
10
33.7911827647376
20
36.3766944707249
30
0
41
1
10
33.811911133547
20
36.3756466217209
30
0
41
1
10
33.8430444870884
20
36.3682480437511
30
0
41
1
10
33.8544875430891
20
36.3640559946477
30
0
41
1
10
33.8757268107942
20
36.3522728013205
30
0
41
1
10
33.8855653181038
20
36.3442459159079
30
0
41
1
10
33.9013825010638
20
36.3249618799834
30
0
41
1
10
33.9072663624152
20
36.3132402047403
30
0
41
1
10
33.910731229565
20
36.3011179339775
30
0
0
SPLINE
5
1E9
100
AcDbEntity
8
1
62
256
6
ByLayer
370
18
48
1
60
0
100
AcDbSpline
70
4
71
3
72
8
73
4
40
0
40
0
40
0
40
0
40
1
40
1
40
1
40
1
41
1
10
34.5451193920173
20
36.3508797136072
30
0
41
1
10
34.5478035936333
20
36.3568012641099
30
0
41
1
10
34.5504870199538
20
36.3627216553296
30
0
41
1
10
34.5531697058302
20
36.3686409387307
30
0
0
SPLINE
5
1EA
100
AcDbEntity
8
1
62
256
6
ByLayer
370
18
48
1
60
0
100
AcDbSpline
70
4
71
3
72
30
73
26
40
0
40
0
40
0
40
0
40
0.0754486908212222
40
0.0754486908212222
40
0.134142567439273
40
0.134142567439273
40
0.208789318447096
40
0.208789318447096
40
0.300864837338271
40
0.300864837338271
40
0.400373451415987
40
0.400373451415987
40
0.499841523429531
40
0.499841523429531
40
0.644794997236281
40
0.644794997236281
40
0.711843600985095
40
0.711843600985095
40
0.778927202841184
40
0.778927202841184
40
0.846083321820495
40
0.846083321820495
40
0.913400043300354
40
0.913400043300354
40
1
40
1
40
1
40
1
41
1
10
33.9242050405527
20
36.2856189855311
30
0
41
1
10
33.9348615283554
20
36.2733600395561
30
0
41
1
10
33.9480611560848
20
36.2627576859023
30
0
41
1
10
33.9735133566708
20
36.2467353626745
30
0
41
1
10
33.985484483895
20
36.2405904093558
30
0
41
1
10
34.0136444200384
20
36.2284065330007
30
0
41
1
10
34.0302140689785
20
36.2227939541692
30
0
41
1
10
34.0680263855074
20
36.2125580857168
30
0
41
1
10
34.0896196703836
20
36.2084260916647
30
0
41
1
10
34.1349856431344
20
36.2025539916768
30
0
41
1
10
34.1589619196544
20
36.2010154486538
30
0
41
1
10
34.2068053969365
20
36.2006715526286
30
0
41
1
10
34.2308206925527
20
36.2018664386708
30
0
41
1
10
34.2889487693622
20
36.2079759457313
30
0
41
1
10
34.3230781367131
20
36.2143648284101
30
0
41
1
10
34.3707362886034
20
36.2277682844262
30
0
41
1
10
34.3855805734493
20
36.2326371987168
30
0
41
1
10
34.4144033329765
20
36.2436501651525
30
0
41
1
10
34.4284309455515
20
36.249812683353
30
0
41
1
10
34.4553145305961
20
36.2635311189442
30
0
41
1
10
34.4682296607305
20
36.2711171933533
30
0
41
1
10
34.4924123801173
20
36.2878669323048
30
0
41
1
10
34.5037581027402
20
36.2970876949355
30
0
41
1
10
34.5267373672759
20
36.3201244450433
30
0
41
1
10
34.5378262675722
20
36.3347905329476
30
0
41
1
10
34.5451193920173
20
36.3508797136072
30
0
0
SPLINE
5
1EB
100
AcDbEntity
8
1
62
256
6
ByLayer
370
18
48
1
60
0
100
AcDbSpline
70
4
71
3
72
8
73
4
40
0
40
0
40
0
40
0
40
1
40
1
40
1
40
1
41
1
10
34.8054107366513
20
33.9687278411902
30
0
41
1
10
34.8015559856774
20
33.9739600122906
30
0
41
1
10
34.7977002801115
20
33.979193113054
30
0
41
1
10
34.7938435751638
20
33.9844271865743
30
0
0
SPLINE
5
1EC
100
AcDbEntity
8
1
62
256
6
ByLayer
370
18
48
1
60
0
100
AcDbSpline
70
4
71
3
72
26
73
22
40
0
40
0
40
0
40
0
40
0.0843971137812971
40
0.0843971137812971
40
0.289834052492004
40
0.289834052492004
40
0.392095130871025
40
0.392095130871025
40
0.494452771537232
40
0.494452771537232
40
0.597019768820946
40
0.597019768820946
40
0.672954859099013
40
0.672954859099013
40
0.796883557884324
40
0.796883557884324
40
0.881282445819638
40
0.881282445819638
40
0.965825257041697
40
0.965825257041697
40
1
40
1
40
1
40
1
41
1
10
33.7793382358398
20
33.8465349069903
30
0
41
1
10
33.7909650977372
20
33.8413352561266
30
0
41
1
10
33.8027602456456
20
33.8364780308606
30
0
41
1
10
33.8436668373254
20
33.8210652694495
30
0
41
1
10
33.8735854857927
20
33.8122053554848
30
0
41
1
10
33.9191255341702
20
33.8028451470304
30
0
41
1
10
33.9344432430524
20
33.8003766335881
30
0
41
1
10
33.9652160375916
20
33.7969951973095
30
0
41
1
10
33.9807210520004
20
33.7960765219656
30
0
41
1
10
34.0116507292121
20
33.7961881275999
30
0
41
1
10
34.0271601761538
20
33.7972204206056
30
0
41
1
10
34.0536376245036
20
33.801248966471
30
0
41
1
10
34.0648021175425
20
33.8036800769684
30
0
41
1
10
34.0930007581876
20
33.8123151225097
30
0
41
1
10
34.109868588788
20
33.8201459192719
30
0
41
1
10
34.1334019478238
20
33.8379788093065
30
0
41
1
10
34.1417824628703
20
33.8467042093831
30
0
41
1
10
34.1544072379428
20
33.8659638963732
30
0
41
1
10
34.1587937001433
20
33.8767315174624
30
0
41
1
10
34.1620421228965
20
33.8921336196326
30
0
41
1
10
34.1626587188384
20
33.8966655914152
30
0
41
1
10
34.1629722603861
20
33.9012048364372
30
0
0
SPLINE
5
1ED
100
AcDbEntity
8
1
62
256
6
ByLayer
370
18
48
1
60
0
100
AcDbSpline
70
4
71
3
72
8
73
4
40
0
40
0
40
0
40
0
40
1
40
1
40
1
40
1
41
1
10
34.1729292236989
20
33.9191664584981
30
0
41
1
10
34.1696098691816
20
33.9131781507356
30
0
41
1
10
34.1662908867563
20
33.9071909598775
30
0
41
1
10
34.1629722603861
20
33.9012048364372
30
0
0
SPLINE
5
1EE
100
AcDbEntity
8
1
62
256
6
ByLayer
370
18
48
1
60
0
100
AcDbSpline
70
4
71
3
72
30
73
26
40
0
40
0
40
0
40
0
40
0.0754486908212213
40
0.0754486908212213
40
0.134142567439273
40
0.134142567439273
40
0.208789318447096
40
0.208789318447096
40
0.300864837338271
40
0.300864837338271
40
0.400373451415987
40
0.400373451415987
40
0.499841523429531
40
0.499841523429531
40
0.644794997236279
40
0.644794997236279
40
0.711843600985094
40
0.711843600985094
40
0.778927202841183
40
0.778927202841183
40
0.846083321820494
40
0.846083321820494
40
0.913400043300354
40
0.913400043300354
40
1
40
1
40
1
40
1
41
1
10
34.7938435751638
20
33.9844271865743
30
0
41
1
10
34.7846939247045
20
33.9968445075359
30
0
41
1
10
34.772934560491
20
34.0075982389851
30
0
41
1
10
34.7498241934164
20
34.0238666988332
30
0
41
1
10
34.7388174851544
20
34.0301130166695
30
0
41
1
10
34.7126841972713
20
34.0425099023402
30
0
41
1
10
34.6971410630572
20
34.0482303722168
30
0
41
1
10
34.6613616672698
20
34.0586799092492
30
0
41
1
10
34.6407229128979
20
34.0629122285001
30
0
41
1
10
34.5969718714624
20
34.0689540646086
30
0
41
1
10
34.5736315925967
20
34.0705594536788
30
0
41
1
10
34.5266351763485
20
34.0709923794062
30
0
41
1
10
34.5028334526924
20
34.0698199406817
30
0
41
1
10
34.4447053758829
20
34.063710433621
30
0
41
1
10
34.4101226288435
20
34.0572738988168
30
0
41
1
10
34.3611594633092
20
34.0437332803396
30
0
41
1
10
34.3458056313234
20
34.0388108104866
30
0
41
1
10
34.3157793741641
20
34.0276713513526
30
0
41
1
10
34.3010557580972
20
34.0214356802374
30
0
41
1
10
34.2725994559605
20
34.0075519454189
30
0
41
1
10
34.2588040851781
20
33.9998733539896
30
0
41
1
10
34.2326829029337
20
33.982919874382
30
0
41
1
10
34.2202722882071
20
33.9735871870811
30
0
41
1
10
34.1946752527358
20
33.9502752981608
30
0
41
1
10
34.1819480937534
20
33.9354370223302
30
0
41
1
10
34.1729292236989
20
33.9191664584981
30
0
0
SPLINE
5
1EF
100
AcDbEntity
8
1
62
256
6
ByLayer
370
18
48
1
60
0
100
AcDbSpline
70
4
71
3
72
26
73
22
40
0
40
0
40
0
40
0
40
0.0286869624046274
40
0.0286869624046274
40
0.141758577072914
40
0.141758577072914
40
0.254859186747184
40
0.254859186747184
40
0.368025661656566
40
0.368025661656566
40
0.481336136143579
40
0.481336136143579
40
0.59498876468131
40
0.59498876468131
40
0.731770501834086
40
0.731770501834086
40
0.814572892185918
40
0.814572892185918
40
0.903908109635038
40
0.903908109635038
40
1
40
1
40
1
40
1
41
1
10
33.7793382358398
20
33.8465349069903
30
0
41
1
10
33.7753836348058
20
33.8483034447835
30
0
41
1
10
33.7714476501326
20
33.8501120420165
30
0
41
1
10
33.7521040121985
20
33.8592410457032
30
0
41
1
10
33.7369676153136
20
33.8671421337265
30
0
41
1
10
33.7074649747298
20
33.884150181782
30
0
41
1
10
33.6930692854921
20
33.8932738555441
30
0
41
1
10
33.6652494763393
20
33.9127670193716
30
0
41
1
10
33.6517902150397
20
33.9231606102761
30
0
41
1
10
33.6261699085601
20
33.9452809309689
30
0
41
1
10
33.6139614247057
20
33.9570482559522
30
0
41
1
10
33.5914109212791
20
33.9820404328652
30
0
41
1
10
33.5809983269546
20
33.9953482499109
30
0
41
1
10
33.561402463534
20
34.0261845701322
30
0
41
1
10
33.5526629736328
20
34.0443975177719
30
0
41
1
10
33.5449485821666
20
34.0744883381067
30
0
41
1
10
33.5434820877626
20
34.0862396019677
30
0
41
1
10
33.5444966046379
20
34.1099227434053
30
0
41
1
10
33.5473650997062
20
34.1220943336142
30
0
41
1
10
33.5579472411118
20
34.1446390989658
30
0
41
1
10
33.5661408170934
20
34.1551476384944
30
0
41
1
10
33.5758524521157
20
34.1637707845913
30
0
0
SPLINE
5
1F0
100
AcDbEntity
8
1
62
256
6
ByLayer
370
18
48
1
60
0
100
AcDbSpline
70
4
71
3
72
26
73
22
40
0
40
0
40
0
40
0
40
0.0843971137812887
40
0.0843971137812887
40
0.289834052491998
40
0.289834052491998
40
0.392095130871021
40
0.392095130871021
40
0.494452771537229
40
0.494452771537229
40
0.597019768820945
40
0.597019768820945
40
0.672954859099011
40
0.672954859099011
40
0.796883557884324
40
0.796883557884324
40
0.881282445819637
40
0.881282445819637
40
0.965825257041694
40
0.965825257041694
40
1
40
1
40
1
40
1
41
1
10
33.524114011427
20
36.2748311955995
30
0
41
1
10
33.5138222925607
20
36.2673278090666
30
0
41
1
10
33.5037562812627
20
36.2595171082212
30
0
41
1
10
33.470132162808
20
36.2317479175076
30
0
41
1
10
33.4477040269255
20
36.210289839818
30
0
41
1
10
33.4172879749869
20
36.1756808595322
30
0
41
1
10
33.4076709602966
20
36.1637192179982
30
0
41
1
10
33.3897820202217
20
36.1389497960546
30
0
41
1
10
33.3814807442873
20
36.1261018904735
30
0
41
1
10
33.3666957853525
20
36.0995700339941
30
0
41
1
10
33.3601729930546
20
36.0858124614131
30
0
41
1
10
33.3511196793188
20
36.0612836777135
30
0
41
1
10
33.3479752803001
20
36.0506040920621
30
0
41
1
10
33.3423368199145
20
36.0224912841187
30
0
41
1
10
33.3414248234872
20
36.0044576119427
30
0
41
1
10
33.3465694448107
20
35.9761723739057
30
0
41
1
10
33.3506083556465
20
35.9650256192861
30
0
41
1
10
33.3623869136982
20
35.9454763999398
30
0
41
1
10
33.370274814649
20
35.9368465736954
30
0
41
1
10
33.3830360273053
20
35.9271089905816
30
0
41
1
10
33.3869566098222
20
35.9245359463752
30
0
41
1
10
33.3910319279941
20
35.922220609706
30
0
0
SPLINE
5
1F1
100
AcDbEntity
8
1
62
256
6
ByLayer
370
18
48
1
60
0
100
AcDbSpline
70
4
71
3
72
8
73
4
40
0
40
0
40
0
40
0
40
1
40
1
40
1
40
1
41
1
10
33.1285126985726
20
35.329965830985
30
0
41
1
10
33.1353996581249
20
35.331023491821
30
0
41
1
10
33.1422876257022
20
35.3320813195956
30
0
41
1
10
33.1491766475991
20
35.333139322005
30
0
0
SPLINE
5
1F2
100
AcDbEntity
8
1
62
256
6
ByLayer
370
18
48
1
60
0
100
AcDbSpline
70
4
71
3
72
26
73
22
40
0
40
0
40
0
40
0
40
0.0286869624046632
40
0.0286869624046632
40
0.141758577072945
40
0.141758577072945
40
0.25485918674721
40
0.25485918674721
40
0.368025661656588
40
0.368025661656588
40
0.481336136143597
40
0.481336136143597
40
0.594988764681324
40
0.594988764681324
40
0.731770501834095
40
0.731770501834095
40
0.814572892185925
40
0.814572892185925
40
0.903908109635041
40
0.903908109635041
40
1
40
1
40
1
40
1
41
1
10
32.9534048395413
20
34.9872865267607
30
0
41
1
10
32.9529507223379
20
34.9916071633405
30
0
41
1
10
32.9525409706552
20
34.9959327052511
30
0
41
1
10
32.9507371568463
20
35.01731635744
30
0
41
1
10
32.94998688409
20
35.0344443231229
30
0
41
1
10
32.949928333551
20
35.0686689066174
30
0
41
1
10
32.9506197606192
20
35.0857995270376
30
0
41
1
10
32.9535826980065
20
35.1198805485865
30
0
41
1
10
32.9558574758007
20
35.1368736841317
30
0
41
1
10
32.9622311487412
20
35.1704510017537
30
0
41
1
10
32.9663414920237
20
35.1870970836661
30
0
41
1
10
32.9767869973402
20
35.2195684462241
30
0
41
1
10
32.9831589473668
20
35.2354977216703
30
0
41
1
10
33.0002317670178
20
35.2685570890354
30
0
41
1
10
33.0117588818375
20
35.2856736543096
30
0
41
1
10
33.0342414502755
20
35.3082674777376
30
0
41
1
10
33.0438120848246
20
35.3157840278432
30
0
41
1
10
33.0651344914792
20
35.327586084189
30
0
41
1
10
33.0772954932547
20
35.3316734020094
30
0
41
1
10
33.1025239495962
20
35.3348110682484
30
0
41
1
10
33.1159566218752
20
35.3335301649959
30
0
41
1
10
33.1285126985726
20
35.329965830985
30
0
0
SPLINE
5
1F3
100
AcDbEntity
8
1
62
256
6
ByLayer
370
18
48
1
60
0
100
AcDbSpline
70
4
71
3
72
8
73
4
40
0
40
0
40
0
40
0
40
1
40
1
40
1
40
1
41
1
10
33.4029004874769
20
35.9055513200678
30
0
41
1
10
33.3989438142339
20
35.911108823528
30
0
41
1
10
33.3949876348859
20
35.9166652372812
30
0
41
1
10
33.3910319279941
20
35.922220609706
30
0
0
SPLINE
5
1F4
100
AcDbEntity
8
1
62
256
6
ByLayer
370
18
48
1
60
0
100
AcDbSpline
70
4
71
3
72
30
73
26
40
0
40
0
40
0
40
0
40
0.075448690821222
40
0.075448690821222
40
0.134142567439273
40
0.134142567439273
40
0.208789318447097
40
0.208789318447097
40
0.300864837338271
40
0.300864837338271
40
0.400373451415986
40
0.400373451415986
40
0.499841523429531
40
0.499841523429531
40
0.64479499723628
40
0.64479499723628
40
0.711843600985095
40
0.711843600985095
40
0.778927202841184
40
0.778927202841184
40
0.846083321820495
40
0.846083321820495
40
0.913400043300354
40
0.913400043300354
40
1
40
1
40
1
40
1
41
1
10
33.1491766475991
20
35.333139322005
30
0
41
1
10
33.1655201696519
20
35.3356493279198
30
0
41
1
10
33.1816845196728
20
35.3412266085328
30
0
41
1
10
33.208909686949
20
35.354372678634
30
0
41
1
10
33.2204740755853
20
35.3613081618272
30
0
41
1
10
33.2456462362882
20
35.3788585389053
30
0
41
1
10
33.2590657559904
20
35.3900325325698
30
0
41
1
10
33.287378590163
20
35.4169461302379
30
0
41
1
10
33.3020077429262
20
35.4332576828145
30
0
41
1
10
33.3302035579934
20
35.4690929645782
30
0
41
1
10
33.3436907503083
20
35.4889045513485
30
0
41
1
10
33.3681268231112
20
35.529974920037
30
0
41
1
10
33.3791501848648
20
35.5513615302904
30
0
41
1
10
33.4029030242348
20
35.6049489671269
30
0
41
1
10
33.4142978799112
20
35.6380002895373
30
0
41
1
10
33.4261438365962
20
35.6866715625645
30
0
41
1
10
33.4292042138043
20
35.7022210191838
30
0
41
1
10
33.4337379405581
20
35.7332810700221
30
0
41
1
10
33.4352192857259
20
35.7488444620423
30
0
41
1
10
33.4363412992875
20
35.7797242411067
30
0
41
1
10
33.4359844434692
20
35.7951085912463
30
0
41
1
10
33.4330343178315
20
35.8253077120106
30
0
41
1
10
33.4304288245219
20
35.8402217131162
30
0
41
1
10
33.4212524899574
20
35.872799961687
30
0
41
1
10
33.4136509878045
20
35.8904512753837
30
0
41
1
10
33.4029004874769
20
35.9055513200678
30
0
0
SPLINE
5
1F5
100
AcDbEntity
8
1
62
256
6
ByLayer
370
18
48
1
60
0
100
AcDbSpline
70
4
71
3
72
8
73
4
40
0
40
0
40
0
40
0
40
1
40
1
40
1
40
1
41
1
10
33.5758524521157
20
34.1637707845913
30
0
41
1
10
33.5785666904474
20
34.170027196508
30
0
41
1
10
33.5812811744063
20
34.1762847252269
30
0
41
1
10
33.5839959149047
20
34.1825434225265
30
0
0
SPLINE
5
1F6
100
AcDbEntity
8
1
62
256
6
ByLayer
370
18
48
1
60
0
100
AcDbSpline
70
4
71
3
72
26
73
22
40
0
40
0
40
0
40
0
40
0.0843971137812618
40
0.0843971137812618
40
0.289834052491977
40
0.289834052491977
40
0.392095130871003
40
0.392095130871003
40
0.494452771537214
40
0.494452771537214
40
0.597019768820932
40
0.597019768820932
40
0.672954859099002
40
0.672954859099002
40
0.796883557884318
40
0.796883557884318
40
0.881282445819633
40
0.881282445819633
40
0.965825257041692
40
0.965825257041692
40
1
40
1
40
1
40
1
41
1
10
32.9534048395413
20
34.9872865267607
30
0
41
1
10
32.9547399825724
20
34.974583489364
30
0
41
1
10
32.9564589748995
20
34.9619144970454
30
0
41
1
10
32.9636709836875
20
34.9187251388099
30
0
41
1
10
32.9710514588746
20
34.8883955817591
30
0
41
1
10
32.9858924020327
20
34.8443966429204
30
0
41
1
10
32.9914786850327
20
34.8299544628433
30
0
41
1
10
33.0040829467705
20
34.8017742182412
30
0
41
1
10
33.0111211183524
20
34.7879902355346
30
0
41
1
10
33.0268666162713
20
34.7615280249391
30
0
41
1
10
33.0356185606862
20
34.7487780763248
30
0
41
1
10
33.0525518660327
20
34.7282262502557
30
0
41
1
10
33.0603358325427
20
34.7199529571003
30
0
41
1
10
33.0821923734815
20
34.7004012392256
30
0
41
1
10
33.0976129981532
20
34.6901421110265
30
0
41
1
10
33.1252198015779
20
34.6795771777915
30
0
41
1
10
33.1371457533787
20
34.6771039570325
30
0
41
1
10
33.160509081786
20
34.6767051157758
30
0
41
1
10
33.1722241813616
20
34.6787841296504
30
0
41
1
10
33.1874570131024
20
34.6843670033509
30
0
41
1
10
33.1917682537876
20
34.6863021839102
30
0
41
1
10
33.195933205272
20
34.6885025585592
30
0
0
SPLINE
5
1F7
100
AcDbEntity
8
1
62
256
6
ByLayer
370
18
48
1
60
0
100
AcDbSpline
70
4
71
3
72
8
73
4
40
0
40
0
40
0
40
0
40
1
40
1
40
1
40
1
41
1
10
33.2168054033177
20
34.6896946925132
30
0
41
1
10
33.2098469520081
20
34.6892972668409
30
0
41
1
10
33.2028895682871
20
34.6888998895552
30
0
41
1
10
33.195933205272
20
34.6885025585592
30
0
0
SPLINE
5
1F8
100
AcDbEntity
8
1
62
256
6
ByLayer
370
18
48
1
60
0
100
AcDbSpline
70
4
71
3
72
30
73
26
40
0
40
0
40
0
40
0
40
0.075448690821221
40
0.075448690821221
40
0.134142567439272
40
0.134142567439272
40
0.208789318447095
40
0.208789318447095
40
0.300864837338271
40
0.300864837338271
40
0.400373451415986
40
0.400373451415986
40
0.499841523429531
40
0.499841523429531
40
0.64479499723628
40
0.64479499723628
40
0.711843600985094
40
0.711843600985094
40
0.778927202841183
40
0.778927202841183
40
0.846083321820494
40
0.846083321820494
40
0.913400043300354
40
0.913400043300354
40
1
40
1
40
1
40
1
41
1
10
33.5839959149047
20
34.1825434225265
30
0
41
1
10
33.5904363678264
20
34.1973915619096
30
0
41
1
10
33.5941212218759
20
34.2136468850742
30
0
41
1
10
33.5970651053219
20
34.2429383467133
30
0
41
1
10
33.5971405762151
20
34.2560694654841
30
0
41
1
10
33.5951661249046
20
34.2859102235751
30
0
41
1
10
33.5925292530299
20
34.3027507415935
30
0
41
1
10
33.5840462310443
20
34.3400070420041
30
0
41
1
10
33.5775593641833
20
34.3605007512322
30
0
41
1
10
33.5611966721574
20
34.4022930010441
30
0
41
1
10
33.5510255867794
20
34.423676553861
30
0
41
1
10
33.5280417128172
20
34.4651353334258
30
0
41
1
10
33.5151565649346
20
34.4853382812959
30
0
41
1
10
33.4807813274952
20
34.5328162110719
30
0
41
1
10
33.4578201259765
20
34.5594548247407
30
0
41
1
10
33.4213554239492
20
34.5946540605212
30
0
41
1
10
33.4093167427413
20
34.6053078250686
30
0
41
1
10
33.3844259611517
20
34.6252916631222
30
0
41
1
10
33.3715316919986
20
34.6346559604845
30
0
41
1
10
33.3449837619696
20
34.6517346543439
30
0
41
1
10
33.3312716556932
20
34.6594866715644
30
0
41
1
10
33.3031695792397
20
34.6728341830492
30
0
41
1
10
33.2886859172552
20
34.678471459189
30
0
41
1
10
33.2552214326874
20
34.6878753882456
30
0
41
1
10
33.2357119008952
20
34.6907745200751
30
0
41
1
10
33.2168054033177
20
34.6896946925132
30
0
0
LINE
5
70
100
AcDbEntity
8
80
62
256
6
ByLayer
370
13
48
0.05
60
0
100
AcDbLine
10
0
20
0
30
0
11
-13.485088
21
0
31
0
39
0
210
0
220
0
230
1
0
LINE
5
71
100
AcDbEntity
8
81
62
256
6
ByLayer
370
13
48
0.05
60
0
100
AcDbLine
10
40
20
42
30
0
11
44.310423
21
42
31
0
39
0
210
0
220
0
230
1
0
LINE
5
72
100
AcDbEntity
8
2
62
256
6
ByLayer
370
13
48
1
60
0
100
AcDbLine
10
42
20
42
30
0
11
57
21
42
31
0
39
0
210
0
220
0
230
1
0
LINE
5
74
100
AcDbEntity
8
2
62
256
6
ByLayer
370
13
48
1
60
0
100
AcDbLine
10
42
20
42
30
0
11
57
21
42
31
0
39
0
210
0
220
0
230
1
0
LINE
5
75
100
AcDbEntity
8
SK4
62
256
6
ByLayer
370
13
48
0.05
60
0
100
AcDbLine
10
-10
20
0
30
0
11
40
21
0
31
0
39
0
210
0
220
0
230
1
0
LINE
5
77
100
AcDbEntity
8
SK1
62
256
6
ByLayer
370
18
48
1
60
0
100
AcDbLine
10
16.518304
20
-9.18986
30
0
11
16.512927
21
-9.366558
31
0
39
0
210
0
220
0
230
1
0
LINE
5
79
100
AcDbEntity
8
SK1
62
256
6
ByLayer
370
18
48
1
60
0
100
AcDbLine
10
32.370586
20
-9.849138
30
0
11
32.375963
21
-9.67244
31
0
39
0
210
0
220
0
230
1
0
LINE
5
7A
100
AcDbEntity
8
SK1
62
256
6
ByLayer
370
18
48
1
60
0
100
AcDbLine
10
29.603495
20
-4.36914
30
0
11
29.659371
21
-2.533051
31
0
39
0
210
0
220
0
230
1
0
LINE
5
7B
100
AcDbEntity
8
SK1
62
256
6
ByLayer
370
18
48
1
60
0
100
AcDbLine
10
19.654739
20
-2.533154
30
0
11
19.608123
21
-4.064961
31
0
39
0
210
0
220
0
230
1
0
LINE
5
7C
100
AcDbEntity
8
SK1
62
256
6
ByLayer
370
18
48
1
60
0
100
AcDbLine
10
34.594201
20
-4.750625
30
0
11
34.608163
21
-4.291834
31
0
39
0
210
0
220
0
230
1
0
LINE
5
7D
100
AcDbEntity
8
SK1
62
256
6
ByLayer
370
18
48
1
60
0
100
AcDbLine
10
14.617417
20
-3.683476
30
0
11
14.603455
21
-4.142267
31
0
39
0
210
0
220
0
230
1
0
LINE
5
7E
100
AcDbEntity
8
SK1
62
256
6
ByLayer
370
13
48
1
60
0
100
AcDbLine
10
29.008452
20
-2.533216
30
0
11
29.61943
21
-3.845529
31
0
39
0
210
0
220
0
230
1
0
LINE
5
7F
100
AcDbEntity
8
SK1
62
256
6
ByLayer
370
13
48
1
60
0
100
AcDbLine
10
20.170334
20
-2.533203
30
0
11
19.624057
21
-3.54135
31
0
39
0
210
0
220
0
230
1
0
LINE
5
80
100
AcDbEntity
8
SK1
62
256
6
ByLayer
370
18
48
1
60
0
100
AcDbLine
10
36.3
20
-0.723029
30
0
11
36.3
21
2.2E-05
31
0
39
0
210
0
220
0
230
1
0
LINE
5
81
100
AcDbEntity
8
SK1
62
256
6
ByLayer
370
18
48
1
60
0
100
AcDbLine
10
0
20
33.200145
30
0
11
0
21
5.392146
31
0
39
0
210
0
220
0
230
1
0
LINE
5
82
100
AcDbEntity
8
SK1
62
256
6
ByLayer
370
18
48
1
60
0
100
AcDbLine
10
0
20
2.715082
30
0
11
0
21
5.392146
31
0
39
0
210
0
220
0
230
1
0
LINE
5
83
100
AcDbEntity
8
SK1
62
256
6
ByLayer
370
18
48
1
60
0
100
AcDbLine
10
3.235705
20
0
30
0
11
0
21
2.715082
31
0
39
0
210
0
220
0
230
1
0
LINE
5
84
100
AcDbEntity
8
SK1
62
256
6
ByLayer
370
18
48
1
60
0
100
AcDbLine
10
6.254652
20
-2.5332
30
0
11
36.3
21
-2.5332
31
0
39
0
210
0
220
0
230
1
0
LINE
5
85
100
AcDbEntity
8
SK1
62
256
6
ByLayer
370
18
48
1
60
0
100
AcDbLine
10
4.097376
20
-0.723029
30
0
11
36.3
21
-0.723029
31
0
39
0
210
0
220
0
230
1
0
LINE
5
86
100
AcDbEntity
8
SK1
62
256
6
ByLayer
370
18
48
1
60
0
100
AcDbLine
10
5.678791
20
-2.049995
30
0
11
36.3
21
-2.049995
31
0
39
0
210
0
220
0
230
1
0
LINE
5
87
100
AcDbEntity
8
SK1
62
256
6
ByLayer
370
18
48
1
60
0
100
AcDbLine
10
4.097376
20
-0.723029
30
0
11
3.235679
21
2.2E-05
31
0
39
0
210
0
220
0
230
1
0
LINE
5
88
100
AcDbEntity
8
SK1
62
256
6
ByLayer
370
18
48
1
60
0
100
AcDbLine
10
36.3
20
-0.723029
30
0
11
36.3
21
-2.049995
31
0
39
0
210
0
220
0
230
1
0
LINE
5
89
100
AcDbEntity
8
SK1
62
256
6
ByLayer
370
18
48
1
60
0
100
AcDbLine
10
5.678791
20
-2.049995
30
0
11
6.254652
21
-2.5332
31
0
39
0
210
0
220
0
230
1
0
LINE
5
8A
100
AcDbEntity
8
SK1
62
256
6
ByLayer
370
18
48
1
60
0
100
AcDbLine
10
4.097376
20
-0.723029
30
0
11
5.678791
21
-2.049995
31
0
39
0
210
0
220
0
230
1
0
LINE
5
8B
100
AcDbEntity
8
SK1
62
256
6
ByLayer
370
18
48
1
60
0
100
AcDbLine
10
36.3
20
-2.049995
30
0
11
36.3
21
-2.5332
31
0
39
0
210
0
220
0
230
1
0
LINE
5
8C
100
AcDbEntity
8
4
62
256
6
ByLayer
370
13
48
0.05
60
0
100
AcDbLine
10
0
20
0
30
0
11
40
21
0
31
0
39
0
210
0
220
0
230
1
0
LINE
5
8E
100
AcDbEntity
8
1
62
256
6
ByLayer
370
18
48
1
60
0
100
AcDbLine
10
38.123037
20
32.359981
30
0
11
37.851263
21
34.945738
31
0
39
0
210
0
220
0
230
1
0
LINE
5
90
100
AcDbEntity
8
1
62
256
6
ByLayer
370
18
48
1
60
0
100
AcDbLine
10
30.568924
20
37.907323
30
0
11
30.840698
21
35.321566
31
0
39
0
210
0
220
0
230
1
0
LINE
5
91
100
AcDbEntity
8
1
62
256
6
ByLayer
370
18
48
1
60
0
100
AcDbLine
10
33.434093
20
38.536655
30
0
11
30.858176
21
38.265915
31
0
39
0
210
0
220
0
230
1
0
LINE
5
92
100
AcDbEntity
8
1
62
256
6
ByLayer
370
18
48
1
60
0
100
AcDbLine
10
37.735595
20
36.046249
30
0
11
37.463821
21
38.632006
31
0
39
0
210
0
220
0
230
1
0
LINE
5
93
100
AcDbEntity
8
1
62
256
6
ByLayer
370
18
48
1
60
0
100
AcDbLine
10
37.106334
20
38.922623
30
0
11
34.530417
21
38.651883
31
0
39
0
210
0
220
0
230
1
0
LINE
5
94
100
AcDbEntity
8
1
62
256
6
ByLayer
370
18
48
1
60
0
100
AcDbLine
10
31.585627
20
31.344681
30
0
11
34.161544
21
31.615421
31
0
39
0
210
0
220
0
230
1
0
LINE
5
95
100
AcDbEntity
8
1
62
256
6
ByLayer
370
18
48
1
60
0
100
AcDbLine
10
30.956367
20
34.221055
30
0
11
31.228141
21
31.635298
31
0
39
0
210
0
220
0
230
1
0
LINE
5
96
100
AcDbEntity
8
1
62
256
6
ByLayer
370
18
48
1
60
0
100
AcDbLine
10
37.729942
20
34.932987
30
0
11
38.001716
21
32.34723
31
0
39
0
210
0
220
0
230
1
0
LINE
5
97
100
AcDbEntity
8
1
62
256
6
ByLayer
370
18
48
1
60
0
100
AcDbLine
10
37.614274
20
36.033498
30
0
11
37.3425
21
38.619255
31
0
39
0
210
0
220
0
230
1
0
LINE
5
98
100
AcDbEntity
8
1
62
256
6
ByLayer
370
18
48
1
60
0
100
AcDbLine
10
37.123446
20
38.797333
30
0
11
34.547529
21
38.526593
31
0
39
0
210
0
220
0
230
1
0
LINE
5
99
100
AcDbEntity
8
1
62
256
6
ByLayer
370
18
48
1
60
0
100
AcDbLine
10
37.824474
20
32.127499
30
0
11
35.248557
21
31.856759
31
0
39
0
210
0
220
0
230
1
0
LINE
5
9A
100
AcDbEntity
8
1
62
256
6
ByLayer
370
18
48
1
60
0
100
AcDbLine
10
35.257868
20
31.730649
30
0
11
37.833785
21
32.001389
31
0
39
0
210
0
220
0
230
1
0
LINE
5
9B
100
AcDbEntity
8
1
62
256
6
ByLayer
370
18
48
1
60
0
100
AcDbLine
10
40.984582
20
31.294256
30
0
11
41.055296
21
30.621453
31
0
39
0
210
0
220
0
230
1
0
LINE
5
9C
100
AcDbEntity
8
1
62
256
6
ByLayer
370
18
48
1
60
0
100
AcDbLine
10
40.09972
20
41.047277
30
0
11
39.960759
21
41.031392
31
0
39
0
210
0
220
0
230
1
0
LINE
5
9D
100
AcDbEntity
8
1
62
256
6
ByLayer
370
18
48
1
60
0
100
AcDbLine
10
40.109643
20
40.956814
30
0
11
39.970543
21
40.942194
31
0
39
0
210
0
220
0
230
1
0
LINE
5
9E
100
AcDbEntity
8
1
62
256
6
ByLayer
370
18
48
1
60
0
100
AcDbLine
10
39.970543
20
40.942194
30
0
11
40.041257
21
40.269391
31
0
39
0
210
0
220
0
230
1
0
LINE
5
9F
100
AcDbEntity
8
1
62
256
6
ByLayer
370
18
48
1
60
0
100
AcDbLine
10
41.194397
20
30.636073
30
0
11
41.055296
21
30.621453
31
0
39
0
210
0
220
0
230
1
0
LINE
5
A0
100
AcDbEntity
8
1
62
256
6
ByLayer
370
18
48
1
60
0
100
AcDbLine
10
41.194397
20
30.636073
30
0
11
40.109643
21
40.956814
31
0
39
0
210
0
220
0
230
1
0
LINE
5
A1
100
AcDbEntity
8
1
62
256
6
ByLayer
370
18
48
1
60
0
100
AcDbLine
10
41.203499
20
30.545524
30
0
11
41.064271
21
30.53217
31
0
39
0
210
0
220
0
230
1
0
LINE
5
A2
100
AcDbEntity
8
1
62
256
6
ByLayer
370
18
48
1
60
0
100
AcDbLine
10
41.207941
20
30.496726
30
0
11
41.068589
21
30.484737
31
0
39
0
210
0
220
0
230
1
0
LINE
5
A3
100
AcDbEntity
8
1
62
256
6
ByLayer
370
18
48
1
60
0
100
AcDbLine
10
40.093919
20
41.095933
30
0
11
39.95512
21
41.078686
31
0
39
0
210
0
220
0
230
1
0
LINE
5
A4
100
AcDbEntity
8
1
62
256
6
ByLayer
370
18
48
1
60
0
100
AcDbLine
10
40.072929
20
41.254608
30
0
11
39.934423
21
41.235142
31
0
39
0
210
0
220
0
230
1
0
LINE
5
A5
100
AcDbEntity
8
1
62
256
6
ByLayer
370
18
48
1
60
0
100
AcDbLine
10
41.2204
20
30.337154
30
0
11
41.080873
21
30.327397
31
0
39
0
210
0
220
0
230
1
0
LINE
5
A6
100
AcDbEntity
8
1
62
256
6
ByLayer
370
18
48
1
60
0
100
AcDbLine
10
41.215525
20
30.224065
30
0
11
41.077362
21
30.245943
31
0
39
0
210
0
220
0
230
1
0
LINE
5
A7
100
AcDbEntity
8
1
62
256
6
ByLayer
370
18
48
1
60
0
100
AcDbLine
10
40.044649
20
41.364212
30
0
11
39.914054
21
41.314086
31
0
39
0
210
0
220
0
230
1
0
LINE
5
A8
100
AcDbEntity
8
1
62
256
6
ByLayer
370
18
48
1
60
0
100
AcDbLine
10
40.588881
20
29.4472
30
0
11
40.538365
21
29.577736
31
0
39
0
210
0
220
0
230
1
0
LINE
5
A9
100
AcDbEntity
8
1
62
256
6
ByLayer
370
18
48
1
60
0
100
AcDbLine
10
39.270179
20
41.993813
30
0
11
39.247906
21
41.855627
31
0
39
0
210
0
220
0
230
1
0
LINE
5
AA
100
AcDbEntity
8
1
62
256
6
ByLayer
370
18
48
1
60
0
100
AcDbLine
10
38.203569
20
41.763331
30
0
11
38.873811
21
41.833777
31
0
39
0
210
0
220
0
230
1
0
LINE
5
AB
100
AcDbEntity
8
1
62
256
6
ByLayer
370
18
48
1
60
0
100
AcDbLine
10
40.167902
20
29.52133
30
0
11
39.497659
21
29.450885
31
0
39
0
210
0
220
0
230
1
0
LINE
5
AC
100
AcDbEntity
8
1
62
256
6
ByLayer
370
18
48
1
60
0
100
AcDbLine
10
40.479707
20
29.418901
30
0
11
40.459731
21
29.557353
31
0
39
0
210
0
220
0
230
1
0
LINE
5
AD
100
AcDbEntity
8
1
62
256
6
ByLayer
370
18
48
1
60
0
100
AcDbLine
10
39.157507
20
41.998796
30
0
11
39.166753
21
41.859216
31
0
39
0
210
0
220
0
230
1
0
LINE
5
AE
100
AcDbEntity
8
1
62
256
6
ByLayer
370
18
48
1
60
0
100
AcDbLine
10
40.321639
20
29.397958
30
0
11
40.303873
21
29.536703
31
0
39
0
210
0
220
0
230
1
0
LINE
5
AF
100
AcDbEntity
8
1
62
256
6
ByLayer
370
18
48
1
60
0
100
AcDbLine
10
38.998539
20
41.986417
30
0
11
39.010008
21
41.84701
31
0
39
0
210
0
220
0
230
1
0
LINE
5
B0
100
AcDbEntity
8
1
62
256
6
ByLayer
370
18
48
1
60
0
100
AcDbLine
10
40.27317
20
29.392174
30
0
11
40.25676
21
29.53108
31
0
39
0
210
0
220
0
230
1
0
LINE
5
B1
100
AcDbEntity
8
1
62
256
6
ByLayer
370
18
48
1
60
0
100
AcDbLine
10
38.949926
20
41.981997
30
0
11
38.962755
21
41.842714
31
0
39
0
210
0
220
0
230
1
0
LINE
5
B2
100
AcDbEntity
8
1
62
256
6
ByLayer
370
18
48
1
60
0
100
AcDbLine
10
40.183051
20
29.382286
30
0
11
40.167902
21
29.52133
31
0
39
0
210
0
220
0
230
1
0
LINE
5
B3
100
AcDbEntity
8
1
62
256
6
ByLayer
370
18
48
1
60
0
100
AcDbLine
10
38.859721
20
41.972933
30
0
11
38.873811
21
41.833777
31
0
39
0
210
0
220
0
230
1
0
LINE
5
B4
100
AcDbEntity
8
1
62
256
6
ByLayer
370
18
48
1
60
0
100
AcDbLine
10
29.901584
20
28.30166
30
0
11
29.886434
21
28.440705
31
0
39
0
210
0
220
0
230
1
0
LINE
5
B5
100
AcDbEntity
8
1
62
256
6
ByLayer
370
18
48
1
60
0
100
AcDbLine
10
29.901584
20
28.30166
30
0
11
40.183051
21
29.382286
31
0
39
0
210
0
220
0
230
1
0
LINE
5
B6
100
AcDbEntity
8
1
62
256
6
ByLayer
370
18
48
1
60
0
100
AcDbLine
10
30.556677
20
28.51115
30
0
11
29.886434
21
28.440705
31
0
39
0
210
0
220
0
230
1
0
LINE
5
B7
100
AcDbEntity
8
1
62
256
6
ByLayer
370
18
48
1
60
0
100
AcDbLine
10
28.578253
20
40.892307
30
0
11
28.592344
21
40.753151
31
0
39
0
210
0
220
0
230
1
0
LINE
5
B8
100
AcDbEntity
8
1
62
256
6
ByLayer
370
18
48
1
60
0
100
AcDbLine
10
28.592344
20
40.753151
30
0
11
29.262586
21
40.823596
31
0
39
0
210
0
220
0
230
1
0
LINE
5
B9
100
AcDbEntity
8
1
62
256
6
ByLayer
370
18
48
1
60
0
100
AcDbLine
10
38.859721
20
41.972933
30
0
11
28.578253
21
40.892307
31
0
39
0
210
0
220
0
230
1
0
LINE
5
BA
100
AcDbEntity
8
1
62
256
6
ByLayer
370
18
48
1
60
0
100
AcDbLine
10
33.451206
20
38.411365
30
0
11
30.875288
21
38.140625
31
0
39
0
210
0
220
0
230
1
0
LINE
5
BB
100
AcDbEntity
8
1
62
256
6
ByLayer
370
18
48
1
60
0
100
AcDbLine
10
34.152233
20
31.741531
30
0
11
31.576316
21
31.470791
31
0
39
0
210
0
220
0
230
1
0
LINE
5
BC
100
AcDbEntity
8
1
62
256
6
ByLayer
370
18
48
1
60
0
100
AcDbLine
10
31.357263
20
31.648869
30
0
11
31.085489
21
34.234626
31
0
39
0
210
0
220
0
230
1
0
LINE
5
BD
100
AcDbEntity
8
1
62
256
6
ByLayer
370
18
48
1
60
0
100
AcDbLine
10
30.698046
20
37.920895
30
0
11
30.96982
21
35.335138
31
0
39
0
210
0
220
0
230
1
0
LINE
5
BE
100
AcDbEntity
8
1
62
256
6
ByLayer
370
18
48
1
60
0
100
AcDbLine
10
28.789703
20
29.332287
30
0
11
28.718988
21
30.00509
31
0
39
0
210
0
220
0
230
1
0
LINE
5
BF
100
AcDbEntity
8
1
62
256
6
ByLayer
370
18
48
1
60
0
100
AcDbLine
10
27.775664
20
38.980226
30
0
11
27.704949
21
39.653028
31
0
39
0
210
0
220
0
230
1
0
LINE
5
C0
100
AcDbEntity
8
1
62
256
6
ByLayer
370
18
48
1
60
0
100
AcDbLine
10
28.488134
20
40.882419
30
0
11
28.503486
21
40.743401
31
0
39
0
210
0
220
0
230
1
0
LINE
5
C1
100
AcDbEntity
8
1
62
256
6
ByLayer
370
18
48
1
60
0
100
AcDbLine
10
29.811378
20
28.292595
30
0
11
29.79749
21
28.431767
31
0
39
0
210
0
220
0
230
1
0
LINE
5
C2
100
AcDbEntity
8
1
62
256
6
ByLayer
370
18
48
1
60
0
100
AcDbLine
10
29.762765
20
28.288176
30
0
11
29.750237
21
28.427471
31
0
39
0
210
0
220
0
230
1
0
LINE
5
C3
100
AcDbEntity
8
1
62
256
6
ByLayer
370
18
48
1
60
0
100
AcDbLine
10
28.439665
20
40.876635
30
0
11
28.456372
21
40.737779
31
0
39
0
210
0
220
0
230
1
0
LINE
5
C4
100
AcDbEntity
8
1
62
256
6
ByLayer
370
18
48
1
60
0
100
AcDbLine
10
28.281597
20
40.855692
30
0
11
28.300515
21
40.717128
31
0
39
0
210
0
220
0
230
1
0
LINE
5
C5
100
AcDbEntity
8
1
62
256
6
ByLayer
370
18
48
1
60
0
100
AcDbLine
10
29.603797
20
28.275797
30
0
11
29.593493
21
28.415265
31
0
39
0
210
0
220
0
230
1
0
LINE
5
C6
100
AcDbEntity
8
1
62
256
6
ByLayer
370
18
48
1
60
0
100
AcDbLine
10
28.172423
20
40.827392
30
0
11
28.221881
21
40.696745
31
0
39
0
210
0
220
0
230
1
0
LINE
5
C7
100
AcDbEntity
8
1
62
256
6
ByLayer
370
18
48
1
60
0
100
AcDbLine
10
29.491125
20
28.280779
30
0
11
29.512339
21
28.418854
31
0
39
0
210
0
220
0
230
1
0
LINE
5
C8
100
AcDbEntity
8
1
62
256
6
ByLayer
370
18
48
1
60
0
100
AcDbLine
10
27.545779
20
40.050528
30
0
11
27.682883
21
40.028538
31
0
39
0
210
0
220
0
230
1
0
LINE
5
C9
100
AcDbEntity
8
1
62
256
6
ByLayer
370
18
48
1
60
0
100
AcDbLine
10
28.716656
20
28.910381
30
0
11
28.846192
21
28.960395
31
0
39
0
210
0
220
0
230
1
0
LINE
5
CA
100
AcDbEntity
8
1
62
256
6
ByLayer
370
18
48
1
60
0
100
AcDbLine
10
28.688375
20
29.019985
30
0
11
28.825822
21
29.039339
31
0
39
0
210
0
220
0
230
1
0
LINE
5
CB
100
AcDbEntity
8
1
62
256
6
ByLayer
370
18
48
1
60
0
100
AcDbLine
10
27.540904
20
39.937439
30
0
11
27.679372
21
39.947084
31
0
39
0
210
0
220
0
230
1
0
LINE
5
CC
100
AcDbEntity
8
1
62
256
6
ByLayer
370
18
48
1
60
0
100
AcDbLine
10
28.651661
20
29.317778
30
0
11
28.789703
21
29.332287
31
0
39
0
210
0
220
0
230
1
0
LINE
5
CD
100
AcDbEntity
8
1
62
256
6
ByLayer
370
18
48
1
60
0
100
AcDbLine
10
27.566907
20
39.638519
30
0
11
27.704949
21
39.653028
31
0
39
0
210
0
220
0
230
1
0
LINE
5
CE
100
AcDbEntity
8
1
62
256
6
ByLayer
370
18
48
1
60
0
100
AcDbLine
10
27.566907
20
39.638519
30
0
11
28.651661
21
29.317778
31
0
39
0
210
0
220
0
230
1
0
LINE
5
CF
100
AcDbEntity
8
1
62
256
6
ByLayer
370
18
48
1
60
0
100
AcDbLine
10
28.667385
20
29.17866
30
0
11
28.805126
21
29.195795
31
0
39
0
210
0
220
0
230
1
0
LINE
5
D0
100
AcDbEntity
8
1
62
256
6
ByLayer
370
18
48
1
60
0
100
AcDbLine
10
27.553363
20
39.777867
30
0
11
27.691657
21
39.789744
31
0
39
0
210
0
220
0
230
1
0
LINE
5
D1
100
AcDbEntity
8
1
62
256
6
ByLayer
370
18
48
1
60
0
100
AcDbLine
10
28.661584
20
29.227315
30
0
11
28.799487
21
29.243089
31
0
39
0
210
0
220
0
230
1
0
LINE
5
D2
100
AcDbEntity
8
1
62
256
6
ByLayer
370
18
48
1
60
0
100
AcDbLine
10
27.557805
20
39.729069
30
0
11
27.695974
21
39.742311
31
0
39
0
210
0
220
0
230
1
0
LINE
5
D3
100
AcDbEntity
8
1
62
256
6
ByLayer
370
18
48
1
60
0
100
AcDbLine
10
34.6068
20
32.747845
30
0
11
34.678926
21
32.755426
31
0
39
0
210
0
220
0
230
1
0
LINE
5
D4
100
AcDbEntity
8
1
62
256
6
ByLayer
370
18
48
1
60
0
100
AcDbLine
10
35.520209
20
35.581343
30
0
11
35.585006
21
35.588154
31
0
39
0
210
0
220
0
230
1
0
LINE
5
D5
100
AcDbEntity
8
1
62
256
6
ByLayer
370
18
48
1
60
0
100
AcDbLine
10
35.587629
20
34.93988
30
0
11
35.651204
21
34.946562
31
0
39
0
210
0
220
0
230
1
0
LINE
5
D6
100
AcDbEntity
8
1
62
256
6
ByLayer
370
18
48
1
60
0
100
AcDbLine
10
34.805411
20
33.968728
30
0
11
34.914403
21
33.980183
31
0
39
0
210
0
220
0
230
1
0
LINE
5
D7
100
AcDbEntity
8
1
62
256
6
ByLayer
370
18
48
1
60
0
100
AcDbLine
10
34.55317
20
36.368641
30
0
11
34.662162
21
36.380096
31
0
39
0
210
0
220
0
230
1
0
LINE
5
D8
100
AcDbEntity
8
1
62
256
6
ByLayer
370
18
48
1
60
0
100
AcDbLine
10
33.575852
20
34.163771
30
0
11
33.684845
21
34.175226
31
0
39
0
210
0
220
0
230
1
0
LINE
5
D9
100
AcDbEntity
8
1
62
256
6
ByLayer
370
18
48
1
60
0
100
AcDbLine
10
33.391032
20
35.922221
30
0
11
33.500024
21
35.933676
31
0
39
0
210
0
220
0
230
1
0
LINE
5
DA
100
AcDbEntity
8
1
62
256
6
ByLayer
370
18
48
1
60
0
100
AcDbLine
10
34.901882
20
33.995783
30
0
11
34.914403
21
33.980183
31
0
39
0
210
0
220
0
230
1
0
LINE
5
DB
100
AcDbEntity
8
1
62
256
6
ByLayer
370
18
48
1
60
0
100
AcDbLine
10
34.545119
20
36.35088
30
0
11
34.653158
21
36.362235
31
0
39
0
210
0
220
0
230
1
0
LINE
5
DC
100
AcDbEntity
8
1
62
256
6
ByLayer
370
18
48
1
60
0
100
AcDbLine
10
34.793844
20
33.984427
30
0
11
34.901882
21
33.995783
31
0
39
0
210
0
220
0
230
1
0
LINE
5
DD
100
AcDbEntity
8
1
62
256
6
ByLayer
370
18
48
1
60
0
100
AcDbLine
10
34.662162
20
36.380096
30
0
11
34.653158
21
36.362235
31
0
39
0
210
0
220
0
230
1
0
LINE
5
DE
100
AcDbEntity
8
1
62
256
6
ByLayer
370
18
48
1
60
0
100
AcDbLine
10
34.254522
20
36.204358
30
0
11
34.354758
21
36.214893
31
0
39
0
210
0
220
0
230
1
0
LINE
5
DF
100
AcDbEntity
8
1
62
256
6
ByLayer
370
18
48
1
60
0
100
AcDbLine
10
34.579368
20
34.077864
30
0
11
34.479132
21
34.067329
31
0
39
0
210
0
220
0
230
1
0
LINE
5
E0
100
AcDbEntity
8
1
62
256
6
ByLayer
370
18
48
1
60
0
100
AcDbLine
10
33.216805
20
34.689695
30
0
11
33.324844
21
34.70105
31
0
39
0
210
0
220
0
230
1
0
LINE
5
E1
100
AcDbEntity
8
1
62
256
6
ByLayer
370
18
48
1
60
0
100
AcDbLine
10
33.583996
20
34.182543
30
0
11
33.692035
21
34.193899
31
0
39
0
210
0
220
0
230
1
0
LINE
5
E2
100
AcDbEntity
8
1
62
256
6
ByLayer
370
18
48
1
60
0
100
AcDbLine
10
33.4029
20
35.905551
30
0
11
33.510939
21
35.916907
31
0
39
0
210
0
220
0
230
1
0
LINE
5
E3
100
AcDbEntity
8
1
62
256
6
ByLayer
370
18
48
1
60
0
100
AcDbLine
10
33.149177
20
35.333139
30
0
11
33.257215
21
35.344495
31
0
39
0
210
0
220
0
230
1
0
LINE
5
E4
100
AcDbEntity
8
1
62
256
6
ByLayer
370
18
48
1
60
0
100
AcDbLine
10
33.500024
20
35.933676
30
0
11
33.510939
21
35.916907
31
0
39
0
210
0
220
0
230
1
0
LINE
5
E5
100
AcDbEntity
8
1
62
256
6
ByLayer
370
18
48
1
60
0
100
AcDbLine
10
33.304925
20
34.699958
30
0
11
33.324844
21
34.70105
31
0
39
0
210
0
220
0
230
1
0
LINE
5
E6
100
AcDbEntity
8
1
62
256
6
ByLayer
370
18
48
1
60
0
100
AcDbLine
10
33.692035
20
34.193899
30
0
11
33.684845
21
34.175226
31
0
39
0
210
0
220
0
230
1
0
LINE
5
E7
100
AcDbEntity
8
1
62
256
6
ByLayer
370
18
48
1
60
0
100
AcDbLine
10
33.257215
20
35.344495
30
0
11
33.237505
21
35.341421
31
0
39
0
210
0
220
0
230
1
0
LINE
5
E8
100
AcDbEntity
8
1
62
256
6
ByLayer
370
18
48
1
60
0
100
AcDbLine
10
34.17719
20
37.529131
30
0
11
34.105063
21
37.521551
31
0
39
0
210
0
220
0
230
1
0
LINE
5
E9
100
AcDbEntity
8
1
62
256
6
ByLayer
370
18
48
1
60
0
100
AcDbLine
10
-2
20
33.2
30
0
11
0
21
33.2
31
0
39
0
210
0
220
0
230
1
0
LINE
5
EA
100
AcDbEntity
8
1
62
256
6
ByLayer
370
18
48
1
60
0
100
AcDbLine
10
6.32417
20
5.392001
30
0
11
3.176594
21
35.33918
31
0
39
0
210
0
220
0
230
1
0
LINE
5
EB
100
AcDbEntity
8
1
62
256
6
ByLayer
370
18
48
1
60
0
100
AcDbLine
10
18.53502
20
-0.000145
30
0
11
3.235705
21
-0.000145
31
0
39
0
210
0
220
0
230
1
0
LINE
5
EC
100
AcDbEntity
8
1
62
256
6
ByLayer
370
18
48
1
60
0
100
AcDbLine
10
3.176594
20
35.33918
30
0
11
-2
21
34.4
31
0
39
0
210
0
220
0
230
1
0
LINE
5
ED
100
AcDbEntity
8
1
62
256
6
ByLayer
370
18
48
1
60
0
100
AcDbLine
10
0
20
5.392001
30
0
11
6.32417
21
5.392001
31
0
39
0
210
0
220
0
230
1
0
LINE
5
EE
100
AcDbEntity
8
1
62
256
6
ByLayer
370
18
48
1
60
0
100
AcDbLine
10
18.53502
20
-0.000145
30
0
11
6.32417
21
5.392001
31
0
39
0
210
0
220
0
230
1
0
LINE
5
EF
100
AcDbEntity
8
1
62
256
6
ByLayer
370
18
48
1
60
0
100
AcDbLine
10
-2
20
33.2
30
0
11
-2
21
34.4
31
0
39
0
210
0
220
0
230
1
0
LINE
5
F0
100
AcDbEntity
8
1
62
256
6
ByLayer
370
18
48
1
60
0
100
AcDbLine
10
19.327273
20
0.000389
30
0
11
15.380306
21
37.553278
31
0
39
0
210
0
220
0
230
1
0
LINE
5
F1
100
AcDbEntity
8
1
62
256
6
ByLayer
370
18
48
1
60
0
100
AcDbLine
10
18.53502
20
-0.000145
30
0
11
19.327273
21
0.000389
31
0
39
0
210
0
220
0
230
1
0
LINE
5
F2
100
AcDbEntity
8
1
62
256
6
ByLayer
370
18
48
1
60
0
100
AcDbLine
10
40.08872
20
29.372335
30
0
11
40.399213
21
26.418189
31
0
39
0
210
0
220
0
230
1
0
LINE
5
F3
100
AcDbEntity
8
1
62
256
6
ByLayer
370
18
48
1
60
0
100
AcDbLine
10
28.42759
20
31.449685
30
0
11
28.405497
21
31.422296
31
0
39
0
210
0
220
0
230
1
0
LINE
5
F4
100
AcDbEntity
8
1
62
256
6
ByLayer
370
18
48
1
60
0
100
AcDbLine
10
27.951335
20
29.881458
30
0
11
27.977467
21
29.632827
31
0
39
0
210
0
220
0
230
1
0
LINE
5
F5
100
AcDbEntity
8
1
62
256
6
ByLayer
370
18
48
1
60
0
100
AcDbLine
10
40.452537
20
29.415075
30
0
11
40.761975
21
26.470969
31
0
39
0
210
0
220
0
230
1
0
LINE
5
F6
100
AcDbEntity
8
1
62
256
6
ByLayer
370
18
48
1
60
0
100
AcDbLine
10
27.580464
20
39.509015
30
0
11
24.203861
21
39.15412
31
0
39
0
210
0
220
0
230
1
0
LINE
5
F7
100
AcDbEntity
8
1
62
256
6
ByLayer
370
18
48
1
60
0
100
AcDbLine
10
36.3
20
0.697658
30
0
11
36.3
21
21.5
31
0
39
0
210
0
220
0
230
1
0
LINE
5
F8
100
AcDbEntity
8
1
62
256
6
ByLayer
370
18
48
1
60
0
100
AcDbLine
10
36.3
20
0.697658
30
0
11
28.341802
21
-0.000145
31
0
39
0
210
0
220
0
230
1
0
LINE
5
F9
100
AcDbEntity
8
1
62
256
6
ByLayer
370
18
48
1
60
0
100
AcDbLine
10
16.939576
20
37.836174
30
0
11
20.916235
21
0.000794
31
0
39
0
210
0
220
0
230
1
0
LINE
5
FA
100
AcDbEntity
8
1
62
256
6
ByLayer
370
18
48
1
60
0
100
AcDbLine
10
20.916235
20
0.000794
30
0
11
28.341802
21
-0.000145
31
0
39
0
210
0
220
0
230
1
0
LINE
5
FB
100
AcDbEntity
8
1
62
256
6
ByLayer
370
18
48
1
60
0
100
AcDbLine
10
15.380306
20
37.553278
30
0
11
3.176594
21
35.33918
31
0
39
0
210
0
220
0
230
1
0
LINE
5
FC
100
AcDbEntity
8
1
62
256
6
ByLayer
370
18
48
1
60
0
100
AcDbLine
10
24.203861
20
39.15412
30
0
11
16.939576
21
37.836174
31
0
39
0
210
0
220
0
230
1
0
LINE
5
FD
100
AcDbEntity
8
1
62
256
6
ByLayer
370
18
48
1
60
0
100
AcDbLine
10
36.3
20
-0.000145
30
0
11
28.341802
21
-0.000145
31
0
39
0
210
0
220
0
230
1
0
LINE
5
FE
100
AcDbEntity
8
1
62
256
6
ByLayer
370
18
48
1
60
0
100
AcDbLine
10
36.3
20
-0.000145
30
0
11
36.3
21
0.697658
31
0
39
0
210
0
220
0
230
1
0
LINE
5
FF
100
AcDbEntity
8
1
62
256
6
ByLayer
370
18
48
1
60
0
100
AcDbLine
10
27.977467
20
29.632827
30
0
11
28.551711
21
29.693183
31
0
39
0
210
0
220
0
230
1
0
LINE
5
100
100
AcDbEntity
8
1
62
256
6
ByLayer
370
18
48
1
60
0
100
AcDbLine
10
28.405497
20
31.422296
30
0
11
28.430198
21
31.424892
31
0
39
0
210
0
220
0
230
1
0
LINE
5
101
100
AcDbEntity
8
1
62
256
6
ByLayer
370
18
48
1
60
0
100
AcDbLine
10
27.951335
20
29.881458
30
0
11
28.525578
21
29.941813
31
0
39
0
210
0
220
0
230
1
0
LINE
5
102
100
AcDbEntity
8
1
62
256
6
ByLayer
370
18
48
1
60
0
100
AcDbLine
10
28.551711
20
29.693183
30
0
11
28.525578
21
29.941813
31
0
39
0
210
0
220
0
230
1
0
LINE
5
103
100
AcDbEntity
8
1
62
256
6
ByLayer
370
18
48
1
60
0
100
AcDbLine
10
28.611545
20
29.699471
30
0
11
28.551711
21
29.693183
31
0
39
0
210
0
220
0
230
1
0
LINE
5
104
100
AcDbEntity
8
1
62
256
6
ByLayer
370
18
48
1
60
0
100
AcDbLine
10
28.585413
20
29.948102
30
0
11
28.525578
21
29.941813
31
0
39
0
210
0
220
0
230
1
0
LINE
5
105
100
AcDbEntity
8
1
62
256
6
ByLayer
370
18
48
1
60
0
100
AcDbLine
10
37.735595
20
36.046249
30
0
11
37.614274
21
36.033498
31
0
39
0
210
0
220
0
230
1
0
LINE
5
106
100
AcDbEntity
8
1
62
256
6
ByLayer
370
18
48
1
60
0
100
AcDbLine
10
37.3425
20
38.619255
30
0
11
37.463821
21
38.632006
31
0
39
0
210
0
220
0
230
1
0
LINE
5
107
100
AcDbEntity
8
1
62
256
6
ByLayer
370
18
48
1
60
0
100
AcDbLine
10
38.001716
20
32.34723
30
0
11
38.123037
21
32.359981
31
0
39
0
210
0
220
0
230
1
0
LINE
5
108
100
AcDbEntity
8
1
62
256
6
ByLayer
370
18
48
1
60
0
100
AcDbLine
10
37.851263
20
34.945738
30
0
11
37.729942
21
34.932987
31
0
39
0
210
0
220
0
230
1
0
LINE
5
109
100
AcDbEntity
8
1
62
256
6
ByLayer
370
18
48
1
60
0
100
AcDbLine
10
30.96982
20
35.335138
30
0
11
30.840698
21
35.321566
31
0
39
0
210
0
220
0
230
1
0
LINE
5
10A
100
AcDbEntity
8
1
62
256
6
ByLayer
370
18
48
1
60
0
100
AcDbLine
10
31.085489
20
34.234626
30
0
11
30.956367
21
34.221055
31
0
39
0
210
0
220
0
230
1
0
LINE
5
10B
100
AcDbEntity
8
1
62
256
6
ByLayer
370
18
48
1
60
0
100
AcDbLine
10
31.357263
20
31.648869
30
0
11
31.228141
21
31.635298
31
0
39
0
210
0
220
0
230
1
0
LINE
5
10C
100
AcDbEntity
8
1
62
256
6
ByLayer
370
18
48
1
60
0
100
AcDbLine
10
30.698046
20
37.920895
30
0
11
30.568924
21
37.907323
31
0
39
0
210
0
220
0
230
1
0
LINE
5
10D
100
AcDbEntity
8
1
62
256
6
ByLayer
370
18
48
1
60
0
100
AcDbLine
10
15.380306
20
37.553278
30
0
11
16.939576
21
37.836174
31
0
39
0
210
0
220
0
230
1
0
MTEXT
5
1F9
100
AcDbEntity
8
SK6
62
256
6
ByLayer
370
18
48
1
60
0
100
AcDbMText
10
45.75
20
44.25
30
0
210
0
220
0
230
1
1
\W0.8112;S12-R820XLR40SSYP12
40
3
41
0
44
1.084337
50
0
71
7
72
5
7
iso_b_vert
0
DIMENSION
5
206
100
AcDbEntity
8
2
62
256
6
ByLayer
370
13
48
1
60
0
100
AcDbDimension
2
DimnDraft3D1
10
40
20
58.5
30
0
11
16.4
21
58.5
31
0
70
32
71
5
72
1
41
1
210
0
220
0
230
1
3
Standard
100
AcDbAlignedDimension
13
0
23
35.200145
33
0
14
40
24
44
34
0
50
0
100
AcDbRotatedDimension
1001
ACAD
1000
DSTYLE
1002
{
1070
   279
1070
     0
1070
   172
1070
     1
1070
   173
1070
     1
1070
   340
1005
1FA
1070
   271
1070
     1
1070
    77
1070
     1
1070
    73
1070
     0
1070
   171
1070
     4
1070
   274
1070
     4
1070
   177
1070
     7
1070
   176
1070
     7
1070
   178
1070
     7
1070
    41
1041
3.175
1070
   147
1041
1.5
1070
    42
1041
2.0
1070
    44
1041
2.0
1070
   140
1041
3.0
1070
   343
1005
0
1070
   344
1005
0
1002
}
0
DIMENSION
5
20F
100
AcDbEntity
8
2
62
256
6
ByLayer
370
13
48
1
60
0
100
AcDbDimension
2
DimnDraft3D2
10
40.109643
20
40.956814
30
0
11
49.660883
21
33.301302
31
0
70
34
71
5
72
1
41
1
210
0
220
0
230
1
3
Standard
100
AcDb2LineAngularDimension
13
42
23
42
33
0
14
57
24
42
34
0
15
41.194397
25
30.636073
35
0
16
51.890317
26
31.29391
36
0
40
0
0
ENDSEC
0
SECTION
2
OBJECTS
0
DICTIONARY
5
27f
330
0
100
AcDbDictionary
280
0
281
1
3
ACAD_GROUP
350
280
3
ACAD_GROUP
350
281
3
ACAD_MLINESTYLE
350
282
0
DICTIONARY
5
280
330
0
100
AcDbDictionary
280
0
281
1
0
DICTIONARY
5
281
330
0
100
AcDbDictionary
280
0
281
1
3
_DC
350
21A
3
_DC_55
350
219
3
<201748752MOD000_00>
350
218
3
DIT-000-00-UG_TO_2D CONVERT_XL_SP12Y
350
21C
3
S12_R820XLR40SSYP_2D
350
21B
0
DICTIONARY
5
282
330
0
100
AcDbDictionary
280
0
281
1
3
Standard
350
18
0
GROUP
5
21A
330
281
100
AcDbGroup
300

70
0
71
1
340
72
0
GROUP
5
219
330
281
100
AcDbGroup
300

70
0
71
1
340
72
340
72
0
GROUP
5
218
330
281
100
AcDbGroup
300

70
0
71
1
340
6C
340
6E
340
70
340
71
340
72
340
74
340
75
340
77
340
79
340
7A
340
7B
340
7C
340
7D
340
7E
340
7F
340
80
340
81
340
82
340
83
340
84
340
85
340
86
340
87
340
88
340
89
340
8A
340
8B
340
8C
340
8E
340
90
340
91
340
92
340
93
340
94
340
95
340
96
340
97
340
98
340
99
340
9A
340
9B
340
9C
340
9D
340
9E
340
9F
340
A0
340
A1
340
A2
340
A3
340
A4
340
A5
340
A6
340
A7
340
A8
340
A9
340
AA
340
AB
340
AC
340
AD
340
AE
340
AF
340
B0
340
B1
340
B2
340
B3
340
B4
340
B5
340
B6
340
B7
340
B8
340
B9
340
BA
340
BB
340
BC
340
BD
340
BE
340
BF
340
C0
340
C1
340
C2
340
C3
340
C4
340
C5
340
C6
340
C7
340
C8
340
C9
340
CA
340
CB
340
CC
340
CD
340
CE
340
CF
340
D0
340
D1
340
D2
340
D3
340
D4
340
D5
340
D6
340
D7
340
D8
340
D9
340
DA
340
DB
340
DC
340
DD
340
DE
340
DF
340
E0
340
E1
340
E2
340
E3
340
E4
340
E5
340
E6
340
E7
340
E8
340
E9
340
EA
340
EB
340
EC
340
ED
340
EE
340
EF
340
F0
340
F1
340
F2
340
F3
340
F4
340
F5
340
F6
340
F7
340
F8
340
F9
340
FA
340
FB
340
FC
340
FD
340
FE
340
FF
340
100
340
101
340
102
340
103
340
104
340
105
340
106
340
107
340
108
340
109
340
10A
340
10B
340
10C
340
10D
340
10E
340
10F
340
110
340
111
340
112
340
113
340
114
340
115
340
116
340
117
340
118
340
119
340
11A
340
11B
340
11C
340
11D
340
11E
340
11F
340
120
340
121
340
122
340
123
340
124
340
125
340
126
340
127
340
128
340
129
340
12A
340
12B
340
12C
340
12D
340
12E
340
12F
340
130
340
131
340
132
340
133
340
134
340
135
340
136
340
137
340
138
340
139
340
13A
340
13B
340
13C
340
13D
340
13E
340
13F
340
140
340
141
340
142
340
143
340
144
340
145
340
146
340
147
340
148
340
149
340
14A
340
14B
340
14C
340
14D
340
14E
340
14F
340
150
340
151
340
152
340
153
340
154
340
155
340
156
340
157
340
158
340
159
340
15A
340
15B
340
15C
340
15D
340
15E
340
15F
340
160
340
161
340
162
340
163
340
164
340
165
340
166
340
167
340
168
340
169
340
16A
340
16B
340
16C
340
16D
340
16E
340
16F
340
170
340
171
340
172
340
173
340
174
340
175
340
176
340
177
340
178
340
179
340
17A
340
17B
340
17C
340
17D
340
17E
340
17F
340
180
340
181
340
182
340
183
340
184
340
185
340
186
340
187
340
188
340
189
340
18A
340
18B
340
18C
340
18D
340
18E
340
18F
340
190
340
191
340
192
340
193
340
194
340
195
340
196
340
197
340
198
340
199
340
19A
340
19B
340
19C
340
19D
340
19E
340
19F
340
1A0
340
1A1
340
1A2
340
1A3
340
1A4
340
1A5
340
1A6
340
1A7
340
1A8
340
1A9
340
1AA
340
1AB
340
1AC
340
1AD
340
1AE
340
1AF
340
1B0
340
1B1
340
1B2
340
1B3
340
1B4
340
1B5
340
1B6
340
1B7
340
1B8
340
1B9
340
1BA
340
1BB
340
1BC
340
1BD
340
1BE
340
1BF
340
1C0
340
1C1
340
1C2
340
1C3
340
1C4
340
1C5
340
1C6
340
1C7
340
1C8
340
1C9
340
1CA
340
1CB
340
1CC
340
1CD
340
1CE
340
1CF
340
1D0
340
1D1
340
1D2
340
1D3
340
1D4
340
1D5
340
1D6
340
1D7
340
1D8
340
1D9
340
1DA
340
1DB
340
1DC
340
1DD
340
1DE
340
1DF
340
1E0
340
1E1
340
1E2
340
1E3
340
1E4
340
1E5
340
1E6
340
1E7
340
1E8
340
1E9
340
1EA
340
1EB
340
1EC
340
1ED
340
1EE
340
1EF
340
1F0
340
1F1
340
1F2
340
1F3
340
1F4
340
1F5
340
1F6
340
1F7
340
1F8
340
72
340
72
340
72
340
77
340
79
340
7A
340
7B
340
7C
340
7D
340
7E
340
7F
340
80
340
81
340
82
340
83
340
84
340
85
340
86
340
87
340
88
340
89
340
8A
340
8B
340
10F
340
110
340
111
340
112
340
113
340
114
340
115
340
116
340
117
340
1B6
340
8E
340
90
340
91
340
92
340
93
340
94
340
95
340
96
340
97
340
98
340
99
340
9A
340
9B
340
9C
340
9D
340
9E
340
9F
340
A0
340
A1
340
A2
340
A3
340
A4
340
A5
340
A6
340
A7
340
A8
340
A9
340
AA
340
AB
340
AC
340
AD
340
AE
340
AF
340
B0
340
B1
340
B2
340
B3
340
B4
340
B5
340
B6
340
B7
340
B8
340
B9
340
BA
340
BB
340
BC
340
BD
340
BE
340
BF
340
C0
340
C1
340
C2
340
C3
340
C4
340
C5
340
C6
340
C7
340
C8
340
C9
340
CA
340
CB
340
CC
340
CD
340
CE
340
CF
340
D0
340
D1
340
D2
340
D3
340
D4
340
D5
340
D6
340
D7
340
D8
340
D9
340
DA
340
DB
340
DC
340
DD
340
DE
340
DF
340
E0
340
E1
340
E2
340
E3
340
E4
340
E5
340
E6
340
E7
340
E8
340
E9
340
EA
340
EB
340
EC
340
ED
340
EE
340
EF
340
F0
340
F1
340
F2
340
F3
340
F4
340
F5
340
F6
340
F7
340
F8
340
F9
340
FA
340
FB
340
FC
340
FD
340
FE
340
FF
340
100
340
101
340
102
340
103
340
104
340
105
340
106
340
107
340
108
340
109
340
10A
340
10B
340
10C
340
10D
340
10E
340
118
340
119
340
11A
340
11B
340
11C
340
11D
340
11E
340
11F
340
120
340
121
340
122
340
123
340
124
340
125
340
126
340
127
340
128
340
129
340
12A
340
12B
340
12C
340
12D
340
12E
340
12F
340
130
340
131
340
132
340
133
340
134
340
135
340
136
340
137
340
138
340
139
340
13A
340
13B
340
13C
340
13D
340
13E
340
13F
340
140
340
141
340
142
340
143
340
144
340
145
340
146
340
147
340
148
340
149
340
14A
340
14B
340
14C
340
14D
340
14E
340
14F
340
150
340
151
340
152
340
153
340
154
340
155
340
156
340
157
340
158
340
159
340
15A
340
15B
340
15C
340
15D
340
15E
340
15F
340
160
340
161
340
162
340
163
340
164
340
165
340
166
340
167
340
168
340
169
340
16A
340
16B
340
16C
340
16D
340
16E
340
16F
340
170
340
171
340
172
340
173
340
174
340
175
340
176
340
177
340
178
340
179
340
17A
340
17B
340
17C
340
17D
340
17E
340
17F
340
180
340
181
340
182
340
183
340
184
340
185
340
186
340
187
340
188
340
189
340
18A
340
18B
340
18C
340
18D
340
18E
340
18F
340
190
340
191
340
192
340
193
340
194
340
195
340
196
340
197
340
198
340
199
340
19A
340
19B
340
19C
340
19D
340
19E
340
19F
340
1A0
340
1A1
340
1A2
340
1A3
340
1A4
340
1A5
340
1A6
340
1A7
340
1A8
340
1A9
340
1AA
340
1AB
340
1AC
340
1AD
340
1AE
340
1AF
340
1B0
340
1B1
340
1B2
340
1B3
340
1B4
340
1B5
340
1B7
340
1B8
340
1B9
340
1BA
340
1BB
340
1BC
340
1BD
340
1BE
340
1BF
340
1C0
340
1C1
340
1C2
340
1C3
340
1C4
340
1C5
340
1C6
340
1C7
340
1C8
340
1C9
340
1CA
340
1CB
340
1CC
340
1CD
340
1CE
340
1CF
340
1D0
340
1D1
340
1D2
340
1D3
340
1D4
340
1D5
340
1D6
340
1D7
340
1D8
340
1D9
340
1DA
340
1DB
340
1DC
340
1DD
340
1DE
340
1DF
340
1E0
340
1E1
340
1E2
340
1E3
340
1E4
340
1E5
340
1E6
340
1E7
340
1E8
340
1E9
340
1EA
340
1EB
340
1EC
340
1ED
340
1EE
340
1EF
340
1F0
340
1F1
340
1F2
340
1F3
340
1F4
340
1F5
340
1F6
340
1F7
340
1F8
340
1F9
340
206
340
20F
0
GROUP
5
21C
330
281
100
AcDbGroup
300

70
0
71
1
340
8E
340
90
340
91
340
92
340
93
340
94
340
95
340
96
340
97
340
98
340
99
340
9A
340
9B
340
9C
340
9D
340
9E
340
9F
340
A0
340
A1
340
A2
340
A3
340
A4
340
A5
340
A6
340
A7
340
A8
340
A9
340
AA
340
AB
340
AC
340
AD
340
AE
340
AF
340
B0
340
B1
340
B2
340
B3
340
B4
340
B5
340
B6
340
B7
340
B8
340
B9
340
BA
340
BB
340
BC
340
BD
340
BE
340
BF
340
C0
340
C1
340
C2
340
C3
340
C4
340
C5
340
C6
340
C7
340
C8
340
C9
340
CA
340
CB
340
CC
340
CD
340
CE
340
CF
340
D0
340
D1
340
D2
340
D3
340
D4
340
D5
340
D6
340
D7
340
D8
340
D9
340
DA
340
DB
340
DC
340
DD
340
DE
340
DF
340
E0
340
E1
340
E2
340
E3
340
E4
340
E5
340
E6
340
E7
340
E8
340
E9
340
EA
340
EB
340
EC
340
ED
340
EE
340
EF
340
F0
340
F1
340
F2
340
F3
340
F4
340
F5
340
F6
340
F7
340
F8
340
F9
340
FA
340
FB
340
FC
340
FD
340
FE
340
FF
340
100
340
101
340
102
340
103
340
104
340
105
340
106
340
107
340
108
340
109
340
10A
340
10B
340
10C
340
10D
340
10E
340
118
340
119
340
11A
340
11B
340
11C
340
11D
340
11E
340
11F
340
120
340
121
340
122
340
123
340
124
340
125
340
126
340
127
340
128
340
129
340
12A
340
12B
340
12C
340
12D
340
12E
340
12F
340
130
340
131
340
132
340
133
340
134
340
135
340
136
340
137
340
138
340
139
340
13A
340
13B
340
13C
340
13D
340
13E
340
13F
340
140
340
141
340
142
340
143
340
144
340
145
340
146
340
147
340
148
340
149
340
14A
340
14B
340
14C
340
14D
340
14E
340
14F
340
150
340
151
340
152
340
153
340
154
340
155
340
156
340
157
340
158
340
159
340
15A
340
15B
340
15C
340
15D
340
15E
340
15F
340
160
340
161
340
162
340
163
340
164
340
165
340
166
340
167
340
168
340
169
340
16A
340
16B
340
16C
340
16D
340
16E
340
16F
340
170
340
171
340
172
340
173
340
174
340
175
340
176
340
177
340
178
340
179
340
17A
340
17B
340
17C
340
17D
340
17E
340
17F
340
180
340
181
340
182
340
183
340
184
340
185
340
186
340
187
340
188
340
189
340
18A
340
18B
340
18C
340
18D
340
18E
340
18F
340
190
340
191
340
192
340
193
340
194
340
195
340
196
340
197
340
198
340
199
340
19A
340
19B
340
19C
340
19D
340
19E
340
19F
340
1A0
340
1A1
340
1A2
340
1A3
340
1A4
340
1A5
340
1A6
340
1A7
340
1A8
340
1A9
340
1AA
340
1AB
340
1AC
340
1AD
340
1AE
340
1AF
340
1B0
340
1B1
340
1B2
340
1B3
340
1B4
340
1B5
340
1B7
340
1B8
340
1B9
340
1BA
340
1BB
340
1BC
340
1BD
340
1BE
340
1BF
340
1C0
340
1C1
340
1C2
340
1C3
340
1C4
340
1C5
340
1C6
340
1C7
340
1C8
340
1C9
340
1CA
340
1CB
340
1CC
340
1CD
340
1CE
340
1CF
340
1D0
340
1D1
340
1D2
340
1D3
340
1D4
340
1D5
340
1D6
340
1D7
340
1D8
340
1D9
340
1DA
340
1DB
340
1DC
340
1DD
340
1DE
340
1DF
340
1E0
340
1E1
340
1E2
340
1E3
340
1E4
340
1E5
340
1E6
340
1E7
340
1E8
340
1E9
340
1EA
340
1EB
340
1EC
340
1ED
340
1EE
340
1EF
340
1F0
340
1F1
340
1F2
340
1F3
340
1F4
340
1F5
340
1F6
340
1F7
340
1F8
0
GROUP
5
21B
330
281
100
AcDbGroup
300

70
0
71
1
340
77
340
79
340
7A
340
7B
340
7C
340
7D
340
7E
340
7F
340
80
340
81
340
82
340
83
340
84
340
85
340
86
340
87
340
88
340
89
340
8A
340
8B
340
10F
340
110
340
111
340
112
340
113
340
114
340
115
340
116
340
117
340
1B6
0
MLINESTYLE
5
18
330
282
100
AcDbMlineStyle
2
Standard
70
0
3

62
256
51
90
52
90
71
2
49
-0.5
62
256
6
ByLayer
49
0.5
62
256
6
ByLayer
0
RASTERVARIABLES
5
26d
330

100
AcDbRasterVariables
90
0
70
1
71
1
72
1
0
ENDSEC
0
EOF
