0
SECTION
2
HEADER
9
$ACADVER
1
AC1015
9
$DWGCODEPAGE
3
ANSI_1252
9
$HANDSEED
5
2ef
9
$ANGBASE
50
0
9
$ANGDIR
70
0
9
$ATTMODE
70
1
9
$AUNITS
70
0
9
$AUPREC
70
0
9
$CECOLOR
62
256
9
$CELTSCALE
40
1
9
$CELTYPE
6
ByLayer
9
$CELWEIGHT
370
18
9
$CLAYER
8
0
9
$CMLJUST
70
0
9
$CMLSCALE
40
1
9
$CMLSTYLE
2
Standard
9
$DIMSTYLE
2
Standard
9
$TEXTSIZE
40
0.2
9
$TEXTSTYLE
7
Standard
9
$LUNITS
70
2
9
$LUPREC
70
4
9
$EXTNAMES
290
1
9
$INSUNITS
70
4
9
$LTSCALE
40
1
9
$LWDISPLAY
290
1
9
$PDMODE
70
0
9
$PDSIZE
40
0
9
$PLINEGEN
70
0
0
ENDSEC
0
SECTION
2
CLASSES
0
CLASS
1
RASTERVARIABLES
2
AcDbRasterVariables
3
ISM
90
0
280
0
281
0
0
ENDSEC
0
SECTION
2
TABLES
0
TABLE
2
VPORT
5
2e5
100
AcDbSymbolTable
0
VPORT
5
1
100
AcDbSymbolTableRecord
100
AcDbViewportTableRecord
2
*Active
70
0
10
0
20
0
11
1
21
1
12
-1
22
1
13
0
23
0
14
0.5
24
0.5
15
10
25
10
16
0
26
0
36
1
17
0
27
0
37
0
0
ENDTAB
0
TABLE
2
LTYPE
5
2e6
100
AcDbSymbolTable
0
LTYPE
5
14
100
AcDbSymbolTableRecord
100
AcDbLinetypeTableRecord
70
0
2
ByBlock
3

72
65
73
0
40
0
0
LTYPE
5
15
100
AcDbSymbolTableRecord
100
AcDbLinetypeTableRecord
70
0
2
ByLayer
3

72
65
73
0
40
0
0
LTYPE
5
16
100
AcDbSymbolTableRecord
100
AcDbLinetypeTableRecord
70
0
2
CONTINUOUS
3
Solid line
72
65
73
0
40
0
0
LTYPE
5
6A
100
AcDbSymbolTableRecord
100
AcDbLinetypeTableRecord
70
0
2
CENTER
3
____ _ ____ _ ____ _ ____
72
65
73
4
40
47.5
49
22
74
0
49
-8.5
74
0
49
8.5
74
0
49
-8.5
74
0
0
LTYPE
5
6B
100
AcDbSymbolTableRecord
100
AcDbLinetypeTableRecord
70
0
2
DASHED
3
__ __ __ __ __ __ __ __ __
72
65
73
2
40
25.72
49
12.86
74
0
49
-12.86
74
0
0
ENDTAB
0
TABLE
2
LAYER
5
2e7
100
AcDbSymbolTable
0
LAYER
5
10
100
AcDbSymbolTableRecord
100
AcDbLayerTableRecord
2
0
70
0
62
7
6
CONTINUOUS
290
1
370
-3
390
0
0
LAYER
5
6D
100
AcDbSymbolTableRecord
100
AcDbLayerTableRecord
2
80
70
0
62
-6
6
CONTINUOUS
290
1
370
-3
390
0
0
LAYER
5
6F
100
AcDbSymbolTableRecord
100
AcDbLayerTableRecord
2
81
70
0
62
-3
6
CONTINUOUS
290
1
370
-3
390
0
0
LAYER
5
81
100
AcDbSymbolTableRecord
100
AcDbLayerTableRecord
2
4
70
0
62
-2
6
CENTER
290
1
370
-3
390
0
0
LAYER
5
83
100
AcDbSymbolTableRecord
100
AcDbLayerTableRecord
2
2
70
0
62
7
6
CONTINUOUS
290
1
370
-3
390
0
0
LAYER
5
9B
100
AcDbSymbolTableRecord
100
AcDbLayerTableRecord
2
1
70
0
62
4
6
CONTINUOUS
290
1
370
-3
390
0
0
LAYER
5
2ce
100
AcDbSymbolTableRecord
100
AcDbLayerTableRecord
2
SK4
70
0
62
2
6
CENTER
290
1
370
-3
390
0
0
LAYER
5
2cf
100
AcDbSymbolTableRecord
100
AcDbLayerTableRecord
2
SK3
70
0
62
1
6
DASHED
290
1
370
-3
390
0
0
LAYER
5
2d0
100
AcDbSymbolTableRecord
100
AcDbLayerTableRecord
2
SK1
70
0
62
4
6
CONTINUOUS
290
1
370
-3
390
0
0
LAYER
5
2d1
100
AcDbSymbolTableRecord
100
AcDbLayerTableRecord
2
SK6
70
0
62
5
6
CONTINUOUS
290
1
370
-3
390
0
0
LAYER
5
2d2
100
AcDbSymbolTableRecord
100
AcDbLayerTableRecord
2
SK2
70
0
62
7
6
CONTINUOUS
290
1
370
-3
390
0
0
ENDTAB
0
TABLE
2
STYLE
5
2e8
100
AcDbSymbolTable
0
STYLE
5
11
100
AcDbSymbolTableRecord
100
AcDbTextStyleTableRecord
2
Standard
3
txt
70
0
71
0
40
0
41
1
42
0
50
0
0
STYLE
5
233
100
AcDbSymbolTableRecord
100
AcDbTextStyleTableRecord
2
iso_b_vert
3
simplex.shx
70
0
71
0
40
0
41
1
42
0
50
0
0
STYLE
5
234
100
AcDbSymbolTableRecord
100
AcDbTextStyleTableRecord
2
DWGDirectTextStyle
3
simplex
70
0
71
0
40
0
41
1
42
0
50
0
0
ENDTAB
0
TABLE
2
DIMSTYLE
5
2e9
100
AcDbSymbolTable
100
AcDbDimStyleTable
0
DIMSTYLE
105
27
100
AcDbSymbolTableRecord
100
AcDbDimStyleTableRecord
2
Standard
70
0
3
<>
41
0.18
42
0.0625
44
0.18
140
0.18
147
0.09
73
0
74
0
77
1
271
2
275
0
278
52
280
0
340
11
0
ENDTAB
0
TABLE
2
VIEW
5
2ea
100
AcDbSymbolTable
0
ENDTAB
0
TABLE
2
UCS
5
2eb
100
AcDbSymbolTable
0
ENDTAB
0
TABLE
2
APPID
5
2ec
100
AcDbSymbolTable
0
APPID
5
12
100
AcDbSymbolTableRecord
100
AcDbRegAppTableRecord
2
ACAD
70
0
0
ENDTAB
0
TABLE
2
BLOCK_RECORD
5
2ed
100
AcDbSymbolTable
0
BLOCK_RECORD
5
1F
100
AcDbSymbolTableRecord
100
AcDbBlockTableRecord
2
*Model_Space
340
0
70
0
0
BLOCK_RECORD
5
1B
100
AcDbSymbolTableRecord
100
AcDbBlockTableRecord
2
*Paper_Space
340
0
70
0
0
BLOCK_RECORD
5
23
100
AcDbSymbolTableRecord
100
AcDbBlockTableRecord
2
*Paper_Space0
340
0
70
0
0
BLOCK_RECORD
5
236
100
AcDbSymbolTableRecord
100
AcDbBlockTableRecord
2
DimnDraft3D1
340
0
70
0
0
BLOCK_RECORD
5
240
100
AcDbSymbolTableRecord
100
AcDbBlockTableRecord
2
DimnDraft3D2
340
0
70
0
0
BLOCK_RECORD
5
24C
100
AcDbSymbolTableRecord
100
AcDbBlockTableRecord
2
DimnDraft3D3
340
0
70
0
0
BLOCK_RECORD
5
257
100
AcDbSymbolTableRecord
100
AcDbBlockTableRecord
2
DimnDraft3D4
340
0
70
0
0
BLOCK_RECORD
5
261
100
AcDbSymbolTableRecord
100
AcDbBlockTableRecord
2
DimnDraft3D5
340
0
70
0
0
ENDTAB
0
ENDSEC
0
SECTION
2
BLOCKS
0
BLOCK
5
20
100
AcDbEntity
8
0
100
AcDbBlockBegin
2
*Model_Space
70
0
10
0
20
0
30
0
3
*Model_Space
0
ENDBLK
5
21
100
AcDbEntity
8
0
100
AcDbBlockEnd
0
BLOCK
5
1C
100
AcDbEntity
8
0
100
AcDbBlockBegin
2
*Paper_Space
70
0
10
0
20
0
30
0
3
*Paper_Space
0
ENDBLK
5
1D
100
AcDbEntity
8
0
100
AcDbBlockEnd
0
BLOCK
5
24
100
AcDbEntity
8
0
100
AcDbBlockBegin
2
*Paper_Space0
70
0
10
0
20
0
30
0
3
*Paper_Space0
0
ENDBLK
5
25
100
AcDbEntity
8
0
100
AcDbBlockEnd
0
BLOCK
5
23D
100
AcDbEntity
8
0
100
AcDbBlockBegin
2
DimnDraft3D1
70
0
10
0
20
0
30
0
3
DimnDraft3D1
0
MTEXT
5
237
100
AcDbEntity
8
2
62
256
6
ByLayer
370
18
48
1
60
0
100
AcDbMText
10
47.581579
20
157.494886
30
0
210
0
220
0
230
1
1
\W0.6869;102.0
40
3
41
0
44
1.084337
50
0
71
7
72
5
7
iso_b_vert
0
LINE
5
238
100
AcDbEntity
8
2
62
256
6
ByLayer
370
13
48
1
60
0
100
AcDbLine
10
0
20
51.4
30
0
11
0
21
158.744886
31
0
39
0
210
0
220
0
230
1
0
LINE
5
239
100
AcDbEntity
8
2
62
256
6
ByLayer
370
13
48
1
60
0
100
AcDbLine
10
102
20
138.99997
30
0
11
102
21
158.744886
31
0
39
0
210
0
220
0
230
1
0
LINE
5
23A
100
AcDbEntity
8
2
62
256
6
ByLayer
370
13
48
1
60
0
100
AcDbLine
10
0
20
156.744886
30
0
11
102
21
156.744886
31
0
39
0
210
0
220
0
230
1
0
SOLID
5
23B
100
AcDbEntity
8
2
62
256
6
ByLayer
370
13
48
1
60
0
100
AcDbTrace
10
0
20
156.744886
30
0
11
3.174998
21
157.162883
31
0
12
3.175002
22
156.32689
32
0
13
0
23
156.744886
33
0
39
0
210
0
220
0
230
1
0
SOLID
5
23C
100
AcDbEntity
8
2
62
256
6
ByLayer
370
13
48
1
60
0
100
AcDbTrace
10
102
20
156.744886
30
0
11
98.825001
21
156.32689
31
0
12
98.824998
22
157.162883
32
0
13
102
23
156.744886
33
0
39
0
210
0
220
0
230
1
0
ENDBLK
5
23E
100
AcDbEntity
8
0
100
AcDbBlockEnd
0
BLOCK
5
249
100
AcDbEntity
8
0
100
AcDbBlockBegin
2
DimnDraft3D2
70
0
10
0
20
0
30
0
3
DimnDraft3D2
0
MTEXT
5
241
100
AcDbEntity
8
SK2
62
256
6
ByLayer
370
18
48
1
60
0
100
AcDbMText
10
-19.85367
20
1.878947
30
0
210
0
220
0
230
1
1
\W0.6754;40
40
3.5
41
0
44
1.084337
50
90
71
7
72
5
7
iso_b_vert
0
MTEXT
5
243
100
AcDbEntity
8
SK2
62
256
6
ByLayer
370
18
48
1
60
0
100
AcDbMText
10
-19.85367
20
-4.586842
30
0
210
0
220
0
230
1
1
\W0.8513;%%c 
40
3.5
41
0
44
1.084337
50
90
71
7
72
5
7
iso_b_vert
0
LINE
5
244
100
AcDbEntity
8
SK2
62
256
6
ByLayer
370
13
48
1
60
0
100
AcDbLine
10
-0.960769
20
20.00625
30
0
11
-20.97867
21
20.00625
31
0
39
0
210
0
220
0
230
1
0
LINE
5
245
100
AcDbEntity
8
SK2
62
256
6
ByLayer
370
13
48
1
60
0
100
AcDbLine
10
-0.960769
20
-20.00625
30
0
11
-20.97867
21
-20.00625
31
0
39
0
210
0
220
0
230
1
0
LINE
5
246
100
AcDbEntity
8
SK2
62
256
6
ByLayer
370
13
48
1
60
0
100
AcDbLine
10
-18.97867
20
20.00625
30
0
11
-18.97867
21
-20.00625
31
0
39
0
210
0
220
0
230
1
0
SOLID
5
247
100
AcDbEntity
8
SK2
62
256
6
ByLayer
370
13
48
1
60
0
100
AcDbTrace
10
-18.97867
20
20.00625
30
0
11
-18.560674
21
16.831252
31
0
12
-19.396667
22
16.831248
32
0
13
-18.97867
23
20.00625
33
0
39
0
210
0
220
0
230
1
0
SOLID
5
248
100
AcDbEntity
8
SK2
62
256
6
ByLayer
370
13
48
1
60
0
100
AcDbTrace
10
-18.97867
20
-20.00625
30
0
11
-19.396667
21
-16.831252
31
0
12
-18.560674
22
-16.831248
32
0
13
-18.97867
23
-20.00625
33
0
39
0
210
0
220
0
230
1
0
ENDBLK
5
24A
100
AcDbEntity
8
0
100
AcDbBlockEnd
0
BLOCK
5
254
100
AcDbEntity
8
0
100
AcDbBlockBegin
2
DimnDraft3D3
70
0
10
0
20
0
30
0
3
DimnDraft3D3
0
MTEXT
5
24D
100
AcDbEntity
8
SK2
62
256
6
ByLayer
370
18
48
1
60
0
100
AcDbMText
10
-40.571803
20
1.215789
30
0
210
0
220
0
230
1
1
\W0.6255;100
40
3.5
41
0
44
1.084337
50
90
71
7
72
5
7
iso_b_vert
0
MTEXT
5
24E
100
AcDbEntity
8
SK2
62
256
6
ByLayer
370
18
48
1
60
0
100
AcDbMText
10
-40.571803
20
-5.25
30
0
210
0
220
0
230
1
1
\W0.8513;%%c 
40
3.5
41
0
44
1.084337
50
90
71
7
72
5
7
iso_b_vert
0
LINE
5
24F
100
AcDbEntity
8
SK2
62
256
6
ByLayer
370
13
48
1
60
0
100
AcDbLine
10
-1.4
20
50
30
0
11
-41.696803
21
50
31
0
39
0
210
0
220
0
230
1
0
LINE
5
250
100
AcDbEntity
8
SK2
62
256
6
ByLayer
370
13
48
1
60
0
100
AcDbLine
10
-1.4
20
-50
30
0
11
-41.696803
21
-50
31
0
39
0
210
0
220
0
230
1
0
LINE
5
251
100
AcDbEntity
8
SK2
62
256
6
ByLayer
370
13
48
1
60
0
100
AcDbLine
10
-39.696803
20
50
30
0
11
-39.696803
21
-50
31
0
39
0
210
0
220
0
230
1
0
SOLID
5
252
100
AcDbEntity
8
SK2
62
256
6
ByLayer
370
13
48
1
60
0
100
AcDbTrace
10
-39.696803
20
50
30
0
11
-39.278807
21
46.825002
31
0
12
-40.1148
22
46.824998
32
0
13
-39.696803
23
50
33
0
39
0
210
0
220
0
230
1
0
SOLID
5
253
100
AcDbEntity
8
SK2
62
256
6
ByLayer
370
13
48
1
60
0
100
AcDbTrace
10
-39.696803
20
-50
30
0
11
-40.1148
21
-46.825002
31
0
12
-39.278807
22
-46.824998
32
0
13
-39.696803
23
-50
33
0
39
0
210
0
220
0
230
1
0
ENDBLK
5
255
100
AcDbEntity
8
0
100
AcDbBlockEnd
0
BLOCK
5
25E
100
AcDbEntity
8
0
100
AcDbBlockBegin
2
DimnDraft3D4
70
0
10
0
20
0
30
0
3
DimnDraft3D4
0
MTEXT
5
258
100
AcDbEntity
8
2
62
256
6
ByLayer
370
18
48
1
60
0
100
AcDbMText
10
115.900405
20
120.333475
30
0
210
0
220
0
230
1
1
\W0.5899;90%%d
40
3
41
0
44
1.084337
50
45
71
7
72
5
7
iso_b_vert
0
LINE
5
259
100
AcDbEntity
8
2
62
256
6
ByLayer
370
13
48
1
60
0
100
AcDbLine
10
121
20
136.99997
30
0
11
126.364062
21
136.99997
31
0
39
0
210
0
220
0
230
1
0
LINE
5
25A
100
AcDbEntity
8
2
62
256
6
ByLayer
370
13
48
1
60
0
100
AcDbLine
10
102
20
122.92258
30
0
11
102
21
112.635908
31
0
39
0
210
0
220
0
230
1
0
ARC
5
25B
100
AcDbEntity
8
2
62
256
6
ByLayer
370
13
48
1
60
0
100
AcDbCircle
39
0
10
102
20
136.99997
30
0
40
22.364062019361
210
0
220
0
230
1
100
AcDbArc
50
270
51
0
0
SOLID
5
25C
100
AcDbEntity
8
2
62
256
6
ByLayer
370
13
48
1
60
0
100
AcDbTrace
10
124.364062
20
136.99997
30
0
11
124.669321
21
133.812156
31
0
12
123.833852
22
133.841769
32
0
13
124.364062
23
136.99997
33
0
39
0
210
0
220
0
230
1
0
SOLID
5
25D
100
AcDbEntity
8
2
62
256
6
ByLayer
370
13
48
1
60
0
100
AcDbTrace
10
102
20
114.635908
30
0
11
105.158198
21
115.166117
31
0
12
105.187816
22
114.330649
32
0
13
102
23
114.635908
33
0
39
0
210
0
220
0
230
1
0
ENDBLK
5
25F
100
AcDbEntity
8
0
100
AcDbBlockEnd
0
BLOCK
5
268
100
AcDbEntity
8
0
100
AcDbBlockBegin
2
DimnDraft3D5
70
0
10
0
20
0
30
0
3
DimnDraft3D5
0
MTEXT
5
262
100
AcDbEntity
8
2
62
256
6
ByLayer
370
18
48
1
60
0
100
AcDbMText
10
142.452985
20
-22.413207
30
0
210
0
220
0
230
1
1
\W0.7474;Dc roughing = 248 - 300
40
3
41
0
44
1.084337
50
90
71
7
72
5
7
iso_b_vert
0
LINE
5
263
100
AcDbEntity
8
2
62
256
6
ByLayer
370
13
48
1
60
0
100
AcDbLine
10
104
20
136.99997
30
0
11
145.202985
21
136.99997
31
0
39
0
210
0
220
0
230
1
0
LINE
5
264
100
AcDbEntity
8
2
62
256
6
ByLayer
370
13
48
1
60
0
100
AcDbLine
10
104.000001
20
-137.000068
30
0
11
145.202985
21
-137.000068
31
0
39
0
210
0
220
0
230
1
0
LINE
5
265
100
AcDbEntity
8
2
62
256
6
ByLayer
370
13
48
1
60
0
100
AcDbLine
10
143.202985
20
136.99997
30
0
11
143.202985
21
-137.000068
31
0
39
0
210
0
220
0
230
1
0
SOLID
5
266
100
AcDbEntity
8
2
62
256
6
ByLayer
370
13
48
1
60
0
100
AcDbTrace
10
143.202985
20
136.99997
30
0
11
143.620982
21
133.824971
31
0
12
142.784989
22
133.824968
32
0
13
143.202985
23
136.99997
33
0
39
0
210
0
220
0
230
1
0
SOLID
5
267
100
AcDbEntity
8
2
62
256
6
ByLayer
370
13
48
1
60
0
100
AcDbTrace
10
143.202985
20
-137.000068
30
0
11
142.784989
21
-133.82507
31
0
12
143.620982
22
-133.825067
32
0
13
143.202985
23
-137.000068
33
0
39
0
210
0
220
0
230
1
0
ENDBLK
5
269
100
AcDbEntity
8
0
100
AcDbBlockEnd
0
ENDSEC
0
SECTION
2
ENTITIES
0
ARC
5
16B
100
AcDbEntity
8
SK3
62
256
6
ByLayer
370
13
48
0.05
60
0
100
AcDbCircle
39
0
10
20.300001
20
-20.2
30
0
40
0.8
210
0
220
0
230
1
100
AcDbArc
50
180
51
270
0
ARC
5
16C
100
AcDbEntity
8
SK3
62
256
6
ByLayer
370
13
48
0.05
60
0
100
AcDbCircle
39
0
10
27.700001
20
20.2
30
0
40
0.8
210
0
220
0
230
1
100
AcDbArc
50
0
51
90
0
ARC
5
16D
100
AcDbEntity
8
SK3
62
256
6
ByLayer
370
13
48
0.05
60
0
100
AcDbCircle
39
0
10
27.700001
20
-20.2
30
0
40
0.8
210
0
220
0
230
1
100
AcDbArc
50
270
51
0
0
ARC
5
16E
100
AcDbEntity
8
SK3
62
256
6
ByLayer
370
13
48
0.05
60
0
100
AcDbCircle
39
0
10
20.300001
20
20.2
30
0
40
0.8
210
0
220
0
230
1
100
AcDbArc
50
90
51
180
0
ARC
5
16F
100
AcDbEntity
8
1
62
256
6
ByLayer
370
18
48
1
60
0
100
AcDbCircle
39
0
10
90.094
20
-134.246655
30
0
40
0.793999999999996
210
0
220
0
230
1
100
AcDbArc
50
180
51
260
0
ARC
5
170
100
AcDbEntity
8
1
62
256
6
ByLayer
370
18
48
1
60
0
100
AcDbCircle
39
0
10
-90.094
20
-134.246655
30
0
40
0.240851501807541
210
0
220
0
230
-1
100
AcDbArc
50
309.539101
51
330.460899
0
ARC
5
171
100
AcDbEntity
8
1
62
256
6
ByLayer
370
18
48
1
60
0
100
AcDbCircle
39
0
10
101.206
20
-124.922579
30
0
40
0.793999999999977
210
0
220
0
230
1
100
AcDbArc
50
360
51
80
0
ARC
5
172
100
AcDbEntity
8
1
62
256
6
ByLayer
370
18
48
1
60
0
100
AcDbCircle
39
0
10
-101.206
20
-124.922579
30
0
40
0.240851501807522
210
0
220
0
230
-1
100
AcDbArc
50
129.539101
51
150.460899
0
ARC
5
173
100
AcDbEntity
8
1
62
256
6
ByLayer
370
18
48
1
60
0
100
AcDbCircle
39
0
10
101.206
20
-136.206
30
0
40
0.793999999999997
210
0
220
0
230
1
100
AcDbArc
50
260
51
360
0
ARC
5
174
100
AcDbEntity
8
1
62
256
6
ByLayer
370
18
48
1
60
0
100
AcDbCircle
39
0
10
-101.206
20
-136.206
30
0
40
0.240851501807542
210
0
220
0
230
-1
100
AcDbArc
50
209.539101
51
250.460899
0
ARC
5
175
100
AcDbEntity
8
1
62
256
6
ByLayer
370
18
48
1
60
0
100
AcDbCircle
39
0
10
95.65
20
-129.584617
30
0
40
1.6
210
0
220
0
230
1
100
AcDbArc
50
205.566239
51
208.04686
0
ARC
5
176
100
AcDbEntity
8
1
62
256
6
ByLayer
370
18
48
1
60
0
100
AcDbCircle
39
0
10
75.5
20
105.5
30
0
40
0.5
210
0
220
0
230
1
100
AcDbArc
50
0
51
90
0
ARC
5
177
100
AcDbEntity
8
1
62
256
6
ByLayer
370
18
48
1
60
0
100
AcDbCircle
39
0
10
75.5
20
90.5
30
0
40
0.5
210
0
220
0
230
1
100
AcDbArc
50
270
51
0
0
ARC
5
178
100
AcDbEntity
8
1
62
256
6
ByLayer
370
18
48
1
60
0
100
AcDbCircle
39
0
10
103.3
20
-112.029839
30
0
40
5
210
0
220
0
230
1
100
AcDbArc
50
180
51
221.44911
0
ARC
5
179
100
AcDbEntity
8
1
62
256
6
ByLayer
370
18
48
1
60
0
100
AcDbCircle
39
0
10
66.5
20
-115.25
30
0
40
3.7
210
0
220
0
230
1
100
AcDbArc
50
151.110003
51
165.26251
0
ARC
5
17A
100
AcDbEntity
8
1
62
256
6
ByLayer
370
18
48
1
60
0
100
AcDbCircle
39
0
10
66.5
20
-115.25
30
0
40
3.7
210
0
220
0
230
1
100
AcDbArc
50
173.115005
51
186.885008
0
ARC
5
17B
100
AcDbEntity
8
1
62
256
6
ByLayer
370
18
48
1
60
0
100
AcDbCircle
39
0
10
66.5
20
-115.25
30
0
40
3.7
210
0
220
0
230
1
100
AcDbArc
50
194.737503
51
208.890009
0
ARC
5
17C
100
AcDbEntity
8
1
62
256
6
ByLayer
370
18
48
1
60
0
100
AcDbCircle
39
0
10
-66.5
20
-115.25
30
0
40
4
210
0
220
0
230
-1
100
AcDbArc
50
331.138124
51
345.251249
0
ARC
5
17D
100
AcDbEntity
8
1
62
256
6
ByLayer
370
18
48
1
60
0
100
AcDbCircle
39
0
10
-66.5
20
-115.25
30
0
40
4
210
0
220
0
230
-1
100
AcDbArc
50
352.676252
51
7.323746
0
ARC
5
17E
100
AcDbEntity
8
1
62
256
6
ByLayer
370
18
48
1
60
0
100
AcDbCircle
39
0
10
-66.5
20
-115.25
30
0
40
4
210
0
220
0
230
-1
100
AcDbArc
50
14.748749
51
28.861874
0
ARC
5
17F
100
AcDbEntity
8
1
62
256
6
ByLayer
370
18
48
1
60
0
100
AcDbCircle
39
0
10
-66.5
20
-115.25
30
0
40
1.5
210
0
220
0
230
-1
100
AcDbArc
50
30
51
90
0
ARC
5
180
100
AcDbEntity
8
1
62
256
6
ByLayer
370
18
48
1
60
0
100
AcDbCircle
39
0
10
-66.5
20
-115.25
30
0
40
1.5
210
0
220
0
230
-1
100
AcDbArc
50
210
51
270
0
ARC
5
181
100
AcDbEntity
8
1
62
256
6
ByLayer
370
18
48
1
60
0
100
AcDbCircle
39
0
10
-66.5
20
-115.25
30
0
40
1.5
210
0
220
0
230
-1
100
AcDbArc
50
270
51
330
0
ARC
5
182
100
AcDbEntity
8
1
62
256
6
ByLayer
370
18
48
1
60
0
100
AcDbCircle
39
0
10
-66.5
20
-115.25
30
0
40
1.5
210
0
220
0
230
-1
100
AcDbArc
50
150
51
210
0
ARC
5
183
100
AcDbEntity
8
1
62
256
6
ByLayer
370
18
48
1
60
0
100
AcDbCircle
39
0
10
-66.5
20
-115.25
30
0
40
1.5
210
0
220
0
230
-1
100
AcDbArc
50
90
51
150
0
ARC
5
184
100
AcDbEntity
8
1
62
256
6
ByLayer
370
18
48
1
60
0
100
AcDbCircle
39
0
10
-66.5
20
-115.25
30
0
40
1.5
210
0
220
0
230
-1
100
AcDbArc
50
330
51
30
0
ARC
5
185
100
AcDbEntity
8
1
62
256
6
ByLayer
370
18
48
1
60
0
100
AcDbCircle
39
0
10
49.6
20
35.2
30
0
40
0.8
210
0
220
0
230
1
100
AcDbArc
50
90
51
180
0
ARC
5
186
100
AcDbEntity
8
1
62
256
6
ByLayer
370
18
48
1
60
0
100
AcDbCircle
39
0
10
49.6
20
-35.2
30
0
40
0.8
210
0
220
0
230
1
100
AcDbArc
50
180
51
270
0
ARC
5
187
100
AcDbEntity
8
1
62
256
6
ByLayer
370
18
48
1
60
0
100
AcDbCircle
39
0
10
-1.282592
20
62
30
0
40
12
210
0
220
0
230
-1
100
AcDbArc
50
192
51
270
0
ARC
5
188
100
AcDbEntity
8
1
62
256
6
ByLayer
370
18
48
1
60
0
100
AcDbCircle
39
0
10
-1.282592
20
-62
30
0
40
12
210
0
220
0
230
-1
100
AcDbArc
50
90
51
168
0
ARC
5
189
100
AcDbEntity
8
1
62
256
6
ByLayer
370
18
48
1
60
0
100
AcDbCircle
39
0
10
36.153153
20
-101
30
0
40
14
210
0
220
0
230
1
100
AcDbArc
50
192
51
244.188629
0
ARC
5
18A
100
AcDbEntity
8
1
62
256
6
ByLayer
370
18
48
1
60
0
100
AcDbCircle
39
0
10
36.153153
20
101
30
0
40
14
210
0
220
0
230
1
100
AcDbArc
50
115.813577
51
162.442147
0
ARC
5
18B
100
AcDbEntity
8
1
62
256
6
ByLayer
370
18
48
1
60
0
100
AcDbCircle
39
0
10
36.153153
20
101
30
0
40
14
210
0
220
0
230
1
100
AcDbArc
50
166.546934
51
168
0
ARC
5
18D
100
AcDbEntity
8
1
62
256
6
ByLayer
370
18
48
1
60
0
100
AcDbCircle
39
0
10
-100.207122
20
-135.124485
30
0
40
0.7
210
0
220
0
230
-1
100
AcDbArc
50
180
51
280
0
ARC
5
18E
100
AcDbEntity
8
1
62
256
6
ByLayer
370
18
48
1
60
0
100
AcDbCircle
39
0
10
-90.407122
20
-133.39648
30
0
40
0.7
210
0
220
0
230
-1
100
AcDbArc
50
280
51
331.512507
0
ARC
5
18F
100
AcDbEntity
8
1
62
256
6
ByLayer
370
18
48
1
60
0
100
AcDbCircle
39
0
10
-100.207122
20
-125.173304
30
0
40
0.7
210
0
220
0
230
-1
100
AcDbArc
50
140.853723
51
180
0
ARC
5
190
100
AcDbEntity
8
1
62
256
6
ByLayer
370
18
48
1
60
0
100
AcDbCircle
39
0
10
100.207122
20
-135.124485
30
0
40
0.8
210
0
220
0
230
1
100
AcDbArc
50
260
51
0
0
ARC
5
191
100
AcDbEntity
8
1
62
256
6
ByLayer
370
18
48
1
60
0
100
AcDbCircle
39
0
10
100.207122
20
-125.173304
30
0
40
0.8
210
0
220
0
230
1
100
AcDbArc
50
0
51
47.265007
0
ARC
5
192
100
AcDbEntity
8
1
62
256
6
ByLayer
370
18
48
1
60
0
100
AcDbCircle
39
0
10
90.407122
20
-133.39648
30
0
40
0.8
210
0
220
0
230
1
100
AcDbArc
50
202.993779
51
260
0
ARC
5
193
100
AcDbEntity
8
1
62
256
6
ByLayer
370
18
48
1
60
0
100
AcDbCircle
39
0
10
63.966272
20
-117.241162
30
0
40
0.2
210
0
220
0
230
1
100
AcDbArc
50
152.692821
51
218.16248
0
ARC
5
194
100
AcDbEntity
8
1
62
256
6
ByLayer
370
18
48
1
60
0
100
AcDbCircle
39
0
10
63.966272
20
-113.258838
30
0
40
0.2
210
0
220
0
230
1
100
AcDbArc
50
141.83752
51
207.307179
0
ARC
5
195
100
AcDbEntity
8
1
62
256
6
ByLayer
370
18
48
1
60
0
100
AcDbCircle
39
0
10
62.9
20
-113.809351
30
0
40
1
210
0
220
0
230
1
100
AcDbArc
50
250
51
27.307179
0
ARC
5
196
100
AcDbEntity
8
1
62
256
6
ByLayer
370
18
48
1
60
0
100
AcDbCircle
39
0
10
62.9
20
-116.690649
30
0
40
1
210
0
220
0
230
1
100
AcDbArc
50
332.692821
51
110
0
ARC
5
198
100
AcDbEntity
8
1
62
256
6
ByLayer
370
18
48
1
60
0
100
AcDbCircle
39
0
10
66.5
20
-115.25
30
0
40
3.4225
210
0
220
0
230
1
100
AcDbArc
50
218.16248
51
141.83752
0
ARC
5
19A
100
AcDbEntity
8
1
62
256
6
ByLayer
370
18
48
1
60
0
100
AcDbCircle
39
0
10
-66
20
-95.166642
30
0
40
2
210
0
220
0
230
-1
100
AcDbArc
50
270
51
0
0
ARC
5
19B
100
AcDbEntity
8
1
62
256
6
ByLayer
370
18
48
1
60
0
100
AcDbCircle
39
0
10
75.5
20
-69.5
30
0
40
0.5
210
0
220
0
230
1
100
AcDbArc
50
0
51
90
0
ARC
5
19C
100
AcDbEntity
8
1
62
256
6
ByLayer
370
18
48
1
60
0
100
AcDbCircle
39
0
10
75.5
20
-84.5
30
0
40
0.5
210
0
220
0
230
1
100
AcDbArc
50
270
51
0
0
ARC
5
19D
100
AcDbEntity
8
1
62
256
6
ByLayer
370
18
48
1
60
0
100
AcDbCircle
39
0
10
-95.65
20
129.584617
30
0
40
1.6765
210
0
220
0
230
-1
100
AcDbArc
50
70.159887
51
130
0
ARC
5
19E
100
AcDbEntity
8
1
62
256
6
ByLayer
370
18
48
1
60
0
100
AcDbCircle
39
0
10
-95.65
20
129.584617
30
0
40
1.6765
210
0
220
0
230
-1
100
AcDbArc
50
250.159887
51
310
0
ARC
5
19F
100
AcDbEntity
8
1
62
256
6
ByLayer
370
18
48
1
60
0
100
AcDbCircle
39
0
10
-95.65
20
129.584617
30
0
40
1.6765
210
0
220
0
230
-1
100
AcDbArc
50
189.840113
51
250.159887
0
ARC
5
1A0
100
AcDbEntity
8
1
62
256
6
ByLayer
370
18
48
1
60
0
100
AcDbCircle
39
0
10
95.65
20
129.584617
30
0
40
1.2065
210
0
220
0
230
1
100
AcDbArc
50
316.044721
51
323.955279
0
ARC
5
1A1
100
AcDbEntity
8
1
62
256
6
ByLayer
370
18
48
1
60
0
100
AcDbCircle
39
0
10
95.65
20
129.584617
30
0
40
1.2065
210
0
220
0
230
1
100
AcDbArc
50
136.044721
51
143.955279
0
ARC
5
1A2
100
AcDbEntity
8
1
62
256
6
ByLayer
370
18
48
1
60
0
100
AcDbCircle
39
0
10
-95.65
20
129.584617
30
0
40
1.6765
210
0
220
0
230
-1
100
AcDbArc
50
9.840113
51
70.159887
0
ARC
5
1A3
100
AcDbEntity
8
1
62
256
6
ByLayer
370
18
48
1
60
0
100
AcDbCircle
39
0
10
-95.307122
20
-129.284892
30
0
40
1.5
210
0
220
0
230
-1
100
AcDbArc
50
229.021867
51
318.791252
0
ARC
5
1A4
100
AcDbEntity
8
1
62
256
6
ByLayer
370
18
48
1
60
0
100
AcDbCircle
39
0
10
-95.65
20
129.584617
30
0
40
1.6765
210
0
220
0
230
-1
100
AcDbArc
50
130
51
189.840113
0
ARC
5
1A5
100
AcDbEntity
8
1
62
256
6
ByLayer
370
18
48
1
60
0
100
AcDbCircle
39
0
10
-95.65
20
129.584617
30
0
40
1.6765
210
0
220
0
230
-1
100
AcDbArc
50
310
51
9.840113
0
ARC
5
1A7
100
AcDbEntity
8
1
62
256
6
ByLayer
370
18
48
1
60
0
100
AcDbCircle
39
0
10
95.65
20
129.584617
30
0
40
1.2065
210
0
220
0
230
1
100
AcDbArc
50
20.079943
51
79.920057
0
ARC
5
1A8
100
AcDbEntity
8
1
62
256
6
ByLayer
370
18
48
1
60
0
100
AcDbCircle
39
0
10
95.65
20
129.584617
30
0
40
1.2065
210
0
220
0
230
1
100
AcDbArc
50
323.955279
51
20.079943
0
ARC
5
1A9
100
AcDbEntity
8
1
62
256
6
ByLayer
370
18
48
1
60
0
100
AcDbCircle
39
0
10
95.65
20
129.584617
30
0
40
1.2065
210
0
220
0
230
1
100
AcDbArc
50
200.079943
51
259.920057
0
ARC
5
1AA
100
AcDbEntity
8
1
62
256
6
ByLayer
370
18
48
1
60
0
100
AcDbCircle
39
0
10
95.65
20
129.584617
30
0
40
1.2065
210
0
220
0
230
1
100
AcDbArc
50
259.920057
51
316.044721
0
ARC
5
1AB
100
AcDbEntity
8
1
62
256
6
ByLayer
370
18
48
1
60
0
100
AcDbCircle
39
0
10
95.65
20
129.584617
30
0
40
1.2065
210
0
220
0
230
1
100
AcDbArc
50
79.920057
51
136.044721
0
ARC
5
1AC
100
AcDbEntity
8
1
62
256
6
ByLayer
370
18
48
1
60
0
100
AcDbCircle
39
0
10
95.65
20
129.584617
30
0
40
1.2065
210
0
220
0
230
1
100
AcDbArc
50
143.955279
51
200.079943
0
ARC
5
1AD
100
AcDbEntity
8
1
62
256
6
ByLayer
370
18
48
1
60
0
100
AcDbCircle
39
0
10
74.715098
20
131.884246
30
0
40
0.799999999999978
210
0
220
0
230
1
100
AcDbArc
50
275
51
275.708238
0
ARC
5
1AE
100
AcDbEntity
8
1
62
256
6
ByLayer
370
18
48
1
60
0
100
AcDbCircle
39
0
10
-90.026596
20
124.233032
30
0
40
1.782
210
0
220
0
230
-1
100
AcDbArc
50
0.25
51
65.936074
0
ARC
5
1AF
100
AcDbEntity
8
1
62
256
6
ByLayer
370
18
48
1
60
0
100
AcDbCircle
39
0
10
-90.025681
20
124.023478
30
0
40
1.782
210
0
220
0
230
-1
100
AcDbArc
50
342.13161
51
0.25
0
ARC
5
1B0
100
AcDbEntity
8
1
62
256
6
ByLayer
370
18
48
1
60
0
100
AcDbCircle
39
0
10
-89.92919
20
122.766821
30
0
40
1.75
210
0
220
0
230
-1
100
AcDbArc
50
191.074236
51
23.931699
0
ARC
5
1B1
100
AcDbEntity
8
1
62
256
6
ByLayer
370
18
48
1
60
0
100
AcDbCircle
39
0
10
-103.3
20
112.029839
30
0
40
5
210
0
220
0
230
-1
100
AcDbArc
50
0
51
56.42303
0
ARC
5
1B2
100
AcDbEntity
8
1
62
256
6
ByLayer
370
18
48
1
60
0
100
AcDbCircle
39
0
10
-90.025681
20
124.023478
30
0
40
1.5
210
0
220
0
230
-1
100
AcDbArc
50
352.547698
51
0.25
0
ARC
5
1B3
100
AcDbEntity
8
1
62
256
6
ByLayer
370
18
48
1
60
0
100
AcDbCircle
39
0
10
-90.026596
20
124.233032
30
0
40
1.5
210
0
220
0
230
-1
100
AcDbArc
50
0.25
51
61.026651
0
ARC
5
1B4
100
AcDbEntity
8
1
62
256
6
ByLayer
370
18
48
1
60
0
100
AcDbCircle
39
0
10
89.92919
20
122.766821
30
0
40
1.75
210
0
220
0
230
1
100
AcDbArc
50
111.070774
51
142.633054
0
ARC
5
1B5
100
AcDbEntity
8
1
62
256
6
ByLayer
370
18
48
1
60
0
100
AcDbCircle
39
0
10
-101.206
20
136.206
30
0
40
0.793999999999997
210
0
220
0
230
-1
100
AcDbArc
50
80
51
180
0
ARC
5
1B6
100
AcDbEntity
8
1
62
256
6
ByLayer
370
18
48
1
60
0
100
AcDbCircle
39
0
10
-101.206
20
124.922579
30
0
40
0.793999999999977
210
0
220
0
230
-1
100
AcDbArc
50
180
51
260
0
ARC
5
1B7
100
AcDbEntity
8
1
62
256
6
ByLayer
370
18
48
1
60
0
100
AcDbCircle
39
0
10
-90.094
20
134.246655
30
0
40
0.793999999999996
210
0
220
0
230
-1
100
AcDbArc
50
360
51
80
0
ARC
5
1B8
100
AcDbEntity
8
1
62
256
6
ByLayer
370
18
48
1
60
0
100
AcDbCircle
39
0
10
-90.094
20
122.963234
30
0
40
0.793999999999996
210
0
220
0
230
-1
100
AcDbArc
50
260
51
360
0
ARC
5
1BC
100
AcDbEntity
8
1
62
256
6
ByLayer
370
18
48
1
60
0
100
AcDbCircle
39
0
10
-100.25
20
-135.066684
30
0
40
0.500000000084271
210
0
220
0
230
-1
100
AcDbArc
50
248.018772
51
280
0
ARC
5
1BD
100
AcDbEntity
8
1
62
256
6
ByLayer
370
18
48
1
60
0
100
AcDbCircle
39
0
10
-100.25
20
-135.066684
30
0
40
0.499999999998838
210
0
220
0
230
-1
100
AcDbArc
50
180
51
248.018772
0
ARC
5
1BE
100
AcDbEntity
8
1
62
256
6
ByLayer
370
18
48
1
60
0
100
AcDbCircle
39
0
10
-103.3
20
-112.029839
30
0
40
5.00000000066672
210
0
220
0
230
-1
100
AcDbArc
50
303.57697
51
318.55089
0
CIRCLE
5
18C
100
AcDbEntity
8
1
62
256
6
ByLayer
370
18
48
1
60
0
100
AcDbCircle
10
62.9
20
-116.690649
30
0
40
0.5
39
0
210
0
220
0
230
1
0
CIRCLE
5
197
100
AcDbEntity
8
1
62
256
6
ByLayer
370
18
48
1
60
0
100
AcDbCircle
10
62.9
20
-113.809351
30
0
40
0.5
39
0
210
0
220
0
230
1
0
CIRCLE
5
199
100
AcDbEntity
8
1
62
256
6
ByLayer
370
18
48
1
60
0
100
AcDbCircle
10
95.65
20
129.584617
30
0
40
3.93651081363659
39
0
210
0
220
0
230
1
0
CIRCLE
5
1A6
100
AcDbEntity
8
1
62
256
6
ByLayer
370
18
48
1
60
0
100
AcDbCircle
10
-95.65
20
129.584617
30
0
40
2.4
39
0
210
0
220
0
230
-1
0
CIRCLE
5
1B9
100
AcDbEntity
8
1
62
256
6
ByLayer
370
18
48
1
60
0
100
AcDbCircle
10
-95.65
20
129.584617
30
0
40
4.07132534818238
39
0
210
0
220
0
230
-1
0
CIRCLE
5
1BA
100
AcDbEntity
8
1
62
256
6
ByLayer
370
18
48
1
60
0
100
AcDbCircle
10
-95.65
20
129.584617
30
0
40
4.00697067753274
39
0
210
0
220
0
230
-1
0
CIRCLE
5
1BB
100
AcDbEntity
8
1
62
256
6
ByLayer
370
18
48
1
60
0
100
AcDbCircle
10
-95.65
20
129.584617
30
0
40
3.425
39
0
210
0
220
0
230
-1
0
CIRCLE
5
1BF
100
AcDbEntity
8
1
62
256
6
ByLayer
370
18
48
1
60
0
100
AcDbCircle
10
-66.5
20
-115.25
30
0
40
4.50000000000001
39
0
210
0
220
0
230
-1
0
ELLIPSE
5
1C0
100
AcDbEntity
8
1
62
256
6
ByLayer
370
18
48
1
60
0
100
AcDbEllipse
10
37.921469
20
-110.710875
30
0
11
3.99856820354634
21
0.107015520314663
31
0
210
0
220
0
230
1
40
0.206552
41
-2.61607955917918
42
-0.616480378861891
0
ELLIPSE
5
1C1
100
AcDbEntity
8
1
62
256
6
ByLayer
370
18
48
1
60
0
100
AcDbEllipse
10
57
20
124.984661
30
0
11
-3
21
3.67381906146713E-16
31
0
210
0
220
0
230
1
40
0.707107
41
-1.83259571459406
42
-0.696689077087896
0
ELLIPSE
5
1C2
100
AcDbEntity
8
1
62
256
6
ByLayer
370
18
48
1
60
0
100
AcDbEllipse
10
37.901391
20
-109.960684
30
0
11
3.23184275051633
21
0.0864952942943266
31
0
210
0
220
0
230
1
40
0.206552
41
-2.1503629919771
42
-1.05642606882753
0
ELLIPSE
5
1C3
100
AcDbEntity
8
1
62
256
6
ByLayer
370
18
48
1
60
0
100
AcDbEllipse
10
57
20
124.984661
30
0
11
-3.25
21
3.97997064992273E-16
31
0
210
0
220
0
230
1
40
0.707107
41
-1.57079644574725
42
-0.692230371360532
0
ELLIPSE
5
1C4
100
AcDbEntity
8
1
62
256
6
ByLayer
370
18
48
1
60
0
100
AcDbEllipse
10
57
20
124.984661
30
0
11
-3.25
21
3.97997064992273E-16
31
0
210
0
220
0
230
1
40
0.707107
41
-2.45633288050028
42
-1.57079644574725
0
ELLIPSE
5
1C5
100
AcDbEntity
8
1
62
256
6
ByLayer
370
18
48
1
60
0
100
AcDbEllipse
10
86.441756
20
-85.392007
30
0
11
7.92882938448631
21
0.241289953596121
31
0
210
0
220
0
230
1
40
0.819027
41
1.10556425807012E-05
42
0.0205295654851993
0
ELLIPSE
5
1C6
100
AcDbEntity
8
1
62
256
6
ByLayer
370
18
48
1
60
0
100
AcDbEllipse
10
86.441756
20
-85.392007
30
0
11
7.92882938448631
21
0.241289953596121
31
0
210
0
220
0
230
1
40
0.819027
41
-3.14158158469323
42
0
0
ELLIPSE
5
1C7
100
AcDbEntity
8
1
62
256
6
ByLayer
370
18
48
1
60
0
100
AcDbEllipse
10
86.441756
20
-85.392007
30
0
11
7.92882938448631
21
0.241289953596121
31
0
210
0
220
0
230
1
40
0.819027
41
3.13208083932124
42
-3.14158158469323
0
ELLIPSE
5
1C8
100
AcDbEntity
8
1
62
256
6
ByLayer
370
18
48
1
60
0
100
AcDbEllipse
10
57
20
124.984661
30
0
11
-2.5
21
3.06151588455594E-16
31
0
210
0
220
0
230
1
40
0.707107
41
-2.40272936506741
42
-0.785496338045085
0
ELLIPSE
5
1C9
100
AcDbEntity
8
1
62
256
6
ByLayer
370
18
48
1
60
0
100
AcDbEllipse
10
37.921469
20
-110.710875
30
0
11
4.49838922898963
21
0.120392460353996
31
0
210
0
220
0
230
1
40
0.206552
41
-2.51195996062054
42
-0.701224408055274
0
ELLIPSE
5
1CA
100
AcDbEntity
8
1
62
256
6
ByLayer
370
18
48
1
60
0
100
AcDbEllipse
10
86.61279
20
-91.0122
30
0
11
-9.99537268766002
21
-0.304178951901817
31
0
210
0
220
0
230
1
40
0.819027
41
0
42
0.69281450556682
0
ELLIPSE
5
1CB
100
AcDbEntity
8
1
62
256
6
ByLayer
370
18
48
1
60
0
100
AcDbEllipse
10
86.61279
20
-91.0122
30
0
11
-9.99537268766002
21
-0.304178951901817
31
0
210
0
220
0
230
1
40
0.819027
41
2.10751294460758
42
3.14158777858092
0
ELLIPSE
5
1CC
100
AcDbEntity
8
1
62
256
6
ByLayer
370
18
48
1
60
0
100
AcDbEllipse
10
86.598828
20
-90.553409
30
0
11
-7.92882938448631
21
-0.241289953596112
31
0
210
0
220
0
230
1
40
0.819027
41
1.59132593742975
42
3.14150552231886
0
ELLIPSE
5
1CD
100
AcDbEntity
8
1
62
256
6
ByLayer
370
18
48
1
60
0
100
AcDbEllipse
10
86.598828
20
-90.553409
30
0
11
-7.92882938448631
21
-0.241289953596112
31
0
210
0
220
0
230
1
40
0.819027
41
0
42
1.59132595914203
0
ELLIPSE
5
1CE
100
AcDbEntity
8
1
62
256
6
ByLayer
370
18
48
1
60
0
100
AcDbEllipse
10
86.423297
20
-91.030131
30
0
11
-10.994909956426
21
-0.334596847091998
31
0
210
0
220
0
230
1
40
0.819027
41
-0.791566202491798
42
-0.0272756628418308
0
ELLIPSE
5
1CF
100
AcDbEntity
8
1
62
256
6
ByLayer
370
18
48
1
60
0
100
AcDbEllipse
10
66
20
-91.166642
30
0
11
-2
21
2.44921270764475E-16
31
0
210
0
220
0
230
1
40
0.5
41
0
42
1.5707963267949
0
ELLIPSE
5
1D0
100
AcDbEntity
8
1
62
256
6
ByLayer
370
18
48
1
60
0
100
AcDbEllipse
10
37.921469
20
-110.710875
30
0
11
3.23184275051633
21
0.0864952942943266
31
0
210
0
220
0
230
1
40
0.206552
41
-2.92903879125865
42
-0.43844325772514
0
ELLIPSE
5
1D1
100
AcDbEntity
8
1
62
256
6
ByLayer
370
18
48
1
60
0
100
AcDbEllipse
10
57
20
124.984661
30
0
11
-2.59405
21
3.17669011213294E-16
31
0
210
0
220
0
230
1
40
0.707107
41
-1.57079641945631
42
-0.731794722734389
0
ELLIPSE
5
1D2
100
AcDbEntity
8
1
62
256
6
ByLayer
370
18
48
1
60
0
100
AcDbEllipse
10
57
20
124.984661
30
0
11
-2.59405
21
3.17669011213294E-16
31
0
210
0
220
0
230
1
40
0.707107
41
-2.41077969046399
42
-1.57079641945631
0
ELLIPSE
5
1D3
100
AcDbEntity
8
1
62
256
6
ByLayer
370
18
48
1
60
0
100
AcDbEllipse
10
86.424304
20
-84.818518
30
0
11
-6.92929211572031
21
-0.210872058405931
31
0
210
0
220
0
230
1
40
0.819027
41
0
42
6.28318530717959
0
ELLIPSE
5
1D4
100
AcDbEntity
8
1
62
256
6
ByLayer
370
18
48
1
60
0
100
AcDbEllipse
10
86.424304
20
-84.818518
30
0
11
4.67437320061563
21
0.142250417807492
31
0
210
0
220
0
230
1
40
0.819027
41
1.59132593833132
42
2.63852348952792
0
ELLIPSE
5
1D5
100
AcDbEntity
8
1
62
256
6
ByLayer
370
18
48
1
60
0
100
AcDbEllipse
10
86.424304
20
-84.818518
30
0
11
4.67437320061563
21
0.142250417807492
31
0
210
0
220
0
230
1
40
0.819027
41
2.63852348952792
42
-2.59746426645506
0
ELLIPSE
5
1D6
100
AcDbEntity
8
1
62
256
6
ByLayer
370
18
48
1
60
0
100
AcDbEllipse
10
86.424304
20
-84.818518
30
0
11
4.67437320061563
21
0.142250417807492
31
0
210
0
220
0
230
1
40
0.819027
41
-2.59746426645506
42
-1.55026671525847
0
ELLIPSE
5
1D7
100
AcDbEntity
8
1
62
256
6
ByLayer
370
18
48
1
60
0
100
AcDbEllipse
10
86.424304
20
-84.818518
30
0
11
4.67437320061563
21
0.142250417807492
31
0
210
0
220
0
230
1
40
0.819027
41
-1.55026671525847
42
-0.503069164061876
0
ELLIPSE
5
1D8
100
AcDbEntity
8
1
62
256
6
ByLayer
370
18
48
1
60
0
100
AcDbEllipse
10
86.424304
20
-84.818518
30
0
11
4.67437320061563
21
0.142250417807492
31
0
210
0
220
0
230
1
40
0.819027
41
-0.503069164061876
42
0.544128387134706
0
ELLIPSE
5
1D9
100
AcDbEntity
8
1
62
256
6
ByLayer
370
18
48
1
60
0
100
AcDbEllipse
10
86.424304
20
-84.818518
30
0
11
4.67437320061563
21
0.142250417807492
31
0
210
0
220
0
230
1
40
0.819027
41
0.54412838713471
42
1.59132593833131
0
ELLIPSE
5
1DA
100
AcDbEntity
8
1
62
256
6
ByLayer
370
18
48
1
60
0
100
AcDbEllipse
10
37.921469
20
-110.710875
30
0
11
3.49129984482394
21
0.0934392638687443
31
0
210
0
220
0
230
1
40
0.206552
41
-2.71200995658828
42
-0.500721612661109
0
ELLIPSE
5
1DB
100
AcDbEntity
8
1
62
256
6
ByLayer
370
18
48
1
60
0
100
AcDbEllipse
10
86.598828
20
-90.553409
30
0
11
-9.99537268766002
21
-0.304178951901817
31
0
210
0
220
0
230
1
40
0.819027
41
-0.654732457980811
42
0
0
ELLIPSE
5
1DC
100
AcDbEntity
8
1
62
256
6
ByLayer
370
18
48
1
60
0
100
AcDbEllipse
10
86.598828
20
-90.553409
30
0
11
-9.99537268766002
21
-0.304178951901817
31
0
210
0
220
0
230
1
40
0.819027
41
0
42
0.839978475664595
0
ELLIPSE
5
1DD
100
AcDbEntity
8
1
62
256
6
ByLayer
370
18
48
1
60
0
100
AcDbEllipse
10
86.598828
20
-90.553409
30
0
11
-9.99537268766002
21
-0.304178951901817
31
0
210
0
220
0
230
1
40
0.819027
41
2.04949166897315
42
-2.48696811330188
0
ELLIPSE
5
1DE
100
AcDbEntity
8
1
62
256
6
ByLayer
370
18
48
1
60
0
100
AcDbEllipse
10
37.921469
20
-110.710875
30
0
11
-2.34176018610298
21
-0.0626736051533908
31
0
210
0
220
0
230
1
40
0.206552
41
-0.16303018917322
42
0.527236207983646
0
ELLIPSE
5
1DF
100
AcDbEntity
8
1
62
256
6
ByLayer
370
18
48
1
60
0
100
AcDbEllipse
10
37.921469
20
-110.710875
30
0
11
-2.34176018610298
21
-0.0626736051533908
31
0
210
0
220
0
230
1
40
0.206552
41
0.527236207983646
42
1.57443375918027
0
ELLIPSE
5
1E0
100
AcDbEntity
8
1
62
256
6
ByLayer
370
18
48
1
60
0
100
AcDbEllipse
10
37.921469
20
-110.710875
30
0
11
-2.34176018610298
21
-0.0626736051533908
31
0
210
0
220
0
230
1
40
0.206552
41
1.57443375918027
42
2.62163131037683
0
ELLIPSE
5
1E1
100
AcDbEntity
8
1
62
256
6
ByLayer
370
18
48
1
60
0
100
AcDbEllipse
10
37.921469
20
-110.710875
30
0
11
-2.34176018610298
21
-0.0626736051533908
31
0
210
0
220
0
230
1
40
0.206552
41
2.62163131037683
42
3.07259772032181
0
ELLIPSE
5
1E2
100
AcDbEntity
8
1
62
256
6
ByLayer
370
18
48
1
60
0
100
AcDbEllipse
10
66
20
65.887566
30
0
11
1.98215610848362
21
1.6746858393917
31
0
210
0
220
0
230
-1
40
0.159173
41
1.704476873377
42
-3.00791210700888
0
ELLIPSE
5
1E3
100
AcDbEntity
8
1
62
256
6
ByLayer
370
18
48
1
60
0
100
AcDbEllipse
10
66
20
61.019856
30
0
11
1.98329959752557
21
1.45837418086755
31
0
210
0
220
0
230
-1
40
0.176854
41
-3.01227252240291
42
-1.44147619561327
0
ELLIPSE
5
1E4
100
AcDbEntity
8
1
62
256
6
ByLayer
370
18
48
1
60
0
100
AcDbEllipse
10
74.715098
20
-131.884246
30
0
11
0.112314168404132
21
0.792076813463945
31
0
210
0
220
0
230
-1
40
1
41
-0.0535915599544998
42
0.0336748975027927
0
ELLIPSE
5
1E5
100
AcDbEntity
8
1
62
256
6
ByLayer
370
18
48
1
60
0
100
AcDbEllipse
10
40.850389
20
-0.005056
30
0
11
114.659472003659
21
8.81035230419012
31
0
210
0
220
0
230
-1
40
0.999978
41
1.56783545015396
42
1.57306848137301
0
ELLIPSE
5
1E6
100
AcDbEntity
8
1
62
256
6
ByLayer
370
18
48
1
60
0
100
AcDbEllipse
10
40.850913
20
0.011831
30
0
11
114.653081591842
21
-8.84908105544213
31
0
210
0
220
0
230
-1
40
0.999948
41
-1.57340862285995
42
-1.56817543701528
0
ELLIPSE
5
1E7
100
AcDbEntity
8
1
62
256
6
ByLayer
370
18
48
1
60
0
100
AcDbEllipse
10
98.00652
20
-98.781451
30
0
11
32.5674689459461
21
4.37287033870708
31
0
210
0
220
0
230
-1
40
0.472583
41
2.61556774291563
42
-2.86476610834742
0
ELLIPSE
5
1E8
100
AcDbEntity
8
1
62
256
6
ByLayer
370
18
48
1
60
0
100
AcDbEllipse
10
86.4108
20
-90.61946
30
0
11
11.0015659841832
21
-0.0597179284273192
31
0
210
0
220
0
230
-1
40
0.869193
41
2.97283939336793
42
-2.34568064670808
0
ELLIPSE
5
1E9
100
AcDbEntity
8
1
62
256
6
ByLayer
370
18
48
1
60
0
100
AcDbEllipse
10
98.178443
20
-101.935947
30
0
11
-1.83690953073763E-16
21
3.00000000000663
31
0
210
0
220
0
230
-1
40
0.087489
41
-2.53072741538901
42
-0.959931088598544
0
ELLIPSE
5
1EA
100
AcDbEntity
8
1
62
256
6
ByLayer
370
18
48
1
60
0
100
AcDbEllipse
10
66
20
-61.019856
30
0
11
1.98329959752746
21
-1.45837418086859
31
0
210
0
220
0
230
-1
40
0.176854
41
1.44147619561428
42
3.01227252240289
0
ELLIPSE
5
1EB
100
AcDbEntity
8
1
62
256
6
ByLayer
370
18
48
1
60
0
100
AcDbEllipse
10
82.830642
20
99.333541
30
0
11
3.10000000002811
21
3.13298107078373E-15
31
0
210
0
220
0
230
-1
40
0.998547
41
1.5707963267949
42
2.09439510238838
0
ELLIPSE
5
1EC
100
AcDbEntity
8
1
62
256
6
ByLayer
370
18
48
1
60
0
100
AcDbEllipse
10
74.715098
20
131.884246
30
0
11
0.792861560690587
21
0.106631597631846
31
0
210
0
220
0
230
-1
40
1
41
1.52995077805078
42
1.60485616384199
0
POINT
5
6C
100
AcDbEntity
8
80
62
256
6
ByLayer
370
13
48
1
60
0
100
AcDbPoint
10
0
20
0
30
0
39
0
210
0
220
0
230
1
50
360
0
POINT
5
6E
100
AcDbEntity
8
81
62
256
6
ByLayer
370
13
48
1
60
0
100
AcDbPoint
10
102
20
136.99997
30
0
39
0
210
0
220
0
230
1
50
360
0
POINT
5
70
100
AcDbEntity
8
81
62
256
6
ByLayer
370
18
48
1
60
0
100
AcDbPoint
10
102.000001
20
-137.000068
30
0
39
0
210
0
220
0
230
1
50
360
0
SPLINE
5
1ED
100
AcDbEntity
8
1
62
256
6
ByLayer
370
18
48
1
60
0
100
AcDbSpline
70
4
71
3
72
52
73
48
40
0
40
0
40
0
40
0
40
0.091609217610203
40
0.091609217610203
40
0.259551851294423
40
0.259551851294423
40
0.436156104537735
40
0.436156104537735
40
0.612760584137559
40
0.612760584137559
40
0.806107229992633
40
0.806107229992633
40
0.870147823771885
40
0.870147823771885
40
0.913000788734875
40
0.913000788734875
40
0.941679354323431
40
0.941679354323431
40
0.960875334778221
40
0.960875334778221
40
0.973727531952861
40
0.973727531952861
40
0.982335793319484
40
0.982335793319484
40
0.988104914935457
40
0.988104914935457
40
0.991974712344498
40
0.991974712344498
40
0.994573939310323
40
0.994573939310323
40
0.996323262639247
40
0.996323262639247
40
0.997504158217515
40
0.997504158217515
40
0.998305012591431
40
0.998305012591431
40
0.99885198240324
40
0.99885198240324
40
0.999229670278981
40
0.999229670278981
40
0.999625732977545
40
0.999625732977545
40
0.999784150391043
40
0.999784150391043
40
0.999917561376472
40
0.999917561376472
40
1
40
1
40
1
40
1
41
1
10
89.8844545098298
20
-134.365398573376
30
0
41
1
10
89.8665935044476
20
-134.36358415764
30
0
41
1
10
89.8487325606635
20
-134.36172828638
30
0
41
1
10
89.7981282572203
20
-134.356334435616
30
0
41
1
10
89.7653850625408
20
-134.352685220091
30
0
41
1
10
89.6982107454251
20
-134.344753907739
30
0
41
1
10
89.6637796252999
20
-134.340452230562
30
0
41
1
10
89.5949188198877
20
-134.331133644338
30
0
41
1
10
89.5604890242566
20
-134.326127836625
30
0
41
1
10
89.4883688129033
20
-134.314347690698
30
0
41
1
10
89.4506777575601
20
-134.307572133178
30
0
41
1
10
89.4005112831097
20
-134.295981864246
30
0
41
1
10
89.3880299503545
20
-134.29287342717
30
0
41
1
10
89.3671996573942
20
-134.286987928385
30
0
41
1
10
89.3588495969569
20
-134.28444462816
30
0
41
1
10
89.3449143766215
20
-134.279628824601
30
0
41
1
10
89.3393281155607
20
-134.277547572977
30
0
41
1
10
89.3300056642505
20
-134.273606264214
30
0
41
1
10
89.3262683714468
20
-134.271902700787
30
0
41
1
10
89.3200318427924
20
-134.268676131415
30
0
41
1
10
89.3175315023056
20
-134.267281203914
30
0
41
1
10
89.3133594475999
20
-134.264638587411
30
0
41
1
10
89.3116866256302
20
-134.263495752183
30
0
41
1
10
89.308895705886
20
-134.26132996833
30
0
41
1
10
89.307776495698
20
-134.260392897349
30
0
41
1
10
89.3059095677446
20
-134.25861614778
30
0
41
1
10
89.3051607305813
20
-134.257846848795
30
0
41
1
10
89.3039119785192
20
-134.256387093649
30
0
41
1
10
89.3034109337521
20
-134.255754366517
30
0
41
1
10
89.3025757842914
20
-134.254552396137
30
0
41
1
10
89.3022405340155
20
-134.25403056137
30
0
41
1
10
89.3016821533466
20
-134.253037581508
30
0
41
1
10
89.30145785376
20
-134.252605426892
30
0
41
1
10
89.3010847396089
20
-134.251781054823
30
0
41
1
10
89.300934720357
20
-134.251420952737
30
0
41
1
10
89.3006857208151
20
-134.250731535931
30
0
41
1
10
89.3005854825998
20
-134.250428687201
30
0
41
1
10
89.3004197914601
20
-134.249845868641
30
0
41
1
10
89.3003530016644
20
-134.249587628689
30
0
41
1
10
89.3002214769287
20
-134.24898644547
30
0
41
1
10
89.3001556045581
20
-134.248640161828
30
0
41
1
10
89.3000773093586
20
-134.248031398766
30
0
41
1
10
89.3000563792643
20
-134.24783990181
30
0
41
1
10
89.3000249578866
20
-134.247450624024
30
0
41
1
10
89.3000131629804
20
-134.247254516109
30
0
41
1
10
89.3000022556415
20
-134.246920695652
30
0
41
1
10
89.2999999999324
20
-134.246787144947
30
0
41
1
10
89.2999999999324
20
-134.246654590366
30
0
0
SPLINE
5
1EE
100
AcDbEntity
8
1
62
256
6
ByLayer
370
18
48
1
60
0
100
AcDbSpline
70
4
71
3
72
28
73
24
40
0
40
0
40
0
40
0
40
0.0001101648539502
40
0.0001101648539502
40
0.0002558174363213
40
0.0002558174363213
40
0.0005258786971669
40
0.0005258786971669
40
0.0016904060252926
40
0.0016904060252926
40
0.0062895228039594
40
0.0062895228039594
40
0.0246019482563799
40
0.0246019482563799
40
0.0977704783279854
40
0.0977704783279854
40
0.390366229946222
40
0.390366229946222
40
0.53664842838469
40
0.53664842838469
40
0.682930464812763
40
0.682930464812763
40
1
40
1
40
1
40
1
41
1
10
89.9561233468644
20
-135.028591946259
30
0
41
1
10
89.9559469868556
20
-135.028560849231
30
0
41
1
10
89.9557693021312
20
-135.028525251479
30
0
41
1
10
89.955387106835
20
-135.028440451388
30
0
41
1
10
89.9551854133976
20
-135.028389330428
30
0
41
1
10
89.9546706549469
20
-135.02824730494
30
0
41
1
10
89.9543927580433
20
-135.028156204253
30
0
41
1
10
89.9531056474823
20
-135.027698381621
30
0
41
1
10
89.9525064099944
20
-135.027369482094
30
0
41
1
10
89.9497950560227
20
-135.025809841008
30
0
41
1
10
89.9487769191402
20
-135.024723564438
30
0
41
1
10
89.9437747632415
20
-135.019363765936
30
0
41
1
10
89.9420994342577
20
-135.015446350459
30
0
41
1
10
89.9337226111548
20
-134.995914901705
30
0
41
1
10
89.9316288327091
20
-134.981063164098
30
0
41
1
10
89.9211366916672
20
-134.906854528328
30
0
41
1
10
89.9219081825184
20
-134.849064913975
30
0
41
1
10
89.9230578993862
20
-134.762393124468
30
0
41
1
10
89.9238579355297
20
-134.733576637112
30
0
41
1
10
89.9259705959872
20
-134.676033067962
30
0
41
1
10
89.9272883950817
20
-134.64730683426
30
0
41
1
10
89.9320371998761
20
-134.55641619596
30
0
41
1
10
89.9361226507463
20
-134.494365916495
30
0
41
1
10
89.9406728123468
20
-134.43239693737
30
0
0
SPLINE
5
1EF
100
AcDbEntity
8
1
62
256
6
ByLayer
370
18
48
1
60
0
100
AcDbSpline
70
4
71
3
72
52
73
48
40
0
40
0
40
0
40
0
40
0.0916092176101694
40
0.0916092176101694
40
0.259551851294368
40
0.259551851294368
40
0.436156104537686
40
0.436156104537686
40
0.612760584137515
40
0.612760584137515
40
0.806107229992425
40
0.806107229992425
40
0.870147823873634
40
0.870147823873634
40
0.913000788864741
40
0.913000788864741
40
0.941679354455213
40
0.941679354455213
40
0.960875334894217
40
0.960875334894217
40
0.973727532053361
40
0.973727532053361
40
0.982335793401683
40
0.982335793401683
40
0.988104914999625
40
0.988104914999625
40
0.991974712394222
40
0.991974712394222
40
0.994573939347892
40
0.994573939347892
40
0.996323262667216
40
0.996323262667216
40
0.997504158238591
40
0.997504158238591
40
0.998305012606943
40
0.998305012606943
40
0.998851982414693
40
0.998851982414693
40
0.999229670287435
40
0.999229670287435
40
0.999625732984122
40
0.999625732984122
40
0.999784150396107
40
0.999784150396107
40
0.999917561379806
40
0.999917561379806
40
1
40
1
40
1
40
1
41
1
10
101.286552802528
20
-136.43298169952
30
0
41
1
10
101.281664420808
20
-136.450256286111
30
0
41
1
10
101.276735224063
20
-136.467523613363
30
0
41
1
10
101.262635972937
20
-136.516422491374
30
0
41
1
10
101.253356401108
20
-136.548034563727
30
0
41
1
10
101.233880885459
20
-136.612811094089
30
0
41
1
10
101.22366565916
20
-136.645972149731
30
0
41
1
10
101.202531089827
20
-136.712168649263
30
0
41
1
10
101.191622660312
20
-136.745206129548
30
0
41
1
10
101.167497937998
20
-136.814185071965
30
0
41
1
10
101.154280333346
20
-136.85012695227
30
0
41
1
10
101.134154829765
20
-136.89751865619
30
0
41
1
10
101.128926256137
20
-136.90927059504
30
0
41
1
10
101.119513028877
20
-136.92876242293
30
0
41
1
10
101.115558394315
20
-136.936543987742
30
0
41
1
10
101.10839592801
20
-136.949431245261
30
0
41
1
10
101.105376251219
20
-136.954571232913
30
0
41
1
10
101.099875993109
20
-136.963067654152
30
0
41
1
10
101.097549336553
20
-136.966452348393
30
0
41
1
10
101.093288824184
20
-136.972033842266
30
0
41
1
10
101.091480909196
20
-136.97425397034
30
0
41
1
10
101.088153970279
20
-136.977903756614
30
0
41
1
10
101.0867380148
20
-136.979352713401
30
0
41
1
10
101.084120495945
20
-136.981725148377
30
0
41
1
10
101.083003312369
20
-136.982664634576
30
0
41
1
10
101.080929366984
20
-136.984194670368
30
0
41
1
10
101.080041721171
20
-136.984798543642
30
0
41
1
10
101.078387299468
20
-136.985774840529
30
0
41
1
10
101.077677179374
20
-136.986158401385
30
0
41
1
10
101.076348447445
20
-136.986772143078
30
0
41
1
10
101.075776324922
20
-136.987011684491
30
0
41
1
10
101.074701468872
20
-136.987389152957
30
0
41
1
10
101.074236930442
20
-136.987535002066
30
0
41
1
10
101.073360291847
20
-136.987759297065
30
0
41
1
10
101.072979609952
20
-136.987844506115
30
0
41
1
10
101.072257428621
20
-136.987970006821
30
0
41
1
10
101.071941774661
20
-136.988016133062
30
0
41
1
10
101.071339038463
20
-136.988078101599
30
0
41
1
10
101.07107312383
20
-136.98809903381
30
0
41
1
10
101.070458234904
20
-136.988124166018
30
0
41
1
10
101.070105773472
20
-136.988128906115
30
0
41
1
10
101.069492663069
20
-136.988100301237
30
0
41
1
10
101.06930044091
20
-136.988087660259
30
0
41
1
10
101.068911620865
20
-136.988051006897
30
0
41
1
10
101.068716444108
20
-136.988028568829
30
0
41
1
10
101.068385801101
20
-136.987981343148
30
0
41
1
10
101.068253887638
20
-136.987960373752
30
0
41
1
10
101.068123346864
20
-136.987937355891
30
0
0
SPLINE
5
1F0
100
AcDbEntity
8
1
62
256
6
ByLayer
370
18
48
1
60
0
100
AcDbSpline
70
4
71
3
72
52
73
48
40
0
40
0
40
0
40
0
40
0.0916092176102875
40
0.0916092176102875
40
0.259551851294558
40
0.259551851294558
40
0.436156104537915
40
0.436156104537915
40
0.612760584137782
40
0.612760584137782
40
0.806107229993245
40
0.806107229993245
40
0.870147823494706
40
0.870147823494706
40
0.913000788361348
40
0.913000788361348
40
0.941679353945148
40
0.941679353945148
40
0.960875334437293
40
0.960875334437293
40
0.973727531673154
40
0.973727531673154
40
0.982335793094518
40
0.982335793094518
40
0.988104914759604
40
0.988104914759604
40
0.991974712210058
40
0.991974712210058
40
0.994573939208949
40
0.994573939208949
40
0.996323262563425
40
0.996323262563425
40
0.997504158161682
40
0.997504158161682
40
0.998305012550467
40
0.998305012550467
40
0.998851982373029
40
0.998851982373029
40
0.99922967025666
40
0.99922967025666
40
0.999625732961045
40
0.999625732961045
40
0.999784150378118
40
0.999784150378118
40
0.999917561367989
40
0.999917561367989
40
1
40
1
40
1
40
1
41
1
10
101.415545490034
20
-124.803835505717
30
0
41
1
10
101.433406495416
20
-124.805649921453
30
0
41
1
10
101.4512674392
20
-124.807505792713
30
0
41
1
10
101.501871742644
20
-124.812899643477
30
0
41
1
10
101.534614937323
20
-124.816548859002
30
0
41
1
10
101.601789254439
20
-124.824480171354
30
0
41
1
10
101.636220374564
20
-124.828781848531
30
0
41
1
10
101.705081179976
20
-124.838100434755
30
0
41
1
10
101.739510975607
20
-124.843106242468
30
0
41
1
10
101.81163118696
20
-124.854886388395
30
0
41
1
10
101.849322242304
20
-124.861661945915
30
0
41
1
10
101.8994887167
20
-124.873252214835
30
0
41
1
10
101.911970049401
20
-124.876360651896
30
0
41
1
10
101.932800342288
20
-124.882246150654
30
0
41
1
10
101.941150402707
20
-124.88478945087
30
0
41
1
10
101.955085623023
20
-124.889605254412
30
0
41
1
10
101.960671884083
20
-124.891686506031
30
0
41
1
10
101.969994335399
20
-124.895627814783
30
0
41
1
10
101.97373162821
20
-124.897331378208
30
0
41
1
10
101.979968156884
20
-124.900557947575
30
0
41
1
10
101.982468497383
20
-124.901952875077
30
0
41
1
10
101.986640552111
20
-124.90459549158
30
0
41
1
10
101.988313374091
20
-124.905738326809
30
0
41
1
10
101.991104293856
20
-124.907904110663
30
0
41
1
10
101.992223504054
20
-124.908841181646
30
0
41
1
10
101.994090432025
20
-124.910617931218
30
0
41
1
10
101.994839269196
20
-124.911387230206
30
0
41
1
10
101.996088021273
20
-124.912846985355
30
0
41
1
10
101.996589066046
20
-124.91347971249
30
0
41
1
10
101.997424215519
20
-124.914681682874
30
0
41
1
10
101.997759465799
20
-124.915203517644
30
0
41
1
10
101.998317846477
20
-124.916196497511
30
0
41
1
10
101.998542146068
20
-124.916628652129
30
0
41
1
10
101.998915260226
20
-124.917453024203
30
0
41
1
10
101.999065279481
20
-124.917813126292
30
0
41
1
10
101.999314279028
20
-124.918502543102
30
0
41
1
10
101.999414517245
20
-124.918805391834
30
0
41
1
10
101.999580208388
20
-124.919388210397
30
0
41
1
10
101.999646998186
20
-124.919646450351
30
0
41
1
10
101.999778522924
20
-124.920247633572
30
0
41
1
10
101.999844395296
20
-124.920593917213
30
0
41
1
10
101.999922690498
20
-124.921202680275
30
0
41
1
10
101.999943620594
20
-124.921394177232
30
0
41
1
10
101.999975041973
20
-124.921783455022
30
0
41
1
10
101.999986836881
20
-124.921979562941
30
0
41
1
10
101.999997744221
20
-124.922313383416
30
0
41
1
10
101.999999999931
20
-124.922446934134
30
0
41
1
10
101.999999999931
20
-124.922579488728
30
0
0
SPLINE
5
1F1
100
AcDbEntity
8
1
62
256
6
ByLayer
370
18
48
1
60
0
100
AcDbSpline
70
4
71
3
72
28
73
24
40
0
40
0
40
0
40
0
40
0.0001101648539561
40
0.0001101648539561
40
0.0002558174363498
40
0.0002558174363498
40
0.0005258786972113
40
0.0005258786972113
40
0.0016904060252291
40
0.0016904060252291
40
0.0062895228034816
40
0.0062895228034816
40
0.0246019482542591
40
0.0246019482542591
40
0.0977704783192906
40
0.0977704783192906
40
0.390366229911232
40
0.390366229911232
40
0.536648428336552
40
0.536648428336552
40
0.682930464751477
40
0.682930464751477
40
1
40
1
40
1
40
1
41
1
10
101.343876652999
20
-124.140642132834
30
0
41
1
10
101.344053013009
20
-124.140673229862
30
0
41
1
10
101.344230697732
20
-124.140708827615
30
0
41
1
10
101.344612893029
20
-124.140793627707
30
0
41
1
10
101.344814586466
20
-124.140844748666
30
0
41
1
10
101.345329344917
20
-124.140986774154
30
0
41
1
10
101.34560724182
20
-124.141077874841
30
0
41
1
10
101.346894352381
20
-124.141535697473
30
0
41
1
10
101.347493589869
20
-124.141864597
30
0
41
1
10
101.350204943841
20
-124.143424238086
30
0
41
1
10
101.351223080723
20
-124.144510514657
30
0
41
1
10
101.356225236622
20
-124.149870313157
30
0
41
1
10
101.357900565605
20
-124.153787728634
30
0
41
1
10
101.366277388708
20
-124.173319177387
30
0
41
1
10
101.368371167154
20
-124.188170914992
30
0
41
1
10
101.378863308196
20
-124.262379550756
30
0
41
1
10
101.378091817345
20
-124.320169165103
30
0
41
1
10
101.376942100478
20
-124.406840954602
30
0
41
1
10
101.376142064335
20
-124.435657441956
30
0
41
1
10
101.374029403878
20
-124.493201011101
30
0
41
1
10
101.372711604784
20
-124.5219272448
30
0
41
1
10
101.367962799989
20
-124.61281788311
30
0
41
1
10
101.363877349118
20
-124.674868162586
30
0
41
1
10
101.359327187517
20
-124.736837141723
30
0
0
SPLINE
5
1F2
100
AcDbEntity
8
1
62
256
6
ByLayer
370
18
48
1
60
0
100
AcDbSpline
70
4
71
3
72
28
73
24
40
0
40
0
40
0
40
0
40
0.0001101648539457
40
0.0001101648539457
40
0.0002558174362854
40
0.0002558174362854
40
0.0005258786970488
40
0.0005258786970488
40
0.0016904060246102
40
0.0016904060246102
40
0.0062895228010755
40
0.0062895228010755
40
0.0246019482447029
40
0.0246019482447029
40
0.097770478281134
40
0.097770478281134
40
0.390366229758674
40
0.390366229758674
40
0.536648428126794
40
0.536648428126794
40
0.682930464484518
40
0.682930464484518
40
1
40
1
40
1
40
1
41
1
10
101.999999999932
20
-136.206
30
0
41
1
10
101.999999999932
20
-136.206179080646
30
0
41
1
10
101.999995797619
20
-136.206360247425
30
0
41
1
10
101.999978653348
20
-136.206751361697
30
0
41
1
10
101.999963332728
20
-136.20695886802
30
0
41
1
10
101.999912851794
20
-136.2074904686
30
0
41
1
10
101.999871391421
20
-136.207779963093
30
0
41
1
10
101.999644028547
20
-136.209127019618
30
0
41
1
10
101.999424182241
20
-136.209774266145
30
0
41
1
10
101.998359057284
20
-136.212715257389
30
0
41
1
10
101.997466081311
20
-136.213906556432
30
0
41
1
10
101.99305632545
20
-136.219763437583
30
0
41
1
10
101.989489342143
20
-136.222093566614
30
0
41
1
10
101.971709240058
20
-136.233734727432
30
0
41
1
10
101.957446714535
20
-136.238375673847
30
0
41
1
10
101.886187415894
20
-136.261594610054
30
0
41
1
10
101.829141787683
20
-136.270869901101
30
0
41
1
10
101.743587091211
20
-136.284788049315
30
0
41
1
10
101.715069466244
20
-136.289004098034
30
0
41
1
10
101.658033253598
20
-136.296915869553
30
0
41
1
10
101.629514602536
20
-136.300606348921
30
0
41
1
10
101.539180175912
20
-136.311712682858
30
0
41
1
10
101.477363148457
20
-136.318464217127
30
0
41
1
10
101.415545490034
20
-136.324743983009
30
0
0
SPLINE
5
1F3
100
AcDbEntity
8
1
62
256
6
ByLayer
370
18
48
1
60
0
100
AcDbSpline
70
2053
71
3
72
22
73
18
40
0
40
0
40
0
40
0
40
0.125
40
0.125
40
0.25
40
0.25
40
0.375
40
0.375
40
0.5
40
0.5
40
0.625
40
0.625
40
0.75
40
0.75
40
0.875
40
0.875
40
1
40
1
40
1
40
1
41
1
10
56.9999999999999
20
127.922328469458
30
0
41
1
10
56.073236899061
20
127.922328469458
30
0
41
1
10
55.2254934998448
20
127.880483197651
30
0
41
1
10
54.1028662625909
20
127.663594306702
30
0
41
1
10
53.7825771621529
20
127.481746560191
30
0
41
1
10
53.7220916847871
20
126.980693343335
30
0
41
1
10
53.9997773267768
20
126.654412084144
30
0
41
1
10
55.1698602251503
20
126.102496321835
30
0
41
1
10
56.0711655776618
20
125.898250402389
30
0
41
1
10
57.906962515161
20
125.895342867504
30
0
41
1
10
58.8076462390393
20
126.095090943558
30
0
41
1
10
59.9944930728242
20
126.648580448864
30
0
41
1
10
60.2765970292426
20
126.977265200437
30
0
41
1
10
60.2192368580588
20
127.48088895337
30
0
41
1
10
59.9006941627175
20
127.662516735594
30
0
41
1
10
58.7766162525737
20
127.880463344756
30
0
41
1
10
57.9267631009389
20
127.922328469458
30
0
41
1
10
56.9999999999999
20
127.922328469458
30
0
0
SPLINE
5
1F4
100
AcDbEntity
8
1
62
256
6
ByLayer
370
18
48
1
60
0
100
AcDbSpline
70
4
71
3
72
14
73
10
40
0
40
0
40
0
40
0
40
0.25
40
0.25
40
0.5
40
0.5
40
0.75
40
0.75
40
1
40
1
40
1
40
1
41
1
10
13.0203628104655
20
28.9283966218819
30
0
41
1
10
12.5123175795389
20
24.0118813245024
30
0
41
1
10
11.3499294005667
20
19.2192580895156
30
0
41
1
10
9.03878753708909
20
9.63155653600288
30
0
41
1
10
7.89525601825778
20
4.804646719245
30
0
41
1
10
7.93704081677225
20
-5.0958209574525
30
0
41
1
10
9.08833789697673
20
-9.83967238199094
30
0
41
1
10
11.3772330927597
20
-19.3298763047398
30
0
41
1
10
12.5205927423956
20
-24.0919627076091
30
0
41
1
10
13.0203628104655
20
-28.9283966218819
30
0
0
SPLINE
5
1F5
100
AcDbEntity
8
1
62
256
6
ByLayer
370
18
48
1
60
0
100
AcDbSpline
70
4
71
3
72
21
73
17
40
0
40
0
40
0
40
0
40
0.125
40
0.125
40
0.250000000000001
40
0.250000000000001
40
0.375000000000001
40
0.375000000000001
40
0.500000000000001
40
0.500000000000001
40
0.625
40
0.625
40
0.75
40
0.875
40
0.875
40
1
40
1
40
1
40
1
41
1
10
21.1348068951054
20
82.6890774695201
30
0
41
1
10
20.7336534226842
20
80.4596371791461
30
0
41
1
10
20.3369474639397
20
78.2294500307005
30
0
41
1
10
19.5541804240626
20
73.7672881703876
30
0
41
1
10
19.1681160900073
20
71.5353140047741
30
0
41
1
10
18.4087995950333
20
67.0692141624741
30
0
41
1
10
18.0355435319665
20
64.8350891410642
30
0
41
1
10
17.3045409333346
20
60.3642346282764
30
0
41
1
10
16.9467900000283
20
58.1275058753985
30
0
41
1
10
16.2501504384766
20
53.6508808774644
30
0
41
1
10
15.9112574352213
20
51.4109853670908
30
0
41
1
10
15.2564760789585
20
46.9273312421528
30
0
41
1
10
14.6246927602583
20
42.4398151234729
30
0
41
1
10
14.0490206492414
20
37.9428764124382
30
0
41
1
10
13.507415488056
20
33.44021693733
30
0
41
1
10
13.253653580597
20
31.1860256089633
30
0
41
1
10
13.0203628104655
20
28.9283966218819
30
0
0
SPLINE
5
1F6
100
AcDbEntity
8
1
62
256
6
ByLayer
370
18
48
1
60
0
100
AcDbSpline
70
4
71
3
72
21
73
17
40
0
40
0
40
0
40
0
40
0.125
40
0.125
40
0.25
40
0.375
40
0.375
40
0.5
40
0.5
40
0.625
40
0.625
40
0.75
40
0.75
40
0.875
40
0.875
40
1
40
1
40
1
40
1
41
1
10
13.0203628104655
20
-28.9283966218819
30
0
41
1
10
13.2536897766631
20
-31.1863758898075
30
0
41
1
10
13.5074869915364
20
-33.4408480250612
30
0
41
1
10
14.0491547452102
20
-37.9439545712949
30
0
41
1
10
14.6248817640361
20
-42.4412258019207
30
0
41
1
10
15.2566977470223
20
-46.9288874063102
30
0
41
1
10
15.9115003953262
20
-51.4126107446713
30
0
41
1
10
16.2503982391058
20
-53.6525027348197
30
0
41
1
10
16.9470362063793
20
-58.1290584995807
30
0
41
1
10
17.3047807204654
20
-60.3657215219606
30
0
41
1
10
18.0357601480114
20
-64.8363936231067
30
0
41
1
10
18.4089994680029
20
-67.0704019469094
30
0
41
1
10
19.1682732890179
20
-71.5362264180468
30
0
41
1
10
19.5543116967099
20
-73.7680418960587
30
0
41
1
10
20.3370188526085
20
-78.2298515740354
30
0
41
1
10
20.7336908557746
20
-80.4598452163335
30
0
41
1
10
21.1348068951056
20
-82.6890774695213
30
0
0
SPLINE
5
1F7
100
AcDbEntity
8
1
62
256
6
ByLayer
370
18
48
1
60
0
100
AcDbSpline
70
4
71
3
72
22
73
18
40
0
40
0
40
0
40
0
40
0.124999999999993
40
0.124999999999993
40
0.249999999999987
40
0.37499999999998
40
0.499999999999974
40
0.499999999999974
40
0.562499999999973
40
0.562499999999973
40
0.593749999999975
40
0.593749999999975
40
0.624999999999976
40
0.624999999999976
40
0.749999999999984
40
0.874999999999992
40
1
40
1
40
1
40
1
41
1
10
22.4590865630082
20
-91.4089715484545
30
0
41
1
10
22.4195008541603
20
-91.0825701553332
30
0
41
1
10
22.3778983876691
20
-90.7506897756813
30
0
41
1
10
22.2907178617101
20
-90.0763365532071
30
0
41
1
10
22.1995613757388
20
-89.3913896784467
30
0
41
1
10
22.0508682968319
20
-88.3327528103018
30
0
41
1
10
21.943617696827
20
-87.6062378564238
30
0
41
1
10
21.8600274625164
20
-87.0534678087435
30
0
41
1
10
21.8316381334234
20
-86.867895893085
30
0
41
1
10
21.7882468042041
20
-86.5875408350736
30
0
41
1
10
21.77363735916
20
-86.4936855755282
30
0
41
1
10
21.7442000850747
20
-86.3056506894667
30
0
41
1
10
21.7293839117097
20
-86.2115446030734
30
0
41
1
10
21.6548152011662
20
-85.7405745248517
30
0
41
1
10
21.5323867276003
20
-84.984212266448
30
0
41
1
10
21.3392867948776
20
-83.8414255363593
30
0
41
1
10
21.2040877036959
20
-83.0741107214801
30
0
41
1
10
21.1348068951053
20
-82.6890774695196
30
0
0
SPLINE
5
1F8
100
AcDbEntity
8
1
62
256
6
ByLayer
370
18
48
1
60
0
100
AcDbSpline
70
4
71
3
72
14
73
10
40
0
40
0
40
0
40
0
40
0.25
40
0.25
40
0.5
40
0.5
40
0.75
40
0.75
40
1
40
1
40
1
40
1
41
1
10
22.9397099596141
20
-94.9457885594237
30
0
41
1
10
22.9059185142784
20
-94.6895707662847
30
0
41
1
10
22.8692068235186
20
-94.423580817402
30
0
41
1
10
22.7918958518454
20
-93.872485498204
30
0
41
1
10
22.7512951524499
20
-93.587379274241
30
0
41
1
10
22.6682857658309
20
-92.9980966936376
30
0
41
1
10
22.6258746977303
20
-92.6939206236144
30
0
41
1
10
22.5415081935396
20
-92.0661724585807
30
0
41
1
10
22.4995489911655
20
-91.7426018737413
30
0
41
1
10
22.4590865630083
20
-91.4089715484545
30
0
0
SPLINE
5
1F9
100
AcDbEntity
8
1
62
256
6
ByLayer
370
18
48
1
60
0
100
AcDbSpline
70
4
71
3
72
24
73
20
40
0
40
0
40
0
40
0
40
0.125000000000003
40
0.125000000000003
40
0.250000000000005
40
0.375000000000008
40
0.375000000000008
40
0.50000000000001
40
0.50000000000001
40
0.56250000000001
40
0.56250000000001
40
0.59375000000001
40
0.59375000000001
40
0.625000000000011
40
0.625000000000011
40
0.750000000000007
40
0.875000000000004
40
0.875000000000004
40
1
40
1
40
1
40
1
41
1
10
21.1348068951054
20
82.68907746952
30
0
41
1
10
21.2040804664709
20
83.0740705000626
30
0
41
1
10
21.2715489186097
20
83.4569968482808
30
0
41
1
10
21.403045534242
20
84.2188018697897
30
0
41
1
10
21.5311014982333
20
84.976558893583
30
0
41
1
10
21.6525055096959
20
85.7262636601916
30
0
41
1
10
21.7706481748004
20
86.4719027078334
30
0
41
1
10
21.8280888630372
20
86.8426895344058
30
0
41
1
10
21.9118154989599
20
87.3957431238464
30
0
41
1
10
21.9393182588531
20
87.5795726998038
30
0
41
1
10
21.9799610609824
20
87.8545200231559
30
0
41
1
10
21.9934167235678
20
87.9461047099834
30
0
41
1
10
22.0200747134213
20
88.1286705619363
30
0
41
1
10
22.0332665265205
20
88.219578741548
30
0
41
1
10
22.0985463634191
20
88.6722545156917
30
0
41
1
10
22.1986528746663
20
89.3846136066001
30
0
41
1
10
22.2903248320915
20
90.0733320342463
30
0
41
1
10
22.3778328157207
20
90.7501471353574
30
0
41
1
10
22.4195048960107
20
91.0826034821472
30
0
41
1
10
22.4590865630083
20
91.4089715484545
30
0
0
SPLINE
5
1FA
100
AcDbEntity
8
1
62
256
6
ByLayer
370
18
48
1
60
0
100
AcDbSpline
70
4
71
3
72
14
73
10
40
0
40
0
40
0
40
0
40
0.25
40
0.25
40
0.5
40
0.5
40
0.75
40
0.75
40
1
40
1
40
1
40
1
41
1
10
22.4590865630082
20
91.4089715484545
30
0
41
1
10
22.4995489911654
20
91.7426018737413
30
0
41
1
10
22.5415081935396
20
92.0661724585807
30
0
41
1
10
22.6258746977302
20
92.6939206236143
30
0
41
1
10
22.6682857658309
20
92.9980966936375
30
0
41
1
10
22.7512951524499
20
93.5873792742409
30
0
41
1
10
22.7918958518453
20
93.8724854982039
30
0
41
1
10
22.8692068235185
20
94.4235808174019
30
0
41
1
10
22.9059185142786
20
94.6895707662847
30
0
41
1
10
22.9397099596141
20
94.9457885594236
30
0
0
SPLINE
5
1FB
100
AcDbEntity
8
1
62
256
6
ByLayer
370
18
48
1
60
0
100
AcDbSpline
70
4
71
3
72
20
73
16
40
0
40
0
40
0
40
0
40
0.151980377026046
40
0.151980377026046
40
0.304503661439561
40
0.304503661439561
40
0.454529452789118
40
0.454529452789118
40
0.601851127415611
40
0.601851127415611
40
0.748368589681533
40
0.748368589681533
40
0.896258737507985
40
0.896258737507985
40
1
40
1
40
1
40
1
41
1
10
22.4590865630083
20
103.754366753661
30
0
41
1
10
22.4323092591255
20
103.631847013708
30
0
41
1
10
22.4072701073219
20
103.518684719349
30
0
41
1
10
22.3648499819719
20
103.329785570655
30
0
41
1
10
22.3469122318834
20
103.251577880667
30
0
41
1
10
22.3211568380721
20
103.143037842278
30
0
41
1
10
22.3128268050061
20
103.110460019198
30
0
41
1
10
22.3066767062672
20
103.094056067428
30
0
41
1
10
22.3085877643338
20
103.109146167663
30
0
41
1
10
22.3219397788665
20
103.182928553331
30
0
41
1
10
22.333505044181
20
103.242364498407
30
0
41
1
10
22.3645431139071
20
103.396980602279
30
0
41
1
10
22.3844994895444
20
103.49454447767
30
0
41
1
10
22.4231163924615
20
103.681152063056
30
0
41
1
10
22.4406699549762
20
103.765421969458
30
0
41
1
10
22.4590865630083
20
103.853379226984
30
0
0
SPLINE
5
1FC
100
AcDbEntity
8
1
62
256
6
ByLayer
370
18
48
1
60
0
100
AcDbSpline
70
4
71
3
72
10
73
6
40
0
40
0
40
0
40
0
40
0.5
40
0.5
40
1
40
1
40
1
40
1
41
1
10
29.3668297542335
20
-109.478228906607
30
0
41
1
10
26.9191652224965
20
-107.428867917231
30
0
41
1
10
25.6218653113673
20
-104.933059324595
30
0
41
1
10
23.7756308688648
20
-99.9917449770682
30
0
41
1
10
23.2736028871369
20
-97.4774739663346
30
0
41
1
10
22.9397099596141
20
-94.9457885594237
30
0
0
SPLINE
5
1FD
100
AcDbEntity
8
1
62
256
6
ByLayer
370
18
48
1
60
0
100
AcDbSpline
70
4
71
3
72
8
73
4
40
0
40
0
40
0
40
0
40
1
40
1
40
1
40
1
41
1
10
33.5521211595138
20
-112.091166283333
30
0
41
1
10
32.120483725243
20
-111.472325797753
30
0
41
1
10
30.7242907762203
20
-110.614793017819
30
0
41
1
10
29.3668297542335
20
-109.478228906607
30
0
0
SPLINE
5
1FE
100
AcDbEntity
8
1
62
256
6
ByLayer
370
18
48
1
60
0
100
AcDbSpline
70
4
71
3
72
10
73
6
40
0
40
0
40
0
40
0
40
0.5
40
0.5
40
1
40
1
40
1
40
1
41
1
10
33.5521211595138
20
-112.091166283333
30
0
41
1
10
33.3481228372665
20
-112.267440474559
30
0
41
1
10
33.4969620063527
20
-112.515726963242
30
0
41
1
10
34.4370491120922
20
-113.003236601521
30
0
41
1
10
35.2125781863161
20
-113.226012819543
30
0
41
1
10
36.1531529732816
20
-113.297104751532
30
0
0
SPLINE
5
1FF
100
AcDbEntity
8
1
62
256
6
ByLayer
370
18
48
1
60
0
100
AcDbSpline
70
4
71
3
72
60
73
56
40
0
40
0
40
0
40
0
40
0.0624667692267504
40
0.0624667692267504
40
0.124933538453501
40
0.124933538453501
40
0.156166923066876
40
0.156166923066876
40
0.171783615373564
40
0.171783615373564
40
0.187400307680251
40
0.187400307680251
40
0.249867076907
40
0.249867076907
40
0.31233384613375
40
0.31233384613375
40
0.343567230747125
40
0.343567230747125
40
0.359183923053803
40
0.359183923053803
40
0.374800615360482
40
0.374800615360482
40
0.437267384587165
40
0.437267384587165
40
0.499734153813848
40
0.499734153813848
40
0.530967538427197
40
0.530967538427197
40
0.546584230733864
40
0.546584230733864
40
0.562200923040532
40
0.562200923040532
40
0.624667692267238
40
0.624667692267238
40
0.687134461493944
40
0.687134461493944
40
0.718367846107293
40
0.718367846107293
40
0.733984538413967
40
0.733984538413967
40
0.749601230720641
40
0.749601230720641
40
0.812067999947359
40
0.812067999947359
40
0.874534769174078
40
0.874534769174078
40
0.90576815378744
40
0.90576815378744
40
0.921384846094122
40
0.921384846094122
40
0.937001538400804
40
0.937001538400804
40
0.999468307627532
40
0.999468307627532
40
1
40
1
40
1
40
1
41
1
10
36.1531529732815
20
-114.896800353751
30
0
41
1
10
35.9659860568246
20
-114.89492186727
30
0
41
1
10
35.7782372269334
20
-114.889739201503
30
0
41
1
10
35.4016494402857
20
-114.872629022224
30
0
41
1
10
35.2128102470186
20
-114.860701936471
30
0
41
1
10
34.9287455308299
20
-114.837624761826
30
0
41
1
10
34.8339225460692
20
-114.829067634551
30
0
41
1
10
34.6914835543733
20
-114.814915521446
30
0
41
1
10
34.6439697771776
20
-114.809978721726
30
0
41
1
10
34.5488732544039
20
-114.799662723596
30
0
41
1
10
34.5012514480445
20
-114.794278216341
30
0
41
1
10
34.26452617276
20
-114.766430747173
30
0
41
1
10
34.0783858768336
20
-114.741073767119
30
0
41
1
10
33.7122626069781
20
-114.684716192576
30
0
41
1
10
33.5322805829045
20
-114.653714146601
30
0
41
1
10
33.2668505378838
20
-114.603339888292
30
0
41
1
10
33.1791326436438
20
-114.58590317267
30
0
41
1
10
33.0486992218557
20
-114.558826157268
30
0
41
1
10
33.0053645159332
20
-114.549636498438
30
0
41
1
10
32.9192981658687
20
-114.531005460823
30
0
41
1
10
32.8766545686767
20
-114.521583635758
30
0
41
1
10
32.6653493324878
20
-114.473979272099
30
0
41
1
10
32.502406440113
20
-114.434311371232
30
0
41
1
10
32.1881507212948
20
-114.352719788309
30
0
41
1
10
32.0368391652578
20
-114.310793518294
30
0
41
1
10
31.8185175443802
20
-114.246919218856
30
0
41
1
10
31.7471881254897
20
-114.225464140043
30
0
41
1
10
31.642383615869
20
-114.193132222401
30
0
41
1
10
31.6077710059196
20
-114.182316261157
30
0
41
1
10
31.5396510868588
20
-114.16076913927
30
0
41
1
10
31.5061099701236
20
-114.150027906822
30
0
41
1
10
31.3409628036628
20
-114.096525480376
30
0
41
1
10
31.2170048041171
20
-114.05437258517
30
0
41
1
10
30.9849413493933
20
-113.97247915312
30
0
41
1
10
30.8768360037938
20
-113.93273589188
30
0
41
1
10
30.7267273785776
20
-113.875851404132
30
0
41
1
10
30.678704651081
20
-113.857346147939
30
0
41
1
10
30.6097616683335
20
-113.830402066707
30
0
41
1
10
30.5872710482038
20
-113.821546456641
30
0
41
1
10
30.5434522769202
20
-113.804175380788
30
0
41
1
10
30.5221768216272
20
-113.795680998792
30
0
41
1
10
30.4189348220622
20
-113.754199780335
30
0
41
1
10
30.3463416233666
20
-113.724182523464
30
0
41
1
10
30.2208112190694
20
-113.671413285841
30
0
41
1
10
30.1678738654603
20
-113.648660104016
30
0
41
1
10
30.1035640036733
20
-113.620737158922
30
0
41
1
10
30.0846497479518
20
-113.612464732813
30
0
41
1
10
30.0601677728524
20
-113.601712269151
30
0
41
1
10
30.0526558021173
20
-113.598404210908
30
0
41
1
10
30.0389526607415
20
-113.592358407697
30
0
41
1
10
30.0327812704837
20
-113.589629391676
30
0
41
1
10
30.0054346986723
20
-113.577519130861
30
0
41
1
10
29.9946037192973
20
-113.572674980057
30
0
41
1
10
29.9945003869476
20
-113.572628917271
30
0
41
1
10
29.9944988499593
20
-113.572628232642
30
0
41
1
10
29.9945009652526
20
-113.572629180119
30
0
0
SPLINE
5
200
100
AcDbEntity
8
1
62
256
6
ByLayer
370
18
48
1
60
0
100
AcDbSpline
70
4
71
3
72
56
73
52
40
0
40
0
40
0
40
0
40
0.0624363005853025
40
0.0624363005853025
40
0.093688423899124
40
0.093688423899124
40
0.109314485556036
40
0.109314485556036
40
0.124940547212948
40
0.124940547212948
40
0.187444793840591
40
0.187444793840591
40
0.249949040468233
40
0.249949040468233
40
0.265575102125141
40
0.265575102125141
40
0.28120116378205
40
0.28120116378205
40
0.312453287095868
40
0.312453287095868
40
0.374957533723513
40
0.374957533723513
40
0.437461780351158
40
0.437461780351158
40
0.45308784200807
40
0.45308784200807
40
0.468713903664981
40
0.499966026978805
40
0.499966026978805
40
0.562470273606465
40
0.562470273606465
40
0.624974520234125
40
0.624974520234125
40
0.640600581891044
40
0.640600581891044
40
0.656226643547964
40
0.687478766861803
40
0.687478766861803
40
0.749983013489481
40
0.749983013489481
40
0.81248726011716
40
0.81248726011716
40
0.82811332177407
40
0.82811332177407
40
0.843739383430981
40
0.843739383430981
40
0.874991506744785
40
0.874991506744785
40
0.937495753372392
40
0.937495753372392
40
1
40
1
40
1
40
1
41
1
10
29.994500441115
20
113.572628941497
30
0
41
1
10
29.9944208742766
20
113.572593506495
30
0
41
1
10
30.0050474000844
20
113.577346008603
30
0
41
1
10
30.0372157739354
20
113.591593944125
30
0
41
1
10
30.0506614910773
20
113.597534937361
30
0
41
1
10
30.0749837382632
20
113.608220379261
30
0
41
1
10
30.0837988775066
20
113.612084380395
30
0
41
1
10
30.1027032793515
20
113.620345484451
30
0
41
1
10
30.1128006892527
20
113.624746190134
30
0
41
1
10
30.1664651897663
20
113.648053914786
30
0
41
1
10
30.2195305146539
20
113.670868425765
30
0
41
1
10
30.3452534857828
20
113.723731471881
30
0
41
1
10
30.4179126041594
20
113.753781503007
30
0
41
1
10
30.5210808835105
20
113.795242495422
30
0
41
1
10
30.5423337678734
20
113.803729810285
30
0
41
1
10
30.5860886239578
20
113.821079757467
30
0
41
1
10
30.608593291129
20
113.829943179727
30
0
41
1
10
30.6775675279637
20
113.85690610499
30
0
41
1
10
30.7256272656874
20
113.87543018792
30
0
41
1
10
30.8759017232817
20
113.932390352095
30
0
41
1
10
30.9841904302269
20
113.97220976987
30
0
41
1
10
31.216803403527
20
114.05430588407
30
0
41
1
10
31.3411272610979
20
114.096585288968
30
0
41
1
10
31.5068763053044
20
114.150274522699
30
0
41
1
10
31.5405956368236
20
114.161070422098
30
0
41
1
10
31.6087988117919
20
114.182638783723
30
0
41
1
10
31.7122223457955
20
114.214948694427
30
0
41
1
10
31.8189718573738
20
114.247053809206
30
0
41
1
10
32.0368684214717
20
114.310798722725
30
0
41
1
10
32.1879818891559
20
114.352673086065
30
0
41
1
10
32.5020639210329
20
114.434225304464
30
0
41
1
10
32.6650308307159
20
114.47390575191
30
0
41
1
10
32.8765456474874
20
114.52155953768
30
0
41
1
10
32.9192702793176
20
114.530999419622
30
0
41
1
10
33.0053893463283
20
114.549641878063
30
0
41
1
10
33.135129963528
20
114.577154500577
30
0
41
1
10
33.2665448320054
20
114.603279294731
30
0
41
1
10
33.5315941842
20
114.653589011765
30
0
41
1
10
33.7112469787384
20
114.684542667012
30
0
41
1
10
34.0765449259517
20
114.740807443852
30
0
41
1
10
34.2621892487089
20
114.766119965774
30
0
41
1
10
34.4981749369703
20
114.793924930655
30
0
41
1
10
34.5455691514871
20
114.799294014094
30
0
41
1
10
34.6407587586644
20
114.80963999533
30
0
41
1
10
34.6885272390583
20
114.814613057503
30
0
41
1
10
34.8314698900726
20
114.828840679086
30
0
41
1
10
34.9265978515102
20
114.83743888266
30
0
41
1
10
35.211487275054
20
114.86061693239
30
0
41
1
10
35.4007562406484
20
114.872581527535
30
0
41
1
10
35.7779681534095
20
114.889733867313
30
0
41
1
10
35.9659113289991
20
114.89492111727
30
0
41
1
10
36.1531529732815
20
114.896800353751
30
0
0
SPLINE
5
201
100
AcDbEntity
8
1
62
256
6
ByLayer
370
18
48
1
60
0
100
AcDbSpline
70
4
71
3
72
10
73
6
40
0
40
0
40
0
40
0
40
0.5
40
0.5
40
1
40
1
40
1
40
1
41
1
10
29.3668297542335
20
109.478228906607
30
0
41
1
10
30.451394426129
20
110.386304543697
30
0
41
1
10
31.5609672820041
20
111.114597745097
30
0
41
1
10
33.825261338265
20
112.261646751217
30
0
41
1
10
35.0027070588013
20
112.683961773951
30
0
41
1
10
36.1531529732815
20
112.934086352737
30
0
0
SPLINE
5
202
100
AcDbEntity
8
1
62
256
6
ByLayer
370
18
48
1
60
0
100
AcDbSpline
70
4
71
3
72
10
73
6
40
0
40
0
40
0
40
0
40
0.5
40
0.5
40
1
40
1
40
1
40
1
41
1
10
22.9397099596141
20
94.9457885594236
30
0
41
1
10
23.2738192457045
20
97.4791144677742
30
0
41
1
10
23.775545234257
20
99.9991718565229
30
0
41
1
10
25.6390059344789
20
104.971208438751
30
0
41
1
10
26.9576675396747
20
107.461104829521
30
0
41
1
10
29.3668297542335
20
109.478228906607
30
0
0
SPLINE
5
203
100
AcDbEntity
8
1
62
256
6
ByLayer
370
18
48
1
60
0
100
AcDbSpline
70
4
71
3
72
20
73
16
40
0
40
0
40
0
40
0
40
0.166267741336118
40
0.166267741336118
40
0.332714163795433
40
0.332714163795433
40
0.502483271521113
40
0.502483271521113
40
0.673584696497313
40
0.673584696497313
40
0.840033846520202
40
0.840033846520202
40
0.997691928482708
40
0.997691928482708
40
1
40
1
40
1
40
1
41
1
10
22.4590865630083
20
103.754366753661
30
0
41
1
10
22.4865782672304
20
103.88015523733
30
0
41
1
10
22.5186249283317
20
104.018965880848
30
0
41
1
10
22.5875156480628
20
104.298999223993
30
0
41
1
10
22.6253080716834
20
104.444041637255
30
0
41
1
10
22.7019833420149
20
104.723629872174
30
0
41
1
10
22.7419219551815
20
104.861812282199
30
0
41
1
10
22.8164025220904
20
105.110770636186
30
0
41
1
10
22.8519310220622
20
105.224919978727
30
0
41
1
10
22.9095783492422
20
105.408341761693
30
0
41
1
10
22.9327922600833
20
105.481348542808
30
0
41
1
10
22.9612432544874
20
105.574927126703
30
0
41
1
10
22.9677004992458
20
105.599294209751
30
0
41
1
10
22.9657730218071
20
105.59999451183
30
0
41
1
10
22.9657433754569
20
105.599999561994
30
0
41
1
10
22.9657119341373
20
105.599999552567
30
0
0
SPLINE
5
204
100
AcDbEntity
8
1
62
256
6
ByLayer
370
18
48
1
60
0
100
AcDbSpline
70
4
71
3
72
18
73
14
40
0
40
0
40
0
40
0
40
6.7649535581E-06
40
6.7649535581E-06
40
0.187662064128632
40
0.187662064128632
40
0.383225012451644
40
0.383225012451644
40
0.588757160272874
40
0.588757160272874
40
0.800122827391959
40
0.800122827391959
40
1
40
1
40
1
40
1
41
1
10
22.9384408478031
20
105.538832971949
30
0
41
1
10
22.9384402699996
20
105.538831499878
30
0
41
1
10
22.9384396921877
20
105.538830027781
30
0
41
1
10
22.9223997511609
20
105.497964798163
30
0
41
1
10
22.8995379226883
20
105.43638551748
30
0
41
1
10
22.8445308152403
20
105.279266190765
30
0
41
1
10
22.8113679004728
20
105.180393060009
30
0
41
1
10
22.740205094688
20
104.955266296897
30
0
41
1
10
22.7011139693795
20
104.824810468308
30
0
41
1
10
22.6242302629329
20
104.550193493439
30
0
41
1
10
22.5854435191512
20
104.401855026797
30
0
41
1
10
22.516879549296
20
104.119308623156
30
0
41
1
10
22.4858356688829
20
103.981132284979
30
0
41
1
10
22.4590865630083
20
103.853379226984
30
0
0
SPLINE
5
205
100
AcDbEntity
8
1
62
256
6
ByLayer
370
18
48
1
60
0
100
AcDbSpline
70
4
71
3
72
14
73
10
40
0
40
0
40
0
40
0
40
0.25
40
0.25
40
0.5
40
0.5
40
0.75
40
0.75
40
1
40
1
40
1
40
1
41
1
10
41.9490681704173
20
-112.934086352737
30
0
41
1
10
42.5647741777044
20
-112.714537307771
30
0
41
1
10
42.6201792608282
20
-112.28951232302
30
0
41
1
10
41.6706031521138
20
-111.287471641723
30
0
41
1
10
40.6839060300021
20
-110.733439808957
30
0
41
1
10
38.2535432624075
20
-110.203553024238
30
0
41
1
10
36.8298541487201
20
-110.288218854339
30
0
41
1
10
34.6002338383211
20
-111.02980880945
30
0
41
1
10
33.8016550567373
20
-111.621304211653
30
0
41
1
10
33.5521211595138
20
-112.091166283333
30
0
0
SPLINE
5
206
100
AcDbEntity
8
1
62
256
6
ByLayer
370
18
48
1
60
0
100
AcDbSpline
70
4
71
3
72
10
73
6
40
0
40
0
40
0
40
0
40
0.5
40
0.5
40
1
40
1
40
1
40
1
41
1
10
36.1531529732815
20
-113.297104751532
30
0
41
1
10
37.1918089376338
20
-113.375610001941
30
0
41
1
10
38.3847772205732
20
-113.382588025143
30
0
41
1
10
40.507853561703
20
-113.256843466532
30
0
41
1
10
41.4181529693291
20
-113.123400609828
30
0
41
1
10
41.9490681704173
20
-112.934086352737
30
0
0
SPLINE
5
207
100
AcDbEntity
8
1
62
256
6
ByLayer
370
18
48
1
60
0
100
AcDbSpline
70
4
71
3
72
16
73
12
40
0
40
0
40
0
40
0
40
0.215589815327778
40
0.215589815327778
40
0.431190250688042
40
0.431190250688042
40
0.646611092209494
40
0.646611092209494
40
0.861523567813388
40
0.861523567813388
40
1
40
1
40
1
40
1
41
1
10
41
20
-114.7385615214
30
0
41
1
10
41
20
-114.732501618809
30
0
41
1
10
41.0155181918121
20
-114.726247147234
30
0
41
1
10
41.075032604315
20
-114.714418506777
30
0
41
1
10
41.1198534171986
20
-114.708682562507
30
0
41
1
10
41.2321854057205
20
-114.698612968971
30
0
41
1
10
41.3012335974678
20
-114.694141449326
30
0
41
1
10
41.4535255278399
20
-114.687179523345
30
0
41
1
10
41.538841956721
20
-114.684590695181
30
0
41
1
10
41.6831733661003
20
-114.682203013465
30
0
41
1
10
41.7417595707164
20
-114.681722606525
30
0
41
1
10
41.8
20
-114.681722606525
30
0
0
SPLINE
5
208
100
AcDbEntity
8
1
62
256
6
ByLayer
370
18
48
1
60
0
100
AcDbSpline
70
4
71
3
72
41
73
37
40
0
40
0
40
0
40
0
40
0.0155427611067677
40
0.0155427611067677
40
0.0311690664860261
40
0.0624216772445415
40
0.0624216772445415
40
0.124926898761575
40
0.187432120278608
40
0.249937341795641
40
0.249937341795641
40
0.265563647174905
40
0.265563647174905
40
0.281189952554169
40
0.312442563312689
40
0.312442563312689
40
0.374947784829728
40
0.437453006346767
40
0.499958227863806
40
0.499958227863806
40
0.515584533243069
40
0.515584533243069
40
0.531210838622333
40
0.562463449380844
40
0.562463449380844
40
0.624968670897866
40
0.687473892414888
40
0.74997911393191
40
0.74997911393191
40
0.781231724690421
40
0.781231724690421
40
0.812484335448933
40
0.812484335448933
40
0.874989556965955
40
0.937494778482977
40
1
40
1
40
1
40
1
41
1
10
40.0054999191697
20
-114.999999996482
30
0
41
1
10
40.0055061865023
20
-115.000000269255
30
0
41
1
10
40.0051447255773
20
-114.999984534545
30
0
41
1
10
40.003685618795
20
-114.99992103905
30
0
41
1
10
40.0003829636254
20
-114.999777344089
30
0
41
1
10
39.9937889797909
20
-114.999490712417
30
0
41
1
10
39.9762772427598
20
-114.998731162172
30
0
41
1
10
39.9414131362227
20
-114.99722169098
30
0
41
1
10
39.8550402277517
20
-114.993534104408
30
0
41
1
10
39.7745762942344
20
-114.990170994831
30
0
41
1
10
39.7169308914726
20
-114.987800544623
30
0
41
1
10
39.7050184048381
20
-114.987312423483
30
0
41
1
10
39.6805387294807
20
-114.986313372436
30
0
41
1
10
39.6428392289966
20
-114.984780657742
30
0
41
1
10
39.6022295120572
20
-114.983149565255
30
0
41
1
10
39.5171882477479
20
-114.979766699503
30
0
41
1
10
39.3936215699445
20
-114.974934464684
30
0
41
1
10
39.1781697237903
20
-114.966884036256
30
0
41
1
10
39.0143343494726
20
-114.961090247187
30
0
41
1
10
38.9054475589888
20
-114.957370432201
30
0
41
1
10
38.8833214959257
20
-114.956620751392
30
0
41
1
10
38.8385296577784
20
-114.95511636579
30
0
41
1
10
38.7706004945109
20
-114.9528545004
30
0
41
1
10
38.7004698941022
20
-114.95058143636
30
0
41
1
10
38.5573183567879
20
-114.946032489693
30
0
41
1
10
38.3587522023947
20
-114.939959864657
30
0
41
1
10
38.0381475035862
20
-114.931016862532
30
0
41
1
10
37.809148403725
20
-114.92528994404
30
0
41
1
10
37.631517304344
20
-114.921130994815
30
0
41
1
10
37.5712355942915
20
-114.919765643171
30
0
41
1
10
37.4497693802023
20
-114.917112098313
30
0
41
1
10
37.3884689773146
20
-114.91582105506
30
0
41
1
10
37.2028900416601
20
-114.912063744836
30
0
41
1
10
36.9509833243052
20
-114.90736289813
30
0
41
1
10
36.5598868807034
20
-114.901372928428
30
0
41
1
10
36.2902581794983
20
-114.898176399696
30
0
41
1
10
36.1531529732815
20
-114.896800353751
30
0
0
SPLINE
5
209
100
AcDbEntity
8
1
62
256
6
ByLayer
370
18
48
1
60
0
100
AcDbSpline
70
4
71
3
72
16
73
12
40
0
40
0
40
0
40
0
40
0.21424330626555
40
0.21424330626555
40
0.428468970578348
40
0.428468970578348
40
0.64297360256782
40
0.64297360256782
40
0.858037776811703
40
0.858037776811703
40
1
40
1
40
1
40
1
41
1
10
41.8
20
114.681722606525
30
0
41
1
10
41.7106405968618
20
114.681722606525
30
0
41
1
10
41.6200490962571
20
114.682873479313
30
0
41
1
10
41.451417414511
20
114.687250290472
30
0
41
1
10
41.3710539104769
20
114.690534598951
30
0
41
1
10
41.2313757933214
20
114.698667356692
30
0
41
1
10
41.1701654756378
20
114.703627115673
30
0
41
1
10
41.075002554544
20
114.714420108099
30
0
41
1
10
41.0398087659334
20
114.720401922325
30
0
41
1
10
41.0067317898652
20
114.730444531423
30
0
41
1
10
41
20
114.734539140169
30
0
41
1
10
41
20
114.7385615214
30
0
0
SPLINE
5
20A
100
AcDbEntity
8
1
62
256
6
ByLayer
370
18
48
1
60
0
100
AcDbSpline
70
4
71
3
72
39
73
35
40
0
40
0
40
0
40
0
40
0.0624782444446033
40
0.124956488889207
40
0.18743473333381
40
0.249912977778413
40
0.249912977778413
40
0.281152100000705
40
0.281152100000705
40
0.312391222222996
40
0.312391222222996
40
0.374869466667578
40
0.437347711112161
40
0.499825955556743
40
0.499825955556743
40
0.515445516667901
40
0.515445516667901
40
0.531065077779058
40
0.562304200001357
40
0.562304200001357
40
0.624782444445943
40
0.687260688890528
40
0.749738933335114
40
0.749738933335114
40
0.765358494446258
40
0.765358494446258
40
0.780978055557403
40
0.812217177779698
40
0.812217177779698
40
0.87469542222429
40
0.937173666668882
40
0.999651911113474
40
0.999651911113474
40
1
40
1
40
1
40
1
41
1
10
36.1531529732815
20
114.896800353751
30
0
41
1
10
36.290258323743
20
114.898176401144
30
0
41
1
10
36.5597591059476
20
114.901371618354
30
0
41
1
10
36.9503276747414
20
114.907352529292
30
0
41
1
10
37.3273628969977
20
114.914385159676
30
0
41
1
10
37.5696095418634
20
114.919683968509
30
0
41
1
10
37.7477704317483
20
114.923851689778
30
0
41
1
10
37.8062493383813
20
114.925265755214
30
0
41
1
10
37.9211099547141
20
114.928127788305
30
0
41
1
10
37.9775430349821
20
114.929576958111
30
0
41
1
10
38.1438915102496
20
114.933966839915
30
0
41
1
10
38.3578309681422
20
114.939932873914
30
0
41
1
10
38.655437301772
20
114.949032212037
30
0
41
1
10
38.8381624653081
20
114.955073157418
30
0
41
1
10
38.9473149088514
20
114.958800397034
30
0
41
1
10
38.9688800633616
20
114.959543011251
30
0
41
1
10
39.0113014528038
20
114.961015391061
30
0
41
1
10
39.0739457625019
20
114.963207270393
30
0
41
1
10
39.1336550511227
20
114.96534517844
30
0
41
1
10
39.2492149533345
20
114.969538879368
30
0
41
1
10
39.3930183906045
20
114.974911391459
30
0
41
1
10
39.5782653804259
20
114.982154774436
30
0
41
1
10
39.681281935472
20
114.986334999016
30
0
41
1
10
39.7390721836256
20
114.988710930895
30
0
41
1
10
39.7503041451163
20
114.989174454549
30
0
41
1
10
39.7720006108692
20
114.990072798036
30
0
41
1
10
39.8034347490601
20
114.991378933111
30
0
41
1
10
39.8315696255938
20
114.992559479518
30
0
41
1
10
39.8835033780745
20
114.99474935147
30
0
41
1
10
39.9412007627898
20
114.997212548529
30
0
41
1
10
39.9935449527954
20
114.999478767277
30
0
41
1
10
40.0054586842905
20
114.999998201689
30
0
41
1
10
40.0054991083649
20
114.999999961191
30
0
41
1
10
40.0055010587727
20
115.000000046089
30
0
41
1
10
40.0054990125654
20
114.999999957008
30
0
0
SPLINE
5
20B
100
AcDbEntity
8
1
62
256
6
ByLayer
370
18
48
1
60
0
100
AcDbSpline
70
4
71
3
72
10
73
6
40
0
40
0
40
0
40
0
40
0.5
40
0.5
40
1
40
1
40
1
40
1
41
1
10
97.3999891742596
20
-126.540883036911
30
0
41
1
10
97.4094037493279
20
-126.644799922787
30
0
41
1
10
97.4135107105224
20
-126.748686396539
30
0
41
1
10
97.4108692304818
20
-126.956397143617
30
0
41
1
10
97.4041205558053
20
-127.060259215551
30
0
41
1
10
97.3915475566646
20
-127.164010463591
30
0
0
SPLINE
5
20C
100
AcDbEntity
8
1
62
256
6
ByLayer
370
18
48
1
60
0
100
AcDbSpline
70
4
71
3
72
12
73
8
40
0
40
0
40
0
40
0
40
0.25
40
0.25
40
0.5
40
0.5
40
1
40
1
40
1
40
1
41
1
10
84.4865140712487
20
-97.1666419935816
30
0
41
1
10
83.3239418020818
20
-97.1666419935816
30
0
41
1
10
82.2962091757168
20
-97.1473384807244
30
0
41
1
10
80.3627457964971
20
-96.9106612876978
30
0
41
1
10
79.4934900106345
20
-96.6991878292998
30
0
41
1
10
77.1327884979435
20
-95.6107507094929
30
0
41
1
10
75.9506958927958
20
-94.2356400597555
30
0
41
1
10
75.5567940008974
20
-92.1666419935816
30
0
0
SPLINE
5
20D
100
AcDbEntity
8
1
62
256
6
ByLayer
370
18
48
1
60
0
100
AcDbSpline
70
4
71
3
72
24
73
20
40
0
40
0
40
0
40
0
40
0.0542050183042762
40
0.0542050183042762
40
0.107981670897782
40
0.107981670897782
40
0.200063088022864
40
0.200063088022864
40
0.287557973746623
40
0.287557973746623
40
0.437245391037914
40
0.437245391037914
40
0.586297894013349
40
0.586297894013349
40
0.735167849478759
40
0.735167849478759
40
0.951606980510076
40
0.951606980510076
40
1
40
1
40
1
40
1
41
1
10
95.6334135742175
20
-129.318436797337
30
0
41
1
10
95.7216764086399
20
-129.324703948063
30
0
41
1
10
95.8117513490907
20
-129.322447516756
30
0
41
1
10
95.9795990873295
20
-129.302399139556
30
0
41
1
10
96.059454127576
20
-129.284709216631
30
0
41
1
10
96.2562577771332
20
-129.223871859022
30
0
41
1
10
96.3636705775656
20
-129.171099952207
30
0
41
1
10
96.544672538114
20
-129.05795076886
30
0
41
1
10
96.6213709004585
20
-128.996985965241
30
0
41
1
10
96.8056434701703
20
-128.825160831456
30
0
41
1
10
96.8981139231215
20
-128.708514202251
30
0
41
1
10
97.052799499578
20
-128.470260669786
30
0
41
1
10
97.1152321967482
20
-128.347795395006
30
0
41
1
10
97.2186619293621
20
-128.099929938833
30
0
41
1
10
97.2596945570024
20
-127.974192766197
30
0
41
1
10
97.3394837509339
20
-127.663478831765
30
0
41
1
10
97.3689123474877
20
-127.477072559497
30
0
41
1
10
97.3870930868549
20
-127.247947145808
30
0
41
1
10
97.3896789528024
20
-127.206000684749
30
0
41
1
10
97.3915475566662
20
-127.164010463587
30
0
0
SPLINE
5
20E
100
AcDbEntity
8
1
62
256
6
ByLayer
370
18
48
1
60
0
100
AcDbSpline
70
4
71
3
72
47
73
43
40
0
40
0
40
0
40
0
40
0.0624999999999832
40
0.0624999999999832
40
0.0937499999999752
40
0.0937499999999752
40
0.124999999999967
40
0.124999999999967
40
0.187500000000001
40
0.187500000000001
40
0.218750000000019
40
0.218750000000019
40
0.250000000000036
40
0.281250000000053
40
0.281250000000053
40
0.31250000000007
40
0.31250000000007
40
0.375000000000093
40
0.375000000000093
40
0.437500000000117
40
0.437500000000117
40
0.50000000000014
40
0.50000000000014
40
0.531250000000143
40
0.531250000000143
40
0.562500000000146
40
0.593750000000149
40
0.593750000000149
40
0.625000000000152
40
0.625000000000152
40
0.687500000000158
40
0.687500000000158
40
0.718750000000138
40
0.718750000000138
40
0.750000000000117
40
0.781250000000097
40
0.781250000000097
40
0.812500000000077
40
0.812500000000077
40
0.875000000000051
40
0.937500000000025
40
1
40
1
40
1
40
1
41
1
10
96.158345555373
20
-130.413671763382
30
0
41
1
10
96.2268106867101
20
-130.418533167396
30
0
41
1
10
96.2952325102513
20
-130.419858648409
30
0
41
1
10
96.3978009176905
20
-130.416594734611
30
0
41
1
10
96.4319796442222
20
-130.414629668172
30
0
41
1
10
96.5003154616255
20
-130.408933062865
30
0
41
1
10
96.5344401421567
20
-130.405201483954
30
0
41
1
10
96.6362111566814
20
-130.391421034668
30
0
41
1
10
96.7034352560457
20
-130.378779968893
30
0
41
1
10
96.8033344057695
20
-130.354625394802
30
0
41
1
10
96.8365085878211
20
-130.34569531377
30
0
41
1
10
96.9021823449905
20
-130.326192867466
30
0
41
1
10
96.9672606854282
20
-130.305032467548
30
0
41
1
10
97.031153763747
20
-130.280571673955
30
0
41
1
10
97.0944523028145
20
-130.254455370114
30
0
41
1
10
97.1258475772934
20
-130.240548267757
30
0
41
1
10
97.218772667115
20
-130.196490199063
30
0
41
1
10
97.2789990018653
20
-130.164044129729
30
0
41
1
10
97.3960222271763
20
-130.093036055304
30
0
41
1
10
97.452915054745
20
-130.05438080577
30
0
41
1
10
97.5620172324327
20
-129.971754482256
30
0
41
1
10
97.6143722395171
20
-129.927710677395
30
0
41
1
10
97.6895880092848
20
-129.857520881592
30
0
41
1
10
97.7140660134276
20
-129.833469800813
30
0
41
1
10
97.7616506603604
20
-129.784252694548
30
0
41
1
10
97.8079221520439
20
-129.7338670043
30
0
41
1
10
97.8515736758725
20
-129.68114979044
30
0
41
1
10
97.8939079988236
20
-129.62726039237
30
0
41
1
10
97.9144278905913
20
-129.599709213565
30
0
41
1
10
97.97366352928
20
-129.515755383787
30
0
41
1
10
98.0101777781084
20
-129.457916342916
30
0
41
1
10
98.0604879009414
20
-129.368354944316
30
0
41
1
10
98.0765339768596
20
-129.337988724518
30
0
41
1
10
98.10698964063
20
-129.276577518088
30
0
41
1
10
98.1358162578759
20
-129.214487765642
30
0
41
1
10
98.1614048063134
20
-129.151049261848
30
0
41
1
10
98.1853715012422
20
-129.086935208141
30
0
41
1
10
98.196554824338
20
-129.054505607606
30
0
41
1
10
98.2275771407198
20
-128.956421165871
30
0
41
1
10
98.261910468665
20
-128.824537939586
30
0
41
1
10
98.2929528259936
20
-128.623500383637
30
0
41
1
10
98.3
20
-128.487332073601
30
0
41
1
10
98.3
20
-128.418694565939
30
0
0
SPLINE
5
20F
100
AcDbEntity
8
1
62
256
6
ByLayer
370
18
48
1
60
0
100
AcDbSpline
70
4
71
3
72
32
73
28
40
0
40
0
40
0
40
0
40
0.0237159681503751
40
0.0646743991723686
40
0.105664522251216
40
0.14677626665927
40
0.188081272082615
40
0.229609885537769
40
0.271354310045157
40
0.313281088746859
40
0.355346573485303
40
0.397509565558349
40
0.439738382387099
40
0.482012665176552
40
0.524321690652247
40
0.566660817325199
40
0.609026472757258
40
0.651411716797903
40
0.693800807939169
40
0.736164995262735
40
0.778460154429372
40
0.82062859708216
40
0.862607546244699
40
0.904344807160553
40
0.945817818879483
40
0.987048133841476
40
1
40
1
40
1
40
1
41
1
10
94.3645038892763
20
-85.0092178847743
30
0
41
1
10
94.3551656676325
20
-84.8418863153326
30
0
41
1
10
94.3098264042338
20
-84.3886436887254
30
0
41
1
10
94.1459479922583
20
-83.6565799768436
30
0
41
1
10
93.8273567394435
20
-82.8365080592858
30
0
41
1
10
93.3861826211553
20
-82.0598077997018
30
0
41
1
10
92.8293315256903
20
-81.3388405034441
30
0
41
1
10
92.1652803217731
20
-80.6850260263646
30
0
41
1
10
91.4044292974205
20
-80.1092804459123
30
0
41
1
10
90.5591361173556
20
-79.6215056370093
30
0
41
1
10
89.6435211207354
20
-79.2302288572672
30
0
41
1
10
88.6730910486309
20
-78.9422931315777
30
0
41
1
10
87.6643111850486
20
-78.7627075627389
30
0
41
1
10
86.6342154743563
20
-78.6946153174504
30
0
41
1
10
85.6000907711614
20
-78.7393301554139
30
0
41
1
10
84.5792349559289
20
-78.8963921464838
30
0
41
1
10
83.5887606018717
20
-79.1636101484649
30
0
41
1
10
82.6454232395827
20
-79.5370732085982
30
0
41
1
10
81.7654467964401
20
-80.011123639968
30
0
41
1
10
80.9642828548731
20
-80.5782945839429
30
0
41
1
10
80.2563971401335
20
-81.2292329703102
30
0
41
1
10
79.654541877417
20
-81.9526904319204
30
0
41
1
10
79.1704453008369
20
-82.7355764973181
30
0
41
1
10
78.8098877355572
20
-83.5635177509155
30
0
41
1
10
78.5886853053083
20
-84.420614229188
30
0
41
1
10
78.4986382528767
20
-85.0950332364535
30
0
41
1
10
78.5180519387748
20
-85.4761323788805
30
0
41
1
10
78.5257106193361
20
-85.5673445888844
30
0
0
SPLINE
5
210
100
AcDbEntity
8
1
62
256
6
ByLayer
370
18
48
1
60
0
100
AcDbSpline
70
4
71
3
72
10
73
6
40
0
40
0
40
0
40
0
40
0.5
40
0.5
40
1
40
1
40
1
40
1
41
1
10
86.636742702186
20
-88.6432300584601
30
0
41
1
10
87.2845564512157
20
-88.4258982081931
30
0
41
1
10
87.9465451602908
20
-88.154854445957
30
0
41
1
10
89.2860721252796
20
-87.4388998656138
30
0
41
1
10
89.936411573547
20
-87.0095345042854
30
0
41
1
10
90.5757249740319
20
-86.5396457236471
30
0
0
SPLINE
5
211
100
AcDbEntity
8
1
62
256
6
ByLayer
370
18
48
1
60
0
100
AcDbSpline
70
4
71
3
72
10
73
6
40
0
40
0
40
0
40
0
40
0.5
40
0.5
40
1
40
1
40
1
40
1
41
1
10
86.636742702186
20
-88.6432300584602
30
0
41
1
10
85.9619021708364
20
-88.4884238378766
30
0
41
1
10
85.2692842042759
20
-88.2814161859256
30
0
41
1
10
83.8574770464451
20
-87.6955249948223
30
0
41
1
10
83.1670163036977
20
-87.3295430719829
30
0
41
1
10
82.4853216827301
20
-86.9221020976864
30
0
0
SPLINE
5
212
100
AcDbEntity
8
1
62
256
6
ByLayer
370
18
48
1
60
0
100
AcDbSpline
70
4
71
3
72
27
73
23
40
0
40
0
40
0
40
0
40
0.124999999999999
40
0.124999999999999
40
0.187500000000001
40
0.187500000000001
40
0.250000000000004
40
0.250000000000004
40
0.375000000000004
40
0.375000000000004
40
0.500000000000004
40
0.500000000000004
40
0.625000000000004
40
0.625000000000004
40
0.656250000000007
40
0.656250000000007
40
0.68750000000001
40
0.750000000000009
40
0.750000000000009
40
0.875000000000004
40
0.875000000000004
40
1
40
1
40
1
40
1
41
1
10
82.4853216827301
20
-86.922102097686
30
0
41
1
10
82.4776490456096
20
-86.7981840377441
30
0
41
1
10
82.4698200299499
20
-86.6702844292201
30
0
41
1
10
82.4577804337321
20
-86.4708967189313
30
0
41
1
10
82.4537142891502
20
-86.4031147266856
30
0
41
1
10
82.4455257995161
20
-86.265655704237
30
0
41
1
10
82.4413977092271
20
-86.1958841662713
30
0
41
1
10
82.4289044671911
20
-85.9832145726535
30
0
41
1
10
82.4204299155669
20
-85.8369483383056
30
0
41
1
10
82.4031571530377
20
-85.5344511208041
30
0
41
1
10
82.3943587099462
20
-85.378212989154
30
0
41
1
10
82.3764220839102
20
-85.0552768920345
30
0
41
1
10
82.3672838462845
20
-84.8885772430471
30
0
41
1
10
82.3556520721518
20
-84.6737687420785
30
0
41
1
10
82.3533136746282
20
-84.6304563596859
30
0
41
1
10
82.3486237309644
20
-84.54333697708
30
0
41
1
10
82.3415820708835
20
-84.4121577325554
30
0
41
1
10
82.3345209206689
20
-84.2795331223022
30
0
41
1
10
82.3203747172351
20
-84.0125112826264
30
0
41
1
10
82.3109120647853
20
-83.8321347518296
30
0
41
1
10
82.2919342685877
20
-83.4674889963583
30
0
41
1
10
82.2824191572932
20
-83.2832221783929
30
0
41
1
10
82.2728829351199
20
-83.0973898020989
30
0
0
SPLINE
5
213
100
AcDbEntity
8
1
62
256
6
ByLayer
370
18
48
1
60
0
100
AcDbSpline
70
4
71
3
72
27
73
23
40
0
40
0
40
0
40
0
40
0.124999999999994
40
0.124999999999994
40
0.18749999999999
40
0.18749999999999
40
0.249999999999985
40
0.249999999999985
40
0.374999999999978
40
0.374999999999978
40
0.499999999999972
40
0.499999999999972
40
0.624999999999966
40
0.624999999999966
40
0.656249999999967
40
0.656249999999967
40
0.687499999999968
40
0.74999999999997
40
0.74999999999997
40
0.874999999999985
40
0.874999999999985
40
1
40
1
40
1
40
1
41
1
10
90.5757249740316
20
-86.5396457236467
30
0
41
1
10
90.5680523369113
20
-86.415727663705
30
0
41
1
10
90.5602233212515
20
-86.2878280551815
30
0
41
1
10
90.5481837250337
20
-86.0884403448936
30
0
41
1
10
90.544117580452
20
-86.0206583526479
30
0
41
1
10
90.5359290908178
20
-85.8831993301987
30
0
41
1
10
90.5318010005288
20
-85.8134277922326
30
0
41
1
10
90.5193077584925
20
-85.6007581986134
30
0
41
1
10
90.5108332068685
20
-85.4544919642641
30
0
41
1
10
90.4935604443388
20
-85.1519947467591
30
0
41
1
10
90.4847620012472
20
-84.9957566151068
30
0
41
1
10
90.466825375211
20
-84.6728205179816
30
0
41
1
10
90.4576871375851
20
-84.5061208689907
30
0
41
1
10
90.4460553634522
20
-84.2913123680172
30
0
41
1
10
90.4437169659284
20
-84.2479999856221
30
0
41
1
10
90.4390270222646
20
-84.1608806030186
30
0
41
1
10
90.4319853621838
20
-84.0297013584973
30
0
41
1
10
90.4249242119698
20
-83.8970767482471
30
0
41
1
10
90.4107780085361
20
-83.6300549085767
30
0
41
1
10
90.4013153560865
20
-83.4496783777827
30
0
41
1
10
90.3823375598891
20
-83.0850326223162
30
0
41
1
10
90.3728224485947
20
-82.9007658043525
30
0
41
1
10
90.3632862264214
20
-82.7149334280596
30
0
0
SPLINE
5
214
100
AcDbEntity
8
1
62
256
6
ByLayer
370
18
48
1
60
0
100
AcDbSpline
70
4
71
3
72
8
73
4
40
0
40
0
40
0
40
0
40
1
40
1
40
1
40
1
41
1
10
90.4505482586079
20
-85.5823788174676
30
0
41
1
10
90.4681500036909
20
-85.9253840512222
30
0
41
1
10
90.485637495776
20
-86.2622454744847
30
0
41
1
10
90.5029600366611
20
-86.5902368555763
30
0
0
SPLINE
5
215
100
AcDbEntity
8
1
62
256
6
ByLayer
370
18
48
1
60
0
100
AcDbSpline
70
4
71
3
72
10
73
6
40
0
40
0
40
0
40
0
40
0.5
40
0.5
40
1
40
1
40
1
40
1
41
1
10
86.2991272391519
20
-83.8612508566937
30
0
41
1
10
85.6590179988593
20
-84.3317245714138
30
0
41
1
10
85.0019791779383
20
-84.7650975642147
30
0
41
1
10
83.6624037812267
20
-85.4798984071364
30
0
41
1
10
83.0071495910352
20
-85.7477747907097
30
0
41
1
10
82.3601449673063
20
-85.9648351915069
30
0
0
SPLINE
5
216
100
AcDbEntity
8
1
62
256
6
ByLayer
370
18
48
1
60
0
100
AcDbSpline
70
4
71
3
72
10
73
6
40
0
40
0
40
0
40
0
40
0.5
40
0.5
40
1
40
1
40
1
40
1
41
1
10
82.27288293512
20
-83.0973898020991
30
0
41
1
10
82.9206966841495
20
-82.8800579518321
30
0
41
1
10
83.5826853932245
20
-82.609014189596
30
0
41
1
10
84.9222123582136
20
-81.8930596092528
30
0
41
1
10
85.5725518064808
20
-81.4636942479243
30
0
41
1
10
86.2118652069657
20
-80.9938054672861
30
0
0
SPLINE
5
217
100
AcDbEntity
8
1
62
256
6
ByLayer
370
18
48
1
60
0
100
AcDbSpline
70
4
71
3
72
10
73
6
40
0
40
0
40
0
40
0
40
0.5
40
0.5
40
1
40
1
40
1
40
1
41
1
10
90.3632862264215
20
-82.7149334280599
30
0
41
1
10
89.6884456950718
20
-82.5601272074763
30
0
41
1
10
88.9958277285114
20
-82.3531195555252
30
0
41
1
10
87.5840205706805
20
-81.7672283644219
30
0
41
1
10
86.8935598279332
20
-81.4012464415826
30
0
41
1
10
86.2118652069655
20
-80.9938054672861
30
0
0
SPLINE
5
218
100
AcDbEntity
8
1
62
256
6
ByLayer
370
18
48
1
60
0
100
AcDbSpline
70
4
71
3
72
10
73
6
40
0
40
0
40
0
40
0
40
0.5
40
0.5
40
1
40
1
40
1
40
1
41
1
10
86.2991272391519
20
-83.8612508566937
30
0
41
1
10
86.9816701686461
20
-84.2691988551648
30
0
41
1
10
87.6792277739989
20
-84.6385409841953
30
0
41
1
10
89.0910005012736
20
-85.2232713810849
30
0
41
1
10
89.7765472638906
20
-85.4277651838545
30
0
41
1
10
90.450548258608
20
-85.5823788174682
30
0
0
SPLINE
5
219
100
AcDbEntity
8
1
62
256
6
ByLayer
370
18
48
1
60
0
100
AcDbSpline
70
4
71
3
72
24
73
20
40
0
40
0
40
0
40
0
40
0.125000000000032
40
0.125000000000032
40
0.250000000000063
40
0.250000000000063
40
0.312500000000044
40
0.312500000000044
40
0.375000000000023
40
0.375000000000023
40
0.500000000000345
40
0.500000000000345
40
0.562500000000305
40
0.562500000000305
40
0.625000000000266
40
0.625000000000266
40
0.750000000000159
40
0.750000000000159
40
1
40
1
40
1
40
1
41
1
10
96.7276334275714
20
130.868890548436
30
0
41
1
10
96.7148882426432
20
130.879585028408
30
0
41
1
10
96.7010012174863
20
130.889334031883
30
0
41
1
10
96.6722937308679
20
130.906015737504
30
0
41
1
10
96.6573787546943
20
130.913057026702
30
0
41
1
10
96.6341809376505
20
130.921702658865
30
0
41
1
10
96.6262728938172
20
130.924271819241
30
0
41
1
10
96.6104525294398
20
130.928682801476
30
0
41
1
10
96.6025219950655
20
130.93053504783
30
0
41
1
10
96.5786737101737
20
130.935077266892
30
0
41
1
10
96.5626995609159
20
130.936759099346
30
0
41
1
10
96.5386365300947
20
130.937312868267
30
0
41
1
10
96.5306375223332
20
130.937164218374
30
0
41
1
10
96.5148690166628
20
130.936234523422
30
0
41
1
10
96.5070708544259
20
130.935454328142
30
0
41
1
10
96.4839274412709
20
130.932206261797
30
0
41
1
10
96.4688318094173
20
130.92883607173
30
0
41
1
10
96.4245448199148
20
130.915209844552
30
0
41
1
10
96.3976117874485
20
130.901909376017
30
0
41
1
10
96.373126190023
20
130.884866451838
30
0
0
SPLINE
5
21A
100
AcDbEntity
8
1
62
256
6
ByLayer
370
18
48
1
60
0
100
AcDbSpline
70
4
71
3
72
32
73
28
40
0
40
0
40
0
40
0
40
0.0625000000000178
40
0.0625000000000178
40
0.125000000000035
40
0.125000000000035
40
0.250000000000071
40
0.250000000000071
40
0.312500000000089
40
0.312500000000089
40
0.375000000000106
40
0.437500000000124
40
0.437500000000124
40
0.500000000000142
40
0.500000000000142
40
0.56250000000016
40
0.593750000000098
40
0.593750000000098
40
0.625000000000037
40
0.625000000000037
40
0.750000000000056
40
0.750000000000056
40
0.812500000000066
40
0.812500000000066
40
0.875000000000076
40
0.875000000000076
40
1
40
1
40
1
40
1
41
1
10
96.373126190023
20
130.884866451838
30
0
41
1
10
96.3557799698277
20
130.872792810733
30
0
41
1
10
96.3378195804683
20
130.861478286493
30
0
41
1
10
96.3005991821471
20
130.840405385546
30
0
41
1
10
96.2813424648808
20
130.830658555393
30
0
41
1
10
96.2222681383137
20
130.804198560464
30
0
41
1
10
96.1809343419837
20
130.790085164554
30
0
41
1
10
96.1153894611575
20
130.774778018341
30
0
41
1
10
96.0928074068938
20
130.770651952672
30
0
41
1
10
96.0473300520269
20
130.764712457103
30
0
41
1
10
96.0013999359329
20
130.761026637871
30
0
41
1
10
95.9544836669921
20
130.762014018441
30
0
41
1
10
95.9070196047158
20
130.765516040795
30
0
41
1
10
95.8835981467249
20
130.768482302043
30
0
41
1
10
95.8373614319526
20
130.776749960012
30
0
41
1
10
95.8031365607154
20
130.784702598219
30
0
41
1
10
95.7695844531111
20
130.795264268811
30
0
41
1
10
95.7473671853992
20
130.802891835452
30
0
41
1
10
95.7362910903772
20
130.807016730093
30
0
41
1
10
95.6819936556597
20
130.828837031943
30
0
41
1
10
95.641790760358
20
130.850085576007
30
0
41
1
10
95.5855866988425
20
130.887043807884
30
0
41
1
10
95.5674549698218
20
130.900299378083
30
0
41
1
10
95.5331657790867
20
130.927981721493
30
0
41
1
10
95.5169550772432
20
130.942428302119
30
0
41
1
10
95.4708724930318
20
130.987494251277
30
0
41
1
10
95.4435234511444
20
131.019825299924
30
0
41
1
10
95.4192958113159
20
131.054425053648
30
0
0
SPLINE
5
21B
100
AcDbEntity
8
1
62
256
6
ByLayer
370
18
48
1
60
0
100
AcDbSpline
70
4
71
3
72
26
73
22
40
0
40
0
40
0
40
0
40
0.124999999999713
40
0.124999999999713
40
0.187499999999773
40
0.187499999999773
40
0.249999999999833
40
0.249999999999833
40
0.374999999999953
40
0.374999999999953
40
0.437499999999798
40
0.437499999999798
40
0.499999999999642
40
0.499999999999642
40
0.624999999999644
40
0.624999999999644
40
0.687499999999816
40
0.687499999999816
40
0.749999999999989
40
0.749999999999989
40
1
40
1
40
1
40
1
41
1
10
95.0810016704725
20
131.161605673327
30
0
41
1
10
95.0967060891095
20
131.16727203501
30
0
41
1
10
95.1127720455862
20
131.171557723552
30
0
41
1
10
95.1374117599101
20
131.175920191011
30
0
41
1
10
95.1457627277063
20
131.177031442301
30
0
41
1
10
95.1623985899956
20
131.178520055143
30
0
41
1
10
95.1706638021446
20
131.178900709567
30
0
41
1
10
95.1953079196313
20
131.17900426282
30
0
41
1
10
95.2115363670287
20
131.177695530462
30
0
41
1
10
95.2355823974413
20
131.173734421407
30
0
41
1
10
95.2435745755948
20
131.172072410121
30
0
41
1
10
95.2593385764131
20
131.168100009261
30
0
41
1
10
95.2670396959175
20
131.165810133636
30
0
41
1
10
95.2896309942444
20
131.158086293471
30
0
41
1
10
95.3040122462485
20
131.151803297961
30
0
41
1
10
95.324617956592
20
131.140789720214
30
0
41
1
10
95.3313246576851
20
131.136852280509
30
0
41
1
10
95.3444138512578
20
131.128448143328
30
0
41
1
10
95.3508115765582
20
131.123966706736
30
0
41
1
10
95.381445458615
20
131.100654048269
30
0
41
1
10
95.4021412457187
20
131.078923673782
30
0
41
1
10
95.4192958113159
20
131.054425053648
30
0
0
SPLINE
5
21C
100
AcDbEntity
8
1
62
256
6
ByLayer
370
18
48
1
60
0
100
AcDbSpline
70
4
71
3
72
26
73
22
40
0
40
0
40
0
40
0
40
0.124999999999713
40
0.124999999999713
40
0.187499999999773
40
0.187499999999773
40
0.249999999999833
40
0.249999999999833
40
0.374999999999953
40
0.374999999999953
40
0.437499999999798
40
0.437499999999798
40
0.499999999999642
40
0.499999999999642
40
0.624999999999644
40
0.624999999999644
40
0.687499999999816
40
0.687499999999816
40
0.749999999999989
40
0.749999999999989
40
1
40
1
40
1
40
1
41
1
10
96.2189983293914
20
128.007628405766
30
0
41
1
10
96.2032939107543
20
128.001962044083
30
0
41
1
10
96.1872279542778
20
127.997676355542
30
0
41
1
10
96.1625882399538
20
127.993313888082
30
0
41
1
10
96.1542372721576
20
127.992202636792
30
0
41
1
10
96.1376014098684
20
127.99071402395
30
0
41
1
10
96.1293361977192
20
127.990333369526
30
0
41
1
10
96.1046920802328
20
127.990229816273
30
0
41
1
10
96.0884636328353
20
127.991538548631
30
0
41
1
10
96.0644176024227
20
127.995499657686
30
0
41
1
10
96.0564254242693
20
127.997161668972
30
0
41
1
10
96.0406614234508
20
128.001134069832
30
0
41
1
10
96.0329603039464
20
128.003423945457
30
0
41
1
10
96.0103690056196
20
128.011147785622
30
0
41
1
10
95.9959877536156
20
128.017430781132
30
0
41
1
10
95.9753820432719
20
128.02844435888
30
0
41
1
10
95.9686753421788
20
128.032381798585
30
0
41
1
10
95.9555861486058
20
128.040785935766
30
0
41
1
10
95.9491884233055
20
128.045267372357
30
0
41
1
10
95.9185545412489
20
128.068580030824
30
0
41
1
10
95.8978587541451
20
128.090310405312
30
0
41
1
10
95.880704188548
20
128.114809025445
30
0
0
SPLINE
5
21D
100
AcDbEntity
8
1
62
256
6
ByLayer
370
18
48
1
60
0
100
AcDbSpline
70
4
71
3
72
24
73
20
40
0
40
0
40
0
40
0
40
0.125000000000529
40
0.125000000000529
40
0.250000000001058
40
0.250000000001058
40
0.312500000001286
40
0.312500000001286
40
0.375000000001515
40
0.375000000001515
40
0.500000000001536
40
0.500000000001536
40
0.562500000001347
40
0.562500000001347
40
0.625000000001158
40
0.625000000001158
40
0.750000000000754
40
0.750000000000754
40
1
40
1
40
1
40
1
41
1
10
94.5723665722924
20
128.300343530658
30
0
41
1
10
94.5851117572207
20
128.289649050685
30
0
41
1
10
94.5989987823776
20
128.27990004721
30
0
41
1
10
94.6277062689958
20
128.263218341589
30
0
41
1
10
94.6426212451696
20
128.256177052391
30
0
41
1
10
94.6658190622135
20
128.247531420228
30
0
41
1
10
94.6737271060468
20
128.244962259852
30
0
41
1
10
94.6895474704243
20
128.240551277618
30
0
41
1
10
94.6974780047981
20
128.238699031263
30
0
41
1
10
94.7213262896901
20
128.234156812202
30
0
41
1
10
94.7373004389481
20
128.232474979747
30
0
41
1
10
94.7613634697693
20
128.231921210826
30
0
41
1
10
94.7693624775308
20
128.232069860719
30
0
41
1
10
94.7851309832012
20
128.232999555671
30
0
41
1
10
94.792929145438
20
128.233779750951
30
0
41
1
10
94.8160725585929
20
128.237027817297
30
0
41
1
10
94.8311681904466
20
128.240398007364
30
0
41
1
10
94.8754551799491
20
128.254024234541
30
0
41
1
10
94.9023882124154
20
128.267324703076
30
0
41
1
10
94.9268738098409
20
128.284367627255
30
0
0
SPLINE
5
21E
100
AcDbEntity
8
1
62
256
6
ByLayer
370
18
48
1
60
0
100
AcDbSpline
70
4
71
3
72
32
73
28
40
0
40
0
40
0
40
0
40
0.0624999999998436
40
0.0624999999998436
40
0.124999999999687
40
0.124999999999687
40
0.249999999999374
40
0.249999999999374
40
0.312499999999286
40
0.312499999999286
40
0.374999999999197
40
0.437499999999108
40
0.437499999999108
40
0.499999999999019
40
0.499999999999019
40
0.56249999999893
40
0.593749999998957
40
0.593749999998957
40
0.624999999998983
40
0.624999999998983
40
0.749999999999354
40
0.749999999999354
40
0.812499999999539
40
0.812499999999539
40
0.874999999999725
40
0.874999999999725
40
1
40
1
40
1
40
1
41
1
10
94.9268738098409
20
128.284367627255
30
0
41
1
10
94.9442200300362
20
128.29644126836
30
0
41
1
10
94.9621804193957
20
128.3077557926
30
0
41
1
10
94.9994008177167
20
128.328828693547
30
0
41
1
10
95.018657534983
20
128.3385755237
30
0
41
1
10
95.0777318615501
20
128.365035518629
30
0
41
1
10
95.1190656578804
20
128.379148914539
30
0
41
1
10
95.1846105387063
20
128.394456060752
30
0
41
1
10
95.2071925929701
20
128.398582126421
30
0
41
1
10
95.2526699478371
20
128.404521621991
30
0
41
1
10
95.298600063931
20
128.408207441222
30
0
41
1
10
95.3455163328718
20
128.407220060652
30
0
41
1
10
95.3929803951481
20
128.403718038298
30
0
41
1
10
95.416401853139
20
128.40075177705
30
0
41
1
10
95.4626385679114
20
128.392484119081
30
0
41
1
10
95.4968634391486
20
128.384531480875
30
0
41
1
10
95.5304155467529
20
128.373969810283
30
0
41
1
10
95.5526328144647
20
128.366342243641
30
0
41
1
10
95.5637089094868
20
128.362217349001
30
0
41
1
10
95.6180063442042
20
128.34039704715
30
0
41
1
10
95.6582092395058
20
128.319148503087
30
0
41
1
10
95.7144133010214
20
128.282190271209
30
0
41
1
10
95.7325450300423
20
128.268934701011
30
0
41
1
10
95.766834220777
20
128.2412523576
30
0
41
1
10
95.7830449226206
20
128.226805776974
30
0
41
1
10
95.8291275068321
20
128.181739827816
30
0
41
1
10
95.8564765487195
20
128.149408779169
30
0
41
1
10
95.880704188548
20
128.114809025445
30
0
0
SPLINE
5
21F
100
AcDbEntity
8
1
62
256
6
ByLayer
370
18
48
1
60
0
100
AcDbSpline
70
4
71
3
72
24
73
20
40
0
40
0
40
0
40
0
40
0.124999999999691
40
0.124999999999691
40
0.187499999999564
40
0.187499999999564
40
0.249999999999437
40
0.249999999999437
40
0.374999999999383
40
0.374999999999383
40
0.49999999999933
40
0.49999999999933
40
0.624999999999277
40
0.624999999999277
40
0.687499999999363
40
0.687499999999363
40
0.74999999999945
40
0.74999999999945
40
1
40
1
40
1
40
1
41
1
10
97.3018361558971
20
129.298104275701
30
0
41
1
10
97.298953714648
20
129.281486095734
30
0
41
1
10
97.2946672053154
20
129.265260287098
30
0
41
1
10
97.2861472033396
20
129.24150596786
30
0
41
1
10
97.2829393649998
20
129.233648777528
30
0
41
1
10
97.2758859056605
20
129.21831467156
30
0
41
1
10
97.2720651188559
20
129.21088192335
30
0
41
1
10
97.2597658178087
20
129.1892518667
30
0
41
1
10
97.2504558826739
20
129.17571824553
30
0
41
1
10
97.2297008647636
20
129.150364731727
30
0
41
1
10
97.2181532793559
20
129.138490188677
30
0
41
1
10
97.1939433995843
20
129.117377760578
30
0
41
1
10
97.1811900377252
20
129.108002246905
30
0
41
1
10
97.1611605612005
20
129.095601977023
30
0
41
1
10
97.1543333464487
20
129.091747210162
30
0
41
1
10
97.1403808039742
20
129.084593369211
30
0
41
1
10
97.1332314782142
20
129.081286824577
30
0
41
1
10
97.0973714491349
20
129.066404448057
30
0
41
1
10
97.0679311878742
20
129.059425876608
30
0
41
1
10
97.0378754343722
20
129.056973820784
30
0
0
SPLINE
5
220
100
AcDbEntity
8
1
62
256
6
ByLayer
370
18
48
1
60
0
100
AcDbSpline
70
4
71
3
72
22
73
18
40
0
40
0
40
0
40
0
40
0.124999999999905
40
0.124999999999905
40
0.24999999999981
40
0.24999999999981
40
0.312499999999984
40
0.312499999999984
40
0.375000000000157
40
0.375000000000157
40
0.500000000000089
40
0.500000000000089
40
0.625000000000021
40
0.625000000000021
40
0.749999999999954
40
0.749999999999954
40
1
40
1
40
1
40
1
41
1
10
96.2189983293914
20
128.007628405766
30
0
41
1
10
96.2347979950458
20
128.013329133832
30
0
41
1
10
96.2503465272965
20
128.020519533827
30
0
41
1
10
96.2794360103433
20
128.03716100195
30
0
41
1
10
96.2931235241934
20
128.046640943506
30
0
41
1
10
96.3123882138044
20
128.062570051539
30
0
41
1
10
96.3186208195758
20
128.068192386786
30
0
41
1
10
96.3304384638101
20
128.079802163642
30
0
41
1
10
96.3360471864071
20
128.085805329261
30
0
41
1
10
96.352009912488
20
128.10438311402
30
0
41
1
10
96.3615060398986
20
128.117522450697
30
0
41
1
10
96.3782529470229
20
128.145265390389
30
0
41
1
10
96.3853208189253
20
128.159577862252
30
0
41
1
10
96.3969577573485
20
128.188771455964
30
0
41
1
10
96.4015536539447
20
128.203718844012
30
0
41
1
10
96.4116896407632
20
128.24930075465
30
0
41
1
10
96.4134266798708
20
128.279498877169
30
0
41
1
10
96.410629172613
20
128.309450834891
30
0
0
SPLINE
5
221
100
AcDbEntity
8
1
62
256
6
ByLayer
370
18
48
1
60
0
100
AcDbSpline
70
4
71
3
72
18
73
14
40
0
40
0
40
0
40
0
40
0.124999999999961
40
0.124999999999961
40
0.249999999999923
40
0.249999999999923
40
0.5
40
0.5
40
0.625000000000038
40
0.625000000000038
40
0.750000000000077
40
0.750000000000077
40
1
40
1
40
1
40
1
41
1
10
96.410629172613
20
128.309450834891
30
0
41
1
10
96.4089367102269
20
128.327571453415
30
0
41
1
10
96.4079585264329
20
128.345816304396
30
0
41
1
10
96.4074736522201
20
128.382581870615
30
0
41
1
10
96.4079712626827
20
128.401080687647
30
0
41
1
10
96.4117219856972
20
128.456511570979
30
0
41
1
10
96.4172040209156
20
128.49353882249
30
0
41
1
10
96.4303747808058
20
128.549367667414
30
0
41
1
10
96.4356303176992
20
128.568122011101
30
0
41
1
10
96.4477455401737
20
128.605138445699
30
0
41
1
10
96.4546004699667
20
128.623422721708
30
0
41
1
10
96.4776235662447
20
128.677614123283
30
0
41
1
10
96.4962219142939
20
128.71286860486
30
0
41
1
10
96.5185373765374
20
128.747189385693
30
0
0
SPLINE
5
222
100
AcDbEntity
8
1
62
256
6
ByLayer
370
18
48
1
60
0
100
AcDbSpline
70
4
71
3
72
16
73
12
40
0
40
0
40
0
40
0
40
0.124999999999896
40
0.124999999999896
40
0.249999999999791
40
0.249999999999791
40
0.499999999999861
40
0.499999999999861
40
0.74999999999993
40
0.74999999999993
40
1
40
1
40
1
40
1
41
1
10
96.6255251787173
20
128.874692483304
30
0
41
1
10
96.640490559171
20
128.88866357497
30
0
41
1
10
96.656032531543
20
128.901912082563
30
0
41
1
10
96.6878601115461
20
128.926718514913
30
0
41
1
10
96.7040815882058
20
128.938236354631
30
0
41
1
10
96.7536268118056
20
128.970342582739
30
0
41
1
10
96.7878239902009
20
128.988504178154
30
0
41
1
10
96.8585516124518
20
129.018847889648
30
0
41
1
10
96.8941207408598
20
129.030616947001
30
0
41
1
10
96.9656328668723
20
129.04819859283
30
0
41
1
10
97.0016092119111
20
129.054015092699
30
0
41
1
10
97.0378754343722
20
129.056973820784
30
0
0
SPLINE
5
223
100
AcDbEntity
8
1
62
256
6
ByLayer
370
18
48
1
60
0
100
AcDbSpline
70
4
71
3
72
18
73
14
40
0
40
0
40
0
40
0
40
0.124999999999961
40
0.124999999999961
40
0.249999999999922
40
0.249999999999922
40
0.499999999999998
40
0.499999999999998
40
0.625000000000037
40
0.625000000000037
40
0.750000000000075
40
0.750000000000075
40
1
40
1
40
1
40
1
41
1
10
94.8893708272508
20
130.859783244202
30
0
41
1
10
94.8910632896371
20
130.841662625678
30
0
41
1
10
94.8920414734312
20
130.823417774697
30
0
41
1
10
94.8925263476436
20
130.786652208478
30
0
41
1
10
94.8920287371813
20
130.768153391446
30
0
41
1
10
94.8882780141667
20
130.712722508114
30
0
41
1
10
94.8827959789483
20
130.675695256603
30
0
41
1
10
94.869625219058
20
130.619866411679
30
0
41
1
10
94.8643696821646
20
130.601112067992
30
0
41
1
10
94.8522544596902
20
130.564095633394
30
0
41
1
10
94.8453995298972
20
130.545811357385
30
0
41
1
10
94.8223764336191
20
130.49161995581
30
0
41
1
10
94.8037780855701
20
130.456365474233
30
0
41
1
10
94.7814626233265
20
130.4220446934
30
0
0
SPLINE
5
224
100
AcDbEntity
8
1
62
256
6
ByLayer
370
18
48
1
60
0
100
AcDbSpline
70
4
71
3
72
16
73
12
40
0
40
0
40
0
40
0
40
0.124999999999896
40
0.124999999999896
40
0.249999999999792
40
0.249999999999792
40
0.499999999999861
40
0.499999999999861
40
0.749999999999931
40
0.749999999999931
40
1
40
1
40
1
40
1
41
1
10
94.6744748211466
20
130.294541595789
30
0
41
1
10
94.6595094406929
20
130.280570504123
30
0
41
1
10
94.6439674683211
20
130.267321996531
30
0
41
1
10
94.6121398883177
20
130.24251556418
30
0
41
1
10
94.595918411658
20
130.230997724462
30
0
41
1
10
94.5463731880583
20
130.198891496354
30
0
41
1
10
94.5121760096632
20
130.18072990094
30
0
41
1
10
94.4414483874121
20
130.150386189445
30
0
41
1
10
94.4058792590043
20
130.138617132092
30
0
41
1
10
94.3343671329915
20
130.121035486263
30
0
41
1
10
94.2983907879529
20
130.115218986394
30
0
41
1
10
94.2621245654917
20
130.112260258309
30
0
0
SPLINE
5
225
100
AcDbEntity
8
1
62
256
6
ByLayer
370
18
48
1
60
0
100
AcDbSpline
70
4
71
3
72
24
73
20
40
0
40
0
40
0
40
0
40
0.124999999999691
40
0.124999999999691
40
0.187499999999563
40
0.187499999999563
40
0.249999999999436
40
0.249999999999436
40
0.374999999999382
40
0.374999999999382
40
0.499999999999329
40
0.499999999999329
40
0.624999999999275
40
0.624999999999275
40
0.687499999999362
40
0.687499999999362
40
0.74999999999945
40
0.74999999999945
40
1
40
1
40
1
40
1
41
1
10
93.9981638439668
20
129.871129803392
30
0
41
1
10
94.0010462852158
20
129.887747983359
30
0
41
1
10
94.0053327945485
20
129.903973791995
30
0
41
1
10
94.0138527965244
20
129.927728111233
30
0
41
1
10
94.0170606348643
20
129.935585301565
30
0
41
1
10
94.0241140942034
20
129.950919407533
30
0
41
1
10
94.027934881008
20
129.958352155743
30
0
41
1
10
94.0402341820553
20
129.979982212393
30
0
41
1
10
94.04954411719
20
129.993515833563
30
0
41
1
10
94.0702991351005
20
130.018869347367
30
0
41
1
10
94.0818467205079
20
130.030743890416
30
0
41
1
10
94.1060566002796
20
130.051856318516
30
0
41
1
10
94.1188099621388
20
130.061231832188
30
0
41
1
10
94.1388394386635
20
130.07363210207
30
0
41
1
10
94.1456666534152
20
130.077486868931
30
0
41
1
10
94.1596191958895
20
130.084640709883
30
0
41
1
10
94.1667685216497
20
130.087947254517
30
0
41
1
10
94.2026285507289
20
130.102829631036
30
0
41
1
10
94.2320688119898
20
130.109808202485
30
0
41
1
10
94.2621245654917
20
130.112260258309
30
0
0
SPLINE
5
226
100
AcDbEntity
8
1
62
256
6
ByLayer
370
18
48
1
60
0
100
AcDbSpline
70
4
71
3
72
22
73
18
40
0
40
0
40
0
40
0
40
0.125000000000374
40
0.125000000000374
40
0.250000000000747
40
0.250000000000747
40
0.312500000000842
40
0.312500000000842
40
0.375000000000937
40
0.375000000000937
40
0.500000000000713
40
0.500000000000713
40
0.625000000000488
40
0.625000000000488
40
0.750000000000264
40
0.750000000000264
40
1
40
1
40
1
40
1
41
1
10
95.0810016704725
20
131.161605673327
30
0
41
1
10
95.0652020048181
20
131.155904945262
30
0
41
1
10
95.0496534725675
20
131.148714545267
30
0
41
1
10
95.0205639895204
20
131.132073077143
30
0
41
1
10
95.0068764756705
20
131.122593135588
30
0
41
1
10
94.9876117860599
20
131.106664027554
30
0
41
1
10
94.9813791802881
20
131.101041692308
30
0
41
1
10
94.9695615360537
20
131.089431915451
30
0
41
1
10
94.9639528134567
20
131.083428749832
30
0
41
1
10
94.947990087376
20
131.064850965073
30
0
41
1
10
94.9384939599655
20
131.051711628397
30
0
41
1
10
94.9217470528411
20
131.023968688704
30
0
41
1
10
94.9146791809388
20
131.009656216842
30
0
41
1
10
94.9030422425151
20
130.980462623129
30
0
41
1
10
94.898446345919
20
130.965515235081
30
0
41
1
10
94.8883103591007
20
130.919933324443
30
0
41
1
10
94.886573319993
20
130.889735201925
30
0
41
1
10
94.8893708272508
20
130.859783244202
30
0
0
SPLINE
5
227
100
AcDbEntity
8
1
62
256
6
ByLayer
370
18
48
1
60
0
100
AcDbSpline
70
4
71
3
72
20
73
16
40
0
40
0
40
0
40
0
40
0.125000000000132
40
0.125000000000132
40
0.250000000000263
40
0.250000000000263
40
0.312500000000329
40
0.312500000000329
40
0.375000000000395
40
0.375000000000395
40
0.500000000000393
40
0.500000000000393
40
0.750000000000196
40
0.750000000000196
40
1
40
1
40
1
40
1
41
1
10
93.9981638439668
20
129.871129803392
30
0
41
1
10
93.9953180448777
20
129.854722876996
30
0
41
1
10
93.9938680015768
20
129.83781753094
30
0
41
1
10
93.9938681653877
20
129.804633971281
30
0
41
1
10
93.9952722807319
20
129.788195696766
30
0
41
1
10
93.9994581469679
20
129.763767656024
30
0
41
1
10
94.0012117426473
20
129.755636981395
30
0
41
1
10
94.0053436024392
20
129.739757420783
30
0
41
1
10
94.0077253982252
20
129.731974119997
30
0
41
1
10
94.0157791919694
20
129.70907618732
30
0
41
1
10
94.0223539084444
20
129.694410610715
30
0
41
1
10
94.0456116864496
20
129.65219013392
30
0
41
1
10
94.0650582539609
20
129.627680641497
30
0
41
1
10
94.1104178460553
20
129.585781949611
30
0
41
1
10
94.1354212895629
20
129.569195735525
30
0
41
1
10
94.1624603102723
20
129.556586829979
30
0
0
SPLINE
5
228
100
AcDbEntity
8
1
62
256
6
ByLayer
370
18
48
1
60
0
100
AcDbSpline
70
4
71
3
72
32
73
28
40
0
40
0
40
0
40
0
40
0.0624999999999234
40
0.0624999999999234
40
0.124999999999847
40
0.124999999999847
40
0.249999999999841
40
0.249999999999841
40
0.312499999999912
40
0.312499999999912
40
0.374999999999982
40
0.437500000000053
40
0.437500000000053
40
0.500000000000123
40
0.500000000000123
40
0.562500000000194
40
0.593750000000229
40
0.593750000000229
40
0.625000000000264
40
0.625000000000264
40
0.750000000000233
40
0.750000000000233
40
0.812500000000183
40
0.812500000000183
40
0.875000000000133
40
0.875000000000133
40
1
40
1
40
1
40
1
41
1
10
94.1624603102724
20
129.556586829979
30
0
41
1
10
94.1816145003286
20
129.547654798904
30
0
41
1
10
94.2004209051334
20
129.53781034927
30
0
41
1
10
94.237341175731
20
129.516215932815
30
0
41
1
10
94.2554434047664
20
129.50446301061
30
0
41
1
10
94.3080012372155
20
129.466679657814
30
0
41
1
10
94.3409707653071
20
129.438032129282
30
0
41
1
10
94.387136446916
20
129.389050807584
30
0
41
1
10
94.4020495104484
20
129.371598755426
30
0
41
1
10
94.430033450756
20
129.335261907018
30
0
41
1
10
94.4562962758353
20
129.297401309191
30
0
41
1
10
94.4790139846314
20
129.256340173478
30
0
41
1
10
94.4998326861768
20
129.213542008378
30
0
41
1
10
94.5090352635814
20
129.191800894144
30
0
41
1
10
94.5251168320501
20
129.147669599732
30
0
41
1
10
94.5354358476878
20
129.114082337712
30
0
41
1
10
94.5431610176802
20
129.079765949431
30
0
41
1
10
94.5477283019682
20
129.056724103995
30
0
41
1
10
94.5497266009807
20
129.045075008295
30
0
41
1
10
94.5581400155557
20
128.987165150525
30
0
41
1
10
94.5599664824968
20
128.941729069684
30
0
41
1
10
94.5562491548538
20
128.874565174932
30
0
41
1
10
94.5538976820204
20
128.852228203361
30
0
41
1
10
94.5471901816219
20
128.808672833353
30
0
41
1
10
94.5428437767928
20
128.787398451539
30
0
41
1
10
94.5270311203436
20
128.724912419013
30
0
41
1
10
94.5128173921791
20
128.685022110904
30
0
41
1
10
94.4950738429898
20
128.646690820182
30
0
0
SPLINE
5
229
100
AcDbEntity
8
1
62
256
6
ByLayer
370
18
48
1
60
0
100
AcDbSpline
70
4
71
3
72
26
73
22
40
0
40
0
40
0
40
0
40
0.124999999999719
40
0.124999999999719
40
0.187499999999579
40
0.187499999999579
40
0.249999999999439
40
0.249999999999439
40
0.374999999999545
40
0.374999999999545
40
0.43749999999962
40
0.43749999999962
40
0.499999999999696
40
0.499999999999696
40
0.624999999999847
40
0.624999999999847
40
0.687499999999825
40
0.687499999999825
40
0.749999999999802
40
0.749999999999802
40
1
40
1
40
1
40
1
41
1
10
94.5723665722924
20
128.300343530658
30
0
41
1
10
94.5595771526409
20
128.31107512797
30
0
41
1
10
94.5477998584558
20
128.322812990829
30
0
41
1
10
94.5316485973283
20
128.34192537862
30
0
41
1
10
94.5264921307875
20
128.348587539323
30
0
41
1
10
94.5168469333377
20
128.362223450812
30
0
41
1
10
94.512365244783
20
128.369178528326
30
0
41
1
10
94.4998941418158
20
128.390434465696
30
0
41
1
10
94.4928722958692
20
128.405123541983
30
0
41
1
10
94.4842160970914
20
128.427904502107
30
0
41
1
10
94.4816377287682
20
128.43564977111
30
0
41
1
10
94.4771523062252
20
128.451275541848
30
0
41
1
10
94.4752630379693
20
128.459084603512
30
0
41
1
10
94.4705910755943
20
128.482498216554
30
0
41
1
10
94.4687981688424
20
128.498089301501
30
0
41
1
10
94.4679681904861
20
128.521438933302
30
0
41
1
10
94.4680030607925
20
128.529215953981
30
0
41
1
10
94.4686932989493
20
128.544755582579
30
0
41
1
10
94.4693537574749
20
128.552538766981
30
0
41
1
10
94.4741195923689
20
128.590738266151
30
0
41
1
10
94.4825103876832
20
128.619550057492
30
0
41
1
10
94.4950738429898
20
128.646690820182
30
0
0
SPLINE
5
22A
100
AcDbEntity
8
1
62
256
6
ByLayer
370
18
48
1
60
0
100
AcDbSpline
70
4
71
3
72
20
73
16
40
0
40
0
40
0
40
0
40
0.125000000000133
40
0.125000000000133
40
0.250000000000265
40
0.250000000000265
40
0.312500000000331
40
0.312500000000331
40
0.375000000000398
40
0.375000000000398
40
0.500000000000394
40
0.500000000000394
40
0.750000000000197
40
0.750000000000197
40
1
40
1
40
1
40
1
41
1
10
97.3018361558971
20
129.298104275701
30
0
41
1
10
97.3046819549862
20
129.314511202097
30
0
41
1
10
97.306131998287
20
129.331416548153
30
0
41
1
10
97.3061318344762
20
129.364600107812
30
0
41
1
10
97.304727719132
20
129.381038382327
30
0
41
1
10
97.3005418528958
20
129.40546642307
30
0
41
1
10
97.2987882572168
20
129.413597097698
30
0
41
1
10
97.2946563974247
20
129.42947665831
30
0
41
1
10
97.2922746016387
20
129.437259959097
30
0
41
1
10
97.2842208078947
20
129.460157891773
30
0
41
1
10
97.2776460914197
20
129.474823468379
30
0
41
1
10
97.2543883134143
20
129.517043945173
30
0
41
1
10
97.234941745903
20
129.541553437597
30
0
41
1
10
97.1895821538085
20
129.583452129483
30
0
41
1
10
97.164578710301
20
129.600038343569
30
0
41
1
10
97.1375396895916
20
129.612647249114
30
0
0
SPLINE
5
22B
100
AcDbEntity
8
1
62
256
6
ByLayer
370
18
48
1
60
0
100
AcDbSpline
70
4
71
3
72
32
73
28
40
0
40
0
40
0
40
0
40
0.062499999999856
40
0.062499999999856
40
0.124999999999712
40
0.124999999999712
40
0.249999999999493
40
0.249999999999493
40
0.312499999999457
40
0.312499999999457
40
0.374999999999421
40
0.437499999999384
40
0.437499999999384
40
0.499999999999348
40
0.499999999999348
40
0.562499999999312
40
0.59374999999933
40
0.59374999999933
40
0.624999999999347
40
0.624999999999347
40
0.749999999999529
40
0.749999999999529
40
0.812499999999655
40
0.812499999999655
40
0.874999999999781
40
0.874999999999781
40
1
40
1
40
1
40
1
41
1
10
97.1375396895916
20
129.612647249114
30
0
41
1
10
97.1183854995355
20
129.621579280189
30
0
41
1
10
97.0995790947305
20
129.631423729823
30
0
41
1
10
97.0626588241328
20
129.653018146278
30
0
41
1
10
97.0445565950974
20
129.664771068483
30
0
41
1
10
96.9919987626484
20
129.702554421279
30
0
41
1
10
96.9590292345568
20
129.731201949811
30
0
41
1
10
96.9128635529478
20
129.780183271509
30
0
41
1
10
96.8979504894153
20
129.797635323667
30
0
41
1
10
96.869966549108
20
129.833972172075
30
0
41
1
10
96.843703172569
20
129.871832371523
30
0
41
1
10
96.8209860152322
20
129.912893905615
30
0
41
1
10
96.8001673136869
20
129.955692070715
30
0
41
1
10
96.7909647362824
20
129.977433184949
30
0
41
1
10
96.7748831678138
20
130.021564479362
30
0
41
1
10
96.7645641521761
20
130.055151741381
30
0
41
1
10
96.7568389821836
20
130.089468129662
30
0
41
1
10
96.7522716978958
20
130.112509975098
30
0
41
1
10
96.7502733988832
20
130.124159070798
30
0
41
1
10
96.7418599843084
20
130.182068928568
30
0
41
1
10
96.740033517367
20
130.227505009409
30
0
41
1
10
96.7437508450103
20
130.294668904161
30
0
41
1
10
96.7461023178433
20
130.317005875732
30
0
41
1
10
96.7528098182419
20
130.360561245741
30
0
41
1
10
96.757156223071
20
130.381835627554
30
0
41
1
10
96.7729688795203
20
130.44432166008
30
0
41
1
10
96.7871826076849
20
130.48421196819
30
0
41
1
10
96.804926156874
20
130.522543258911
30
0
0
SPLINE
5
22C
100
AcDbEntity
8
1
62
256
6
ByLayer
370
18
48
1
60
0
100
AcDbSpline
70
4
71
3
72
26
73
22
40
0
40
0
40
0
40
0
40
0.124999999999596
40
0.124999999999596
40
0.187499999999394
40
0.187499999999394
40
0.249999999999192
40
0.249999999999192
40
0.374999999999174
40
0.374999999999174
40
0.437499999999188
40
0.437499999999188
40
0.499999999999201
40
0.499999999999201
40
0.62499999999923
40
0.62499999999923
40
0.687499999999343
40
0.687499999999343
40
0.749999999999455
40
0.749999999999455
40
1
40
1
40
1
40
1
41
1
10
96.7276334275714
20
130.868890548436
30
0
41
1
10
96.7404228472231
20
130.858158951123
30
0
41
1
10
96.7522001414082
20
130.846421088264
30
0
41
1
10
96.7683514025355
20
130.827308700473
30
0
41
1
10
96.7735078690764
20
130.82064653977
30
0
41
1
10
96.7831530665263
20
130.807010628281
30
0
41
1
10
96.787634755081
20
130.800055550767
30
0
41
1
10
96.8001058580482
20
130.778799613397
30
0
41
1
10
96.8071277039948
20
130.76411053711
30
0
41
1
10
96.8157839027724
20
130.741329576986
30
0
41
1
10
96.8183622710957
20
130.733584307983
30
0
41
1
10
96.8228476936387
20
130.717958537245
30
0
41
1
10
96.8247369618946
20
130.710149475581
30
0
41
1
10
96.8294089242696
20
130.686735862539
30
0
41
1
10
96.8312018310216
20
130.671144777592
30
0
41
1
10
96.8320318093777
20
130.647795145791
30
0
41
1
10
96.8319969390714
20
130.640018125112
30
0
41
1
10
96.8313067009147
20
130.624478496514
30
0
41
1
10
96.8306462423889
20
130.616695312112
30
0
41
1
10
96.825880407495
20
130.578495812942
30
0
41
1
10
96.8174896121807
20
130.549684021602
30
0
41
1
10
96.804926156874
20
130.522543258911
30
0
0
SPLINE
5
22D
100
AcDbEntity
8
1
62
256
6
ByLayer
370
18
48
1
60
0
100
AcDbSpline
70
4
71
3
72
10
73
6
40
0
40
0
40
0
40
0
40
0.5
40
0.5
40
1
40
1
40
1
40
1
41
1
10
88.5383517230018
20
123.828927011182
30
0
41
1
10
88.497846964207
20
123.775885595614
30
0
41
1
10
88.4599853447588
20
123.720026895151
30
0
41
1
10
88.3901716941442
20
123.602635750499
30
0
41
1
10
88.3582187295861
20
123.541103413517
30
0
41
1
10
88.3296383471023
20
123.476704326999
30
0
0
SPLINE
5
22E
100
AcDbEntity
8
1
62
256
6
ByLayer
370
18
48
1
60
0
100
AcDbSpline
70
4
71
3
72
8
73
4
40
0
40
0
40
0
40
0
40
1
40
1
40
1
40
1
41
1
10
39.9601704003442
20
-110.896807170391
30
0
41
1
10
39.9554624820161
20
-110.75918396277
30
0
41
1
10
39.9514671599337
20
-110.649353556214
30
0
41
1
10
39.9482398707108
20
-110.568496273848
30
0
0
SPLINE
5
22F
100
AcDbEntity
8
1
62
256
6
ByLayer
370
18
48
1
60
0
100
AcDbSpline
70
4
71
3
72
8
73
4
40
0
40
0
40
0
40
0
40
1
40
1
40
1
40
1
41
1
10
35.9042311699222
20
-111.008407702088
30
0
41
1
10
35.8959337973507
20
-110.765856547087
30
0
41
1
10
35.8898498602852
20
-110.609634183556
30
0
41
1
10
35.8862828398676
20
-110.546202149902
30
0
0
SPLINE
5
230
100
AcDbEntity
8
1
62
256
6
ByLayer
370
18
48
1
60
0
100
AcDbSpline
70
4
71
3
72
10
73
6
40
0
40
0
40
0
40
0
40
0.464334219292795
40
0.464334219292795
40
1
40
1
40
1
40
1
41
1
10
37.9429324151896
20
-111.194339694704
30
0
41
1
10
38.2444355471949
20
-111.049740999437
30
0
41
1
10
38.5589521377933
20
-110.935050013365
30
0
41
1
10
39.2386372388045
20
-110.81646070621
30
0
41
1
10
39.6076030819546
20
-110.833759401929
30
0
41
1
10
39.9601704003443
20
-110.896807170389
30
0
0
SPLINE
5
231
100
AcDbEntity
8
1
62
256
6
ByLayer
370
18
48
1
60
0
100
AcDbSpline
70
4
71
3
72
10
73
6
40
0
40
0
40
0
40
0
40
0.46433421929278
40
0.46433421929278
40
1
40
1
40
1
40
1
41
1
10
37.9429324151898
20
-111.194339694704
30
0
41
1
10
37.6328544159132
20
-111.066568859903
30
0
41
1
10
37.3113304330167
20
-110.969378744073
30
0
41
1
10
36.6234305535272
20
-110.888418997495
30
0
41
1
10
36.254383103751
20
-110.926024377118
30
0
41
1
10
35.904231169922
20
-111.008407702086
30
0
0
LINE
5
71
100
AcDbEntity
8
SK4
62
256
6
ByLayer
370
13
48
0.05
60
0
100
AcDbLine
10
-11.7
20
0
30
0
11
58.3
21
0
31
0
39
0
210
0
220
0
230
1
0
LINE
5
73
100
AcDbEntity
8
80
62
256
6
ByLayer
370
13
48
0.05
60
0
100
AcDbLine
10
0
20
0
30
0
11
-32
21
0
31
0
39
0
210
0
220
0
230
1
0
LINE
5
74
100
AcDbEntity
8
SK3
62
256
6
ByLayer
370
13
48
0.05
60
0
100
AcDbLine
10
1E-06
20
-20.60625
30
0
11
1.039231
21
-20.00625
31
0
39
0
210
0
220
0
230
1
0
LINE
5
76
100
AcDbEntity
8
SK3
62
256
6
ByLayer
370
13
48
0.05
60
0
100
AcDbLine
10
1.039231
20
20.00625
30
0
11
1E-06
21
20.60625
31
0
39
0
210
0
220
0
230
1
0
LINE
5
77
100
AcDbEntity
8
SK3
62
256
6
ByLayer
370
13
48
0.05
60
0
100
AcDbLine
10
1.039231
20
20.00625
30
0
11
1.039231
21
-20.00625
31
0
39
0
210
0
220
0
230
1
0
LINE
5
78
100
AcDbEntity
8
SK3
62
256
6
ByLayer
370
13
48
0.05
60
0
100
AcDbLine
10
19.500001
20
20.2
30
0
11
19.500001
21
-20.2
31
0
39
0
210
0
220
0
230
1
0
LINE
5
79
100
AcDbEntity
8
SK3
62
256
6
ByLayer
370
13
48
0.05
60
0
100
AcDbLine
10
20.300001
20
-21
30
0
11
27.700001
21
-21
31
0
39
0
210
0
220
0
230
1
0
LINE
5
7A
100
AcDbEntity
8
SK3
62
256
6
ByLayer
370
13
48
0.05
60
0
100
AcDbLine
10
20.300001
20
21
30
0
11
20.300001
21
-21
31
0
39
0
210
0
220
0
230
1
0
LINE
5
7B
100
AcDbEntity
8
SK3
62
256
6
ByLayer
370
13
48
0.05
60
0
100
AcDbLine
10
28.500001
20
20.2
30
0
11
28.500001
21
-20.2
31
0
39
0
210
0
220
0
230
1
0
LINE
5
7C
100
AcDbEntity
8
SK3
62
256
6
ByLayer
370
13
48
0.05
60
0
100
AcDbLine
10
27.700001
20
21
30
0
11
27.700001
21
-21
31
0
39
0
210
0
220
0
230
1
0
LINE
5
7D
100
AcDbEntity
8
SK3
62
256
6
ByLayer
370
13
48
0.05
60
0
100
AcDbLine
10
27.700001
20
21
30
0
11
20.300001
21
21
31
0
39
0
210
0
220
0
230
1
0
LINE
5
7E
100
AcDbEntity
8
SK3
62
256
6
ByLayer
370
13
48
0.05
60
0
100
AcDbLine
10
1.039231
20
-20.00625
30
0
11
19.500001
21
-20.00625
31
0
39
0
210
0
220
0
230
1
0
LINE
5
7F
100
AcDbEntity
8
SK3
62
256
6
ByLayer
370
13
48
0.05
60
0
100
AcDbLine
10
19.500001
20
20.00625
30
0
11
1.039231
21
20.00625
31
0
39
0
210
0
220
0
230
1
0
LINE
5
80
100
AcDbEntity
8
4
62
256
6
ByLayer
370
13
48
0.05
60
0
100
AcDbLine
10
0.3
20
0
30
0
11
50.000001
21
0
31
0
39
0
210
0
220
0
230
1
0
LINE
5
82
100
AcDbEntity
8
2
62
256
6
ByLayer
370
13
48
1
60
0
100
AcDbLine
10
104
20
136.99997
30
0
11
119
21
136.99997
31
0
39
0
210
0
220
0
230
1
0
LINE
5
84
100
AcDbEntity
8
2
62
256
6
ByLayer
370
13
48
1
60
0
100
AcDbLine
10
104
20
136.99997
30
0
11
119
21
136.99997
31
0
39
0
210
0
220
0
230
1
0
LINE
5
85
100
AcDbEntity
8
81
62
256
6
ByLayer
370
18
48
1
60
0
100
AcDbLine
10
102.000001
20
-137.000068
30
0
11
105.000001
21
-137.000068
31
0
39
0
210
0
220
0
230
1
0
LINE
5
86
100
AcDbEntity
8
81
62
256
6
ByLayer
370
18
48
1
60
0
100
AcDbLine
10
102
20
136.99997
30
0
11
105
21
136.99997
31
0
39
0
210
0
220
0
230
1
0
LINE
5
87
100
AcDbEntity
8
SK1
62
256
6
ByLayer
370
18
48
1
60
0
100
AcDbLine
10
-16
20
28.508511
30
0
11
0.000223
21
28.508511
31
0
39
0
210
0
220
0
230
1
0
LINE
5
89
100
AcDbEntity
8
SK1
62
256
6
ByLayer
370
18
48
1
60
0
100
AcDbLine
10
-16
20
18.655511
30
0
11
0.000223
21
18.655511
31
0
39
0
210
0
220
0
230
1
0
LINE
5
8A
100
AcDbEntity
8
SK1
62
256
6
ByLayer
370
18
48
1
60
0
100
AcDbLine
10
-16
20
-18.655511
30
0
11
0.000223
21
-18.655511
31
0
39
0
210
0
220
0
230
1
0
LINE
5
8B
100
AcDbEntity
8
SK1
62
256
6
ByLayer
370
18
48
1
60
0
100
AcDbLine
10
-16
20
-28.508511
30
0
11
0.000223
21
-28.508511
31
0
39
0
210
0
220
0
230
1
0
LINE
5
8C
100
AcDbEntity
8
SK1
62
256
6
ByLayer
370
18
48
1
60
0
100
AcDbLine
10
-14.9265
20
17.582011
30
0
11
0.000348
21
17.582011
31
0
39
0
210
0
220
0
230
1
0
LINE
5
8D
100
AcDbEntity
8
SK1
62
256
6
ByLayer
370
18
48
1
60
0
100
AcDbLine
10
-14.9265
20
29.582011
30
0
11
-16
21
28.508511
31
0
39
0
210
0
220
0
230
1
0
LINE
5
8E
100
AcDbEntity
8
SK1
62
256
6
ByLayer
370
18
48
1
60
0
100
AcDbLine
10
0.000348
20
29.582011
30
0
11
-14.9265
21
29.582011
31
0
39
0
210
0
220
0
230
1
0
LINE
5
8F
100
AcDbEntity
8
SK1
62
256
6
ByLayer
370
18
48
1
60
0
100
AcDbLine
10
-14.9265
20
-29.582011
30
0
11
0.000348
21
-29.582011
31
0
39
0
210
0
220
0
230
1
0
LINE
5
90
100
AcDbEntity
8
SK1
62
256
6
ByLayer
370
18
48
1
60
0
100
AcDbLine
10
-14.9265
20
-17.582011
30
0
11
-16
21
-18.655511
31
0
39
0
210
0
220
0
230
1
0
LINE
5
91
100
AcDbEntity
8
SK1
62
256
6
ByLayer
370
18
48
1
60
0
100
AcDbLine
10
0.000348
20
-17.582011
30
0
11
-14.9265
21
-17.582011
31
0
39
0
210
0
220
0
230
1
0
LINE
5
92
100
AcDbEntity
8
SK1
62
256
6
ByLayer
370
18
48
1
60
0
100
AcDbLine
10
-16
20
-28.508511
30
0
11
-14.9265
21
-29.582011
31
0
39
0
210
0
220
0
230
1
0
LINE
5
93
100
AcDbEntity
8
SK1
62
256
6
ByLayer
370
18
48
1
60
0
100
AcDbLine
10
-16
20
18.655511
30
0
11
-14.9265
21
17.582011
31
0
39
0
210
0
220
0
230
1
0
LINE
5
94
100
AcDbEntity
8
SK1
62
256
6
ByLayer
370
18
48
1
60
0
100
AcDbLine
10
-16
20
28.508511
30
0
11
-16
21
18.655511
31
0
39
0
210
0
220
0
230
1
0
LINE
5
95
100
AcDbEntity
8
SK1
62
256
6
ByLayer
370
18
48
1
60
0
100
AcDbLine
10
-14.9265
20
-29.582011
30
0
11
-14.9265
21
-23.582011
31
0
39
0
210
0
220
0
230
1
0
LINE
5
96
100
AcDbEntity
8
SK1
62
256
6
ByLayer
370
18
48
1
60
0
100
AcDbLine
10
-14.9265
20
-23.582011
30
0
11
-14.9265
21
-17.582011
31
0
39
0
210
0
220
0
230
1
0
LINE
5
97
100
AcDbEntity
8
SK1
62
256
6
ByLayer
370
18
48
1
60
0
100
AcDbLine
10
-14.9265
20
29.582011
30
0
11
-14.9265
21
17.582011
31
0
39
0
210
0
220
0
230
1
0
LINE
5
98
100
AcDbEntity
8
SK1
62
256
6
ByLayer
370
18
48
1
60
0
100
AcDbLine
10
-16
20
-18.655511
30
0
11
-16
21
-23.582011
31
0
39
0
210
0
220
0
230
1
0
LINE
5
99
100
AcDbEntity
8
SK1
62
256
6
ByLayer
370
18
48
1
60
0
100
AcDbLine
10
-16
20
-23.582011
30
0
11
-16
21
-28.508511
31
0
39
0
210
0
220
0
230
1
0
LINE
5
9A
100
AcDbEntity
8
1
62
256
6
ByLayer
370
18
48
1
60
0
100
AcDbLine
10
89.3
20
-134.246655
30
0
11
89.3
21
-133.643521
31
0
39
0
210
0
220
0
230
1
0
LINE
5
9C
100
AcDbEntity
8
1
62
256
6
ByLayer
370
18
48
1
60
0
100
AcDbLine
10
89.884455
20
-134.365399
30
0
11
89.884455
21
-134.00213
31
0
39
0
210
0
220
0
230
1
0
LINE
5
9D
100
AcDbEntity
8
1
62
256
6
ByLayer
370
18
48
1
60
0
100
AcDbLine
10
101.068123
20
-136.987937
30
0
11
89.956123
21
-135.028592
31
0
39
0
210
0
220
0
230
1
0
LINE
5
9E
100
AcDbEntity
8
1
62
256
6
ByLayer
370
18
48
1
60
0
100
AcDbLine
10
101.286553
20
-136.432982
30
0
11
89.940673
21
-134.432397
31
0
39
0
210
0
220
0
230
1
0
LINE
5
9F
100
AcDbEntity
8
1
62
256
6
ByLayer
370
18
48
1
60
0
100
AcDbLine
10
100.802138
20
-124.63859
30
0
11
101.359327
21
-124.736837
31
0
39
0
210
0
220
0
230
1
0
LINE
5
A0
100
AcDbEntity
8
1
62
256
6
ByLayer
370
18
48
1
60
0
100
AcDbLine
10
100.749906
20
-124.035909
30
0
11
101.343877
21
-124.140642
31
0
39
0
210
0
220
0
230
1
0
LINE
5
A1
100
AcDbEntity
8
1
62
256
6
ByLayer
370
18
48
1
60
0
100
AcDbLine
10
102
20
-124.922579
30
0
11
102
21
-136.206
31
0
39
0
210
0
220
0
230
1
0
LINE
5
A2
100
AcDbEntity
8
1
62
256
6
ByLayer
370
18
48
1
60
0
100
AcDbLine
10
101.415545
20
-124.803836
30
0
11
101.415545
21
-136.324744
31
0
39
0
210
0
220
0
230
1
0
LINE
5
A3
100
AcDbEntity
8
1
62
256
6
ByLayer
370
18
48
1
60
0
100
AcDbLine
10
64
20
76.540364
30
0
11
50
21
76.540364
31
0
39
0
210
0
220
0
230
1
0
LINE
5
A4
100
AcDbEntity
8
1
62
256
6
ByLayer
370
18
48
1
60
0
100
AcDbLine
10
50
20
81.369993
30
0
11
64
21
81.369993
31
0
39
0
210
0
220
0
230
1
0
LINE
5
A5
100
AcDbEntity
8
1
62
256
6
ByLayer
370
18
48
1
60
0
100
AcDbLine
10
64
20
96.354531
30
0
11
50
21
96.354531
31
0
39
0
210
0
220
0
230
1
0
LINE
5
A6
100
AcDbEntity
8
1
62
256
6
ByLayer
370
18
48
1
60
0
100
AcDbLine
10
64
20
96.354531
30
0
11
64
21
81.369993
31
0
39
0
210
0
220
0
230
1
0
LINE
5
A7
100
AcDbEntity
8
1
62
256
6
ByLayer
370
18
48
1
60
0
100
AcDbLine
10
50
20
96.354531
30
0
11
50
21
81.369993
31
0
39
0
210
0
220
0
230
1
0
LINE
5
A8
100
AcDbEntity
8
1
62
256
6
ByLayer
370
18
48
1
60
0
100
AcDbLine
10
50
20
108.611242
30
0
11
64
21
108.611242
31
0
39
0
210
0
220
0
230
1
0
LINE
5
A9
100
AcDbEntity
8
1
62
256
6
ByLayer
370
18
48
1
60
0
100
AcDbLine
10
64
20
64.269873
30
0
11
64
21
59.618893
31
0
39
0
210
0
220
0
230
1
0
LINE
5
AA
100
AcDbEntity
8
1
62
256
6
ByLayer
370
18
48
1
60
0
100
AcDbLine
10
64
20
59.618893
30
0
11
64
21
51.35314
31
0
39
0
210
0
220
0
230
1
0
LINE
5
AB
100
AcDbEntity
8
1
62
256
6
ByLayer
370
18
48
1
60
0
100
AcDbLine
10
50
20
51.35314
30
0
11
64
21
51.35314
31
0
39
0
210
0
220
0
230
1
0
LINE
5
AC
100
AcDbEntity
8
1
62
256
6
ByLayer
370
18
48
1
60
0
100
AcDbLine
10
64
20
64.269873
30
0
11
64
21
76.540364
31
0
39
0
210
0
220
0
230
1
0
LINE
5
AD
100
AcDbEntity
8
1
62
256
6
ByLayer
370
18
48
1
60
0
100
AcDbLine
10
64
20
123.320889
30
0
11
50
21
123.320889
31
0
39
0
210
0
220
0
230
1
0
LINE
5
AE
100
AcDbEntity
8
1
62
256
6
ByLayer
370
18
48
1
60
0
100
AcDbLine
10
64
20
108.611242
30
0
11
64
21
123.320889
31
0
39
0
210
0
220
0
230
1
0
LINE
5
AF
100
AcDbEntity
8
1
62
256
6
ByLayer
370
18
48
1
60
0
100
AcDbLine
10
50
20
123.320889
30
0
11
50
21
108.611242
31
0
39
0
210
0
220
0
230
1
0
LINE
5
B0
100
AcDbEntity
8
1
62
256
6
ByLayer
370
18
48
1
60
0
100
AcDbLine
10
50
20
128
30
0
11
64
21
128
31
0
39
0
210
0
220
0
230
1
0
LINE
5
B1
100
AcDbEntity
8
1
62
256
6
ByLayer
370
18
48
1
60
0
100
AcDbLine
10
42.05
20
128
30
0
11
42.05
21
114.681068
31
0
39
0
210
0
220
0
230
1
0
LINE
5
B2
100
AcDbEntity
8
1
62
256
6
ByLayer
370
18
48
1
60
0
100
AcDbLine
10
42.05
20
128
30
0
11
50
21
128
31
0
39
0
210
0
220
0
230
1
0
LINE
5
B3
100
AcDbEntity
8
1
62
256
6
ByLayer
370
18
48
1
60
0
100
AcDbLine
10
66
20
65.351667
30
0
11
98.3
21
91.477406
31
0
39
0
210
0
220
0
230
1
0
LINE
5
B4
100
AcDbEntity
8
1
62
256
6
ByLayer
370
18
48
1
60
0
100
AcDbLine
10
98.3
20
91.477406
30
0
11
98.3
21
85.984448
31
0
39
0
210
0
220
0
230
1
0
LINE
5
B5
100
AcDbEntity
8
1
62
256
6
ByLayer
370
18
48
1
60
0
100
AcDbLine
10
98.3
20
85.984448
30
0
11
97.835382
21
84.185668
31
0
39
0
210
0
220
0
230
1
0
LINE
5
B6
100
AcDbEntity
8
1
62
256
6
ByLayer
370
18
48
1
60
0
100
AcDbLine
10
97.835382
20
84.185668
30
0
11
94.512392
21
81.938472
31
0
39
0
210
0
220
0
230
1
0
LINE
5
B7
100
AcDbEntity
8
1
62
256
6
ByLayer
370
18
48
1
60
0
100
AcDbLine
10
94.512392
20
81.938472
30
0
11
93.839474
21
81.056792
31
0
39
0
210
0
220
0
230
1
0
LINE
5
B8
100
AcDbEntity
8
1
62
256
6
ByLayer
370
18
48
1
60
0
100
AcDbLine
10
93.839474
20
81.056792
30
0
11
66
21
61.555754
31
0
39
0
210
0
220
0
230
1
0
LINE
5
B9
100
AcDbEntity
8
1
62
256
6
ByLayer
370
18
48
1
60
0
100
AcDbLine
10
66
20
65.351667
30
0
11
66
21
87.999751
31
0
39
0
210
0
220
0
230
1
0
LINE
5
BA
100
AcDbEntity
8
1
62
256
6
ByLayer
370
18
48
1
60
0
100
AcDbLine
10
98.3
20
91.477406
30
0
11
98.3
21
94.999835
31
0
39
0
210
0
220
0
230
1
0
LINE
5
BB
100
AcDbEntity
8
1
62
256
6
ByLayer
370
18
48
1
60
0
100
AcDbLine
10
50
20
51.182769
30
0
11
64
21
51.182769
31
0
39
0
210
0
220
0
230
1
0
LINE
5
BC
100
AcDbEntity
8
1
62
256
6
ByLayer
370
18
48
1
60
0
100
AcDbLine
10
56.310704
20
125.952138
30
0
11
57.448288
21
126.167674
31
0
39
0
210
0
220
0
230
1
0
LINE
5
BD
100
AcDbEntity
8
1
62
256
6
ByLayer
370
18
48
1
60
0
100
AcDbLine
10
57.448288
20
126.167674
30
0
11
57.764004
21
125.944429
31
0
39
0
210
0
220
0
230
1
0
LINE
5
BE
100
AcDbEntity
8
1
62
256
6
ByLayer
370
18
48
1
60
0
100
AcDbLine
10
57.448288
20
126.167674
30
0
11
57.448288
21
125.929821
31
0
39
0
210
0
220
0
230
1
0
LINE
5
BF
100
AcDbEntity
8
1
62
256
6
ByLayer
370
18
48
1
60
0
100
AcDbLine
10
75.5
20
106
30
0
11
66
21
106
31
0
39
0
210
0
220
0
230
1
0
LINE
5
C0
100
AcDbEntity
8
1
62
256
6
ByLayer
370
18
48
1
60
0
100
AcDbLine
10
66
20
90
30
0
11
75.5
21
90
31
0
39
0
210
0
220
0
230
1
0
LINE
5
C1
100
AcDbEntity
8
1
62
256
6
ByLayer
370
18
48
1
60
0
100
AcDbLine
10
98.3
20
-94.72142
30
0
11
98.3
21
-101.52076
31
0
39
0
210
0
220
0
230
1
0
LINE
5
C2
100
AcDbEntity
8
1
62
256
6
ByLayer
370
18
48
1
60
0
100
AcDbLine
10
97.918108
20
-101.52076
30
0
11
98.3
21
-101.52076
31
0
39
0
210
0
220
0
230
1
0
LINE
5
C3
100
AcDbEntity
8
1
62
256
6
ByLayer
370
18
48
1
60
0
100
AcDbLine
10
98.3
20
-102.831323
30
0
11
97.927734
21
-102.831323
31
0
39
0
210
0
220
0
230
1
0
LINE
5
C4
100
AcDbEntity
8
1
62
256
6
ByLayer
370
18
48
1
60
0
100
AcDbLine
10
98.3
20
-101.52076
30
0
11
98.3
21
-102.831323
31
0
39
0
210
0
220
0
230
1
0
LINE
5
C5
100
AcDbEntity
8
1
62
256
6
ByLayer
370
18
48
1
60
0
100
AcDbLine
10
98.3
20
-104.360647
30
0
11
98.023659
21
-104.360647
31
0
39
0
210
0
220
0
230
1
0
LINE
5
C6
100
AcDbEntity
8
1
62
256
6
ByLayer
370
18
48
1
60
0
100
AcDbLine
10
98.3
20
-102.831323
30
0
11
98.3
21
-104.360647
31
0
39
0
210
0
220
0
230
1
0
LINE
5
C7
100
AcDbEntity
8
1
62
256
6
ByLayer
370
18
48
1
60
0
100
AcDbLine
10
98.189228
20
-105.687613
30
0
11
98.3
21
-105.687613
31
0
39
0
210
0
220
0
230
1
0
LINE
5
C8
100
AcDbEntity
8
1
62
256
6
ByLayer
370
18
48
1
60
0
100
AcDbLine
10
98.3
20
-104.360647
30
0
11
98.3
21
-105.687613
31
0
39
0
210
0
220
0
230
1
0
LINE
5
C9
100
AcDbEntity
8
1
62
256
6
ByLayer
370
18
48
1
60
0
100
AcDbLine
10
64
20
-128.13025
30
0
11
64
21
-128.2
31
0
39
0
210
0
220
0
230
1
0
LINE
5
CA
100
AcDbEntity
8
1
62
256
6
ByLayer
370
18
48
1
60
0
100
AcDbLine
10
99.55228
20
-115.339612
30
0
11
99.55228
21
-131.778231
31
0
39
0
210
0
220
0
230
1
0
LINE
5
CB
100
AcDbEntity
8
1
62
256
6
ByLayer
370
18
48
1
60
0
100
AcDbLine
10
60
20
-129.012466
30
0
11
99.55228
21
-131.778231
31
0
39
0
210
0
220
0
230
1
0
LINE
5
CC
100
AcDbEntity
8
1
62
256
6
ByLayer
370
18
48
1
60
0
100
AcDbLine
10
60
20
-128.2
30
0
11
60
21
-129.012466
31
0
39
0
210
0
220
0
230
1
0
LINE
5
CD
100
AcDbEntity
8
1
62
256
6
ByLayer
370
18
48
1
60
0
100
AcDbLine
10
60
20
-128.2
30
0
11
64
21
-128.2
31
0
39
0
210
0
220
0
230
1
0
LINE
5
CE
100
AcDbEntity
8
1
62
256
6
ByLayer
370
18
48
1
60
0
100
AcDbLine
10
98.3
20
-108.267703
30
0
11
98.3
21
-112.029839
31
0
39
0
210
0
220
0
230
1
0
LINE
5
CF
100
AcDbEntity
8
1
62
256
6
ByLayer
370
18
48
1
60
0
100
AcDbLine
10
62
20
-128.2
30
0
11
62
21
-128
31
0
39
0
210
0
220
0
230
1
0
LINE
5
D0
100
AcDbEntity
8
1
62
256
6
ByLayer
370
18
48
1
60
0
100
AcDbLine
10
100.437151
20
-135.530337
30
0
11
99.55228
21
-131.778231
31
0
39
0
210
0
220
0
230
1
0
LINE
5
D1
100
AcDbEntity
8
1
62
256
6
ByLayer
370
18
48
1
60
0
100
AcDbLine
10
100.163176
20
-135.559087
30
0
11
74.854017
21
-131.0964
31
0
39
0
210
0
220
0
230
1
0
LINE
5
D2
100
AcDbEntity
8
1
62
256
6
ByLayer
370
18
48
1
60
0
100
AcDbLine
10
74.784823
20
-131.08729
30
0
11
60
21
-129.4
31
0
39
0
210
0
220
0
230
1
0
LINE
5
D3
100
AcDbEntity
8
1
62
256
6
ByLayer
370
18
48
1
60
0
100
AcDbLine
10
60
20
-129.012466
30
0
11
60
21
-129.4
31
0
39
0
210
0
220
0
230
1
0
LINE
5
D4
100
AcDbEntity
8
1
62
256
6
ByLayer
370
18
48
1
60
0
100
AcDbLine
10
100.75
20
-124.391325
30
0
11
100.75
21
-122.360472
31
0
39
0
210
0
220
0
230
1
0
LINE
5
D5
100
AcDbEntity
8
1
62
256
6
ByLayer
370
18
48
1
60
0
100
AcDbLine
10
100.75
20
-124.391325
30
0
11
100.75
21
-135.066684
31
0
39
0
210
0
220
0
230
1
0
LINE
5
D6
100
AcDbEntity
8
1
62
256
6
ByLayer
370
18
48
1
60
0
100
AcDbLine
10
100.534716
20
-116.195557
30
0
11
100.75
21
-122.360472
31
0
39
0
210
0
220
0
230
1
0
LINE
5
D7
100
AcDbEntity
8
1
62
256
6
ByLayer
370
18
48
1
60
0
100
AcDbLine
10
64.767949
20
-115.25
30
0
11
65.633975
21
-116.75
31
0
39
0
210
0
220
0
230
1
0
LINE
5
D8
100
AcDbEntity
8
1
62
256
6
ByLayer
370
18
48
1
60
0
100
AcDbLine
10
68.232051
20
-115.25
30
0
11
67.366025
21
-113.75
31
0
39
0
210
0
220
0
230
1
0
LINE
5
D9
100
AcDbEntity
8
1
62
256
6
ByLayer
370
18
48
1
60
0
100
AcDbLine
10
65.633975
20
-116.75
30
0
11
67.366025
21
-116.75
31
0
39
0
210
0
220
0
230
1
0
LINE
5
DA
100
AcDbEntity
8
1
62
256
6
ByLayer
370
18
48
1
60
0
100
AcDbLine
10
67.366025
20
-116.75
30
0
11
68.232051
21
-115.25
31
0
39
0
210
0
220
0
230
1
0
LINE
5
DB
100
AcDbEntity
8
1
62
256
6
ByLayer
370
18
48
1
60
0
100
AcDbLine
10
65.633975
20
-113.75
30
0
11
64.767949
21
-115.25
31
0
39
0
210
0
220
0
230
1
0
LINE
5
DC
100
AcDbEntity
8
1
62
256
6
ByLayer
370
18
48
1
60
0
100
AcDbLine
10
67.366025
20
-113.75
30
0
11
65.633975
21
-113.75
31
0
39
0
210
0
220
0
230
1
0
LINE
5
DD
100
AcDbEntity
8
1
62
256
6
ByLayer
370
18
48
1
60
0
100
AcDbLine
10
50
20
82.689077
30
0
11
21.134807
21
82.689077
31
0
39
0
210
0
220
0
230
1
0
LINE
5
DE
100
AcDbEntity
8
1
62
256
6
ByLayer
370
18
48
1
60
0
100
AcDbLine
10
50
20
82.689077
30
0
11
50
21
36
31
0
39
0
210
0
220
0
230
1
0
LINE
5
DF
100
AcDbEntity
8
1
62
256
6
ByLayer
370
18
48
1
60
0
100
AcDbLine
10
50
20
36
30
0
11
49.6
21
36
31
0
39
0
210
0
220
0
230
1
0
LINE
5
E0
100
AcDbEntity
8
1
62
256
6
ByLayer
370
18
48
1
60
0
100
AcDbLine
10
48.8
20
35.2
30
0
11
48.8
21
-35.2
31
0
39
0
210
0
220
0
230
1
0
LINE
5
E1
100
AcDbEntity
8
1
62
256
6
ByLayer
370
18
48
1
60
0
100
AcDbLine
10
50
20
-36
30
0
11
50
21
-82.689077
31
0
39
0
210
0
220
0
230
1
0
LINE
5
E2
100
AcDbEntity
8
1
62
256
6
ByLayer
370
18
48
1
60
0
100
AcDbLine
10
21.134807
20
-82.689077
30
0
11
50
21
-82.689077
31
0
39
0
210
0
220
0
230
1
0
LINE
5
E3
100
AcDbEntity
8
1
62
256
6
ByLayer
370
18
48
1
60
0
100
AcDbLine
10
49.6
20
-36
30
0
11
50
21
-36
31
0
39
0
210
0
220
0
230
1
0
LINE
5
E4
100
AcDbEntity
8
1
62
256
6
ByLayer
370
18
48
1
60
0
100
AcDbLine
10
50
20
-94.945789
30
0
11
22.93971
21
-94.945789
31
0
39
0
210
0
220
0
230
1
0
LINE
5
E5
100
AcDbEntity
8
1
62
256
6
ByLayer
370
18
48
1
60
0
100
AcDbLine
10
22.93971
20
94.945789
30
0
11
50
21
94.945789
31
0
39
0
210
0
220
0
230
1
0
LINE
5
E6
100
AcDbEntity
8
1
62
256
6
ByLayer
370
18
48
1
60
0
100
AcDbLine
10
22.459087
20
103.910764
30
0
11
13.020363
21
59.50506
31
0
39
0
210
0
220
0
230
1
0
LINE
5
E7
100
AcDbEntity
8
1
62
256
6
ByLayer
370
18
48
1
60
0
100
AcDbLine
10
13.020363
20
-59.50506
30
0
11
22.459087
21
-103.910764
31
0
39
0
210
0
220
0
230
1
0
LINE
5
E8
100
AcDbEntity
8
1
62
256
6
ByLayer
370
18
48
1
60
0
100
AcDbLine
10
1.282592
20
50
30
0
11
0.6
21
50
31
0
39
0
210
0
220
0
230
1
0
LINE
5
E9
100
AcDbEntity
8
1
62
256
6
ByLayer
370
18
48
1
60
0
100
AcDbLine
10
0.6
20
-50
30
0
11
1.282592
21
-50
31
0
39
0
210
0
220
0
230
1
0
LINE
5
EA
100
AcDbEntity
8
1
62
256
6
ByLayer
370
18
48
1
60
0
100
AcDbLine
10
0.6
20
50
30
0
11
0
21
49.4
31
0
39
0
210
0
220
0
230
1
0
LINE
5
EB
100
AcDbEntity
8
1
62
256
6
ByLayer
370
18
48
1
60
0
100
AcDbLine
10
0
20
-49.4
30
0
11
0.6
21
-50
31
0
39
0
210
0
220
0
230
1
0
LINE
5
EC
100
AcDbEntity
8
1
62
256
6
ByLayer
370
18
48
1
60
0
100
AcDbLine
10
50
20
109.478229
30
0
11
29.36683
21
109.478229
31
0
39
0
210
0
220
0
230
1
0
LINE
5
ED
100
AcDbEntity
8
1
62
256
6
ByLayer
370
18
48
1
60
0
100
AcDbLine
10
29.36683
20
-109.478229
30
0
11
50
21
-109.478229
31
0
39
0
210
0
220
0
230
1
0
LINE
5
EE
100
AcDbEntity
8
1
62
256
6
ByLayer
370
18
48
1
60
0
100
AcDbLine
10
36.153153
20
112.934086
30
0
11
50
21
112.934086
31
0
39
0
210
0
220
0
230
1
0
LINE
5
EF
100
AcDbEntity
8
1
62
256
6
ByLayer
370
18
48
1
60
0
100
AcDbLine
10
50
20
-112.934086
30
0
11
41.949068
21
-112.934086
31
0
39
0
210
0
220
0
230
1
0
LINE
5
F0
100
AcDbEntity
8
1
62
256
6
ByLayer
370
18
48
1
60
0
100
AcDbLine
10
39.996337
20
-115
30
0
11
41
21
-115
31
0
39
0
210
0
220
0
230
1
0
LINE
5
F1
100
AcDbEntity
8
1
62
256
6
ByLayer
370
18
48
1
60
0
100
AcDbLine
10
49.4
20
-114.681723
30
0
11
41.8
21
-114.681723
31
0
39
0
210
0
220
0
230
1
0
LINE
5
F2
100
AcDbEntity
8
1
62
256
6
ByLayer
370
18
48
1
60
0
100
AcDbLine
10
41
20
115
30
0
11
39.996337
21
115
31
0
39
0
210
0
220
0
230
1
0
LINE
5
F3
100
AcDbEntity
8
1
62
256
6
ByLayer
370
18
48
1
60
0
100
AcDbLine
10
41.8
20
114.681723
30
0
11
49.4
21
114.681723
31
0
39
0
210
0
220
0
230
1
0
LINE
5
F4
100
AcDbEntity
8
1
62
256
6
ByLayer
370
18
48
1
60
0
100
AcDbLine
10
100.746651
20
-135.124485
30
0
11
100.907122
21
-135.124485
31
0
39
0
210
0
220
0
230
1
0
LINE
5
F5
100
AcDbEntity
8
1
62
256
6
ByLayer
370
18
48
1
60
0
100
AcDbLine
10
100.085569
20
-135.81385
30
0
11
100.131475
21
-135.553501
31
0
39
0
210
0
220
0
230
1
0
LINE
5
F6
100
AcDbEntity
8
1
62
256
6
ByLayer
370
18
48
1
60
0
100
AcDbLine
10
90.285569
20
-134.085846
30
0
11
90.331475
21
-133.825496
31
0
39
0
210
0
220
0
230
1
0
LINE
5
F7
100
AcDbEntity
8
1
62
256
6
ByLayer
370
18
48
1
60
0
100
AcDbLine
10
100.750002
20
-125.173304
30
0
11
100.907122
21
-125.173304
31
0
39
0
210
0
220
0
230
1
0
LINE
5
F8
100
AcDbEntity
8
1
62
256
6
ByLayer
370
18
48
1
60
0
100
AcDbLine
10
100.907122
20
-125.173304
30
0
11
100.907122
21
-135.124485
31
0
39
0
210
0
220
0
230
1
0
LINE
5
F9
100
AcDbEntity
8
1
62
256
6
ByLayer
370
18
48
1
60
0
100
AcDbLine
10
100.085569
20
-135.81385
30
0
11
90.285569
21
-134.085846
31
0
39
0
210
0
220
0
230
1
0
LINE
5
FA
100
AcDbEntity
8
1
62
256
6
ByLayer
370
18
48
1
60
0
100
AcDbLine
10
101.007122
20
-135.124485
30
0
11
101.007122
21
-125.173304
31
0
39
0
210
0
220
0
230
1
0
LINE
5
FB
100
AcDbEntity
8
1
62
256
6
ByLayer
370
18
48
1
60
0
100
AcDbLine
10
90.268204
20
-134.184327
30
0
11
100.068204
21
-135.912331
31
0
39
0
210
0
220
0
230
1
0
LINE
5
FC
100
AcDbEntity
8
1
62
256
6
ByLayer
370
18
48
1
60
0
100
AcDbLine
10
62.052445
20
-114.565044
30
0
11
62.55798
21
-114.749043
31
0
39
0
210
0
220
0
230
1
0
LINE
5
FD
100
AcDbEntity
8
1
62
256
6
ByLayer
370
18
48
1
60
0
100
AcDbLine
10
62.55798
20
-115.750957
30
0
11
62.052445
21
-115.934956
31
0
39
0
210
0
220
0
230
1
0
LINE
5
FE
100
AcDbEntity
8
1
62
256
6
ByLayer
370
18
48
1
60
0
100
AcDbLine
10
64
20
-51.182769
30
0
11
50
21
-51.182769
31
0
39
0
210
0
220
0
230
1
0
LINE
5
FF
100
AcDbEntity
8
1
62
256
6
ByLayer
370
18
48
1
60
0
100
AcDbLine
10
64
20
-56.182769
30
0
11
50
21
-56.182769
31
0
39
0
210
0
220
0
230
1
0
LINE
5
100
100
AcDbEntity
8
1
62
256
6
ByLayer
370
18
48
1
60
0
100
AcDbLine
10
66.811871
20
-97.166642
30
0
11
66
21
-97.166642
31
0
39
0
210
0
220
0
230
1
0
LINE
5
101
100
AcDbEntity
8
1
62
256
6
ByLayer
370
18
48
1
60
0
100
AcDbLine
10
66.811871
20
-97.166642
30
0
11
66.114176
21
-98.781451
31
0
39
0
210
0
220
0
230
1
0
LINE
5
102
100
AcDbEntity
8
1
62
256
6
ByLayer
370
18
48
1
60
0
100
AcDbLine
10
50
20
-98.781451
30
0
11
66.114176
21
-98.781451
31
0
39
0
210
0
220
0
230
1
0
LINE
5
103
100
AcDbEntity
8
1
62
256
6
ByLayer
370
18
48
1
60
0
100
AcDbLine
10
64
20
-56.182769
30
0
11
64
21
-95.166642
31
0
39
0
210
0
220
0
230
1
0
LINE
5
104
100
AcDbEntity
8
1
62
256
6
ByLayer
370
18
48
1
60
0
100
AcDbLine
10
50
20
-56.182769
30
0
11
50
21
-98.781451
31
0
39
0
210
0
220
0
230
1
0
LINE
5
105
100
AcDbEntity
8
1
62
256
6
ByLayer
370
18
48
1
60
0
100
AcDbLine
10
66.811871
20
-97.166642
30
0
11
90.184873
21
-97.166642
31
0
39
0
210
0
220
0
230
1
0
LINE
5
106
100
AcDbEntity
8
1
62
256
6
ByLayer
370
18
48
1
60
0
100
AcDbLine
10
90.184873
20
-97.166642
30
0
11
96.872297
21
-99.93619
31
0
39
0
210
0
220
0
230
1
0
LINE
5
107
100
AcDbEntity
8
1
62
256
6
ByLayer
370
18
48
1
60
0
100
AcDbLine
10
96.872297
20
-99.93619
30
0
11
97.399989
21
-126.540883
31
0
39
0
210
0
220
0
230
1
0
LINE
5
108
100
AcDbEntity
8
1
62
256
6
ByLayer
370
18
48
1
60
0
100
AcDbLine
10
97.399989
20
-126.540883
30
0
11
70.879465
21
-110.290887
31
0
39
0
210
0
220
0
230
1
0
LINE
5
109
100
AcDbEntity
8
1
62
256
6
ByLayer
370
18
48
1
60
0
100
AcDbLine
10
70.879465
20
-110.290887
30
0
11
50
21
-110.290887
31
0
39
0
210
0
220
0
230
1
0
LINE
5
10A
100
AcDbEntity
8
1
62
256
6
ByLayer
370
18
48
1
60
0
100
AcDbLine
10
50
20
-117.601987
30
0
11
97.391548
21
-127.16401
31
0
39
0
210
0
220
0
230
1
0
LINE
5
10B
100
AcDbEntity
8
1
62
256
6
ByLayer
370
18
48
1
60
0
100
AcDbLine
10
50
20
-117.601987
30
0
11
50
21
-110.290887
31
0
39
0
210
0
220
0
230
1
0
LINE
5
10C
100
AcDbEntity
8
1
62
256
6
ByLayer
370
18
48
1
60
0
100
AcDbLine
10
66
20
-92.166642
30
0
11
75.556794
21
-92.166642
31
0
39
0
210
0
220
0
230
1
0
LINE
5
10D
100
AcDbEntity
8
1
62
256
6
ByLayer
370
18
48
1
60
0
100
AcDbLine
10
95.633414
20
-129.318437
30
0
11
50
21
-126.078211
31
0
39
0
210
0
220
0
230
1
0
LINE
5
10E
100
AcDbEntity
8
1
62
256
6
ByLayer
370
18
48
1
60
0
100
AcDbLine
10
50
20
-126.078211
30
0
11
50
21
-117.601987
31
0
39
0
210
0
220
0
230
1
0
LINE
5
10F
100
AcDbEntity
8
1
62
256
6
ByLayer
370
18
48
1
60
0
100
AcDbLine
10
98.3
20
-94.721328
30
0
11
97.963443
21
-100.215218
31
0
39
0
210
0
220
0
230
1
0
LINE
5
110
100
AcDbEntity
8
1
62
256
6
ByLayer
370
18
48
1
60
0
100
AcDbLine
10
98.027898
20
-104.393403
30
0
11
98.3
21
-106.571144
31
0
39
0
210
0
220
0
230
1
0
LINE
5
111
100
AcDbEntity
8
1
62
256
6
ByLayer
370
18
48
1
60
0
100
AcDbLine
10
98.3
20
-106.571144
30
0
11
98.3
21
-128.418695
31
0
39
0
210
0
220
0
230
1
0
LINE
5
112
100
AcDbEntity
8
1
62
256
6
ByLayer
370
18
48
1
60
0
100
AcDbLine
10
98.3
20
-128.418695
30
0
11
97.399989
21
-126.540883
31
0
39
0
210
0
220
0
230
1
0
LINE
5
113
100
AcDbEntity
8
1
62
256
6
ByLayer
370
18
48
1
60
0
100
AcDbLine
10
96.872297
20
-99.93619
30
0
11
97.835382
21
-84.185668
31
0
39
0
210
0
220
0
230
1
0
LINE
5
114
100
AcDbEntity
8
1
62
256
6
ByLayer
370
18
48
1
60
0
100
AcDbLine
10
98.3
20
-85.984448
30
0
11
97.835382
21
-84.185668
31
0
39
0
210
0
220
0
230
1
0
LINE
5
115
100
AcDbEntity
8
1
62
256
6
ByLayer
370
18
48
1
60
0
100
AcDbLine
10
98.3
20
-85.984448
30
0
11
98.3
21
-94.721328
31
0
39
0
210
0
220
0
230
1
0
LINE
5
116
100
AcDbEntity
8
1
62
256
6
ByLayer
370
18
48
1
60
0
100
AcDbLine
10
94.512392
20
-81.938472
30
0
11
93.275392
21
-81.950856
31
0
39
0
210
0
220
0
230
1
0
LINE
5
117
100
AcDbEntity
8
1
62
256
6
ByLayer
370
18
48
1
60
0
100
AcDbLine
10
97.835382
20
-84.185668
30
0
11
94.512392
21
-81.938472
31
0
39
0
210
0
220
0
230
1
0
LINE
5
118
100
AcDbEntity
8
1
62
256
6
ByLayer
370
18
48
1
60
0
100
AcDbLine
10
66
20
-61.555754
30
0
11
66
21
-67.000187
31
0
39
0
210
0
220
0
230
1
0
LINE
5
119
100
AcDbEntity
8
1
62
256
6
ByLayer
370
18
48
1
60
0
100
AcDbLine
10
66
20
-86.99962
30
0
11
66
21
-92.166642
31
0
39
0
210
0
220
0
230
1
0
LINE
5
11A
100
AcDbEntity
8
1
62
256
6
ByLayer
370
18
48
1
60
0
100
AcDbLine
10
93.839474
20
-81.056792
30
0
11
66
21
-61.555754
31
0
39
0
210
0
220
0
230
1
0
LINE
5
11B
100
AcDbEntity
8
1
62
256
6
ByLayer
370
18
48
1
60
0
100
AcDbLine
10
92.513482
20
-81.056792
30
0
11
93.839474
21
-81.056792
31
0
39
0
210
0
220
0
230
1
0
LINE
5
11C
100
AcDbEntity
8
1
62
256
6
ByLayer
370
18
48
1
60
0
100
AcDbLine
10
96.158346
20
-130.413672
30
0
11
95.633414
21
-129.318437
31
0
39
0
210
0
220
0
230
1
0
LINE
5
11D
100
AcDbEntity
8
1
62
256
6
ByLayer
370
18
48
1
60
0
100
AcDbLine
10
96.158346
20
-130.413672
30
0
11
62
21
-127.98824
31
0
39
0
210
0
220
0
230
1
0
LINE
5
11E
100
AcDbEntity
8
1
62
256
6
ByLayer
370
18
48
1
60
0
100
AcDbLine
10
62
20
-128
30
0
11
62
21
-127.98824
31
0
39
0
210
0
220
0
230
1
0
LINE
5
11F
100
AcDbEntity
8
1
62
256
6
ByLayer
370
18
48
1
60
0
100
AcDbLine
10
62
20
-128
30
0
11
50
21
-128
31
0
39
0
210
0
220
0
230
1
0
LINE
5
120
100
AcDbEntity
8
1
62
256
6
ByLayer
370
18
48
1
60
0
100
AcDbLine
10
50
20
-128
30
0
11
50
21
-126.078211
31
0
39
0
210
0
220
0
230
1
0
LINE
5
121
100
AcDbEntity
8
1
62
256
6
ByLayer
370
18
48
1
60
0
100
AcDbLine
10
94.512392
20
-81.938472
30
0
11
93.839474
21
-81.056792
31
0
39
0
210
0
220
0
230
1
0
LINE
5
122
100
AcDbEntity
8
1
62
256
6
ByLayer
370
18
48
1
60
0
100
AcDbLine
10
42.05
20
-114.681452
30
0
11
42.05
21
-128
31
0
39
0
210
0
220
0
230
1
0
LINE
5
123
100
AcDbEntity
8
1
62
256
6
ByLayer
370
18
48
1
60
0
100
AcDbLine
10
42.05
20
-128
30
0
11
50
21
-128
31
0
39
0
210
0
220
0
230
1
0
LINE
5
124
100
AcDbEntity
8
1
62
256
6
ByLayer
370
18
48
1
60
0
100
AcDbLine
10
75.5
20
-69
30
0
11
66
21
-69
31
0
39
0
210
0
220
0
230
1
0
LINE
5
125
100
AcDbEntity
8
1
62
256
6
ByLayer
370
18
48
1
60
0
100
AcDbLine
10
66
20
-85
30
0
11
75.5
21
-85
31
0
39
0
210
0
220
0
230
1
0
LINE
5
126
100
AcDbEntity
8
1
62
256
6
ByLayer
370
18
48
1
60
0
100
AcDbLine
10
78.512927
20
-85.633297
30
0
11
78.669999
21
-90.794698
31
0
39
0
210
0
220
0
230
1
0
LINE
5
127
100
AcDbEntity
8
1
62
256
6
ByLayer
370
18
48
1
60
0
100
AcDbLine
10
94.527657
20
-90.312119
30
0
11
94.370586
21
-85.150717
31
0
39
0
210
0
220
0
230
1
0
LINE
5
128
100
AcDbEntity
8
1
62
256
6
ByLayer
370
18
48
1
60
0
100
AcDbLine
10
90.363286
20
-82.714933
30
0
11
90.450548
21
-85.582379
31
0
39
0
210
0
220
0
230
1
0
LINE
5
129
100
AcDbEntity
8
1
62
256
6
ByLayer
370
18
48
1
60
0
100
AcDbLine
10
86.211865
20
-80.993805
30
0
11
86.299127
21
-83.861251
31
0
39
0
210
0
220
0
230
1
0
LINE
5
12A
100
AcDbEntity
8
1
62
256
6
ByLayer
370
18
48
1
60
0
100
AcDbLine
10
74.794669
20
131.088213
30
0
11
74.794669
21
106.000295
31
0
39
0
210
0
220
0
230
1
0
LINE
5
12B
100
AcDbEntity
8
1
62
256
6
ByLayer
370
18
48
1
60
0
100
AcDbLine
10
60
20
128.2
30
0
11
62
21
128.2
31
0
39
0
210
0
220
0
230
1
0
LINE
5
12C
100
AcDbEntity
8
1
62
256
6
ByLayer
370
18
48
1
60
0
100
AcDbLine
10
60
20
129.4
30
0
11
60
21
128.2
31
0
39
0
210
0
220
0
230
1
0
LINE
5
12D
100
AcDbEntity
8
1
62
256
6
ByLayer
370
18
48
1
60
0
100
AcDbLine
10
60
20
129.4
30
0
11
74.784823
21
131.08729
31
0
39
0
210
0
220
0
230
1
0
LINE
5
12E
100
AcDbEntity
8
1
62
256
6
ByLayer
370
18
48
1
60
0
100
AcDbLine
10
62
20
128.2
30
0
11
62
21
127.999696
31
0
39
0
210
0
220
0
230
1
0
LINE
5
12F
100
AcDbEntity
8
1
62
256
6
ByLayer
370
18
48
1
60
0
100
AcDbLine
10
82.830642
20
96.238047
30
0
11
98.3
21
96.238047
31
0
39
0
210
0
220
0
230
1
0
LINE
5
130
100
AcDbEntity
8
1
62
256
6
ByLayer
370
18
48
1
60
0
100
AcDbLine
10
98.3
20
96.238047
30
0
11
98.3
21
94.999855
31
0
39
0
210
0
220
0
230
1
0
LINE
5
131
100
AcDbEntity
8
1
62
256
6
ByLayer
370
18
48
1
60
0
100
AcDbLine
10
98.3
20
94.999855
30
0
11
76.000199
21
94.999855
31
0
39
0
210
0
220
0
230
1
0
LINE
5
132
100
AcDbEntity
8
1
62
256
6
ByLayer
370
18
48
1
60
0
100
AcDbLine
10
76.000046
20
99.697087
30
0
11
81.280642
21
96.652764
31
0
39
0
210
0
220
0
230
1
0
LINE
5
133
100
AcDbEntity
8
1
62
256
6
ByLayer
370
18
48
1
60
0
100
AcDbLine
10
81.280642
20
132.229587
30
0
11
74.854017
21
131.0964
31
0
39
0
210
0
220
0
230
1
0
LINE
5
134
100
AcDbEntity
8
1
62
256
6
ByLayer
370
18
48
1
60
0
100
AcDbLine
10
81.280642
20
96.652764
30
0
11
81.280642
21
132.229587
31
0
39
0
210
0
220
0
230
1
0
LINE
5
135
100
AcDbEntity
8
1
62
256
6
ByLayer
370
18
48
1
60
0
100
AcDbLine
10
82.830642
20
132.502894
30
0
11
82.830642
21
96.238047
31
0
39
0
210
0
220
0
230
1
0
LINE
5
136
100
AcDbEntity
8
1
62
256
6
ByLayer
370
18
48
1
60
0
100
AcDbLine
10
88.243698
20
124.031254
30
0
11
88.244613
21
124.240807
31
0
39
0
210
0
220
0
230
1
0
LINE
5
137
100
AcDbEntity
8
1
62
256
6
ByLayer
370
18
48
1
60
0
100
AcDbLine
10
100.75
20
124.035903
30
0
11
100.75
21
122.360472
31
0
39
0
210
0
220
0
230
1
0
LINE
5
138
100
AcDbEntity
8
1
62
256
6
ByLayer
370
18
48
1
60
0
100
AcDbLine
10
100.534716
20
116.195557
30
0
11
100.75
21
122.360472
31
0
39
0
210
0
220
0
230
1
0
LINE
5
139
100
AcDbEntity
8
1
62
256
6
ByLayer
370
18
48
1
60
0
100
AcDbLine
10
98.3
20
96.238047
30
0
11
98.3
21
112.029839
31
0
39
0
210
0
220
0
230
1
0
LINE
5
13A
100
AcDbEntity
8
1
62
256
6
ByLayer
370
18
48
1
60
0
100
AcDbLine
10
89.299989
20
133.643614
30
0
11
82.830642
21
132.502894
31
0
39
0
210
0
220
0
230
1
0
LINE
5
13B
100
AcDbEntity
8
1
62
256
6
ByLayer
370
18
48
1
60
0
100
AcDbLine
10
88.52661
20
124.239577
30
0
11
88.244613
21
124.240807
31
0
39
0
210
0
220
0
230
1
0
LINE
5
13C
100
AcDbEntity
8
1
62
256
6
ByLayer
370
18
48
1
60
0
100
AcDbLine
10
88.525696
20
124.030023
30
0
11
88.52661
21
124.239577
31
0
39
0
210
0
220
0
230
1
0
LINE
5
13D
100
AcDbEntity
8
1
62
256
6
ByLayer
370
18
48
1
60
0
100
AcDbLine
10
88.525696
20
124.030023
30
0
11
88.243698
21
124.031254
31
0
39
0
210
0
220
0
230
1
0
LINE
5
13E
100
AcDbEntity
8
1
62
256
6
ByLayer
370
18
48
1
60
0
100
AcDbLine
10
102
20
124.922579
30
0
11
102
21
136.206
31
0
39
0
210
0
220
0
230
1
0
LINE
5
13F
100
AcDbEntity
8
1
62
256
6
ByLayer
370
18
48
1
60
0
100
AcDbLine
10
90.231877
20
122.181297
30
0
11
101.343877
21
124.140642
31
0
39
0
210
0
220
0
230
1
0
LINE
5
140
100
AcDbEntity
8
1
62
256
6
ByLayer
370
18
48
1
60
0
100
AcDbLine
10
101.068123
20
136.987937
30
0
11
89.956123
21
135.028592
31
0
39
0
210
0
220
0
230
1
0
LINE
5
141
100
AcDbEntity
8
1
62
256
6
ByLayer
370
18
48
1
60
0
100
AcDbLine
10
89.3
20
134.246655
30
0
11
89.3
21
122.963234
31
0
39
0
210
0
220
0
230
1
0
LINE
5
142
100
AcDbEntity
8
1
62
256
6
ByLayer
370
18
48
1
60
0
100
AcDbLine
10
64
20
88
30
0
11
66
21
88
31
0
39
0
210
0
220
0
230
1
0
LINE
5
143
100
AcDbEntity
8
1
62
256
6
ByLayer
370
18
48
1
60
0
100
AcDbLine
10
66
20
108
30
0
11
64
21
108
31
0
39
0
210
0
220
0
230
1
0
LINE
5
144
100
AcDbEntity
8
1
62
256
6
ByLayer
370
18
48
1
60
0
100
AcDbLine
10
76.603455
20
-90.857587
30
0
11
76.617417
21
-91.316379
31
0
39
0
210
0
220
0
230
1
0
LINE
5
145
100
AcDbEntity
8
1
62
256
6
ByLayer
370
18
48
1
60
0
100
AcDbLine
10
96.608163
20
-90.708021
30
0
11
96.594201
21
-90.24923
31
0
39
0
210
0
220
0
230
1
0
LINE
5
146
100
AcDbEntity
8
1
62
256
6
ByLayer
370
18
48
1
60
0
100
AcDbLine
10
66
20
-67
30
0
11
64
21
-67
31
0
39
0
210
0
220
0
230
1
0
LINE
5
147
100
AcDbEntity
8
1
62
256
6
ByLayer
370
18
48
1
60
0
100
AcDbLine
10
64
20
-87
30
0
11
66
21
-87
31
0
39
0
210
0
220
0
230
1
0
LINE
5
148
100
AcDbEntity
8
1
62
256
6
ByLayer
370
18
48
1
60
0
100
AcDbLine
10
35.894079
20
-110.629094
30
0
11
35.904231
21
-111.008408
31
0
39
0
210
0
220
0
230
1
0
LINE
5
149
100
AcDbEntity
8
1
62
256
6
ByLayer
370
18
48
1
60
0
100
AcDbLine
10
37.919717
20
-110.3269
30
0
11
37.942932
21
-111.19434
31
0
39
0
210
0
220
0
230
1
0
LINE
5
14A
100
AcDbEntity
8
1
62
256
6
ByLayer
370
18
48
1
60
0
100
AcDbLine
10
64
20
81.369993
30
0
11
64
21
76.540364
31
0
39
0
210
0
220
0
230
1
0
LINE
5
14B
100
AcDbEntity
8
1
62
256
6
ByLayer
370
18
48
1
60
0
100
AcDbLine
10
64
20
108.611242
30
0
11
64
21
96.354531
31
0
39
0
210
0
220
0
230
1
0
LINE
5
14C
100
AcDbEntity
8
1
62
256
6
ByLayer
370
18
48
1
60
0
100
AcDbLine
10
50
20
96.354531
30
0
11
50
21
108.611242
31
0
39
0
210
0
220
0
230
1
0
LINE
5
14D
100
AcDbEntity
8
1
62
256
6
ByLayer
370
18
48
1
60
0
100
AcDbLine
10
64
20
128
30
0
11
64
21
123.320889
31
0
39
0
210
0
220
0
230
1
0
LINE
5
14E
100
AcDbEntity
8
1
62
256
6
ByLayer
370
18
48
1
60
0
100
AcDbLine
10
50
20
128
30
0
11
50
21
123.320889
31
0
39
0
210
0
220
0
230
1
0
LINE
5
14F
100
AcDbEntity
8
1
62
256
6
ByLayer
370
18
48
1
60
0
100
AcDbLine
10
64
20
51.182769
30
0
11
64
21
51.35314
31
0
39
0
210
0
220
0
230
1
0
LINE
5
150
100
AcDbEntity
8
1
62
256
6
ByLayer
370
18
48
1
60
0
100
AcDbLine
10
94.370586
20
-85.150717
30
0
11
94.370584
21
-85.150645
31
0
39
0
210
0
220
0
230
1
0
LINE
5
151
100
AcDbEntity
8
1
62
256
6
ByLayer
370
18
48
1
60
0
100
AcDbLine
10
94.364858
20
-85.017459
30
0
11
94.364823
21
-85.016822
31
0
39
0
210
0
220
0
230
1
0
LINE
5
152
100
AcDbEntity
8
1
62
256
6
ByLayer
370
18
48
1
60
0
100
AcDbLine
10
75.5
20
90
30
0
11
75.5
21
106
31
0
39
0
210
0
220
0
230
1
0
LINE
5
153
100
AcDbEntity
8
1
62
256
6
ByLayer
370
18
48
1
60
0
100
AcDbLine
10
98.3
20
-105.687613
30
0
11
98.3
21
-108.267703
31
0
39
0
210
0
220
0
230
1
0
LINE
5
154
100
AcDbEntity
8
1
62
256
6
ByLayer
370
18
48
1
60
0
100
AcDbLine
10
13.020363
20
59.50506
30
0
11
13.020363
21
28.928397
31
0
39
0
210
0
220
0
230
1
0
LINE
5
155
100
AcDbEntity
8
1
62
256
6
ByLayer
370
18
48
1
60
0
100
AcDbLine
10
13.020363
20
-28.928397
30
0
11
13.020363
21
-59.50506
31
0
39
0
210
0
220
0
230
1
0
LINE
5
156
100
AcDbEntity
8
1
62
256
6
ByLayer
370
18
48
1
60
0
100
AcDbLine
10
22.459087
20
103.910764
30
0
11
22.459087
21
103.853379
31
0
39
0
210
0
220
0
230
1
0
LINE
5
157
100
AcDbEntity
8
1
62
256
6
ByLayer
370
18
48
1
60
0
100
AcDbLine
10
22.459087
20
91.408972
30
0
11
22.459087
21
103.754367
31
0
39
0
210
0
220
0
230
1
0
LINE
5
158
100
AcDbEntity
8
1
62
256
6
ByLayer
370
18
48
1
60
0
100
AcDbLine
10
22.459087
20
-103.910764
30
0
11
22.459087
21
-91.408972
31
0
39
0
210
0
220
0
230
1
0
LINE
5
159
100
AcDbEntity
8
1
62
256
6
ByLayer
370
18
48
1
60
0
100
AcDbLine
10
1.282592
20
50
30
0
11
1.282592
21
-50
31
0
39
0
210
0
220
0
230
1
0
LINE
5
15A
100
AcDbEntity
8
1
62
256
6
ByLayer
370
18
48
1
60
0
100
AcDbLine
10
0.6
20
-50
30
0
11
0.6
21
50
31
0
39
0
210
0
220
0
230
1
0
LINE
5
15B
100
AcDbEntity
8
1
62
256
6
ByLayer
370
18
48
1
60
0
100
AcDbLine
10
36.153153
20
-113.297105
30
0
11
36.153153
21
-114.8968
31
0
39
0
210
0
220
0
230
1
0
LINE
5
15C
100
AcDbEntity
8
1
62
256
6
ByLayer
370
18
48
1
60
0
100
AcDbLine
10
36.153153
20
114.8968
30
0
11
36.153153
21
112.934086
31
0
39
0
210
0
220
0
230
1
0
LINE
5
15D
100
AcDbEntity
8
1
62
256
6
ByLayer
370
18
48
1
60
0
100
AcDbLine
10
0
20
-49.4
30
0
11
0
21
49.4
31
0
39
0
210
0
220
0
230
1
0
LINE
5
15E
100
AcDbEntity
8
1
62
256
6
ByLayer
370
18
48
1
60
0
100
AcDbLine
10
41
20
-115
30
0
11
41
21
-114.738562
31
0
39
0
210
0
220
0
230
1
0
LINE
5
15F
100
AcDbEntity
8
1
62
256
6
ByLayer
370
18
48
1
60
0
100
AcDbLine
10
41
20
114.738562
30
0
11
41
21
115
31
0
39
0
210
0
220
0
230
1
0
LINE
5
160
100
AcDbEntity
8
1
62
256
6
ByLayer
370
18
48
1
60
0
100
AcDbLine
10
66
20
108
30
0
11
66
21
107.23728
31
0
39
0
210
0
220
0
230
1
0
LINE
5
161
100
AcDbEntity
8
1
62
256
6
ByLayer
370
18
48
1
60
0
100
AcDbLine
10
66
20
107.23728
30
0
11
66
21
88
31
0
39
0
210
0
220
0
230
1
0
LINE
5
162
100
AcDbEntity
8
1
62
256
6
ByLayer
370
18
48
1
60
0
100
AcDbLine
10
78.669981
20
-90.794133
30
0
11
78.669999
21
-90.794698
31
0
39
0
210
0
220
0
230
1
0
LINE
5
163
100
AcDbEntity
8
1
62
256
6
ByLayer
370
18
48
1
60
0
100
AcDbLine
10
64
20
-51.182769
30
0
11
64
21
-56.182769
31
0
39
0
210
0
220
0
230
1
0
LINE
5
164
100
AcDbEntity
8
1
62
256
6
ByLayer
370
18
48
1
60
0
100
AcDbLine
10
50
20
-110.290887
30
0
11
50
21
-98.781451
31
0
39
0
210
0
220
0
230
1
0
LINE
5
165
100
AcDbEntity
8
1
62
256
6
ByLayer
370
18
48
1
60
0
100
AcDbLine
10
66
20
-97.166642
30
0
11
66
21
-92.166642
31
0
39
0
210
0
220
0
230
1
0
LINE
5
166
100
AcDbEntity
8
1
62
256
6
ByLayer
370
18
48
1
60
0
100
AcDbLine
10
75.5
20
-69
30
0
11
75.5
21
-85
31
0
39
0
210
0
220
0
230
1
0
LINE
5
167
100
AcDbEntity
8
1
62
256
6
ByLayer
370
18
48
1
60
0
100
AcDbLine
10
66
20
-87
30
0
11
66
21
-67
31
0
39
0
210
0
220
0
230
1
0
LINE
5
168
100
AcDbEntity
8
1
62
256
6
ByLayer
370
18
48
1
60
0
100
AcDbLine
10
76
20
90.5
30
0
11
76
21
105.5
31
0
39
0
210
0
220
0
230
1
0
LINE
5
169
100
AcDbEntity
8
1
62
256
6
ByLayer
370
18
48
1
60
0
100
AcDbLine
10
76
20
-69.5
30
0
11
76
21
-84.5
31
0
39
0
210
0
220
0
230
1
0
LINE
5
16A
100
AcDbEntity
8
1
62
256
6
ByLayer
370
18
48
1
60
0
100
AcDbLine
10
81.280642
20
132.229587
30
0
11
82.830642
21
132.502894
31
0
39
0
210
0
220
0
230
1
0
MTEXT
5
232
100
AcDbEntity
8
SK6
62
256
6
ByLayer
370
18
48
1
60
0
100
AcDbMText
10
108.98566
20
143.046351
30
0
210
0
220
0
230
1
1
\W0.7209;820L-300CC12F
40
3
41
0
44
1.084337
50
0
71
7
72
5
7
iso_b_vert
0
DIMENSION
5
23F
100
AcDbEntity
8
2
62
256
6
ByLayer
370
13
48
1
60
0
100
AcDbDimension
2
DimnDraft3D1
10
102
20
156.744886
30
0
11
46.831579
21
156.744886
31
0
70
32
71
5
72
1
41
1
210
0
220
0
230
1
3
Standard
100
AcDbAlignedDimension
13
0
23
51.4
33
0
14
102
24
138.99997
34
0
50
0
100
AcDbRotatedDimension
1001
ACAD
1000
DSTYLE
1002
{
1070
   279
1070
     0
1070
   172
1070
     1
1070
   173
1070
     1
1070
   340
1005
233
1070
   271
1070
     1
1070
    77
1070
     1
1070
    73
1070
     0
1070
   171
1070
     4
1070
   274
1070
     4
1070
   177
1070
     7
1070
   176
1070
     7
1070
   178
1070
     7
1070
    41
1041
3.175
1070
   147
1041
1.5
1070
    42
1041
2.0
1070
    44
1041
2.0
1070
   140
1041
3.0
1070
   343
1005
0
1070
   344
1005
0
1002
}
0
DIMENSION
5
24B
100
AcDbEntity
8
SK2
62
256
6
ByLayer
370
13
48
1
60
0
100
AcDbDimension
2
DimnDraft3D2
10
-20.97867
20
-20.00625
30
0
11
-20.72867
21
1.003947
31
0
70
33
71
5
72
1
41
1
210
0
220
0
230
1
3
Standard
100
AcDbAlignedDimension
13
-0.960769
23
20.00625
33
0
14
-0.960769
24
-20.00625
34
0
1001
ACAD
1000
DSTYLE
1002
{
1070
   279
1070
     0
1070
    74
1070
     0
1070
   173
1070
     1
1070
   340
1005
233
1070
   271
1070
     0
1070
    77
1070
     1
1070
    73
1070
     0
1070
   171
1070
     4
1070
   274
1070
     4
1070
   177
1070
     7
1070
   176
1070
     7
1070
   178
1070
     7
1070
    78
1070
     8
1070
    41
1041
3.175
1070
   147
1041
1.75
1070
    42
1041
2.0
1070
    44
1041
2.0
1070
   140
1041
3.5
1070
   343
1005
0
1070
   344
1005
0
1002
}
0
DIMENSION
5
256
100
AcDbEntity
8
SK2
62
256
6
ByLayer
370
13
48
1
60
0
100
AcDbDimension
2
DimnDraft3D3
10
-41.696803
20
-50
30
0
11
-41.446803
21
0.340789
31
0
70
33
71
5
72
1
41
1
210
0
220
0
230
1
3
Standard
100
AcDbAlignedDimension
13
-1.4
23
50
33
0
14
-1.4
24
-50
34
0
1001
ACAD
1000
DSTYLE
1002
{
1070
   279
1070
     0
1070
    74
1070
     0
1070
   173
1070
     1
1070
   340
1005
233
1070
    77
1070
     1
1070
    73
1070
     0
1070
   171
1070
     4
1070
   274
1070
     4
1070
   177
1070
     7
1070
   176
1070
     7
1070
   178
1070
     7
1070
    78
1070
     8
1070
    41
1041
3.175
1070
   147
1041
1.75
1070
    42
1041
2.0
1070
    44
1041
2.0
1070
   140
1041
3.5
1070
   343
1005
0
1070
   344
1005
0
1002
}
0
DIMENSION
5
260
100
AcDbEntity
8
2
62
256
6
ByLayer
370
13
48
1
60
0
100
AcDbDimension
2
DimnDraft3D4
10
102
20
136.206
30
0
11
115.69246
21
123.30751
31
0
70
34
71
5
72
1
41
1
210
0
220
0
230
1
3
Standard
100
AcDb2LineAngularDimension
13
104
23
136.99997
33
0
14
119
24
136.99997
34
0
15
102
25
124.922579
35
0
16
117.81378
26
121.18619
36
0
40
0
0
DIMENSION
5
26A
100
AcDbEntity
8
2
62
256
6
ByLayer
370
13
48
1
60
0
100
AcDbDimension
2
DimnDraft3D5
10
143.202985
20
-137.000068
30
0
11
143.202985
21
-23.163207
31
0
70
32
71
5
72
1
41
1
210
0
220
0
230
1
3
Standard
100
AcDbAlignedDimension
13
104
23
136.99997
33
0
14
104.000001
24
-137.000068
34
0
50
90
100
AcDbRotatedDimension
1001
ACAD
1000
DSTYLE
1002
{
1070
    74
1070
     0
1070
   279
1070
     0
1070
   172
1070
     1
1070
   173
1070
     1
1070
   340
1005
233
1070
   271
1070
     0
1070
    77
1070
     1
1070
    73
1070
     0
1070
   171
1070
     4
1070
   274
1070
     4
1070
   177
1070
     7
1070
   176
1070
     7
1070
   178
1070
     7
1070
    78
1070
     8
1070
    41
1041
3.175
1070
   147
1041
1.5
1070
    42
1041
2.0
1070
    44
1041
2.0
1070
   140
1041
3.0
1070
   343
1005
0
1070
   344
1005
0
1002
}
0
ENDSEC
0
SECTION
2
OBJECTS
0
DICTIONARY
5
2e1
330
0
100
AcDbDictionary
280
0
281
1
3
ACAD_GROUP
350
2e2
3
ACAD_GROUP
350
2e3
3
ACAD_MLINESTYLE
350
2e4
0
DICTIONARY
5
2e2
330
0
100
AcDbDictionary
280
0
281
1
0
DICTIONARY
5
2e3
330
0
100
AcDbDictionary
280
0
281
1
3
_DC
350
279
3
_DC_55
350
278
3
<201748630MOD000_00>
350
273
3
820_300TC22_C8_A1
350
274
3
C8_R822XLS17_AK070_A1
350
275
3
DIT-000-00-UG_TO_2D CONVERT_XL_CC12F
350
27C
3
DIT-000-00-UG_TO_2D CONVERT_XL_SP12Y
350
27B
3
S12_R820XLR40STFC22_A1
350
277
3
S12_S17_TC22_A1
350
276
3
S17_R820XLS12_TC22_A1
350
27A
0
DICTIONARY
5
2e4
330
0
100
AcDbDictionary
280
0
281
1
3
Standard
350
18
0
GROUP
5
279
330
2e3
100
AcDbGroup
300

70
0
71
1
340
82
0
GROUP
5
278
330
2e3
100
AcDbGroup
300

70
0
71
1
340
82
340
82
0
GROUP
5
273
330
2e3
100
AcDbGroup
300

70
0
71
1
340
6C
340
6E
340
70
340
71
340
73
340
74
340
76
340
77
340
78
340
79
340
7A
340
7B
340
7C
340
7D
340
7E
340
7F
340
80
340
82
340
84
340
85
340
86
340
87
340
89
340
8A
340
8B
340
8C
340
8D
340
8E
340
8F
340
90
340
91
340
92
340
93
340
94
340
95
340
96
340
97
340
98
340
99
340
9A
340
9C
340
9D
340
9E
340
9F
340
A0
340
A1
340
A2
340
A3
340
A4
340
A5
340
A6
340
A7
340
A8
340
A9
340
AA
340
AB
340
AC
340
AD
340
AE
340
AF
340
B0
340
B1
340
B2
340
B3
340
B4
340
B5
340
B6
340
B7
340
B8
340
B9
340
BA
340
BB
340
BC
340
BD
340
BE
340
BF
340
C0
340
C1
340
C2
340
C3
340
C4
340
C5
340
C6
340
C7
340
C8
340
C9
340
CA
340
CB
340
CC
340
CD
340
CE
340
CF
340
D0
340
D1
340
D2
340
D3
340
D4
340
D5
340
D6
340
D7
340
D8
340
D9
340
DA
340
DB
340
DC
340
DD
340
DE
340
DF
340
E0
340
E1
340
E2
340
E3
340
E4
340
E5
340
E6
340
E7
340
E8
340
E9
340
EA
340
EB
340
EC
340
ED
340
EE
340
EF
340
F0
340
F1
340
F2
340
F3
340
F4
340
F5
340
F6
340
F7
340
F8
340
F9
340
FA
340
FB
340
FC
340
FD
340
FE
340
FF
340
100
340
101
340
102
340
103
340
104
340
105
340
106
340
107
340
108
340
109
340
10A
340
10B
340
10C
340
10D
340
10E
340
10F
340
110
340
111
340
112
340
113
340
114
340
115
340
116
340
117
340
118
340
119
340
11A
340
11B
340
11C
340
11D
340
11E
340
11F
340
120
340
121
340
122
340
123
340
124
340
125
340
126
340
127
340
128
340
129
340
12A
340
12B
340
12C
340
12D
340
12E
340
12F
340
130
340
131
340
132
340
133
340
134
340
135
340
136
340
137
340
138
340
139
340
13A
340
13B
340
13C
340
13D
340
13E
340
13F
340
140
340
141
340
142
340
143
340
144
340
145
340
146
340
147
340
148
340
149
340
14A
340
14B
340
14C
340
14D
340
14E
340
14F
340
150
340
151
340
152
340
153
340
154
340
155
340
156
340
157
340
158
340
159
340
15A
340
15B
340
15C
340
15D
340
15E
340
15F
340
160
340
161
340
162
340
163
340
164
340
165
340
166
340
167
340
168
340
169
340
16A
340
16B
340
16C
340
16D
340
16E
340
16F
340
170
340
171
340
172
340
173
340
174
340
175
340
176
340
177
340
178
340
179
340
17A
340
17B
340
17C
340
17D
340
17E
340
17F
340
180
340
181
340
182
340
183
340
184
340
185
340
186
340
187
340
188
340
189
340
18A
340
18B
340
18C
340
18D
340
18E
340
18F
340
190
340
191
340
192
340
193
340
194
340
195
340
196
340
197
340
198
340
199
340
19A
340
19B
340
19C
340
19D
340
19E
340
19F
340
1A0
340
1A1
340
1A2
340
1A3
340
1A4
340
1A5
340
1A6
340
1A7
340
1A8
340
1A9
340
1AA
340
1AB
340
1AC
340
1AD
340
1AE
340
1AF
340
1B0
340
1B1
340
1B2
340
1B3
340
1B4
340
1B5
340
1B6
340
1B7
340
1B8
340
1B9
340
1BA
340
1BB
340
1BC
340
1BD
340
1BE
340
1BF
340
1C0
340
1C1
340
1C2
340
1C3
340
1C4
340
1C5
340
1C6
340
1C7
340
1C8
340
1C9
340
1CA
340
1CB
340
1CC
340
1CD
340
1CE
340
1CF
340
1D0
340
1D1
340
1D2
340
1D3
340
1D4
340
1D5
340
1D6
340
1D7
340
1D8
340
1D9
340
1DA
340
1DB
340
1DC
340
1DD
340
1DE
340
1DF
340
1E0
340
1E1
340
1E2
340
1E3
340
1E4
340
1E5
340
1E6
340
1E7
340
1E8
340
1E9
340
1EA
340
1EB
340
1EC
340
1ED
340
1EE
340
1EF
340
1F0
340
1F1
340
1F2
340
1F3
340
1F4
340
1F5
340
1F6
340
1F7
340
1F8
340
1F9
340
1FA
340
1FB
340
1FC
340
1FD
340
1FE
340
1FF
340
200
340
201
340
202
340
203
340
204
340
205
340
206
340
207
340
208
340
209
340
20A
340
20B
340
20C
340
20D
340
20E
340
20F
340
210
340
211
340
212
340
213
340
214
340
215
340
216
340
217
340
218
340
219
340
21A
340
21B
340
21C
340
21D
340
21E
340
21F
340
220
340
221
340
222
340
223
340
224
340
225
340
226
340
227
340
228
340
229
340
22A
340
22B
340
22C
340
22D
340
22E
340
22F
340
230
340
231
340
6E
340
70
340
82
340
84
340
85
340
86
340
6E
340
82
340
84
340
6E
340
82
340
84
340
82
340
82
340
82
340
260
340
82
340
82
340
82
340
232
340
260
340
6E
340
82
340
84
340
82
340
82
340
82
340
260
340
82
340
82
340
82
340
70
340
85
340
232
340
260
340
26A
340
6E
340
82
340
84
340
6E
340
82
340
84
340
82
340
82
340
82
340
260
340
82
340
82
340
82
340
232
340
260
340
6E
340
82
340
84
340
82
340
82
340
82
340
260
340
82
340
82
340
82
340
70
340
85
340
87
340
89
340
8A
340
8B
340
8C
340
8D
340
8E
340
8F
340
90
340
91
340
92
340
93
340
94
340
95
340
96
340
97
340
98
340
99
340
9A
340
9C
340
9D
340
9E
340
9F
340
A0
340
A1
340
A2
340
A3
340
A4
340
A5
340
A6
340
A7
340
A8
340
A9
340
AA
340
AB
340
AC
340
AD
340
AE
340
AF
340
B0
340
B1
340
B2
340
B3
340
B4
340
B5
340
B6
340
B7
340
B8
340
B9
340
BA
340
BB
340
BC
340
BD
340
BE
340
BF
340
C0
340
C1
340
C2
340
C3
340
C4
340
C5
340
C6
340
C7
340
C8
340
C9
340
CA
340
CB
340
CC
340
CD
340
CE
340
CF
340
D0
340
D1
340
D2
340
D3
340
D4
340
D5
340
D6
340
D7
340
D8
340
D9
340
DA
340
DB
340
DC
340
DD
340
DE
340
DF
340
E0
340
E1
340
E2
340
E3
340
E4
340
E5
340
E6
340
E7
340
E8
340
E9
340
EA
340
EB
340
EC
340
ED
340
EE
340
EF
340
F0
340
F1
340
F2
340
F3
340
F4
340
F5
340
F6
340
F7
340
F8
340
F9
340
FA
340
FB
340
FC
340
FD
340
FE
340
FF
340
100
340
101
340
102
340
103
340
104
340
105
340
106
340
107
340
108
340
109
340
10A
340
10B
340
10C
340
10D
340
10E
340
10F
340
110
340
111
340
112
340
113
340
114
340
115
340
116
340
117
340
118
340
119
340
11A
340
11B
340
11C
340
11D
340
11E
340
11F
340
120
340
121
340
122
340
123
340
124
340
125
340
126
340
127
340
128
340
129
340
12A
340
12B
340
12C
340
12D
340
12E
340
12F
340
130
340
131
340
132
340
133
340
134
340
135
340
136
340
137
340
138
340
139
340
13A
340
13B
340
13C
340
13D
340
13E
340
13F
340
140
340
141
340
142
340
143
340
144
340
145
340
146
340
147
340
148
340
149
340
14A
340
14B
340
14C
340
14D
340
14E
340
14F
340
150
340
151
340
152
340
153
340
154
340
155
340
156
340
157
340
158
340
159
340
15A
340
15B
340
15C
340
15D
340
15E
340
15F
340
160
340
161
340
162
340
163
340
164
340
165
340
166
340
167
340
168
340
169
340
16A
340
16F
340
170
340
171
340
172
340
173
340
174
340
175
340
176
340
177
340
178
340
179
340
17A
340
17B
340
17C
340
17D
340
17E
340
17F
340
180
340
181
340
182
340
183
340
184
340
185
340
186
340
187
340
188
340
189
340
18A
340
18B
340
18C
340
18D
340
18E
340
18F
340
190
340
191
340
192
340
193
340
194
340
195
340
196
340
197
340
198
340
199
340
19A
340
19B
340
19C
340
19D
340
19E
340
19F
340
1A0
340
1A1
340
1A2
340
1A3
340
1A4
340
1A5
340
1A6
340
1A7
340
1A8
340
1A9
340
1AA
340
1AB
340
1AC
340
1AD
340
1AE
340
1AF
340
1B0
340
1B1
340
1B2
340
1B3
340
1B4
340
1B5
340
1B6
340
1B7
340
1B8
340
1B9
340
1BA
340
1BB
340
1BC
340
1BD
340
1BE
340
1BF
340
1C0
340
1C1
340
1C2
340
1C3
340
1C4
340
1C5
340
1C6
340
1C7
340
1C8
340
1C9
340
1CA
340
1CB
340
1CC
340
1CD
340
1CE
340
1CF
340
1D0
340
1D1
340
1D2
340
1D3
340
1D4
340
1D5
340
1D6
340
1D7
340
1D8
340
1D9
340
1DA
340
1DB
340
1DC
340
1DD
340
1DE
340
1DF
340
1E0
340
1E1
340
1E2
340
1E3
340
1E4
340
1E5
340
1E6
340
1E7
340
1E8
340
1E9
340
1EA
340
1EB
340
1EC
340
1ED
340
1EE
340
1EF
340
1F0
340
1F1
340
1F2
340
1F3
340
1F4
340
1F5
340
1F6
340
1F7
340
1F8
340
1F9
340
1FA
340
1FB
340
1FC
340
1FD
340
1FE
340
1FF
340
200
340
201
340
202
340
203
340
204
340
205
340
206
340
207
340
208
340
209
340
20A
340
20B
340
20C
340
20D
340
20E
340
20F
340
210
340
211
340
212
340
213
340
214
340
215
340
216
340
217
340
218
340
219
340
21A
340
21B
340
21C
340
21D
340
21E
340
21F
340
220
340
221
340
222
340
223
340
224
340
225
340
226
340
227
340
228
340
229
340
22A
340
22B
340
22C
340
22D
340
22E
340
22F
340
230
340
231
340
232
340
23F
340
24B
340
256
340
260
340
26A
0
GROUP
5
274
330
2e3
100
AcDbGroup
300

70
0
71
1
340
6E
340
70
340
82
340
84
340
85
340
86
340
6E
340
82
340
84
340
6E
340
82
340
84
340
82
340
82
340
82
340
260
340
82
340
82
340
82
340
232
340
260
340
6E
340
82
340
84
340
82
340
82
340
82
340
260
340
82
340
82
340
82
340
70
340
85
340
232
340
260
340
26A
0
GROUP
5
275
330
2e3
100
AcDbGroup
300

70
0
71
1
0
GROUP
5
27C
330
2e3
100
AcDbGroup
300

70
0
71
1
340
9A
340
9C
340
9D
340
9E
340
9F
340
A0
340
A1
340
A2
340
A3
340
A4
340
A5
340
A6
340
A7
340
A8
340
A9
340
AA
340
AB
340
AC
340
AD
340
AE
340
AF
340
B0
340
B1
340
B2
340
B3
340
B4
340
B5
340
B6
340
B7
340
B8
340
B9
340
BA
340
BB
340
BC
340
BD
340
BE
340
BF
340
C0
340
C1
340
C2
340
C3
340
C4
340
C5
340
C6
340
C7
340
C8
340
C9
340
CA
340
CB
340
CC
340
CD
340
CE
340
CF
340
D0
340
D1
340
D2
340
D3
340
D4
340
D5
340
D6
340
D7
340
D8
340
D9
340
DA
340
DB
340
DC
340
DD
340
DE
340
DF
340
E0
340
E1
340
E2
340
E3
340
E4
340
E5
340
E6
340
E7
340
E8
340
E9
340
EA
340
EB
340
EC
340
ED
340
EE
340
EF
340
F0
340
F1
340
F2
340
F3
340
F4
340
F5
340
F6
340
F7
340
F8
340
F9
340
FA
340
FB
340
FC
340
FD
340
FE
340
FF
340
100
340
101
340
102
340
103
340
104
340
105
340
106
340
107
340
108
340
109
340
10A
340
10B
340
10C
340
10D
340
10E
340
10F
340
110
340
111
340
112
340
113
340
114
340
115
340
116
340
117
340
118
340
119
340
11A
340
11B
340
11C
340
11D
340
11E
340
11F
340
120
340
121
340
122
340
123
340
124
340
125
340
126
340
127
340
128
340
129
340
12A
340
12B
340
12C
340
12D
340
12E
340
12F
340
130
340
131
340
132
340
133
340
134
340
135
340
136
340
137
340
138
340
139
340
13A
340
13B
340
13C
340
13D
340
13E
340
13F
340
140
340
141
340
142
340
143
340
144
340
145
340
146
340
147
340
148
340
149
340
14A
340
14B
340
14C
340
14D
340
14E
340
14F
340
150
340
151
340
152
340
153
340
154
340
155
340
156
340
157
340
158
340
159
340
15A
340
15B
340
15C
340
15D
340
15E
340
15F
340
160
340
161
340
162
340
163
340
164
340
165
340
166
340
167
340
168
340
169
340
16A
340
16F
340
170
340
171
340
172
340
173
340
174
340
175
340
176
340
177
340
178
340
179
340
17A
340
17B
340
17C
340
17D
340
17E
340
17F
340
180
340
181
340
182
340
183
340
184
340
185
340
186
340
187
340
188
340
189
340
18A
340
18B
340
18C
340
18D
340
18E
340
18F
340
190
340
191
340
192
340
193
340
194
340
195
340
196
340
197
340
198
340
199
340
19A
340
19B
340
19C
340
19D
340
19E
340
19F
340
1A0
340
1A1
340
1A2
340
1A3
340
1A4
340
1A5
340
1A6
340
1A7
340
1A8
340
1A9
340
1AA
340
1AB
340
1AC
340
1AD
340
1AE
340
1AF
340
1B0
340
1B1
340
1B2
340
1B3
340
1B4
340
1B5
340
1B6
340
1B7
340
1B8
340
1B9
340
1BA
340
1BB
340
1BC
340
1BD
340
1BE
340
1BF
340
1C0
340
1C1
340
1C2
340
1C3
340
1C4
340
1C5
340
1C6
340
1C7
340
1C8
340
1C9
340
1CA
340
1CB
340
1CC
340
1CD
340
1CE
340
1CF
340
1D0
340
1D1
340
1D2
340
1D3
340
1D4
340
1D5
340
1D6
340
1D7
340
1D8
340
1D9
340
1DA
340
1DB
340
1DC
340
1DD
340
1DE
340
1DF
340
1E0
340
1E1
340
1E2
340
1E3
340
1E4
340
1E5
340
1E6
340
1E7
340
1E8
340
1E9
340
1EA
340
1EB
340
1EC
340
1ED
340
1EE
340
1EF
340
1F0
340
1F1
340
1F2
340
1F3
340
1F4
340
1F5
340
1F6
340
1F7
340
1F8
340
1F9
340
1FA
340
1FB
340
1FC
340
1FD
340
1FE
340
1FF
340
200
340
201
340
202
340
203
340
204
340
205
340
206
340
207
340
208
340
209
340
20A
340
20B
340
20C
340
20D
340
20E
340
20F
340
210
340
211
340
212
340
213
340
214
340
215
340
216
340
217
340
218
340
219
340
21A
340
21B
340
21C
340
21D
340
21E
340
21F
340
220
340
221
340
222
340
223
340
224
340
225
340
226
340
227
340
228
340
229
340
22A
340
22B
340
22C
340
22D
340
22E
340
22F
340
230
340
231
0
GROUP
5
27B
330
2e3
100
AcDbGroup
300

70
0
71
1
340
87
340
89
340
8A
340
8B
340
8C
340
8D
340
8E
340
8F
340
90
340
91
340
92
340
93
340
94
340
95
340
96
340
97
340
98
340
99
0
GROUP
5
277
330
2e3
100
AcDbGroup
300

70
0
71
1
340
6E
340
82
340
84
340
82
340
82
340
82
340
260
0
GROUP
5
276
330
2e3
100
AcDbGroup
300

70
0
71
1
340
6E
340
82
340
84
340
6E
340
82
340
84
340
82
340
82
340
82
340
260
340
82
340
82
340
82
340
232
340
260
0
GROUP
5
27A
330
2e3
100
AcDbGroup
300

70
0
71
1
340
70
340
85
0
MLINESTYLE
5
18
330
2e4
100
AcDbMlineStyle
2
Standard
70
0
3

62
256
51
90
52
90
71
2
49
-0.5
62
256
6
ByLayer
49
0.5
62
256
6
ByLayer
0
RASTERVARIABLES
5
2cd
330

100
AcDbRasterVariables
90
0
70
1
71
1
72
1
0
ENDSEC
0
EOF
