0
SECTION
2
HEADER
9
$ACADVER
1
AC1015
9
$DWGCODEPAGE
3
ANSI_1252
9
$HANDSEED
5
479
9
$ANGBASE
50
0
9
$ANGDIR
70
0
9
$ATTMODE
70
1
9
$AUNITS
70
0
9
$AUPREC
70
0
9
$CECOLOR
62
256
9
$CELTSCALE
40
1
9
$CELTYPE
6
ByLayer
9
$CELWEIGHT
370
18
9
$CLAYER
8
0
9
$CMLJUST
70
0
9
$CMLSCALE
40
1
9
$CMLSTYLE
2
Standard
9
$DIMSTYLE
2
Standard
9
$TEXTSIZE
40
0.2
9
$TEXTSTYLE
7
Standard
9
$LUNITS
70
2
9
$LUPREC
70
4
9
$EXTNAMES
290
1
9
$INSUNITS
70
4
9
$LTSCALE
40
1
9
$LWDISPLAY
290
1
9
$PDMODE
70
0
9
$PDSIZE
40
0
9
$PLINEGEN
70
0
0
ENDSEC
0
SECTION
2
CLASSES
0
CLASS
1
RASTERVARIABLES
2
AcDbRasterVariables
3
ISM
90
0
280
0
281
0
0
ENDSEC
0
SECTION
2
TABLES
0
TABLE
2
VPORT
5
46f
100
AcDbSymbolTable
0
VPORT
5
1
100
AcDbSymbolTableRecord
100
AcDbViewportTableRecord
2
*Active
70
0
10
0
20
0
11
1
21
1
12
-1
22
1
13
0
23
0
14
0.5
24
0.5
15
10
25
10
16
0
26
0
36
1
17
0
27
0
37
0
0
ENDTAB
0
TABLE
2
LTYPE
5
470
100
AcDbSymbolTable
0
LTYPE
5
14
100
AcDbSymbolTableRecord
100
AcDbLinetypeTableRecord
70
0
2
ByBlock
3

72
65
73
0
40
0
0
LTYPE
5
15
100
AcDbSymbolTableRecord
100
AcDbLinetypeTableRecord
70
0
2
ByLayer
3

72
65
73
0
40
0
0
LTYPE
5
16
100
AcDbSymbolTableRecord
100
AcDbLinetypeTableRecord
70
0
2
CONTINUOUS
3
Solid line
72
65
73
0
40
0
0
LTYPE
5
6A
100
AcDbSymbolTableRecord
100
AcDbLinetypeTableRecord
70
0
2
CENTER
3
____ _ ____ _ ____ _ ____
72
65
73
4
40
47.5
49
22
74
0
49
-8.5
74
0
49
8.5
74
0
49
-8.5
74
0
0
LTYPE
5
6B
100
AcDbSymbolTableRecord
100
AcDbLinetypeTableRecord
70
0
2
DASHED
3
__ __ __ __ __ __ __ __ __
72
65
73
2
40
25.72
49
12.86
74
0
49
-12.86
74
0
0
ENDTAB
0
TABLE
2
LAYER
5
471
100
AcDbSymbolTable
0
LAYER
5
10
100
AcDbSymbolTableRecord
100
AcDbLayerTableRecord
2
0
70
0
62
7
6
CONTINUOUS
290
1
370
-3
390
0
0
LAYER
5
6D
100
AcDbSymbolTableRecord
100
AcDbLayerTableRecord
2
81
70
0
62
-3
6
CONTINUOUS
290
1
370
-3
390
0
0
LAYER
5
6F
100
AcDbSymbolTableRecord
100
AcDbLayerTableRecord
2
80
70
0
62
-6
6
CONTINUOUS
290
1
370
-3
390
0
0
LAYER
5
72
100
AcDbSymbolTableRecord
100
AcDbLayerTableRecord
2
2
70
0
62
7
6
CONTINUOUS
290
1
370
-3
390
0
0
LAYER
5
80
100
AcDbSymbolTableRecord
100
AcDbLayerTableRecord
2
4
70
0
62
-2
6
CENTER
290
1
370
-3
390
0
0
LAYER
5
84
100
AcDbSymbolTableRecord
100
AcDbLayerTableRecord
2
1
70
0
62
4
6
CONTINUOUS
290
1
370
-3
390
0
0
LAYER
5
458
100
AcDbSymbolTableRecord
100
AcDbLayerTableRecord
2
SK4
70
0
62
2
6
CENTER
290
1
370
-3
390
0
0
LAYER
5
459
100
AcDbSymbolTableRecord
100
AcDbLayerTableRecord
2
SK3
70
0
62
1
6
DASHED
290
1
370
-3
390
0
0
LAYER
5
45a
100
AcDbSymbolTableRecord
100
AcDbLayerTableRecord
2
SK1
70
0
62
4
6
CONTINUOUS
290
1
370
-3
390
0
0
LAYER
5
45b
100
AcDbSymbolTableRecord
100
AcDbLayerTableRecord
2
SK6
70
0
62
5
6
CONTINUOUS
290
1
370
-3
390
0
0
LAYER
5
45c
100
AcDbSymbolTableRecord
100
AcDbLayerTableRecord
2
SK2
70
0
62
7
6
CONTINUOUS
290
1
370
-3
390
0
0
ENDTAB
0
TABLE
2
STYLE
5
472
100
AcDbSymbolTable
0
STYLE
5
11
100
AcDbSymbolTableRecord
100
AcDbTextStyleTableRecord
2
Standard
3
txt
70
0
71
0
40
0
41
1
42
0
50
0
0
STYLE
5
3BE
100
AcDbSymbolTableRecord
100
AcDbTextStyleTableRecord
2
iso_b_vert
3
simplex.shx
70
0
71
0
40
0
41
1
42
0
50
0
0
STYLE
5
3BF
100
AcDbSymbolTableRecord
100
AcDbTextStyleTableRecord
2
DWGDirectTextStyle
3
simplex
70
0
71
0
40
0
41
1
42
0
50
0
0
ENDTAB
0
TABLE
2
DIMSTYLE
5
473
100
AcDbSymbolTable
100
AcDbDimStyleTable
0
DIMSTYLE
105
27
100
AcDbSymbolTableRecord
100
AcDbDimStyleTableRecord
2
Standard
70
0
3
<>
41
0.18
42
0.0625
44
0.18
140
0.18
147
0.09
73
0
74
0
77
1
271
2
275
0
278
52
280
0
340
11
0
ENDTAB
0
TABLE
2
VIEW
5
474
100
AcDbSymbolTable
0
ENDTAB
0
TABLE
2
UCS
5
475
100
AcDbSymbolTable
0
ENDTAB
0
TABLE
2
APPID
5
476
100
AcDbSymbolTable
0
APPID
5
12
100
AcDbSymbolTableRecord
100
AcDbRegAppTableRecord
2
ACAD
70
0
0
ENDTAB
0
TABLE
2
BLOCK_RECORD
5
477
100
AcDbSymbolTable
0
BLOCK_RECORD
5
1F
100
AcDbSymbolTableRecord
100
AcDbBlockTableRecord
2
*Model_Space
340
0
70
0
0
BLOCK_RECORD
5
1B
100
AcDbSymbolTableRecord
100
AcDbBlockTableRecord
2
*Paper_Space
340
0
70
0
0
BLOCK_RECORD
5
23
100
AcDbSymbolTableRecord
100
AcDbBlockTableRecord
2
*Paper_Space0
340
0
70
0
0
BLOCK_RECORD
5
3C1
100
AcDbSymbolTableRecord
100
AcDbBlockTableRecord
2
DimnDraft3D1
340
0
70
0
0
BLOCK_RECORD
5
3CB
100
AcDbSymbolTableRecord
100
AcDbBlockTableRecord
2
DimnDraft3D2
340
0
70
0
0
BLOCK_RECORD
5
3D5
100
AcDbSymbolTableRecord
100
AcDbBlockTableRecord
2
DimnDraft3D3
340
0
70
0
0
BLOCK_RECORD
5
3DF
100
AcDbSymbolTableRecord
100
AcDbBlockTableRecord
2
DimnDraft3D4
340
0
70
0
0
BLOCK_RECORD
5
3EB
100
AcDbSymbolTableRecord
100
AcDbBlockTableRecord
2
DimnDraft3D5
340
0
70
0
0
ENDTAB
0
ENDSEC
0
SECTION
2
BLOCKS
0
BLOCK
5
20
100
AcDbEntity
8
0
100
AcDbBlockBegin
2
*Model_Space
70
0
10
0
20
0
30
0
3
*Model_Space
0
ENDBLK
5
21
100
AcDbEntity
8
0
100
AcDbBlockEnd
0
BLOCK
5
1C
100
AcDbEntity
8
0
100
AcDbBlockBegin
2
*Paper_Space
70
0
10
0
20
0
30
0
3
*Paper_Space
0
ENDBLK
5
1D
100
AcDbEntity
8
0
100
AcDbBlockEnd
0
BLOCK
5
24
100
AcDbEntity
8
0
100
AcDbBlockBegin
2
*Paper_Space0
70
0
10
0
20
0
30
0
3
*Paper_Space0
0
ENDBLK
5
25
100
AcDbEntity
8
0
100
AcDbBlockEnd
0
BLOCK
5
3C8
100
AcDbEntity
8
0
100
AcDbBlockBegin
2
DimnDraft3D1
70
0
10
0
20
0
30
0
3
DimnDraft3D1
0
MTEXT
5
3C2
100
AcDbEntity
8
2
62
256
6
ByLayer
370
18
48
1
60
0
100
AcDbMText
10
94.425781
20
97.96733
30
0
210
0
220
0
230
1
1
\W0.6258;84%%d
40
3
41
0
44
1.084337
50
47.9999999999999
71
7
72
5
7
iso_b_vert
0
LINE
5
3C3
100
AcDbEntity
8
2
62
256
6
ByLayer
370
13
48
1
60
0
100
AcDbLine
10
101
20
111.99997
30
0
11
103.373824
21
111.99997
31
0
39
0
210
0
220
0
230
1
0
LINE
5
3C4
100
AcDbEntity
8
2
62
256
6
ByLayer
370
13
48
1
60
0
100
AcDbLine
10
83.403454
20
98.647029
30
0
11
84.234176
21
90.743237
31
0
39
0
210
0
220
0
230
1
0
ARC
5
3C5
100
AcDbEntity
8
2
62
256
6
ByLayer
370
13
48
1
60
0
100
AcDbCircle
39
0
10
82.000003
20
111.99997
30
0
40
19.3738210902751
210
0
220
0
230
1
100
AcDbArc
50
276
51
0
0
SOLID
5
3C6
100
AcDbEntity
8
2
62
256
6
ByLayer
370
13
48
1
60
0
100
AcDbTrace
10
101.373824
20
111.99997
30
0
11
101.661717
21
108.810541
31
0
12
100.826422
22
108.844703
32
0
13
101.373824
23
111.99997
33
0
39
0
210
0
220
0
230
1
0
SOLID
5
3C7
100
AcDbEntity
8
2
62
256
6
ByLayer
370
13
48
1
60
0
100
AcDbTrace
10
84.025119
20
92.73228
30
0
11
87.105878
21
93.606498
31
0
12
87.227171
22
92.779351
32
0
13
84.025119
23
92.73228
33
0
39
0
210
0
220
0
230
1
0
ENDBLK
5
3C9
100
AcDbEntity
8
0
100
AcDbBlockEnd
0
BLOCK
5
3D2
100
AcDbEntity
8
0
100
AcDbBlockBegin
2
DimnDraft3D2
70
0
10
0
20
0
30
0
3
DimnDraft3D2
0
MTEXT
5
3CC
100
AcDbEntity
8
2
62
256
6
ByLayer
370
18
48
1
60
0
100
AcDbMText
10
115.306511
20
-21.880263
30
0
210
0
220
0
230
1
1
\W0.7367;Dc roughing = 198 - 250
40
3
41
0
44
1.084337
50
90
71
7
72
5
7
iso_b_vert
0
LINE
5
3CD
100
AcDbEntity
8
2
62
256
6
ByLayer
370
13
48
1
60
0
100
AcDbLine
10
84
20
111.99997
30
0
11
118.056511
21
111.99997
31
0
39
0
210
0
220
0
230
1
0
LINE
5
3CE
100
AcDbEntity
8
2
62
256
6
ByLayer
370
13
48
1
60
0
100
AcDbLine
10
84
20
-111.99997
30
0
11
118.056511
21
-111.99997
31
0
39
0
210
0
220
0
230
1
0
LINE
5
3CF
100
AcDbEntity
8
2
62
256
6
ByLayer
370
13
48
1
60
0
100
AcDbLine
10
116.056511
20
111.99997
30
0
11
116.056511
21
-111.99997
31
0
39
0
210
0
220
0
230
1
0
SOLID
5
3D0
100
AcDbEntity
8
2
62
256
6
ByLayer
370
13
48
1
60
0
100
AcDbTrace
10
116.056511
20
111.99997
30
0
11
116.474507
21
108.824971
31
0
12
115.638514
22
108.824968
32
0
13
116.056511
23
111.99997
33
0
39
0
210
0
220
0
230
1
0
SOLID
5
3D1
100
AcDbEntity
8
2
62
256
6
ByLayer
370
13
48
1
60
0
100
AcDbTrace
10
116.056511
20
-111.99997
30
0
11
115.638514
21
-108.824971
31
0
12
116.474507
22
-108.824968
32
0
13
116.056511
23
-111.99997
33
0
39
0
210
0
220
0
230
1
0
ENDBLK
5
3D3
100
AcDbEntity
8
0
100
AcDbBlockEnd
0
BLOCK
5
3DC
100
AcDbEntity
8
0
100
AcDbBlockBegin
2
DimnDraft3D3
70
0
10
0
20
0
30
0
3
DimnDraft3D3
0
MTEXT
5
3D6
100
AcDbEntity
8
2
62
256
6
ByLayer
370
18
48
1
60
0
100
AcDbMText
10
39.997368
20
131.515797
30
0
210
0
220
0
230
1
1
\W0.6170;82
40
3
41
0
44
1.084337
50
0
71
7
72
5
7
iso_b_vert
0
LINE
5
3D7
100
AcDbEntity
8
2
62
256
6
ByLayer
370
13
48
1
60
0
100
AcDbLine
10
0
20
61.7
30
0
11
0
21
132.765797
31
0
39
0
210
0
220
0
230
1
0
LINE
5
3D8
100
AcDbEntity
8
2
62
256
6
ByLayer
370
13
48
1
60
0
100
AcDbLine
10
82
20
113.99997
30
0
11
82
21
132.765797
31
0
39
0
210
0
220
0
230
1
0
LINE
5
3D9
100
AcDbEntity
8
2
62
256
6
ByLayer
370
13
48
1
60
0
100
AcDbLine
10
0
20
130.765797
30
0
11
82
21
130.765797
31
0
39
0
210
0
220
0
230
1
0
SOLID
5
3DA
100
AcDbEntity
8
2
62
256
6
ByLayer
370
13
48
1
60
0
100
AcDbTrace
10
0
20
130.765797
30
0
11
3.174998
21
131.183794
31
0
12
3.175002
22
130.347801
32
0
13
0
23
130.765797
33
0
39
0
210
0
220
0
230
1
0
SOLID
5
3DB
100
AcDbEntity
8
2
62
256
6
ByLayer
370
13
48
1
60
0
100
AcDbTrace
10
82
20
130.765797
30
0
11
78.825002
21
130.347801
31
0
12
78.824998
22
131.183794
32
0
13
82
23
130.765797
33
0
39
0
210
0
220
0
230
1
0
ENDBLK
5
3DD
100
AcDbEntity
8
0
100
AcDbBlockEnd
0
BLOCK
5
3E8
100
AcDbEntity
8
0
100
AcDbBlockBegin
2
DimnDraft3D4
70
0
10
0
20
0
30
0
3
DimnDraft3D4
0
MTEXT
5
3E0
100
AcDbEntity
8
SK2
62
256
6
ByLayer
370
18
48
1
60
0
100
AcDbMText
10
-19.85367
20
2.063158
30
0
210
0
220
0
230
1
1
\W0.6170;33
40
3.5
41
0
44
1.084337
50
90
71
7
72
5
7
iso_b_vert
0
MTEXT
5
3E2
100
AcDbEntity
8
SK2
62
256
6
ByLayer
370
18
48
1
60
0
100
AcDbMText
10
-19.85367
20
-4.402632
30
0
210
0
220
0
230
1
1
\W0.8513;%%c 
40
3.5
41
0
44
1.084337
50
90
71
7
72
5
7
iso_b_vert
0
LINE
5
3E3
100
AcDbEntity
8
SK2
62
256
6
ByLayer
370
13
48
1
60
0
100
AcDbLine
10
2.158438
20
16.50625
30
0
11
-20.97867
21
16.50625
31
0
39
0
210
0
220
0
230
1
0
LINE
5
3E4
100
AcDbEntity
8
SK2
62
256
6
ByLayer
370
13
48
1
60
0
100
AcDbLine
10
2.158438
20
-16.50625
30
0
11
-20.97867
21
-16.50625
31
0
39
0
210
0
220
0
230
1
0
LINE
5
3E5
100
AcDbEntity
8
SK2
62
256
6
ByLayer
370
13
48
1
60
0
100
AcDbLine
10
-18.97867
20
16.50625
30
0
11
-18.97867
21
-16.50625
31
0
39
0
210
0
220
0
230
1
0
SOLID
5
3E6
100
AcDbEntity
8
SK2
62
256
6
ByLayer
370
13
48
1
60
0
100
AcDbTrace
10
-18.97867
20
16.50625
30
0
11
-18.560674
21
13.331252
31
0
12
-19.396667
22
13.331248
32
0
13
-18.97867
23
16.50625
33
0
39
0
210
0
220
0
230
1
0
SOLID
5
3E7
100
AcDbEntity
8
SK2
62
256
6
ByLayer
370
13
48
1
60
0
100
AcDbTrace
10
-18.97867
20
-16.50625
30
0
11
-19.396667
21
-13.331252
31
0
12
-18.560674
22
-13.331248
32
0
13
-18.97867
23
-16.50625
33
0
39
0
210
0
220
0
230
1
0
ENDBLK
5
3E9
100
AcDbEntity
8
0
100
AcDbBlockEnd
0
BLOCK
5
3F3
100
AcDbEntity
8
0
100
AcDbBlockBegin
2
DimnDraft3D5
70
0
10
0
20
0
30
0
3
DimnDraft3D5
0
MTEXT
5
3EC
100
AcDbEntity
8
SK2
62
256
6
ByLayer
370
18
48
1
60
0
100
AcDbMText
10
-39.825192
20
1.215789
30
0
210
0
220
0
230
1
1
\W0.6255;120
40
3.5
41
0
44
1.084337
50
90
71
7
72
5
7
iso_b_vert
0
MTEXT
5
3ED
100
AcDbEntity
8
SK2
62
256
6
ByLayer
370
18
48
1
60
0
100
AcDbMText
10
-39.825192
20
-5.25
30
0
210
0
220
0
230
1
1
\W0.8513;%%c 
40
3.5
41
0
44
1.084337
50
90
71
7
72
5
7
iso_b_vert
0
LINE
5
3EE
100
AcDbEntity
8
SK2
62
256
6
ByLayer
370
13
48
1
60
0
100
AcDbLine
10
-1.7
20
-60
30
0
11
-40.950192
21
-60
31
0
39
0
210
0
220
0
230
1
0
LINE
5
3EF
100
AcDbEntity
8
SK2
62
256
6
ByLayer
370
13
48
1
60
0
100
AcDbLine
10
-1.7
20
60
30
0
11
-40.950192
21
60
31
0
39
0
210
0
220
0
230
1
0
LINE
5
3F0
100
AcDbEntity
8
SK2
62
256
6
ByLayer
370
13
48
1
60
0
100
AcDbLine
10
-38.950192
20
-60
30
0
11
-38.950192
21
60
31
0
39
0
210
0
220
0
230
1
0
SOLID
5
3F1
100
AcDbEntity
8
SK2
62
256
6
ByLayer
370
13
48
1
60
0
100
AcDbTrace
10
-38.950192
20
-60
30
0
11
-39.368189
21
-56.825002
31
0
12
-38.532195
22
-56.824998
32
0
13
-38.950192
23
-60
33
0
39
0
210
0
220
0
230
1
0
SOLID
5
3F2
100
AcDbEntity
8
SK2
62
256
6
ByLayer
370
13
48
1
60
0
100
AcDbTrace
10
-38.950192
20
60
30
0
11
-38.532195
21
56.825002
31
0
12
-39.368189
22
56.824998
32
0
13
-38.950192
23
60
33
0
39
0
210
0
220
0
230
1
0
ENDBLK
5
3F4
100
AcDbEntity
8
0
100
AcDbBlockEnd
0
ENDSEC
0
SECTION
2
ENTITIES
0
ARC
5
212
100
AcDbEntity
8
1
62
256
6
ByLayer
370
18
48
1
60
0
100
AcDbCircle
39
0
10
-18.8
20
-45.93485
30
0
40
0.8
210
0
220
0
230
1
100
AcDbArc
50
180
51
270
0
ARC
5
213
100
AcDbEntity
8
1
62
256
6
ByLayer
370
18
48
1
60
0
100
AcDbCircle
39
0
10
-18.8
20
-34.66985
30
0
40
0.8
210
0
220
0
230
1
100
AcDbArc
50
90
51
180
0
ARC
5
214
100
AcDbEntity
8
1
62
256
6
ByLayer
370
18
48
1
60
0
100
AcDbCircle
39
0
10
-18.8
20
34.66985
30
0
40
0.8
210
0
220
0
230
1
100
AcDbArc
50
180
51
270
0
ARC
5
215
100
AcDbEntity
8
1
62
256
6
ByLayer
370
18
48
1
60
0
100
AcDbCircle
39
0
10
-18.8
20
45.93485
30
0
40
0.8
210
0
220
0
230
1
100
AcDbArc
50
90
51
180
0
ARC
5
216
100
AcDbEntity
8
1
62
256
6
ByLayer
370
18
48
1
60
0
100
AcDbCircle
39
0
10
55.5
20
-59.5
30
0
40
0.5
210
0
220
0
230
1
100
AcDbArc
50
270
51
0
0
ARC
5
217
100
AcDbEntity
8
1
62
256
6
ByLayer
370
18
48
1
60
0
100
AcDbCircle
39
0
10
83.3
20
-91.5
30
0
40
5
210
0
220
0
230
1
100
AcDbArc
50
180
51
241.960443
0
ARC
5
218
100
AcDbEntity
8
1
62
256
6
ByLayer
370
18
48
1
60
0
100
AcDbCircle
39
0
10
46.5
20
-90.25
30
0
40
3.7
210
0
220
0
230
1
100
AcDbArc
50
151.109988
51
165.262479
0
ARC
5
219
100
AcDbEntity
8
1
62
256
6
ByLayer
370
18
48
1
60
0
100
AcDbCircle
39
0
10
46.5
20
-90.25
30
0
40
3.7
210
0
220
0
230
1
100
AcDbArc
50
173.115005
51
186.885008
0
ARC
5
21A
100
AcDbEntity
8
1
62
256
6
ByLayer
370
18
48
1
60
0
100
AcDbCircle
39
0
10
46.5
20
-90.25
30
0
40
3.7
210
0
220
0
230
1
100
AcDbArc
50
194.737503
51
208.889994
0
ARC
5
21C
100
AcDbEntity
8
1
62
256
6
ByLayer
370
18
48
1
60
0
100
AcDbCircle
39
0
10
-46.5
20
-90.25
30
0
40
1.5
210
0
220
0
230
-1
100
AcDbArc
50
30
51
90
0
ARC
5
21D
100
AcDbEntity
8
1
62
256
6
ByLayer
370
18
48
1
60
0
100
AcDbCircle
39
0
10
42.9
20
-91.690649
30
0
40
1
210
0
220
0
230
1
100
AcDbArc
50
332.692821
51
110
0
ARC
5
21F
100
AcDbEntity
8
1
62
256
6
ByLayer
370
18
48
1
60
0
100
AcDbCircle
39
0
10
43.966272
20
-88.258838
30
0
40
0.2
210
0
220
0
230
1
100
AcDbArc
50
141.83752
51
207.307179
0
ARC
5
220
100
AcDbEntity
8
1
62
256
6
ByLayer
370
18
48
1
60
0
100
AcDbCircle
39
0
10
43.966272
20
-92.241162
30
0
40
0.2
210
0
220
0
230
1
100
AcDbArc
50
152.692821
51
218.16248
0
ARC
5
221
100
AcDbEntity
8
1
62
256
6
ByLayer
370
18
48
1
60
0
100
AcDbCircle
39
0
10
46.5
20
-90.25
30
0
40
3.4225
210
0
220
0
230
1
100
AcDbArc
50
218.16248
51
141.83752
0
ARC
5
222
100
AcDbEntity
8
1
62
256
6
ByLayer
370
18
48
1
60
0
100
AcDbCircle
39
0
10
42.9
20
-88.809351
30
0
40
1
210
0
220
0
230
1
100
AcDbArc
50
250
51
27.307179
0
ARC
5
223
100
AcDbEntity
8
1
62
256
6
ByLayer
370
18
48
1
60
0
100
AcDbCircle
39
0
10
-46.5
20
-90.25
30
0
40
1.5
210
0
220
0
230
-1
100
AcDbArc
50
270
51
330
0
ARC
5
224
100
AcDbEntity
8
1
62
256
6
ByLayer
370
18
48
1
60
0
100
AcDbCircle
39
0
10
-46.5
20
-90.25
30
0
40
1.5
210
0
220
0
230
-1
100
AcDbArc
50
330
51
30
0
ARC
5
225
100
AcDbEntity
8
1
62
256
6
ByLayer
370
18
48
1
60
0
100
AcDbCircle
39
0
10
-46.5
20
-90.25
30
0
40
1.5
210
0
220
0
230
-1
100
AcDbArc
50
90
51
150
0
ARC
5
226
100
AcDbEntity
8
1
62
256
6
ByLayer
370
18
48
1
60
0
100
AcDbCircle
39
0
10
-46.5
20
-90.25
30
0
40
1.5
210
0
220
0
230
-1
100
AcDbArc
50
210
51
270
0
ARC
5
227
100
AcDbEntity
8
1
62
256
6
ByLayer
370
18
48
1
60
0
100
AcDbCircle
39
0
10
-46.5
20
-90.25
30
0
40
1.5
210
0
220
0
230
-1
100
AcDbArc
50
150
51
210
0
ARC
5
228
100
AcDbEntity
8
1
62
256
6
ByLayer
370
18
48
1
60
0
100
AcDbCircle
39
0
10
-46.5
20
-90.25
30
0
40
4
210
0
220
0
230
-1
100
AcDbArc
50
331.138138
51
345.251263
0
ARC
5
229
100
AcDbEntity
8
1
62
256
6
ByLayer
370
18
48
1
60
0
100
AcDbCircle
39
0
10
-46.5
20
-90.25
30
0
40
4
210
0
220
0
230
-1
100
AcDbArc
50
352.676252
51
7.323746
0
ARC
5
22A
100
AcDbEntity
8
1
62
256
6
ByLayer
370
18
48
1
60
0
100
AcDbCircle
39
0
10
-46.5
20
-90.25
30
0
40
4
210
0
220
0
230
-1
100
AcDbArc
50
14.748763
51
28.861888
0
ARC
5
22B
100
AcDbEntity
8
1
62
256
6
ByLayer
370
18
48
1
60
0
100
AcDbCircle
39
0
10
-46
20
-70.166642
30
0
40
2
210
0
220
0
230
-1
100
AcDbArc
50
270
51
0
0
ARC
5
22C
100
AcDbEntity
8
1
62
256
6
ByLayer
370
18
48
1
60
0
100
AcDbCircle
39
0
10
29.6
20
10.2
30
0
40
0.8
210
0
220
0
230
1
100
AcDbArc
50
90
51
180
0
ARC
5
22D
100
AcDbEntity
8
1
62
256
6
ByLayer
370
18
48
1
60
0
100
AcDbCircle
39
0
10
29.6
20
-10.2
30
0
40
0.8
210
0
220
0
230
1
100
AcDbArc
50
180
51
270
0
ARC
5
22E
100
AcDbEntity
8
1
62
256
6
ByLayer
370
18
48
1
60
0
100
AcDbCircle
39
0
10
17.386239
20
-76
30
0
40
14
210
0
220
0
230
1
100
AcDbArc
50
188
51
238.308679
0
ARC
5
22F
100
AcDbEntity
8
1
62
256
6
ByLayer
370
18
48
1
60
0
100
AcDbCircle
39
0
10
17.386239
20
76
30
0
40
14
210
0
220
0
230
1
100
AcDbArc
50
121.688292
51
161.624785
0
ARC
5
230
100
AcDbEntity
8
1
62
256
6
ByLayer
370
18
48
1
60
0
100
AcDbCircle
39
0
10
17.386239
20
76
30
0
40
14
210
0
220
0
230
1
100
AcDbArc
50
165.700034
51
172
0
ARC
5
231
100
AcDbEntity
8
1
62
256
6
ByLayer
370
18
48
1
60
0
100
AcDbCircle
39
0
10
55.5
20
65.5
30
0
40
0.5
210
0
220
0
230
1
100
AcDbArc
50
270
51
0
0
ARC
5
232
100
AcDbEntity
8
1
62
256
6
ByLayer
370
18
48
1
60
0
100
AcDbCircle
39
0
10
55.5
20
80.5
30
0
40
0.5
210
0
220
0
230
1
100
AcDbArc
50
0
51
90
0
ARC
5
233
100
AcDbEntity
8
1
62
256
6
ByLayer
370
18
48
1
60
0
100
AcDbCircle
39
0
10
55.5
20
-44.5
30
0
40
0.5
210
0
220
0
230
1
100
AcDbArc
50
0
51
90
0
ARC
5
234
100
AcDbEntity
8
1
62
256
6
ByLayer
370
18
48
1
60
0
100
AcDbCircle
39
0
10
-83.3
20
-91.5
30
0
40
4.99999999994391
210
0
220
0
230
-1
100
AcDbArc
50
276.177271
51
298.039557
0
ARC
5
236
100
AcDbEntity
8
1
62
256
6
ByLayer
370
18
48
1
60
0
100
AcDbCircle
39
0
10
-83.3
20
91.5
30
0
40
5.00000000000029
210
0
220
0
230
-1
100
AcDbArc
50
0
51
79.621076
0
CIRCLE
5
21B
100
AcDbEntity
8
1
62
256
6
ByLayer
370
18
48
1
60
0
100
AcDbCircle
10
42.9
20
-91.690649
30
0
40
0.5
39
0
210
0
220
0
230
1
0
CIRCLE
5
21E
100
AcDbEntity
8
1
62
256
6
ByLayer
370
18
48
1
60
0
100
AcDbCircle
10
42.9
20
-88.809351
30
0
40
0.5
39
0
210
0
220
0
230
1
0
CIRCLE
5
235
100
AcDbEntity
8
1
62
256
6
ByLayer
370
18
48
1
60
0
100
AcDbCircle
10
-46.5
20
-90.25
30
0
40
4.50000000000001
39
0
210
0
220
0
230
-1
0
ELLIPSE
5
237
100
AcDbEntity
8
1
62
256
6
ByLayer
370
18
48
1
60
0
100
AcDbEllipse
10
15.901391
20
-82.939844
30
0
11
3.23178824593208
21
0.0885083807062621
31
0
210
0
220
0
230
1
40
0.292775
41
-2.20873265835842
42
-0.970110667295418
0
ELLIPSE
5
238
100
AcDbEntity
8
1
62
256
6
ByLayer
370
18
48
1
60
0
100
AcDbEllipse
10
15.921469
20
-83.67296
30
0
11
3.9985007682426
21
0.109506193264784
31
0
210
0
220
0
230
1
40
0.292775
41
-2.49744011448481
42
-0.646502080283056
0
ELLIPSE
5
239
100
AcDbEntity
8
1
62
256
6
ByLayer
370
18
48
1
60
0
100
AcDbEllipse
10
37
20
99.984661
30
0
11
-3
21
3.67381906146713E-16
31
0
210
0
220
0
230
1
40
0.707107
41
-1.83259571459405
42
-0.696689077087888
0
ELLIPSE
5
23A
100
AcDbEntity
8
1
62
256
6
ByLayer
370
18
48
1
60
0
100
AcDbEllipse
10
79.799668
20
102.325994
30
0
11
0.0341172799593339
21
-0.324604235719799
31
0
210
0
220
0
230
1
40
0.996195
41
0
42
1.5707963267949
0
ELLIPSE
5
23B
100
AcDbEntity
8
1
62
256
6
ByLayer
370
18
48
1
60
0
100
AcDbEllipse
10
79.626968
20
104.922164
30
0
11
0.023664433632567
21
-0.225152046182971
31
0
210
0
220
0
230
1
40
0.996195
41
1.57079632679496
42
-1.73925456887577
0
ELLIPSE
5
23C
100
AcDbEntity
8
1
62
256
6
ByLayer
370
18
48
1
60
0
100
AcDbEllipse
10
76.345981
20
105.133652
30
0
11
-0.321279495150701
21
3.05677020853233
31
0
210
0
220
0
230
1
40
0.996195
41
-2.97313441150892
42
-1.73925456887577
0
ELLIPSE
5
23D
100
AcDbEntity
8
1
62
256
6
ByLayer
370
18
48
1
60
0
100
AcDbEllipse
10
77.234204
20
101.955801
30
0
11
0.0236644336325668
21
-0.225152046182971
31
0
210
0
220
0
230
1
40
0.996195
41
-2.97313441150896
42
1.26021396604685E-13
0
ELLIPSE
5
23E
100
AcDbEntity
8
1
62
256
6
ByLayer
370
18
48
1
60
0
100
AcDbEllipse
10
72.892293
20
107.941311
30
0
11
0.0341172799593339
21
-0.324604235719799
31
0
210
0
220
0
230
1
40
0.996195
41
3.14159265358971
42
-1.57079632679485
0
ELLIPSE
5
23F
100
AcDbEntity
8
1
62
256
6
ByLayer
370
18
48
1
60
0
100
AcDbEllipse
10
73.064994
20
105.345141
30
0
11
0.0236644336325668
21
-0.225152046182971
31
0
210
0
220
0
230
1
40
0.996195
41
-1.57079632679483
42
1.40233808471403
0
ELLIPSE
5
240
100
AcDbEntity
8
1
62
256
6
ByLayer
370
18
48
1
60
0
100
AcDbEllipse
10
76.345981
20
105.133652
30
0
11
-0.321279495150701
21
3.05677020853233
31
0
210
0
220
0
230
1
40
0.996195
41
0.168458242080889
42
1.40233808471403
0
ELLIPSE
5
241
100
AcDbEntity
8
1
62
256
6
ByLayer
370
18
48
1
60
0
100
AcDbEllipse
10
75.457758
20
108.311503
30
0
11
0.023664433632567
21
-0.225152046182971
31
0
210
0
220
0
230
1
40
0.996195
41
0.168458242080712
42
-3.14159265358967
0
ELLIPSE
5
242
100
AcDbEntity
8
1
62
256
6
ByLayer
370
18
48
1
60
0
100
AcDbEllipse
10
76.554081
20
108.426731
30
0
11
0.023664433632567
21
-0.225152046182971
31
0
210
0
220
0
230
1
40
0.996195
41
3.14159265358979
42
-0.168458242080712
0
ELLIPSE
5
243
100
AcDbEntity
8
1
62
256
6
ByLayer
370
18
48
1
60
0
100
AcDbEllipse
10
76.345981
20
105.133652
30
0
11
-0.321279495150701
21
3.05677020853233
31
0
210
0
220
0
230
1
40
0.996195
41
-1.40233808471403
42
-0.16845824208087
0
ELLIPSE
5
244
100
AcDbEntity
8
1
62
256
6
ByLayer
370
18
48
1
60
0
100
AcDbEllipse
10
79.511299
20
106.022675
30
0
11
0.0236644336325668
21
-0.225152046182971
31
0
210
0
220
0
230
1
40
0.996195
41
-1.40233808471403
42
1.5707963267949
0
ELLIPSE
5
245
100
AcDbEntity
8
1
62
256
6
ByLayer
370
18
48
1
60
0
100
AcDbEllipse
10
79.140452
20
108.598019
30
0
11
0.0341172799593339
21
-0.324604235719799
31
0
210
0
220
0
230
1
40
0.996195
41
1.5707963267949
42
3.14159265358979
0
ELLIPSE
5
246
100
AcDbEntity
8
1
62
256
6
ByLayer
370
18
48
1
60
0
100
AcDbEllipse
10
73.55151
20
101.669286
30
0
11
0.0341172799593339
21
-0.324604235719799
31
0
210
0
220
0
230
1
40
0.996195
41
-1.5707963267949
42
0
0
ELLIPSE
5
247
100
AcDbEntity
8
1
62
256
6
ByLayer
370
18
48
1
60
0
100
AcDbEllipse
10
76.13788
20
101.840573
30
0
11
0.023664433632567
21
-0.225152046182971
31
0
210
0
220
0
230
1
40
0.996195
41
0
42
2.97313441150896
0
ELLIPSE
5
248
100
AcDbEntity
8
1
62
256
6
ByLayer
370
18
48
1
60
0
100
AcDbEllipse
10
76.345981
20
105.133652
30
0
11
-0.321279495150701
21
3.05677020853233
31
0
210
0
220
0
230
1
40
0.996195
41
1.73925456887578
42
2.97313441150892
0
ELLIPSE
5
249
100
AcDbEntity
8
1
62
256
6
ByLayer
370
18
48
1
60
0
100
AcDbEllipse
10
73.180662
20
104.244629
30
0
11
0.0236644336325668
21
-0.225152046182971
31
0
210
0
220
0
230
1
40
0.996195
41
1.7392545688757
42
-1.5707963267949
0
ELLIPSE
5
24A
100
AcDbEntity
8
1
62
256
6
ByLayer
370
18
48
1
60
0
100
AcDbEllipse
10
79.144352
20
108.598429
30
0
11
0.0209056926535337
21
-0.198904379073655
31
0
210
0
220
0
230
1
40
0.996195
41
1.57079632679497
42
-3.14159265358965
0
ELLIPSE
5
24B
100
AcDbEntity
8
1
62
256
6
ByLayer
370
18
48
1
60
0
100
AcDbEllipse
10
79.106111
20
108.795511
30
0
11
0.0209056926535337
21
-0.198904379073654
31
0
210
0
220
0
230
1
40
0.087156
41
1.5707963267949
42
2.25487755858906
0
ELLIPSE
5
24C
100
AcDbEntity
8
1
62
256
6
ByLayer
370
18
48
1
60
0
100
AcDbEllipse
10
79.401946
20
105.994323
30
0
11
-0.192617575984814
21
-0.0538374351333206
31
0
210
0
220
0
230
1
40
0.014613
41
0.972752381896217
42
1.65683361369319
0
ELLIPSE
5
24D
100
AcDbEntity
8
1
62
256
6
ByLayer
370
18
48
1
60
0
100
AcDbEllipse
10
79.5152
20
106.023085
30
0
11
0.0104528463267668
21
-0.0994521895368263
31
0
210
0
220
0
230
1
40
0.996195
41
-1.40233808471411
42
1.5707963267949
0
ELLIPSE
5
24E
100
AcDbEntity
8
1
62
256
6
ByLayer
370
18
48
1
60
0
100
AcDbEllipse
10
79.630868
20
104.922573
30
0
11
-0.0104528463267656
21
0.0994521895368271
31
0
210
0
220
0
230
1
40
0.996195
41
-1.5707963267949
42
1.40233808471411
0
ELLIPSE
5
24F
100
AcDbEntity
8
1
62
256
6
ByLayer
370
18
48
1
60
0
100
AcDbEllipse
10
79.514109
20
104.92716
30
0
11
0.199601851976567
21
-0.0126135121011061
31
0
210
0
220
0
230
1
40
0.014613
41
1.48475903989674
42
2.1688402716879
0
ELLIPSE
5
250
100
AcDbEntity
8
1
62
256
6
ByLayer
370
18
48
1
60
0
100
AcDbEllipse
10
79.807139
20
102.125677
30
0
11
0.0209056926535337
21
-0.198904379073654
31
0
210
0
220
0
230
1
40
0.087156
41
0.886715094999501
42
1.57079632679497
0
ELLIPSE
5
251
100
AcDbEntity
8
1
62
256
6
ByLayer
370
18
48
1
60
0
100
AcDbEllipse
10
79.803569
20
102.326403
30
0
11
-0.0209056926535312
21
0.198904379073655
31
0
210
0
220
0
230
1
40
0.996195
41
-3.14159265358965
42
-1.57079632679475
0
ELLIPSE
5
252
100
AcDbEntity
8
1
62
256
6
ByLayer
370
18
48
1
60
0
100
AcDbEllipse
10
76.530193
20
108.524771
30
0
11
-0.0209056926535312
21
0.198904379073655
31
0
210
0
220
0
230
1
40
0.087156
41
-1.57079632679497
42
-0.886715095000732
0
ELLIPSE
5
253
100
AcDbEntity
8
1
62
256
6
ByLayer
370
18
48
1
60
0
100
AcDbEllipse
10
77.231221
20
101.854937
30
0
11
0.0209056926535337
21
-0.198904379073654
31
0
210
0
220
0
230
1
40
0.087156
41
0.886715095000622
42
1.57079632679497
0
ELLIPSE
5
254
100
AcDbEntity
8
1
62
256
6
ByLayer
370
18
48
1
60
0
100
AcDbEllipse
10
76.53434
20
108.325529
30
0
11
-0.0128650708014414
21
-0.19958579597074
31
0
210
0
220
0
230
1
40
0.085922
41
0.901382621219638
42
1.58546385301632
0
ELLIPSE
5
255
100
AcDbEntity
8
1
62
256
6
ByLayer
370
18
48
1
60
0
100
AcDbEllipse
10
76.349881
20
105.134062
30
0
11
-0.3344910824565
21
3.18247006517848
31
0
210
0
220
0
230
1
40
0.996195
41
-1.40233808471401
42
-0.168458242080891
0
ELLIPSE
5
256
100
AcDbEntity
8
1
62
256
6
ByLayer
370
18
48
1
60
0
100
AcDbEllipse
10
76.349881
20
105.134062
30
0
11
0.334491082456541
21
-3.18247006517847
31
0
210
0
220
0
230
1
40
0.996195
41
0.168458242080882
42
1.40233808471402
0
ELLIPSE
5
257
100
AcDbEntity
8
1
62
256
6
ByLayer
370
18
48
1
60
0
100
AcDbEllipse
10
77.193853
20
102.050688
30
0
11
0.0540801584412007
21
-0.192549568846504
31
0
210
0
220
0
230
1
40
0.085922
41
1.55612880057354
42
2.24021003236858
0
ELLIPSE
5
258
100
AcDbEntity
8
1
62
256
6
ByLayer
370
18
48
1
60
0
100
AcDbEllipse
10
76.557982
20
108.427141
30
0
11
0.0104528463267669
21
-0.099452189536827
31
0
210
0
220
0
230
1
40
0.996195
41
3.14159265358979
42
-0.168458242080572
0
ELLIPSE
5
259
100
AcDbEntity
8
1
62
256
6
ByLayer
370
18
48
1
60
0
100
AcDbEllipse
10
77.238104
20
101.956211
30
0
11
-0.0104528463267655
21
0.0994521895368265
31
0
210
0
220
0
230
1
40
0.996195
41
0.168458242080853
42
-3.14159265358951
0
ELLIPSE
5
25A
100
AcDbEntity
8
1
62
256
6
ByLayer
370
18
48
1
60
0
100
AcDbEllipse
10
72.202269
20
109.915507
30
0
11
1.04528463267668
21
-9.94521895368273
31
0
210
0
220
0
230
1
40
0.996195
41
1.5707963267949
42
1.57989695571309
0
ELLIPSE
5
25B
100
AcDbEntity
8
1
62
256
6
ByLayer
370
18
48
1
60
0
100
AcDbEllipse
10
76.345981
20
105.133652
30
0
11
-0.282116967194852
21
2.68416364461171
31
0
210
0
220
0
230
1
40
0.996195
41
0
42
6.28318530717959
0
ELLIPSE
5
25C
100
AcDbEntity
8
1
62
256
6
ByLayer
370
18
48
1
60
0
100
AcDbEllipse
10
73.286493
20
99.59471
30
0
11
-1.03066457613004
21
9.80611840735786
31
0
210
0
220
0
230
1
40
0.996195
41
-1.57989695571308
42
-1.57079632679489
0
ELLIPSE
5
25D
100
AcDbEntity
8
1
62
256
6
ByLayer
370
18
48
1
60
0
100
AcDbEllipse
10
73.287022
20
99.594766
30
0
11
1.04528463267668
21
-9.94521895368273
31
0
210
0
220
0
230
1
40
0.996195
41
1.5616956978767
42
1.57079632679489
0
ELLIPSE
5
25E
100
AcDbEntity
8
1
62
256
6
ByLayer
370
18
48
1
60
0
100
AcDbEllipse
10
72.20174
20
109.915451
30
0
11
-1.03066457613004
21
9.80611840735786
31
0
210
0
220
0
230
1
40
0.996195
41
-1.5707963267949
42
-1.56169569787671
0
ELLIPSE
5
25F
100
AcDbEntity
8
1
62
256
6
ByLayer
370
18
48
1
60
0
100
AcDbEllipse
10
78.244732
20
100.070089
30
0
11
-0.508022259791767
21
4.8335089305165
31
0
210
0
220
0
230
1
40
0.996195
41
-1.58969694879989
42
-1.57989695571308
0
ELLIPSE
5
260
100
AcDbEntity
8
1
62
256
6
ByLayer
370
18
48
1
60
0
100
AcDbEllipse
10
78.245261
20
100.070145
30
0
11
0.522642316338326
21
-4.97260947684118
31
0
210
0
220
0
230
1
40
0.996195
41
1.5518957047899
42
1.56169569787671
0
ELLIPSE
5
261
100
AcDbEntity
8
1
62
256
6
ByLayer
370
18
48
1
60
0
100
AcDbEllipse
10
77.150465
20
110.481337
30
0
11
-0.508022259791767
21
4.8335089305165
31
0
210
0
220
0
230
1
40
0.996195
41
-1.56169569787671
42
-1.5518957047899
0
ELLIPSE
5
262
100
AcDbEntity
8
1
62
256
6
ByLayer
370
18
48
1
60
0
100
AcDbEllipse
10
77.150995
20
110.481392
30
0
11
0.522642316338326
21
-4.97260947684118
31
0
210
0
220
0
230
1
40
0.996195
41
1.57989695571309
42
1.58969694879989
0
ELLIPSE
5
263
100
AcDbEntity
8
1
62
256
6
ByLayer
370
18
48
1
60
0
100
AcDbEllipse
10
72.207541
20
109.866796
30
0
11
-1.03066457613007
21
9.80611840735805
31
0
210
0
220
0
230
1
40
0.996195
41
-1.5518957047899
42
-1.53588974175502
0
ELLIPSE
5
264
100
AcDbEntity
8
1
62
256
6
ByLayer
370
18
48
1
60
0
100
AcDbEllipse
10
72.20807
20
109.866852
30
0
11
1.04528463267667
21
-9.94521895368275
31
0
210
0
220
0
230
1
40
0.996195
41
1.58969694879989
42
1.60570291183478
0
ELLIPSE
5
265
100
AcDbEntity
8
1
62
256
6
ByLayer
370
18
48
1
60
0
100
AcDbEllipse
10
73.282051
20
99.643508
30
0
11
-1.03066457613007
21
9.80611840735805
31
0
210
0
220
0
230
1
40
0.996195
41
-1.60570291183478
42
-1.58969694879989
0
ELLIPSE
5
266
100
AcDbEntity
8
1
62
256
6
ByLayer
370
18
48
1
60
0
100
AcDbEllipse
10
82.723509
20
100.302474
30
0
11
0.0522642316338346
21
-0.497260947684137
31
0
210
0
220
0
230
1
40
0.996195
41
1.30899693899578
42
1.535889741755
0
ELLIPSE
5
267
100
AcDbEntity
8
1
62
256
6
ByLayer
370
18
48
1
60
0
100
AcDbEllipse
10
81.579157
20
111.185164
30
0
11
-0.0376441750873307
21
0.358160401359422
31
0
210
0
220
0
230
1
40
0.996195
41
-1.53588974175498
42
-1.3089969389958
0
ELLIPSE
5
268
100
AcDbEntity
8
1
62
256
6
ByLayer
370
18
48
1
60
0
100
AcDbEllipse
10
73.282581
20
99.643564
30
0
11
1.04528463267667
21
-9.94521895368275
31
0
210
0
220
0
230
1
40
0.996195
41
1.53588974175501
42
1.5518957047899
0
ELLIPSE
5
269
100
AcDbEntity
8
1
62
256
6
ByLayer
370
18
48
1
60
0
100
AcDbEllipse
10
82.722979
20
100.302419
30
0
11
-0.0376441750873307
21
0.358160401359422
31
0
210
0
220
0
230
1
40
0.996195
41
-1.83259571459403
42
-1.60570291183481
0
ELLIPSE
5
26A
100
AcDbEntity
8
1
62
256
6
ByLayer
370
18
48
1
60
0
100
AcDbEllipse
10
81.579686
20
111.18522
30
0
11
0.0522642316338346
21
-0.497260947684137
31
0
210
0
220
0
230
1
40
0.996195
41
1.60570291183476
42
1.83259571459404
0
ELLIPSE
5
26B
100
AcDbEntity
8
1
62
256
6
ByLayer
370
18
48
1
60
0
100
AcDbEllipse
10
82.230963
20
100.380828
30
0
11
-0.0899084067211609
21
0.855421349043579
31
0
210
0
220
0
230
1
40
0.996195
41
-2.87979326579063
42
-1.83259571459404
0
ELLIPSE
5
26C
100
AcDbEntity
8
1
62
256
6
ByLayer
370
18
48
1
60
0
100
AcDbEllipse
10
82.231492
20
100.380884
30
0
11
0.104528463267669
21
-0.994521895368271
31
0
210
0
220
0
230
1
40
0.996195
41
0.261799387799121
42
1.30899693899576
0
ELLIPSE
5
26D
100
AcDbEntity
8
1
62
256
6
ByLayer
370
18
48
1
60
0
100
AcDbEllipse
10
81.114194
20
111.006172
30
0
11
-0.0899084067211609
21
0.855421349043579
31
0
210
0
220
0
230
1
40
0.996195
41
-1.30899693899573
42
-0.261799387799166
0
ELLIPSE
5
26E
100
AcDbEntity
8
1
62
256
6
ByLayer
370
18
48
1
60
0
100
AcDbEllipse
10
81.114724
20
111.006228
30
0
11
0.104528463267669
21
-0.994521895368271
31
0
210
0
220
0
230
1
40
0.996195
41
1.83259571459404
42
2.8797932657906
0
ELLIPSE
5
26F
100
AcDbEntity
8
1
62
256
6
ByLayer
370
18
48
1
60
0
100
AcDbEllipse
10
81.904476
20
102.027658
30
0
11
-1.03066457613004
21
9.80611840735786
31
0
210
0
220
0
230
1
40
0.996195
41
-0.00910062891819413
42
-2.89349711370915E-15
0
ELLIPSE
5
270
100
AcDbEntity
8
1
62
256
6
ByLayer
370
18
48
1
60
0
100
AcDbEllipse
10
81.426936
20
107.0048
30
0
11
-0.508022259791767
21
4.8335089305165
31
0
210
0
220
0
230
1
40
0.996195
41
-0.0189006220049988
42
-0.00910062891819085
0
ELLIPSE
5
271
100
AcDbEntity
8
1
62
256
6
ByLayer
370
18
48
1
60
0
100
AcDbEllipse
10
81.855863
20
102.023239
30
0
11
-1.03066457613007
21
9.80611840735805
31
0
210
0
220
0
230
1
40
0.996195
41
-0.0349065850398841
42
-0.0189006220049981
0
ELLIPSE
5
272
100
AcDbEntity
8
1
62
256
6
ByLayer
370
18
48
1
60
0
100
AcDbEllipse
10
81.191922
20
111.499965
30
0
11
-0.0376441750873307
21
0.358160401359422
31
0
210
0
220
0
230
1
40
0.996195
41
-0.261799387799088
42
-0.0349065850398459
0
ELLIPSE
5
273
100
AcDbEntity
8
1
62
256
6
ByLayer
370
18
48
1
60
0
100
AcDbEllipse
10
82.409657
20
99.913986
30
0
11
-0.0376441750873307
21
0.358160401359422
31
0
210
0
220
0
230
1
40
0.996195
41
-3.10668606854987
42
-2.87979326579062
0
ELLIPSE
5
274
100
AcDbEntity
8
1
62
256
6
ByLayer
370
18
48
1
60
0
100
AcDbEllipse
10
81.088768
20
109.321665
30
0
11
-1.03066457613007
21
9.80611840735805
31
0
210
0
220
0
230
1
40
0.996195
41
-3.1226920315848
42
-3.1066860685499
0
ELLIPSE
5
275
100
AcDbEntity
8
1
62
256
6
ByLayer
370
18
48
1
60
0
100
AcDbEllipse
10
81.704939
20
104.359784
30
0
11
-0.508022259791767
21
4.8335089305165
31
0
210
0
220
0
230
1
40
0.996195
41
-3.13249202467158
42
-3.12269203158478
0
ELLIPSE
5
276
100
AcDbEntity
8
1
62
256
6
ByLayer
370
18
48
1
60
0
100
AcDbEllipse
10
81.137237
20
109.327449
30
0
11
-1.03066457613004
21
9.80611840735786
31
0
210
0
220
0
230
1
40
0.996195
41
-3.14159265358979
42
-3.1324920246716
0
ELLIPSE
5
277
100
AcDbEntity
8
1
62
256
6
ByLayer
370
18
48
1
60
0
100
AcDbEllipse
10
82.410187
20
99.914042
30
0
11
0.0522642316338346
21
-0.497260947684137
31
0
210
0
220
0
230
1
40
0.996195
41
0.0349065850399402
42
0.261799387799104
0
ELLIPSE
5
278
100
AcDbEntity
8
1
62
256
6
ByLayer
370
18
48
1
60
0
100
AcDbEllipse
10
81.192451
20
111.500021
30
0
11
0.0522642316338346
21
-0.497260947684137
31
0
210
0
220
0
230
1
40
0.996195
41
2.87979326579063
42
3.10668606854991
0
ELLIPSE
5
279
100
AcDbEntity
8
1
62
256
6
ByLayer
370
18
48
1
60
0
100
AcDbEllipse
10
81.089297
20
109.32172
30
0
11
1.04528463267667
21
-9.94521895368275
31
0
210
0
220
0
230
1
40
0.996195
41
0.0189006220049952
42
0.0349065850398869
0
ELLIPSE
5
27A
100
AcDbEntity
8
1
62
256
6
ByLayer
370
18
48
1
60
0
100
AcDbEllipse
10
81.856392
20
102.023294
30
0
11
1.04528463267667
21
-9.94521895368275
31
0
210
0
220
0
230
1
40
0.996195
41
3.10668606854991
42
3.1226920315848
0
ELLIPSE
5
27B
100
AcDbEntity
8
1
62
256
6
ByLayer
370
18
48
1
60
0
100
AcDbEllipse
10
81.705468
20
104.359839
30
0
11
0.522642316338326
21
-4.97260947684118
31
0
210
0
220
0
230
1
40
0.996195
41
0.00910062891819193
42
0.0189006220049931
0
ELLIPSE
5
27C
100
AcDbEntity
8
1
62
256
6
ByLayer
370
18
48
1
60
0
100
AcDbEllipse
10
81.137766
20
109.327504
30
0
11
1.04528463267668
21
-9.94521895368273
31
0
210
0
220
0
230
1
40
0.996195
41
0
42
0.00910062891819018
0
ELLIPSE
5
27D
100
AcDbEntity
8
1
62
256
6
ByLayer
370
18
48
1
60
0
100
AcDbEllipse
10
81.427466
20
107.004856
30
0
11
0.522642316338326
21
-4.97260947684118
31
0
210
0
220
0
230
1
40
0.996195
41
3.12269203158479
42
3.13249202467159
0
ELLIPSE
5
27E
100
AcDbEntity
8
1
62
256
6
ByLayer
370
18
48
1
60
0
100
AcDbEllipse
10
81.905005
20
102.027714
30
0
11
1.04528463267668
21
-9.94521895368273
31
0
210
0
220
0
230
1
40
0.996195
41
3.1324920246716
42
3.14159265358979
0
ELLIPSE
5
27F
100
AcDbEntity
8
1
62
256
6
ByLayer
370
18
48
1
60
0
100
AcDbEllipse
10
75.471239
20
108.213792
30
0
11
-0.0540801584412009
21
0.192549568846504
31
0
210
0
220
0
230
1
40
0.085922
41
-2.26954508481171
42
-1.58546385301625
0
ELLIPSE
5
280
100
AcDbEntity
8
1
62
256
6
ByLayer
370
18
48
1
60
0
100
AcDbEllipse
10
75.461658
20
108.311913
30
0
11
0.0104528463267669
21
-0.099452189536827
31
0
210
0
220
0
230
1
40
0.996195
41
0.168458242080994
42
3.14159265358951
0
ELLIPSE
5
281
100
AcDbEntity
8
1
62
256
6
ByLayer
370
18
48
1
60
0
100
AcDbEllipse
10
75.43387
20
108.409543
30
0
11
0.0209056926535337
21
-0.198904379073654
31
0
210
0
220
0
230
1
40
0.087156
41
1.57079632679504
42
2.25487755859147
0
ELLIPSE
5
282
100
AcDbEntity
8
1
62
256
6
ByLayer
370
18
48
1
60
0
100
AcDbEllipse
10
76.134898
20
101.739709
30
0
11
-0.0209056926535312
21
0.198904379073655
31
0
210
0
220
0
230
1
40
0.087156
41
-2.25487755859029
42
-1.5707963267949
0
ELLIPSE
5
283
100
AcDbEntity
8
1
62
256
6
ByLayer
370
18
48
1
60
0
100
AcDbEllipse
10
76.141781
20
101.840983
30
0
11
-0.0104528463267656
21
0.0994521895368271
31
0
210
0
220
0
230
1
40
0.996195
41
-3.14159265358951
42
-0.168458242080853
0
ELLIPSE
5
284
100
AcDbEntity
8
1
62
256
6
ByLayer
370
18
48
1
60
0
100
AcDbEllipse
10
76.130751
20
101.938951
30
0
11
-0.0128650708014414
21
-0.19958579597074
31
0
210
0
220
0
230
1
40
0.085922
41
1.58546385301618
42
2.26954508481204
0
ELLIPSE
5
285
100
AcDbEntity
8
1
62
256
6
ByLayer
370
18
48
1
60
0
100
AcDbEllipse
10
76.349881
20
105.134062
30
0
11
0.334491082456541
21
-3.18247006517847
31
0
210
0
220
0
230
1
40
0.996195
41
-1.40233808471403
42
-0.168458242080864
0
ELLIPSE
5
286
100
AcDbEntity
8
1
62
256
6
ByLayer
370
18
48
1
60
0
100
AcDbEllipse
10
73.263146
20
104.270157
30
0
11
-0.192617575984814
21
-0.0538374351333206
31
0
210
0
220
0
230
1
40
0.014613
41
1.65683361369383
42
2.34091484549231
0
ELLIPSE
5
287
100
AcDbEntity
8
1
62
256
6
ByLayer
370
18
48
1
60
0
100
AcDbEllipse
10
73.150982
20
105.33732
30
0
11
-0.199601851976567
21
0.012613512101106
31
0
210
0
220
0
230
1
40
0.014613
41
-2.34091484548673
42
-1.65683361369333
0
ELLIPSE
5
288
100
AcDbEntity
8
1
62
256
6
ByLayer
370
18
48
1
60
0
100
AcDbEllipse
10
76.349881
20
105.134062
30
0
11
-0.3344910824565
21
3.18247006517848
31
0
210
0
220
0
230
1
40
0.996195
41
0.168458242080882
42
1.40233808471402
0
ELLIPSE
5
289
100
AcDbEntity
8
1
62
256
6
ByLayer
370
18
48
1
60
0
100
AcDbEllipse
10
72.857953
20
108.138803
30
0
11
-0.0209056926535312
21
0.198904379073655
31
0
210
0
220
0
230
1
40
0.087156
41
-1.5707963267949
42
-0.886715094999446
0
ELLIPSE
5
28A
100
AcDbEntity
8
1
62
256
6
ByLayer
370
18
48
1
60
0
100
AcDbEllipse
10
73.55898
20
101.468969
30
0
11
0.0209056926535337
21
-0.198904379073654
31
0
210
0
220
0
230
1
40
0.087156
41
0.886715094999501
42
1.57079632679497
0
ELLIPSE
5
28B
100
AcDbEntity
8
1
62
256
6
ByLayer
370
18
48
1
60
0
100
AcDbEllipse
10
72.896194
20
107.941721
30
0
11
0.0209056926535337
21
-0.198904379073655
31
0
210
0
220
0
230
1
40
0.996195
41
3.14159265358979
42
-1.5707963267949
0
ELLIPSE
5
28C
100
AcDbEntity
8
1
62
256
6
ByLayer
370
18
48
1
60
0
100
AcDbEllipse
10
73.068894
20
105.345551
30
0
11
0.0104528463267668
21
-0.0994521895368263
31
0
210
0
220
0
230
1
40
0.996195
41
-1.5707963267949
42
1.40233808471383
0
ELLIPSE
5
28D
100
AcDbEntity
8
1
62
256
6
ByLayer
370
18
48
1
60
0
100
AcDbEllipse
10
73.184563
20
104.245039
30
0
11
-0.0104528463267655
21
0.0994521895368265
31
0
210
0
220
0
230
1
40
0.996195
41
-1.40233808471411
42
1.5707963267949
0
ELLIPSE
5
28E
100
AcDbEntity
8
1
62
256
6
ByLayer
370
18
48
1
60
0
100
AcDbEllipse
10
73.55541
20
101.669696
30
0
11
-0.0209056926535312
21
0.198904379073655
31
0
210
0
220
0
230
1
40
0.996195
41
1.5707963267949
42
3.14159265358979
0
ELLIPSE
5
28F
100
AcDbEntity
8
1
62
256
6
ByLayer
370
18
48
1
60
0
100
AcDbEllipse
10
70.85577
20
108.246823
30
0
11
-1.03066457613004
21
9.80611840735786
31
0
210
0
220
0
230
1
40
0.996195
41
3.1324920246716
42
-3.14159265358979
0
ELLIPSE
5
290
100
AcDbEntity
8
1
62
256
6
ByLayer
370
18
48
1
60
0
100
AcDbEllipse
10
71.333309
20
103.269681
30
0
11
-0.508022259791767
21
4.8335089305165
31
0
210
0
220
0
230
1
40
0.996195
41
3.1226920315848
42
3.1324920246716
0
ELLIPSE
5
291
100
AcDbEntity
8
1
62
256
6
ByLayer
370
18
48
1
60
0
100
AcDbEllipse
10
70.904382
20
108.251243
30
0
11
-1.03066457613007
21
9.80611840735805
31
0
210
0
220
0
230
1
40
0.996195
41
3.10668606854991
42
3.1226920315848
0
ELLIPSE
5
292
100
AcDbEntity
8
1
62
256
6
ByLayer
370
18
48
1
60
0
100
AcDbEllipse
10
71.568324
20
98.774516
30
0
11
-0.0376441750873307
21
0.358160401359422
31
0
210
0
220
0
230
1
40
0.996195
41
2.8797932657907
42
3.10668606854995
0
ELLIPSE
5
293
100
AcDbEntity
8
1
62
256
6
ByLayer
370
18
48
1
60
0
100
AcDbEllipse
10
71.646051
20
99.268309
30
0
11
-0.0899084067211609
21
0.855421349043579
31
0
210
0
220
0
230
1
40
0.996195
41
1.83259571459408
42
2.87979326579065
0
ELLIPSE
5
294
100
AcDbEntity
8
1
62
256
6
ByLayer
370
18
48
1
60
0
100
AcDbEllipse
10
71.181089
20
99.089317
30
0
11
-0.0376441750873307
21
0.358160401359422
31
0
210
0
220
0
230
1
40
0.996195
41
1.60570291183481
42
1.83259571459403
0
ELLIPSE
5
295
100
AcDbEntity
8
1
62
256
6
ByLayer
370
18
48
1
60
0
100
AcDbEllipse
10
80.552705
20
100.407685
30
0
11
-1.03066457613007
21
9.80611840735805
31
0
210
0
220
0
230
1
40
0.996195
41
1.58969694879989
42
1.60570291183478
0
ELLIPSE
5
296
100
AcDbEntity
8
1
62
256
6
ByLayer
370
18
48
1
60
0
100
AcDbEllipse
10
75.60978
20
99.793145
30
0
11
-0.508022259791767
21
4.8335089305165
31
0
210
0
220
0
230
1
40
0.996195
41
1.57989695571309
42
1.58969694879989
0
ELLIPSE
5
297
100
AcDbEntity
8
1
62
256
6
ByLayer
370
18
48
1
60
0
100
AcDbEllipse
10
80.558506
20
100.35903
30
0
11
-1.03066457613004
21
9.80611840735786
31
0
210
0
220
0
230
1
40
0.996195
41
1.5707963267949
42
1.57989695571309
0
ELLIPSE
5
298
100
AcDbEntity
8
1
62
256
6
ByLayer
370
18
48
1
60
0
100
AcDbEllipse
10
79.473752
20
110.679771
30
0
11
-1.03066457613004
21
9.80611840735786
31
0
210
0
220
0
230
1
40
0.996195
41
1.56169569787671
42
1.5707963267949
0
ELLIPSE
5
299
100
AcDbEntity
8
1
62
256
6
ByLayer
370
18
48
1
60
0
100
AcDbEllipse
10
74.515514
20
110.204392
30
0
11
-0.508022259791767
21
4.8335089305165
31
0
210
0
220
0
230
1
40
0.996195
41
1.5518957047899
42
1.56169569787671
0
ELLIPSE
5
29A
100
AcDbEntity
8
1
62
256
6
ByLayer
370
18
48
1
60
0
100
AcDbEllipse
10
79.478194
20
110.630973
30
0
11
-1.03066457613007
21
9.80611840735805
31
0
210
0
220
0
230
1
40
0.996195
41
1.53588974175501
42
1.5518957047899
0
ELLIPSE
5
29B
100
AcDbEntity
8
1
62
256
6
ByLayer
370
18
48
1
60
0
100
AcDbEllipse
10
70.037266
20
109.972063
30
0
11
-0.0376441750873307
21
0.358160401359422
31
0
210
0
220
0
230
1
40
0.996195
41
1.3089969389958
42
1.53588974175506
0
ELLIPSE
5
29C
100
AcDbEntity
8
1
62
256
6
ByLayer
370
18
48
1
60
0
100
AcDbEllipse
10
70.529282
20
109.893653
30
0
11
-0.0899084067211609
21
0.855421349043579
31
0
210
0
220
0
230
1
40
0.996195
41
0.261799387799145
42
1.30899693899577
0
ELLIPSE
5
29D
100
AcDbEntity
8
1
62
256
6
ByLayer
370
18
48
1
60
0
100
AcDbEllipse
10
70.350588
20
110.360495
30
0
11
-0.0376441750873307
21
0.358160401359422
31
0
210
0
220
0
230
1
40
0.996195
41
0.034906585039925
42
0.261799387799137
0
ELLIPSE
5
29E
100
AcDbEntity
8
1
62
256
6
ByLayer
370
18
48
1
60
0
100
AcDbEllipse
10
71.671478
20
100.952817
30
0
11
-1.03066457613007
21
9.80611840735805
31
0
210
0
220
0
230
1
40
0.996195
41
0.0189006220049981
42
0.0349065850398856
0
ELLIPSE
5
29F
100
AcDbEntity
8
1
62
256
6
ByLayer
370
18
48
1
60
0
100
AcDbEllipse
10
71.055307
20
105.914698
30
0
11
-0.508022259791767
21
4.8335089305165
31
0
210
0
220
0
230
1
40
0.996195
41
0.00910062891820259
42
0.0189006220050105
0
ELLIPSE
5
2A0
100
AcDbEntity
8
1
62
256
6
ByLayer
370
18
48
1
60
0
100
AcDbEllipse
10
71.623009
20
100.947032
30
0
11
-1.03066457613004
21
9.80611840735786
31
0
210
0
220
0
230
1
40
0.996195
41
0
42
0.00910062891819268
0
ELLIPSE
5
2A1
100
AcDbEntity
8
1
62
256
6
ByLayer
370
18
48
1
60
0
100
AcDbEllipse
10
71.623538
20
100.947088
30
0
11
1.04528463267668
21
-9.94521895368273
31
0
210
0
220
0
230
1
40
0.996195
41
3.14159265358979
42
-3.13249202467161
0
ELLIPSE
5
2A2
100
AcDbEntity
8
1
62
256
6
ByLayer
370
18
48
1
60
0
100
AcDbEllipse
10
70.856299
20
108.246879
30
0
11
1.04528463267668
21
-9.94521895368273
31
0
210
0
220
0
230
1
40
0.996195
41
-0.00910062891818875
42
0
0
ELLIPSE
5
2A3
100
AcDbEntity
8
1
62
256
6
ByLayer
370
18
48
1
60
0
100
AcDbEllipse
10
71.333839
20
103.269737
30
0
11
0.522642316338326
21
-4.97260947684118
31
0
210
0
220
0
230
1
40
0.996195
41
-0.0189006220049988
42
-0.00910062891819193
0
ELLIPSE
5
2A4
100
AcDbEntity
8
1
62
256
6
ByLayer
370
18
48
1
60
0
100
AcDbEllipse
10
71.055836
20
105.914753
30
0
11
0.522642316338326
21
-4.97260947684118
31
0
210
0
220
0
230
1
40
0.996195
41
-3.1324920246716
42
-3.12269203158479
0
ELLIPSE
5
2A5
100
AcDbEntity
8
1
62
256
6
ByLayer
370
18
48
1
60
0
100
AcDbEllipse
10
70.904912
20
108.251298
30
0
11
1.04528463267667
21
-9.94521895368275
31
0
210
0
220
0
230
1
40
0.996195
41
-0.0349065850398869
42
-0.0189006220050009
0
ELLIPSE
5
2A6
100
AcDbEntity
8
1
62
256
6
ByLayer
370
18
48
1
60
0
100
AcDbEllipse
10
71.672007
20
100.952872
30
0
11
1.04528463267667
21
-9.94521895368275
31
0
210
0
220
0
230
1
40
0.996195
41
-3.1226920315848
42
-3.10668606854991
0
ELLIPSE
5
2A7
100
AcDbEntity
8
1
62
256
6
ByLayer
370
18
48
1
60
0
100
AcDbEllipse
10
70.351118
20
110.360551
30
0
11
0.0522642316338346
21
-0.497260947684137
31
0
210
0
220
0
230
1
40
0.996195
41
-3.10668606854991
42
-2.87979326579074
0
ELLIPSE
5
2A8
100
AcDbEntity
8
1
62
256
6
ByLayer
370
18
48
1
60
0
100
AcDbEllipse
10
71.64658
20
99.268364
30
0
11
0.104528463267669
21
-0.994521895368271
31
0
210
0
220
0
230
1
40
0.996195
41
-1.30899693899574
42
-0.261799387799108
0
ELLIPSE
5
2A9
100
AcDbEntity
8
1
62
256
6
ByLayer
370
18
48
1
60
0
100
AcDbEllipse
10
71.568853
20
98.774572
30
0
11
0.0522642316338346
21
-0.497260947684137
31
0
210
0
220
0
230
1
40
0.996195
41
-0.261799387799104
42
-0.0349065850398831
0
ELLIPSE
5
2AA
100
AcDbEntity
8
1
62
256
6
ByLayer
370
18
48
1
60
0
100
AcDbEllipse
10
70.529812
20
109.893709
30
0
11
0.104528463267669
21
-0.994521895368271
31
0
210
0
220
0
230
1
40
0.996195
41
-2.87979326579069
42
-1.83259571459404
0
ELLIPSE
5
2AB
100
AcDbEntity
8
1
62
256
6
ByLayer
370
18
48
1
60
0
100
AcDbEllipse
10
71.181618
20
99.089373
30
0
11
0.0522642316338346
21
-0.497260947684137
31
0
210
0
220
0
230
1
40
0.996195
41
-1.53588974175503
42
-1.30899693899585
0
ELLIPSE
5
2AC
100
AcDbEntity
8
1
62
256
6
ByLayer
370
18
48
1
60
0
100
AcDbEllipse
10
70.037795
20
109.972118
30
0
11
0.0522642316338346
21
-0.497260947684137
31
0
210
0
220
0
230
1
40
0.996195
41
-1.83259571459398
42
-1.60570291183479
0
ELLIPSE
5
2AD
100
AcDbEntity
8
1
62
256
6
ByLayer
370
18
48
1
60
0
100
AcDbEllipse
10
80.553234
20
100.407741
30
0
11
1.04528463267667
21
-9.94521895368275
31
0
210
0
220
0
230
1
40
0.996195
41
-1.5518957047899
42
-1.53588974175501
0
ELLIPSE
5
2AE
100
AcDbEntity
8
1
62
256
6
ByLayer
370
18
48
1
60
0
100
AcDbEllipse
10
79.478723
20
110.631028
30
0
11
1.04528463267667
21
-9.94521895368275
31
0
210
0
220
0
230
1
40
0.996195
41
-1.60570291183479
42
-1.58969694879989
0
ELLIPSE
5
2AF
100
AcDbEntity
8
1
62
256
6
ByLayer
370
18
48
1
60
0
100
AcDbEllipse
10
75.61031
20
99.7932
30
0
11
0.522642316338326
21
-4.97260947684118
31
0
210
0
220
0
230
1
40
0.996195
41
-1.5616956978767
42
-1.5518957047899
0
ELLIPSE
5
2B0
100
AcDbEntity
8
1
62
256
6
ByLayer
370
18
48
1
60
0
100
AcDbEllipse
10
74.516043
20
110.204448
30
0
11
0.522642316338326
21
-4.97260947684118
31
0
210
0
220
0
230
1
40
0.996195
41
-1.5896969487999
42
-1.57989695571309
0
ELLIPSE
5
2B1
100
AcDbEntity
8
1
62
256
6
ByLayer
370
18
48
1
60
0
100
AcDbEllipse
10
79.474282
20
110.679826
30
0
11
1.04528463267668
21
-9.94521895368273
31
0
210
0
220
0
230
1
40
0.996195
41
-1.57989695571309
42
-1.5707963267949
0
ELLIPSE
5
2B2
100
AcDbEntity
8
1
62
256
6
ByLayer
370
18
48
1
60
0
100
AcDbEllipse
10
15.921469
20
-83.67296
30
0
11
-2.34172069263898
21
-0.0641322669678904
31
0
210
0
220
0
230
1
40
0.292775
41
0.207008124145948
42
0.529412952828682
0
ELLIPSE
5
2B3
100
AcDbEntity
8
1
62
256
6
ByLayer
370
18
48
1
60
0
100
AcDbEllipse
10
15.921469
20
-83.67296
30
0
11
-2.34172069263898
21
-0.0641322669678904
31
0
210
0
220
0
230
1
40
0.292775
41
0.529412952828682
42
1.57661050402528
0
ELLIPSE
5
2B4
100
AcDbEntity
8
1
62
256
6
ByLayer
370
18
48
1
60
0
100
AcDbEllipse
10
15.921469
20
-83.67296
30
0
11
-2.34172069263898
21
-0.0641322669678904
31
0
210
0
220
0
230
1
40
0.292775
41
1.57661050402528
42
2.62380805522188
0
ELLIPSE
5
2B5
100
AcDbEntity
8
1
62
256
6
ByLayer
370
18
48
1
60
0
100
AcDbEllipse
10
15.921469
20
-83.67296
30
0
11
-2.34172069263898
21
-0.0641322669678904
31
0
210
0
220
0
230
1
40
0.292775
41
2.62380805522188
42
2.84969105414243
0
ELLIPSE
5
2B6
100
AcDbEntity
8
1
62
256
6
ByLayer
370
18
48
1
60
0
100
AcDbEllipse
10
76.467063
20
105.146378
30
0
11
-0.11230538093477
21
1.06851432438367
31
0
210
0
220
0
230
1
40
0.996195
41
-0.782387088380188
42
-2.655460452039E-14
0
ELLIPSE
5
2B7
100
AcDbEntity
8
1
62
256
6
ByLayer
370
18
48
1
60
0
100
AcDbEllipse
10
76.467063
20
105.146378
30
0
11
-0.11230538093477
21
1.06851432438367
31
0
210
0
220
0
230
1
40
0.996195
41
-1.89899385019371
42
-1.22592464552863
0
ELLIPSE
5
2B8
100
AcDbEntity
8
1
62
256
6
ByLayer
370
18
48
1
60
0
100
AcDbEllipse
10
71.859326
20
-110.099857
30
0
11
0.041811385307064
21
0.397808758147309
31
0
210
0
220
0
230
1
40
0.087156
41
0.949060259260922
42
1.5707963267949
0
ELLIPSE
5
2B9
100
AcDbEntity
8
1
62
256
6
ByLayer
370
18
48
1
60
0
100
AcDbEllipse
10
71.939636
20
-109.002239
30
0
11
0.114981309594426
21
1.0939740849051
31
0
210
0
220
0
230
1
40
0.996195
41
2.10800889751943
42
-3.14159265358977
0
ELLIPSE
5
2BA
100
AcDbEntity
8
1
62
256
6
ByLayer
370
18
48
1
60
0
100
AcDbEllipse
10
80.395486
20
-110.997044
30
0
11
0.041811385307064
21
0.397808758147309
31
0
210
0
220
0
230
1
40
0.087156
41
0.949060259260483
42
1.57079632679483
0
ELLIPSE
5
2BB
100
AcDbEntity
8
1
62
256
6
ByLayer
370
18
48
1
60
0
100
AcDbEllipse
10
71.227713
20
-109.580993
30
0
11
-0.0783963474507393
21
-0.745891421526204
31
0
210
0
220
0
230
1
40
0.996195
41
-1.5707963267949
42
0
0
ELLIPSE
5
2BC
100
AcDbEntity
8
1
62
256
6
ByLayer
370
18
48
1
60
0
100
AcDbEllipse
10
80.475796
20
-109.899426
30
0
11
0.114981309594426
21
1.0939740849051
31
0
210
0
220
0
230
1
40
0.996195
41
3.14159265358977
42
-1.5707963267949
0
ELLIPSE
5
2BD
100
AcDbEntity
8
1
62
256
6
ByLayer
370
18
48
1
60
0
100
AcDbEllipse
10
81.37641
20
-101.330659
30
0
11
0.114981309594426
21
1.0939740849051
31
0
210
0
220
0
230
1
40
0.996195
41
-1.57079632679491
42
-0.578004567209137
0
ELLIPSE
5
2BE
100
AcDbEntity
8
1
62
256
6
ByLayer
370
18
48
1
60
0
100
AcDbEllipse
10
82.088332
20
-100.751905
30
0
11
-0.0783963474507393
21
-0.745891421526204
31
0
210
0
220
0
230
1
40
0.996195
41
1.57079632679488
42
2.8392381833914
0
ELLIPSE
5
2BF
100
AcDbEntity
8
1
62
256
6
ByLayer
370
18
48
1
60
0
100
AcDbEllipse
10
81.051832
20
-110.61355
30
0
11
-0.0783963474507393
21
-0.745891421526204
31
0
210
0
220
0
230
1
40
0.996195
41
0
42
1.5707963267949
0
ELLIPSE
5
2C0
100
AcDbEntity
8
1
62
256
6
ByLayer
370
18
48
1
60
0
100
AcDbEllipse
10
79.474282
20
-110.679826
30
0
11
-1.04528463267654
21
-9.94521895368275
31
0
210
0
220
0
230
1
40
0.996195
41
-1.57079632679491
42
-1.56169569787671
0
ELLIPSE
5
2C1
100
AcDbEntity
8
1
62
256
6
ByLayer
370
18
48
1
60
0
100
AcDbEllipse
10
71.623538
20
-100.947088
30
0
11
-1.04528463267654
21
-9.94521895368275
31
0
210
0
220
0
230
1
40
0.996195
41
-0.00910062891819589
42
-4.27954006450604E-15
0
ELLIPSE
5
2C2
100
AcDbEntity
8
1
62
256
6
ByLayer
370
18
48
1
60
0
100
AcDbEllipse
10
74.516043
20
-110.204448
30
0
11
-0.522642316338244
21
-4.97260947684119
31
0
210
0
220
0
230
1
40
0.996195
41
-1.56169569787671
42
-1.55189570478991
0
ELLIPSE
5
2C3
100
AcDbEntity
8
1
62
256
6
ByLayer
370
18
48
1
60
0
100
AcDbEllipse
10
71.055836
20
-105.914753
30
0
11
-0.522642316338244
21
-4.97260947684119
31
0
210
0
220
0
230
1
40
0.996195
41
-0.0189006220050045
42
-0.00910062891819193
0
ELLIPSE
5
2C4
100
AcDbEntity
8
1
62
256
6
ByLayer
370
18
48
1
60
0
100
AcDbEllipse
10
79.478723
20
-110.631028
30
0
11
-1.04528463267653
21
-9.94521895368277
31
0
210
0
220
0
230
1
40
0.996195
41
-1.55189570478991
42
-1.53588974175502
0
ELLIPSE
5
2C5
100
AcDbEntity
8
1
62
256
6
ByLayer
370
18
48
1
60
0
100
AcDbEllipse
10
71.672007
20
-100.952872
30
0
11
-1.04528463267653
21
-9.94521895368277
31
0
210
0
220
0
230
1
40
0.996195
41
-0.0349065850398926
42
-0.0189006220050038
0
ELLIPSE
5
2C6
100
AcDbEntity
8
1
62
256
6
ByLayer
370
18
48
1
60
0
100
AcDbEllipse
10
70.529812
20
-109.893709
30
0
11
-0.104528463267652
21
-0.994521895368273
31
0
210
0
220
0
230
1
40
0.996195
41
-1.30899693899574
42
-0.261799387799166
0
ELLIPSE
5
2C7
100
AcDbEntity
8
1
62
256
6
ByLayer
370
18
48
1
60
0
100
AcDbEllipse
10
81.905005
20
-102.027714
30
0
11
-1.04528463267654
21
-9.94521895368275
31
0
210
0
220
0
230
1
40
0.996195
41
0
42
0.00910062891818733
0
ELLIPSE
5
2C8
100
AcDbEntity
8
1
62
256
6
ByLayer
370
18
48
1
60
0
100
AcDbEllipse
10
72.202269
20
-109.915507
30
0
11
-1.04528463267654
21
-9.94521895368275
31
0
210
0
220
0
230
1
40
0.996195
41
1.5616956978767
42
1.5707963267949
0
ELLIPSE
5
2C9
100
AcDbEntity
8
1
62
256
6
ByLayer
370
18
48
1
60
0
100
AcDbEllipse
10
70.037795
20
-109.972118
30
0
11
-0.0522642316338264
21
-0.497260947684138
31
0
210
0
220
0
230
1
40
0.996195
41
-1.535889741755
42
-1.30899693899581
0
ELLIPSE
5
2CA
100
AcDbEntity
8
1
62
256
6
ByLayer
370
18
48
1
60
0
100
AcDbEllipse
10
73.287022
20
-99.594766
30
0
11
-1.04528463267654
21
-9.94521895368275
31
0
210
0
220
0
230
1
40
0.996195
41
1.57079632679489
42
1.57989695571308
0
ELLIPSE
5
2CB
100
AcDbEntity
8
1
62
256
6
ByLayer
370
18
48
1
60
0
100
AcDbEllipse
10
70.351118
20
-110.360551
30
0
11
-0.0522642316338264
21
-0.497260947684138
31
0
210
0
220
0
230
1
40
0.996195
41
-0.261799387799104
42
-0.0349065850399402
0
ELLIPSE
5
2CC
100
AcDbEntity
8
1
62
256
6
ByLayer
370
18
48
1
60
0
100
AcDbEllipse
10
77.150995
20
-110.481392
30
0
11
-0.522642316338244
21
-4.97260947684119
31
0
210
0
220
0
230
1
40
0.996195
41
1.5518957047899
42
1.5616956978767
0
ELLIPSE
5
2CD
100
AcDbEntity
8
1
62
256
6
ByLayer
370
18
48
1
60
0
100
AcDbEllipse
10
81.427466
20
-107.004856
30
0
11
-0.522642316338244
21
-4.97260947684119
31
0
210
0
220
0
230
1
40
0.996195
41
0.00910062891819764
42
0.0189006220050045
0
ELLIPSE
5
2CE
100
AcDbEntity
8
1
62
256
6
ByLayer
370
18
48
1
60
0
100
AcDbEllipse
10
78.245261
20
-100.070145
30
0
11
-0.522642316338244
21
-4.97260947684119
31
0
210
0
220
0
230
1
40
0.996195
41
1.57989695571308
42
1.58969694879989
0
ELLIPSE
5
2CF
100
AcDbEntity
8
1
62
256
6
ByLayer
370
18
48
1
60
0
100
AcDbEllipse
10
81.856392
20
-102.023294
30
0
11
-1.04528463267653
21
-9.94521895368277
31
0
210
0
220
0
230
1
40
0.996195
41
0.0189006220050009
42
0.034906585039884
0
ELLIPSE
5
2D0
100
AcDbEntity
8
1
62
256
6
ByLayer
370
18
48
1
60
0
100
AcDbEllipse
10
72.20807
20
-109.866852
30
0
11
-1.04528463267653
21
-9.94521895368277
31
0
210
0
220
0
230
1
40
0.996195
41
1.53588974175501
42
1.5518957047899
0
ELLIPSE
5
2D1
100
AcDbEntity
8
1
62
256
6
ByLayer
370
18
48
1
60
0
100
AcDbEllipse
10
73.282581
20
-99.643564
30
0
11
-1.04528463267653
21
-9.94521895368277
31
0
210
0
220
0
230
1
40
0.996195
41
1.58969694879988
42
1.60570291183477
0
ELLIPSE
5
2D2
100
AcDbEntity
8
1
62
256
6
ByLayer
370
18
48
1
60
0
100
AcDbEllipse
10
81.114724
20
-111.006228
30
0
11
-0.104528463267652
21
-0.994521895368273
31
0
210
0
220
0
230
1
40
0.996195
41
0.261799387799166
42
1.30899693899574
0
ELLIPSE
5
2D3
100
AcDbEntity
8
1
62
256
6
ByLayer
370
18
48
1
60
0
100
AcDbEllipse
10
82.231492
20
-100.380884
30
0
11
-0.104528463267652
21
-0.994521895368273
31
0
210
0
220
0
230
1
40
0.996195
41
1.83259571459405
42
2.87979326579069
0
ELLIPSE
5
2D4
100
AcDbEntity
8
1
62
256
6
ByLayer
370
18
48
1
60
0
100
AcDbEllipse
10
82.410187
20
-99.914042
30
0
11
-0.0522642316338264
21
-0.497260947684138
31
0
210
0
220
0
230
1
40
0.996195
41
2.87979326579063
42
3.1066860685498
0
ELLIPSE
5
2D5
100
AcDbEntity
8
1
62
256
6
ByLayer
370
18
48
1
60
0
100
AcDbEllipse
10
81.579686
20
-111.18522
30
0
11
-0.0522642316338264
21
-0.497260947684138
31
0
210
0
220
0
230
1
40
0.996195
41
1.30899693899581
42
1.53588974175503
0
ELLIPSE
5
2D6
100
AcDbEntity
8
1
62
256
6
ByLayer
370
18
48
1
60
0
100
AcDbEllipse
10
81.192451
20
-111.500021
30
0
11
-0.0522642316338264
21
-0.497260947684138
31
0
210
0
220
0
230
1
40
0.996195
41
0.0349065850399402
42
0.261799387799104
0
ELLIPSE
5
2D7
100
AcDbEntity
8
1
62
256
6
ByLayer
370
18
48
1
60
0
100
AcDbEllipse
10
15.921469
20
-83.67296
30
0
11
3.49124096453142
21
0.0956139638217308
31
0
210
0
220
0
230
1
40
0.292775
41
-2.65775503409129
42
-0.570559213258695
0
ELLIPSE
5
2D8
100
AcDbEntity
8
1
62
256
6
ByLayer
370
18
48
1
60
0
100
AcDbEllipse
10
15.921469
20
-83.67296
30
0
11
3.23178824593208
21
0.0885083807062621
31
0
210
0
220
0
230
1
40
0.292775
41
-2.83055309226843
42
-0.526391563353884
0
ELLIPSE
5
2D9
100
AcDbEntity
8
1
62
256
6
ByLayer
370
18
48
1
60
0
100
AcDbEllipse
10
71.935577
20
-109.069199
30
0
11
-0.083622770614122
21
-0.795617516294619
31
0
210
0
220
0
230
1
40
0.996195
41
-1.23503789538297
42
0
0
ELLIPSE
5
2DA
100
AcDbEntity
8
1
62
256
6
ByLayer
370
18
48
1
60
0
100
AcDbEllipse
10
66.598828
20
-65.553409
30
0
11
-9.99537268766002
21
-0.304178951901817
31
0
210
0
220
0
230
1
40
0.819027
41
-0.654732457980795
42
0
0
ELLIPSE
5
2DB
100
AcDbEntity
8
1
62
256
6
ByLayer
370
18
48
1
60
0
100
AcDbEllipse
10
66.598828
20
-65.553409
30
0
11
-9.99537268766002
21
-0.304178951901817
31
0
210
0
220
0
230
1
40
0.819027
41
0
42
0.833989829646253
0
ELLIPSE
5
2DC
100
AcDbEntity
8
1
62
256
6
ByLayer
370
18
48
1
60
0
100
AcDbEllipse
10
66.598828
20
-65.553409
30
0
11
-9.99537268766002
21
-0.304178951901817
31
0
210
0
220
0
230
1
40
0.819027
41
2.04949156528657
42
-2.48696822560882
0
ELLIPSE
5
2DD
100
AcDbEntity
8
1
62
256
6
ByLayer
370
18
48
1
60
0
100
AcDbEllipse
10
77.164823
20
-105.219716
30
0
11
0.141113425411341
21
1.34260455874717
31
0
210
0
220
0
230
1
40
0.996195
41
-2.66632893943759
42
-0.673773603509634
0
ELLIPSE
5
2DE
100
AcDbEntity
8
1
62
256
6
ByLayer
370
18
48
1
60
0
100
AcDbEllipse
10
76.355931
20
105.134698
30
0
11
0.250868311842405
21
-2.38685254888385
31
0
210
0
220
0
230
1
40
0.996195
41
0
42
6.28318530717959
0
ELLIPSE
5
2DF
100
AcDbEntity
8
1
62
256
6
ByLayer
370
18
48
1
60
0
100
AcDbEllipse
10
76.350047
20
105.13408
30
0
11
0.156792694901502
21
-1.49178284305241
31
0
210
0
220
0
230
1
40
0.996195
41
0
42
6.28318530717959
0
ELLIPSE
5
2E0
100
AcDbEntity
8
1
62
256
6
ByLayer
370
18
48
1
60
0
100
AcDbEllipse
10
76.350047
20
105.13408
30
0
11
-0.147353774668415
21
1.40197751590065
31
0
210
0
220
0
230
1
40
0.996195
41
-1.5707963267949
42
-0.52359877559829
0
ELLIPSE
5
2E1
100
AcDbEntity
8
1
62
256
6
ByLayer
370
18
48
1
60
0
100
AcDbEllipse
10
76.350047
20
105.13408
30
0
11
-0.147353774668415
21
1.40197751590065
31
0
210
0
220
0
230
1
40
0.996195
41
-2.61799387799152
42
-1.5707963267949
0
ELLIPSE
5
2E2
100
AcDbEntity
8
1
62
256
6
ByLayer
370
18
48
1
60
0
100
AcDbEllipse
10
76.350047
20
105.13408
30
0
11
-0.147353774668415
21
1.40197751590065
31
0
210
0
220
0
230
1
40
0.996195
41
-0.52359877559829
42
0.523598775598276
0
ELLIPSE
5
2E3
100
AcDbEntity
8
1
62
256
6
ByLayer
370
18
48
1
60
0
100
AcDbEllipse
10
76.350047
20
105.13408
30
0
11
-0.147353774668415
21
1.40197751590065
31
0
210
0
220
0
230
1
40
0.996195
41
0.523598775598276
42
1.5707963267949
0
ELLIPSE
5
2E4
100
AcDbEntity
8
1
62
256
6
ByLayer
370
18
48
1
60
0
100
AcDbEllipse
10
76.350047
20
105.13408
30
0
11
-0.147353774668415
21
1.40197751590065
31
0
210
0
220
0
230
1
40
0.996195
41
1.5707963267949
42
2.61799387799148
0
ELLIPSE
5
2E5
100
AcDbEntity
8
1
62
256
6
ByLayer
370
18
48
1
60
0
100
AcDbEllipse
10
76.350047
20
105.13408
30
0
11
-0.147353774668415
21
1.40197751590065
31
0
210
0
220
0
230
1
40
0.996195
41
2.61799387799148
42
-2.61799387799152
0
ELLIPSE
5
2E6
100
AcDbEntity
8
1
62
256
6
ByLayer
370
18
48
1
60
0
100
AcDbEllipse
10
76.467063
20
105.146378
30
0
11
0.112305380934782
21
-1.06851432438367
31
0
210
0
220
0
230
1
40
0.996195
41
0
42
0.78101252770087
0
ELLIPSE
5
2E7
100
AcDbEntity
8
1
62
256
6
ByLayer
370
18
48
1
60
0
100
AcDbEllipse
10
76.467063
20
105.146378
30
0
11
-0.11230538093477
21
1.06851432438367
31
0
210
0
220
0
230
1
40
0.996195
41
2.09439510239319
42
-3.14159265358977
0
ELLIPSE
5
2E8
100
AcDbEntity
8
1
62
256
6
ByLayer
370
18
48
1
60
0
100
AcDbEllipse
10
76.467063
20
105.146378
30
0
11
-0.11230538093477
21
1.06851432438367
31
0
210
0
220
0
230
1
40
0.996195
41
1.0471975511966
42
2.09439510239321
0
ELLIPSE
5
2E9
100
AcDbEntity
8
1
62
256
6
ByLayer
370
18
48
1
60
0
100
AcDbEllipse
10
76.467063
20
105.146378
30
0
11
-0.11230538093477
21
1.06851432438367
31
0
210
0
220
0
230
1
40
0.996195
41
0.12831361415921
42
1.04719755119662
0
ELLIPSE
5
2EA
100
AcDbEntity
8
1
62
256
6
ByLayer
370
18
48
1
60
0
100
AcDbEllipse
10
76.416881
20
105.141104
30
0
11
-0.26460450579256
21
2.51754370433981
31
0
210
0
220
0
230
1
40
0.996195
41
0
42
6.28318530717959
0
ELLIPSE
5
2EB
100
AcDbEntity
8
1
62
256
6
ByLayer
370
18
48
1
60
0
100
AcDbEllipse
10
76.390485
20
105.13833
30
0
11
-0.278364087565404
21
2.64845738006432
31
0
210
0
220
0
230
1
40
0.996195
41
-0.925984516661425
42
0
0
ELLIPSE
5
2EC
100
AcDbEntity
8
1
62
256
6
ByLayer
370
18
48
1
60
0
100
AcDbEllipse
10
76.390485
20
105.13833
30
0
11
-0.278364087565404
21
2.64845738006432
31
0
210
0
220
0
230
1
40
0.996195
41
0
42
-2.21550992406688
0
ELLIPSE
5
2ED
100
AcDbEntity
8
1
62
256
6
ByLayer
370
18
48
1
60
0
100
AcDbEllipse
10
37
20
99.984661
30
0
11
-2.5
21
3.06151588455594E-16
31
0
210
0
220
0
230
1
40
0.707107
41
-2.40272936506741
42
-0.785496338045095
0
ELLIPSE
5
2EE
100
AcDbEntity
8
1
62
256
6
ByLayer
370
18
48
1
60
0
100
AcDbEllipse
10
66.423297
20
-66.030131
30
0
11
-10.994909956426
21
-0.334596847091998
31
0
210
0
220
0
230
1
40
0.819027
41
-0.78867006010808
42
-0.0272756628418292
0
ELLIPSE
5
2EF
100
AcDbEntity
8
1
62
256
6
ByLayer
370
18
48
1
60
0
100
AcDbEllipse
10
66.61279
20
-66.0122
30
0
11
-9.99537268766002
21
-0.304178951901817
31
0
210
0
220
0
230
1
40
0.819027
41
0
42
0.71676909739507
0
ELLIPSE
5
2F0
100
AcDbEntity
8
1
62
256
6
ByLayer
370
18
48
1
60
0
100
AcDbEllipse
10
66.61279
20
-66.0122
30
0
11
-9.99537268766002
21
-0.304178951901817
31
0
210
0
220
0
230
1
40
0.819027
41
2.10751284000495
42
3.14158777858092
0
ELLIPSE
5
2F1
100
AcDbEntity
8
1
62
256
6
ByLayer
370
18
48
1
60
0
100
AcDbEllipse
10
76.428058
20
105.142279
30
0
11
0.250868311842405
21
-2.38685254888385
31
0
210
0
220
0
230
1
40
0.996195
41
0
42
3.1414941307253
0
ELLIPSE
5
2F2
100
AcDbEntity
8
1
62
256
6
ByLayer
370
18
48
1
60
0
100
AcDbEllipse
10
37
20
99.984661
30
0
11
-3.25
21
3.97997064992273E-16
31
0
210
0
220
0
230
1
40
0.707107
41
-1.57079613805495
42
-0.692230004562119
0
ELLIPSE
5
2F3
100
AcDbEntity
8
1
62
256
6
ByLayer
370
18
48
1
60
0
100
AcDbEllipse
10
37
20
99.984661
30
0
11
-3.25
21
3.97997064992273E-16
31
0
210
0
220
0
230
1
40
0.707107
41
-2.45633251280721
42
-1.57079613805495
0
ELLIPSE
5
2F4
100
AcDbEntity
8
1
62
256
6
ByLayer
370
18
48
1
60
0
100
AcDbEllipse
10
66.598828
20
-65.553409
30
0
11
-7.92882938448631
21
-0.241289953596112
31
0
210
0
220
0
230
1
40
0.819027
41
1.55496255978793
42
3.14156508887811
0
ELLIPSE
5
2F5
100
AcDbEntity
8
1
62
256
6
ByLayer
370
18
48
1
60
0
100
AcDbEllipse
10
66.598828
20
-65.553409
30
0
11
-7.92882938448631
21
-0.241289953596112
31
0
210
0
220
0
230
1
40
0.819027
41
0
42
1.5549625814996
0
ELLIPSE
5
2F6
100
AcDbEntity
8
1
62
256
6
ByLayer
370
18
48
1
60
0
100
AcDbEllipse
10
82.723509
20
-100.302474
30
0
11
-0.0522642316338264
21
-0.497260947684138
31
0
210
0
220
0
230
1
40
0.996195
41
1.60570291183479
42
1.83259571459395
0
ELLIPSE
5
2F7
100
AcDbEntity
8
1
62
256
6
ByLayer
370
18
48
1
60
0
100
AcDbEllipse
10
72.645261
20
99.913224
30
0
11
0.203830503371955
21
-1.93931769596815
31
0
210
0
220
0
230
1
40
0.996195
41
-0.67768859954464
42
0.111010830623244
0
ELLIPSE
5
2F8
100
AcDbEntity
8
1
62
256
6
ByLayer
370
18
48
1
60
0
100
AcDbEllipse
10
46
20
-66.166642
30
0
11
-2
21
2.44921270764475E-16
31
0
210
0
220
0
230
1
40
0.5
41
0
42
1.5707963267949
0
ELLIPSE
5
2F9
100
AcDbEntity
8
1
62
256
6
ByLayer
370
18
48
1
60
0
100
AcDbEllipse
10
37
20
99.984661
30
0
11
-2.59405
21
3.17669011213294E-16
31
0
210
0
220
0
230
1
40
0.707107
41
-1.57079641945631
42
-0.731795176025842
0
ELLIPSE
5
2FA
100
AcDbEntity
8
1
62
256
6
ByLayer
370
18
48
1
60
0
100
AcDbEllipse
10
37
20
99.984661
30
0
11
-2.59405
21
3.17669011213294E-16
31
0
210
0
220
0
230
1
40
0.707107
41
-2.41077969046399
42
-1.57079641945631
0
ELLIPSE
5
2FB
100
AcDbEntity
8
1
62
256
6
ByLayer
370
18
48
1
60
0
100
AcDbEllipse
10
66.441756
20
-60.392007
30
0
11
7.92882938448631
21
0.241289953596121
31
0
210
0
220
0
230
1
40
0.819027
41
3.14077979541929
42
-0.0158336058127724
0
ELLIPSE
5
2FC
100
AcDbEntity
8
1
62
256
6
ByLayer
370
18
48
1
60
0
100
AcDbEllipse
10
66.441756
20
-60.392007
30
0
11
7.92882938448631
21
0.241289953596121
31
0
210
0
220
0
230
1
40
0.819027
41
-0.0158336058127417
42
0
0
ELLIPSE
5
2FD
100
AcDbEntity
8
1
62
256
6
ByLayer
370
18
48
1
60
0
100
AcDbEllipse
10
66.424304
20
-59.818518
30
0
11
-6.92929211572031
21
-0.210872058405931
31
0
210
0
220
0
230
1
40
0.819027
41
0
42
6.28318530717959
0
ELLIPSE
5
2FE
100
AcDbEntity
8
1
62
256
6
ByLayer
370
18
48
1
60
0
100
AcDbEllipse
10
77.52945
20
-104.981525
30
0
11
-0.15679269490148
21
-1.49178284305241
31
0
210
0
220
0
230
1
40
0.996195
41
0.189933070620106
42
1.67512098309922
0
ELLIPSE
5
2FF
100
AcDbEntity
8
1
62
256
6
ByLayer
370
18
48
1
60
0
100
AcDbEllipse
10
77.52945
20
-104.981525
30
0
11
-0.15679269490148
21
-1.49178284305241
31
0
210
0
220
0
230
1
40
0.996195
41
1.67512098309922
42
2.73442704992706
0
ELLIPSE
5
300
100
AcDbEntity
8
1
62
256
6
ByLayer
370
18
48
1
60
0
100
AcDbEllipse
10
77.318034
20
-105.235819
30
0
11
-0.147855511292094
21
-1.40675122099842
31
0
210
0
220
0
230
1
40
0.996195
41
0.830559254482016
42
2.59181514857928
0
ELLIPSE
5
301
100
AcDbEntity
8
1
62
256
6
ByLayer
370
18
48
1
60
0
100
AcDbEllipse
10
66.424304
20
-59.818518
30
0
11
4.67437320061563
21
0.142250417807492
31
0
210
0
220
0
230
1
40
0.819027
41
1.55496264391671
42
2.60216019511331
0
ELLIPSE
5
302
100
AcDbEntity
8
1
62
256
6
ByLayer
370
18
48
1
60
0
100
AcDbEllipse
10
66.424304
20
-59.818518
30
0
11
4.67437320061563
21
0.142250417807492
31
0
210
0
220
0
230
1
40
0.819027
41
2.60216019511331
42
-2.63382756086967
0
ELLIPSE
5
303
100
AcDbEntity
8
1
62
256
6
ByLayer
370
18
48
1
60
0
100
AcDbEllipse
10
66.424304
20
-59.818518
30
0
11
4.67437320061563
21
0.142250417807492
31
0
210
0
220
0
230
1
40
0.819027
41
-2.63382756086967
42
-1.58663000967307
0
ELLIPSE
5
304
100
AcDbEntity
8
1
62
256
6
ByLayer
370
18
48
1
60
0
100
AcDbEllipse
10
66.424304
20
-59.818518
30
0
11
4.67437320061563
21
0.142250417807492
31
0
210
0
220
0
230
1
40
0.819027
41
-1.58663000967307
42
-0.53943245847647
0
ELLIPSE
5
305
100
AcDbEntity
8
1
62
256
6
ByLayer
370
18
48
1
60
0
100
AcDbEllipse
10
66.424304
20
-59.818518
30
0
11
4.67437320061563
21
0.142250417807492
31
0
210
0
220
0
230
1
40
0.819027
41
-0.53943245847647
42
0.507765092720112
0
ELLIPSE
5
306
100
AcDbEntity
8
1
62
256
6
ByLayer
370
18
48
1
60
0
100
AcDbEllipse
10
66.424304
20
-59.818518
30
0
11
4.67437320061563
21
0.142250417807492
31
0
210
0
220
0
230
1
40
0.819027
41
0.507765092720112
42
1.55496264391671
0
ELLIPSE
5
307
100
AcDbEntity
8
1
62
256
6
ByLayer
370
18
48
1
60
0
100
AcDbEllipse
10
72.632259
20
99.911857
30
0
11
-0.219509772862077
21
2.08849598027337
31
0
210
0
220
0
230
1
40
0.996195
41
2.29352258137508
42
3.00314238031089
0
ELLIPSE
5
308
100
AcDbEntity
8
1
62
256
6
ByLayer
370
18
48
1
60
0
100
AcDbEllipse
10
72.632259
20
99.911857
30
0
11
-0.219509772862077
21
2.08849598027337
31
0
210
0
220
0
230
1
40
0.996195
41
1.57079632679491
42
1.812711185921
0
ELLIPSE
5
309
100
AcDbEntity
8
1
62
256
6
ByLayer
370
18
48
1
60
0
100
AcDbEllipse
10
72.031883
20
100.100132
30
0
11
0.219509772862102
21
-2.08849598027336
31
0
210
0
220
0
230
1
40
0.996195
41
-2.35619449019233
42
-1.57079632679489
0
ELLIPSE
5
30A
100
AcDbEntity
8
1
62
256
6
ByLayer
370
18
48
1
60
0
100
AcDbEllipse
10
72.058016
20
99.851502
30
0
11
0.219509772862106
21
-2.08849598027338
31
0
210
0
220
0
230
1
40
0.996195
41
-1.5707963267949
42
0.758007146177018
0
ELLIPSE
5
30B
100
AcDbEntity
8
1
62
256
6
ByLayer
370
18
48
1
60
0
100
AcDbEllipse
10
72.606127
20
100.160487
30
0
11
-0.219509772862076
21
2.08849598027336
31
0
210
0
220
0
230
1
40
0.996195
41
1.33039131860737
42
1.57079632679489
0
ELLIPSE
5
30C
100
AcDbEntity
8
1
62
256
6
ByLayer
370
18
48
1
60
0
100
AcDbEllipse
10
80.559035
20
100.359085
30
0
11
1.04528463267668
21
-9.94521895368273
31
0
210
0
220
0
230
1
40
0.996195
41
-1.5707963267949
42
-1.5616956978767
0
ELLIPSE
5
30D
100
AcDbEntity
8
1
62
256
6
ByLayer
370
18
48
1
60
0
100
AcDbEllipse
10
78.0758
20
-105.038949
30
0
11
1.49748121116282
21
-0.157391617523995
31
-1.43933377120829E-17
210
0
220
9.14492012885539E-17
230
-1
40
0.996195
41
2.79660615979239
42
0
0
ELLIPSE
5
30E
100
AcDbEntity
8
1
62
256
6
ByLayer
370
18
48
1
60
0
100
AcDbEllipse
10
78.0758
20
-105.038949
30
0
11
1.49748121116282
21
-0.157391617523995
31
-1.43933377120829E-17
210
0
220
9.14492012885539E-17
230
-1
40
0.996195
41
0
42
-1.57079654245538
0
ELLIPSE
5
30F
100
AcDbEntity
8
1
62
256
6
ByLayer
370
18
48
1
60
0
100
AcDbEllipse
10
71.075596
20
-109.583496
30
0
11
0.796371224623849
21
-0.0762774660550268
31
0
210
0
220
0
230
-1
40
0.104701
41
-3.05366359099984
42
-1.77572224704061
0
ELLIPSE
5
310
100
AcDbEntity
8
1
62
256
6
ByLayer
370
18
48
1
60
0
100
AcDbEllipse
10
71.949885
20
-109.070703
30
0
11
0.10206130156359
21
-0.793825723144511
31
0
210
0
220
0
230
-1
40
0.991505
41
0.234478997015529
42
1.48638332696602
0
ELLIPSE
5
311
100
AcDbEntity
8
1
62
256
6
ByLayer
370
18
48
1
60
0
100
AcDbEllipse
10
81.533462
20
-101.27978
30
0
11
0.622896318079524
21
0.50441149270438
31
0
210
0
220
0
230
-1
40
0.996209
41
-0.19709111574786
42
0.783499114249288
0
ELLIPSE
5
312
100
AcDbEntity
8
1
62
256
6
ByLayer
370
18
48
1
60
0
100
AcDbEllipse
10
80.618838
20
-109.981846
30
0
11
0.504411492706113
21
-0.622896318079314
31
0
210
0
220
0
230
-1
40
0.996209
41
-0.783499114270896
42
0.779701015977424
0
ELLIPSE
5
313
100
AcDbEntity
8
1
62
256
6
ByLayer
370
18
48
1
60
0
100
AcDbEllipse
10
77.194801
20
104.141251
30
0
11
0.265509374245883
21
0.19404526068689
31
0
210
0
220
0
230
-1
40
0.509152
41
2.52890196913083
42
-2.92850617208834
0
ELLIPSE
5
314
100
AcDbEntity
8
1
62
256
6
ByLayer
370
18
48
1
60
0
100
AcDbEllipse
10
76.96992
20
106.280846
30
0
11
0.300051635635564
21
-0.134602403247186
31
0
210
0
220
0
230
-1
40
0.509152
41
2.92850617208852
42
-2.43486252013281
0
ELLIPSE
5
315
100
AcDbEntity
8
1
62
256
6
ByLayer
370
18
48
1
60
0
100
AcDbEllipse
10
75.964206
20
104.011911
30
0
11
0.300051635635552
21
-0.134602403247201
31
0
210
0
220
0
230
-1
40
0.509152
41
0.706729114783804
42
-2.93304503394641
0
ELLIPSE
5
316
100
AcDbEntity
8
1
62
256
6
ByLayer
370
18
48
1
60
0
100
AcDbEllipse
10
75.739325
20
106.151505
30
0
11
0.265509374245919
21
0.194045260686887
31
0
210
0
220
0
230
-1
40
0.509152
41
2.9330450339466
42
-0.61268959986181
0
ELLIPSE
5
317
100
AcDbEntity
8
1
62
256
6
ByLayer
370
18
48
1
60
0
100
AcDbEllipse
10
76.337239
20
106.381575
30
0
11
0.326745207476799
21
0.0343423051612961
31
0
210
0
220
0
230
-1
40
0.510128
41
0.317077564758351
42
1.5707963267949
0
ELLIPSE
5
318
100
AcDbEntity
8
1
62
256
6
ByLayer
370
18
48
1
60
0
100
AcDbEllipse
10
76.596887
20
103.911182
30
0
11
0.326745207480047
21
0.0343423051578554
31
0
210
0
220
0
230
-1
40
0.510128
41
-1.5707963267949
42
-0.317077564756822
0
ELLIPSE
5
319
100
AcDbEntity
8
1
62
256
6
ByLayer
370
18
48
1
60
0
100
AcDbEllipse
10
75.236468
20
105.017038
30
0
11
0.0344734871856845
21
-0.327993321092463
31
0
210
0
220
0
230
-1
40
0.506253
41
0.210864849216851
42
2.72650604461438
0
ELLIPSE
5
31A
100
AcDbEntity
8
1
62
256
6
ByLayer
370
18
48
1
60
0
100
AcDbEllipse
10
75.33651
20
105.651973
30
0
11
0.133173354420728
21
0.30137477292397
31
0
210
0
220
0
230
-1
40
0.507214
41
0.319332365943815
42
1.57305112797019
0
ELLIPSE
5
31B
100
AcDbEntity
8
1
62
256
6
ByLayer
370
18
48
1
60
0
100
AcDbEllipse
10
75.33651
20
105.651973
30
0
11
0.133173354417375
21
0.301374772913983
31
0
210
0
220
0
230
-1
40
0.507214
41
1.57305112796465
42
2.82676989002214
0
ELLIPSE
5
31C
100
AcDbEntity
8
1
62
256
6
ByLayer
370
18
48
1
60
0
100
AcDbEllipse
10
75.466335
20
104.416777
30
0
11
0.192922535712772
21
-0.267100713773269
31
0
210
0
220
0
230
-1
40
0.507214
41
-2.82676989003138
42
-1.57305112801166
0
ELLIPSE
5
31D
100
AcDbEntity
8
1
62
256
6
ByLayer
370
18
48
1
60
0
100
AcDbEllipse
10
75.466335
20
104.416777
30
0
11
0.192922535717659
21
-0.267100713768156
31
0
210
0
220
0
230
-1
40
0.507214
41
-1.57305112796708
42
-0.319332365943164
0
ELLIPSE
5
31E
100
AcDbEntity
8
1
62
256
6
ByLayer
370
18
48
1
60
0
100
AcDbEllipse
10
46
20
40.887566
30
0
11
1.9821561084808
21
1.67468583938878
31
0
210
0
220
0
230
-1
40
0.159173
41
1.7044768733756
42
-3.00791210700874
0
ELLIPSE
5
31F
100
AcDbEntity
8
1
62
256
6
ByLayer
370
18
48
1
60
0
100
AcDbEllipse
10
46
20
36.019856
30
0
11
1.98329959751858
21
1.45837418086397
31
0
210
0
220
0
230
-1
40
0.176854
41
-3.01227252240326
42
-1.4414761956097
0
ELLIPSE
5
320
100
AcDbEntity
8
1
62
256
6
ByLayer
370
18
48
1
60
0
100
AcDbEllipse
10
78.00652
20
-73.781451
30
0
11
32.5674689458966
21
4.37287033869457
31
0
210
0
220
0
230
-1
40
0.472583
41
2.61556774291514
42
-2.86476610834728
0
ELLIPSE
5
321
100
AcDbEntity
8
1
62
256
6
ByLayer
370
18
48
1
60
0
100
AcDbEllipse
10
66.4108
20
-65.61946
30
0
11
11.0015659841835
21
-0.0597179284281612
31
0
210
0
220
0
230
-1
40
0.869193
41
2.97283939336788
42
-2.35488875328701
0
ELLIPSE
5
322
100
AcDbEntity
8
1
62
256
6
ByLayer
370
18
48
1
60
0
100
AcDbEllipse
10
78.178443
20
-76.935947
30
0
11
-1.83690953073375E-16
21
3.0000000000003
31
0
210
0
220
0
230
-1
40
0.087489
41
-2.53072741539157
42
-0.959931088596906
0
ELLIPSE
5
323
100
AcDbEntity
8
1
62
256
6
ByLayer
370
18
48
1
60
0
100
AcDbEllipse
10
46
20
-36.019856
30
0
11
1.98329959751487
21
-1.45837418086208
31
0
210
0
220
0
230
-1
40
0.176854
41
1.44147619560779
42
3.01227252240342
0
ELLIPSE
5
324
100
AcDbEntity
8
1
62
256
6
ByLayer
370
18
48
1
60
0
100
AcDbEllipse
10
-10.8
20
57.689077
30
0
11
28.8000000000001
21
2.91064047863722E-14
31
0
210
0
220
0
230
-1
40
0.555556
41
-0.872664625997163
42
-4.44088854578977E-16
0
ELLIPSE
5
325
100
AcDbEntity
8
1
62
256
6
ByLayer
370
18
48
1
60
0
100
AcDbEllipse
10
-75.600289
20
0.000161
30
0
11
108.000306680852
21
-0.000164443838106529
31
0
210
0
220
0
230
-1
40
0.555556
41
0.782347662715377
42
0.791499907755002
0
ELLIPSE
5
326
100
AcDbEntity
8
1
62
256
6
ByLayer
370
18
48
1
60
0
100
AcDbEllipse
10
-75.600392
20
-0.000219
30
0
11
108.000416160731
21
0.000223191838367309
31
0
210
0
220
0
230
-1
40
0.555556
41
-0.791499264643984
42
-0.782347025799695
0
ELLIPSE
5
327
100
AcDbEntity
8
1
62
256
6
ByLayer
370
18
48
1
60
0
100
AcDbEllipse
10
-10.8
20
-57.689077
30
0
11
28.7999999999956
21
2.91064047863676E-14
31
0
210
0
220
0
230
-1
40
0.555556
41
0
42
0.872664625997238
0
ELLIPSE
5
328
100
AcDbEntity
8
1
62
256
6
ByLayer
370
18
48
1
60
0
100
AcDbEllipse
10
16
20
-86.540429
30
0
11
4.50157015092088
21
-0.0679255784865454
31
0
210
0
220
0
230
-1
40
0.697736
41
-1.92230800253057
42
-1.26253008041197
0
ELLIPSE
5
329
100
AcDbEntity
8
1
62
256
6
ByLayer
370
18
48
1
60
0
100
AcDbEllipse
10
20.850103
20
-0.001035
30
0
11
89.5562907914474
21
8.92060343436169
31
0
210
0
220
0
230
-1
40
0.999994
41
1.56823509380991
42
1.57493427920944
0
ELLIPSE
5
32A
100
AcDbEntity
8
1
62
256
6
ByLayer
370
18
48
1
60
0
100
AcDbEllipse
10
20.850244
20
0.002467
30
0
11
89.5610892951972
21
-8.86499708606928
31
0
210
0
220
0
230
-1
40
0.999986
41
-1.57431420468932
42
-1.5676149657375
0
ELLIPSE
5
32B
100
AcDbEntity
8
1
62
256
6
ByLayer
370
18
48
1
60
0
100
AcDbEllipse
10
83.3
20
91.5
30
0
11
0.711406368885989
21
-4.94913157753857
31
0
210
0
220
0
230
-1
40
1
41
3.10321201429669
42
-3.10664063079697
0
ELLIPSE
5
32C
100
AcDbEntity
8
1
62
256
6
ByLayer
370
18
48
1
60
0
100
AcDbEllipse
10
62.645036
20
69.996303
30
0
11
3.11707569408118
21
-6.8546830131968E-07
31
0
210
0
220
0
230
-1
40
0.001446
41
-2.00728067095737
42
-1.48368189392682
0
POINT
5
6C
100
AcDbEntity
8
81
62
256
6
ByLayer
370
13
48
1
60
0
100
AcDbPoint
10
82
20
111.99997
30
0
39
0
210
0
220
0
230
1
50
360
0
POINT
5
6E
100
AcDbEntity
8
80
62
256
6
ByLayer
370
13
48
1
60
0
100
AcDbPoint
10
0
20
0
30
0
39
0
210
0
220
0
230
1
50
360
0
POINT
5
70
100
AcDbEntity
8
81
62
256
6
ByLayer
370
13
48
1
60
0
100
AcDbPoint
10
82
20
-111.99997
30
0
39
0
210
0
220
0
230
1
50
360
0
SPLINE
5
32D
100
AcDbEntity
8
1
62
256
6
ByLayer
370
18
48
1
60
0
100
AcDbSpline
70
4
71
2
72
6
73
3
40
0
40
0
40
0
40
1
40
1
40
1
41
0.500000450798207
10
80.538242397723
20
-110.777781954145
30
0
41
0.499999549201793
10
80.5397475667952
20
-110.777940153789
30
0
41
0.500000450798207
10
80.5412590449292
20
-110.778093214545
30
0
0
SPLINE
5
32E
100
AcDbEntity
8
1
62
256
6
ByLayer
370
18
48
1
60
0
100
AcDbSpline
70
4
71
2
72
6
73
3
40
0
40
0
40
0
40
1
40
1
40
1
41
0.50000045087562
10
71.8662857964597
20
-109.866316785314
30
0
41
0.49999954912438
10
71.8677846347578
20
-109.866480121565
30
0
41
0.50000045087562
10
71.8692898038302
20
-109.866638321209
30
0
0
SPLINE
5
32F
100
AcDbEntity
8
1
62
256
6
ByLayer
370
18
48
1
60
0
100
AcDbSpline
70
4
71
3
72
21
73
17
40
0
40
0
40
0
40
0
40
0.0592792738439157
40
0.122239377580499
40
0.18519948131708
40
0.248159585053664
40
0.311119688790249
40
0.37407979252683
40
0.499999999999996
40
0.625920207473161
40
0.751840414946327
40
0.81480051868291
40
0.877760622419492
40
0.909240674287784
40
0.940720726156075
40
1
40
1
40
1
40
1
41
1
10
72.1667892616452
20
108.394671926271
30
0
41
1
10
72.1663707719761
20
108.39920081331
30
0
41
1
10
72.1657629279249
20
108.4081836336
30
0
41
1
10
72.1661484006996
20
108.421266969705
30
0
41
1
10
72.1678898260693
20
108.435601689628
30
0
41
1
10
72.1710791565589
20
108.450299969613
30
0
41
1
10
72.1758160059438
20
108.46473401651
30
0
41
1
10
72.1841687624252
20
108.48343409096
30
0
41
1
10
72.1983795006694
20
108.505424811441
30
0
41
1
10
72.2205457633464
20
108.527656780737
30
0
41
1
10
72.2418611718475
20
108.541631443564
30
0
41
1
10
72.2600719047276
20
108.549881823081
30
0
41
1
10
72.2714092850298
20
108.553790489956
30
0
41
1
10
72.2801363944544
20
108.556152376755
30
0
41
1
10
72.2886307799274
20
108.557998200475
30
0
41
1
10
72.2952229810574
20
108.558941707243
30
0
41
1
10
72.2997226760739
20
108.559472379486
30
0
0
SPLINE
5
330
100
AcDbEntity
8
1
62
256
6
ByLayer
370
18
48
1
60
0
100
AcDbSpline
70
4
71
3
72
46
73
42
40
0
40
0
40
0
40
0
40
0.0002356819181266
40
0.0012435088516769
40
0.0022513357852272
40
0.0026922600686554
40
0.0093061243200791
40
0.016360912854931
40
0.0324861437917355
40
0.0486113747285399
40
0.0647366056653443
40
0.0687679133995454
40
0.0707835672666459
40
0.0727992211337465
40
0.0768305288679476
40
0.0788461827350481
40
0.0808618366021487
40
0.0848931443363498
40
0.0889244520705509
40
0.0969870675389531
40
0.129237529412562
40
0.161487991286171
40
0.19373845315978
40
0.209863684096584
40
0.217926299564986
40
0.219941953432087
40
0.221957607299187
40
0.222965434232738
40
0.223973261166288
40
0.225988915033388
40
0.226492828500164
40
0.226996741966939
40
0.22723295140449
40
0.234555443968566
40
0.242114145970193
40
0.258239376906997
40
0.290489838780606
40
0.354990762527824
40
0.483992610022259
40
0.741996305011129
40
1
40
1
40
1
40
1
41
1
10
72.299722676074
20
108.559472379486
30
0
41
1
10
72.3000020757841
20
108.559505330535
30
0
41
1
10
72.3014801958997
20
108.559677446534
30
0
41
1
10
72.3041948613245
20
108.559973593043
30
0
41
1
10
72.3071904473763
20
108.560283331549
30
0
41
1
10
72.3170189379767
20
108.561301182689
30
0
41
1
10
72.3341925736224
20
108.563092935288
30
0
41
1
10
72.3704011728474
20
108.56689861242
30
0
41
1
10
72.4181689654827
20
108.571919209735
30
0
41
1
10
72.4769600948798
20
108.578098406431
30
0
41
1
10
72.5210534419276
20
108.582732803952
30
0
41
1
10
72.5479993762347
20
108.585564935771
30
0
41
1
10
72.5577978978009
20
108.586594801887
30
0
41
1
10
72.5675964193671
20
108.587624668003
30
0
41
1
10
72.5773949409332
20
108.588654534119
30
0
41
1
10
72.5871934624995
20
108.589684400235
30
0
41
1
10
72.5969919840657
20
108.590714266351
30
0
41
1
10
72.6092401360235
20
108.592001598996
30
0
41
1
10
72.6288371791558
20
108.594061331228
30
0
41
1
10
72.6827290477698
20
108.599725594866
30
0
41
1
10
72.7709157418655
20
108.608994389909
30
0
41
1
10
72.8884980006598
20
108.621352783301
30
0
41
1
10
72.9864832163217
20
108.63165144446
30
0
41
1
10
73.055072867285
20
108.638860507272
30
0
41
1
10
73.0869180623752
20
108.642207572148
30
0
41
1
10
73.1016158447244
20
108.643752371322
30
0
41
1
10
73.1077399207034
20
108.644396037645
30
0
41
1
10
73.1126391814864
20
108.644910970703
30
0
41
1
10
73.1175384422695
20
108.645425903761
30
0
41
1
10
73.1218252954546
20
108.645876470187
30
0
41
1
10
73.1254997410421
20
108.64626266998
30
0
41
1
10
73.1270116222993
20
108.646421575103
30
0
41
1
10
73.1368101438655
20
108.647451441219
30
0
41
1
10
73.1551823718021
20
108.649382440187
30
0
41
1
10
73.1928645768096
20
108.653342999527
30
0
41
1
10
73.260841820175
20
108.660487695707
30
0
41
1
10
73.3980211221017
20
108.67490582133
30
0
41
1
10
73.672379725955
20
108.703742072577
30
0
41
1
10
74.2210969336617
20
108.76141457507
30
0
41
1
10
75.0049786589569
20
108.843803864345
30
0
41
1
10
75.632084039193
20
108.909715295766
30
0
41
1
10
75.9456367293111
20
108.942671011477
30
0
0
SPLINE
5
331
100
AcDbEntity
8
1
62
256
6
ByLayer
370
18
48
1
60
0
100
AcDbSpline
70
4
71
3
72
42
73
38
40
0
40
0
40
0
40
0
40
0.258003694988867
40
0.516007389977733
40
0.645009237472167
40
0.709510161219383
40
0.741760623092992
40
0.749823238561394
40
0.757885854029796
40
0.765444556031423
40
0.769223907032237
40
0.77300325803305
40
0.773507171499825
40
0.7740110849666
40
0.776026738833701
40
0.778042392700801
40
0.782073700435002
40
0.790136315903404
40
0.806261546840208
40
0.838512008713817
40
0.870762470587425
40
0.903012932461033
40
0.911075547929435
40
0.915106855663637
40
0.919138163397837
40
0.923169471132038
40
0.92720077886624
40
0.931232086600441
40
0.935263394334642
40
0.951388625271446
40
0.96751385620825
40
0.983639087145054
40
0.990693875679906
40
0.997748664214758
40
0.998756491148308
40
0.999764318081858
40
1
40
1
40
1
40
1
41
1
10
75.9456367293111
20
108.942671011477
30
0
41
1
10
76.2591894194292
20
108.975626727187
30
0
41
1
10
76.8862947996653
20
109.041538158608
30
0
41
1
10
77.6701765249605
20
109.123927447884
30
0
41
1
10
78.2188937326672
20
109.181599950377
30
0
41
1
10
78.4932523365205
20
109.210436201623
30
0
41
1
10
78.620633116881
20
109.223824461131
30
0
41
1
10
78.6794242462781
20
109.230003657826
30
0
41
1
10
78.7082074033789
20
109.233028889542
30
0
41
1
10
78.7317850958974
20
109.235507004883
30
0
41
1
10
78.7501573238341
20
109.237438003851
30
0
41
1
10
78.7599558454002
20
109.238467869967
30
0
41
1
10
78.7657737175801
20
109.239079352973
30
0
41
1
10
78.7694481631676
20
109.239465552767
30
0
41
1
10
78.7749598315485
20
109.240044852457
30
0
41
1
10
78.7847583531147
20
109.241074718573
30
0
41
1
10
78.8019057658555
20
109.242876984275
30
0
41
1
10
78.8362005913372
20
109.246481515681
30
0
41
1
10
78.9047902423005
20
109.253690578493
30
0
41
1
10
79.0027754579625
20
109.263989239653
30
0
41
1
10
79.1203577167568
20
109.276347633044
30
0
41
1
10
79.2085444108524
20
109.285616428087
30
0
41
1
10
79.2624362794664
20
109.291280691725
30
0
41
1
10
79.2820333225989
20
109.293340423957
30
0
41
1
10
79.2967311049481
20
109.294885223131
30
0
41
1
10
79.3114288872974
20
109.296430022305
30
0
41
1
10
79.3261266696467
20
109.297974821479
30
0
41
1
10
79.340824451996
20
109.299519620653
30
0
41
1
10
79.3702200166946
20
109.302609219001
30
0
41
1
10
79.4143133637424
20
109.307243616522
30
0
41
1
10
79.4731044931395
20
109.313422813218
30
0
41
1
10
79.5208722857748
20
109.318443410533
30
0
41
1
10
79.557616741648
20
109.322305408468
30
0
41
1
10
79.5760149206345
20
109.32425381066
30
0
41
1
10
79.587071623032
20
109.325434785616
30
0
41
1
10
79.5897885388255
20
109.325709521298
30
0
41
1
10
79.5912701433984
20
109.325848484899
30
0
41
1
10
79.5915502884628
20
109.325874344376
30
0
0
SPLINE
5
332
100
AcDbEntity
8
1
62
256
6
ByLayer
370
18
48
1
60
0
100
AcDbSpline
70
4
71
3
72
21
73
17
40
0
40
0
40
0
40
0
40
0.0592792738438097
40
0.122239377580398
40
0.185199481316984
40
0.248159585053574
40
0.311119688790164
40
0.37407979252675
40
0.499999999999926
40
0.625920207473102
40
0.751840414946278
40
0.814800518682866
40
0.877760622419454
40
0.909240674287748
40
0.940720726156042
40
1
40
1
40
1
40
1
41
1
10
79.5915502884628
20
109.325874344376
30
0
41
1
10
79.5960619873107
20
109.326290807793
30
0
41
1
10
79.6050108918258
20
109.326893802586
30
0
41
1
10
79.6180458374646
20
109.326496518612
30
0
41
1
10
79.6323285841206
20
109.324737223551
30
0
41
1
10
79.6469746853927
20
109.321524325052
30
0
41
1
10
79.6613587637345
20
109.316758334768
30
0
41
1
10
79.6799958577748
20
109.308359544879
30
0
41
1
10
79.7019159935925
20
109.294078276318
30
0
41
1
10
79.7240827864674
20
109.271811566085
30
0
41
1
10
79.7380223320173
20
109.250405434648
30
0
41
1
10
79.7462564389638
20
109.23212011704
30
0
41
1
10
79.7501595447172
20
109.220737276033
30
0
41
1
10
79.7525195583876
20
109.211975685342
30
0
41
1
10
79.7543652452845
20
109.203448097252
30
0
41
1
10
79.7553104658232
20
109.196830516309
30
0
41
1
10
79.7558427297191
20
109.192313587423
30
0
0
SPLINE
5
333
100
AcDbEntity
8
1
62
256
6
ByLayer
370
18
48
1
60
0
100
AcDbSpline
70
4
71
3
72
46
73
42
40
0
40
0
40
0
40
0
40
0.000235681918133
40
0.0012435088516833
40
0.0022513357852336
40
0.0026922600686618
40
0.0093061243200855
40
0.0163609128549374
40
0.0324861437917417
40
0.048611374728546
40
0.0647366056653503
40
0.0687679133995514
40
0.0707835672666519
40
0.0727992211337524
40
0.0768305288679535
40
0.078846182735054
40
0.0808618366021546
40
0.0848931443363557
40
0.0889244520705567
40
0.0969870675389589
40
0.129237529412567
40
0.161487991286176
40
0.193738453159785
40
0.209863684096589
40
0.217926299564991
40
0.219941953432092
40
0.221957607299192
40
0.222965434232743
40
0.223973261166293
40
0.225988915033393
40
0.226492828500168
40
0.226996741966944
40
0.227232951404494
40
0.234555443968571
40
0.242114145970198
40
0.258239376907002
40
0.290489838780611
40
0.354990762527828
40
0.483992610022262
40
0.741996305011131
40
1
40
1
40
1
40
1
41
1
10
79.7558427297191
20
109.192313587423
30
0
41
1
10
79.7558757795987
20
109.19203311761
30
0
41
1
10
79.756048426657
20
109.190549338031
30
0
41
1
10
79.7563456227665
20
109.187824294446
30
0
41
1
10
79.7566565829649
20
109.184817269793
30
0
41
1
10
79.7576784365015
20
109.174951247976
30
0
41
1
10
79.7594771333786
20
109.15771202235
30
0
41
1
10
79.7632973475785
20
109.121365112158
30
0
41
1
10
79.7683371227599
20
109.073414854315
30
0
41
1
10
79.7745399229831
20
109.014399152355
30
0
41
1
10
79.7791920231506
20
108.970137375885
30
0
41
1
10
79.7820349732528
20
108.943088512486
30
0
41
1
10
79.78306877329
20
108.933252562159
30
0
41
1
10
79.7841025733272
20
108.923416611832
30
0
41
1
10
79.7851363733645
20
108.913580661506
30
0
41
1
10
79.7861701734017
20
108.903744711179
30
0
41
1
10
79.7872039734389
20
108.893908760852
30
0
41
1
10
79.7884962234854
20
108.881613822944
30
0
41
1
10
79.7905638235598
20
108.86194192229
30
0
41
1
10
79.7962497237644
20
108.807844195493
30
0
41
1
10
79.8055539240992
20
108.719320642553
30
0
41
1
10
79.8179595245457
20
108.601289238632
30
0
41
1
10
79.8282975249177
20
108.502929735364
30
0
41
1
10
79.8355341251781
20
108.434078083077
30
0
41
1
10
79.838893975299
20
108.402111244515
30
0
41
1
10
79.8404446753549
20
108.387357319025
30
0
41
1
10
79.8410908003781
20
108.381209850071
30
0
41
1
10
79.8416077003967
20
108.376291874908
30
0
41
1
10
79.8421246004153
20
108.371373899744
30
0
41
1
10
79.8425768879316
20
108.367070671476
30
0
41
1
10
79.8429645629454
20
108.363382190104
30
0
41
1
10
79.8431240750606
20
108.361864533706
30
0
41
1
10
79.8441578750978
20
108.352028583379
30
0
41
1
10
79.8460962501675
20
108.333586176516
30
0
41
1
10
79.8500719382013
20
108.295760031608
30
0
41
1
10
79.8572439259593
20
108.227523126216
30
0
41
1
10
79.8717171264802
20
108.089819821641
30
0
41
1
10
79.9006635275219
20
107.814413212493
30
0
41
1
10
79.9585563296052
20
107.263599994196
30
0
41
1
10
80.0412603325815
20
106.476723968056
30
0
41
1
10
80.1074235349626
20
105.847223147145
30
0
41
1
10
80.140505136153
20
105.53247273669
30
0
0
SPLINE
5
334
100
AcDbEntity
8
1
62
256
6
ByLayer
370
18
48
1
60
0
100
AcDbSpline
70
4
71
3
72
42
73
38
40
0
40
0
40
0
40
0
40
0.258003694988868
40
0.516007389977737
40
0.645009237472171
40
0.709510161219388
40
0.741760623092996
40
0.749823238561398
40
0.757885854029801
40
0.765444556031428
40
0.769223907032242
40
0.773003258033055
40
0.77350717149983
40
0.774011084966605
40
0.776026738833706
40
0.778042392700806
40
0.782073700435007
40
0.790136315903409
40
0.806261546840214
40
0.838512008713822
40
0.870762470587431
40
0.903012932461039
40
0.911075547929441
40
0.915106855663643
40
0.919138163397843
40
0.923169471132044
40
0.927200778866246
40
0.931232086600447
40
0.935263394334648
40
0.951388625271452
40
0.967513856208256
40
0.983639087145061
40
0.990693875679912
40
0.997748664214764
40
0.998756491148315
40
0.999764318081865
40
1
40
1
40
1
40
1
41
1
10
80.140505136153
20
105.53247273669
30
0
41
1
10
80.1735867373435
20
105.217722326234
30
0
41
1
10
80.2397499397244
20
104.588221505323
30
0
41
1
10
80.3224539427007
20
103.801345479184
30
0
41
1
10
80.3803467447841
20
103.250532260886
30
0
41
1
10
80.4092931458258
20
102.975125651738
30
0
41
1
10
80.4227325463095
20
102.84725829749
30
0
41
1
10
80.4289353465326
20
102.78824259553
30
0
41
1
10
80.4319721341419
20
102.759349491445
30
0
41
1
10
80.4344597154815
20
102.735681735971
30
0
41
1
10
80.4363980905512
20
102.717239329109
30
0
41
1
10
80.4374318905883
20
102.707403378782
30
0
41
1
10
80.4380457093605
20
102.701563283275
30
0
41
1
10
80.4384333843744
20
102.697874801903
30
0
41
1
10
80.4390148968954
20
102.692342079844
30
0
41
1
10
80.4400486969325
20
102.682506129517
30
0
41
1
10
80.4418578469977
20
102.665293216445
30
0
41
1
10
80.4454761471278
20
102.630867390302
30
0
41
1
10
80.4527127473883
20
102.562015738015
30
0
41
1
10
80.4630507477603
20
102.463656234747
30
0
41
1
10
80.4754563482068
20
102.345624830826
30
0
41
1
10
80.4847605485415
20
102.257101277886
30
0
41
1
10
80.4904464487462
20
102.203003551089
30
0
41
1
10
80.4925140488207
20
102.183331650435
30
0
41
1
10
80.4940647488764
20
102.168577724945
30
0
41
1
10
80.4956154489322
20
102.153823799455
30
0
41
1
10
80.4971661489881
20
102.139069873965
30
0
41
1
10
80.4987168490438
20
102.124315948475
30
0
41
1
10
80.5018182491555
20
102.094808097495
30
0
41
1
10
80.5064703493229
20
102.050546321024
30
0
41
1
10
80.512673149546
20
101.991530619064
30
0
41
1
10
80.5177129247274
20
101.943580361221
30
0
41
1
10
80.521589674867
20
101.906695547496
30
0
41
1
10
80.5235454089579
20
101.888227078821
30
0
41
1
10
80.5247307527413
20
101.87712812666
30
0
41
1
10
80.5250066194993
20
101.874400841269
30
0
41
1
10
80.5251462403145
20
101.872913590492
30
0
41
1
10
80.5251722256072
20
101.872632378161
30
0
0
SPLINE
5
335
100
AcDbEntity
8
1
62
256
6
ByLayer
370
18
48
1
60
0
100
AcDbSpline
70
4
71
3
72
21
73
17
40
0
40
0
40
0
40
0
40
0.0592792738439025
40
0.122239377580485
40
0.185199481317065
40
0.248159585053649
40
0.311119688790232
40
0.374079792526813
40
0.499999999999977
40
0.625920207473141
40
0.751840414946305
40
0.814800518682887
40
0.877760622419469
40
0.90924067428776
40
0.940720726156051
40
1
40
1
40
1
40
1
41
1
10
80.5251722256072
20
101.872632378161
30
0
41
1
10
80.5255907152764
20
101.868103491122
30
0
41
1
10
80.5261985593276
20
101.859120670832
30
0
41
1
10
80.5258130865528
20
101.846037334728
30
0
41
1
10
80.524071661183
20
101.831702614804
30
0
41
1
10
80.5208823306936
20
101.81700433482
30
0
41
1
10
80.5161454813086
20
101.802570287922
30
0
41
1
10
80.5077927248273
20
101.783870213472
30
0
41
1
10
80.4935819865831
20
101.761879492991
30
0
41
1
10
80.471415723906
20
101.739647523696
30
0
41
1
10
80.4501003154049
20
101.725672860868
30
0
41
1
10
80.4318895825248
20
101.717422481351
30
0
41
1
10
80.4205522022227
20
101.713513814476
30
0
41
1
10
80.411825092798
20
101.711151927677
30
0
41
1
10
80.403330707325
20
101.709306103957
30
0
41
1
10
80.3967385061951
20
101.708362597189
30
0
41
1
10
80.3922388111785
20
101.707831924946
30
0
0
SPLINE
5
336
100
AcDbEntity
8
1
62
256
6
ByLayer
370
18
48
1
60
0
100
AcDbSpline
70
4
71
3
72
46
73
42
40
0
40
0
40
0
40
0
40
0.0002356819181418
40
0.001243508851692
40
0.0022513357852423
40
0.0026922600686705
40
0.0093061243200941
40
0.0163609128549459
40
0.0324861437917501
40
0.0486113747285543
40
0.0647366056653584
40
0.0687679133995595
40
0.07078356726666
40
0.0727992211337605
40
0.0768305288679615
40
0.0788461827350621
40
0.0808618366021626
40
0.0848931443363636
40
0.0889244520705647
40
0.0969870675389668
40
0.129237529412575
40
0.161487991286183
40
0.193738453159792
40
0.209863684096596
40
0.217926299564998
40
0.219941953432098
40
0.221957607299199
40
0.222965434232749
40
0.2239732611663
40
0.2259889150334
40
0.226492828500175
40
0.22699674196695
40
0.227232951404501
40
0.234555443968577
40
0.242114145970204
40
0.258239376907008
40
0.290489838780617
40
0.354990762527833
40
0.483992610022267
40
0.741996305011133
40
1
40
1
40
1
40
1
41
1
10
80.3922388111786
20
101.707831924946
30
0
41
1
10
80.3919594114684
20
101.707798973897
30
0
41
1
10
80.3904812913528
20
101.707626857898
30
0
41
1
10
80.387766625928
20
101.70733071139
30
0
41
1
10
80.3847710398761
20
101.707020972883
30
0
41
1
10
80.3749425492757
20
101.706003121743
30
0
41
1
10
80.35776891363
20
101.704211369144
30
0
41
1
10
80.3215603144049
20
101.700405692012
30
0
41
1
10
80.2737925217698
20
101.695385094697
30
0
41
1
10
80.2150013923726
20
101.689205898001
30
0
41
1
10
80.1709080453248
20
101.68457150048
30
0
41
1
10
80.1439621110177
20
101.681739368661
30
0
41
1
10
80.1341635894515
20
101.680709502545
30
0
41
1
10
80.1243650678854
20
101.679679636429
30
0
41
1
10
80.1145665463192
20
101.678649770313
30
0
41
1
10
80.1047680247531
20
101.677619904197
30
0
41
1
10
80.0949695031868
20
101.676590038081
30
0
41
1
10
80.0827213512291
20
101.675302705436
30
0
41
1
10
80.0631243080967
20
101.673242973204
30
0
41
1
10
80.0092324394826
20
101.667578709567
30
0
41
1
10
79.9210457453869
20
101.658309914523
30
0
41
1
10
79.8034634865927
20
101.645951521132
30
0
41
1
10
79.7054782709307
20
101.635652859972
30
0
41
1
10
79.6368886199674
20
101.628443797161
30
0
41
1
10
79.6050434248773
20
101.625096732284
30
0
41
1
10
79.5903456425281
20
101.62355193311
30
0
41
1
10
79.5842215665491
20
101.622908266787
30
0
41
1
10
79.5793223057661
20
101.622393333729
30
0
41
1
10
79.574423044983
20
101.621878400671
30
0
41
1
10
79.5701361917978
20
101.621427834245
30
0
41
1
10
79.5664617462104
20
101.621041634452
30
0
41
1
10
79.5649498649532
20
101.620882729329
30
0
41
1
10
79.5551513433869
20
101.619852863213
30
0
41
1
10
79.5367791154504
20
101.617921864245
30
0
41
1
10
79.4990969104429
20
101.613961304905
30
0
41
1
10
79.4311196670775
20
101.606816608726
30
0
41
1
10
79.2939403651508
20
101.592398483102
30
0
41
1
10
79.0195817612974
20
101.563562231856
30
0
41
1
10
78.4708645535908
20
101.505889729363
30
0
41
1
10
77.6869828282956
20
101.423500440087
30
0
41
1
10
77.0598774480594
20
101.357589008666
30
0
41
1
10
76.7463247579414
20
101.324633292956
30
0
0
SPLINE
5
337
100
AcDbEntity
8
1
62
256
6
ByLayer
370
18
48
1
60
0
100
AcDbSpline
70
4
71
3
72
42
73
38
40
0
40
0
40
0
40
0
40
0.258003694988867
40
0.516007389977734
40
0.645009237472167
40
0.709510161219384
40
0.741760623092992
40
0.749823238561394
40
0.757885854029796
40
0.765444556031423
40
0.769223907032237
40
0.77300325803305
40
0.773507171499825
40
0.7740110849666
40
0.776026738833701
40
0.778042392700802
40
0.782073700435003
40
0.790136315903405
40
0.806261546840209
40
0.838512008713817
40
0.870762470587426
40
0.903012932461034
40
0.911075547929436
40
0.915106855663637
40
0.919138163397838
40
0.923169471132039
40
0.92720077886624
40
0.931232086600441
40
0.935263394334642
40
0.951388625271446
40
0.967513856208251
40
0.983639087145055
40
0.990693875679907
40
0.997748664214758
40
0.998756491148309
40
0.999764318081859
40
1
40
1
40
1
40
1
41
1
10
76.7463247579414
20
101.324633292956
30
0
41
1
10
76.4327720678233
20
101.291677577245
30
0
41
1
10
75.8056666875872
20
101.225766145824
30
0
41
1
10
75.0217849622919
20
101.143376856549
30
0
41
1
10
74.4730677545853
20
101.085704354055
30
0
41
1
10
74.1987091507319
20
101.056868102809
30
0
41
1
10
74.0713283703715
20
101.043479843302
30
0
41
1
10
74.0125372409743
20
101.037300646606
30
0
41
1
10
73.9837540838736
20
101.03427541489
30
0
41
1
10
73.960176391355
20
101.031797299549
30
0
41
1
10
73.9418041634184
20
101.029866300581
30
0
41
1
10
73.9320056418522
20
101.028836434466
30
0
41
1
10
73.9261877696723
20
101.028224951459
30
0
41
1
10
73.9225133240849
20
101.027838751666
30
0
41
1
10
73.917001655704
20
101.027259451975
30
0
41
1
10
73.9072031341378
20
101.026229585859
30
0
41
1
10
73.8900557213969
20
101.024427320157
30
0
41
1
10
73.8557608959153
20
101.020822788751
30
0
41
1
10
73.787171244952
20
101.013613725939
30
0
41
1
10
73.68918602929
20
101.00331506478
30
0
41
1
10
73.5716037704957
20
100.990956671388
30
0
41
1
10
73.4834170764001
20
100.981687876345
30
0
41
1
10
73.429525207786
20
100.976023612707
30
0
41
1
10
73.4099281646536
20
100.973963880475
30
0
41
1
10
73.3952303823044
20
100.972419081301
30
0
41
1
10
73.380532599955
20
100.970874282127
30
0
41
1
10
73.3658348176058
20
100.969329482953
30
0
41
1
10
73.3511370352566
20
100.967784683779
30
0
41
1
10
73.3217414705579
20
100.964695085432
30
0
41
1
10
73.2776481235101
20
100.96006068791
30
0
41
1
10
73.2188569941129
20
100.953881491214
30
0
41
1
10
73.1710892014777
20
100.948860893899
30
0
41
1
10
73.1343447456045
20
100.944998895964
30
0
41
1
10
73.1159465666179
20
100.943050493772
30
0
41
1
10
73.1048898642205
20
100.941869518816
30
0
41
1
10
73.102172948427
20
100.941594783134
30
0
41
1
10
73.100691343854
20
100.941455819533
30
0
41
1
10
73.1004111987896
20
100.941429960057
30
0
0
SPLINE
5
338
100
AcDbEntity
8
1
62
256
6
ByLayer
370
18
48
1
60
0
100
AcDbSpline
70
4
71
3
72
21
73
17
40
0
40
0
40
0
40
0
40
0.0592792738438223
40
0.122239377580414
40
0.185199481317004
40
0.248159585053598
40
0.311119688790192
40
0.374079792526782
40
0.499999999999966
40
0.62592020747315
40
0.751840414946334
40
0.814800518682926
40
0.877760622419518
40
0.909240674287814
40
0.94072072615611
40
1
40
1
40
1
40
1
41
1
10
73.1004111987896
20
100.941429960057
30
0
41
1
10
73.0958994999418
20
100.941013496639
30
0
41
1
10
73.0869505954266
20
100.940410501847
30
0
41
1
10
73.0739156497879
20
100.94080778582
30
0
41
1
10
73.0596329031318
20
100.942567080881
30
0
41
1
10
73.0449868018598
20
100.94577997938
30
0
41
1
10
73.0306027235179
20
100.950545969664
30
0
41
1
10
73.0119656294777
20
100.958944759553
30
0
41
1
10
72.99004549366
20
100.973226028114
30
0
41
1
10
72.9678787007852
20
100.995492738347
30
0
41
1
10
72.953939155235
20
101.016898869784
30
0
41
1
10
72.9457050482887
20
101.035184187392
30
0
41
1
10
72.9418019425352
20
101.046567028399
30
0
41
1
10
72.9394419288649
20
101.05532861909
30
0
41
1
10
72.937596241968
20
101.06385620718
30
0
41
1
10
72.9366510214293
20
101.070473788123
30
0
41
1
10
72.9361187575333
20
101.074990717009
30
0
0
SPLINE
5
339
100
AcDbEntity
8
1
62
256
6
ByLayer
370
18
48
1
60
0
100
AcDbSpline
70
4
71
3
72
46
73
42
40
0
40
0
40
0
40
0
40
0.0002356819181353
40
0.0012435088516856
40
0.0022513357852359
40
0.0026922600686641
40
0.0093061243200877
40
0.0163609128549396
40
0.0324861437917439
40
0.0486113747285482
40
0.0647366056653524
40
0.0687679133995535
40
0.070783567266654
40
0.0727992211337546
40
0.0768305288679556
40
0.0788461827350562
40
0.0808618366021567
40
0.0848931443363578
40
0.0889244520705588
40
0.096987067538961
40
0.129237529412569
40
0.161487991286178
40
0.193738453159787
40
0.209863684096591
40
0.217926299564993
40
0.219941953432093
40
0.221957607299194
40
0.222965434232744
40
0.223973261166295
40
0.225988915033395
40
0.22649282850017
40
0.226996741966945
40
0.227232951404496
40
0.234555443968572
40
0.242114145970199
40
0.258239376907004
40
0.290489838780612
40
0.354990762527829
40
0.483992610022264
40
0.741996305011132
40
1
40
1
40
1
40
1
41
1
10
72.9361187575333
20
101.074990717009
30
0
41
1
10
72.9360857076538
20
101.075271186822
30
0
41
1
10
72.9359130605955
20
101.076754966401
30
0
41
1
10
72.935615864486
20
101.079480009987
30
0
41
1
10
72.9353049042876
20
101.08248703464
30
0
41
1
10
72.934283050751
20
101.092353056457
30
0
41
1
10
72.9324843538739
20
101.109592282082
30
0
41
1
10
72.928664139674
20
101.145939192274
30
0
41
1
10
72.9236243644925
20
101.193889450117
30
0
41
1
10
72.9174215642694
20
101.252905152077
30
0
41
1
10
72.9127694641019
20
101.297166928548
30
0
41
1
10
72.9099265139996
20
101.324215791946
30
0
41
1
10
72.9088927139625
20
101.334051742273
30
0
41
1
10
72.9078589139252
20
101.3438876926
30
0
41
1
10
72.906825113888
20
101.353723642926
30
0
41
1
10
72.9057913138507
20
101.363559593253
30
0
41
1
10
72.9047575138136
20
101.37339554358
30
0
41
1
10
72.9034652637671
20
101.385690481488
30
0
41
1
10
72.9013976636927
20
101.405362382142
30
0
41
1
10
72.8957117634881
20
101.459460108939
30
0
41
1
10
72.8864075631533
20
101.547983661879
30
0
41
1
10
72.8740019627068
20
101.6660150658
30
0
41
1
10
72.8636639623347
20
101.764374569068
30
0
41
1
10
72.8564273620743
20
101.833226221355
30
0
41
1
10
72.8530675119534
20
101.865193059917
30
0
41
1
10
72.8515168118976
20
101.879946985407
30
0
41
1
10
72.8508706868744
20
101.886094454361
30
0
41
1
10
72.8503537868557
20
101.891012429524
30
0
41
1
10
72.8498368868371
20
101.895930404688
30
0
41
1
10
72.8493845993208
20
101.900233632956
30
0
41
1
10
72.848996924307
20
101.903922114328
30
0
41
1
10
72.8488374121918
20
101.905439770726
30
0
41
1
10
72.8478036121546
20
101.915275721053
30
0
41
1
10
72.8458652370849
20
101.933718127916
30
0
41
1
10
72.8418895490512
20
101.971544272825
30
0
41
1
10
72.8347175612931
20
102.039781178217
30
0
41
1
10
72.8202443607722
20
102.177484482791
30
0
41
1
10
72.7912979597305
20
102.452891091939
30
0
41
1
10
72.7334051576472
20
103.003704310237
30
0
41
1
10
72.650701154671
20
103.790580336376
30
0
41
1
10
72.5845379522899
20
104.420081157287
30
0
41
1
10
72.5514563510994
20
104.734831567743
30
0
0
SPLINE
5
33A
100
AcDbEntity
8
1
62
256
6
ByLayer
370
18
48
1
60
0
100
AcDbSpline
70
4
71
3
72
42
73
38
40
0
40
0
40
0
40
0
40
0.258003694988868
40
0.516007389977737
40
0.645009237472171
40
0.709510161219388
40
0.741760623092997
40
0.749823238561399
40
0.757885854029801
40
0.765444556031428
40
0.769223907032242
40
0.773003258033055
40
0.77350717149983
40
0.774011084966606
40
0.776026738833706
40
0.778042392700807
40
0.782073700435008
40
0.79013631590341
40
0.806261546840214
40
0.838512008713823
40
0.870762470587431
40
0.90301293246104
40
0.911075547929442
40
0.915106855663643
40
0.919138163397844
40
0.923169471132045
40
0.927200778866246
40
0.931232086600447
40
0.935263394334648
40
0.951388625271453
40
0.967513856208257
40
0.983639087145061
40
0.990693875679913
40
0.997748664214765
40
0.998756491148315
40
0.999764318081865
40
1
40
1
40
1
40
1
41
1
10
72.5514563510994
20
104.734831567743
30
0
41
1
10
72.518374749909
20
105.049581978198
30
0
41
1
10
72.452211547528
20
105.679082799109
30
0
41
1
10
72.3695075445518
20
106.465958825248
30
0
41
1
10
72.3116147424684
20
107.016772043546
30
0
41
1
10
72.2826683414268
20
107.292178652695
30
0
41
1
10
72.269228940943
20
107.420046006942
30
0
41
1
10
72.2630261407198
20
107.479061708903
30
0
41
1
10
72.2599893531105
20
107.507954812987
30
0
41
1
10
72.257501771771
20
107.531622568461
30
0
41
1
10
72.2555633967013
20
107.550064975324
30
0
41
1
10
72.254529596664
20
107.55990092565
30
0
41
1
10
72.253915777892
20
107.565741021157
30
0
41
1
10
72.253528102878
20
107.569429502529
30
0
41
1
10
72.2529465903571
20
107.574962224588
30
0
41
1
10
72.2519127903199
20
107.584798174915
30
0
41
1
10
72.2501036402548
20
107.602011087987
30
0
41
1
10
72.2464853401247
20
107.63643691413
30
0
41
1
10
72.2392487398641
20
107.705288566417
30
0
41
1
10
72.2289107394921
20
107.803648069685
30
0
41
1
10
72.2165051390457
20
107.921679473606
30
0
41
1
10
72.2072009387109
20
108.010203026546
30
0
41
1
10
72.2015150385063
20
108.064300753343
30
0
41
1
10
72.1994474384319
20
108.083972653997
30
0
41
1
10
72.197896738376
20
108.098726579487
30
0
41
1
10
72.1963460383203
20
108.113480504977
30
0
41
1
10
72.1947953382645
20
108.128234430467
30
0
41
1
10
72.1932446382086
20
108.142988355957
30
0
41
1
10
72.190143238097
20
108.172496206937
30
0
41
1
10
72.1854911379296
20
108.216757983408
30
0
41
1
10
72.1792883377065
20
108.275773685368
30
0
41
1
10
72.174248562525
20
108.323723943211
30
0
41
1
10
72.1703718123855
20
108.360608756936
30
0
41
1
10
72.1684160782945
20
108.379077225611
30
0
41
1
10
72.1672307345111
20
108.390176177772
30
0
41
1
10
72.1669548677531
20
108.392903463163
30
0
41
1
10
72.166815246938
20
108.39439071394
30
0
41
1
10
72.1667892616452
20
108.394671926271
30
0
0
SPLINE
5
33B
100
AcDbEntity
8
1
62
256
6
ByLayer
370
18
48
1
60
0
100
AcDbSpline
70
4
71
3
72
41
73
37
40
0
40
0
40
0
40
0
40
0.0078125
40
0.01171875
40
0.013671875
40
0.015625
40
0.03125
40
0.0625
40
0.09375
40
0.125
40
0.1328125
40
0.140625
40
0.15625
40
0.1875
40
0.25
40
0.3125
40
0.375
40
0.4375
40
0.46875
40
0.4765625
40
0.484375
40
0.5
40
0.5625
40
0.625
40
0.6875
40
0.71875
40
0.734375
40
0.7421875
40
0.75
40
0.78125
40
0.8125
40
0.875
40
0.90625
40
0.921875
40
0.9375
40
1
40
1
40
1
40
1
41
1
10
80.140505136153
20
105.53247273669
30
0
41
1
10
80.1468180127157
20
105.533136246753
30
0
41
1
10
80.1567571196016
20
105.534180888981
30
0
41
1
10
80.1671488105576
20
105.535273099712
30
0
41
1
10
80.1726543203348
20
105.535851752107
30
0
41
1
10
80.1866089068802
20
105.537318438255
30
0
41
1
10
80.2214241971689
20
105.540977672716
30
0
41
1
10
80.2771801661945
20
105.546837861202
30
0
41
1
10
80.3440716568205
20
105.55386844017
30
0
41
1
10
80.3942460109596
20
105.559141977292
30
0
41
1
10
80.4276744291182
20
105.562655445619
30
0
41
1
10
80.449913408064
20
105.564992856494
30
0
41
1
10
80.4887084767906
20
105.569070382524
30
0
41
1
10
80.5687693027775
20
105.577485114414
30
0
41
1
10
80.6880946953137
20
105.590026718545
30
0
41
1
10
80.8375286843453
20
105.605732863684
30
0
41
1
10
80.9906446614172
20
105.621826001362
30
0
41
1
10
81.1192493160314
20
105.635342895237
30
0
41
1
10
81.2023740952187
20
105.644079661585
30
0
41
1
10
81.2404833972655
20
105.648085110633
30
0
41
1
10
81.2660478232013
20
105.650772040071
30
0
41
1
10
81.336905476515
20
105.658219479535
30
0
41
1
10
81.4525852193846
20
105.670377910445
30
0
41
1
10
81.6069164917892
20
105.686598780809
30
0
41
1
10
81.735520156904
20
105.700115570683
30
0
41
1
10
81.8255591269847
20
105.709579047777
30
0
41
1
10
81.8705530825215
20
105.714308103066
30
0
41
1
10
81.8963054381481
20
105.71701478471
30
0
41
1
10
81.9348108558539
20
105.721061867192
30
0
41
1
10
81.9924701852775
20
105.727122106917
30
0
41
1
10
82.0947770874735
20
105.737874995634
30
0
41
1
10
82.1960652534764
20
105.748520810863
30
0
41
1
10
82.2827154172745
20
105.757628110065
30
0
41
1
10
82.3315471659718
20
105.762760533669
30
0
41
1
10
82.4039673118519
20
105.770372197719
30
0
41
1
10
82.4645320835513
20
105.776737811733
30
0
41
1
10
82.5129195058711
20
105.781823534752
30
0
0
SPLINE
5
33C
100
AcDbEntity
8
1
62
256
6
ByLayer
370
18
48
1
60
0
100
AcDbSpline
70
4
71
3
72
21
73
17
40
0
40
0
40
0
40
0
40
0.0001096836879339
40
0.0027068013926406
40
0.0033560808188175
40
0.0040053602449939
40
0.0088749559413184
40
0.0137445516376439
40
0.0234837430302939
40
0.0338722138491207
40
0.0442606846679472
40
0.0858145679432538
40
0.168922334493867
40
0.335137867595094
40
0.667568933797547
40
1
40
1
40
1
40
1
41
1
10
82.9844857337151
20
101.294246333777
30
0
41
1
10
82.9844705830254
20
101.29441061068
30
0
41
1
10
82.9840960043191
20
101.298464610037
30
0
41
1
10
82.9836095149423
20
101.303488885173
30
0
41
1
10
82.9830075386459
20
101.309317302231
30
0
41
1
10
82.9820424816907
20
101.318544454555
30
0
41
1
10
82.9804153166455
20
101.334084736143
30
0
41
1
10
82.9773590353334
20
101.363222216249
30
0
41
1
10
82.9734277253204
20
101.400614387845
30
0
41
1
10
82.9686172591754
20
101.446260839778
30
0
41
1
10
82.9587883921616
20
101.5394958189
30
0
41
1
10
82.9375854425866
20
101.741514351379
30
0
41
1
10
82.8918331685262
20
102.176622645012
30
0
41
1
10
82.8003828422001
20
103.046844723395
30
0
41
1
10
82.6697147317708
20
104.29001661086
30
0
41
1
10
82.5651845811709
20
105.284554560121
30
0
41
1
10
82.5129195058711
20
105.781823534752
30
0
0
SPLINE
5
33D
100
AcDbEntity
8
1
62
256
6
ByLayer
370
18
48
1
60
0
100
AcDbSpline
70
4
71
1
72
4
73
2
40
0
40
0
40
1
40
1
41
1
10
82.9844883464765
20
101.294246574486
30
0
41
1
10
83.0606191864609
20
100.445125324891
30
0
0
SPLINE
5
33E
100
AcDbEntity
8
1
62
256
6
ByLayer
370
18
48
1
60
0
100
AcDbSpline
70
4
71
3
72
45
73
41
40
0
40
0
40
0
40
0
40
0.0011565097570576
40
0.0196321945810329
40
0.0288700369930205
40
0.0381078794050081
40
0.0565835642289833
40
0.130486303524884
40
0.204389042820785
40
0.278291782116686
40
0.310624230558643
40
0.340935900972977
40
0.342956679000599
40
0.347575600206593
40
0.352194521412587
40
0.370670206236562
40
0.37990804864855
40
0.389145891060537
40
0.407621575884513
40
0.426097260708488
40
0.463048630356438
40
0.500000000004389
40
0.536951369652339
40
0.555427054476315
40
0.57390273930029
40
0.592378424124265
40
0.61085410894824
40
0.629329793772216
40
0.647805478596191
40
0.652424399802185
40
0.657043321008178
40
0.689375769450135
40
0.721708217892092
40
0.795610957187993
40
0.869513696483894
40
0.943416435779794
40
0.96189212060377
40
0.980367805427745
40
0.998843490251721
40
1
40
1
40
1
40
1
41
1
10
82.3408112863991
20
99.5527685799246
30
0
41
1
10
82.3412704742708
20
99.5528259994867
30
0
41
1
10
82.3490595750651
20
99.5538031829853
30
0
41
1
10
82.360370754142
20
99.5553076066166
30
0
41
1
10
82.3746316427114
20
99.5575255368816
30
0
41
1
10
82.3888112504314
20
99.5599382505081
30
0
41
1
10
82.4277300573492
20
99.5673761122649
30
0
41
1
10
82.4923379212438
20
99.5841312517056
30
0
41
1
10
82.5781787249474
20
99.6167978372146
30
0
41
1
10
82.6463298808311
20
99.6521273867562
30
0
41
1
10
82.6962494156961
20
99.6835386297329
30
0
41
1
10
82.7192976416577
20
99.6996881996349
30
0
41
1
10
82.7322639348801
20
99.7092869842205
30
0
41
1
10
82.7362017077465
20
99.7122347713179
30
0
41
1
10
82.7458495653719
20
99.7195699979476
30
0
41
1
10
82.756970991372
20
99.7283580689824
30
0
41
1
10
82.7694836709896
20
99.7387074013691
30
0
41
1
10
82.7818602726919
20
99.7492572733556
30
0
41
1
10
82.7970676345432
20
99.762814358548
30
0
41
1
10
82.820802339059
20
99.7852677473952
30
0
41
1
10
82.8492852516365
20
99.8147131996403
30
0
41
1
10
82.8813569466844
20
99.8520932647908
30
0
41
1
10
82.9061509832387
20
99.884814234929
30
0
41
1
10
82.9247705733901
20
99.9118132608157
30
0
41
1
10
82.9381133930826
20
99.9324435801861
30
0
41
1
10
82.9508202864787
20
99.9534248745789
30
0
41
1
10
82.9628772002035
20
99.9747270690614
30
0
41
1
10
82.9742700808814
20
99.9963200887006
30
0
41
1
10
82.9823061765737
20
100.012710416098
30
0
41
1
10
82.9874472800153
20
100.023709387058
30
0
41
1
10
82.9950292057649
20
100.04024962569
30
0
41
1
10
83.0068011979221
20
100.06808544185
30
0
41
1
10
83.0273268984264
20
100.124457699215
30
0
41
1
10
83.0475804423005
20
100.198725384116
30
0
41
1
10
83.0615614367819
20
100.289810058983
30
0
41
1
10
83.0644538473515
20
100.356736482013
30
0
41
1
10
83.0635323437676
20
100.400114763396
30
0
41
1
10
83.0624912895295
20
100.421736141496
30
0
41
1
10
83.0613218924468
20
100.436810312657
30
0
41
1
10
83.0606545466225
20
100.44466212412
30
0
41
1
10
83.0606150217011
20
100.445124969866
30
0
0
SPLINE
5
33F
100
AcDbEntity
8
1
62
256
6
ByLayer
370
18
48
1
60
0
100
AcDbSpline
70
4
71
1
72
4
73
2
40
0
40
0
40
1
40
1
41
1
10
82.3408118064027
20
99.5527644164539
30
0
41
1
10
81.497649300862
20
99.450978978996
30
0
0
SPLINE
5
340
100
AcDbEntity
8
1
62
256
6
ByLayer
370
18
48
1
60
0
100
AcDbSpline
70
4
71
3
72
41
73
37
40
0
40
0
40
0
40
0
40
0.0078125
40
0.01171875
40
0.013671875
40
0.015625
40
0.03125
40
0.0625
40
0.09375
40
0.125
40
0.1328125
40
0.140625
40
0.15625
40
0.1875
40
0.25
40
0.3125
40
0.375
40
0.4375
40
0.46875
40
0.4765625
40
0.484375
40
0.5
40
0.5625
40
0.625
40
0.6875
40
0.71875
40
0.734375
40
0.7421875
40
0.75
40
0.78125
40
0.8125
40
0.875
40
0.90625
40
0.921875
40
0.9375
40
1
40
1
40
1
40
1
41
1
10
76.7463247579414
20
101.324633292956
30
0
41
1
10
76.7469908025055
20
101.31829630223
30
0
41
1
10
76.7481875231465
20
101.308502817555
30
0
41
1
10
76.749698197253
20
101.298585037998
30
0
41
1
10
76.7505713245004
20
101.293420824736
30
0
41
1
10
76.7527607728557
20
101.280302012465
30
0
41
1
10
76.7582358736988
20
101.247587574146
30
0
41
1
10
76.7669949641203
20
101.195184707199
30
0
41
1
10
76.7775061984961
20
101.132319452811
30
0
41
1
10
76.7853884625953
20
101.085162563497
30
0
41
1
10
76.7906465248869
20
101.053752627245
30
0
41
1
10
76.7941397341925
20
101.032850498642
30
0
41
1
10
76.8001718574839
20
100.99631108664
30
0
41
1
10
76.8123048697024
20
100.92051422626
30
0
41
1
10
76.8295255778381
20
100.806474426182
30
0
41
1
10
76.8497228358508
20
100.661962977156
30
0
41
1
10
76.8691143821618
20
100.512275021419
30
0
41
1
10
76.8843376285805
20
100.385230510645
30
0
41
1
10
76.8936775348691
20
100.302494560773
30
0
41
1
10
76.8978661351078
20
100.264447775962
30
0
41
1
10
76.9006484087421
20
100.238891174301
30
0
41
1
10
76.90836698267
20
100.168063719954
30
0
41
1
10
76.9209648548753
20
100.052429307531
30
0
41
1
10
76.937772988144
20
99.8981597428563
30
0
41
1
10
76.9517786220314
20
99.7696068539742
30
0
41
1
10
76.9615858412848
20
99.6796052796714
30
0
41
1
10
76.9664843533643
20
99.6346271392028
30
0
41
1
10
76.9692917943154
20
99.6088885096832
30
0
41
1
10
76.9734872610391
20
99.5704007976141
30
0
41
1
10
76.9796388006396
20
99.5126057068834
30
0
41
1
10
76.9901323775683
20
99.4095356137702
30
0
41
1
10
76.999896739253
20
99.3067173726037
30
0
41
1
10
77.0076891929292
20
99.218063048639
30
0
41
1
10
77.0119241968345
20
99.1679079150452
30
0
41
1
10
77.0180146341611
20
99.0932891927162
30
0
41
1
10
77.0231017103509
20
99.0308778976085
30
0
41
1
10
77.0271678577775
20
98.9810175694724
30
0
0
SPLINE
5
341
100
AcDbEntity
8
1
62
256
6
ByLayer
370
18
48
1
60
0
100
AcDbSpline
70
4
71
3
72
41
73
37
40
0
40
0
40
0
40
0
40
0.0078125
40
0.01171875
40
0.013671875
40
0.015625
40
0.03125
40
0.0625
40
0.09375
40
0.125
40
0.1328125
40
0.140625
40
0.15625
40
0.1875
40
0.25
40
0.3125
40
0.375
40
0.4375
40
0.46875
40
0.4765625
40
0.484375
40
0.5
40
0.5625
40
0.625
40
0.6875
40
0.71875
40
0.734375
40
0.7421875
40
0.75
40
0.78125
40
0.8125
40
0.875
40
0.90625
40
0.921875
40
0.9375
40
1
40
1
40
1
40
1
41
1
10
75.9456367293111
20
108.942671011477
30
0
41
1
10
75.944970684747
20
108.949008002202
30
0
41
1
10
75.944105074213
20
108.958836287952
30
0
41
1
10
75.943520714149
20
108.968851427038
30
0
41
1
10
75.94330106116
20
108.974084323212
30
0
41
1
10
75.9427151103749
20
108.987371669869
30
0
41
1
10
75.9412688529434
20
109.020509556694
30
0
41
1
10
75.9389413675531
20
109.073588412569
30
0
41
1
10
75.9361524849049
20
109.13726531883
30
0
41
1
10
75.934058034031
20
109.185030531827
30
0
41
1
10
75.9326707020915
20
109.216847298232
30
0
41
1
10
75.9317417794931
20
109.238018944228
30
0
41
1
10
75.9300451154868
20
109.275014031364
30
0
41
1
10
75.926153938878
20
109.351677143572
30
0
41
1
10
75.9192881255691
20
109.466805286952
30
0
41
1
10
75.9089984053261
20
109.612358060159
30
0
41
1
10
75.8968443238523
20
109.762806704103
30
0
41
1
10
75.8853208667682
20
109.890240078405
30
0
41
1
10
75.877254902466
20
109.973109924975
30
0
41
1
10
75.8734416003797
20
110.011196155212
30
0
41
1
10
75.8708495583967
20
110.036772751025
30
0
41
1
10
75.8636736071759
20
110.107657237317
30
0
41
1
10
75.8519544394443
20
110.223384005301
30
0
41
1
10
75.8363208286406
20
110.377777017262
30
0
41
1
10
75.8232927573373
20
110.506432652112
30
0
41
1
10
75.8141732858304
20
110.596506511616
30
0
41
1
10
75.8096132724335
20
110.641520229729
30
0
41
1
10
75.8070080020811
20
110.667280108235
30
0
41
1
10
75.8031097424988
20
110.705799058034
30
0
41
1
10
75.7971105811652
20
110.763610164366
30
0
41
1
10
75.7859453709292
20
110.866609665973
30
0
41
1
10
75.7741192435159
20
110.96921120683
30
0
41
1
10
75.7633091429894
20
111.05754836333
30
0
41
1
10
75.7570237632698
20
111.107487993742
30
0
41
1
10
75.7474670052021
20
111.18174239108
30
0
41
1
10
75.73946687868
20
111.24384751226
30
0
41
1
10
75.733077625902
20
111.293463672185
30
0
0
SPLINE
5
342
100
AcDbEntity
8
1
62
256
6
ByLayer
370
18
48
1
60
0
100
AcDbSpline
70
4
71
3
72
20
73
16
40
0
40
0
40
0
40
0
40
0.332431012821216
40
0.664862025642432
40
0.831077532053039
40
0.914185285258343
40
0.955739161860995
40
0.976516100162321
40
0.986255289991068
40
0.995690130137666
40
0.995994479819814
40
0.996643759141731
40
0.997293038463647
40
0.999890155751313
40
1
40
1
40
1
40
1
41
1
10
77.0271678577775
20
98.9810175694724
30
0
41
1
10
77.5225445738301
20
99.0330837603816
30
0
41
1
10
78.5132980059353
20
99.1372161421998
30
0
41
1
10
79.7517403883868
20
99.2673761809023
30
0
41
1
10
80.6186481606791
20
99.3585056114192
30
0
41
1
10
81.0521050084247
20
99.4040431338257
30
0
41
1
10
81.2688288233084
20
99.426854213905
30
0
41
1
10
81.3762297146328
20
99.4380982285965
30
0
41
1
10
81.4357634201174
20
99.4443534927924
30
0
41
1
10
81.4647884963957
20
99.4474126100323
30
0
41
1
10
81.4802681956031
20
99.4490473157673
30
0
41
1
10
81.4826566596242
20
99.4492995940635
30
0
41
1
10
81.4884606907926
20
99.4499202778899
30
0
41
1
10
81.4934574404123
20
99.4504872014949
30
0
41
1
10
81.4974855415102
20
99.4509622866888
30
0
41
1
10
81.4976489923829
20
99.4509815928488
30
0
0
SPLINE
5
343
100
AcDbEntity
8
1
62
256
6
ByLayer
370
18
48
1
60
0
100
AcDbSpline
70
4
71
3
72
21
73
17
40
0
40
0
40
0
40
0
40
0.0001096836879337
40
0.0027068013926404
40
0.0033560808188174
40
0.0040053602449937
40
0.0088749559413183
40
0.0137445516376437
40
0.0234837430302937
40
0.0338722138491205
40
0.0442606846679471
40
0.0858145679432537
40
0.168922334493867
40
0.335137867595094
40
0.667568933797547
40
1
40
1
40
1
40
1
41
1
10
80.2035783177931
20
111.763234715534
30
0
41
1
10
80.2034146643365
20
111.763219638452
30
0
41
1
10
80.1993760508368
20
111.762846873639
30
0
41
1
10
80.1943708616228
20
111.762362549114
30
0
41
1
10
80.188564615037
20
111.761762943576
30
0
41
1
10
80.1793725710437
20
111.760801594822
30
0
41
1
10
80.1638914200165
20
111.759180668272
30
0
41
1
10
80.1348648119114
20
111.756136063727
30
0
41
1
10
80.0976149297959
20
111.752219704225
30
0
41
1
10
80.0521421865639
20
111.747427446589
30
0
41
1
10
79.9592620180505
20
111.73763575908
30
0
41
1
10
79.7580122032557
20
111.71651371979
30
0
41
1
10
79.3245596443326
20
111.670935391964
30
0
41
1
10
78.4576490128253
20
111.57983316506
30
0
41
1
10
77.2192077740598
20
111.449662244913
30
0
41
1
10
76.2284543419546
20
111.345529863094
30
0
41
1
10
75.733077625902
20
111.293463672185
30
0
0
SPLINE
5
344
100
AcDbEntity
8
1
62
256
6
ByLayer
370
18
48
1
60
0
100
AcDbSpline
70
4
71
1
72
4
73
2
40
0
40
0
40
1
40
1
41
1
10
80.2035780759091
20
111.763237338249
30
0
41
1
10
81.0494785590791
20
111.838979563345
30
0
0
SPLINE
5
345
100
AcDbEntity
8
1
62
256
6
ByLayer
370
18
48
1
60
0
100
AcDbSpline
70
4
71
3
72
45
73
41
40
0
40
0
40
0
40
0
40
0.0011565097570555
40
0.0196321945810298
40
0.028870036993017
40
0.0381078794050041
40
0.0565835642289784
40
0.130486303524876
40
0.204389042820773
40
0.27829178211667
40
0.310624230558625
40
0.340935900972958
40
0.34295667900058
40
0.347575600206574
40
0.352194521412568
40
0.370670206236542
40
0.379908048648529
40
0.389145891060516
40
0.40762157588449
40
0.426097260708465
40
0.463048630356414
40
0.500000000004362
40
0.536951369652311
40
0.555427054476284
40
0.573902739300259
40
0.592378424124235
40
0.610854108948208
40
0.629329793772182
40
0.647805478596157
40
0.652424399802149
40
0.657043321008144
40
0.6893757694501
40
0.721708217892054
40
0.795610957187951
40
0.869513696483848
40
0.943416435779746
40
0.96189212060372
40
0.980367805427694
40
0.99884349025167
40
1
40
1
40
1
40
1
41
1
10
81.939084538604
20
111.115774732574
30
0
41
1
10
81.9390269687689
20
111.116235681727
30
0
41
1
10
81.9380472480882
20
111.124054661273
30
0
41
1
10
81.9365394577831
20
111.135409297363
30
0
41
1
10
81.934318478338
20
111.149725230185
30
0
41
1
10
81.9319035049425
20
111.163959732851
30
0
41
1
10
81.9244624767438
20
111.203029856643
30
0
41
1
10
81.9077184865124
20
111.267892410782
30
0
41
1
10
81.8751054415453
20
111.354079854765
30
0
41
1
10
81.8398533662576
20
111.422513664011
30
0
41
1
10
81.8085194654459
20
111.472644623399
30
0
41
1
10
81.7924117342336
20
111.495791771011
30
0
41
1
10
81.7828383981172
20
111.508814121839
30
0
41
1
10
81.7798984612631
20
111.512768944933
30
0
41
1
10
81.772582888617
20
111.522458666479
30
0
41
1
10
81.7638187109703
20
111.53362861406
30
0
41
1
10
81.7534979801522
20
111.546196251289
30
0
41
1
10
81.7429775640062
20
111.558627461106
30
0
41
1
10
81.7294588835853
20
111.573902392027
30
0
41
1
10
81.7070702520107
20
111.597743580133
30
0
41
1
10
81.6777118176159
20
111.626356260547
30
0
41
1
10
81.6404454581021
20
111.658577422593
30
0
41
1
10
81.6078266213432
20
111.683490039841
30
0
41
1
10
81.5809133261736
20
111.702200604062
30
0
41
1
10
81.5603492160495
20
111.715609632714
30
0
41
1
10
81.5394359413125
20
111.728380637126
30
0
41
1
10
81.5182034760966
20
111.740499487572
30
0
41
1
10
81.496681794536
20
111.751952054327
30
0
41
1
10
81.4803461017076
20
111.760031169331
30
0
41
1
10
81.469383993548
20
111.765200201268
30
0
41
1
10
81.4528993074637
20
111.772823568143
30
0
41
1
10
81.4251577644834
20
111.784661611462
30
0
41
1
10
81.3689790537222
20
111.805308691772
30
0
41
1
10
81.2949717377263
20
111.82569678384
30
0
41
1
10
81.2042149965122
20
111.839802219441
30
0
41
1
10
81.1375353800842
20
111.842758488662
30
0
41
1
10
81.0943192826035
20
111.84186792686
30
0
41
1
10
81.0727792042364
20
111.840840121485
30
0
41
1
10
81.057762065917
20
111.839678303883
30
0
41
1
10
81.0499400077932
20
111.839014688462
30
0
41
1
10
81.0494789160836
20
111.838975382742
30
0
0
SPLINE
5
346
100
AcDbEntity
8
1
62
256
6
ByLayer
370
18
48
1
60
0
100
AcDbSpline
70
4
71
1
72
4
73
2
40
0
40
0
40
1
40
1
41
1
10
81.9390886861662
20
111.11577525122
30
0
41
1
10
82.0411636356511
20
110.269381565896
30
0
0
SPLINE
5
347
100
AcDbEntity
8
1
62
256
6
ByLayer
370
18
48
1
60
0
100
AcDbSpline
70
4
71
3
72
21
73
17
40
0
40
0
40
0
40
0
40
0.0001096836879287
40
0.0027068013926354
40
0.0033560808188124
40
0.0040053602449887
40
0.0088749559413133
40
0.0137445516376388
40
0.0234837430302888
40
0.0338722138491157
40
0.0442606846679423
40
0.0858145679432491
40
0.168922334493863
40
0.33513786759509
40
0.667568933797545
40
1
40
1
40
1
40
1
41
1
10
72.5566671658863
20
98.5112465261235
30
0
41
1
10
72.556830819343
20
98.5112616032054
30
0
41
1
10
72.5608694328427
20
98.5116343680187
30
0
41
1
10
72.5658746220566
20
98.5121186925431
30
0
41
1
10
72.5716808686425
20
98.5127182980814
30
0
41
1
10
72.5808729126356
20
98.5136796468358
30
0
41
1
10
72.5963540636629
20
98.5153005733854
30
0
41
1
10
72.6253806717681
20
98.518345177931
30
0
41
1
10
72.6626305538834
20
98.5222615374321
30
0
41
1
10
72.7081032971156
20
98.5270537950682
30
0
41
1
10
72.8009834656289
20
98.5368454825772
30
0
41
1
10
73.0022332804236
20
98.5579675218673
30
0
41
1
10
73.4356858393469
20
98.6035458496934
30
0
41
1
10
74.3025964708542
20
98.6946480765973
30
0
41
1
10
75.5410377096197
20
98.8248189967451
30
0
41
1
10
76.5317911417249
20
98.9289513785633
30
0
41
1
10
77.0271678577775
20
98.9810175694724
30
0
0
SPLINE
5
348
100
AcDbEntity
8
1
62
256
6
ByLayer
370
18
48
1
60
0
100
AcDbSpline
70
4
71
3
72
20
73
16
40
0
40
0
40
0
40
0
40
0.332431012821216
40
0.664862025642432
40
0.83107753205304
40
0.914185285258344
40
0.955739161860996
40
0.976516100162322
40
0.986255289991069
40
0.995690130137667
40
0.995994479819815
40
0.996643759141732
40
0.997293038463648
40
0.999890155751314
40
1
40
1
40
1
40
1
41
1
10
75.733077625902
20
111.293463672185
30
0
41
1
10
75.2377009098493
20
111.241397481276
30
0
41
1
10
74.2469474777441
20
111.137265099458
30
0
41
1
10
73.0085050952927
20
111.007105060755
30
0
41
1
10
72.1415973230004
20
110.915975630238
30
0
41
1
10
71.7081404752547
20
110.870438107832
30
0
41
1
10
71.4914166603711
20
110.847627027752
30
0
41
1
10
71.3840157690466
20
110.836383013061
30
0
41
1
10
71.324482063562
20
110.830127748865
30
0
41
1
10
71.2954569872837
20
110.827068631625
30
0
41
1
10
71.2799772880762
20
110.82543392589
30
0
41
1
10
71.2775888240552
20
110.825181647594
30
0
41
1
10
71.2717847928868
20
110.824560963768
30
0
41
1
10
71.2667880432671
20
110.823994040163
30
0
41
1
10
71.2627599421693
20
110.823518954969
30
0
41
1
10
71.2625964912966
20
110.823499648809
30
0
0
SPLINE
5
349
100
AcDbEntity
8
1
62
256
6
ByLayer
370
18
48
1
60
0
100
AcDbSpline
70
4
71
1
72
4
73
2
40
0
40
0
40
1
40
1
41
1
10
72.5566674077702
20
98.5112439034087
30
0
41
1
10
71.7107669246003
20
98.4355016783122
30
0
0
SPLINE
5
34A
100
AcDbEntity
8
1
62
256
6
ByLayer
370
18
48
1
60
0
100
AcDbSpline
70
4
71
3
72
45
73
41
40
0
40
0
40
0
40
0
40
0.001156509757043
40
0.0196321945810185
40
0.0288700369930063
40
0.038107879404994
40
0.0565835642289696
40
0.130486303524872
40
0.204389042820774
40
0.278291782116676
40
0.310624230558633
40
0.340935900972968
40
0.342956679000591
40
0.347575600206584
40
0.352194521412578
40
0.370670206236554
40
0.379908048648542
40
0.389145891060529
40
0.407621575884505
40
0.42609726070848
40
0.463048630356432
40
0.500000000004383
40
0.536951369652334
40
0.555427054476309
40
0.573902739300285
40
0.59237842412426
40
0.610854108948236
40
0.629329793772211
40
0.647805478596187
40
0.652424399802181
40
0.657043321008175
40
0.689375769450132
40
0.721708217892089
40
0.795610957187991
40
0.869513696483894
40
0.943416435779796
40
0.961892120603771
40
0.980367805427747
40
0.998843490251723
40
1
40
1
40
1
40
1
41
1
10
70.8211609450753
20
99.1587065090836
30
0
41
1
10
70.8212185149105
20
99.1582455599304
30
0
41
1
10
70.8221982355913
20
99.1504265803843
30
0
41
1
10
70.8237060258964
20
99.139071944295
30
0
41
1
10
70.8259270053413
20
99.1247560114726
30
0
41
1
10
70.8283419787369
20
99.1105215088071
30
0
41
1
10
70.8357830069357
20
99.0714513850149
30
0
41
1
10
70.852526997167
20
99.0065888308753
30
0
41
1
10
70.8851400421341
20
98.9204013868924
30
0
41
1
10
70.9203921174218
20
98.8519675776461
30
0
41
1
10
70.9517260182336
20
98.8018366182581
30
0
41
1
10
70.9678337494458
20
98.778689470647
30
0
41
1
10
70.9774070855623
20
98.7656671198184
30
0
41
1
10
70.9803470224164
20
98.7617122967247
30
0
41
1
10
70.9876625950625
20
98.7520225751788
30
0
41
1
10
70.9964267727091
20
98.7408526275974
30
0
41
1
10
71.0067475035272
20
98.7282849903689
30
0
41
1
10
71.0172679196733
20
98.715853780551
30
0
41
1
10
71.0307866000941
20
98.7005788496303
30
0
41
1
10
71.0531752316688
20
98.6767376615242
30
0
41
1
10
71.0825336660636
20
98.6481249811106
30
0
41
1
10
71.1198000255772
20
98.6159038190641
30
0
41
1
10
71.1524188623363
20
98.5909912018162
30
0
41
1
10
71.1793321575058
20
98.572280637595
30
0
41
1
10
71.1998962676299
20
98.5588716089434
30
0
41
1
10
71.220809542367
20
98.5461006045317
30
0
41
1
10
71.2420420075829
20
98.5339817540855
30
0
41
1
10
71.2635636891434
20
98.5225291873305
30
0
41
1
10
71.2798993819719
20
98.5144500723269
30
0
41
1
10
71.2908614901313
20
98.50928104039
30
0
41
1
10
71.3073461762158
20
98.5016576735145
30
0
41
1
10
71.3350877191961
20
98.489819630195
30
0
41
1
10
71.3912664299572
20
98.4691725498855
30
0
41
1
10
71.4652737459531
20
98.4487844578172
30
0
41
1
10
71.5560304871673
20
98.4346790222165
30
0
41
1
10
71.6227101035953
20
98.4317227529953
30
0
41
1
10
71.665926201076
20
98.4326133147977
30
0
41
1
10
71.687466279443
20
98.4336411201729
30
0
41
1
10
71.7024834177624
20
98.4348029377744
30
0
41
1
10
71.7103054758862
20
98.4354665531954
30
0
41
1
10
71.7107665675958
20
98.4355058589151
30
0
0
SPLINE
5
34B
100
AcDbEntity
8
1
62
256
6
ByLayer
370
18
48
1
60
0
100
AcDbSpline
70
4
71
1
72
4
73
2
40
0
40
0
40
1
40
1
41
1
10
70.8211567975131
20
99.1587059904373
30
0
41
1
10
70.7190818480283
20
100.005099675762
30
0
0
SPLINE
5
34C
100
AcDbEntity
8
1
62
256
6
ByLayer
370
18
48
1
60
0
100
AcDbSpline
70
4
71
3
72
41
73
37
40
0
40
0
40
0
40
0
40
0.0625
40
0.078125
40
0.09375
40
0.125
40
0.1875
40
0.21875
40
0.25
40
0.2578125
40
0.265625
40
0.28125
40
0.3125
40
0.375
40
0.4375
40
0.5
40
0.515625
40
0.5234375
40
0.53125
40
0.5625
40
0.625
40
0.6875
40
0.75
40
0.8125
40
0.84375
40
0.859375
40
0.8671875
40
0.875
40
0.90625
40
0.9375
40
0.96875
40
0.984375
40
0.986328125
40
0.98828125
40
0.9921875
40
1
40
1
40
1
40
1
41
1
10
70.2473259778084
20
104.492657706905
30
0
41
1
10
70.2980365054796
20
104.497987598136
30
0
41
1
10
70.3615143275114
20
104.504659386077
30
0
41
1
10
70.4374007941325
20
104.512635375118
30
0
41
1
10
70.4882829186441
20
104.517983301904
30
0
41
1
10
70.5779507292925
20
104.52740776857
30
0
41
1
10
70.6813006610241
20
104.538270284109
30
0
41
1
10
70.7842791965272
20
104.549093764332
30
0
41
1
10
70.8417861476839
20
104.555137988456
30
0
41
1
10
70.8799943582484
20
104.559153833208
30
0
41
1
10
70.9055445432763
20
104.561839265866
30
0
41
1
10
70.9502000001305
20
104.56653274351
30
0
41
1
10
71.0395512224646
20
104.575923935403
30
0
41
1
10
71.1671773249955
20
104.58933797931
30
0
41
1
10
71.320334074935
20
104.605435402388
30
0
41
1
10
71.4351351133308
20
104.617501477736
30
0
41
1
10
71.5054501439374
20
104.624891885256
30
0
41
1
10
71.530824338222
20
104.627558820541
30
0
41
1
10
71.5685583421164
20
104.631524824164
30
0
41
1
10
71.6504091793173
20
104.640127693814
30
0
41
1
10
71.7753140445969
20
104.65325572416
30
0
41
1
10
71.9211925568314
20
104.66858817363
30
0
41
1
10
72.0607190080935
20
104.68325299459
30
0
41
1
10
72.1696895058029
20
104.694706255418
30
0
41
1
10
72.2415084961799
20
104.702254735479
30
0
41
1
10
72.2759681056215
20
104.705876586377
30
0
41
1
10
72.2956427978603
20
104.707944479859
30
0
41
1
10
72.3252004856665
20
104.711051118032
30
0
41
1
10
72.3695870265805
20
104.715716331471
30
0
41
1
10
72.4287561654788
20
104.721935258566
30
0
41
1
10
72.4780805294733
20
104.727119458124
30
0
41
1
10
72.5088669763503
20
104.730355244079
30
0
41
1
10
72.5212180653255
20
104.731653395841
30
0
41
1
10
72.5260701008444
20
104.732163365323
30
0
41
1
10
72.535535477758
20
104.733158216525
30
0
41
1
10
72.5451434745368
20
104.734168057679
30
0
41
1
10
72.5514563510994
20
104.734831567743
30
0
0
SPLINE
5
34D
100
AcDbEntity
8
1
62
256
6
ByLayer
370
18
48
1
60
0
100
AcDbSpline
70
4
71
3
72
20
73
16
40
0
40
0
40
0
40
0
40
0.332431012821213
40
0.664862025642425
40
0.831077532053031
40
0.914185285258334
40
0.955739161860986
40
0.976516100162312
40
0.986255289991058
40
0.995690130137656
40
0.995994479819805
40
0.996643759141721
40
0.997293038463637
40
0.999890155751303
40
1
40
1
40
1
40
1
41
1
10
70.2473259778084
20
104.492657706905
30
0
41
1
10
70.2995910531083
20
103.995388732275
30
0
41
1
10
70.4041212037081
20
103.000850783013
30
0
41
1
10
70.5347784740992
20
101.757677756215
30
0
41
1
10
70.6262559005206
20
100.887458526166
30
0
41
1
10
70.6719675244383
20
100.452345960031
30
0
41
1
10
70.6948654941093
20
100.23479426963
30
0
41
1
10
70.706152793016
20
100.126983159443
30
0
41
1
10
70.7124319662407
20
100.067222046445
30
0
41
1
10
70.7155027050168
20
100.038086092386
30
0
41
1
10
70.7171435968106
20
100.022547257119
30
0
41
1
10
70.7173968294125
20
100.02014966857
30
0
41
1
10
70.7180198037878
20
100.0143234585
30
0
41
1
10
70.7185885781224
20
100.009307589018
30
0
41
1
10
70.7190650880412
20
100.005264060236
30
0
41
1
10
70.7190844519079
20
100.005099983321
30
0
0
SPLINE
5
34E
100
AcDbEntity
8
1
62
256
6
ByLayer
370
18
48
1
60
0
100
AcDbSpline
70
4
71
3
72
21
73
17
40
0
40
0
40
0
40
0
40
0.0001096836879345
40
0.0027068013926411
40
0.0033560808188181
40
0.0040053602449945
40
0.008874955941319
40
0.0137445516376445
40
0.0234837430302945
40
0.0338722138491213
40
0.0442606846679478
40
0.0858145679432544
40
0.168922334493868
40
0.335137867595094
40
0.667568933797547
40
1
40
1
40
1
40
1
41
1
10
69.7757597499643
20
108.980234907881
30
0
41
1
10
69.775774900654
20
108.980070630978
30
0
41
1
10
69.7761494793604
20
108.97601663162
30
0
41
1
10
69.7766359687372
20
108.970992356485
30
0
41
1
10
69.7772379450336
20
108.965163939427
30
0
41
1
10
69.7782030019888
20
108.955936787103
30
0
41
1
10
69.779830167034
20
108.940396505514
30
0
41
1
10
69.7828864483461
20
108.911259025408
30
0
41
1
10
69.7868177583589
20
108.873866853813
30
0
41
1
10
69.7916282245041
20
108.828220401879
30
0
41
1
10
69.8014570915178
20
108.734985422757
30
0
41
1
10
69.8226600410928
20
108.532966890278
30
0
41
1
10
69.8684123151533
20
108.097858596646
30
0
41
1
10
69.9598626414794
20
107.227636518262
30
0
41
1
10
70.0905307519087
20
105.984464630797
30
0
41
1
10
70.1950609025085
20
104.989926681536
30
0
41
1
10
70.2473259778084
20
104.492657706905
30
0
0
SPLINE
5
34F
100
AcDbEntity
8
1
62
256
6
ByLayer
370
18
48
1
60
0
100
AcDbSpline
70
4
71
1
72
4
73
2
40
0
40
0
40
1
40
1
41
1
10
69.775757137203
20
108.980234667172
30
0
41
1
10
69.6996262972185
20
109.829355916767
30
0
0
SPLINE
5
350
100
AcDbEntity
8
1
62
256
6
ByLayer
370
18
48
1
60
0
100
AcDbSpline
70
4
71
3
72
45
73
41
40
0
40
0
40
0
40
0
40
0.0011565097570408
40
0.0196321945810157
40
0.0288700369930031
40
0.0381078794049905
40
0.0565835642289653
40
0.130486303524865
40
0.204389042820764
40
0.278291782116663
40
0.310624230558619
40
0.340935900972953
40
0.342956679000575
40
0.347575600206569
40
0.352194521412563
40
0.370670206236538
40
0.379908048648525
40
0.389145891060513
40
0.407621575884487
40
0.426097260708462
40
0.463048630356412
40
0.500000000004362
40
0.536951369652311
40
0.555427054476286
40
0.573902739300261
40
0.592378424124236
40
0.610854108948211
40
0.629329793772185
40
0.64780547859616
40
0.652424399802154
40
0.657043321008148
40
0.689375769450104
40
0.72170821789206
40
0.795610957187959
40
0.869513696483858
40
0.943416435779758
40
0.961892120603733
40
0.980367805427707
40
0.998843490251683
40
1
40
1
40
1
40
1
41
1
10
70.4194341972801
20
110.721712661733
30
0
41
1
10
70.4189750094087
20
110.721655242171
30
0
41
1
10
70.4111859086144
20
110.720678058672
30
0
41
1
10
70.3998747295375
20
110.719173635041
30
0
41
1
10
70.3856138409679
20
110.716955704776
30
0
41
1
10
70.371434233248
20
110.714542991149
30
0
41
1
10
70.3325154263301
20
110.707105129393
30
0
41
1
10
70.2679075624357
20
110.690349989952
30
0
41
1
10
70.182066758732
20
110.657683404443
30
0
41
1
10
70.1139156028484
20
110.622353854901
30
0
41
1
10
70.0639960679833
20
110.590942611925
30
0
41
1
10
70.0409478420216
20
110.574793042023
30
0
41
1
10
70.0279815487993
20
110.565194257437
30
0
41
1
10
70.0240437759328
20
110.56224647034
30
0
41
1
10
70.0143959183075
20
110.55491124371
30
0
41
1
10
70.0032744923075
20
110.546123172675
30
0
41
1
10
69.9907618126898
20
110.535773840288
30
0
41
1
10
69.9783852109875
20
110.525223968302
30
0
41
1
10
69.9631778491363
20
110.511666883109
30
0
41
1
10
69.9394431446204
20
110.489213494262
30
0
41
1
10
69.910960232043
20
110.459768042017
30
0
41
1
10
69.8788885369951
20
110.422387976867
30
0
41
1
10
69.8540945004407
20
110.389667006729
30
0
41
1
10
69.8354749102892
20
110.362667980842
30
0
41
1
10
69.8221320905968
20
110.342037661471
30
0
41
1
10
69.8094251972007
20
110.321056367078
30
0
41
1
10
69.797368283476
20
110.299754172596
30
0
41
1
10
69.7859754027979
20
110.278161152957
30
0
41
1
10
69.7779393071057
20
110.26177082556
30
0
41
1
10
69.7727982036641
20
110.2507718546
30
0
41
1
10
69.7652162779145
20
110.234231615968
30
0
41
1
10
69.7534442857574
20
110.206395799808
30
0
41
1
10
69.7329185852531
20
110.150023542442
30
0
41
1
10
69.712665041379
20
110.075755857541
30
0
41
1
10
69.6986840468975
20
109.984671182674
30
0
41
1
10
69.695791636328
20
109.917744759645
30
0
41
1
10
69.6967131399118
20
109.874366478261
30
0
41
1
10
69.69775419415
20
109.852745100161
30
0
41
1
10
69.6989235912325
20
109.837670929001
30
0
41
1
10
69.6995909370569
20
109.829819117538
30
0
41
1
10
69.6996304619782
20
109.829356271791
30
0
0
SPLINE
5
351
100
AcDbEntity
8
1
62
256
6
ByLayer
370
18
48
1
60
0
100
AcDbSpline
70
4
71
3
72
20
73
16
40
0
40
0
40
0
40
0
40
0.332431012821214
40
0.664862025642427
40
0.831077532053034
40
0.914185285258337
40
0.955739161860989
40
0.976516100162315
40
0.986255289991061
40
0.995690130137659
40
0.995994479819808
40
0.996643759141724
40
0.99729303846364
40
0.999890155751306
40
1
40
1
40
1
40
1
41
1
10
82.5129195058711
20
105.781823534752
30
0
41
1
10
82.4606544305711
20
106.279092509383
30
0
41
1
10
82.3561242799714
20
107.273630458644
30
0
41
1
10
82.2254670095801
20
108.516803485443
30
0
41
1
10
82.1339895831588
20
109.387022715491
30
0
41
1
10
82.0882779592412
20
109.822135281626
30
0
41
1
10
82.06537998957
20
110.039686972028
30
0
41
1
10
82.0540926906634
20
110.147498082214
30
0
41
1
10
82.0478135174386
20
110.207259195213
30
0
41
1
10
82.0447427786627
20
110.236395149272
30
0
41
1
10
82.0431018868688
20
110.251933984538
30
0
41
1
10
82.042848654267
20
110.254331573087
30
0
41
1
10
82.0422256798917
20
110.260157783158
30
0
41
1
10
82.0416569055569
20
110.265173652639
30
0
41
1
10
82.0411803956382
20
110.269217181422
30
0
41
1
10
82.0411610317715
20
110.269381258336
30
0
0
SPLINE
5
352
100
AcDbEntity
8
1
62
256
6
ByLayer
370
18
48
1
60
0
100
AcDbSpline
70
4
71
1
72
4
73
2
40
0
40
0
40
1
40
1
41
1
10
70.4194336772766
20
110.721716825204
30
0
41
1
10
71.2625961828173
20
110.823502262662
30
0
0
SPLINE
5
353
100
AcDbEntity
8
1
62
256
6
ByLayer
370
18
48
1
60
0
100
AcDbSpline
70
4
71
3
72
8
73
4
40
0
40
0
40
0
40
0
40
1
40
1
40
1
40
1
41
1
10
13.9098039099195
20
-84.0745572239617
30
0
41
1
10
13.9053762148463
20
-83.9568594713313
30
0
41
1
10
13.9013121593661
20
-83.8534253339026
30
0
41
1
10
13.8976459381454
20
-83.7649500301048
30
0
0
SPLINE
5
354
100
AcDbEntity
8
1
62
256
6
ByLayer
370
18
48
1
60
0
100
AcDbSpline
70
4
71
3
72
10
73
6
40
0
40
0
40
0
40
0
40
0.464334219292778
40
0.464334219292778
40
1
40
1
40
1
40
1
41
1
10
15.9538602415031
20
-84.3581718624058
30
0
41
1
10
16.2545230792047
20
-84.2001516628039
30
0
41
1
10
16.5681657689521
20
-84.0706900359685
30
0
41
1
10
17.2459718488323
20
-83.917427847426
30
0
41
1
10
17.6139236836448
20
-83.9141650600629
30
0
41
1
10
17.9655254866603
20
-83.9565745307319
30
0
0
SPLINE
5
355
100
AcDbEntity
8
1
62
256
6
ByLayer
370
18
48
1
60
0
100
AcDbSpline
70
4
71
2
72
7
73
4
40
0
40
0
40
0
40
0.5
40
1
40
1
40
1
41
1
10
80.6083684210276
20
-110.322338378042
30
0
41
1
10
80.8363057800126
20
-110.352218979095
30
0
41
1
10
81.2226841316616
20
-110.040824751534
30
0
41
1
10
81.2411915914598
20
-109.80788779825
30
0
0
SPLINE
5
356
100
AcDbEntity
8
1
62
256
6
ByLayer
370
18
48
1
60
0
100
AcDbSpline
70
4
71
2
72
6
73
3
40
0
40
0
40
0
40
1
40
1
40
1
41
1
10
72.0399217264763
20
-109.267731172349
30
0
41
1
10
72.1903525162295
20
-109.44327562419
30
0
41
1
10
72.411124098459
20
-109.460773282233
30
0
0
SPLINE
5
357
100
AcDbEntity
8
1
62
256
6
ByLayer
370
18
48
1
60
0
100
AcDbSpline
70
4
71
2
72
6
73
3
40
0
40
0
40
0
40
1
40
1
40
1
41
1
10
82.1060477259683
20
-101.579331334066
30
0
41
1
10
82.1345442227356
20
-101.361623590205
30
0
41
1
10
81.9950746695471
20
-101.174917282835
30
0
0
SPLINE
5
358
100
AcDbEntity
8
1
62
256
6
ByLayer
370
18
48
1
60
0
100
AcDbSpline
70
4
71
1
72
4
73
2
40
0
40
0
40
1
40
1
41
1
10
72.411124098459
20
-109.460773282233
30
0
41
1
10
72.3692162886392
20
-109.676751232342
30
0
0
SPLINE
5
359
100
AcDbEntity
8
1
62
256
6
ByLayer
370
18
48
1
60
0
100
AcDbSpline
70
4
71
3
72
60
73
56
40
0
40
0
40
0
40
0
40
0.0174158792989735
40
0.0348153030682362
40
0.0521983030872312
40
0.0695649112256775
40
0.0869151594434383
40
0.104249079791053
40
0.121566704409558
40
0.138868065530991
40
0.156153195478205
40
0.173422126665246
40
0.190674891597553
40
0.207911522871959
40
0.225132053176851
40
0.242336515292561
40
0.25952494209114
40
0.276697366536986
40
0.293853821686538
40
0.310994340688721
40
0.328118956784938
40
0.345227703309336
40
0.362320613689004
40
0.37939772144383
40
0.396459060186992
40
0.41350466362498
40
0.430534565557562
40
0.44754879987824
40
0.464547400574189
40
0.481530401726395
40
0.498497837509944
40
0.51544974219394
40
0.532386150141922
40
0.549307095811727
40
0.566212613755793
40
0.583102738621168
40
0.599977505149893
40
0.616836948178752
40
0.63368110263974
40
0.650510003560039
40
0.667323686062129
40
0.684122185363935
40
0.700905536779093
40
0.71767377571674
40
0.734426937682036
40
0.751165058275969
40
0.767888173195639
40
0.784596318234324
40
0.818026408837795
40
0.85151651586872
40
0.885066924507452
40
0.918677918399206
40
0.952349779657912
40
0.986082788870178
40
1
40
1
40
1
40
1
41
1
10
72.3692162886392
20
-109.676751232342
30
0
41
1
10
72.364642727919
20
-109.676238216513
30
0
41
1
10
72.355499927843
20
-109.675212669584
30
0
41
1
10
72.3418284526907
20
-109.673372207901
30
0
41
1
10
72.3282015459705
20
-109.67131284497
30
0
41
1
10
72.3146254592814
20
-109.669014061699
30
0
41
1
10
72.3011034888324
20
-109.666482991361
30
0
41
1
10
72.2876396809792
20
-109.663719451631
30
0
41
1
10
72.2742378394115
20
-109.660725299929
30
0
41
1
10
72.260901789503
20
-109.657501929148
30
0
41
1
10
72.247635306304
20
-109.65405093665
30
0
41
1
10
72.2344421325594
20
-109.650373944167
30
0
41
1
10
72.2213259726615
20
-109.646472644875
30
0
41
1
10
72.2082904930675
20
-109.642348789674
30
0
41
1
10
72.1953393210109
20
-109.638004189707
30
0
41
1
10
72.1824760436949
20
-109.633440714525
30
0
41
1
10
72.1697042073819
20
-109.6286602914
30
0
41
1
10
72.1570273165356
20
-109.623664904315
30
0
41
1
10
72.1444488329753
20
-109.618456593027
30
0
41
1
10
72.1319721750515
20
-109.613037452091
30
0
41
1
10
72.1196007168421
20
-109.607409629892
30
0
41
1
10
72.1073377873685
20
-109.601575327649
30
0
41
1
10
72.0951866698323
20
-109.595536798424
30
0
41
1
10
72.083150600873
20
-109.589296346111
30
0
41
1
10
72.0712327698456
20
-109.582856324427
30
0
41
1
10
72.0594363181191
20
-109.57621913588
30
0
41
1
10
72.0477643383956
20
-109.569387230744
30
0
41
1
10
72.0362198740513
20
-109.562363106016
30
0
41
1
10
72.0248059184956
20
-109.555149304371
30
0
41
1
10
72.0135254145545
20
-109.547748413109
30
0
41
1
10
72.0023812538711
20
-109.540163063092
30
0
41
1
10
71.9913762763316
20
-109.532395927683
30
0
41
1
10
71.9805132695063
20
-109.524449721672
30
0
41
1
10
71.9697949681175
20
-109.516327200199
30
0
41
1
10
71.9592240535238
20
-109.508031157675
30
0
41
1
10
71.9488031532269
20
-109.499564426697
30
0
41
1
10
71.9385348403999
20
-109.490929876954
30
0
41
1
10
71.9284216334355
20
-109.482130414141
30
0
41
1
10
71.9184659955141
20
-109.473168978856
30
0
41
1
10
71.9086703341976
20
-109.464048545511
30
0
41
1
10
71.8990370010234
20
-109.454772121204
30
0
41
1
10
71.8895682912007
20
-109.44534274471
30
0
41
1
10
71.8802664430174
20
-109.43576348504
30
0
41
1
10
71.8711336384223
20
-109.426037441564
30
0
41
1
10
71.8621719993283
20
-109.416167738348
30
0
41
1
10
71.8533835999586
20
-109.406157540015
30
0
41
1
10
71.8447704194911
20
-109.396009987409
30
0
41
1
10
71.8335177159446
20
-109.382295355449
30
0
41
1
10
71.8198723435931
20
-109.364789259469
30
0
41
1
10
71.8041871411671
20
-109.343218440257
30
0
41
1
10
71.7892016296393
20
-109.321091512064
30
0
41
1
10
71.7749365974609
20
-109.298430688451
30
0
41
1
10
71.7614120350412
20
-109.275258803331
30
0
41
1
10
71.7511545102954
20
-109.256246608102
30
0
41
1
10
71.7454100644198
20
-109.244967270146
30
0
41
1
10
71.7437551230562
20
-109.241661354117
30
0
0
SPLINE
5
35A
100
AcDbEntity
8
1
62
256
6
ByLayer
370
18
48
1
60
0
100
AcDbSpline
70
4
71
1
72
4
73
2
40
0
40
0
40
1
40
1
41
1
10
80.6083684210276
20
-110.322338378042
30
0
41
1
10
80.5664606112077
20
-110.538316328151
30
0
0
SPLINE
5
35B
100
AcDbEntity
8
1
62
256
6
ByLayer
370
18
48
1
60
0
100
AcDbSpline
70
4
71
3
72
9
73
5
40
0
40
0
40
0
40
0
40
0.461271176943412
40
1
40
1
40
1
40
1
41
1
10
82.0296359688048
20
-100.907768942237
30
0
41
1
10
82.1221131915624
20
-100.982329746012
30
0
41
1
10
82.2847586344036
20
-101.201362930342
30
0
41
1
10
82.2973902164822
20
-101.460534356736
30
0
41
1
10
82.3041952138287
20
-101.600157474247
30
0
0
SPLINE
5
35C
100
AcDbEntity
8
1
62
256
6
ByLayer
370
18
48
1
60
0
100
AcDbSpline
70
4
71
1
72
4
73
2
40
0
40
0
40
1
40
1
41
1
10
82.1060477259683
20
-101.579331334066
30
0
41
1
10
82.3041952138287
20
-101.600157474247
30
0
0
SPLINE
5
35D
100
AcDbEntity
8
1
62
256
6
ByLayer
370
18
48
1
60
0
100
AcDbSpline
70
4
71
1
72
4
73
2
40
0
40
0
40
1
40
1
41
1
10
81.2411915914598
20
-109.80788779825
30
0
41
1
10
81.4393390793202
20
-109.828713938431
30
0
0
SPLINE
5
35E
100
AcDbEntity
8
1
62
256
6
ByLayer
370
18
48
1
60
0
100
AcDbSpline
70
4
71
3
72
10
73
6
40
0
40
0
40
0
40
0
40
0.333439314801901
40
0.666560685198119
40
1
40
1
40
1
40
1
41
1
10
81.4393390793202
20
-109.828713938431
30
0
41
1
10
81.4036535090537
20
-109.963871117328
30
0
41
1
10
81.3323163957843
20
-110.234056598689
30
0
41
1
10
80.9844957818115
20
-110.516815708789
30
0
41
1
10
80.7058499720569
20
-110.531147176363
30
0
41
1
10
80.5664606112077
20
-110.538316328151
30
0
0
SPLINE
5
35F
100
AcDbEntity
8
1
62
256
6
ByLayer
370
18
48
1
60
0
100
AcDbSpline
70
4
71
3
72
10
73
6
40
0
40
0
40
0
40
0
40
0.295368028639103
40
0.295368028639103
40
1
40
1
40
1
40
1
41
1
10
70.7935917273252
20
-110.521580314545
30
0
41
1
10
70.781558130275
20
-110.526601643128
30
0
41
1
10
70.7695230475308
20
-110.53161130207
30
0
41
1
10
70.7287971130328
20
-110.548536784641
30
0
41
1
10
70.700120198493
20
-110.56040156831
30
0
41
1
10
70.6714642671878
20
-110.572206220643
30
0
0
SPLINE
5
360
100
AcDbEntity
8
1
62
256
6
ByLayer
370
18
48
1
60
0
100
AcDbSpline
70
4
71
3
72
8
73
4
40
0
40
0
40
0
40
0
40
1
40
1
40
1
40
1
41
1
10
70.6714642671913
20
-110.572206220637
30
0
41
1
10
70.6513576381218
20
-110.580489035223
30
0
41
1
10
70.6300264252898
20
-110.58849492187
30
0
41
1
10
70.6083773466045
20
-110.596361526943
30
0
0
SPLINE
5
361
100
AcDbEntity
8
1
62
256
6
ByLayer
370
18
48
1
60
0
100
AcDbSpline
70
4
71
3
72
12
73
8
40
0
40
0
40
0
40
0
40
0.249999999999985
40
0.249999999999985
40
0.49999999999997
40
0.49999999999997
40
1
40
1
40
1
40
1
41
1
10
70.6083773466075
20
-110.596361526944
30
0
41
1
10
70.5894163335722
20
-110.603251372165
30
0
41
1
10
70.5709367395501
20
-110.610198798204
30
0
41
1
10
70.5342964087931
20
-110.624100385696
30
0
41
1
10
70.516161232128
20
-110.631058903287
30
0
41
1
10
70.4620396395366
20
-110.651912960341
30
0
41
1
10
70.4263336478319
20
-110.665786442759
30
0
41
1
10
70.3907845021305
20
-110.679596555093
30
0
0
SPLINE
5
362
100
AcDbEntity
8
1
62
256
6
ByLayer
370
18
48
1
60
0
100
AcDbSpline
70
4
71
3
72
26
73
22
40
0
40
0
40
0
40
0
40
0.250000000000399
40
0.250000000000399
40
0.375000000000581
40
0.375000000000581
40
0.500000000000763
40
0.500000000000763
40
0.562500000000615
40
0.562500000000615
40
0.625000000000466
40
0.625000000000466
40
0.687500000000317
40
0.687500000000317
40
0.750000000000169
40
0.750000000000169
40
0.81250000000002
40
0.81250000000002
40
0.874999999999871
40
0.874999999999871
40
1
40
1
40
1
40
1
41
1
10
70.3907845022211
20
-110.679596555128
30
0
41
1
10
70.3870166232863
20
-110.681060298639
30
0
41
1
10
70.3829505056832
20
-110.682435701915
30
0
41
1
10
70.3757377987279
20
-110.684147471501
30
0
41
1
10
70.3731640192565
20
-110.684654042659
30
0
41
1
10
70.3673684359195
20
-110.685415213327
30
0
41
1
10
70.3641992299839
20
-110.685692481221
30
0
41
1
10
70.3581452615786
20
-110.685583577396
30
0
41
1
10
70.3559470157537
20
-110.685452308591
30
0
41
1
10
70.3511023217447
20
-110.684849481393
30
0
41
1
10
70.3484500202788
20
-110.684361387981
30
0
41
1
10
70.3433051157938
20
-110.68304497378
30
0
41
1
10
70.3408136368338
20
-110.682221522417
30
0
41
1
10
70.3363793579177
20
-110.680486523278
30
0
41
1
10
70.334415983791
20
-110.6795787247
30
0
41
1
10
70.3308596048115
20
-110.677759580074
30
0
41
1
10
70.3292440692893
20
-110.676834502831
30
0
41
1
10
70.3262929085091
20
-110.675010543688
30
0
41
1
10
70.3249458084181
20
-110.674105045414
30
0
41
1
10
70.3211597595476
20
-110.671398434857
30
0
41
1
10
70.3189711678764
20
-110.669606849483
30
0
41
1
10
70.3169714945547
20
-110.667818112163
30
0
0
SPLINE
5
363
100
AcDbEntity
8
1
62
256
6
ByLayer
370
18
48
1
60
0
100
AcDbSpline
70
4
71
3
72
22
73
18
40
0
40
0
40
0
40
0
40
0.104611531529259
40
0.104611531529259
40
0.208411675036507
40
0.208411675036507
40
0.402775886004107
40
0.402775886004107
40
0.500031490391601
40
0.500031490391601
40
0.699792640385746
40
0.699792640385746
40
0.846184360106971
40
0.846184360106971
40
0.95033556435093
40
0.95033556435093
40
1
40
1
40
1
40
1
41
1
10
69.8030860197044
20
-110.030743080878
30
0
41
1
10
69.8131816442343
20
-110.047439695689
30
0
41
1
10
69.8238685333425
20
-110.06901552752
30
0
41
1
10
69.8463130068189
20
-110.117889398054
30
0
41
1
10
69.8583651030283
20
-110.145406105878
30
0
41
1
10
69.8956709513494
20
-110.224891559894
30
0
41
1
10
69.9242864910169
20
-110.278640687122
30
0
41
1
10
69.9739614887991
20
-110.353530105601
30
0
41
1
10
69.9918175933183
20
-110.377957932587
30
0
41
1
10
70.0492439086609
20
-110.449150588215
30
0
41
1
10
70.0928679408286
20
-110.493273655184
30
0
41
1
10
70.1712084631332
20
-110.560092821674
30
0
41
1
10
70.2059503093683
20
-110.585910052388
30
0
41
1
10
70.2595827814471
20
-110.624154873547
30
0
41
1
10
70.2803310592114
20
-110.638596218849
30
0
41
1
10
70.3042996075475
20
-110.657009990638
30
0
41
1
10
70.3111463397823
20
-110.662607425188
30
0
41
1
10
70.3169714945549
20
-110.667818112163
30
0
0
SPLINE
5
364
100
AcDbEntity
8
1
62
256
6
ByLayer
370
18
48
1
60
0
100
AcDbSpline
70
4
71
3
72
26
73
22
40
0
40
0
40
0
40
0
40
0.249999999999771
40
0.249999999999771
40
0.374999999999689
40
0.374999999999689
40
0.499999999999608
40
0.499999999999608
40
0.562499999999632
40
0.562499999999632
40
0.624999999999656
40
0.624999999999656
40
0.68749999999968
40
0.68749999999968
40
0.749999999999704
40
0.749999999999704
40
0.812499999999728
40
0.812499999999728
40
0.874999999999752
40
0.874999999999752
40
1
40
1
40
1
40
1
41
1
10
69.8096355271659
20
-109.959133495587
30
0
41
1
10
69.8066506047048
20
-109.961567887315
30
0
41
1
10
69.8036965929343
20
-109.964321992447
30
0
41
1
10
69.7994036625252
20
-109.969653472699
30
0
41
1
10
69.7980074158544
20
-109.971619856953
30
0
41
1
10
69.7953547111349
20
-109.97627732279
30
0
41
1
10
69.7940845195268
20
-109.978908840164
30
0
41
1
10
69.7924790627487
20
-109.984314853228
30
0
41
1
10
69.7920140110898
20
-109.986332263032
30
0
41
1
10
69.7913895576602
20
-109.990961360127
30
0
41
1
10
69.7912495316905
20
-109.993587789442
30
0
41
1
10
69.7914463612162
20
-109.9988936394
30
0
41
1
10
69.791777140192
20
-110.001569002754
30
0
41
1
10
69.79270434246
20
-110.006480748776
30
0
41
1
10
69.7932902172117
20
-110.008733309633
30
0
41
1
10
69.7945694647913
20
-110.01290899672
30
0
41
1
10
69.7952737512479
20
-110.014859853381
30
0
41
1
10
69.7967266888842
20
-110.018495751101
30
0
41
1
10
69.797480424469
20
-110.020194704634
30
0
41
1
10
69.7997986179627
20
-110.025055656473
30
0
41
1
10
69.8014191278754
20
-110.027986297411
30
0
41
1
10
69.8030860197042
20
-110.030743080878
30
0
0
SPLINE
5
365
100
AcDbEntity
8
1
62
256
6
ByLayer
370
18
48
1
60
0
100
AcDbSpline
70
4
71
3
72
12
73
8
40
0
40
0
40
0
40
0
40
0.25000000000001
40
0.25000000000001
40
0.50000000000002
40
0.50000000000002
40
1
40
1
40
1
40
1
41
1
10
69.9797591641756
20
-109.817049855689
30
0
41
1
10
69.9654744284014
20
-109.829736983822
30
0
41
1
10
69.9512228874632
20
-109.841926019486
30
0
41
1
10
69.9227719976155
20
-109.865980235488
30
0
41
1
10
69.9085731616016
20
-109.87781872044
30
0
41
1
10
69.8660495762618
20
-109.913051080042
30
0
41
1
10
69.8377976431476
20
-109.936165521471
30
0
41
1
10
69.8096355271833
20
-109.959133495685
30
0
0
SPLINE
5
366
100
AcDbEntity
8
1
62
256
6
ByLayer
370
18
48
1
60
0
100
AcDbSpline
70
4
71
3
72
8
73
4
40
0
40
0
40
0
40
0
40
1
40
1
40
1
40
1
41
1
10
70.0288816912484
20
-109.775582586176
30
0
41
1
10
70.0124545116111
20
-109.788426894473
30
0
41
1
10
69.9960690189404
20
-109.802564098274
30
0
41
1
10
69.9797591641765
20
-109.817049855693
30
0
0
SPLINE
5
367
100
AcDbEntity
8
1
62
256
6
ByLayer
370
18
48
1
60
0
100
AcDbSpline
70
4
71
3
72
10
73
6
40
0
40
0
40
0
40
0
40
0.295368028639103
40
0.295368028639103
40
1
40
1
40
1
40
1
41
1
10
70.1289349952993
20
-109.697590867339
30
0
41
1
10
70.1190469295067
20
-109.705272057817
30
0
41
1
10
70.109169806111
20
-109.712956986029
30
0
41
1
10
70.0757673605023
20
-109.738961557506
30
0
41
1
10
70.0522936778819
20
-109.75727690127
30
0
41
1
10
70.0288816912395
20
-109.775582586175
30
0
0
SPLINE
5
368
100
AcDbEntity
8
1
62
256
6
ByLayer
370
18
48
1
60
0
100
AcDbSpline
70
4
71
3
72
10
73
6
40
0
40
0
40
0
40
0
40
0.295368028639109
40
0.295368028639109
40
1
40
1
40
1
40
1
41
1
10
81.0750591048776
20
-111.602206080672
30
0
41
1
10
81.0802102379427
20
-111.609033597172
30
0
41
1
10
81.0853649845736
20
-111.615849979984
30
0
41
1
10
81.1028025147083
20
-111.638888689026
30
0
41
1
10
81.1150800671255
20
-111.655057960625
30
0
41
1
10
81.1273467903313
20
-111.671163757266
30
0
0
SPLINE
5
369
100
AcDbEntity
8
1
62
256
6
ByLayer
370
18
48
1
60
0
100
AcDbSpline
70
4
71
3
72
12
73
8
40
0
40
0
40
0
40
0
40
0.250000000000003
40
0.250000000000003
40
0.500000000000005
40
0.500000000000005
40
1
40
1
40
1
40
1
41
1
10
82.4172919330564
20
-99.7060168798116
30
0
41
1
10
82.4281379153466
20
-99.6982741104903
30
0
41
1
10
82.4384783418257
20
-99.6904712234702
30
0
41
1
10
82.4588234787738
20
-99.6748569420952
30
0
41
1
10
82.4688013837566
20
-99.6670410607014
30
0
41
1
10
82.4984353851897
20
-99.6436132541054
30
0
41
1
10
82.5177954535307
20
-99.628021745913
30
0
41
1
10
82.5369885308131
20
-99.6124925415155
30
0
0
SPLINE
5
36A
100
AcDbEntity
8
1
62
256
6
ByLayer
370
18
48
1
60
0
100
AcDbSpline
70
4
71
3
72
22
73
18
40
0
40
0
40
0
40
0
40
0.247648061031994
40
0.247648061031994
40
0.499630853098327
40
0.499630853098327
40
0.554937524731974
40
0.554937524731974
40
0.599939125431376
40
0.599939125431376
40
0.645356331404786
40
0.645356331404786
40
0.695796263471273
40
0.695796263471273
40
0.780049574066957
40
0.780049574066957
40
1
40
1
40
1
40
1
41
1
10
82.536988530718
20
-99.61249254148
30
0
41
1
10
82.5390014687767
20
-99.6108638643232
30
0
41
1
10
82.5413327253389
20
-99.6093181433874
30
0
41
1
10
82.5475221379161
20
-99.6066905864432
30
0
41
1
10
82.5512149191613
20
-99.6054399633074
30
0
41
1
10
82.5592478758881
20
-99.6054381700117
30
0
41
1
10
82.5609115063613
20
-99.6055155287277
30
0
41
1
10
82.5643071167118
20
-99.6058911402982
30
0
41
1
10
82.566004916779
20
-99.606152823424
30
0
41
1
10
82.5695733975866
20
-99.6068854087397
30
0
41
1
10
82.5714921991404
20
-99.6073700950745
30
0
41
1
10
82.5754021318912
20
-99.6085303257125
30
0
41
1
10
82.5774346772226
20
-99.609233983669
30
0
41
1
10
82.5824619240909
20
-99.611159779049
30
0
41
1
10
82.5853148568033
20
-99.6124484556755
30
0
41
1
10
82.5946233889928
20
-99.6170272674211
30
0
41
1
10
82.5999855395435
20
-99.6203734708288
30
0
41
1
10
82.6048114676356
20
-99.6236414026397
30
0
0
SPLINE
5
36B
100
AcDbEntity
8
1
62
256
6
ByLayer
370
18
48
1
60
0
100
AcDbSpline
70
4
71
3
72
22
73
18
40
0
40
0
40
0
40
0
40
0.104611531529253
40
0.104611531529253
40
0.208411675036497
40
0.208411675036497
40
0.402775886004088
40
0.402775886004088
40
0.500031490391579
40
0.500031490391579
40
0.699792640385726
40
0.699792640385726
40
0.846184360106955
40
0.846184360106955
40
0.950335564350915
40
0.950335564350915
40
1
40
1
40
1
40
1
41
1
10
83.1186969424859
20
-100.260716433925
30
0
41
1
10
83.1132029512603
20
-100.244503470264
30
0
41
1
10
83.1066543705691
20
-100.223362592174
30
0
41
1
10
83.090705687382
20
-100.175171456711
30
0
41
1
10
83.0811251697154
20
-100.14791452226
30
0
41
1
10
83.0491533797457
20
-100.068989700367
30
0
41
1
10
83.022181184052
20
-100.015413295551
30
0
41
1
10
82.9737612056236
20
-99.9406557849214
30
0
41
1
10
82.9561028639397
20
-99.9162487436473
30
0
41
1
10
82.8986765485971
20
-99.8450560880188
30
0
41
1
10
82.8542911434067
20
-99.8008529975202
30
0
41
1
10
82.772468934462
20
-99.733667891019
30
0
41
1
10
82.7355272558951
20
-99.7076194486096
30
0
41
1
10
82.6758085079064
20
-99.6687349340754
30
0
41
1
10
82.6517296567905
20
-99.653943531409
30
0
41
1
10
82.6218026485834
20
-99.6349035002515
30
0
41
1
10
82.6128498937024
20
-99.6290847138023
30
0
41
1
10
82.6048114676355
20
-99.6236414026398
30
0
0
SPLINE
5
36C
100
AcDbEntity
8
1
62
256
6
ByLayer
370
18
48
1
60
0
100
AcDbSpline
70
4
71
3
72
26
73
22
40
0
40
0
40
0
40
0
40
0.249999999999977
40
0.249999999999977
40
0.374999999999947
40
0.374999999999947
40
0.499999999999917
40
0.499999999999917
40
0.562499999999927
40
0.562499999999927
40
0.624999999999938
40
0.624999999999938
40
0.687499999999948
40
0.687499999999948
40
0.749999999999958
40
0.749999999999958
40
0.812499999999969
40
0.812499999999969
40
0.874999999999979
40
0.874999999999979
40
1
40
1
40
1
40
1
41
1
10
83.1181375057731
20
-100.332955601022
30
0
41
1
10
83.1193888370489
20
-100.330339001518
30
0
41
1
10
83.1206245619998
20
-100.327404297163
30
0
41
1
10
83.1224010667803
20
-100.321808329919
30
0
41
1
10
83.1229755076095
20
-100.319755570392
30
0
41
1
10
83.1240494749645
20
-100.314932172571
30
0
41
1
10
83.1245569606106
20
-100.31222049157
30
0
41
1
10
83.1251498532695
20
-100.306708053728
30
0
41
1
10
83.1253110280617
20
-100.304658705178
30
0
41
1
10
83.1254781559805
20
-100.299981541236
30
0
41
1
10
83.1254747546295
20
-100.297340037103
30
0
41
1
10
83.1252418941544
20
-100.292030400139
30
0
41
1
10
83.1250150107111
20
-100.289365956645
30
0
41
1
10
83.1244425667124
20
-100.28449149722
30
0
41
1
10
83.1241017013375
20
-100.282264687886
30
0
41
1
10
83.1233729244696
20
-100.278146857602
30
0
41
1
10
83.1229790611918
20
-100.276228627732
30
0
41
1
10
83.122173109621
20
-100.272660730988
30
0
41
1
10
83.1217582255071
20
-100.270997392179
30
0
41
1
10
83.1204868767469
20
-100.266246468155
30
0
41
1
10
83.1196040571529
20
-100.263393361595
30
0
41
1
10
83.1186969424861
20
-100.260716433925
30
0
0
SPLINE
5
36D
100
AcDbEntity
8
1
62
256
6
ByLayer
370
18
48
1
60
0
100
AcDbSpline
70
4
71
3
72
12
73
8
40
0
40
0
40
0
40
0
40
0.25
40
0.25
40
0.5
40
0.5
40
1
40
1
40
1
40
1
41
1
10
83.0459101154884
20
-100.485328551067
30
0
41
1
10
83.0520798205174
20
-100.471788498833
30
0
41
1
10
83.0581921939124
20
-100.458744002188
30
0
41
1
10
83.0703478899512
20
-100.432977092302
30
0
41
1
10
83.0763894542824
20
-100.420281243549
30
0
41
1
10
83.0944254484639
20
-100.382475134404
30
0
41
1
10
83.1063314582152
20
-100.357642667201
30
0
41
1
10
83.1181375057604
20
-100.332955600923
30
0
0
SPLINE
5
36E
100
AcDbEntity
8
1
62
256
6
ByLayer
370
18
48
1
60
0
100
AcDbSpline
70
4
71
3
72
8
73
4
40
0
40
0
40
0
40
0
40
1
40
1
40
1
40
1
41
1
10
83.0246701379324
20
-100.529726394624
30
0
41
1
10
83.0317591903261
20
-100.515900609604
30
0
41
1
10
83.0388657434709
20
-100.50078814996
30
0
41
1
10
83.045910115488
20
-100.485328551063
30
0
0
SPLINE
5
36F
100
AcDbEntity
8
1
62
256
6
ByLayer
370
18
48
1
60
0
100
AcDbSpline
70
4
71
3
72
10
73
6
40
0
40
0
40
0
40
0
40
0.2953680286391
40
0.2953680286391
40
1
40
1
40
1
40
1
41
1
10
81.8965085318048
20
-110.934412684826
30
0
41
1
10
81.8990080022342
20
-110.943395857825
30
0
41
1
10
81.9014957263483
20
-110.952380383879
30
0
41
1
10
81.9098821546719
20
-110.982777142993
30
0
41
1
10
81.9157290314146
20
-111.004174201727
30
0
41
1
10
81.9215147620562
20
-111.025548690379
30
0
0
SPLINE
5
370
100
AcDbEntity
8
1
62
256
6
ByLayer
370
18
48
1
60
0
100
AcDbSpline
70
4
71
3
72
8
73
4
40
0
40
0
40
0
40
0
40
1
40
1
40
1
40
1
41
1
10
81.9215147620527
20
-111.025548690378
30
0
41
1
10
81.9255743593026
20
-111.040546245693
30
0
41
1
10
81.9293835601737
20
-111.056805997315
30
0
41
1
10
81.933059764415
20
-111.073392374181
30
0
0
SPLINE
5
371
100
AcDbEntity
8
1
62
256
6
ByLayer
370
18
48
1
60
0
100
AcDbSpline
70
4
71
3
72
12
73
8
40
0
40
0
40
0
40
0
40
0.249999999999995
40
0.249999999999995
40
0.49999999999999
40
0.49999999999999
40
1
40
1
40
1
40
1
41
1
10
81.933059764416
20
-111.073392374178
30
0
41
1
10
81.9362795114337
20
-111.087919297589
30
0
41
1
10
81.9395462114516
20
-111.101949574572
30
0
41
1
10
81.9460790345657
20
-111.129680726972
30
0
41
1
10
81.9493489608404
20
-111.143355252825
30
0
41
1
10
81.9591304932004
20
-111.184085101823
30
0
41
1
10
81.9656133678293
20
-111.210850318657
30
0
41
1
10
81.9720286952187
20
-111.237452528612
30
0
0
SPLINE
5
372
100
AcDbEntity
8
1
62
256
6
ByLayer
370
18
48
1
60
0
100
AcDbSpline
70
4
71
3
72
26
73
22
40
0
40
0
40
0
40
0
40
0.250000000000358
40
0.250000000000358
40
0.375000000000476
40
0.375000000000476
40
0.500000000000594
40
0.500000000000594
40
0.562500000000543
40
0.562500000000543
40
0.625000000000492
40
0.625000000000492
40
0.687500000000441
40
0.687500000000441
40
0.75000000000039
40
0.75000000000039
40
0.812500000000339
40
0.812500000000339
40
0.875000000000288
40
0.875000000000288
40
1
40
1
40
1
40
1
41
1
10
81.9720286952515
20
-111.237452528519
30
0
41
1
10
81.9727086603097
20
-111.240272115447
30
0
41
1
10
81.9733072223611
20
-111.243399611134
30
0
41
1
10
81.9738814392384
20
-111.24924264918
30
0
41
1
10
81.9740165344529
20
-111.251369983952
30
0
41
1
10
81.974064192248
20
-111.256311269326
30
0
41
1
10
81.9739967979333
20
-111.25906920579
30
0
41
1
10
81.9734306341928
20
-111.264584452954
30
0
41
1
10
81.9731622034072
20
-111.266622528444
30
0
41
1
10
81.9723532421165
20
-111.271232232981
30
0
41
1
10
81.9718007155025
20
-111.273815306731
30
0
41
1
10
81.9704690079889
20
-111.278960500973
30
0
41
1
10
81.9696931135412
20
-111.281519548262
30
0
41
1
10
81.9681197217166
20
-111.286168471255
30
0
41
1
10
81.967323325374
20
-111.288275749565
30
0
41
1
10
81.9657543289725
20
-111.292152074147
30
0
41
1
10
81.9649702501364
20
-111.293946497312
30
0
41
1
10
81.9634401030966
20
-111.297268860198
30
0
41
1
10
81.9626884576118
20
-111.298809591805
30
0
41
1
10
81.9604571182256
20
-111.30319236847
30
0
41
1
10
81.9590003961486
20
-111.305799579293
30
0
41
1
10
81.9575565395558
20
-111.308229409926
30
0
0
SPLINE
5
373
100
AcDbEntity
8
1
62
256
6
ByLayer
370
18
48
1
60
0
100
AcDbSpline
70
4
71
3
72
42
73
38
40
0
40
0
40
0
40
0
40
0.0624999999998712
40
0.0624999999998712
40
0.0937499999998008
40
0.0937499999998008
40
0.12499999999973
40
0.12499999999973
40
0.187499999999663
40
0.187499999999663
40
0.21874999999967
40
0.21874999999967
40
0.249999999999676
40
0.249999999999676
40
0.312499999999688
40
0.312499999999688
40
0.374999999999701
40
0.374999999999701
40
0.437499999999713
40
0.437499999999713
40
0.499999999999726
40
0.499999999999726
40
0.624999999999848
40
0.624999999999848
40
0.687499999999878
40
0.687499999999878
40
0.749999999999909
40
0.749999999999909
40
0.812499999999939
40
0.812499999999939
40
0.87499999999997
40
0.87499999999997
40
0.9375
40
0.9375
40
0.96875
40
0.96875
40
1
40
1
40
1
40
1
41
1
10
81.3224453483465
20
-111.824540025302
30
0
41
1
10
81.3337875508317
20
-111.819933434184
30
0
41
1
10
81.3464155007265
20
-111.815149849624
30
0
41
1
10
81.3673520397274
20
-111.807418749438
30
0
41
1
10
81.3746606153677
20
-111.804748024989
30
0
41
1
10
81.3899143831089
20
-111.799160967098
30
0
41
1
10
81.3978649071711
20
-111.796241899244
30
0
41
1
10
81.4220493795982
20
-111.787234555801
30
0
41
1
10
81.4387849197626
20
-111.780830198798
30
0
41
1
10
81.4644282543128
20
-111.770400978173
30
0
41
1
10
81.4730954199152
20
-111.766775573717
30
0
41
1
10
81.4903891782637
20
-111.759297186392
30
0
41
1
10
81.4990168585044
20
-111.755444806795
30
0
41
1
10
81.5248062089755
20
-111.743520244828
30
0
41
1
10
81.5418723328542
20
-111.735079451527
30
0
41
1
10
81.5756205380665
20
-111.717111573848
30
0
41
1
10
81.5923036517667
20
-111.707585453771
30
0
41
1
10
81.6252059885927
20
-111.687372636126
30
0
41
1
10
81.6414486909999
20
-111.676666105292
30
0
41
1
10
81.67307190945
20
-111.654282308079
30
0
41
1
10
81.688496711516
20
-111.642580665488
30
0
41
1
10
81.7335945092152
20
-111.605921156219
30
0
41
1
10
81.7616226392446
20
-111.579787223313
30
0
41
1
10
81.8007244893676
20
-111.53828176148
30
0
41
1
10
81.8132667924073
20
-111.524063702063
30
0
41
1
10
81.8373748647614
20
-111.494939088691
30
0
41
1
10
81.8488860135723
20
-111.480088684779
30
0
41
1
10
81.8705609616585
20
-111.450421089554
30
0
41
1
10
81.8807687387085
20
-111.435548767232
30
0
41
1
10
81.8999696589465
20
-111.406111479618
30
0
41
1
10
81.9090271997296
20
-111.391428367611
30
0
41
1
10
81.9254232014144
20
-111.363943147915
30
0
41
1
10
81.9328207253452
20
-111.351069189294
30
0
41
1
10
81.9429044052062
20
-111.33347754597
30
0
41
1
10
81.9461015330329
20
-111.32789229235
30
0
41
1
10
81.9520919648407
20
-111.317516442516
30
0
41
1
10
81.9549013377322
20
-111.312697783558
30
0
41
1
10
81.9575565395558
20
-111.308229409926
30
0
0
SPLINE
5
374
100
AcDbEntity
8
1
62
256
6
ByLayer
370
18
48
1
60
0
100
AcDbSpline
70
4
71
3
72
22
73
18
40
0
40
0
40
0
40
0
40
0.247648061032079
40
0.247648061032079
40
0.499630853098453
40
0.499630853098453
40
0.554937524732139
40
0.554937524732139
40
0.599939125431484
40
0.599939125431484
40
0.645356331404923
40
0.645356331404923
40
0.695796263471454
40
0.695796263471454
40
0.780049574067067
40
0.780049574067067
40
1
40
1
40
1
40
1
41
1
10
81.2537865267515
20
-111.821344075606
30
0
41
1
10
81.2554168562626
20
-111.823355675615
30
0
41
1
10
81.2573757958222
20
-111.825352314333
30
0
41
1
10
81.2628836550775
20
-111.829209304088
30
0
41
1
10
81.266235721022
20
-111.8312003705
30
0
41
1
10
81.274092765524
20
-111.832872270223
30
0
41
1
10
81.2757361254613
20
-111.833142490205
30
0
41
1
10
81.2791356276152
20
-111.833481073738
30
0
41
1
10
81.2808507336586
20
-111.833578101499
30
0
41
1
10
81.2844935476506
20
-111.833603453809
30
0
41
1
10
81.2864711907421
20
-111.833528300309
30
0
41
1
10
81.290536907595
20
-111.833206344223
30
0
41
1
10
81.2926713356499
20
-111.832940652818
30
0
41
1
10
81.2979891204859
20
-111.832102164084
30
0
41
1
10
81.30104764071
20
-111.831434806197
30
0
41
1
10
81.3111047476293
20
-111.828891405141
30
0
41
1
10
81.3170454371336
20
-111.826733178093
30
0
41
1
10
81.3224453483466
20
-111.824540025303
30
0
0
SPLINE
5
375
100
AcDbEntity
8
1
62
256
6
ByLayer
370
18
48
1
60
0
100
AcDbSpline
70
4
71
3
72
12
73
8
40
0
40
0
40
0
40
0
40
0.249999999999994
40
0.249999999999994
40
0.499999999999989
40
0.499999999999989
40
1
40
1
40
1
40
1
41
1
10
81.1561503902479
20
-111.704977146452
30
0
41
1
10
81.1651495495415
20
-111.714805724203
30
0
41
1
10
81.1736417014588
20
-111.724587994973
30
0
41
1
10
81.1902958567097
20
-111.74409105866
30
0
41
1
10
81.1984307074129
20
-111.753810667389
30
0
41
1
10
81.2225462199333
20
-111.782887775545
30
0
41
1
10
81.2382415675007
20
-111.802163756419
30
0
41
1
10
81.2537865268519
20
-111.821344075591
30
0
0
SPLINE
5
376
100
AcDbEntity
8
1
62
256
6
ByLayer
370
18
48
1
60
0
100
AcDbSpline
70
4
71
3
72
8
73
4
40
0
40
0
40
0
40
0
40
1
40
1
40
1
40
1
41
1
10
81.1273467903346
20
-111.67116375726
30
0
41
1
10
81.1359538200887
20
-111.682464498998
30
0
41
1
10
81.145875437786
20
-111.693755190498
30
0
41
1
10
81.1561503902518
20
-111.704977146451
30
0
0
SPLINE
5
377
100
AcDbEntity
8
1
62
256
6
ByLayer
370
18
48
1
60
0
100
AcDbSpline
70
4
71
3
72
10
73
6
40
0
40
0
40
0
40
0
40
0.295368028639102
40
0.295368028639102
40
1
40
1
40
1
40
1
41
1
10
82.9812621128032
20
-100.613671772184
30
0
41
1
10
82.985574670494
20
-100.605404572191
30
0
41
1
10
82.9898760198707
20
-100.597133606514
30
0
41
1
10
83.0043990261968
20
-100.569144726009
30
0
41
1
10
83.0145668333143
20
-100.549430878376
30
0
41
1
10
83.0246701379359
20
-100.529726394624
30
0
0
SPLINE
5
378
100
AcDbEntity
8
1
62
256
6
ByLayer
370
18
48
1
60
0
100
AcDbSpline
70
4
71
3
72
10
73
6
40
0
40
0
40
0
40
0
40
0.5
40
0.5
40
1
40
1
40
1
40
1
41
1
10
19.7834762052083
20
-86.7301744826403
30
0
41
1
10
20.5312165428729
20
-86.4167003681185
30
0
41
1
10
20.6754848853453
20
-85.8530068593008
30
0
41
1
10
19.7467302043327
20
-84.5643627156912
30
0
41
1
10
18.7157660885275
20
-83.8788060586432
30
0
41
1
10
17.4109682375128
20
-83.5681878867412
30
0
0
SPLINE
5
379
100
AcDbEntity
8
1
62
256
6
ByLayer
370
18
48
1
60
0
100
AcDbSpline
70
4
71
3
72
12
73
8
40
0
40
0
40
0
40
0
40
0.499909805934608
40
0.499909805934608
40
0.999970318718462
40
0.999970318718462
40
1
40
1
40
1
40
1
41
1
10
3.615641832748
20
78.4344703059799
30
0
41
1
10
3.59935612803918
20
78.3406950597848
30
0
41
1
10
3.58699176898597
20
78.2624510709744
30
0
41
1
10
3.57049267899993
20
78.1505884300003
30
0
41
1
10
3.56609917697187
20
78.1154470165253
30
0
41
1
10
3.56556135410413
20
78.1041506834392
30
0
41
1
10
3.56556130655715
20
78.1041496844701
30
0
41
1
10
3.56556125902441
20
78.1041486855003
30
0
0
SPLINE
5
37A
100
AcDbEntity
8
1
62
256
6
ByLayer
370
18
48
1
60
0
100
AcDbSpline
70
4
71
3
72
26
73
22
40
0
40
0
40
0
40
0
40
0.0789458429995949
40
0.0789458429995949
40
0.183124749545235
40
0.183124749545235
40
0.28774246797867
40
0.28774246797867
40
0.393579063671767
40
0.393579063671767
40
0.501720127566206
40
0.501720127566206
40
0.612894540835751
40
0.612894540835751
40
0.726199795700267
40
0.726199795700267
40
0.838344530907629
40
0.838344530907629
40
0.945466229117723
40
0.945466229117723
40
1
40
1
40
1
40
1
41
1
10
3.56584406020181
20
78.1000684557609
30
0
41
1
10
3.5668381412188
20
78.1000780173746
30
0
41
1
10
3.57001736015832
20
78.113327699242
30
0
41
1
10
3.58246617406439
20
78.1736792028651
30
0
41
1
10
3.59358091734271
20
78.2311825317551
30
0
41
1
10
3.62365966228276
20
78.3828030915074
30
0
41
1
10
3.64310897848429
20
78.4791118510316
30
0
41
1
10
3.68968920944246
20
78.6971346773104
30
0
41
1
10
3.7175682983634
20
78.8220281077917
30
0
41
1
10
3.77976918005027
20
79.0844371347885
30
0
41
1
10
3.81506637171322
20
79.2256679391113
30
0
41
1
10
3.88915267265247
20
79.506787460075
30
0
41
1
10
3.92901869386958
20
79.6503811912415
30
0
41
1
10
4.00677109315495
20
79.9196080225576
30
0
41
1
10
4.04568150999785
20
80.048687715219
30
0
41
1
10
4.1136551558975
20
80.2700607025921
30
0
41
1
10
4.14374181409278
20
80.3659155337667
30
0
41
1
10
4.18722486686215
20
80.5071530572525
30
0
41
1
10
4.20184853997137
20
80.5565344080336
30
0
41
1
10
4.21060897858627
20
80.593607015002
30
0
41
1
10
4.21131824465033
20
80.5998674091222
30
0
41
1
10
4.20982986996205
20
80.5998675383554
30
0
0
SPLINE
5
37B
100
AcDbEntity
8
1
62
256
6
ByLayer
370
18
48
1
60
0
100
AcDbSpline
70
4
71
3
72
22
73
18
40
0
40
0
40
0
40
0
40
2.68597250662E-05
40
2.68597250662E-05
40
0.138862591541687
40
0.138862591541687
40
0.281371389670969
40
0.281371389670969
40
0.431231075542858
40
0.431231075542858
40
0.587497618119919
40
0.587497618119919
40
0.745457465734429
40
0.745457465734429
40
0.900451025056898
40
0.900451025056898
40
1
40
1
40
1
40
1
41
1
10
4.20111822116553
20
80.5859177332508
30
0
41
1
10
4.20111637070409
20
80.5859139207221
30
0
41
1
10
4.20111451997388
20
80.5859101074118
30
0
41
1
10
4.19153469804542
20
80.5661703229607
30
0
41
1
10
4.17456497454407
20
80.5250838981743
30
0
41
1
10
4.1295633915762
20
80.4063732960817
30
0
41
1
10
4.10072446852371
20
80.3263365180775
30
0
41
1
10
4.03580864480705
20
80.1348075994914
30
0
41
1
10
3.99861464013031
20
80.0193765262967
30
0
41
1
10
3.92233609611947
20
79.7665953552812
30
0
41
1
10
3.88220819092146
20
79.6249911421942
30
0
41
1
10
3.80657610168396
20
79.3377614883276
30
0
41
1
10
3.77006172148788
20
79.1880100009809
30
0
41
1
10
3.70645737675477
20
78.9063495734995
30
0
41
1
10
3.67828121220816
20
78.7701839957201
30
0
41
1
10
3.64006417484938
20
78.5717166069043
30
0
41
1
10
3.62684327980969
20
78.4989697227832
30
0
41
1
10
3.615641832748
20
78.4344703059799
30
0
0
SPLINE
5
37C
100
AcDbEntity
8
1
62
256
6
ByLayer
370
18
48
1
60
0
100
AcDbSpline
70
4
71
3
72
8
73
4
40
0
40
0
40
0
40
0
40
1
40
1
40
1
40
1
41
1
10
77.1402895140324
20
106.106074990576
30
0
41
1
10
77.1382112161947
20
106.099885418699
30
0
41
1
10
77.1361322883405
20
106.093694689619
30
0
41
1
10
77.1340527007436
20
106.087502749579
30
0
0
SPLINE
5
37D
100
AcDbEntity
8
1
62
256
6
ByLayer
370
18
48
1
60
0
100
AcDbSpline
70
4
71
3
72
26
73
22
40
0
40
0
40
0
40
0
40
0.0286869624046816
40
0.0286869624046816
40
0.141758577072961
40
0.141758577072961
40
0.254859186747224
40
0.254859186747224
40
0.3680256616566
40
0.3680256616566
40
0.481336136143606
40
0.481336136143606
40
0.594988764681331
40
0.594988764681331
40
0.7317705018341
40
0.7317705018341
40
0.814572892185928
40
0.814572892185928
40
0.903908109635043
40
0.903908109635043
40
1
40
1
40
1
40
1
41
1
10
76.920756579543
20
106.421624244668
30
0
41
1
10
76.9247111805768
20
106.419855706875
30
0
41
1
10
76.9286495204084
20
106.418047357179
30
0
41
1
10
76.9480164601748
20
106.408920802613
30
0
41
1
10
76.9632078772095
20
106.401025497441
30
0
41
1
10
76.9928986769216
20
106.384037225707
30
0
41
1
10
77.007427638233
20
106.374927559404
30
0
41
1
10
77.0356057066521
20
106.355472050143
30
0
41
1
10
77.0492902881465
20
106.345102141345
30
0
41
1
10
77.0754781287615
20
106.323041470894
30
0
41
1
10
77.0880296802434
20
106.311310203771
30
0
41
1
10
77.1114266013782
20
106.286406988944
30
0
41
1
10
77.1223451953391
20
106.273152354603
30
0
41
1
10
77.1433044589053
20
106.242459333511
30
0
41
1
10
77.1529674769836
20
106.224343452594
30
0
41
1
10
77.1625546557241
20
106.194449470134
30
0
41
1
10
77.1648330042234
20
106.182783535577
30
0
41
1
10
77.1656812431996
20
106.159296177668
30
0
41
1
10
77.1639047493364
20
106.147239361411
30
0
41
1
10
77.1556643439787
20
106.124940722436
30
0
41
1
10
77.1487602981051
20
106.114567717983
30
0
41
1
10
77.1402895140324
20
106.106074990576
30
0
0
SPLINE
5
37E
100
AcDbEntity
8
1
62
256
6
ByLayer
370
18
48
1
60
0
100
AcDbSpline
70
4
71
3
72
8
73
4
40
0
40
0
40
0
40
0
40
1
40
1
40
1
40
1
41
1
10
77.5202087608762
20
105.581343216609
30
0
41
1
10
77.5138883383549
20
105.581012725652
30
0
41
1
10
77.5075665107387
20
105.580682148004
30
0
41
1
10
77.5012432123307
20
105.580351479592
30
0
0
SPLINE
5
37F
100
AcDbEntity
8
1
62
256
6
ByLayer
370
18
48
1
60
0
100
AcDbSpline
70
4
71
3
72
26
73
22
40
0
40
0
40
0
40
0
40
0.0286988395658766
40
0.0286988395658766
40
0.141769071600777
40
0.141769071600777
40
0.254868298287112
40
0.254868298287112
40
0.368033389403163
40
0.368033389403163
40
0.481342478336027
40
0.481342478336027
40
0.594993717135769
40
0.594993717135769
40
0.731773781728588
40
0.731773781728588
40
0.81457515957766
40
0.81457515957766
40
0.903909284641008
40
0.903909284641008
40
1
40
1
40
1
40
1
41
1
10
77.7466899758414
20
105.280872624898
30
0
41
1
10
77.7462358586378
20
105.285193261478
30
0
41
1
10
77.7457396806889
20
105.289509719622
30
0
41
1
10
77.7430814673879
20
105.310803570806
30
0
41
1
10
77.7403092607287
20
105.327719022672
30
0
41
1
10
77.7334389999044
20
105.361227666566
30
0
41
1
10
77.7293342979941
20
105.377854193518
30
0
41
1
10
77.7197085243489
20
105.410612088221
30
0
41
1
10
77.714175704559
20
105.426784612193
30
0
41
1
10
77.7015277289197
20
105.458362673987
30
0
41
1
10
77.6943893590909
20
105.47382646851
30
0
41
1
10
77.6782673549427
20
105.503505473303
30
0
41
1
10
77.6692287643572
20
105.517815035663
30
0
41
1
10
77.6470189979572
20
105.546745636862
30
0
41
1
10
77.633108572403
20
105.561188608908
30
0
41
1
10
77.6082925692704
20
105.578811152141
30
0
41
1
10
77.5981801515024
20
105.584258930086
30
0
41
1
10
77.576732660953
20
105.591565689093
30
0
41
1
10
77.5650796062899
20
105.593150048723
30
0
41
1
10
77.5420918308041
20
105.591219984789
30
0
41
1
10
77.530508539512
20
105.587309797815
30
0
41
1
10
77.5202087608762
20
105.581343216609
30
0
0
SPLINE
5
380
100
AcDbEntity
8
1
62
256
6
ByLayer
370
18
48
1
60
0
100
AcDbSpline
70
4
71
3
72
26
73
22
40
0
40
0
40
0
40
0
40
0.192635434265228
40
0.192635434265228
40
0.302770898699809
40
0.302770898699809
40
0.412976465183171
40
0.412976465183171
40
0.523333561905844
40
0.523333561905844
40
0.619800125856664
40
0.619800125856664
40
0.690514804516464
40
0.690514804516464
40
0.807896947452432
40
0.807896947452432
40
0.891597280195612
40
0.891597280195612
40
0.97531596124975
40
0.97531596124975
40
1
40
1
40
1
40
1
41
1
10
77.7466899758414
20
105.280872624898
30
0
41
1
10
77.7497304583318
20
105.251944366367
30
0
41
1
10
77.7509091874709
20
105.222737707332
30
0
41
1
10
77.7495786755743
20
105.177069651363
30
0
41
1
10
77.7484247217581
20
105.160446828376
30
0
41
1
10
77.7446310338871
20
105.127461762212
30
0
41
1
10
77.7419865799287
20
105.111054503345
30
0
41
1
10
77.7349649619421
20
105.078769748405
30
0
41
1
10
77.730572993608
20
105.062823916967
30
0
41
1
10
77.720365682631
20
105.033940107134
30
0
41
1
10
77.7147708828186
20
105.020799708807
30
0
41
1
10
77.7033774846938
20
104.999320369246
30
0
41
1
10
77.6980006439653
20
104.990586889951
30
0
41
1
10
77.6822431644426
20
104.969225262604
30
0
41
1
10
77.6705438855885
20
104.957408297977
30
0
41
1
10
77.6481944153758
20
104.943188323242
30
0
41
1
10
77.6379695327266
20
104.93897202271
30
0
41
1
10
77.6173511242419
20
104.935052703157
30
0
41
1
10
77.6067162565455
20
104.935297137131
30
0
41
1
10
77.5935725751973
20
104.938104247599
30
0
41
1
10
77.5905797486575
20
104.938916525671
30
0
41
1
10
77.5876292675756
20
104.939879944183
30
0
0
SPLINE
5
381
100
AcDbEntity
8
1
62
256
6
ByLayer
370
18
48
1
60
0
100
AcDbSpline
70
4
71
3
72
26
73
22
40
0
40
0
40
0
40
0
40
0.0753632465605918
40
0.0753632465605918
40
0.133990653438595
40
0.133990653438595
40
0.208552868369835
40
0.208552868369835
40
0.300524113423266
40
0.300524113423266
40
0.399920035818964
40
0.399920035818964
40
0.499275462063613
40
0.499275462063613
40
0.577746029348554
40
0.577746029348554
40
0.777160361616589
40
0.777160361616589
40
0.913864695659914
40
0.913864695659914
40
1
40
1
40
1
40
1
41
1
10
77.5012432123307
20
105.580351479592
30
0
41
1
10
77.4862418132169
20
105.579567001538
30
0
41
1
10
77.4707113747003
20
105.58181302564
30
0
41
1
10
77.4436897544988
20
105.589257528628
30
0
41
1
10
77.4319005264252
20
105.593738447796
30
0
41
1
10
77.4056561575156
20
105.605884729849
30
0
41
1
10
77.3912331973219
20
105.614132360955
30
0
41
1
10
77.3599763356501
20
105.634784931296
30
0
41
1
10
77.3432300330059
20
105.647798790628
30
0
41
1
10
77.3098147214399
20
105.677158482043
30
0
41
1
10
77.2931391937881
20
105.693799839197
30
0
41
1
10
77.2615451590418
20
105.72898120628
30
0
41
1
10
77.2465297298518
20
105.747631029324
30
0
41
1
10
77.2214318321794
20
105.782295407289
30
0
41
1
10
77.2109293860941
20
105.798107499947
30
0
41
1
10
77.1765144629974
20
105.854888055089
30
0
41
1
10
77.1558180544242
20
105.8984954376
30
0
41
1
10
77.1330092810914
20
105.972486789013
30
0
41
1
10
77.1268766154105
20
106.003494713241
30
0
41
1
10
77.1262751281414
20
106.052005062191
30
0
41
1
10
77.1284023460722
20
106.070678905572
30
0
41
1
10
77.1340527007436
20
106.087502749579
30
0
0
SPLINE
5
382
100
AcDbEntity
8
1
62
256
6
ByLayer
370
18
48
1
60
0
100
AcDbSpline
70
4
71
3
72
26
73
22
40
0
40
0
40
0
40
0
40
0.0369679839398746
40
0.0369679839398746
40
0.140366078223018
40
0.140366078223018
40
0.298318733654425
40
0.298318733654425
40
0.500628765508187
40
0.500628765508187
40
0.645354084681086
40
0.645354084681086
40
0.712297154914701
40
0.712297154914701
40
0.779275168169086
40
0.779275168169086
40
0.846325584405817
40
0.846325584405817
40
0.913536350357164
40
0.913536350357164
40
1
40
1
40
1
40
1
41
1
10
77.3151481281693
20
104.364494852041
30
0
41
1
10
77.3112360929842
20
104.371119019159
30
0
41
1
10
77.3079023332015
20
104.37821894034
30
0
41
1
10
77.2973134982857
20
104.406010113569
30
0
41
1
10
77.2933601596501
20
104.428837679634
30
0
41
1
10
77.2898305066147
20
104.487247992743
30
0
41
1
10
77.2934815940076
20
104.524388435412
30
0
41
1
10
77.3099048601481
20
104.607453446171
30
0
41
1
10
77.3252702341252
20
104.654372293617
30
0
41
1
10
77.3588869510214
20
104.730213066388
30
0
41
1
10
77.3753545362995
20
104.76099581254
30
0
41
1
10
77.4023990508282
20
104.802870135959
30
0
41
1
10
77.4114500686271
20
104.815740517193
30
0
41
1
10
77.4304385557285
20
104.840336252226
30
0
41
1
10
77.440408103774
20
104.85210363361
30
0
41
1
10
77.4612523206268
20
104.874163442826
30
0
41
1
10
77.4721728088257
20
104.884504450051
30
0
41
1
10
77.4949472209456
20
104.903199295961
30
0
41
1
10
77.5068774324494
20
104.911612782074
30
0
41
1
10
77.535037680013
20
104.927493731474
30
0
41
1
10
77.5518798596404
20
104.934213582133
30
0
41
1
10
77.5688719680492
20
104.9369068501
30
0
0
SPLINE
5
383
100
AcDbEntity
8
1
62
256
6
ByLayer
370
18
48
1
60
0
100
AcDbSpline
70
4
71
3
72
8
73
4
40
0
40
0
40
0
40
0
40
1
40
1
40
1
40
1
41
1
10
77.5688719680492
20
104.9369068501
30
0
41
1
10
77.5751258370445
20
104.93789809525
30
0
41
1
10
77.5813782485171
20
104.938889123386
30
0
41
1
10
77.5876292675756
20
104.939879944183
30
0
0
SPLINE
5
384
100
AcDbEntity
8
1
62
256
6
ByLayer
370
18
48
1
60
0
100
AcDbSpline
70
4
71
3
72
26
73
22
40
0
40
0
40
0
40
0
40
0.0843971137812477
40
0.0843971137812477
40
0.289834052491966
40
0.289834052491966
40
0.392095130870994
40
0.392095130870994
40
0.494452771537207
40
0.494452771537207
40
0.597019768820927
40
0.597019768820927
40
0.672954859098997
40
0.672954859098997
40
0.796883557884314
40
0.796883557884314
40
0.881282445819631
40
0.881282445819631
40
0.965825257041693
40
0.965825257041693
40
1
40
1
40
1
40
1
41
1
10
77.1759808039557
20
103.993327956059
30
0
41
1
10
77.186272522822
20
104.000831342592
30
0
41
1
10
77.1963588226866
20
104.008644175851
30
0
41
1
10
77.2301238700155
20
104.036428178786
30
0
41
1
10
77.2527720806936
20
104.057909387269
30
0
41
1
10
77.2837542391939
20
104.092577867752
30
0
41
1
10
77.293600076268
20
104.104563559488
30
0
41
1
10
77.3120482017957
20
104.129391754191
30
0
41
1
10
77.3206806115151
20
104.142274463335
30
0
41
1
10
77.336264011166
20
104.168890239316
30
0
41
1
10
77.3432562239215
20
104.182697149975
30
0
41
1
10
77.3532911961927
20
104.207329110144
30
0
41
1
10
77.3569078502318
20
104.218058331798
30
0
41
1
10
77.3639535892586
20
104.246319050687
30
0
41
1
10
77.3659360046887
20
104.264465228434
30
0
41
1
10
77.3629337372344
20
104.292975636936
30
0
41
1
10
77.3598817745616
20
104.304226123987
30
0
41
1
10
77.3501832259436
20
104.323993961134
30
0
41
1
10
77.3434138521444
20
104.33274134932
30
0
41
1
10
77.3322062468255
20
104.342642223145
30
0
41
1
10
77.3287375398558
20
104.345262761385
30
0
41
1
10
77.3251100381541
20
104.347625165462
30
0
0
SPLINE
5
385
100
AcDbEntity
8
1
62
256
6
ByLayer
370
18
48
1
60
0
100
AcDbSpline
70
4
71
3
72
8
73
4
40
0
40
0
40
0
40
0
40
1
40
1
40
1
40
1
41
1
10
77.3151481281715
20
104.364494852037
30
0
41
1
10
77.3184696485129
20
104.358870591317
30
0
41
1
10
77.3217902717562
20
104.353247377926
30
0
41
1
10
77.3251100381541
20
104.347625165462
30
0
0
SPLINE
5
386
100
AcDbEntity
8
1
62
256
6
ByLayer
370
18
48
1
60
0
100
AcDbSpline
70
4
71
3
72
26
73
22
40
0
40
0
40
0
40
0
40
0.0286869624046791
40
0.0286869624046791
40
0.141758577072959
40
0.141758577072959
40
0.254859186747223
40
0.254859186747223
40
0.368025661656598
40
0.368025661656598
40
0.481336136143605
40
0.481336136143605
40
0.59498876468133
40
0.59498876468133
40
0.7317705018341
40
0.7317705018341
40
0.814572892185927
40
0.814572892185927
40
0.903908109635042
40
0.903908109635042
40
1
40
1
40
1
40
1
41
1
10
77.1759808039557
20
103.993327956059
30
0
41
1
10
77.1724803201254
20
103.990775857272
30
0
41
1
10
77.1689552647138
20
103.988259036363
30
0
41
1
10
77.1514270915048
20
103.976005612422
30
0
41
1
10
77.137068477451
20
103.966781626187
30
0
41
1
10
77.1077184669703
20
103.949574978909
30
0
41
1
10
77.0926979867015
20
103.941575035981
30
0
41
1
10
77.0620943697945
20
103.927006005542
30
0
41
1
10
77.046472990798
20
103.920418301955
30
0
41
1
10
77.0147627784455
20
103.908991130146
30
0
41
1
10
76.9986154851225
20
103.904130402148
30
0
41
1
10
76.9660426852334
20
103.896695697546
30
0
41
1
10
76.9495111407006
20
103.894100830498
30
0
41
1
10
76.9135241577018
20
103.891949432918
30
0
41
1
10
76.8937193170694
20
103.893094348645
30
0
41
1
10
76.8644587508023
20
103.900689764489
30
0
41
1
10
76.8538275488969
20
103.904967142897
30
0
41
1
10
76.8344510370433
20
103.916946119753
30
0
41
1
10
76.8257045309389
20
103.925087779117
30
0
41
1
10
76.8122290840269
20
103.944617941418
30
0
41
1
10
76.8076347527833
20
103.956475151737
30
0
41
1
10
76.8054107365831
20
103.96872784119
30
0
0
SPLINE
5
387
100
AcDbEntity
8
1
62
256
6
ByLayer
370
18
48
1
60
0
100
AcDbSpline
70
4
71
3
72
26
73
22
40
0
40
0
40
0
40
0
40
0.0843971137812438
40
0.0843971137812438
40
0.289834052491962
40
0.289834052491962
40
0.392095130870991
40
0.392095130870991
40
0.494452771537203
40
0.494452771537203
40
0.597019768820924
40
0.597019768820924
40
0.672954859098995
40
0.672954859098995
40
0.796883557884314
40
0.796883557884314
40
0.881282445819631
40
0.881282445819631
40
0.965825257041692
40
0.965825257041692
40
1
40
1
40
1
40
1
41
1
10
76.920756579543
20
106.421624244668
30
0
41
1
10
76.9091297176456
20
106.426823895532
30
0
41
1
10
76.8973548583037
20
106.431683253212
30
0
41
1
10
76.8565891954983
20
106.447110826845
30
0
41
1
10
76.8268906218265
20
106.455993871602
30
0
41
1
10
76.7819166800105
20
106.465413580254
30
0
41
1
10
76.7668277935121
20
106.467906143898
30
0
41
1
10
76.7366141844258
20
106.471346352936
30
0
41
1
10
76.721440303802
20
106.472299831843
30
0
41
1
10
76.6913090673064
20
106.47227214571
30
0
41
1
10
76.6762690408224
20
106.471289190782
30
0
41
1
10
76.6507732510078
20
106.467363821386
30
0
41
1
10
76.6400810129894
20
106.464982346892
30
0
41
1
10
76.6132896509855
20
106.456495212296
30
0
41
1
10
76.5974922393879
20
106.448776921104
30
0
41
1
10
76.5761012342213
20
106.431169201535
30
0
41
1
10
76.5687076673378
20
106.42254753389
30
0
41
1
10
76.558162901699
20
106.403506464701
30
0
41
1
10
76.5548949666501
20
106.392856405553
30
0
41
1
10
76.5532001512341
20
106.377617594094
30
0
41
1
10
76.5530354308396
20
106.373133116345
30
0
41
1
10
76.5531697057621
20
106.368640938731
30
0
0
SPLINE
5
388
100
AcDbEntity
8
1
62
256
6
ByLayer
370
18
48
1
60
0
100
AcDbSpline
70
4
71
3
72
8
73
4
40
0
40
0
40
0
40
0
40
1
40
1
40
1
40
1
41
1
10
75.9107312294969
20
106.301117933977
30
0
41
1
10
75.9152219209645
20
106.295952602916
30
0
41
1
10
75.9197131826353
20
106.290786301791
30
0
41
1
10
75.9242050404845
20
106.285618985531
30
0
0
SPLINE
5
389
100
AcDbEntity
8
1
62
256
6
ByLayer
370
18
48
1
60
0
100
AcDbSpline
70
4
71
3
72
26
73
22
40
0
40
0
40
0
40
0
40
0.0286869624046737
40
0.0286869624046737
40
0.141758577072955
40
0.141758577072955
40
0.254859186747219
40
0.254859186747219
40
0.368025661656596
40
0.368025661656596
40
0.481336136143603
40
0.481336136143603
40
0.594988764681328
40
0.594988764681328
40
0.731770501834098
40
0.731770501834098
40
0.814572892185926
40
0.814572892185926
40
0.903908109635042
40
0.903908109635042
40
1
40
1
40
1
40
1
41
1
10
75.5241140113588
20
106.274831195599
30
0
41
1
10
75.5276144951891
20
106.277383294386
30
0
41
1
10
75.531141905759
20
106.279900362832
30
0
41
1
10
75.5486933808004
20
106.292156235895
30
0
41
1
10
75.5631070150039
20
106.30138600498
30
0
41
1
10
75.5926451846129
20
106.31861242858
30
0
41
1
10
75.6077989369556
20
106.326626378968
30
0
41
1
10
75.6387608131288
20
106.341233063972
30
0
41
1
10
75.65460751232
20
106.347844449666
30
0
41
1
10
75.6868852588078
20
106.359331271716
30
0
41
1
10
75.7033756197585
20
106.364228057576
30
0
41
1
10
75.7367948373557
20
106.371751724263
30
0
41
1
10
75.7538323815249
20
106.374399774016
30
0
41
1
10
75.7911827646694
20
106.376694470725
30
0
41
1
10
75.8119111334788
20
106.375646621721
30
0
41
1
10
75.8430444870203
20
106.368248043751
30
0
41
1
10
75.8544875430208
20
106.364055994648
30
0
41
1
10
75.875726810726
20
106.35227280132
30
0
41
1
10
75.8855653180357
20
106.344245915908
30
0
41
1
10
75.9013825009956
20
106.324961879983
30
0
41
1
10
75.9072663623471
20
106.31324020474
30
0
41
1
10
75.9107312294969
20
106.301117933977
30
0
0
SPLINE
5
38A
100
AcDbEntity
8
1
62
256
6
ByLayer
370
18
48
1
60
0
100
AcDbSpline
70
4
71
3
72
8
73
4
40
0
40
0
40
0
40
0
40
1
40
1
40
1
40
1
41
1
10
76.5451193919492
20
106.350879713607
30
0
41
1
10
76.5478035935651
20
106.35680126411
30
0
41
1
10
76.5504870198857
20
106.36272165533
30
0
41
1
10
76.5531697057621
20
106.368640938731
30
0
0
SPLINE
5
38B
100
AcDbEntity
8
1
62
256
6
ByLayer
370
18
48
1
60
0
100
AcDbSpline
70
4
71
3
72
30
73
26
40
0
40
0
40
0
40
0
40
0.0754486908212222
40
0.0754486908212222
40
0.134142567439273
40
0.134142567439273
40
0.208789318447096
40
0.208789318447096
40
0.300864837338271
40
0.300864837338271
40
0.400373451415987
40
0.400373451415987
40
0.499841523429531
40
0.499841523429531
40
0.644794997236281
40
0.644794997236281
40
0.711843600985095
40
0.711843600985095
40
0.778927202841184
40
0.778927202841184
40
0.846083321820495
40
0.846083321820495
40
0.913400043300354
40
0.913400043300354
40
1
40
1
40
1
40
1
41
1
10
75.9242050404845
20
106.285618985531
30
0
41
1
10
75.9348615282872
20
106.273360039556
30
0
41
1
10
75.9480611560167
20
106.262757685902
30
0
41
1
10
75.9735133566027
20
106.246735362674
30
0
41
1
10
75.9854844838268
20
106.240590409356
30
0
41
1
10
76.0136444199702
20
106.228406533001
30
0
41
1
10
76.0302140689103
20
106.222793954169
30
0
41
1
10
76.0680263854392
20
106.212558085717
30
0
41
1
10
76.0896196703155
20
106.208426091665
30
0
41
1
10
76.1349856430663
20
106.202553991677
30
0
41
1
10
76.1589619195863
20
106.201015448654
30
0
41
1
10
76.2068053968683
20
106.200671552629
30
0
41
1
10
76.2308206924846
20
106.201866438671
30
0
41
1
10
76.2889487692939
20
106.207975945731
30
0
41
1
10
76.3230781366449
20
106.21436482841
30
0
41
1
10
76.3707362885351
20
106.227768284426
30
0
41
1
10
76.385580573381
20
106.232637198717
30
0
41
1
10
76.4144033329083
20
106.243650165152
30
0
41
1
10
76.4284309454835
20
106.249812683353
30
0
41
1
10
76.455314530528
20
106.263531118944
30
0
41
1
10
76.4682296606622
20
106.271117193353
30
0
41
1
10
76.4924123800491
20
106.287866932305
30
0
41
1
10
76.5037581026721
20
106.297087694935
30
0
41
1
10
76.5267373672077
20
106.320124445043
30
0
41
1
10
76.537826267504
20
106.334790532947
30
0
41
1
10
76.5451193919492
20
106.350879713607
30
0
0
SPLINE
5
38C
100
AcDbEntity
8
1
62
256
6
ByLayer
370
18
48
1
60
0
100
AcDbSpline
70
4
71
3
72
8
73
4
40
0
40
0
40
0
40
0
40
1
40
1
40
1
40
1
41
1
10
76.8054107365831
20
103.96872784119
30
0
41
1
10
76.8015559856093
20
103.973960012291
30
0
41
1
10
76.7977002800433
20
103.979193113054
30
0
41
1
10
76.7938435750956
20
103.984427186574
30
0
0
SPLINE
5
38D
100
AcDbEntity
8
1
62
256
6
ByLayer
370
18
48
1
60
0
100
AcDbSpline
70
4
71
3
72
26
73
22
40
0
40
0
40
0
40
0
40
0.08439711378124
40
0.08439711378124
40
0.289834052491959
40
0.289834052491959
40
0.392095130870988
40
0.392095130870988
40
0.4944527715372
40
0.4944527715372
40
0.59701976882092
40
0.59701976882092
40
0.672954859098993
40
0.672954859098993
40
0.796883557884312
40
0.796883557884312
40
0.881282445819631
40
0.881282445819631
40
0.965825257041695
40
0.965825257041695
40
1
40
1
40
1
40
1
41
1
10
75.7793382357717
20
103.84653490699
30
0
41
1
10
75.7909650976691
20
103.841335256127
30
0
41
1
10
75.8027602455774
20
103.836478030861
30
0
41
1
10
75.8436668372573
20
103.821065269449
30
0
41
1
10
75.8735854857246
20
103.812205355485
30
0
41
1
10
75.9191255341021
20
103.80284514703
30
0
41
1
10
75.9344432429843
20
103.800376633588
30
0
41
1
10
75.9652160375234
20
103.796995197309
30
0
41
1
10
75.9807210519322
20
103.796076521966
30
0
41
1
10
76.011650729144
20
103.7961881276
30
0
41
1
10
76.0271601760855
20
103.797220420606
30
0
41
1
10
76.0536376244355
20
103.801248966471
30
0
41
1
10
76.0648021174744
20
103.803680076968
30
0
41
1
10
76.0930007581194
20
103.81231512251
30
0
41
1
10
76.1098685887199
20
103.820145919272
30
0
41
1
10
76.1334019477556
20
103.837978809307
30
0
41
1
10
76.1417824628021
20
103.846704209383
30
0
41
1
10
76.1544072378746
20
103.865963896373
30
0
41
1
10
76.1587937000751
20
103.876731517462
30
0
41
1
10
76.1620421228284
20
103.892133619633
30
0
41
1
10
76.1626587187702
20
103.896665591415
30
0
41
1
10
76.1629722603179
20
103.901204836437
30
0
0
SPLINE
5
38E
100
AcDbEntity
8
1
62
256
6
ByLayer
370
18
48
1
60
0
100
AcDbSpline
70
4
71
3
72
8
73
4
40
0
40
0
40
0
40
0
40
1
40
1
40
1
40
1
41
1
10
76.1729292236308
20
103.919166458498
30
0
41
1
10
76.1696098691135
20
103.913178150736
30
0
41
1
10
76.1662908866882
20
103.907190959877
30
0
41
1
10
76.1629722603179
20
103.901204836437
30
0
0
SPLINE
5
38F
100
AcDbEntity
8
1
62
256
6
ByLayer
370
18
48
1
60
0
100
AcDbSpline
70
4
71
3
72
30
73
26
40
0
40
0
40
0
40
0
40
0.0754486908212213
40
0.0754486908212213
40
0.134142567439273
40
0.134142567439273
40
0.208789318447096
40
0.208789318447096
40
0.300864837338271
40
0.300864837338271
40
0.400373451415987
40
0.400373451415987
40
0.499841523429531
40
0.499841523429531
40
0.644794997236279
40
0.644794997236279
40
0.711843600985094
40
0.711843600985094
40
0.778927202841183
40
0.778927202841183
40
0.846083321820494
40
0.846083321820494
40
0.913400043300354
40
0.913400043300354
40
1
40
1
40
1
40
1
41
1
10
76.7938435750956
20
103.984427186574
30
0
41
1
10
76.7846939246361
20
103.996844507536
30
0
41
1
10
76.7729345604228
20
104.007598238985
30
0
41
1
10
76.7498241933482
20
104.023866698833
30
0
41
1
10
76.7388174850863
20
104.03011301667
30
0
41
1
10
76.7126841972031
20
104.04250990234
30
0
41
1
10
76.6971410629891
20
104.048230372217
30
0
41
1
10
76.6613616672016
20
104.058679909249
30
0
41
1
10
76.6407229128298
20
104.0629122285
30
0
41
1
10
76.5969718713942
20
104.068954064609
30
0
41
1
10
76.5736315925285
20
104.070559453679
30
0
41
1
10
76.5266351762804
20
104.070992379406
30
0
41
1
10
76.5028334526241
20
104.069819940682
30
0
41
1
10
76.4447053758147
20
104.063710433621
30
0
41
1
10
76.4101226287754
20
104.057273898817
30
0
41
1
10
76.3611594632409
20
104.04373328034
30
0
41
1
10
76.3458056312553
20
104.038810810487
30
0
41
1
10
76.3157793740959
20
104.027671351353
30
0
41
1
10
76.301055758029
20
104.021435680237
30
0
41
1
10
76.2725994558923
20
104.007551945419
30
0
41
1
10
76.25880408511
20
103.99987335399
30
0
41
1
10
76.2326829028656
20
103.982919874382
30
0
41
1
10
76.2202722881387
20
103.973587187081
30
0
41
1
10
76.1946752526677
20
103.950275298161
30
0
41
1
10
76.1819480936853
20
103.93543702233
30
0
41
1
10
76.1729292236308
20
103.919166458498
30
0
0
SPLINE
5
390
100
AcDbEntity
8
1
62
256
6
ByLayer
370
18
48
1
60
0
100
AcDbSpline
70
4
71
3
72
26
73
22
40
0
40
0
40
0
40
0
40
0.028686962404688
40
0.028686962404688
40
0.141758577072967
40
0.141758577072967
40
0.25485918674723
40
0.25485918674723
40
0.368025661656606
40
0.368025661656606
40
0.481336136143611
40
0.481336136143611
40
0.594988764681335
40
0.594988764681335
40
0.731770501834102
40
0.731770501834102
40
0.81457289218593
40
0.81457289218593
40
0.903908109635044
40
0.903908109635044
40
1
40
1
40
1
40
1
41
1
10
75.7793382357717
20
103.84653490699
30
0
41
1
10
75.7753836347378
20
103.848303444783
30
0
41
1
10
75.7714476500644
20
103.850112042017
30
0
41
1
10
75.7521040121304
20
103.859241045703
30
0
41
1
10
75.7369676152454
20
103.867142133727
30
0
41
1
10
75.7074649746615
20
103.884150181782
30
0
41
1
10
75.693069285424
20
103.893273855544
30
0
41
1
10
75.6652494762712
20
103.912767019372
30
0
41
1
10
75.6517902149715
20
103.923160610276
30
0
41
1
10
75.6261699084919
20
103.945280930969
30
0
41
1
10
75.6139614246375
20
103.957048255952
30
0
41
1
10
75.5914109212109
20
103.982040432865
30
0
41
1
10
75.5809983268865
20
103.995348249911
30
0
41
1
10
75.5614024634659
20
104.026184570132
30
0
41
1
10
75.5526629735647
20
104.044397517772
30
0
41
1
10
75.5449485820984
20
104.074488338107
30
0
41
1
10
75.5434820876945
20
104.086239601968
30
0
41
1
10
75.5444966045698
20
104.109922743405
30
0
41
1
10
75.5473650996381
20
104.122094333614
30
0
41
1
10
75.5579472410437
20
104.144639098966
30
0
41
1
10
75.5661408170253
20
104.155147638494
30
0
41
1
10
75.5758524520476
20
104.163770784591
30
0
0
SPLINE
5
391
100
AcDbEntity
8
1
62
256
6
ByLayer
370
18
48
1
60
0
100
AcDbSpline
70
4
71
3
72
26
73
22
40
0
40
0
40
0
40
0
40
0.0843971137812519
40
0.0843971137812519
40
0.289834052491969
40
0.289834052491969
40
0.392095130870997
40
0.392095130870997
40
0.494452771537209
40
0.494452771537209
40
0.597019768820929
40
0.597019768820929
40
0.672954859098998
40
0.672954859098998
40
0.796883557884316
40
0.796883557884316
40
0.881282445819632
40
0.881282445819632
40
0.965825257041692
40
0.965825257041692
40
1
40
1
40
1
40
1
41
1
10
75.5241140113588
20
106.274831195599
30
0
41
1
10
75.5138222924926
20
106.267327809067
30
0
41
1
10
75.5037562811946
20
106.259517108221
30
0
41
1
10
75.4701321627399
20
106.231747917508
30
0
41
1
10
75.4477040268574
20
106.210289839818
30
0
41
1
10
75.4172879749189
20
106.175680859532
30
0
41
1
10
75.4076709602285
20
106.163719217998
30
0
41
1
10
75.3897820201535
20
106.138949796055
30
0
41
1
10
75.3814807442191
20
106.126101890474
30
0
41
1
10
75.3666957852844
20
106.099570033994
30
0
41
1
10
75.3601729929864
20
106.085812461413
30
0
41
1
10
75.3511196792506
20
106.061283677714
30
0
41
1
10
75.3479752802319
20
106.050604092062
30
0
41
1
10
75.3423368198463
20
106.022491284119
30
0
41
1
10
75.3414248234191
20
106.004457611943
30
0
41
1
10
75.3465694447426
20
105.976172373906
30
0
41
1
10
75.3506083555783
20
105.965025619286
30
0
41
1
10
75.3623869136301
20
105.94547639994
30
0
41
1
10
75.3702748145807
20
105.936846573695
30
0
41
1
10
75.3830360272372
20
105.927108990582
30
0
41
1
10
75.3869566097541
20
105.924535946375
30
0
41
1
10
75.3910319279258
20
105.922220609706
30
0
0
SPLINE
5
392
100
AcDbEntity
8
1
62
256
6
ByLayer
370
18
48
1
60
0
100
AcDbSpline
70
4
71
3
72
8
73
4
40
0
40
0
40
0
40
0
40
1
40
1
40
1
40
1
41
1
10
75.1285126985044
20
105.329965830985
30
0
41
1
10
75.1353996580567
20
105.331023491821
30
0
41
1
10
75.1422876256341
20
105.332081319596
30
0
41
1
10
75.1491766475309
20
105.333139322005
30
0
0
SPLINE
5
393
100
AcDbEntity
8
1
62
256
6
ByLayer
370
18
48
1
60
0
100
AcDbSpline
70
4
71
3
72
26
73
22
40
0
40
0
40
0
40
0
40
0.0286869624046741
40
0.0286869624046741
40
0.141758577072955
40
0.141758577072955
40
0.254859186747219
40
0.254859186747219
40
0.368025661656595
40
0.368025661656595
40
0.481336136143602
40
0.481336136143602
40
0.594988764681329
40
0.594988764681329
40
0.731770501834098
40
0.731770501834098
40
0.814572892185927
40
0.814572892185927
40
0.903908109635042
40
0.903908109635042
40
1
40
1
40
1
40
1
41
1
10
74.9534048394733
20
104.987286526761
30
0
41
1
10
74.9529507222696
20
104.99160716334
30
0
41
1
10
74.9525409705869
20
104.995932705251
30
0
41
1
10
74.9507371567782
20
105.01731635744
30
0
41
1
10
74.9499868840219
20
105.034444323123
30
0
41
1
10
74.9499283334829
20
105.068668906617
30
0
41
1
10
74.950619760551
20
105.085799527037
30
0
41
1
10
74.9535826979383
20
105.119880548586
30
0
41
1
10
74.9558574757325
20
105.136873684132
30
0
41
1
10
74.962231148673
20
105.170451001754
30
0
41
1
10
74.9663414919556
20
105.187097083666
30
0
41
1
10
74.9767869972721
20
105.219568446224
30
0
41
1
10
74.9831589472986
20
105.23549772167
30
0
41
1
10
75.0002317669497
20
105.268557089035
30
0
41
1
10
75.0117588817694
20
105.28567365431
30
0
41
1
10
75.0342414502074
20
105.308267477738
30
0
41
1
10
75.0438120847564
20
105.315784027843
30
0
41
1
10
75.065134491411
20
105.327586084189
30
0
41
1
10
75.0772954931865
20
105.331673402009
30
0
41
1
10
75.1025239495281
20
105.334811068248
30
0
41
1
10
75.115956621807
20
105.333530164996
30
0
41
1
10
75.1285126985044
20
105.329965830985
30
0
0
SPLINE
5
394
100
AcDbEntity
8
1
62
256
6
ByLayer
370
18
48
1
60
0
100
AcDbSpline
70
4
71
3
72
8
73
4
40
0
40
0
40
0
40
0
40
1
40
1
40
1
40
1
41
1
10
75.4029004874087
20
105.905551320068
30
0
41
1
10
75.3989438141657
20
105.911108823528
30
0
41
1
10
75.3949876348178
20
105.916665237281
30
0
41
1
10
75.3910319279258
20
105.922220609706
30
0
0
SPLINE
5
395
100
AcDbEntity
8
1
62
256
6
ByLayer
370
18
48
1
60
0
100
AcDbSpline
70
4
71
3
72
30
73
26
40
0
40
0
40
0
40
0
40
0.075448690821222
40
0.075448690821222
40
0.134142567439273
40
0.134142567439273
40
0.208789318447097
40
0.208789318447097
40
0.300864837338271
40
0.300864837338271
40
0.400373451415986
40
0.400373451415986
40
0.499841523429531
40
0.499841523429531
40
0.64479499723628
40
0.64479499723628
40
0.711843600985095
40
0.711843600985095
40
0.778927202841184
40
0.778927202841184
40
0.846083321820495
40
0.846083321820495
40
0.913400043300354
40
0.913400043300354
40
1
40
1
40
1
40
1
41
1
10
75.1491766475309
20
105.333139322005
30
0
41
1
10
75.1655201695837
20
105.33564932792
30
0
41
1
10
75.1816845196047
20
105.341226608533
30
0
41
1
10
75.2089096868808
20
105.354372678634
30
0
41
1
10
75.2204740755172
20
105.361308161827
30
0
41
1
10
75.2456462362201
20
105.378858538905
30
0
41
1
10
75.2590657559223
20
105.39003253257
30
0
41
1
10
75.2873785900949
20
105.416946130238
30
0
41
1
10
75.302007742858
20
105.433257682814
30
0
41
1
10
75.3302035579253
20
105.469092964578
30
0
41
1
10
75.3436907502402
20
105.488904551348
30
0
41
1
10
75.368126823043
20
105.529974920037
30
0
41
1
10
75.3791501847967
20
105.55136153029
30
0
41
1
10
75.4029030241666
20
105.604948967127
30
0
41
1
10
75.414297879843
20
105.638000289537
30
0
41
1
10
75.4261438365281
20
105.686671562564
30
0
41
1
10
75.4292042137362
20
105.702221019184
30
0
41
1
10
75.4337379404898
20
105.733281070022
30
0
41
1
10
75.4352192856576
20
105.748844462042
30
0
41
1
10
75.4363412992192
20
105.779724241107
30
0
41
1
10
75.435984443401
20
105.795108591246
30
0
41
1
10
75.4330343177634
20
105.825307712011
30
0
41
1
10
75.4304288244537
20
105.840221713116
30
0
41
1
10
75.4212524898893
20
105.872799961687
30
0
41
1
10
75.4136509877363
20
105.890451275384
30
0
41
1
10
75.4029004874087
20
105.905551320068
30
0
0
SPLINE
5
396
100
AcDbEntity
8
1
62
256
6
ByLayer
370
18
48
1
60
0
100
AcDbSpline
70
4
71
3
72
8
73
4
40
0
40
0
40
0
40
0
40
1
40
1
40
1
40
1
41
1
10
75.5758524520476
20
104.163770784591
30
0
41
1
10
75.5785666903791
20
104.170027196508
30
0
41
1
10
75.5812811743381
20
104.176284725227
30
0
41
1
10
75.5839959148365
20
104.182543422527
30
0
0
SPLINE
5
397
100
AcDbEntity
8
1
62
256
6
ByLayer
370
18
48
1
60
0
100
AcDbSpline
70
4
71
3
72
26
73
22
40
0
40
0
40
0
40
0
40
0.0843971137812515
40
0.0843971137812515
40
0.289834052491969
40
0.289834052491969
40
0.392095130870997
40
0.392095130870997
40
0.494452771537209
40
0.494452771537209
40
0.597019768820928
40
0.597019768820928
40
0.672954859098998
40
0.672954859098998
40
0.796883557884316
40
0.796883557884316
40
0.881282445819632
40
0.881282445819632
40
0.965825257041692
40
0.965825257041692
40
1
40
1
40
1
40
1
41
1
10
74.9534048394733
20
104.987286526761
30
0
41
1
10
74.9547399825043
20
104.974583489364
30
0
41
1
10
74.9564589748314
20
104.961914497045
30
0
41
1
10
74.9636709836194
20
104.91872513881
30
0
41
1
10
74.9710514588064
20
104.888395581759
30
0
41
1
10
74.9858924019646
20
104.84439664292
30
0
41
1
10
74.9914786849646
20
104.829954462843
30
0
41
1
10
75.0040829467023
20
104.801774218241
30
0
41
1
10
75.0111211182842
20
104.787990235535
30
0
41
1
10
75.0268666162032
20
104.761528024939
30
0
41
1
10
75.035618560618
20
104.748778076325
30
0
41
1
10
75.0525518659645
20
104.728226250256
30
0
41
1
10
75.0603358324745
20
104.7199529571
30
0
41
1
10
75.0821923734133
20
104.700401239226
30
0
41
1
10
75.0976129980851
20
104.690142111027
30
0
41
1
10
75.1252198015098
20
104.679577177792
30
0
41
1
10
75.1371457533105
20
104.677103957033
30
0
41
1
10
75.1605090817178
20
104.676705115776
30
0
41
1
10
75.1722241812932
20
104.67878412965
30
0
41
1
10
75.1874570130342
20
104.684367003351
30
0
41
1
10
75.1917682537194
20
104.68630218391
30
0
41
1
10
75.1959332052038
20
104.688502558559
30
0
0
SPLINE
5
398
100
AcDbEntity
8
1
62
256
6
ByLayer
370
18
48
1
60
0
100
AcDbSpline
70
4
71
3
72
8
73
4
40
0
40
0
40
0
40
0
40
1
40
1
40
1
40
1
41
1
10
75.2168054032495
20
104.689694692513
30
0
41
1
10
75.20984695194
20
104.689297266841
30
0
41
1
10
75.2028895682189
20
104.688899889555
30
0
41
1
10
75.1959332052038
20
104.688502558559
30
0
0
SPLINE
5
399
100
AcDbEntity
8
1
62
256
6
ByLayer
370
18
48
1
60
0
100
AcDbSpline
70
4
71
3
72
30
73
26
40
0
40
0
40
0
40
0
40
0.075448690821221
40
0.075448690821221
40
0.134142567439272
40
0.134142567439272
40
0.208789318447095
40
0.208789318447095
40
0.300864837338271
40
0.300864837338271
40
0.400373451415986
40
0.400373451415986
40
0.499841523429531
40
0.499841523429531
40
0.64479499723628
40
0.64479499723628
40
0.711843600985094
40
0.711843600985094
40
0.778927202841183
40
0.778927202841183
40
0.846083321820494
40
0.846083321820494
40
0.913400043300354
40
0.913400043300354
40
1
40
1
40
1
40
1
41
1
10
75.5839959148365
20
104.182543422527
30
0
41
1
10
75.5904363677582
20
104.19739156191
30
0
41
1
10
75.5941212218077
20
104.213646885074
30
0
41
1
10
75.5970651052537
20
104.242938346713
30
0
41
1
10
75.5971405761469
20
104.256069465484
30
0
41
1
10
75.5951661248364
20
104.285910223575
30
0
41
1
10
75.5925292529616
20
104.302750741593
30
0
41
1
10
75.584046230976
20
104.340007042004
30
0
41
1
10
75.577559364115
20
104.360500751232
30
0
41
1
10
75.5611966720893
20
104.402293001044
30
0
41
1
10
75.5510255867113
20
104.423676553861
30
0
41
1
10
75.5280417127491
20
104.465135333426
30
0
41
1
10
75.5151565648665
20
104.485338281296
30
0
41
1
10
75.4807813274269
20
104.532816211072
30
0
41
1
10
75.4578201259084
20
104.559454824741
30
0
41
1
10
75.421355423881
20
104.594654060521
30
0
41
1
10
75.4093167426732
20
104.605307825069
30
0
41
1
10
75.3844259610836
20
104.625291663122
30
0
41
1
10
75.3715316919305
20
104.634655960484
30
0
41
1
10
75.3449837619015
20
104.651734654344
30
0
41
1
10
75.331271655625
20
104.659486671564
30
0
41
1
10
75.3031695791715
20
104.672834183049
30
0
41
1
10
75.288685917187
20
104.678471459189
30
0
41
1
10
75.2552214326192
20
104.687875388246
30
0
41
1
10
75.235711900827
20
104.690774520075
30
0
41
1
10
75.2168054032495
20
104.689694692513
30
0
0
SPLINE
5
39A
100
AcDbEntity
8
1
62
256
6
ByLayer
370
18
48
1
60
0
100
AcDbSpline
70
4
71
3
72
10
73
6
40
0
40
0
40
0
40
0
40
0.464334219292775
40
0.464334219292775
40
1
40
1
40
1
40
1
41
1
10
15.9538602415033
20
-84.3581718624058
30
0
41
1
10
15.6429747671732
20
-84.2179418674635
30
0
41
1
10
15.3206110152421
20
-84.1069819428481
30
0
41
1
10
14.6309055032716
20
-83.9935012574424
30
0
41
1
10
14.2608836491314
20
-84.0117064435846
30
0
41
1
10
13.9098039099192
20
-84.0745572239601
30
0
0
SPLINE
5
39B
100
AcDbEntity
8
1
62
256
6
ByLayer
370
18
48
1
60
0
100
AcDbSpline
70
2053
71
3
72
22
73
18
40
0
40
0
40
0
40
0
40
0.125
40
0.125
40
0.25
40
0.25
40
0.375
40
0.375
40
0.5
40
0.5
40
0.625
40
0.625
40
0.75
40
0.75
40
0.875
40
0.875
40
1
40
1
40
1
40
1
41
1
10
37.0000000000001
20
102.922328469458
30
0
41
1
10
36.0732368990613
20
102.922328469458
30
0
41
1
10
35.2254934998449
20
102.880483197651
30
0
41
1
10
34.102866262591
20
102.663594306702
30
0
41
1
10
33.7825771621527
20
102.481746560191
30
0
41
1
10
33.7220916847873
20
101.980693343335
30
0
41
1
10
33.9997773267768
20
101.654412084144
30
0
41
1
10
35.1698602251505
20
101.102496321835
30
0
41
1
10
36.071165577662
20
100.898250402389
30
0
41
1
10
37.9069625151609
20
100.895342867504
30
0
41
1
10
38.8076462390394
20
101.095090943558
30
0
41
1
10
39.9944930728242
20
101.648580448864
30
0
41
1
10
40.2765970292428
20
101.977265200437
30
0
41
1
10
40.2192368580587
20
102.48088895337
30
0
41
1
10
39.9006941627175
20
102.662516735594
30
0
41
1
10
38.7766162525737
20
102.880463344756
30
0
41
1
10
37.9267631009388
20
102.922328469458
30
0
41
1
10
37.0000000000001
20
102.922328469458
30
0
0
SPLINE
5
39C
100
AcDbEntity
8
1
62
256
6
ByLayer
370
18
48
1
60
0
100
AcDbSpline
70
4
71
3
72
10
73
6
40
0
40
0
40
0
40
0
40
0.5
40
0.5
40
1
40
1
40
1
40
1
41
1
10
77.3999891742595
20
-101.54088303691
30
0
41
1
10
77.4094037493279
20
-101.644799922787
30
0
41
1
10
77.4135107105225
20
-101.748686396539
30
0
41
1
10
77.4108692304819
20
-101.956397143616
30
0
41
1
10
77.4041205558053
20
-102.060259215551
30
0
41
1
10
77.3915475566647
20
-102.164010463591
30
0
0
SPLINE
5
39D
100
AcDbEntity
8
1
62
256
6
ByLayer
370
18
48
1
60
0
100
AcDbSpline
70
4
71
3
72
12
73
8
40
0
40
0
40
0
40
0
40
0.250000000000001
40
0.250000000000001
40
0.500000000000002
40
0.500000000000002
40
1
40
1
40
1
40
1
41
1
10
64.4865140712486
20
-72.1666419935816
30
0
41
1
10
63.3239418020819
20
-72.1666419935816
30
0
41
1
10
62.2962091757167
20
-72.1473384807244
30
0
41
1
10
60.3627457964973
20
-71.9106612876978
30
0
41
1
10
59.4934900106345
20
-71.6991878292998
30
0
41
1
10
57.1327884979435
20
-70.6107507094929
30
0
41
1
10
55.9506958927958
20
-69.2356400597555
30
0
41
1
10
55.5567940008974
20
-67.1666419935816
30
0
0
SPLINE
5
39E
100
AcDbEntity
8
1
62
256
6
ByLayer
370
18
48
1
60
0
100
AcDbSpline
70
4
71
3
72
24
73
20
40
0
40
0
40
0
40
0
40
0.0542050183042762
40
0.0542050183042762
40
0.107981670897782
40
0.107981670897782
40
0.200063088022864
40
0.200063088022864
40
0.287557973746623
40
0.287557973746623
40
0.437245391037914
40
0.437245391037914
40
0.586297894013349
40
0.586297894013349
40
0.735167849478759
40
0.735167849478759
40
0.951606980510076
40
0.951606980510076
40
1
40
1
40
1
40
1
41
1
10
75.6334135742176
20
-104.318436797337
30
0
41
1
10
75.7216764086398
20
-104.324703948063
30
0
41
1
10
75.8117513490906
20
-104.322447516756
30
0
41
1
10
75.9795990873295
20
-104.302399139556
30
0
41
1
10
76.059454127576
20
-104.284709216631
30
0
41
1
10
76.2562577771331
20
-104.223871859022
30
0
41
1
10
76.3636705775657
20
-104.171099952207
30
0
41
1
10
76.544672538114
20
-104.057950768859
30
0
41
1
10
76.6213709004586
20
-103.996985965241
30
0
41
1
10
76.8056434701704
20
-103.825160831456
30
0
41
1
10
76.8981139231215
20
-103.70851420225
30
0
41
1
10
77.0527994995781
20
-103.470260669786
30
0
41
1
10
77.1152321967481
20
-103.347795395006
30
0
41
1
10
77.2186619293622
20
-103.099929938833
30
0
41
1
10
77.2596945570025
20
-102.974192766197
30
0
41
1
10
77.3394837509339
20
-102.663478831765
30
0
41
1
10
77.3689123474877
20
-102.477072559497
30
0
41
1
10
77.387093086855
20
-102.247947145808
30
0
41
1
10
77.3896789528025
20
-102.206000684749
30
0
41
1
10
77.3915475566663
20
-102.164010463587
30
0
0
SPLINE
5
39F
100
AcDbEntity
8
1
62
256
6
ByLayer
370
18
48
1
60
0
100
AcDbSpline
70
4
71
3
72
47
73
43
40
0
40
0
40
0
40
0
40
0.0624999999999694
40
0.0624999999999694
40
0.093749999999967
40
0.093749999999967
40
0.124999999999965
40
0.124999999999965
40
0.18749999999996
40
0.18749999999996
40
0.218749999999959
40
0.218749999999959
40
0.249999999999958
40
0.281249999999957
40
0.281249999999957
40
0.312499999999956
40
0.312499999999956
40
0.37499999999996
40
0.37499999999996
40
0.437499999999963
40
0.437499999999963
40
0.499999999999967
40
0.499999999999967
40
0.531249999999974
40
0.531249999999974
40
0.56249999999998
40
0.593749999999987
40
0.593749999999987
40
0.624999999999994
40
0.624999999999994
40
0.687499999999993
40
0.687499999999993
40
0.718749999999992
40
0.718749999999992
40
0.749999999999991
40
0.781249999999991
40
0.781249999999991
40
0.81249999999999
40
0.81249999999999
40
0.874999999999993
40
0.937499999999997
40
1
40
1
40
1
40
1
41
1
10
76.1583455553731
20
-105.413671763382
30
0
41
1
10
76.2268106867101
20
-105.418533167396
30
0
41
1
10
76.2952325102513
20
-105.419858648409
30
0
41
1
10
76.3978009176905
20
-105.416594734611
30
0
41
1
10
76.4319796442222
20
-105.414629668172
30
0
41
1
10
76.5003154616257
20
-105.408933062865
30
0
41
1
10
76.5344401421568
20
-105.405201483954
30
0
41
1
10
76.6362111566814
20
-105.391421034668
30
0
41
1
10
76.7034352560459
20
-105.378779968893
30
0
41
1
10
76.8033344057694
20
-105.354625394802
30
0
41
1
10
76.836508587821
20
-105.34569531377
30
0
41
1
10
76.9021823449905
20
-105.326192867467
30
0
41
1
10
76.9672606848509
20
-105.30503246594
30
0
41
1
10
77.0311537637469
20
-105.280571673955
30
0
41
1
10
77.0944523028146
20
-105.254455370114
30
0
41
1
10
77.1258475772935
20
-105.240548267757
30
0
41
1
10
77.2187726671153
20
-105.196490199063
30
0
41
1
10
77.2789990018654
20
-105.164044129729
30
0
41
1
10
77.3960222271762
20
-105.093036055304
30
0
41
1
10
77.4529150547451
20
-105.054380805769
30
0
41
1
10
77.5620172324327
20
-104.971754482256
30
0
41
1
10
77.6143722395171
20
-104.927710677395
30
0
41
1
10
77.6895880092849
20
-104.857520881591
30
0
41
1
10
77.7140660134276
20
-104.833469800813
30
0
41
1
10
77.7616506603606
20
-104.784252694548
30
0
41
1
10
77.8079221547076
20
-104.733867006671
30
0
41
1
10
77.8515736758726
20
-104.68114979044
30
0
41
1
10
77.8939079988237
20
-104.62726039237
30
0
41
1
10
77.9144278905912
20
-104.599709213565
30
0
41
1
10
77.9736635292801
20
-104.515755383787
30
0
41
1
10
78.0101777781084
20
-104.457916342916
30
0
41
1
10
78.0604879009414
20
-104.368354944316
30
0
41
1
10
78.0765339768594
20
-104.337988724518
30
0
41
1
10
78.10698964063
20
-104.276577518088
30
0
41
1
10
78.1358162578758
20
-104.214487765642
30
0
41
1
10
78.1614048063134
20
-104.151049261848
30
0
41
1
10
78.1853715012421
20
-104.086935208141
30
0
41
1
10
78.1965548243378
20
-104.054505607606
30
0
41
1
10
78.2275771407199
20
-103.956421165871
30
0
41
1
10
78.2619104686651
20
-103.824537939585
30
0
41
1
10
78.2929528259936
20
-103.623500383637
30
0
41
1
10
78.3
20
-103.487332073601
30
0
41
1
10
78.3000000000001
20
-103.418694565939
30
0
0
SPLINE
5
3A0
100
AcDbEntity
8
1
62
256
6
ByLayer
370
18
48
1
60
0
100
AcDbSpline
70
4
71
3
72
8
73
4
40
0
40
0
40
0
40
0
40
1
40
1
40
1
40
1
41
1
10
5.91831224201144
20
-70.7820776342928
30
0
41
1
10
4.56826438354494
20
-68.9731389591049
30
0
41
1
10
3.80771644934714
20
-66.7212729086863
30
0
41
1
10
3.52248640811695
20
-64.3719225407388
30
0
0
SPLINE
5
3A1
100
AcDbEntity
8
1
62
256
6
ByLayer
370
18
48
1
60
0
100
AcDbSpline
70
4
71
3
72
14
73
10
40
0
40
0
40
0
40
0
40
0.25
40
0.25
40
0.5
40
0.5
40
0.75
40
0.75
40
1
40
1
40
1
40
1
41
1
10
3.52248640811706
20
-64.3719225407386
30
0
41
1
10
3.29937978200735
20
-62.5342632539343
30
0
41
1
10
3.07868668588935
20
-60.6962430558015
30
0
41
1
10
2.64317505195197
20
-57.0193241974296
30
0
41
1
10
2.42835405920971
20
-55.1804259042915
30
0
41
1
10
2.00591340036522
20
-51.5015524553397
30
0
41
1
10
1.79829067315689
20
-49.6615777572738
30
0
41
1
10
1.39193899504994
20
-45.9802984151148
30
0
41
1
10
1.19320645960988
20
-44.1389943070423
30
0
41
1
10
1
20
-42.2968638477845
30
0
0
SPLINE
5
3A2
100
AcDbEntity
8
1
62
256
6
ByLayer
370
18
48
1
60
0
100
AcDbSpline
70
4
71
3
72
8
73
4
40
0
40
0
40
0
40
0
40
1
40
1
40
1
40
1
41
1
10
0.300000000000068
20
-42.6845665577411
30
0
41
1
10
0.199993648927489
20
-42.5988765768657
30
0
41
1
10
0.0999936105305324
20
-42.5131769538963
30
0
41
1
10
0
20
-42.4274675181067
30
0
0
SPLINE
5
3A3
100
AcDbEntity
8
1
62
256
6
ByLayer
370
18
48
1
60
0
100
AcDbSpline
70
4
71
3
72
8
73
4
40
0
40
0
40
0
40
0
40
1
40
1
40
1
40
1
41
1
10
0
20
42.4274675181067
30
0
41
1
10
0.0999936105305324
20
42.5131769538963
30
0
41
1
10
0.199993648927489
20
42.5988765768657
30
0
41
1
10
0.299999999999955
20
42.6845665577411
30
0
0
SPLINE
5
3A4
100
AcDbEntity
8
1
62
256
6
ByLayer
370
18
48
1
60
0
100
AcDbSpline
70
4
71
3
72
14
73
10
40
0
40
0
40
0
40
0
40
0.25
40
0.25
40
0.5
40
0.5
40
0.75
40
0.75
40
1
40
1
40
1
40
1
41
1
10
1
20
42.2968638477846
30
0
41
1
10
1.19320645960988
20
44.1389943070423
30
0
41
1
10
1.39193899504994
20
45.9802984151148
30
0
41
1
10
1.79829067315689
20
49.6615777572738
30
0
41
1
10
2.00591340036522
20
51.5015524553398
30
0
41
1
10
2.42835405920971
20
55.1804259042915
30
0
41
1
10
2.64317505195197
20
57.0193241974296
30
0
41
1
10
3.07868668588935
20
60.6962430558015
30
0
41
1
10
3.29937978200735
20
62.5342632539343
30
0
41
1
10
3.52248640811695
20
64.3719225407386
30
0
0
SPLINE
5
3A5
100
AcDbEntity
8
1
62
256
6
ByLayer
370
18
48
1
60
0
100
AcDbSpline
70
4
71
3
72
8
73
4
40
0
40
0
40
0
40
0
40
1
40
1
40
1
40
1
41
1
10
3.52248640811706
20
64.3719225407386
30
0
41
1
10
3.80731015783726
20
66.7179264129794
30
0
41
1
10
4.57015565584413
20
68.9756730882367
30
0
41
1
10
5.91831224201144
20
70.7820776342929
30
0
0
SPLINE
5
3A6
100
AcDbEntity
8
1
62
256
6
ByLayer
370
18
48
1
60
0
100
AcDbSpline
70
4
71
3
72
10
73
6
40
0
40
0
40
0
40
0
40
0.5
40
0.5
40
1
40
1
40
1
40
1
41
1
10
11.7306378226036
20
-83.5681878867412
30
0
41
1
10
9.54998838106837
20
-81.7774048957732
30
0
41
1
10
8.39139390898231
20
-79.5743271227644
30
0
41
1
10
6.7090366590088
20
-75.2246305143509
30
0
41
1
10
6.2306831625674
20
-73.0119969386179
30
0
41
1
10
5.91831224201144
20
-70.7820776342928
30
0
0
SPLINE
5
3A7
100
AcDbEntity
8
1
62
256
6
ByLayer
370
18
48
1
60
0
100
AcDbSpline
70
4
71
3
72
12
73
8
40
0
40
0
40
0
40
0
40
0.499999999999999
40
0.499999999999999
40
0.75
40
0.75
40
1
40
1
40
1
40
1
41
1
10
5.91831224201144
20
70.7820776342929
30
0
41
1
10
6.23102102873668
20
73.0144088606107
30
0
41
1
10
6.71425725312781
20
75.2481931971053
30
0
41
1
10
7.98652664879228
20
78.5224097844094
30
0
41
1
10
8.50632850198508
20
79.6044614995297
30
0
41
1
10
9.83770612851538
20
81.676035616682
30
0
41
1
10
10.6457654873902
20
82.6772739744601
30
0
41
1
10
11.7306378226036
20
83.5681878867413
30
0
0
SPLINE
5
3A8
100
AcDbEntity
8
1
62
256
6
ByLayer
370
18
48
1
60
0
100
AcDbSpline
70
4
71
3
72
8
73
4
40
0
40
0
40
0
40
0
40
1
40
1
40
1
40
1
41
1
10
12.7076249756291
20
-84.3223047061697
30
0
41
1
10
12.3806598184966
20
-84.0856539980151
30
0
41
1
10
12.054992729182
20
-83.8345531441155
30
0
41
1
10
11.7306378226036
20
-83.5681878867412
30
0
0
SPLINE
5
3A9
100
AcDbEntity
8
1
62
256
6
ByLayer
370
18
48
1
60
0
100
AcDbSpline
70
4
71
3
72
14
73
10
40
0
40
0
40
0
40
0
40
0.25
40
0.25
40
0.5
40
0.5
40
0.75
40
0.75
40
1
40
1
40
1
40
1
41
1
10
12.7076249756291
20
-84.3223047061697
30
0
41
1
10
12.0283653500904
20
-84.3220381625506
30
0
41
1
10
11.5751092538208
20
-84.4161637967752
30
0
41
1
10
11.3718157336621
20
-84.9196864328864
30
0
41
1
10
11.628392140092
20
-85.3362330195591
30
0
41
1
10
12.6956324809115
20
-86.189872503973
30
0
41
1
10
13.5086059757959
20
-86.6213709911252
30
0
41
1
10
15.3614717551309
20
-87.1701313691328
30
0
41
1
10
16.4187980984472
20
-87.2871460856041
30
0
41
1
10
17.386239370499
20
-87.2087467670538
30
0
0
SPLINE
5
3AA
100
AcDbEntity
8
1
62
256
6
ByLayer
370
18
48
1
60
0
100
AcDbSpline
70
4
71
3
72
65
73
61
40
0
40
0
40
0
40
0
40
0.0624684023911073
40
0.0624684023911073
40
0.124936804782215
40
0.124936804782215
40
0.140553905379991
40
0.140553905379991
40
0.156171005977768
40
0.156171005977768
40
0.18740520717333
40
0.18740520717333
40
0.249873609564454
40
0.249873609564454
40
0.281107810760016
40
0.281107810760016
40
0.296724911357797
40
0.304533461656688
40
0.304533461656688
40
0.312342011955578
40
0.312342011955578
40
0.374810414346725
40
0.374810414346725
40
0.437278816737872
40
0.437278816737872
40
0.452895917335657
40
0.452895917335657
40
0.468513017933443
40
0.468513017933443
40
0.499747219129015
40
0.499747219129015
40
0.56221562152016
40
0.56221562152016
40
0.624684023911304
40
0.624684023911304
40
0.640301124509091
40
0.640301124509091
40
0.655918225106878
40
0.687152426302452
40
0.687152426302452
40
0.749620828693599
40
0.749620828693599
40
0.780855029889173
40
0.780855029889173
40
0.796472130486958
40
0.796472130486958
40
0.812089231084744
40
0.812089231084744
40
0.874557633475886
40
0.874557633475886
40
0.937026035867028
40
0.937026035867028
40
0.968260237062599
40
0.968260237062599
40
0.976068787361491
40
0.976068787361491
40
0.983877337660384
40
0.999494438258169
40
0.999494438258169
40
1
40
1
40
1
40
1
41
1
10
17.3862393704991
20
-89.8923751387365
30
0
41
1
10
17.1906669403617
20
-89.8871835679068
30
0
41
1
10
16.9904105389775
20
-89.878403466656
30
0
41
1
10
16.5810328272141
20
-89.8526688536
30
0
41
1
10
16.371909798395
20
-89.8357179007704
30
0
41
1
10
16.1049763985587
20
-89.8087385717637
30
0
41
1
10
16.051312100256
20
-89.8030527764943
30
0
41
1
10
15.9434239624159
20
-89.7910823243531
30
0
41
1
10
15.8891453460749
20
-89.7847910125196
30
0
41
1
10
15.7258187817661
20
-89.7650323071367
30
0
41
1
10
15.6170818721643
20
-89.7507795012308
30
0
41
1
10
15.291318264883
20
-89.7047743730845
30
0
41
1
10
15.0747387710409
20
-89.6697773842939
30
0
41
1
10
14.7507803691622
20
-89.6107328023825
30
0
41
1
10
14.6429460169264
20
-89.5899592543382
30
0
41
1
10
14.4814240427705
20
-89.5571488630932
30
0
41
1
10
14.400720442729
20
-89.5403310999806
30
0
41
1
10
14.3201032618828
20
-89.5228917646012
30
0
41
1
10
14.2663777154838
20
-89.5111270785795
30
0
41
1
10
14.2395017970152
20
-89.5051703330823
30
0
41
1
10
13.9984517784769
20
-89.4511036309697
30
0
41
1
10
13.7894185766444
20
-89.3996652401173
30
0
41
1
10
13.3811333363406
20
-89.2907895602357
30
0
41
1
10
13.1818837690167
20
-89.2333492823791
30
0
41
1
10
12.9387901081066
20
-89.1582744608397
30
0
41
1
10
12.8904708139174
20
-89.1430959149567
30
0
41
1
10
12.7944315104573
20
-89.112424402285
30
0
41
1
10
12.7466480545297
20
-89.0969104135456
30
0
41
1
10
12.6046554683222
20
-89.050067550837
30
0
41
1
10
12.5121294050304
20
-89.0185488044573
30
0
41
1
10
12.2407166684302
20
-88.9233573208323
30
0
41
1
10
12.0679699455724
20
-88.859043542425
30
0
41
1
10
11.7382458826206
20
-88.73005657304
30
0
41
1
10
11.5812676456327
20
-88.6653774497445
30
0
41
1
10
11.3950348505942
20
-88.5852981173676
30
0
41
1
10
11.3582584962768
20
-88.5693072570735
30
0
41
1
10
11.2862021445301
20
-88.5376468063741
30
0
41
1
10
11.1801855452119
20
-88.490562923054
30
0
41
1
10
11.0802830246411
20
-88.4448108522774
30
0
41
1
10
10.8885020357944
20
-88.3554052546328
30
0
41
1
10
10.7713081360261
20
-88.2985855324096
30
0
41
1
10
10.6116910828492
20
-88.2190340688187
30
0
41
1
10
10.5611904811202
20
-88.1934664539926
30
0
41
1
10
10.4896129077711
20
-88.1567631642978
30
0
41
1
10
10.4664499588866
20
-88.1448037137626
30
0
41
1
10
10.4215447328422
20
-88.1214759893118
30
0
41
1
10
10.3997606003146
20
-88.110085572679
30
0
41
1
10
10.2952175520418
20
-88.0551119335126
30
0
41
1
10
10.2252078450007
20
-88.0172922731179
30
0
41
1
10
10.1119722240651
20
-87.9553723425976
30
0
41
1
10
10.0687448434385
20
-87.9312705186911
30
0
41
1
10
10.0247596596854
20
-87.9066356646117
30
0
41
1
10
10.0135855419802
20
-87.9003456725491
30
0
41
1
10
10.0041552056104
20
-87.8950312807904
30
0
41
1
10
10.0024953856222
20
-87.8940953525471
30
0
41
1
10
9.99964683262567
20
-87.892488596187
30
0
41
1
10
9.99607447684002
20
-87.8904725949665
30
0
41
1
10
9.99458527458432
20
-87.8896313756848
30
0
41
1
10
9.99450266965493
20
-87.8895847248741
30
0
41
1
10
9.99450112575398
20
-87.8895838549284
30
0
41
1
10
9.9945002528979
20
-87.8895833667478
30
0
0
SPLINE
5
3AB
100
AcDbEntity
8
1
62
256
6
ByLayer
370
18
48
1
60
0
100
AcDbSpline
70
4
71
3
72
62
73
58
40
0
40
0
40
0
40
0
40
0.06168386100955
40
0.06168386100955
40
0.0929610656425667
40
0.0929610656425667
40
0.108599667959075
40
0.108599667959075
40
0.124238270275583
40
0.124238270275583
40
0.186792679541616
40
0.186792679541616
40
0.249347088807649
40
0.249347088807649
40
0.264985691124156
40
0.264985691124156
40
0.280624293440663
40
0.311901498073677
40
0.311901498073677
40
0.374455907339707
40
0.374455907339707
40
0.405733111972722
40
0.405733111972722
40
0.42137171428923
40
0.42137171428923
40
0.437010316605738
40
0.437010316605738
40
0.499564725871772
40
0.499564725871772
40
0.562119135137805
40
0.562119135137805
40
0.577757737454316
40
0.577757737454316
40
0.585577038612574
40
0.585577038612574
40
0.593396339770831
40
0.624673544403851
40
0.624673544403851
40
0.68722795366989
40
0.68722795366989
40
0.749782362935929
40
0.749782362935929
40
0.757601664094181
40
0.757601664094181
40
0.765420965252434
40
0.781059567568939
40
0.812336772201951
40
0.812336772201951
40
0.874891181467975
40
0.874891181467975
40
0.906168386100983
40
0.906168386100983
40
0.921806988417487
40
0.921806988417487
40
0.937445590733991
40
0.937445590733991
40
1
40
1
40
1
40
1
41
1
10
9.99450034710139
20
87.8895834312478
30
0
41
1
10
9.9945838609641
20
87.889631434879
30
0
41
1
10
10.0088051403177
20
87.8976921488064
30
0
41
1
10
10.0510593972662
20
87.9213688585902
30
0
41
1
10
10.0688402127341
20
87.9313026516273
30
0
41
1
10
10.1009013195848
20
87.9490910560114
30
0
41
1
10
10.1124874080259
20
87.9555018593475
30
0
41
1
10
10.1374741130703
20
87.9692761475068
30
0
41
1
10
10.1509035754132
20
87.9766553537881
30
0
41
1
10
10.2221256978243
20
88.0156261861679
30
0
41
1
10
10.2922072477186
20
88.0534943612814
30
0
41
1
10
10.4571548278884
20
88.1402990559135
30
0
41
1
10
10.5520270376601
20
88.1892405725471
30
0
41
1
10
10.6861599552225
20
88.2561611457745
30
0
41
1
10
10.71380919921
20
88.2698537113765
30
0
41
1
10
10.7703386848324
20
88.2976198389332
30
0
41
1
10
10.8570564096667
20
88.3398797703408
30
0
41
1
10
10.9494517846459
20
88.3838026017254
30
0
41
1
10
11.141677347662
20
88.473464083919
30
0
41
1
10
11.2797064693765
20
88.5356489212653
30
0
41
1
10
11.501683154789
20
88.6311843424888
30
0
41
1
10
11.5781728607834
20
88.6634088032812
30
0
41
1
10
11.6967479596017
20
88.7121660903754
30
0
41
1
10
11.7369194715864
20
88.7284902296094
30
0
41
1
10
11.8180328248185
20
88.7610445855635
30
0
41
1
10
11.8590379080914
20
88.7773010322813
30
0
41
1
10
12.0662923206497
20
88.8584218214054
30
0
41
1
10
12.2392005696668
20
88.9227927708017
30
0
41
1
10
12.5993537067493
20
89.0491730123341
30
0
41
1
10
12.7865967812123
20
89.1111870942306
30
0
41
1
10
13.0301440278642
20
89.1865071012126
30
0
41
1
10
13.0793300530875
20
89.2014613893315
30
0
41
1
10
13.1538400295271
20
89.2237149134577
30
0
41
1
10
13.1788117286296
20
89.2311068606432
30
0
41
1
10
13.2288231473481
20
89.245777250919
30
0
41
1
10
13.3541217274766
20
89.2821996703182
30
0
41
1
10
13.480765865359
20
89.3173415000973
30
0
41
1
10
13.7872905654068
20
89.3991304900103
30
0
41
1
10
13.995070227955
20
89.450254985679
30
0
41
1
10
14.4176689042557
20
89.5452201170897
30
0
41
1
10
14.6324860057463
20
89.589062726337
30
0
41
1
10
14.8783809856036
20
89.6340008428454
30
0
41
1
10
14.9057895162792
20
89.6389379281949
30
0
41
1
10
14.9605498620553
20
89.6486581233985
30
0
41
1
10
15.0426161401995
20
89.663009975398
30
0
41
1
10
15.2335867704247
20
89.694912492549
30
0
41
1
10
15.3963952321136
20
89.7195864487085
30
0
41
1
10
15.7208373893231
20
89.7654849442742
30
0
41
1
10
15.9355722041131
20
89.7914872199303
30
0
41
1
10
16.2552182457186
20
89.8239841236117
30
0
41
1
10
16.3613560054369
20
89.8337312967539
30
0
41
1
10
16.519916316523
20
89.8467681258338
30
0
41
1
10
16.5727383257319
20
89.8508551268626
30
0
41
1
10
16.6777653793478
20
89.8584800699143
30
0
41
1
10
16.7299220757661
20
89.8620154023756
30
0
41
1
10
16.9889280093757
20
89.8783600094785
30
0
41
1
10
17.1904682814994
20
89.8871782944051
30
0
41
1
10
17.3862393704991
20
89.8923751387365
30
0
0
SPLINE
5
3AC
100
AcDbEntity
8
1
62
256
6
ByLayer
370
18
48
1
60
0
100
AcDbSpline
70
4
71
3
72
8
73
4
40
0
40
0
40
0
40
0
40
1
40
1
40
1
40
1
41
1
10
11.7306378226037
20
83.5681878867413
30
0
41
1
10
13.5726754906904
20
85.0808976611328
30
0
41
1
10
15.4804643672861
20
86.1300406538886
30
0
41
1
10
17.386239370499
20
86.7301744826403
30
0
0
SPLINE
5
3AD
100
AcDbEntity
8
1
62
256
6
ByLayer
370
18
48
1
60
0
100
AcDbSpline
70
4
71
3
72
8
73
4
40
0
40
0
40
0
40
0
40
1
40
1
40
1
40
1
41
1
10
17.386239370499
20
-87.2087467670537
30
0
41
1
10
18.3764370159909
20
-87.1285033219172
30
0
41
1
10
19.2235280403168
20
-86.964920752603
30
0
41
1
10
19.7834762052083
20
-86.7301744826403
30
0
0
SPLINE
5
3AE
100
AcDbEntity
8
1
62
256
6
ByLayer
370
18
48
1
60
0
100
AcDbSpline
70
4
71
3
72
18
73
14
40
0
40
0
40
0
40
0
40
0.249999999999986
40
0.249999999999986
40
0.499999999999973
40
0.499999999999973
40
0.62499999999997
40
0.62499999999997
40
0.687499999999968
40
0.687499999999968
40
0.749999999999966
40
0.749999999999966
40
1
40
1
40
1
40
1
41
1
10
14.4945270362268
20
-83.5681878867412
30
0
41
1
10
14.3217656569182
20
-83.6096288726524
30
0
41
1
10
14.1551125233943
20
-83.6574581487234
30
0
41
1
10
13.833160238215
20
-83.7642991733966
30
0
41
1
10
13.6778643221246
20
-83.8233154377079
30
0
41
1
10
13.4532061308862
20
-83.9193918972882
30
0
41
1
10
13.3797049731575
20
-83.9526793058293
30
0
41
1
10
13.2715369514988
20
-84.0044254735894
30
0
41
1
10
13.2358284789602
20
-84.0219768860603
30
0
41
1
10
13.1651107404159
20
-84.0576742711529
30
0
41
1
10
13.1301702389853
20
-84.0757868707302
30
0
41
1
10
12.9582887081855
20
-84.1672182540881
30
0
41
1
10
12.8290337006765
20
-84.2434997916248
30
0
41
1
10
12.7076249756291
20
-84.3223047061696
30
0
0
SPLINE
5
3AF
100
AcDbEntity
8
1
62
256
6
ByLayer
370
18
48
1
60
0
100
AcDbSpline
70
4
71
3
72
16
73
12
40
0
40
0
40
0
40
0
40
0.216003740458528
40
0.216003740458528
40
0.432024900671481
40
0.432024900671481
40
0.647750658007641
40
0.647750658007641
40
0.862642996763374
40
0.862642996763374
40
1
40
1
40
1
40
1
41
1
10
21
20
-89.6656985697429
30
0
41
1
10
21
20
-89.6579343586108
30
0
41
1
10
21.0155560036747
20
-89.6499206869981
30
0
41
1
10
21.075222900466
20
-89.6347642846436
30
0
41
1
10
21.1201629619951
20
-89.6274141024203
30
0
41
1
10
21.2327907780119
20
-89.6145163821051
30
0
41
1
10
21.3020117718343
20
-89.6087910834003
30
0
41
1
10
21.4545853147832
20
-89.5998914915245
30
0
41
1
10
21.5399967811204
20
-89.5965875780795
30
0
41
1
10
21.684017812975
20
-89.5935605765318
30
0
41
1
10
21.742178627941
20
-89.5929545221051
30
0
41
1
10
21.8000000000001
20
-89.5929545221051
30
0
0
SPLINE
5
3B0
100
AcDbEntity
8
1
62
256
6
ByLayer
370
18
48
1
60
0
100
AcDbSpline
70
4
71
3
72
34
73
30
40
0
40
0
40
0
40
0
40
0.1243450049297
40
0.1243450049297
40
0.249438575654013
40
0.249438575654013
40
0.265075271994552
40
0.265075271994552
40
0.280711968335092
40
0.31198536101617
40
0.374532146378332
40
0.374532146378332
40
0.49962571710265
40
0.49962571710265
40
0.562172502464813
40
0.562172502464813
40
0.577809198805353
40
0.577809198805353
40
0.593445895145894
40
0.624719287826976
40
0.624719287826976
40
0.749812858551322
40
0.749812858551322
40
0.874906429275668
40
0.874906429275668
40
0.906179821956754
40
0.906179821956754
40
0.937453214637841
40
1
40
1
40
1
40
1
41
1
10
20.0054991528568
20
-89.9999999524969
30
0
41
1
10
20.0053697796545
20
-89.9999927145191
30
0
41
1
10
19.9904321499802
20
-89.9991584115005
30
0
41
1
10
19.9312405948537
20
-89.9958956011698
30
0
41
1
10
19.8868136038973
20
-89.9934573106834
30
0
41
1
10
19.8196096888486
20
-89.9898524929653
30
0
41
1
10
19.8118972377348
20
-89.9894397257594
30
0
41
1
10
19.7960480227395
20
-89.9885936314486
30
0
41
1
10
19.7716198897991
20
-89.9872926936484
30
0
41
1
10
19.7100762001241
20
-89.9840401936419
30
0
41
1
10
19.6496410277697
20
-89.9808992557073
30
0
41
1
10
19.5186827052584
20
-89.974195527692
30
0
41
1
10
19.4179713424469
20
-89.9691637018248
30
0
41
1
10
19.2465954439396
20
-89.9609653504382
30
0
41
1
10
19.1860742542531
20
-89.9581241435083
30
0
41
1
10
19.1060684410024
20
-89.9544579900997
30
0
41
1
10
19.0898355893838
20
-89.9537184147764
30
0
41
1
10
19.0570450707471
20
-89.9522335253704
30
0
41
1
10
19.0073445867412
20
-89.9499963039488
30
0
41
1
10
18.9561124707885
20
-89.9477325174705
30
0
41
1
10
18.7819787318045
20
-89.9401410012456
30
0
41
1
10
18.6319649999062
20
-89.9339224404495
30
0
41
1
10
18.3108893677958
20
-89.9215281463234
30
0
41
1
10
18.139829325214
20
-89.9153514001766
30
0
41
1
10
17.9123555435878
20
-89.9078679372918
30
0
41
1
10
17.8661766551542
20
-89.9063833466061
30
0
41
1
10
17.7729234532006
20
-89.9034587895574
30
0
41
1
10
17.6315222808606
20
-89.8991329752903
30
0
41
1
10
17.4855727278911
20
-89.8950119938406
30
0
41
1
10
17.386239370499
20
-89.8923751387364
30
0
0
SPLINE
5
3B1
100
AcDbEntity
8
1
62
256
6
ByLayer
370
18
48
1
60
0
100
AcDbSpline
70
4
71
3
72
16
73
12
40
0
40
0
40
0
40
0
40
0.213801454696273
40
0.213801454696273
40
0.427574162000825
40
0.427574162000825
40
0.641801096983845
40
0.641801096983845
40
0.856941447455032
40
0.856941447455032
40
1
40
1
40
1
40
1
41
1
10
21.8000000000001
20
89.5929545221052
30
0
41
1
10
21.7107544341381
20
89.5929545221052
30
0
41
1
10
21.6202784760475
20
89.5944240690106
30
0
41
1
10
21.4518696100532
20
89.6000110255143
30
0
41
1
10
21.3716178154914
20
89.6042025790182
30
0
41
1
10
21.2320409761961
20
89.6145831802094
30
0
41
1
10
21.1708407950465
20
89.6209155511391
30
0
41
1
10
21.0755281005343
20
89.6347063215661
30
0
41
1
10
21.0402172242042
20
89.6423561515327
30
0
41
1
10
21.0068264698491
20
89.6552387865373
30
0
41
1
10
21
20
89.6605156070758
30
0
41
1
10
21
20
89.665698569743
30
0
0
SPLINE
5
3B2
100
AcDbEntity
8
1
62
256
6
ByLayer
370
18
48
1
60
0
100
AcDbSpline
70
4
71
3
72
10
73
6
40
0
40
0
40
0
40
0
40
0.5
40
0.5
40
1
40
1
40
1
40
1
41
1
10
66.4690830681039
20
-58.8557516111655
30
0
41
1
10
65.8144250009302
20
-59.3069674986706
30
0
41
1
10
65.1424860850424
20
-59.7206177016752
30
0
41
1
10
63.7726464452305
20
-60.3953587123383
30
0
41
1
10
63.1026438009472
20
-60.6437130283999
30
0
41
1
10
62.4411085019423
20
-60.8415396286943
30
0
0
SPLINE
5
3B3
100
AcDbEntity
8
1
62
256
6
ByLayer
370
18
48
1
60
0
100
AcDbSpline
70
4
71
3
72
8
73
4
40
0
40
0
40
0
40
0
40
1
40
1
40
1
40
1
41
1
10
62.4411085019423
20
-60.8415396286943
30
0
41
1
10
62.4461313011549
20
-61.1917183375937
30
0
41
1
10
62.4509015118311
20
-61.5355131746554
30
0
41
1
10
62.4553048439814
20
-61.8700355976625
30
0
0
SPLINE
5
3B4
100
AcDbEntity
8
1
62
256
6
ByLayer
370
18
48
1
60
0
100
AcDbSpline
70
4
71
3
72
34
73
30
40
0
40
0
40
0
40
0
40
0.125042162625009
40
0.125042162625009
40
0.250084325250019
40
0.250084325250019
40
0.312605406562529
40
0.312605406562529
40
0.343865947218789
40
0.343865947218789
40
0.375126487875049
40
0.375126487875049
40
0.500168650500061
40
0.500168650500061
40
0.625210813125073
40
0.625210813125073
40
0.656471353781324
40
0.656471353781324
40
0.687731894437576
40
0.750252975750079
40
0.750252975750079
40
0.875295138375085
40
0.875295138375085
40
0.937816219687589
40
0.937816219687589
40
0.953446490015716
40
0.953446490015716
40
0.969076760343842
40
1
40
1
40
1
40
1
41
1
10
17.386239370499
20
89.8923751387364
30
0
41
1
10
17.584906843788
20
89.8976488690797
30
0
41
1
10
17.7740214341104
20
89.9033248374495
30
0
41
1
10
18.1339258365222
20
89.9151495191988
30
0
41
1
10
18.3047132597535
20
89.9212992219626
30
0
41
1
10
18.5469735542202
20
89.9306370472042
30
0
41
1
10
18.625399254821
20
89.9337685079323
30
0
41
1
10
18.739451159175
20
89.9384624165587
30
0
41
1
10
18.7767018106814
20
89.9400195811718
30
0
41
1
10
18.8495424414181
20
89.9431076998289
30
0
41
1
10
18.885157059747
20
89.9446396684651
30
0
41
1
10
19.0592505340784
20
89.9522268986516
30
0
41
1
10
19.1858440521834
20
89.9580639621145
30
0
41
1
10
19.4140378930482
20
89.9689708283025
30
0
41
1
10
19.5156410593869
20
89.9740415548638
30
0
41
1
10
19.6263967551168
20
89.9797089753995
30
0
41
1
10
19.6476592253767
20
89.980805146683
30
0
41
1
10
19.6882690489699
20
89.9829118513379
30
0
41
1
10
19.7463874399748
20
89.9859474427132
30
0
41
1
10
19.7962306816788
20
89.988598859146
30
0
41
1
10
19.885042329989
20
89.9933614931539
30
0
41
1
10
19.9297987168105
20
89.995816456705
30
0
41
1
10
19.9750029482428
20
89.9983077492443
30
0
41
1
10
19.9864040228769
20
89.9989396420668
30
0
41
1
10
19.9959493530495
20
89.9994693098516
30
0
41
1
10
19.9976225584679
20
89.9995622152967
30
0
41
1
10
20.0004848459781
20
89.9997212018071
30
0
41
1
10
20.0040323085402
20
89.9999183505471
30
0
41
1
10
20.0054668958846
20
89.9999981585457
30
0
41
1
10
20.0054991523742
20
89.9999999528529
30
0
0
SPLINE
5
3B5
100
AcDbEntity
8
1
62
256
6
ByLayer
370
18
48
1
60
0
100
AcDbSpline
70
4
71
3
72
27
73
23
40
0
40
0
40
0
40
0
40
0.0295250345072302
40
0.0805744033864628
40
0.131652867769297
40
0.18292295767351
40
0.23451568520556
40
0.286459363527924
40
0.338703930795548
40
0.391167123841691
40
0.443773570616248
40
0.496473045726863
40
0.54924062166836
40
0.602066490191494
40
0.654940757362938
40
0.707837037641077
40
0.760697049941729
40
0.813422787242512
40
0.865886773759873
40
0.917970894305088
40
0.969625969983013
40
1
40
1
40
1
40
1
41
1
10
74.3728529043018
20
-60.2599271838598
30
0
41
1
10
74.3704014588112
20
-60.0479502546248
30
0
41
1
10
74.3319574248347
20
-59.4741206669531
30
0
41
1
10
74.1250942012094
20
-58.5466246987131
30
0
41
1
10
73.6806798895955
20
-57.5215068448031
30
0
41
1
10
73.0448892100976
20
-56.574173244827
30
0
41
1
10
72.2335604627907
20
-55.7285071461824
30
0
41
1
10
71.2664460647085
20
-55.0059404805467
30
0
41
1
10
70.1680913186261
20
-54.4260877012406
30
0
41
1
10
68.9675019452109
20
-54.0052142740742
30
0
41
1
10
67.6970347598339
20
-53.7553169520152
30
0
41
1
10
66.3910308723264
20
-53.6836539785192
30
0
41
1
10
65.0846336623949
20
-53.7927367071946
30
0
41
1
10
63.8129208948311
20
-54.0804895951708
30
0
41
1
10
62.6102436655464
20
-54.5403849970984
30
0
41
1
10
61.5097271945193
20
-55.1614296550166
30
0
41
1
10
60.5423581090557
20
-55.9280183262867
30
0
41
1
10
59.7369052247898
20
-56.8196220150934
30
0
41
1
10
59.1151666901081
20
-57.8111095500922
30
0
41
1
10
58.7026337379569
20
-58.8723129987238
30
0
41
1
10
58.5113740962496
20
-59.8253126486772
30
0
41
1
10
58.5205141085946
20
-60.4106586917868
30
0
41
1
10
58.5386840961766
20
-60.628681868405
30
0
0
SPLINE
5
3B6
100
AcDbEntity
8
1
62
256
6
ByLayer
370
18
48
1
60
0
100
AcDbSpline
70
4
71
3
72
10
73
6
40
0
40
0
40
0
40
0
40
0.5
40
0.5
40
1
40
1
40
1
40
1
41
1
10
66.4667868733389
20
-63.6487293075887
30
0
41
1
10
65.8051826123846
20
-63.4737661924208
30
0
41
1
10
65.1261206751692
20
-63.2461146999977
30
0
41
1
10
63.7418470935252
20
-62.6182939187495
30
0
41
1
10
63.0648042137356
20
-62.2318785625407
30
0
41
1
10
62.3963293884664
20
-61.8043057822022
30
0
0
SPLINE
5
3B7
100
AcDbEntity
8
1
62
256
6
ByLayer
370
18
48
1
60
0
100
AcDbSpline
70
4
71
3
72
10
73
6
40
0
40
0
40
0
40
0
40
0.5
40
0.5
40
1
40
1
40
1
40
1
41
1
10
66.4667868733388
20
-63.6487293075887
30
0
41
1
10
67.1291494692873
20
-63.4506553110601
30
0
41
1
10
67.8060384931699
20
-63.1993346296166
30
0
41
1
10
69.1758294051099
20
-62.5234394895284
30
0
41
1
10
69.8409173005092
20
-62.1135961864991
30
0
41
1
10
70.4947614395006
20
-61.6629412900601
30
0
0
SPLINE
5
3B8
100
AcDbEntity
8
1
62
256
6
ByLayer
370
18
48
1
60
0
100
AcDbSpline
70
4
71
3
72
27
73
23
40
0
40
0
40
0
40
0
40
0.124999999999993
40
0.124999999999993
40
0.187499999999988
40
0.187499999999988
40
0.249999999999983
40
0.249999999999983
40
0.374999999999976
40
0.374999999999976
40
0.499999999999969
40
0.499999999999969
40
0.624999999999962
40
0.624999999999962
40
0.656249999999964
40
0.656249999999964
40
0.687499999999965
40
0.749999999999972
40
0.749999999999972
40
0.874999999999986
40
0.874999999999986
40
1
40
1
40
1
40
1
41
1
10
70.4947614395006
20
-61.6629412900597
30
0
41
1
10
70.4939927795988
20
-61.5387998386725
30
0
41
1
10
70.4931300504635
20
-61.4106748225663
30
0
41
1
10
70.4916578547347
20
-61.2109451837357
30
0
41
1
10
70.4911368150965
20
-61.1430484828094
30
0
41
1
10
70.4900359353977
20
-61.0053601271254
30
0
41
1
10
70.4894554272274
20
-60.935473800325
30
0
41
1
10
70.4876170927183
20
-60.7224594467048
30
0
41
1
10
70.4862620755168
20
-60.5759628461427
30
0
41
1
10
70.4832645021737
20
-60.2730037274689
30
0
41
1
10
70.4816217397575
20
-60.1165340600223
30
0
41
1
10
70.4780343900035
20
-59.7931336644982
30
0
41
1
10
70.4760897540864
20
-59.6262012527052
30
0
41
1
10
70.4734733039118
20
-59.4111010436066
30
0
41
1
10
70.4729403967672
20
-59.3677302411019
30
0
41
1
10
70.4718580653974
20
-59.2804941272724
30
0
41
1
10
70.470212824081
20
-59.1491402712554
30
0
41
1
10
70.4685047473837
20
-59.0163424520284
30
0
41
1
10
70.4650115316939
20
-58.7489759144752
30
0
41
1
10
70.4625800376399
20
-58.5683718770446
30
0
41
1
10
70.457547819767
20
-58.2032748856019
30
0
41
1
10
70.4549472005767
20
-58.0187843359635
30
0
41
1
10
70.4522785207899
20
-57.8327297471442
30
0
0
SPLINE
5
3B9
100
AcDbEntity
8
1
62
256
6
ByLayer
370
18
48
1
60
0
100
AcDbSpline
70
4
71
3
72
27
73
23
40
0
40
0
40
0
40
0
40
0.125000000000005
40
0.125000000000005
40
0.187500000000006
40
0.187500000000006
40
0.250000000000008
40
0.250000000000008
40
0.375000000000016
40
0.375000000000016
40
0.500000000000025
40
0.500000000000025
40
0.625000000000034
40
0.625000000000034
40
0.656250000000033
40
0.656250000000033
40
0.687500000000031
40
0.750000000000025
40
0.750000000000025
40
0.875000000000013
40
0.875000000000013
40
1
40
1
40
1
40
1
41
1
10
62.3963293884665
20
-61.8043057822017
30
0
41
1
10
62.3955607285646
20
-61.6801643308144
30
0
41
1
10
62.3946979994295
20
-61.5520393147077
30
0
41
1
10
62.3932258037008
20
-61.3523096758761
30
0
41
1
10
62.3927047640625
20
-61.2844129749499
30
0
41
1
10
62.3916038843637
20
-61.1467246192666
30
0
41
1
10
62.3910233761934
20
-61.0768382924665
30
0
41
1
10
62.3891850416843
20
-60.8638239388476
30
0
41
1
10
62.3878300244829
20
-60.7173273382869
30
0
41
1
10
62.3848324511397
20
-60.4143682196167
30
0
41
1
10
62.3831896887238
20
-60.2578985521724
30
0
41
1
10
62.3796023389696
20
-59.9344981566538
30
0
41
1
10
62.3776577030526
20
-59.7675657448642
30
0
41
1
10
62.375041252878
20
-59.5524655357707
30
0
41
1
10
62.3745083457335
20
-59.5090947332684
30
0
41
1
10
62.3734260143638
20
-59.4218586194365
30
0
41
1
10
62.3717807730472
20
-59.2905047634163
30
0
41
1
10
62.3700726963499
20
-59.1577069441863
30
0
41
1
10
62.3665794806601
20
-58.8903404066277
30
0
41
1
10
62.3641479866059
20
-58.709736369194
30
0
41
1
10
62.359115768733
20
-58.3446393777467
30
0
41
1
10
62.3565151495427
20
-58.1601488281066
30
0
41
1
10
62.3538464697559
20
-57.9740942392862
30
0
0
SPLINE
5
3BA
100
AcDbEntity
8
1
62
256
6
ByLayer
370
18
48
1
60
0
100
AcDbSpline
70
4
71
3
72
10
73
6
40
0
40
0
40
0
40
0
40
0.5
40
0.5
40
1
40
1
40
1
40
1
41
1
10
70.4522785207899
20
-57.8327297471444
30
0
41
1
10
69.7906742598357
20
-57.6577666319766
30
0
41
1
10
69.1116123226202
20
-57.4301151395534
30
0
41
1
10
67.7273387409763
20
-56.8022943583052
30
0
41
1
10
67.0502958611866
20
-56.4158790020965
30
0
41
1
10
66.3818210359175
20
-55.9883062217579
30
0
0
SPLINE
5
3BB
100
AcDbEntity
8
1
62
256
6
ByLayer
370
18
48
1
60
0
100
AcDbSpline
70
4
71
3
72
10
73
6
40
0
40
0
40
0
40
0
40
0.5
40
0.5
40
1
40
1
40
1
40
1
41
1
10
66.4690830681039
20
-58.8557516111655
30
0
41
1
10
67.1383897510358
20
-59.2838564679267
30
0
41
1
10
67.82239133732
20
-59.6738424217797
30
0
41
1
10
69.2066304707358
20
-60.3005024357262
30
0
41
1
10
69.8787593620474
20
-60.5254296845774
30
0
41
1
10
70.5395405529765
20
-60.7001751365527
30
0
0
SPLINE
5
3BC
100
AcDbEntity
8
1
62
256
6
ByLayer
370
18
48
1
60
0
100
AcDbSpline
70
4
71
3
72
10
73
6
40
0
40
0
40
0
40
0
40
0.5
40
0.5
40
1
40
1
40
1
40
1
41
1
10
62.3538464697558
20
-57.9740942392864
30
0
41
1
10
63.0162090657044
20
-57.7760202427579
30
0
41
1
10
63.693098089587
20
-57.5246995613144
30
0
41
1
10
65.062889001527
20
-56.8488044212262
30
0
41
1
10
65.7279768969262
20
-56.4389611181967
30
0
41
1
10
66.3818210359177
20
-55.9883062217579
30
0
0
LINE
5
71
100
AcDbEntity
8
2
62
256
6
ByLayer
370
13
48
1
60
0
100
AcDbLine
10
84
20
111.99997
30
0
11
99
21
111.99997
31
0
39
0
210
0
220
0
230
1
0
LINE
5
73
100
AcDbEntity
8
2
62
256
6
ByLayer
370
13
48
1
60
0
100
AcDbLine
10
84
20
111.99997
30
0
11
99
21
111.99997
31
0
39
0
210
0
220
0
230
1
0
LINE
5
74
100
AcDbEntity
8
81
62
256
6
ByLayer
370
18
48
1
60
0
100
AcDbLine
10
82
20
111.99997
30
0
11
85
21
111.99997
31
0
39
0
210
0
220
0
230
1
0
LINE
5
75
100
AcDbEntity
8
SK4
62
256
6
ByLayer
370
13
48
0.05
60
0
100
AcDbLine
10
-11.7
20
0
30
0
11
38.3
21
0
31
0
39
0
210
0
220
0
230
1
0
LINE
5
77
100
AcDbEntity
8
80
62
256
6
ByLayer
370
13
48
0.05
60
0
100
AcDbLine
10
0
20
0
30
0
11
-32
21
0
31
0
39
0
210
0
220
0
230
1
0
LINE
5
78
100
AcDbEntity
8
SK3
62
256
6
ByLayer
370
13
48
0.05
60
0
100
AcDbLine
10
4.158438
20
16.50625
30
0
11
4.158438
21
-16.50625
31
0
39
0
210
0
220
0
230
1
0
LINE
5
7A
100
AcDbEntity
8
SK3
62
256
6
ByLayer
370
13
48
0.05
60
0
100
AcDbLine
10
9.000001
20
16.50625
30
0
11
9.000001
21
-16.50625
31
0
39
0
210
0
220
0
230
1
0
LINE
5
7B
100
AcDbEntity
8
SK3
62
256
6
ByLayer
370
13
48
0.05
60
0
100
AcDbLine
10
4.173229
20
16.54196
30
0
11
0
21
17.660173
31
0
39
0
210
0
220
0
230
1
0
LINE
5
7C
100
AcDbEntity
8
SK3
62
256
6
ByLayer
370
13
48
0.05
60
0
100
AcDbLine
10
0
20
-17.667446
30
0
11
4.17594
21
-16.548506
31
0
39
0
210
0
220
0
230
1
0
LINE
5
7D
100
AcDbEntity
8
SK3
62
256
6
ByLayer
370
13
48
0.05
60
0
100
AcDbLine
10
9.000001
20
16.50625
30
0
11
4.158438
21
16.50625
31
0
39
0
210
0
220
0
230
1
0
LINE
5
7E
100
AcDbEntity
8
SK3
62
256
6
ByLayer
370
13
48
0.05
60
0
100
AcDbLine
10
4.158438
20
-16.50625
30
0
11
9.000001
21
-16.50625
31
0
39
0
210
0
220
0
230
1
0
LINE
5
7F
100
AcDbEntity
8
4
62
256
6
ByLayer
370
13
48
0.05
60
0
100
AcDbLine
10
0.3
20
0
30
0
11
28.8
21
0
31
0
39
0
210
0
220
0
230
1
0
LINE
5
81
100
AcDbEntity
8
SK1
62
256
6
ByLayer
370
18
48
1
60
0
100
AcDbLine
10
-9.999824
20
-44.30235
30
0
11
-0.000309
21
-44.30235
31
0
39
0
210
0
220
0
230
1
0
LINE
5
83
100
AcDbEntity
8
1
62
256
6
ByLayer
370
18
48
1
60
0
100
AcDbLine
10
-11.6
20
32.30235
30
0
11
-10
21
32.30235
31
0
39
0
210
0
220
0
230
1
0
LINE
5
85
100
AcDbEntity
8
1
62
256
6
ByLayer
370
18
48
1
60
0
100
AcDbLine
10
-10
20
48.30235
30
0
11
-11.6
21
48.30235
31
0
39
0
210
0
220
0
230
1
0
LINE
5
86
100
AcDbEntity
8
SK1
62
256
6
ByLayer
370
18
48
1
60
0
100
AcDbLine
10
-0.000309
20
-36.30235
30
0
11
-9.999824
21
-36.30235
31
0
39
0
210
0
220
0
230
1
0
LINE
5
87
100
AcDbEntity
8
1
62
256
6
ByLayer
370
18
48
1
60
0
100
AcDbLine
10
-11.6
20
-33.86985
30
0
11
-18.8
21
-33.86985
31
0
39
0
210
0
220
0
230
1
0
LINE
5
88
100
AcDbEntity
8
1
62
256
6
ByLayer
370
18
48
1
60
0
100
AcDbLine
10
-18.8
20
-46.73485
30
0
11
-11.6
21
-46.73485
31
0
39
0
210
0
220
0
230
1
0
LINE
5
89
100
AcDbEntity
8
1
62
256
6
ByLayer
370
18
48
1
60
0
100
AcDbLine
10
-18.8
20
33.86985
30
0
11
-11.6
21
33.86985
31
0
39
0
210
0
220
0
230
1
0
LINE
5
8A
100
AcDbEntity
8
1
62
256
6
ByLayer
370
18
48
1
60
0
100
AcDbLine
10
-11.6
20
46.73485
30
0
11
-18.8
21
46.73485
31
0
39
0
210
0
220
0
230
1
0
LINE
5
8B
100
AcDbEntity
8
SK1
62
256
6
ByLayer
370
18
48
1
60
0
100
AcDbLine
10
-0.000309
20
44.30235
30
0
11
-9.999824
21
44.30235
31
0
39
0
210
0
220
0
230
1
0
LINE
5
8C
100
AcDbEntity
8
SK1
62
256
6
ByLayer
370
18
48
1
60
0
100
AcDbLine
10
-9.999824
20
36.30235
30
0
11
-0.000309
21
36.30235
31
0
39
0
210
0
220
0
230
1
0
LINE
5
8D
100
AcDbEntity
8
1
62
256
6
ByLayer
370
18
48
1
60
0
100
AcDbLine
10
-10
20
-32.30235
30
0
11
-11.6
21
-32.30235
31
0
39
0
210
0
220
0
230
1
0
LINE
5
8E
100
AcDbEntity
8
1
62
256
6
ByLayer
370
18
48
1
60
0
100
AcDbLine
10
-11.6
20
-48.30235
30
0
11
-10
21
-48.30235
31
0
39
0
210
0
220
0
230
1
0
LINE
5
8F
100
AcDbEntity
8
SK1
62
256
6
ByLayer
370
13
48
1
60
0
100
AcDbLine
10
6.6E-05
20
-43.53535
30
0
11
-7.85
21
-43.53535
31
0
39
0
210
0
220
0
230
1
0
LINE
5
90
100
AcDbEntity
8
SK1
62
256
6
ByLayer
370
13
48
1
60
0
100
AcDbLine
10
-7.85
20
-43.53535
30
0
11
-9.999984
21
-44.155996
31
0
39
0
210
0
220
0
230
1
0
LINE
5
91
100
AcDbEntity
8
SK1
62
256
6
ByLayer
370
13
48
1
60
0
100
AcDbLine
10
6.6E-05
20
-37.06935
30
0
11
-7.85
21
-37.06935
31
0
39
0
210
0
220
0
230
1
0
LINE
5
92
100
AcDbEntity
8
SK1
62
256
6
ByLayer
370
13
48
1
60
0
100
AcDbLine
10
-7.85
20
-37.06935
30
0
11
-9.999984
21
-36.448703
31
0
39
0
210
0
220
0
230
1
0
LINE
5
93
100
AcDbEntity
8
SK1
62
256
6
ByLayer
370
18
48
1
60
0
100
AcDbLine
10
-7.85
20
-44.30235
30
0
11
-7.85
21
-36.30235
31
0
39
0
210
0
220
0
230
1
0
LINE
5
94
100
AcDbEntity
8
SK1
62
256
6
ByLayer
370
13
48
1
60
0
100
AcDbLine
10
6.6E-05
20
37.06935
30
0
11
-7.85
21
37.06935
31
0
39
0
210
0
220
0
230
1
0
LINE
5
95
100
AcDbEntity
8
SK1
62
256
6
ByLayer
370
13
48
1
60
0
100
AcDbLine
10
-7.85
20
37.06935
30
0
11
-9.999984
21
36.448703
31
0
39
0
210
0
220
0
230
1
0
LINE
5
96
100
AcDbEntity
8
SK1
62
256
6
ByLayer
370
13
48
1
60
0
100
AcDbLine
10
6.6E-05
20
43.53535
30
0
11
-7.85
21
43.53535
31
0
39
0
210
0
220
0
230
1
0
LINE
5
97
100
AcDbEntity
8
SK1
62
256
6
ByLayer
370
13
48
1
60
0
100
AcDbLine
10
-7.85
20
43.53535
30
0
11
-9.999984
21
44.155996
31
0
39
0
210
0
220
0
230
1
0
LINE
5
98
100
AcDbEntity
8
SK1
62
256
6
ByLayer
370
18
48
1
60
0
100
AcDbLine
10
-7.85
20
36.30235
30
0
11
-7.85
21
44.30235
31
0
39
0
210
0
220
0
230
1
0
LINE
5
99
100
AcDbEntity
8
1
62
256
6
ByLayer
370
18
48
1
60
0
100
AcDbLine
10
-10
20
-48.30235
30
0
11
-10
21
-32.30235
31
0
39
0
210
0
220
0
230
1
0
LINE
5
9A
100
AcDbEntity
8
1
62
256
6
ByLayer
370
18
48
1
60
0
100
AcDbLine
10
-11.6
20
-48.30235
30
0
11
-11.6
21
-32.30235
31
0
39
0
210
0
220
0
230
1
0
LINE
5
9B
100
AcDbEntity
8
1
62
256
6
ByLayer
370
18
48
1
60
0
100
AcDbLine
10
-18.8
20
-33.86985
30
0
11
-18.8
21
-46.73485
31
0
39
0
210
0
220
0
230
1
0
LINE
5
9C
100
AcDbEntity
8
1
62
256
6
ByLayer
370
18
48
1
60
0
100
AcDbLine
10
-19.6
20
-45.93485
30
0
11
-19.6
21
-34.66985
31
0
39
0
210
0
220
0
230
1
0
LINE
5
9D
100
AcDbEntity
8
1
62
256
6
ByLayer
370
18
48
1
60
0
100
AcDbLine
10
-18.8
20
46.73485
30
0
11
-18.8
21
33.86985
31
0
39
0
210
0
220
0
230
1
0
LINE
5
9E
100
AcDbEntity
8
1
62
256
6
ByLayer
370
18
48
1
60
0
100
AcDbLine
10
-19.6
20
45.93485
30
0
11
-19.6
21
34.66985
31
0
39
0
210
0
220
0
230
1
0
LINE
5
9F
100
AcDbEntity
8
1
62
256
6
ByLayer
370
18
48
1
60
0
100
AcDbLine
10
-11.6
20
48.30235
30
0
11
-11.6
21
32.30235
31
0
39
0
210
0
220
0
230
1
0
LINE
5
A0
100
AcDbEntity
8
1
62
256
6
ByLayer
370
18
48
1
60
0
100
AcDbLine
10
-10
20
48.30235
30
0
11
-10
21
32.30235
31
0
39
0
210
0
220
0
230
1
0
LINE
5
A1
100
AcDbEntity
8
81
62
256
6
ByLayer
370
18
48
1
60
0
100
AcDbLine
10
82
20
-111.99997
30
0
11
85
21
-111.99997
31
0
39
0
210
0
220
0
230
1
0
LINE
5
A2
100
AcDbEntity
8
1
62
256
6
ByLayer
370
18
48
1
60
0
100
AcDbLine
10
76.17719
20
107.529131
30
0
11
76.105063
21
107.521551
31
0
39
0
210
0
220
0
230
1
0
LINE
5
A3
100
AcDbEntity
8
1
62
256
6
ByLayer
370
18
48
1
60
0
100
AcDbLine
10
80.123037
20
102.359981
30
0
11
79.851263
21
104.945738
31
0
39
0
210
0
220
0
230
1
0
LINE
5
A4
100
AcDbEntity
8
1
62
256
6
ByLayer
370
18
48
1
60
0
100
AcDbLine
10
72.568924
20
107.907323
30
0
11
72.840698
21
105.321566
31
0
39
0
210
0
220
0
230
1
0
LINE
5
A5
100
AcDbEntity
8
1
62
256
6
ByLayer
370
18
48
1
60
0
100
AcDbLine
10
75.434093
20
108.536655
30
0
11
72.858176
21
108.265915
31
0
39
0
210
0
220
0
230
1
0
LINE
5
A6
100
AcDbEntity
8
1
62
256
6
ByLayer
370
18
48
1
60
0
100
AcDbLine
10
79.735595
20
106.046249
30
0
11
79.463821
21
108.632006
31
0
39
0
210
0
220
0
230
1
0
LINE
5
A7
100
AcDbEntity
8
1
62
256
6
ByLayer
370
18
48
1
60
0
100
AcDbLine
10
79.106334
20
108.922623
30
0
11
76.530417
21
108.651883
31
0
39
0
210
0
220
0
230
1
0
LINE
5
A8
100
AcDbEntity
8
1
62
256
6
ByLayer
370
18
48
1
60
0
100
AcDbLine
10
73.585627
20
101.344681
30
0
11
76.161544
21
101.615421
31
0
39
0
210
0
220
0
230
1
0
LINE
5
A9
100
AcDbEntity
8
1
62
256
6
ByLayer
370
18
48
1
60
0
100
AcDbLine
10
72.956367
20
104.221055
30
0
11
73.228141
21
101.635298
31
0
39
0
210
0
220
0
230
1
0
LINE
5
AA
100
AcDbEntity
8
1
62
256
6
ByLayer
370
18
48
1
60
0
100
AcDbLine
10
79.614274
20
106.033498
30
0
11
79.3425
21
108.619255
31
0
39
0
210
0
220
0
230
1
0
LINE
5
AB
100
AcDbEntity
8
1
62
256
6
ByLayer
370
18
48
1
60
0
100
AcDbLine
10
79.729942
20
104.932987
30
0
11
80.001716
21
102.34723
31
0
39
0
210
0
220
0
230
1
0
LINE
5
AC
100
AcDbEntity
8
1
62
256
6
ByLayer
370
18
48
1
60
0
100
AcDbLine
10
79.123446
20
108.797333
30
0
11
76.547529
21
108.526593
31
0
39
0
210
0
220
0
230
1
0
LINE
5
AD
100
AcDbEntity
8
1
62
256
6
ByLayer
370
18
48
1
60
0
100
AcDbLine
10
79.824474
20
102.127499
30
0
11
77.248557
21
101.856759
31
0
39
0
210
0
220
0
230
1
0
LINE
5
AE
100
AcDbEntity
8
1
62
256
6
ByLayer
370
18
48
1
60
0
100
AcDbLine
10
77.257868
20
101.730649
30
0
11
79.833785
21
102.001389
31
0
39
0
210
0
220
0
230
1
0
LINE
5
AF
100
AcDbEntity
8
1
62
256
6
ByLayer
370
18
48
1
60
0
100
AcDbLine
10
82.109643
20
110.956814
30
0
11
81.970543
21
110.942194
31
0
39
0
210
0
220
0
230
1
0
LINE
5
B0
100
AcDbEntity
8
1
62
256
6
ByLayer
370
18
48
1
60
0
100
AcDbLine
10
81.970543
20
110.942194
30
0
11
82.041257
21
110.269391
31
0
39
0
210
0
220
0
230
1
0
LINE
5
B1
100
AcDbEntity
8
1
62
256
6
ByLayer
370
18
48
1
60
0
100
AcDbLine
10
83.194397
20
100.636073
30
0
11
83.055296
21
100.621453
31
0
39
0
210
0
220
0
230
1
0
LINE
5
B2
100
AcDbEntity
8
1
62
256
6
ByLayer
370
18
48
1
60
0
100
AcDbLine
10
83.194397
20
100.636073
30
0
11
82.109643
21
110.956814
31
0
39
0
210
0
220
0
230
1
0
LINE
5
B3
100
AcDbEntity
8
1
62
256
6
ByLayer
370
18
48
1
60
0
100
AcDbLine
10
83.203499
20
100.545524
30
0
11
83.064271
21
100.53217
31
0
39
0
210
0
220
0
230
1
0
LINE
5
B4
100
AcDbEntity
8
1
62
256
6
ByLayer
370
18
48
1
60
0
100
AcDbLine
10
82.09972
20
111.047277
30
0
11
81.960759
21
111.031392
31
0
39
0
210
0
220
0
230
1
0
LINE
5
B5
100
AcDbEntity
8
1
62
256
6
ByLayer
370
18
48
1
60
0
100
AcDbLine
10
82.984582
20
101.294256
30
0
11
83.055296
21
100.621453
31
0
39
0
210
0
220
0
230
1
0
LINE
5
B6
100
AcDbEntity
8
1
62
256
6
ByLayer
370
18
48
1
60
0
100
AcDbLine
10
83.207941
20
100.496726
30
0
11
83.068589
21
100.484737
31
0
39
0
210
0
220
0
230
1
0
LINE
5
B7
100
AcDbEntity
8
1
62
256
6
ByLayer
370
18
48
1
60
0
100
AcDbLine
10
82.093919
20
111.095933
30
0
11
81.95512
21
111.078686
31
0
39
0
210
0
220
0
230
1
0
LINE
5
B8
100
AcDbEntity
8
1
62
256
6
ByLayer
370
18
48
1
60
0
100
AcDbLine
10
82.072929
20
111.254608
30
0
11
81.934423
21
111.235142
31
0
39
0
210
0
220
0
230
1
0
LINE
5
B9
100
AcDbEntity
8
1
62
256
6
ByLayer
370
18
48
1
60
0
100
AcDbLine
10
83.2204
20
100.337154
30
0
11
83.080873
21
100.327397
31
0
39
0
210
0
220
0
230
1
0
LINE
5
BA
100
AcDbEntity
8
1
62
256
6
ByLayer
370
18
48
1
60
0
100
AcDbLine
10
82.044649
20
111.364212
30
0
11
81.914054
21
111.314086
31
0
39
0
210
0
220
0
230
1
0
LINE
5
BB
100
AcDbEntity
8
1
62
256
6
ByLayer
370
18
48
1
60
0
100
AcDbLine
10
83.215525
20
100.224065
30
0
11
83.077362
21
100.245943
31
0
39
0
210
0
220
0
230
1
0
LINE
5
BC
100
AcDbEntity
8
1
62
256
6
ByLayer
370
18
48
1
60
0
100
AcDbLine
10
82.588881
20
99.4472
30
0
11
82.538365
21
99.577736
31
0
39
0
210
0
220
0
230
1
0
LINE
5
BD
100
AcDbEntity
8
1
62
256
6
ByLayer
370
18
48
1
60
0
100
AcDbLine
10
81.270179
20
111.993813
30
0
11
81.247906
21
111.855627
31
0
39
0
210
0
220
0
230
1
0
LINE
5
BE
100
AcDbEntity
8
1
62
256
6
ByLayer
370
18
48
1
60
0
100
AcDbLine
10
80.203569
20
111.763331
30
0
11
80.873811
21
111.833777
31
0
39
0
210
0
220
0
230
1
0
LINE
5
BF
100
AcDbEntity
8
1
62
256
6
ByLayer
370
18
48
1
60
0
100
AcDbLine
10
82.167902
20
99.52133
30
0
11
81.497659
21
99.450885
31
0
39
0
210
0
220
0
230
1
0
LINE
5
C0
100
AcDbEntity
8
1
62
256
6
ByLayer
370
18
48
1
60
0
100
AcDbLine
10
82.479707
20
99.418901
30
0
11
82.459731
21
99.557353
31
0
39
0
210
0
220
0
230
1
0
LINE
5
C1
100
AcDbEntity
8
1
62
256
6
ByLayer
370
18
48
1
60
0
100
AcDbLine
10
81.157507
20
111.998796
30
0
11
81.166753
21
111.859216
31
0
39
0
210
0
220
0
230
1
0
LINE
5
C2
100
AcDbEntity
8
1
62
256
6
ByLayer
370
18
48
1
60
0
100
AcDbLine
10
82.321639
20
99.397958
30
0
11
82.303873
21
99.536703
31
0
39
0
210
0
220
0
230
1
0
LINE
5
C3
100
AcDbEntity
8
1
62
256
6
ByLayer
370
18
48
1
60
0
100
AcDbLine
10
80.998539
20
111.986417
30
0
11
81.010008
21
111.84701
31
0
39
0
210
0
220
0
230
1
0
LINE
5
C4
100
AcDbEntity
8
1
62
256
6
ByLayer
370
18
48
1
60
0
100
AcDbLine
10
82.27317
20
99.392174
30
0
11
82.25676
21
99.53108
31
0
39
0
210
0
220
0
230
1
0
LINE
5
C5
100
AcDbEntity
8
1
62
256
6
ByLayer
370
18
48
1
60
0
100
AcDbLine
10
80.949926
20
111.981997
30
0
11
80.962755
21
111.842714
31
0
39
0
210
0
220
0
230
1
0
LINE
5
C6
100
AcDbEntity
8
1
62
256
6
ByLayer
370
18
48
1
60
0
100
AcDbLine
10
80.859721
20
111.972933
30
0
11
80.873811
21
111.833777
31
0
39
0
210
0
220
0
230
1
0
LINE
5
C7
100
AcDbEntity
8
1
62
256
6
ByLayer
370
18
48
1
60
0
100
AcDbLine
10
82.183051
20
99.382286
30
0
11
82.167902
21
99.52133
31
0
39
0
210
0
220
0
230
1
0
LINE
5
C8
100
AcDbEntity
8
1
62
256
6
ByLayer
370
18
48
1
60
0
100
AcDbLine
10
71.901584
20
98.30166
30
0
11
71.886434
21
98.440705
31
0
39
0
210
0
220
0
230
1
0
LINE
5
C9
100
AcDbEntity
8
1
62
256
6
ByLayer
370
18
48
1
60
0
100
AcDbLine
10
71.901584
20
98.30166
30
0
11
82.183051
21
99.382286
31
0
39
0
210
0
220
0
230
1
0
LINE
5
CA
100
AcDbEntity
8
1
62
256
6
ByLayer
370
18
48
1
60
0
100
AcDbLine
10
72.556677
20
98.51115
30
0
11
71.886434
21
98.440705
31
0
39
0
210
0
220
0
230
1
0
LINE
5
CB
100
AcDbEntity
8
1
62
256
6
ByLayer
370
18
48
1
60
0
100
AcDbLine
10
70.578253
20
110.892307
30
0
11
70.592344
21
110.753151
31
0
39
0
210
0
220
0
230
1
0
LINE
5
CC
100
AcDbEntity
8
1
62
256
6
ByLayer
370
18
48
1
60
0
100
AcDbLine
10
70.592344
20
110.753151
30
0
11
71.262586
21
110.823596
31
0
39
0
210
0
220
0
230
1
0
LINE
5
CD
100
AcDbEntity
8
1
62
256
6
ByLayer
370
18
48
1
60
0
100
AcDbLine
10
80.859721
20
111.972933
30
0
11
70.578253
21
110.892307
31
0
39
0
210
0
220
0
230
1
0
LINE
5
CE
100
AcDbEntity
8
1
62
256
6
ByLayer
370
18
48
1
60
0
100
AcDbLine
10
75.451206
20
108.411365
30
0
11
72.875288
21
108.140625
31
0
39
0
210
0
220
0
230
1
0
LINE
5
CF
100
AcDbEntity
8
1
62
256
6
ByLayer
370
18
48
1
60
0
100
AcDbLine
10
76.152233
20
101.741531
30
0
11
73.576316
21
101.470791
31
0
39
0
210
0
220
0
230
1
0
LINE
5
D0
100
AcDbEntity
8
1
62
256
6
ByLayer
370
18
48
1
60
0
100
AcDbLine
10
72.698046
20
107.920895
30
0
11
72.96982
21
105.335138
31
0
39
0
210
0
220
0
230
1
0
LINE
5
D1
100
AcDbEntity
8
1
62
256
6
ByLayer
370
18
48
1
60
0
100
AcDbLine
10
73.357263
20
101.648869
30
0
11
73.085489
21
104.234626
31
0
39
0
210
0
220
0
230
1
0
LINE
5
D2
100
AcDbEntity
8
1
62
256
6
ByLayer
370
18
48
1
60
0
100
AcDbLine
10
70.789703
20
99.332287
30
0
11
70.718988
21
100.00509
31
0
39
0
210
0
220
0
230
1
0
LINE
5
D3
100
AcDbEntity
8
1
62
256
6
ByLayer
370
18
48
1
60
0
100
AcDbLine
10
69.775664
20
108.980226
30
0
11
69.704949
21
109.653028
31
0
39
0
210
0
220
0
230
1
0
LINE
5
D4
100
AcDbEntity
8
1
62
256
6
ByLayer
370
18
48
1
60
0
100
AcDbLine
10
70.488134
20
110.882419
30
0
11
70.503486
21
110.743401
31
0
39
0
210
0
220
0
230
1
0
LINE
5
D5
100
AcDbEntity
8
1
62
256
6
ByLayer
370
18
48
1
60
0
100
AcDbLine
10
71.811378
20
98.292595
30
0
11
71.79749
21
98.431767
31
0
39
0
210
0
220
0
230
1
0
LINE
5
D6
100
AcDbEntity
8
1
62
256
6
ByLayer
370
18
48
1
60
0
100
AcDbLine
10
71.762765
20
98.288176
30
0
11
71.750237
21
98.427471
31
0
39
0
210
0
220
0
230
1
0
LINE
5
D7
100
AcDbEntity
8
1
62
256
6
ByLayer
370
18
48
1
60
0
100
AcDbLine
10
70.439665
20
110.876635
30
0
11
70.456372
21
110.737779
31
0
39
0
210
0
220
0
230
1
0
LINE
5
D8
100
AcDbEntity
8
1
62
256
6
ByLayer
370
18
48
1
60
0
100
AcDbLine
10
71.603797
20
98.275797
30
0
11
71.593493
21
98.415265
31
0
39
0
210
0
220
0
230
1
0
LINE
5
D9
100
AcDbEntity
8
1
62
256
6
ByLayer
370
18
48
1
60
0
100
AcDbLine
10
70.281597
20
110.855692
30
0
11
70.300515
21
110.717128
31
0
39
0
210
0
220
0
230
1
0
LINE
5
DA
100
AcDbEntity
8
1
62
256
6
ByLayer
370
18
48
1
60
0
100
AcDbLine
10
70.172423
20
110.827392
30
0
11
70.221881
21
110.696745
31
0
39
0
210
0
220
0
230
1
0
LINE
5
DB
100
AcDbEntity
8
1
62
256
6
ByLayer
370
18
48
1
60
0
100
AcDbLine
10
71.491125
20
98.280779
30
0
11
71.512339
21
98.418854
31
0
39
0
210
0
220
0
230
1
0
LINE
5
DC
100
AcDbEntity
8
1
62
256
6
ByLayer
370
18
48
1
60
0
100
AcDbLine
10
69.545779
20
110.050528
30
0
11
69.682883
21
110.028538
31
0
39
0
210
0
220
0
230
1
0
LINE
5
DD
100
AcDbEntity
8
1
62
256
6
ByLayer
370
18
48
1
60
0
100
AcDbLine
10
70.716656
20
98.910381
30
0
11
70.846192
21
98.960395
31
0
39
0
210
0
220
0
230
1
0
LINE
5
DE
100
AcDbEntity
8
1
62
256
6
ByLayer
370
18
48
1
60
0
100
AcDbLine
10
70.688375
20
99.019985
30
0
11
70.825822
21
99.039339
31
0
39
0
210
0
220
0
230
1
0
LINE
5
DF
100
AcDbEntity
8
1
62
256
6
ByLayer
370
18
48
1
60
0
100
AcDbLine
10
69.540904
20
109.937439
30
0
11
69.679372
21
109.947084
31
0
39
0
210
0
220
0
230
1
0
LINE
5
E0
100
AcDbEntity
8
1
62
256
6
ByLayer
370
18
48
1
60
0
100
AcDbLine
10
70.651661
20
99.317778
30
0
11
70.789703
21
99.332287
31
0
39
0
210
0
220
0
230
1
0
LINE
5
E1
100
AcDbEntity
8
1
62
256
6
ByLayer
370
18
48
1
60
0
100
AcDbLine
10
69.566907
20
109.638519
30
0
11
69.704949
21
109.653028
31
0
39
0
210
0
220
0
230
1
0
LINE
5
E2
100
AcDbEntity
8
1
62
256
6
ByLayer
370
18
48
1
60
0
100
AcDbLine
10
69.566907
20
109.638519
30
0
11
70.651661
21
99.317778
31
0
39
0
210
0
220
0
230
1
0
LINE
5
E3
100
AcDbEntity
8
1
62
256
6
ByLayer
370
18
48
1
60
0
100
AcDbLine
10
70.667385
20
99.17866
30
0
11
70.805126
21
99.195795
31
0
39
0
210
0
220
0
230
1
0
LINE
5
E4
100
AcDbEntity
8
1
62
256
6
ByLayer
370
18
48
1
60
0
100
AcDbLine
10
69.553363
20
109.777867
30
0
11
69.691657
21
109.789744
31
0
39
0
210
0
220
0
230
1
0
LINE
5
E5
100
AcDbEntity
8
1
62
256
6
ByLayer
370
18
48
1
60
0
100
AcDbLine
10
70.661584
20
99.227315
30
0
11
70.799487
21
99.243089
31
0
39
0
210
0
220
0
230
1
0
LINE
5
E6
100
AcDbEntity
8
1
62
256
6
ByLayer
370
18
48
1
60
0
100
AcDbLine
10
69.557805
20
109.729069
30
0
11
69.695974
21
109.742311
31
0
39
0
210
0
220
0
230
1
0
LINE
5
E7
100
AcDbEntity
8
1
62
256
6
ByLayer
370
18
48
1
60
0
100
AcDbLine
10
46
20
-60
30
0
11
55.5
21
-60
31
0
39
0
210
0
220
0
230
1
0
LINE
5
E8
100
AcDbEntity
8
1
62
256
6
ByLayer
370
18
48
1
60
0
100
AcDbLine
10
77.918108
20
-76.52076
30
0
11
78.3
21
-76.52076
31
0
39
0
210
0
220
0
230
1
0
LINE
5
E9
100
AcDbEntity
8
1
62
256
6
ByLayer
370
18
48
1
60
0
100
AcDbLine
10
78.3
20
-69.72142
30
0
11
78.3
21
-76.52076
31
0
39
0
210
0
220
0
230
1
0
LINE
5
EA
100
AcDbEntity
8
1
62
256
6
ByLayer
370
18
48
1
60
0
100
AcDbLine
10
78.3
20
-77.831323
30
0
11
78.3
21
-76.52076
31
0
39
0
210
0
220
0
230
1
0
LINE
5
EB
100
AcDbEntity
8
1
62
256
6
ByLayer
370
18
48
1
60
0
100
AcDbLine
10
78.3
20
-77.831323
30
0
11
77.927734
21
-77.831323
31
0
39
0
210
0
220
0
230
1
0
LINE
5
EC
100
AcDbEntity
8
1
62
256
6
ByLayer
370
18
48
1
60
0
100
AcDbLine
10
78.3
20
-79.360647
30
0
11
78.023659
21
-79.360647
31
0
39
0
210
0
220
0
230
1
0
LINE
5
ED
100
AcDbEntity
8
1
62
256
6
ByLayer
370
18
48
1
60
0
100
AcDbLine
10
78.3
20
-79.360647
30
0
11
78.3
21
-77.831323
31
0
39
0
210
0
220
0
230
1
0
LINE
5
EE
100
AcDbEntity
8
1
62
256
6
ByLayer
370
18
48
1
60
0
100
AcDbLine
10
78.189228
20
-80.687613
30
0
11
78.3
21
-80.687613
31
0
39
0
210
0
220
0
230
1
0
LINE
5
EF
100
AcDbEntity
8
1
62
256
6
ByLayer
370
18
48
1
60
0
100
AcDbLine
10
78.3
20
-79.360647
30
0
11
78.3
21
-80.687613
31
0
39
0
210
0
220
0
230
1
0
LINE
5
F0
100
AcDbEntity
8
1
62
256
6
ByLayer
370
18
48
1
60
0
100
AcDbLine
10
42
20
-103.2
30
0
11
42
21
-103
31
0
39
0
210
0
220
0
230
1
0
LINE
5
F1
100
AcDbEntity
8
1
62
256
6
ByLayer
370
18
48
1
60
0
100
AcDbLine
10
40
20
-104.012466
30
0
11
40
21
-103.2
31
0
39
0
210
0
220
0
230
1
0
LINE
5
F2
100
AcDbEntity
8
1
62
256
6
ByLayer
370
18
48
1
60
0
100
AcDbLine
10
80.949595
20
-95.913116
30
0
11
79.805762
21
-106.795956
31
0
39
0
210
0
220
0
230
1
0
LINE
5
F3
100
AcDbEntity
8
1
62
256
6
ByLayer
370
18
48
1
60
0
100
AcDbLine
10
79.805762
20
-106.795956
30
0
11
40
21
-104.012466
31
0
39
0
210
0
220
0
230
1
0
LINE
5
F4
100
AcDbEntity
8
1
62
256
6
ByLayer
370
18
48
1
60
0
100
AcDbLine
10
40
20
-103.2
30
0
11
44
21
-103.2
31
0
39
0
210
0
220
0
230
1
0
LINE
5
F5
100
AcDbEntity
8
1
62
256
6
ByLayer
370
18
48
1
60
0
100
AcDbLine
10
44
20
-103.13025
30
0
11
44
21
-103.2
31
0
39
0
210
0
220
0
230
1
0
LINE
5
F6
100
AcDbEntity
8
1
62
256
6
ByLayer
370
18
48
1
60
0
100
AcDbLine
10
78.3
20
-83.267703
30
0
11
78.3
21
-91.5
31
0
39
0
210
0
220
0
230
1
0
LINE
5
F7
100
AcDbEntity
8
1
62
256
6
ByLayer
370
18
48
1
60
0
100
AcDbLine
10
80.248493
20
-109.243512
30
0
11
47.499106
21
-105.760549
31
0
39
0
210
0
220
0
230
1
0
LINE
5
F8
100
AcDbEntity
8
1
62
256
6
ByLayer
370
18
48
1
60
0
100
AcDbLine
10
47.499106
20
-105.760549
30
0
11
40
21
-104.4
31
0
39
0
210
0
220
0
230
1
0
LINE
5
F9
100
AcDbEntity
8
1
62
256
6
ByLayer
370
18
48
1
60
0
100
AcDbLine
10
40
20
-104.4
30
0
11
40
21
-104.012466
31
0
39
0
210
0
220
0
230
1
0
LINE
5
FA
100
AcDbEntity
8
1
62
256
6
ByLayer
370
18
48
1
60
0
100
AcDbLine
10
79.805762
20
-106.795956
30
0
11
80.248493
21
-109.243512
31
0
39
0
210
0
220
0
230
1
0
LINE
5
FB
100
AcDbEntity
8
1
62
256
6
ByLayer
370
18
48
1
60
0
100
AcDbLine
10
82.351086
20
-100.380317
30
0
11
82.761975
21
-96.470969
31
0
39
0
210
0
220
0
230
1
0
LINE
5
FC
100
AcDbEntity
8
1
62
256
6
ByLayer
370
18
48
1
60
0
100
AcDbLine
10
82.094563
20
-100.353356
30
0
11
82.351086
21
-100.380317
31
0
39
0
210
0
220
0
230
1
0
LINE
5
FD
100
AcDbEntity
8
1
62
256
6
ByLayer
370
18
48
1
60
0
100
AcDbLine
10
82.062999
20
-100.500864
30
0
11
82.094563
21
-100.353356
31
0
39
0
210
0
220
0
230
1
0
LINE
5
FE
100
AcDbEntity
8
1
62
256
6
ByLayer
370
18
48
1
60
0
100
AcDbLine
10
82.062999
20
-100.500864
30
0
11
81.080056
21
-109.852934
31
0
39
0
210
0
220
0
230
1
0
LINE
5
FF
100
AcDbEntity
8
1
62
256
6
ByLayer
370
18
48
1
60
0
100
AcDbLine
10
80.928332
20
-110.071932
30
0
11
81.080056
21
-109.852934
31
0
39
0
210
0
220
0
230
1
0
LINE
5
100
100
AcDbEntity
8
1
62
256
6
ByLayer
370
18
48
1
60
0
100
AcDbLine
10
80.248493
20
-109.243512
30
0
11
80.928332
21
-110.071932
31
0
39
0
210
0
220
0
230
1
0
LINE
5
101
100
AcDbEntity
8
1
62
256
6
ByLayer
370
18
48
1
60
0
100
AcDbLine
10
80.928332
20
-110.071932
30
0
11
80.685761
21
-110.173475
31
0
39
0
210
0
220
0
230
1
0
LINE
5
102
100
AcDbEntity
8
1
62
256
6
ByLayer
370
18
48
1
60
0
100
AcDbLine
10
80.685761
20
-110.173475
30
0
11
71.382409
21
-109.195653
31
0
39
0
210
0
220
0
230
1
0
LINE
5
103
100
AcDbEntity
8
1
62
256
6
ByLayer
370
18
48
1
60
0
100
AcDbLine
10
71.219193
20
-109.194351
30
0
11
71.382409
21
-109.195653
31
0
39
0
210
0
220
0
230
1
0
LINE
5
104
100
AcDbEntity
8
1
62
256
6
ByLayer
370
18
48
1
60
0
100
AcDbLine
10
70.921358
20
-109.486338
30
0
11
71.219193
21
-109.194351
31
0
39
0
210
0
220
0
230
1
0
LINE
5
105
100
AcDbEntity
8
1
62
256
6
ByLayer
370
18
48
1
60
0
100
AcDbLine
10
70.206848
20
-109.574851
30
0
11
70.283003
21
-109.500191
31
0
39
0
210
0
220
0
230
1
0
LINE
5
106
100
AcDbEntity
8
1
62
256
6
ByLayer
370
18
48
1
60
0
100
AcDbLine
10
66.203861
20
-109.15412
30
0
11
70.206848
21
-109.574851
31
0
39
0
210
0
220
0
230
1
0
LINE
5
107
100
AcDbEntity
8
1
62
256
6
ByLayer
370
18
48
1
60
0
100
AcDbLine
10
13.901883
20
-83.785346
30
0
11
13.909804
21
-84.074557
31
0
39
0
210
0
220
0
230
1
0
LINE
5
108
100
AcDbEntity
8
1
62
256
6
ByLayer
370
18
48
1
60
0
100
AcDbLine
10
15.927585
20
-83.398764
30
0
11
15.95386
21
-84.358172
31
0
39
0
210
0
220
0
230
1
0
LINE
5
109
100
AcDbEntity
8
1
62
256
6
ByLayer
370
18
48
1
60
0
100
AcDbLine
10
72.411124
20
-109.460773
30
0
11
80.608368
21
-110.322338
31
0
39
0
210
0
220
0
230
1
0
LINE
5
10A
100
AcDbEntity
8
1
62
256
6
ByLayer
370
18
48
1
60
0
100
AcDbLine
10
81.241192
20
-109.807888
30
0
11
82.106048
21
-101.579331
31
0
39
0
210
0
220
0
230
1
0
LINE
5
10B
100
AcDbEntity
8
1
62
256
6
ByLayer
370
18
48
1
60
0
100
AcDbLine
10
80.566461
20
-110.538316
30
0
11
72.369216
21
-109.676751
31
0
39
0
210
0
220
0
230
1
0
LINE
5
10C
100
AcDbEntity
8
1
62
256
6
ByLayer
370
18
48
1
60
0
100
AcDbLine
10
72.369216
20
-109.676751
30
0
11
71.866286
21
-109.866317
31
0
39
0
210
0
220
0
230
1
0
LINE
5
10D
100
AcDbEntity
8
1
62
256
6
ByLayer
370
18
48
1
60
0
100
AcDbLine
10
80.538242
20
-110.777782
30
0
11
71.86929
21
-109.866638
31
0
39
0
210
0
220
0
230
1
0
LINE
5
10E
100
AcDbEntity
8
1
62
256
6
ByLayer
370
18
48
1
60
0
100
AcDbLine
10
80.541259
20
-110.778093
30
0
11
80.566461
21
-110.538316
31
0
39
0
210
0
220
0
230
1
0
LINE
5
10F
100
AcDbEntity
8
1
62
256
6
ByLayer
370
18
48
1
60
0
100
AcDbLine
10
82.304195
20
-101.600157
30
0
11
81.439339
21
-109.828714
31
0
39
0
210
0
220
0
230
1
0
LINE
5
110
100
AcDbEntity
8
1
62
256
6
ByLayer
370
18
48
1
60
0
100
AcDbLine
10
82.329397
20
-101.360381
30
0
11
82.304195
21
-101.600157
31
0
39
0
210
0
220
0
230
1
0
LINE
5
111
100
AcDbEntity
8
1
62
256
6
ByLayer
370
18
48
1
60
0
100
AcDbLine
10
81.439339
20
-109.828714
30
0
11
81.414138
21
-110.068491
31
0
39
0
210
0
220
0
230
1
0
LINE
5
112
100
AcDbEntity
8
1
62
256
6
ByLayer
370
18
48
1
60
0
100
AcDbLine
10
71.86929
20
-109.866638
30
0
11
71.851954
21
-109.864816
31
0
39
0
210
0
220
0
230
1
0
LINE
5
113
100
AcDbEntity
8
1
62
256
6
ByLayer
370
18
48
1
60
0
100
AcDbLine
10
44
20
-62
30
0
11
46
21
-62
31
0
39
0
210
0
220
0
230
1
0
LINE
5
114
100
AcDbEntity
8
1
62
256
6
ByLayer
370
18
48
1
60
0
100
AcDbLine
10
80.360815
20
-110.9934
30
0
11
71.824654
21
-110.096213
31
0
39
0
210
0
220
0
230
1
0
LINE
5
115
100
AcDbEntity
8
1
62
256
6
ByLayer
370
18
48
1
60
0
100
AcDbLine
10
70.48466
20
-109.502895
30
0
11
70.247689
21
-109.632595
31
0
39
0
210
0
220
0
230
1
0
LINE
5
116
100
AcDbEntity
8
1
62
256
6
ByLayer
370
18
48
1
60
0
100
AcDbLine
10
71.149317
20
-110.326885
30
0
11
70.912346
21
-110.456584
31
0
39
0
210
0
220
0
230
1
0
LINE
5
117
100
AcDbEntity
8
1
62
256
6
ByLayer
370
18
48
1
60
0
100
AcDbLine
10
70.912346
20
-110.456584
30
0
11
70.793592
21
-110.52158
31
0
39
0
210
0
220
0
230
1
0
LINE
5
118
100
AcDbEntity
8
1
62
256
6
ByLayer
370
18
48
1
60
0
100
AcDbLine
10
70.247689
20
-109.632595
30
0
11
70.128935
21
-109.697591
31
0
39
0
210
0
220
0
230
1
0
LINE
5
119
100
AcDbEntity
8
1
62
256
6
ByLayer
370
18
48
1
60
0
100
AcDbLine
10
82.466221
20
-101.445203
30
0
11
81.565607
21
-110.01397
31
0
39
0
210
0
220
0
230
1
0
LINE
5
11A
100
AcDbEntity
8
1
62
256
6
ByLayer
370
18
48
1
60
0
100
AcDbLine
10
81.794885
20
-110.691648
30
0
11
82.831385
21
-100.830003
31
0
39
0
210
0
220
0
230
1
0
LINE
5
11B
100
AcDbEntity
8
1
62
256
6
ByLayer
370
18
48
1
60
0
100
AcDbLine
10
71.149317
20
-110.326885
30
0
11
80.973435
21
-111.359441
31
0
39
0
210
0
220
0
230
1
0
LINE
5
11C
100
AcDbEntity
8
1
62
256
6
ByLayer
370
18
48
1
60
0
100
AcDbLine
10
70.25916
20
-109.523453
30
0
11
70.247689
21
-109.632595
31
0
39
0
210
0
220
0
230
1
0
LINE
5
11D
100
AcDbEntity
8
1
62
256
6
ByLayer
370
18
48
1
60
0
100
AcDbLine
10
80.973435
20
-111.359441
30
0
11
81.041133
21
-111.521162
31
0
39
0
210
0
220
0
230
1
0
LINE
5
11E
100
AcDbEntity
8
1
62
256
6
ByLayer
370
18
48
1
60
0
100
AcDbLine
10
70.912346
20
-110.456584
30
0
11
81.041133
21
-111.521162
31
0
39
0
210
0
220
0
230
1
0
LINE
5
11F
100
AcDbEntity
8
1
62
256
6
ByLayer
370
18
48
1
60
0
100
AcDbLine
10
69.566907
20
-109.638519
30
0
11
70.128935
21
-109.697591
31
0
39
0
210
0
220
0
230
1
0
LINE
5
120
100
AcDbEntity
8
1
62
256
6
ByLayer
370
18
48
1
60
0
100
AcDbLine
10
70.48466
20
-109.502895
30
0
11
70.488012
21
-109.470999
31
0
39
0
210
0
220
0
230
1
0
LINE
5
121
100
AcDbEntity
8
1
62
256
6
ByLayer
370
18
48
1
60
0
100
AcDbLine
10
70.793592
20
-110.52158
30
0
11
70.578253
21
-110.892307
31
0
39
0
210
0
220
0
230
1
0
LINE
5
122
100
AcDbEntity
8
1
62
256
6
ByLayer
370
18
48
1
60
0
100
AcDbLine
10
81.041133
20
-111.521162
30
0
11
81.075059
21
-111.602206
31
0
39
0
210
0
220
0
230
1
0
LINE
5
123
100
AcDbEntity
8
1
62
256
6
ByLayer
370
18
48
1
60
0
100
AcDbLine
10
80.859721
20
-111.972933
30
0
11
81.075059
21
-111.602206
31
0
39
0
210
0
220
0
230
1
0
LINE
5
124
100
AcDbEntity
8
1
62
256
6
ByLayer
370
18
48
1
60
0
100
AcDbLine
10
69.566907
20
-109.638519
30
0
11
69.580534
21
-109.508865
31
0
39
0
210
0
220
0
230
1
0
LINE
5
125
100
AcDbEntity
8
1
62
256
6
ByLayer
370
18
48
1
60
0
100
AcDbLine
10
82.831385
20
-100.830003
30
0
11
82.931228
21
-100.685891
31
0
39
0
210
0
220
0
230
1
0
LINE
5
126
100
AcDbEntity
8
1
62
256
6
ByLayer
370
18
48
1
60
0
100
AcDbLine
10
82.931228
20
-100.685891
30
0
11
82.981262
21
-100.613672
31
0
39
0
210
0
220
0
230
1
0
LINE
5
127
100
AcDbEntity
8
1
62
256
6
ByLayer
370
18
48
1
60
0
100
AcDbLine
10
81.794885
20
-110.691648
30
0
11
81.862583
21
-110.853369
31
0
39
0
210
0
220
0
230
1
0
LINE
5
128
100
AcDbEntity
8
1
62
256
6
ByLayer
370
18
48
1
60
0
100
AcDbLine
10
81.862583
20
-110.853369
30
0
11
81.896509
21
-110.934413
31
0
39
0
210
0
220
0
230
1
0
LINE
5
129
100
AcDbEntity
8
1
62
256
6
ByLayer
370
18
48
1
60
0
100
AcDbLine
10
80.859721
20
-111.972933
30
0
11
70.578253
21
-110.892307
31
0
39
0
210
0
220
0
230
1
0
LINE
5
12A
100
AcDbEntity
8
1
62
256
6
ByLayer
370
18
48
1
60
0
100
AcDbLine
10
81.862583
20
-110.853369
30
0
11
82.931228
21
-100.685891
31
0
39
0
210
0
220
0
230
1
0
LINE
5
12B
100
AcDbEntity
8
1
62
256
6
ByLayer
370
18
48
1
60
0
100
AcDbLine
10
69.557805
20
-109.729069
30
0
11
70.028882
21
-109.775583
31
0
39
0
210
0
220
0
230
1
0
LINE
5
12C
100
AcDbEntity
8
1
62
256
6
ByLayer
370
18
48
1
60
0
100
AcDbLine
10
70.671464
20
-110.572206
30
0
11
70.488134
21
-110.882419
31
0
39
0
210
0
220
0
230
1
0
LINE
5
12D
100
AcDbEntity
8
1
62
256
6
ByLayer
370
18
48
1
60
0
100
AcDbLine
10
69.553363
20
-109.777867
30
0
11
69.979759
21
-109.81705
31
0
39
0
210
0
220
0
230
1
0
LINE
5
12E
100
AcDbEntity
8
1
62
256
6
ByLayer
370
18
48
1
60
0
100
AcDbLine
10
70.608377
20
-110.596362
30
0
11
70.439665
21
-110.876635
31
0
39
0
210
0
220
0
230
1
0
LINE
5
12F
100
AcDbEntity
8
1
62
256
6
ByLayer
370
18
48
1
60
0
100
AcDbLine
10
69.540904
20
-109.937439
30
0
11
69.809636
21
-109.959133
31
0
39
0
210
0
220
0
230
1
0
LINE
5
130
100
AcDbEntity
8
1
62
256
6
ByLayer
370
18
48
1
60
0
100
AcDbLine
10
70.390785
20
-110.679597
30
0
11
70.281597
21
-110.855692
31
0
39
0
210
0
220
0
230
1
0
LINE
5
131
100
AcDbEntity
8
1
62
256
6
ByLayer
370
18
48
1
60
0
100
AcDbLine
10
81.896509
20
-110.934413
30
0
11
82.109643
21
-110.956814
31
0
39
0
210
0
220
0
230
1
0
LINE
5
132
100
AcDbEntity
8
1
62
256
6
ByLayer
370
18
48
1
60
0
100
AcDbLine
10
83.194397
20
-100.636073
30
0
11
82.981262
21
-100.613672
31
0
39
0
210
0
220
0
230
1
0
LINE
5
133
100
AcDbEntity
8
1
62
256
6
ByLayer
370
18
48
1
60
0
100
AcDbLine
10
69.545779
20
-110.050528
30
0
11
69.803086
21
-110.030743
31
0
39
0
210
0
220
0
230
1
0
LINE
5
134
100
AcDbEntity
8
1
62
256
6
ByLayer
370
18
48
1
60
0
100
AcDbLine
10
70.172423
20
-110.827392
30
0
11
70.316971
21
-110.667818
31
0
39
0
210
0
220
0
230
1
0
LINE
5
135
100
AcDbEntity
8
1
62
256
6
ByLayer
370
18
48
1
60
0
100
AcDbLine
10
83.194397
20
-100.636073
30
0
11
82.109643
21
-110.956814
31
0
39
0
210
0
220
0
230
1
0
LINE
5
136
100
AcDbEntity
8
1
62
256
6
ByLayer
370
18
48
1
60
0
100
AcDbLine
10
80.949926
20
-111.981997
30
0
11
81.127347
21
-111.671164
31
0
39
0
210
0
220
0
230
1
0
LINE
5
137
100
AcDbEntity
8
1
62
256
6
ByLayer
370
18
48
1
60
0
100
AcDbLine
10
83.203499
20
-100.545524
30
0
11
83.02467
21
-100.529726
31
0
39
0
210
0
220
0
230
1
0
LINE
5
138
100
AcDbEntity
8
1
62
256
6
ByLayer
370
18
48
1
60
0
100
AcDbLine
10
81.921515
20
-111.025549
30
0
11
82.09972
21
-111.047277
31
0
39
0
210
0
220
0
230
1
0
LINE
5
139
100
AcDbEntity
8
1
62
256
6
ByLayer
370
18
48
1
60
0
100
AcDbLine
10
80.998539
20
-111.986417
30
0
11
81.15615
21
-111.704977
31
0
39
0
210
0
220
0
230
1
0
LINE
5
13A
100
AcDbEntity
8
1
62
256
6
ByLayer
370
18
48
1
60
0
100
AcDbLine
10
83.207941
20
-100.496726
30
0
11
83.04591
21
-100.485329
31
0
39
0
210
0
220
0
230
1
0
LINE
5
13B
100
AcDbEntity
8
1
62
256
6
ByLayer
370
18
48
1
60
0
100
AcDbLine
10
81.93306
20
-111.073392
30
0
11
82.093919
21
-111.095933
31
0
39
0
210
0
220
0
230
1
0
LINE
5
13C
100
AcDbEntity
8
1
62
256
6
ByLayer
370
18
48
1
60
0
100
AcDbLine
10
81.157507
20
-111.998796
30
0
11
81.253787
21
-111.821344
31
0
39
0
210
0
220
0
230
1
0
LINE
5
13D
100
AcDbEntity
8
1
62
256
6
ByLayer
370
18
48
1
60
0
100
AcDbLine
10
82.536989
20
-99.612493
30
0
11
82.479707
21
-99.418901
31
0
39
0
210
0
220
0
230
1
0
LINE
5
13E
100
AcDbEntity
8
1
62
256
6
ByLayer
370
18
48
1
60
0
100
AcDbLine
10
81.972029
20
-111.237453
30
0
11
82.072929
21
-111.254608
31
0
39
0
210
0
220
0
230
1
0
LINE
5
13F
100
AcDbEntity
8
1
62
256
6
ByLayer
370
18
48
1
60
0
100
AcDbLine
10
83.2204
20
-100.337154
30
0
11
83.118138
21
-100.332956
31
0
39
0
210
0
220
0
230
1
0
LINE
5
140
100
AcDbEntity
8
1
62
256
6
ByLayer
370
18
48
1
60
0
100
AcDbLine
10
81.270179
20
-111.993813
30
0
11
81.322445
21
-111.82454
31
0
39
0
210
0
220
0
230
1
0
LINE
5
141
100
AcDbEntity
8
1
62
256
6
ByLayer
370
18
48
1
60
0
100
AcDbLine
10
82.044649
20
-111.364212
30
0
11
81.957557
21
-111.308229
31
0
39
0
210
0
220
0
230
1
0
LINE
5
142
100
AcDbEntity
8
1
62
256
6
ByLayer
370
18
48
1
60
0
100
AcDbLine
10
83.215525
20
-100.224065
30
0
11
83.118697
21
-100.260716
31
0
39
0
210
0
220
0
230
1
0
LINE
5
143
100
AcDbEntity
8
1
62
256
6
ByLayer
370
18
48
1
60
0
100
AcDbLine
10
82.588881
20
-99.4472
30
0
11
82.604811
21
-99.623641
31
0
39
0
210
0
220
0
230
1
0
LINE
5
144
100
AcDbEntity
8
1
62
256
6
ByLayer
370
18
48
1
60
0
100
AcDbLine
10
56.603455
20
-65.857587
30
0
11
56.617417
21
-66.316379
31
0
39
0
210
0
220
0
230
1
0
LINE
5
145
100
AcDbEntity
8
1
62
256
6
ByLayer
370
18
48
1
60
0
100
AcDbLine
10
42.052445
20
-89.565044
30
0
11
42.55798
21
-89.749043
31
0
39
0
210
0
220
0
230
1
0
LINE
5
146
100
AcDbEntity
8
1
62
256
6
ByLayer
370
18
48
1
60
0
100
AcDbLine
10
42.55798
20
-90.750957
30
0
11
42.052445
21
-90.934956
31
0
39
0
210
0
220
0
230
1
0
LINE
5
147
100
AcDbEntity
8
1
62
256
6
ByLayer
370
18
48
1
60
0
100
AcDbLine
10
76.6068
20
102.747845
30
0
11
76.678926
21
102.755426
31
0
39
0
210
0
220
0
230
1
0
LINE
5
148
100
AcDbEntity
8
1
62
256
6
ByLayer
370
18
48
1
60
0
100
AcDbLine
10
77.520209
20
105.581343
30
0
11
77.585006
21
105.588154
31
0
39
0
210
0
220
0
230
1
0
LINE
5
149
100
AcDbEntity
8
1
62
256
6
ByLayer
370
18
48
1
60
0
100
AcDbLine
10
77.587629
20
104.93988
30
0
11
77.651204
21
104.946562
31
0
39
0
210
0
220
0
230
1
0
LINE
5
14A
100
AcDbEntity
8
1
62
256
6
ByLayer
370
18
48
1
60
0
100
AcDbLine
10
76.805411
20
103.968728
30
0
11
76.914403
21
103.980183
31
0
39
0
210
0
220
0
230
1
0
LINE
5
14B
100
AcDbEntity
8
1
62
256
6
ByLayer
370
18
48
1
60
0
100
AcDbLine
10
76.55317
20
106.368641
30
0
11
76.662162
21
106.380096
31
0
39
0
210
0
220
0
230
1
0
LINE
5
14C
100
AcDbEntity
8
1
62
256
6
ByLayer
370
18
48
1
60
0
100
AcDbLine
10
75.575852
20
104.163771
30
0
11
75.684845
21
104.175226
31
0
39
0
210
0
220
0
230
1
0
LINE
5
14D
100
AcDbEntity
8
1
62
256
6
ByLayer
370
18
48
1
60
0
100
AcDbLine
10
75.391032
20
105.922221
30
0
11
75.500024
21
105.933676
31
0
39
0
210
0
220
0
230
1
0
LINE
5
14E
100
AcDbEntity
8
1
62
256
6
ByLayer
370
18
48
1
60
0
100
AcDbLine
10
76.901882
20
103.995783
30
0
11
76.914403
21
103.980183
31
0
39
0
210
0
220
0
230
1
0
LINE
5
14F
100
AcDbEntity
8
1
62
256
6
ByLayer
370
18
48
1
60
0
100
AcDbLine
10
76.545119
20
106.35088
30
0
11
76.653158
21
106.362235
31
0
39
0
210
0
220
0
230
1
0
LINE
5
150
100
AcDbEntity
8
1
62
256
6
ByLayer
370
18
48
1
60
0
100
AcDbLine
10
76.793844
20
103.984427
30
0
11
76.901882
21
103.995783
31
0
39
0
210
0
220
0
230
1
0
LINE
5
151
100
AcDbEntity
8
1
62
256
6
ByLayer
370
18
48
1
60
0
100
AcDbLine
10
76.662162
20
106.380096
30
0
11
76.653158
21
106.362235
31
0
39
0
210
0
220
0
230
1
0
LINE
5
152
100
AcDbEntity
8
1
62
256
6
ByLayer
370
18
48
1
60
0
100
AcDbLine
10
76.254522
20
106.204358
30
0
11
76.354758
21
106.214893
31
0
39
0
210
0
220
0
230
1
0
LINE
5
153
100
AcDbEntity
8
1
62
256
6
ByLayer
370
18
48
1
60
0
100
AcDbLine
10
76.579368
20
104.077864
30
0
11
76.479132
21
104.067329
31
0
39
0
210
0
220
0
230
1
0
LINE
5
154
100
AcDbEntity
8
1
62
256
6
ByLayer
370
18
48
1
60
0
100
AcDbLine
10
75.4029
20
105.905551
30
0
11
75.510939
21
105.916907
31
0
39
0
210
0
220
0
230
1
0
LINE
5
155
100
AcDbEntity
8
1
62
256
6
ByLayer
370
18
48
1
60
0
100
AcDbLine
10
75.149177
20
105.333139
30
0
11
75.257215
21
105.344495
31
0
39
0
210
0
220
0
230
1
0
LINE
5
156
100
AcDbEntity
8
1
62
256
6
ByLayer
370
18
48
1
60
0
100
AcDbLine
10
75.216805
20
104.689695
30
0
11
75.324844
21
104.70105
31
0
39
0
210
0
220
0
230
1
0
LINE
5
157
100
AcDbEntity
8
1
62
256
6
ByLayer
370
18
48
1
60
0
100
AcDbLine
10
75.583996
20
104.182543
30
0
11
75.692035
21
104.193899
31
0
39
0
210
0
220
0
230
1
0
LINE
5
158
100
AcDbEntity
8
1
62
256
6
ByLayer
370
18
48
1
60
0
100
AcDbLine
10
75.500024
20
105.933676
30
0
11
75.510939
21
105.916907
31
0
39
0
210
0
220
0
230
1
0
LINE
5
159
100
AcDbEntity
8
1
62
256
6
ByLayer
370
18
48
1
60
0
100
AcDbLine
10
75.304925
20
104.699958
30
0
11
75.324844
21
104.70105
31
0
39
0
210
0
220
0
230
1
0
LINE
5
15A
100
AcDbEntity
8
1
62
256
6
ByLayer
370
18
48
1
60
0
100
AcDbLine
10
75.692035
20
104.193899
30
0
11
75.684845
21
104.175226
31
0
39
0
210
0
220
0
230
1
0
LINE
5
15B
100
AcDbEntity
8
1
62
256
6
ByLayer
370
18
48
1
60
0
100
AcDbLine
10
75.257215
20
105.344495
30
0
11
75.237505
21
105.341421
31
0
39
0
210
0
220
0
230
1
0
LINE
5
15C
100
AcDbEntity
8
1
62
256
6
ByLayer
370
18
48
1
60
0
100
AcDbLine
10
48.232051
20
-90.25
30
0
11
47.366025
21
-88.75
31
0
39
0
210
0
220
0
230
1
0
LINE
5
15D
100
AcDbEntity
8
1
62
256
6
ByLayer
370
18
48
1
60
0
100
AcDbLine
10
47.366025
20
-88.75
30
0
11
45.633975
21
-88.75
31
0
39
0
210
0
220
0
230
1
0
LINE
5
15E
100
AcDbEntity
8
1
62
256
6
ByLayer
370
18
48
1
60
0
100
AcDbLine
10
45.633975
20
-88.75
30
0
11
44.767949
21
-90.25
31
0
39
0
210
0
220
0
230
1
0
LINE
5
15F
100
AcDbEntity
8
1
62
256
6
ByLayer
370
18
48
1
60
0
100
AcDbLine
10
44.767949
20
-90.25
30
0
11
45.633975
21
-91.75
31
0
39
0
210
0
220
0
230
1
0
LINE
5
160
100
AcDbEntity
8
1
62
256
6
ByLayer
370
18
48
1
60
0
100
AcDbLine
10
45.633975
20
-91.75
30
0
11
47.366025
21
-91.75
31
0
39
0
210
0
220
0
230
1
0
LINE
5
161
100
AcDbEntity
8
1
62
256
6
ByLayer
370
18
48
1
60
0
100
AcDbLine
10
47.366025
20
-91.75
30
0
11
48.232051
21
-90.25
31
0
39
0
210
0
220
0
230
1
0
LINE
5
162
100
AcDbEntity
8
1
62
256
6
ByLayer
370
18
48
1
60
0
100
AcDbLine
10
47.499106
20
-105.760549
30
0
11
66.203861
21
-109.15412
31
0
39
0
210
0
220
0
230
1
0
LINE
5
163
100
AcDbEntity
8
1
62
256
6
ByLayer
370
18
48
1
60
0
100
AcDbLine
10
44
20
71.354531
30
0
11
30
21
71.354531
31
0
39
0
210
0
220
0
230
1
0
LINE
5
164
100
AcDbEntity
8
1
62
256
6
ByLayer
370
18
48
1
60
0
100
AcDbLine
10
30
20
71.354531
30
0
11
30
21
56.369993
31
0
39
0
210
0
220
0
230
1
0
LINE
5
165
100
AcDbEntity
8
1
62
256
6
ByLayer
370
18
48
1
60
0
100
AcDbLine
10
30
20
56.369993
30
0
11
44
21
56.369993
31
0
39
0
210
0
220
0
230
1
0
LINE
5
166
100
AcDbEntity
8
1
62
256
6
ByLayer
370
18
48
1
60
0
100
AcDbLine
10
30
20
83.611242
30
0
11
44
21
83.611242
31
0
39
0
210
0
220
0
230
1
0
LINE
5
167
100
AcDbEntity
8
1
62
256
6
ByLayer
370
18
48
1
60
0
100
AcDbLine
10
44
20
51.540364
30
0
11
30
21
51.540364
31
0
39
0
210
0
220
0
230
1
0
LINE
5
168
100
AcDbEntity
8
1
62
256
6
ByLayer
370
18
48
1
60
0
100
AcDbLine
10
44
20
71.354531
30
0
11
44
21
56.369993
31
0
39
0
210
0
220
0
230
1
0
LINE
5
169
100
AcDbEntity
8
1
62
256
6
ByLayer
370
18
48
1
60
0
100
AcDbLine
10
44
20
39.269873
30
0
11
44
21
34.618893
31
0
39
0
210
0
220
0
230
1
0
LINE
5
16A
100
AcDbEntity
8
1
62
256
6
ByLayer
370
18
48
1
60
0
100
AcDbLine
10
30
20
26.35314
30
0
11
44
21
26.35314
31
0
39
0
210
0
220
0
230
1
0
LINE
5
16B
100
AcDbEntity
8
1
62
256
6
ByLayer
370
18
48
1
60
0
100
AcDbLine
10
44
20
34.618893
30
0
11
44
21
26.35314
31
0
39
0
210
0
220
0
230
1
0
LINE
5
16C
100
AcDbEntity
8
1
62
256
6
ByLayer
370
18
48
1
60
0
100
AcDbLine
10
44
20
98.320889
30
0
11
30
21
98.320889
31
0
39
0
210
0
220
0
230
1
0
LINE
5
16D
100
AcDbEntity
8
1
62
256
6
ByLayer
370
18
48
1
60
0
100
AcDbLine
10
30
20
98.320889
30
0
11
30
21
83.611242
31
0
39
0
210
0
220
0
230
1
0
LINE
5
16E
100
AcDbEntity
8
1
62
256
6
ByLayer
370
18
48
1
60
0
100
AcDbLine
10
44
20
39.269873
30
0
11
44
21
51.540364
31
0
39
0
210
0
220
0
230
1
0
LINE
5
16F
100
AcDbEntity
8
1
62
256
6
ByLayer
370
18
48
1
60
0
100
AcDbLine
10
44
20
83.611242
30
0
11
44
21
98.320889
31
0
39
0
210
0
220
0
230
1
0
LINE
5
170
100
AcDbEntity
8
1
62
256
6
ByLayer
370
18
48
1
60
0
100
AcDbLine
10
30
20
103
30
0
11
44
21
103
31
0
39
0
210
0
220
0
230
1
0
LINE
5
171
100
AcDbEntity
8
1
62
256
6
ByLayer
370
18
48
1
60
0
100
AcDbLine
10
22.05
20
103
30
0
11
22.05
21
89.592728
31
0
39
0
210
0
220
0
230
1
0
LINE
5
172
100
AcDbEntity
8
1
62
256
6
ByLayer
370
18
48
1
60
0
100
AcDbLine
10
46
20
40.351667
30
0
11
46
21
62.999751
31
0
39
0
210
0
220
0
230
1
0
LINE
5
173
100
AcDbEntity
8
1
62
256
6
ByLayer
370
18
48
1
60
0
100
AcDbLine
10
22.05
20
103
30
0
11
30
21
103
31
0
39
0
210
0
220
0
230
1
0
LINE
5
174
100
AcDbEntity
8
1
62
256
6
ByLayer
370
18
48
1
60
0
100
AcDbLine
10
46
20
40.351667
30
0
11
78.3
21
66.477406
31
0
39
0
210
0
220
0
230
1
0
LINE
5
175
100
AcDbEntity
8
1
62
256
6
ByLayer
370
18
48
1
60
0
100
AcDbLine
10
78.3
20
66.477406
30
0
11
78.3
21
60.984448
31
0
39
0
210
0
220
0
230
1
0
LINE
5
176
100
AcDbEntity
8
1
62
256
6
ByLayer
370
18
48
1
60
0
100
AcDbLine
10
78.3
20
60.984448
30
0
11
77.835382
21
59.185668
31
0
39
0
210
0
220
0
230
1
0
LINE
5
177
100
AcDbEntity
8
1
62
256
6
ByLayer
370
18
48
1
60
0
100
AcDbLine
10
77.835382
20
59.185668
30
0
11
74.512392
21
56.938472
31
0
39
0
210
0
220
0
230
1
0
LINE
5
178
100
AcDbEntity
8
1
62
256
6
ByLayer
370
18
48
1
60
0
100
AcDbLine
10
74.512392
20
56.938472
30
0
11
73.839474
21
56.056792
31
0
39
0
210
0
220
0
230
1
0
LINE
5
179
100
AcDbEntity
8
1
62
256
6
ByLayer
370
18
48
1
60
0
100
AcDbLine
10
73.839474
20
56.056792
30
0
11
46
21
36.555754
31
0
39
0
210
0
220
0
230
1
0
LINE
5
17A
100
AcDbEntity
8
1
62
256
6
ByLayer
370
18
48
1
60
0
100
AcDbLine
10
78.3
20
66.477406
30
0
11
78.3
21
69.999835
31
0
39
0
210
0
220
0
230
1
0
LINE
5
17B
100
AcDbEntity
8
1
62
256
6
ByLayer
370
18
48
1
60
0
100
AcDbLine
10
69.192409
20
70
30
0
11
60.751006
21
70
31
0
39
0
210
0
220
0
230
1
0
LINE
5
17C
100
AcDbEntity
8
1
62
256
6
ByLayer
370
18
48
1
60
0
100
AcDbLine
10
30
20
26.182769
30
0
11
44
21
26.182769
31
0
39
0
210
0
220
0
230
1
0
LINE
5
17D
100
AcDbEntity
8
1
62
256
6
ByLayer
370
18
48
1
60
0
100
AcDbLine
10
22.05
20
-103
30
0
11
30
21
-103
31
0
39
0
210
0
220
0
230
1
0
LINE
5
17E
100
AcDbEntity
8
1
62
256
6
ByLayer
370
18
48
1
60
0
100
AcDbLine
10
46
20
-42
30
0
11
44
21
-42
31
0
39
0
210
0
220
0
230
1
0
LINE
5
17F
100
AcDbEntity
8
1
62
256
6
ByLayer
370
18
48
1
60
0
100
AcDbLine
10
76.608163
20
-65.708021
30
0
11
76.594201
21
-65.24923
31
0
39
0
210
0
220
0
230
1
0
LINE
5
180
100
AcDbEntity
8
1
62
256
6
ByLayer
370
18
48
1
60
0
100
AcDbLine
10
46.811871
20
-72.166642
30
0
11
46
21
-72.166642
31
0
39
0
210
0
220
0
230
1
0
LINE
5
181
100
AcDbEntity
8
1
62
256
6
ByLayer
370
18
48
1
60
0
100
AcDbLine
10
30
20
-73.781451
30
0
11
46.114176
21
-73.781451
31
0
39
0
210
0
220
0
230
1
0
LINE
5
182
100
AcDbEntity
8
1
62
256
6
ByLayer
370
18
48
1
60
0
100
AcDbLine
10
46.811871
20
-72.166642
30
0
11
46.114176
21
-73.781451
31
0
39
0
210
0
220
0
230
1
0
LINE
5
183
100
AcDbEntity
8
1
62
256
6
ByLayer
370
18
48
1
60
0
100
AcDbLine
10
44
20
-31.182769
30
0
11
30
21
-31.182769
31
0
39
0
210
0
220
0
230
1
0
LINE
5
184
100
AcDbEntity
8
1
62
256
6
ByLayer
370
18
48
1
60
0
100
AcDbLine
10
30
20
-31.182769
30
0
11
30
21
-73.781451
31
0
39
0
210
0
220
0
230
1
0
LINE
5
185
100
AcDbEntity
8
1
62
256
6
ByLayer
370
18
48
1
60
0
100
AcDbLine
10
44
20
-26.182769
30
0
11
30
21
-26.182769
31
0
39
0
210
0
220
0
230
1
0
LINE
5
186
100
AcDbEntity
8
1
62
256
6
ByLayer
370
18
48
1
60
0
100
AcDbLine
10
50.879465
20
-85.290887
30
0
11
30
21
-85.290887
31
0
39
0
210
0
220
0
230
1
0
LINE
5
187
100
AcDbEntity
8
1
62
256
6
ByLayer
370
18
48
1
60
0
100
AcDbLine
10
77.399989
20
-101.540883
30
0
11
50.879465
21
-85.290887
31
0
39
0
210
0
220
0
230
1
0
LINE
5
188
100
AcDbEntity
8
1
62
256
6
ByLayer
370
18
48
1
60
0
100
AcDbLine
10
44
20
-31.182769
30
0
11
44
21
-70.166642
31
0
39
0
210
0
220
0
230
1
0
LINE
5
189
100
AcDbEntity
8
1
62
256
6
ByLayer
370
18
48
1
60
0
100
AcDbLine
10
46.811871
20
-72.166642
30
0
11
70.184873
21
-72.166642
31
0
39
0
210
0
220
0
230
1
0
LINE
5
18A
100
AcDbEntity
8
1
62
256
6
ByLayer
370
18
48
1
60
0
100
AcDbLine
10
70.184873
20
-72.166642
30
0
11
76.872297
21
-74.93619
31
0
39
0
210
0
220
0
230
1
0
LINE
5
18B
100
AcDbEntity
8
1
62
256
6
ByLayer
370
18
48
1
60
0
100
AcDbLine
10
76.872297
20
-74.93619
30
0
11
77.399989
21
-101.540883
31
0
39
0
210
0
220
0
230
1
0
LINE
5
18C
100
AcDbEntity
8
1
62
256
6
ByLayer
370
18
48
1
60
0
100
AcDbLine
10
30
20
-92.601987
30
0
11
77.391548
21
-102.16401
31
0
39
0
210
0
220
0
230
1
0
LINE
5
18D
100
AcDbEntity
8
1
62
256
6
ByLayer
370
18
48
1
60
0
100
AcDbLine
10
46
20
-67.166642
30
0
11
55.556794
21
-67.166642
31
0
39
0
210
0
220
0
230
1
0
LINE
5
18E
100
AcDbEntity
8
1
62
256
6
ByLayer
370
18
48
1
60
0
100
AcDbLine
10
30
20
-92.601987
30
0
11
30
21
-85.290887
31
0
39
0
210
0
220
0
230
1
0
LINE
5
18F
100
AcDbEntity
8
1
62
256
6
ByLayer
370
18
48
1
60
0
100
AcDbLine
10
75.633414
20
-104.318437
30
0
11
30
21
-101.078211
31
0
39
0
210
0
220
0
230
1
0
LINE
5
190
100
AcDbEntity
8
1
62
256
6
ByLayer
370
18
48
1
60
0
100
AcDbLine
10
76.872297
20
-74.93619
30
0
11
77.835382
21
-59.185668
31
0
39
0
210
0
220
0
230
1
0
LINE
5
191
100
AcDbEntity
8
1
62
256
6
ByLayer
370
18
48
1
60
0
100
AcDbLine
10
78.3
20
-69.721328
30
0
11
77.963443
21
-75.215218
31
0
39
0
210
0
220
0
230
1
0
LINE
5
192
100
AcDbEntity
8
1
62
256
6
ByLayer
370
18
48
1
60
0
100
AcDbLine
10
78.027898
20
-79.393403
30
0
11
78.3
21
-81.571144
31
0
39
0
210
0
220
0
230
1
0
LINE
5
193
100
AcDbEntity
8
1
62
256
6
ByLayer
370
18
48
1
60
0
100
AcDbLine
10
78.3
20
-103.418695
30
0
11
77.399989
21
-101.540883
31
0
39
0
210
0
220
0
230
1
0
LINE
5
194
100
AcDbEntity
8
1
62
256
6
ByLayer
370
18
48
1
60
0
100
AcDbLine
10
77.835382
20
-59.185668
30
0
11
74.512392
21
-56.938472
31
0
39
0
210
0
220
0
230
1
0
LINE
5
195
100
AcDbEntity
8
1
62
256
6
ByLayer
370
18
48
1
60
0
100
AcDbLine
10
78.3
20
-81.571144
30
0
11
78.3
21
-103.418695
31
0
39
0
210
0
220
0
230
1
0
LINE
5
196
100
AcDbEntity
8
1
62
256
6
ByLayer
370
18
48
1
60
0
100
AcDbLine
10
78.3
20
-60.984448
30
0
11
77.835382
21
-59.185668
31
0
39
0
210
0
220
0
230
1
0
LINE
5
197
100
AcDbEntity
8
1
62
256
6
ByLayer
370
18
48
1
60
0
100
AcDbLine
10
30
20
-101.078211
30
0
11
30
21
-92.601987
31
0
39
0
210
0
220
0
230
1
0
LINE
5
198
100
AcDbEntity
8
1
62
256
6
ByLayer
370
18
48
1
60
0
100
AcDbLine
10
74.512392
20
-56.938472
30
0
11
73.257318
21
-56.951037
31
0
39
0
210
0
220
0
230
1
0
LINE
5
199
100
AcDbEntity
8
1
62
256
6
ByLayer
370
18
48
1
60
0
100
AcDbLine
10
46
20
-36.555754
30
0
11
46
21
-42.000187
31
0
39
0
210
0
220
0
230
1
0
LINE
5
19A
100
AcDbEntity
8
1
62
256
6
ByLayer
370
18
48
1
60
0
100
AcDbLine
10
46
20
-61.99962
30
0
11
46
21
-67.166642
31
0
39
0
210
0
220
0
230
1
0
LINE
5
19B
100
AcDbEntity
8
1
62
256
6
ByLayer
370
18
48
1
60
0
100
AcDbLine
10
78.3
20
-60.984448
30
0
11
78.3
21
-69.721328
31
0
39
0
210
0
220
0
230
1
0
LINE
5
19C
100
AcDbEntity
8
1
62
256
6
ByLayer
370
18
48
1
60
0
100
AcDbLine
10
73.839474
20
-56.056792
30
0
11
46
21
-36.555754
31
0
39
0
210
0
220
0
230
1
0
LINE
5
19D
100
AcDbEntity
8
1
62
256
6
ByLayer
370
18
48
1
60
0
100
AcDbLine
10
72.503012
20
-56.056792
30
0
11
73.839474
21
-56.056792
31
0
39
0
210
0
220
0
230
1
0
LINE
5
19E
100
AcDbEntity
8
1
62
256
6
ByLayer
370
18
48
1
60
0
100
AcDbLine
10
76.158346
20
-105.413672
30
0
11
75.633414
21
-104.318437
31
0
39
0
210
0
220
0
230
1
0
LINE
5
19F
100
AcDbEntity
8
1
62
256
6
ByLayer
370
18
48
1
60
0
100
AcDbLine
10
76.158346
20
-105.413672
30
0
11
42
21
-102.98824
31
0
39
0
210
0
220
0
230
1
0
LINE
5
1A0
100
AcDbEntity
8
1
62
256
6
ByLayer
370
18
48
1
60
0
100
AcDbLine
10
42
20
-103
30
0
11
42
21
-102.98824
31
0
39
0
210
0
220
0
230
1
0
LINE
5
1A1
100
AcDbEntity
8
1
62
256
6
ByLayer
370
18
48
1
60
0
100
AcDbLine
10
42
20
-103
30
0
11
30
21
-103
31
0
39
0
210
0
220
0
230
1
0
LINE
5
1A2
100
AcDbEntity
8
1
62
256
6
ByLayer
370
18
48
1
60
0
100
AcDbLine
10
30
20
-103
30
0
11
30
21
-101.078211
31
0
39
0
210
0
220
0
230
1
0
LINE
5
1A3
100
AcDbEntity
8
1
62
256
6
ByLayer
370
18
48
1
60
0
100
AcDbLine
10
74.512392
20
-56.938472
30
0
11
73.839474
21
-56.056792
31
0
39
0
210
0
220
0
230
1
0
LINE
5
1A4
100
AcDbEntity
8
1
62
256
6
ByLayer
370
18
48
1
60
0
100
AcDbLine
10
22.05
20
-89.592905
30
0
11
22.05
21
-103
31
0
39
0
210
0
220
0
230
1
0
LINE
5
1A5
100
AcDbEntity
8
1
62
256
6
ByLayer
370
18
48
1
60
0
100
AcDbLine
10
29.6
20
-11
30
0
11
30
21
-11
31
0
39
0
210
0
220
0
230
1
0
LINE
5
1A6
100
AcDbEntity
8
1
62
256
6
ByLayer
370
18
48
1
60
0
100
AcDbLine
10
18
20
-57.689077
30
0
11
30
21
-57.689077
31
0
39
0
210
0
220
0
230
1
0
LINE
5
1A7
100
AcDbEntity
8
1
62
256
6
ByLayer
370
18
48
1
60
0
100
AcDbLine
10
30
20
-11
30
0
11
30
21
-57.689077
31
0
39
0
210
0
220
0
230
1
0
LINE
5
1A8
100
AcDbEntity
8
1
62
256
6
ByLayer
370
18
48
1
60
0
100
AcDbLine
10
30
20
57.689077
30
0
11
18
21
57.689077
31
0
39
0
210
0
220
0
230
1
0
LINE
5
1A9
100
AcDbEntity
8
1
62
256
6
ByLayer
370
18
48
1
60
0
100
AcDbLine
10
30
20
57.689077
30
0
11
30
21
11
31
0
39
0
210
0
220
0
230
1
0
LINE
5
1AA
100
AcDbEntity
8
1
62
256
6
ByLayer
370
18
48
1
60
0
100
AcDbLine
10
30
20
11
30
0
11
29.6
21
11
31
0
39
0
210
0
220
0
230
1
0
LINE
5
1AB
100
AcDbEntity
8
1
62
256
6
ByLayer
370
18
48
1
60
0
100
AcDbLine
10
28.8
20
10.2
30
0
11
28.8
21
-10.2
31
0
39
0
210
0
220
0
230
1
0
LINE
5
1AC
100
AcDbEntity
8
1
62
256
6
ByLayer
370
18
48
1
60
0
100
AcDbLine
10
7.712283
20
-69.945789
30
0
11
5.918312
21
-70.782078
31
0
39
0
210
0
220
0
230
1
0
LINE
5
1AD
100
AcDbEntity
8
1
62
256
6
ByLayer
370
18
48
1
60
0
100
AcDbLine
10
0
20
-42.427468
30
0
11
0
21
42.427468
31
0
39
0
210
0
220
0
230
1
0
LINE
5
1AE
100
AcDbEntity
8
1
62
256
6
ByLayer
370
18
48
1
60
0
100
AcDbLine
10
18
20
57.689077
30
0
11
18
21
-57.689077
31
0
39
0
210
0
220
0
230
1
0
LINE
5
1AF
100
AcDbEntity
8
1
62
256
6
ByLayer
370
18
48
1
60
0
100
AcDbLine
10
7.712283
20
69.945789
30
0
11
30
21
69.945789
31
0
39
0
210
0
220
0
230
1
0
LINE
5
1B0
100
AcDbEntity
8
1
62
256
6
ByLayer
370
18
48
1
60
0
100
AcDbLine
10
30
20
-69.945789
30
0
11
7.712283
21
-69.945789
31
0
39
0
210
0
220
0
230
1
0
LINE
5
1B1
100
AcDbEntity
8
1
62
256
6
ByLayer
370
18
48
1
60
0
100
AcDbLine
10
17.410968
20
-83.568188
30
0
11
30
21
-83.568188
31
0
39
0
210
0
220
0
230
1
0
LINE
5
1B2
100
AcDbEntity
8
1
62
256
6
ByLayer
370
18
48
1
60
0
100
AcDbLine
10
5.918312
20
70.782078
30
0
11
7.712283
21
69.945789
31
0
39
0
210
0
220
0
230
1
0
LINE
5
1B3
100
AcDbEntity
8
1
62
256
6
ByLayer
370
18
48
1
60
0
100
AcDbLine
10
11.730638
20
-83.568188
30
0
11
14.494527
21
-83.568188
31
0
39
0
210
0
220
0
230
1
0
LINE
5
1B4
100
AcDbEntity
8
1
62
256
6
ByLayer
370
18
48
1
60
0
100
AcDbLine
10
30
20
83.568188
30
0
11
11.730638
21
83.568188
31
0
39
0
210
0
220
0
230
1
0
LINE
5
1B5
100
AcDbEntity
8
1
62
256
6
ByLayer
370
18
48
1
60
0
100
AcDbLine
10
3.522486
20
77.948423
30
0
11
1
21
60
31
0
39
0
210
0
220
0
230
1
0
LINE
5
1B6
100
AcDbEntity
8
1
62
256
6
ByLayer
370
18
48
1
60
0
100
AcDbLine
10
1
20
-60
30
0
11
3.522486
21
-77.948423
31
0
39
0
210
0
220
0
230
1
0
LINE
5
1B7
100
AcDbEntity
8
1
62
256
6
ByLayer
370
18
48
1
60
0
100
AcDbLine
10
1
20
60
30
0
11
0.3
21
60
31
0
39
0
210
0
220
0
230
1
0
LINE
5
1B8
100
AcDbEntity
8
1
62
256
6
ByLayer
370
18
48
1
60
0
100
AcDbLine
10
0.3
20
-60
30
0
11
1
21
-60
31
0
39
0
210
0
220
0
230
1
0
LINE
5
1B9
100
AcDbEntity
8
1
62
256
6
ByLayer
370
18
48
1
60
0
100
AcDbLine
10
0.3
20
60
30
0
11
0
21
59.7
31
0
39
0
210
0
220
0
230
1
0
LINE
5
1BA
100
AcDbEntity
8
1
62
256
6
ByLayer
370
18
48
1
60
0
100
AcDbLine
10
0
20
-59.7
30
0
11
0.3
21
-60
31
0
39
0
210
0
220
0
230
1
0
LINE
5
1BB
100
AcDbEntity
8
1
62
256
6
ByLayer
370
18
48
1
60
0
100
AcDbLine
10
30
20
-86.730174
30
0
11
19.783476
21
-86.730174
31
0
39
0
210
0
220
0
230
1
0
LINE
5
1BC
100
AcDbEntity
8
1
62
256
6
ByLayer
370
18
48
1
60
0
100
AcDbLine
10
17.386239
20
86.730174
30
0
11
30
21
86.730174
31
0
39
0
210
0
220
0
230
1
0
LINE
5
1BD
100
AcDbEntity
8
1
62
256
6
ByLayer
370
18
48
1
60
0
100
AcDbLine
10
19.963007
20
-90
30
0
11
21
21
-90
31
0
39
0
210
0
220
0
230
1
0
LINE
5
1BE
100
AcDbEntity
8
1
62
256
6
ByLayer
370
18
48
1
60
0
100
AcDbLine
10
29.4
20
-89.592955
30
0
11
21.8
21
-89.592955
31
0
39
0
210
0
220
0
230
1
0
LINE
5
1BF
100
AcDbEntity
8
1
62
256
6
ByLayer
370
18
48
1
60
0
100
AcDbLine
10
21
20
90
30
0
11
19.963007
21
90
31
0
39
0
210
0
220
0
230
1
0
LINE
5
1C0
100
AcDbEntity
8
1
62
256
6
ByLayer
370
18
48
1
60
0
100
AcDbLine
10
21.8
20
89.592955
30
0
11
29.4
21
89.592955
31
0
39
0
210
0
220
0
230
1
0
LINE
5
1C1
100
AcDbEntity
8
1
62
256
6
ByLayer
370
18
48
1
60
0
100
AcDbLine
10
36.310704
20
100.952138
30
0
11
37.448288
21
101.167674
31
0
39
0
210
0
220
0
230
1
0
LINE
5
1C2
100
AcDbEntity
8
1
62
256
6
ByLayer
370
18
48
1
60
0
100
AcDbLine
10
37.448288
20
101.167674
30
0
11
37.764004
21
100.944429
31
0
39
0
210
0
220
0
230
1
0
LINE
5
1C3
100
AcDbEntity
8
1
62
256
6
ByLayer
370
18
48
1
60
0
100
AcDbLine
10
55.5
20
81
30
0
11
46
21
81
31
0
39
0
210
0
220
0
230
1
0
LINE
5
1C4
100
AcDbEntity
8
1
62
256
6
ByLayer
370
18
48
1
60
0
100
AcDbLine
10
46
20
65
30
0
11
55.5
21
65
31
0
39
0
210
0
220
0
230
1
0
LINE
5
1C5
100
AcDbEntity
8
1
62
256
6
ByLayer
370
18
48
1
60
0
100
AcDbLine
10
55.5
20
-44
30
0
11
46
21
-44
31
0
39
0
210
0
220
0
230
1
0
LINE
5
1C6
100
AcDbEntity
8
1
62
256
6
ByLayer
370
18
48
1
60
0
100
AcDbLine
10
46
20
83
30
0
11
44
21
83
31
0
39
0
210
0
220
0
230
1
0
LINE
5
1C7
100
AcDbEntity
8
1
62
256
6
ByLayer
370
18
48
1
60
0
100
AcDbLine
10
58.512927
20
-60.633297
30
0
11
58.669999
21
-65.794698
31
0
39
0
210
0
220
0
230
1
0
LINE
5
1C8
100
AcDbEntity
8
1
62
256
6
ByLayer
370
18
48
1
60
0
100
AcDbLine
10
62.441109
20
-60.84154
30
0
11
62.353846
21
-57.974094
31
0
39
0
210
0
220
0
230
1
0
LINE
5
1C9
100
AcDbEntity
8
1
62
256
6
ByLayer
370
18
48
1
60
0
100
AcDbLine
10
66.381821
20
-55.988306
30
0
11
66.469083
21
-58.855752
31
0
39
0
210
0
220
0
230
1
0
LINE
5
1CA
100
AcDbEntity
8
1
62
256
6
ByLayer
370
18
48
1
60
0
100
AcDbLine
10
37.448288
20
101.167674
30
0
11
37.448288
21
100.929821
31
0
39
0
210
0
220
0
230
1
0
LINE
5
1CB
100
AcDbEntity
8
1
62
256
6
ByLayer
370
18
48
1
60
0
100
AcDbLine
10
44
20
63
30
0
11
46
21
63
31
0
39
0
210
0
220
0
230
1
0
LINE
5
1CC
100
AcDbEntity
8
1
62
256
6
ByLayer
370
18
48
1
60
0
100
AcDbLine
10
60.53502
20
69.999855
30
0
11
55.999834
21
72.002531
31
0
39
0
210
0
220
0
230
1
0
LINE
5
1CD
100
AcDbEntity
8
1
62
256
6
ByLayer
370
18
48
1
60
0
100
AcDbLine
10
47.734737
20
81.000078
30
0
11
45.176594
21
105.33918
31
0
39
0
210
0
220
0
230
1
0
LINE
5
1CE
100
AcDbEntity
8
1
62
256
6
ByLayer
370
18
48
1
60
0
100
AcDbLine
10
40
20
103.2
30
0
11
40
21
104.4
31
0
39
0
210
0
220
0
230
1
0
LINE
5
1CF
100
AcDbEntity
8
1
62
256
6
ByLayer
370
18
48
1
60
0
100
AcDbLine
10
40
20
103.2
30
0
11
42
21
103.2
31
0
39
0
210
0
220
0
230
1
0
LINE
5
1D0
100
AcDbEntity
8
1
62
256
6
ByLayer
370
18
48
1
60
0
100
AcDbLine
10
60.53502
20
69.999855
30
0
11
55.999968
21
69.999855
31
0
39
0
210
0
220
0
230
1
0
LINE
5
1D1
100
AcDbEntity
8
1
62
256
6
ByLayer
370
18
48
1
60
0
100
AcDbLine
10
42
20
102.999696
30
0
11
42
21
103.2
31
0
39
0
210
0
220
0
230
1
0
LINE
5
1D2
100
AcDbEntity
8
1
62
256
6
ByLayer
370
18
48
1
60
0
100
AcDbLine
10
45.176594
20
105.33918
30
0
11
40
21
104.4
31
0
39
0
210
0
220
0
230
1
0
LINE
5
1D3
100
AcDbEntity
8
1
62
256
6
ByLayer
370
18
48
1
60
0
100
AcDbLine
10
61.327273
20
70.000389
30
0
11
57.380306
21
107.553278
31
0
39
0
210
0
220
0
230
1
0
LINE
5
1D4
100
AcDbEntity
8
1
62
256
6
ByLayer
370
18
48
1
60
0
100
AcDbLine
10
60.53502
20
69.999855
30
0
11
61.327273
21
70.000389
31
0
39
0
210
0
220
0
230
1
0
LINE
5
1D5
100
AcDbEntity
8
1
62
256
6
ByLayer
370
18
48
1
60
0
100
AcDbLine
10
57.380306
20
107.553278
30
0
11
45.176594
21
105.33918
31
0
39
0
210
0
220
0
230
1
0
LINE
5
1D6
100
AcDbEntity
8
1
62
256
6
ByLayer
370
18
48
1
60
0
100
AcDbLine
10
82.452537
20
99.415075
30
0
11
82.761975
21
96.470969
31
0
39
0
210
0
220
0
230
1
0
LINE
5
1D7
100
AcDbEntity
8
1
62
256
6
ByLayer
370
18
48
1
60
0
100
AcDbLine
10
82.08872
20
99.372335
30
0
11
82.399213
21
96.418189
31
0
39
0
210
0
220
0
230
1
0
LINE
5
1D8
100
AcDbEntity
8
1
62
256
6
ByLayer
370
18
48
1
60
0
100
AcDbLine
10
70.42759
20
101.449685
30
0
11
70.405497
21
101.422296
31
0
39
0
210
0
220
0
230
1
0
LINE
5
1D9
100
AcDbEntity
8
1
62
256
6
ByLayer
370
18
48
1
60
0
100
AcDbLine
10
69.951335
20
99.881458
30
0
11
69.977467
21
99.632827
31
0
39
0
210
0
220
0
230
1
0
LINE
5
1DA
100
AcDbEntity
8
1
62
256
6
ByLayer
370
18
48
1
60
0
100
AcDbLine
10
78.3
20
70.697658
30
0
11
78.3
21
91.5
31
0
39
0
210
0
220
0
230
1
0
LINE
5
1DB
100
AcDbEntity
8
1
62
256
6
ByLayer
370
18
48
1
60
0
100
AcDbLine
10
78.3
20
70.697658
30
0
11
70.341802
21
69.999855
31
0
39
0
210
0
220
0
230
1
0
LINE
5
1DC
100
AcDbEntity
8
1
62
256
6
ByLayer
370
18
48
1
60
0
100
AcDbLine
10
58.939576
20
107.836174
30
0
11
62.916235
21
70.000794
31
0
39
0
210
0
220
0
230
1
0
LINE
5
1DD
100
AcDbEntity
8
1
62
256
6
ByLayer
370
18
48
1
60
0
100
AcDbLine
10
62.916235
20
70.000794
30
0
11
70.341802
21
69.999855
31
0
39
0
210
0
220
0
230
1
0
LINE
5
1DE
100
AcDbEntity
8
1
62
256
6
ByLayer
370
18
48
1
60
0
100
AcDbLine
10
69.580464
20
109.509015
30
0
11
66.203861
21
109.15412
31
0
39
0
210
0
220
0
230
1
0
LINE
5
1DF
100
AcDbEntity
8
1
62
256
6
ByLayer
370
18
48
1
60
0
100
AcDbLine
10
66.203861
20
109.15412
30
0
11
58.939576
21
107.836174
31
0
39
0
210
0
220
0
230
1
0
LINE
5
1E0
100
AcDbEntity
8
1
62
256
6
ByLayer
370
18
48
1
60
0
100
AcDbLine
10
78.3
20
69.999855
30
0
11
70.341802
21
69.999855
31
0
39
0
210
0
220
0
230
1
0
LINE
5
1E1
100
AcDbEntity
8
1
62
256
6
ByLayer
370
18
48
1
60
0
100
AcDbLine
10
78.3
20
69.999855
30
0
11
78.3
21
70.697658
31
0
39
0
210
0
220
0
230
1
0
LINE
5
1E2
100
AcDbEntity
8
1
62
256
6
ByLayer
370
18
48
1
60
0
100
AcDbLine
10
69.977467
20
99.632827
30
0
11
70.551711
21
99.693183
31
0
39
0
210
0
220
0
230
1
0
LINE
5
1E3
100
AcDbEntity
8
1
62
256
6
ByLayer
370
18
48
1
60
0
100
AcDbLine
10
70.405497
20
101.422296
30
0
11
70.430198
21
101.424892
31
0
39
0
210
0
220
0
230
1
0
LINE
5
1E4
100
AcDbEntity
8
1
62
256
6
ByLayer
370
18
48
1
60
0
100
AcDbLine
10
69.951335
20
99.881458
30
0
11
70.525578
21
99.941813
31
0
39
0
210
0
220
0
230
1
0
LINE
5
1E5
100
AcDbEntity
8
1
62
256
6
ByLayer
370
18
48
1
60
0
100
AcDbLine
10
70.551711
20
99.693183
30
0
11
70.525578
21
99.941813
31
0
39
0
210
0
220
0
230
1
0
LINE
5
1E6
100
AcDbEntity
8
1
62
256
6
ByLayer
370
18
48
1
60
0
100
AcDbLine
10
70.611545
20
99.699471
30
0
11
70.551711
21
99.693183
31
0
39
0
210
0
220
0
230
1
0
LINE
5
1E7
100
AcDbEntity
8
1
62
256
6
ByLayer
370
18
48
1
60
0
100
AcDbLine
10
70.585413
20
99.948102
30
0
11
70.525578
21
99.941813
31
0
39
0
210
0
220
0
230
1
0
LINE
5
1E8
100
AcDbEntity
8
1
62
256
6
ByLayer
370
18
48
1
60
0
100
AcDbLine
10
74.527657
20
-65.312119
30
0
11
74.370586
21
-60.150717
31
0
39
0
210
0
220
0
230
1
0
LINE
5
1E9
100
AcDbEntity
8
1
62
256
6
ByLayer
370
18
48
1
60
0
100
AcDbLine
10
79.3425
20
108.619255
30
0
11
79.463821
21
108.632006
31
0
39
0
210
0
220
0
230
1
0
LINE
5
1EA
100
AcDbEntity
8
1
62
256
6
ByLayer
370
18
48
1
60
0
100
AcDbLine
10
79.735595
20
106.046249
30
0
11
79.614274
21
106.033498
31
0
39
0
210
0
220
0
230
1
0
LINE
5
1EB
100
AcDbEntity
8
1
62
256
6
ByLayer
370
18
48
1
60
0
100
AcDbLine
10
79.851263
20
104.945738
30
0
11
79.729942
21
104.932987
31
0
39
0
210
0
220
0
230
1
0
LINE
5
1EC
100
AcDbEntity
8
1
62
256
6
ByLayer
370
18
48
1
60
0
100
AcDbLine
10
80.001716
20
102.34723
30
0
11
80.123037
21
102.359981
31
0
39
0
210
0
220
0
230
1
0
LINE
5
1ED
100
AcDbEntity
8
1
62
256
6
ByLayer
370
18
48
1
60
0
100
AcDbLine
10
73.085489
20
104.234626
30
0
11
72.956367
21
104.221055
31
0
39
0
210
0
220
0
230
1
0
LINE
5
1EE
100
AcDbEntity
8
1
62
256
6
ByLayer
370
18
48
1
60
0
100
AcDbLine
10
72.96982
20
105.335138
30
0
11
72.840698
21
105.321566
31
0
39
0
210
0
220
0
230
1
0
LINE
5
1EF
100
AcDbEntity
8
1
62
256
6
ByLayer
370
18
48
1
60
0
100
AcDbLine
10
73.357263
20
101.648869
30
0
11
73.228141
21
101.635298
31
0
39
0
210
0
220
0
230
1
0
LINE
5
1F0
100
AcDbEntity
8
1
62
256
6
ByLayer
370
18
48
1
60
0
100
AcDbLine
10
72.698046
20
107.920895
30
0
11
72.568924
21
107.907323
31
0
39
0
210
0
220
0
230
1
0
LINE
5
1F1
100
AcDbEntity
8
1
62
256
6
ByLayer
370
18
48
1
60
0
100
AcDbLine
10
78.3
20
-83.267703
30
0
11
78.3
21
-80.687613
31
0
39
0
210
0
220
0
230
1
0
LINE
5
1F2
100
AcDbEntity
8
1
62
256
6
ByLayer
370
18
48
1
60
0
100
AcDbLine
10
81.565607
20
-110.01397
30
0
11
81.421458
21
-109.998819
31
0
39
0
210
0
220
0
230
1
0
LINE
5
1F3
100
AcDbEntity
8
1
62
256
6
ByLayer
370
18
48
1
60
0
100
AcDbLine
10
82.466221
20
-101.445203
30
0
11
82.322071
21
-101.430052
31
0
39
0
210
0
220
0
230
1
0
LINE
5
1F4
100
AcDbEntity
8
1
62
256
6
ByLayer
370
18
48
1
60
0
100
AcDbLine
10
0
20
-59.7
30
0
11
0
21
-42.427468
31
0
39
0
210
0
220
0
230
1
0
LINE
5
1F5
100
AcDbEntity
8
1
62
256
6
ByLayer
370
18
48
1
60
0
100
AcDbLine
10
55.5
20
-44
30
0
11
55.5
21
-60
31
0
39
0
210
0
220
0
230
1
0
LINE
5
1F6
100
AcDbEntity
8
1
62
256
6
ByLayer
370
18
48
1
60
0
100
AcDbLine
10
44
20
26.182769
30
0
11
44
21
26.35314
31
0
39
0
210
0
220
0
230
1
0
LINE
5
1F7
100
AcDbEntity
8
1
62
256
6
ByLayer
370
18
48
1
60
0
100
AcDbLine
10
46
20
-62
30
0
11
46
21
-42
31
0
39
0
210
0
220
0
230
1
0
LINE
5
1F8
100
AcDbEntity
8
1
62
256
6
ByLayer
370
18
48
1
60
0
100
AcDbLine
10
44
20
56.369993
30
0
11
44
21
51.540364
31
0
39
0
210
0
220
0
230
1
0
LINE
5
1F9
100
AcDbEntity
8
1
62
256
6
ByLayer
370
18
48
1
60
0
100
AcDbLine
10
30
20
71.354531
30
0
11
30
21
83.611242
31
0
39
0
210
0
220
0
230
1
0
LINE
5
1FA
100
AcDbEntity
8
1
62
256
6
ByLayer
370
18
48
1
60
0
100
AcDbLine
10
44
20
83.611242
30
0
11
44
21
71.354531
31
0
39
0
210
0
220
0
230
1
0
LINE
5
1FB
100
AcDbEntity
8
1
62
256
6
ByLayer
370
18
48
1
60
0
100
AcDbLine
10
30
20
103
30
0
11
30
21
98.320889
31
0
39
0
210
0
220
0
230
1
0
LINE
5
1FC
100
AcDbEntity
8
1
62
256
6
ByLayer
370
18
48
1
60
0
100
AcDbLine
10
44
20
103
30
0
11
44
21
98.320889
31
0
39
0
210
0
220
0
230
1
0
LINE
5
1FD
100
AcDbEntity
8
1
62
256
6
ByLayer
370
18
48
1
60
0
100
AcDbLine
10
58.669993
20
-65.79452
30
0
11
58.669999
21
-65.794698
31
0
39
0
210
0
220
0
230
1
0
LINE
5
1FE
100
AcDbEntity
8
1
62
256
6
ByLayer
370
18
48
1
60
0
100
AcDbLine
10
44
20
-26.182769
30
0
11
44
21
-31.182769
31
0
39
0
210
0
220
0
230
1
0
LINE
5
1FF
100
AcDbEntity
8
1
62
256
6
ByLayer
370
18
48
1
60
0
100
AcDbLine
10
30
20
-85.290887
30
0
11
30
21
-73.781451
31
0
39
0
210
0
220
0
230
1
0
LINE
5
200
100
AcDbEntity
8
1
62
256
6
ByLayer
370
18
48
1
60
0
100
AcDbLine
10
46
20
-72.166642
30
0
11
46
21
-67.166642
31
0
39
0
210
0
220
0
230
1
0
LINE
5
201
100
AcDbEntity
8
1
62
256
6
ByLayer
370
18
48
1
60
0
100
AcDbLine
10
17.386239
20
-87.208747
30
0
11
17.386239
21
-89.892375
31
0
39
0
210
0
220
0
230
1
0
LINE
5
202
100
AcDbEntity
8
1
62
256
6
ByLayer
370
18
48
1
60
0
100
AcDbLine
10
3.522486
20
-64.371923
30
0
11
3.522486
21
-77.948423
31
0
39
0
210
0
220
0
230
1
0
LINE
5
203
100
AcDbEntity
8
1
62
256
6
ByLayer
370
18
48
1
60
0
100
AcDbLine
10
17.386239
20
89.892375
30
0
11
17.386239
21
86.730174
31
0
39
0
210
0
220
0
230
1
0
LINE
5
204
100
AcDbEntity
8
1
62
256
6
ByLayer
370
18
48
1
60
0
100
AcDbLine
10
3.522486
20
77.948423
30
0
11
3.522486
21
64.371923
31
0
39
0
210
0
220
0
230
1
0
LINE
5
205
100
AcDbEntity
8
1
62
256
6
ByLayer
370
18
48
1
60
0
100
AcDbLine
10
1
20
-42.296864
30
0
11
1
21
-60
31
0
39
0
210
0
220
0
230
1
0
LINE
5
206
100
AcDbEntity
8
1
62
256
6
ByLayer
370
18
48
1
60
0
100
AcDbLine
10
1
20
60
30
0
11
1
21
42.296864
31
0
39
0
210
0
220
0
230
1
0
LINE
5
207
100
AcDbEntity
8
1
62
256
6
ByLayer
370
18
48
1
60
0
100
AcDbLine
10
0.3
20
42.684567
30
0
11
0.3
21
60
31
0
39
0
210
0
220
0
230
1
0
LINE
5
208
100
AcDbEntity
8
1
62
256
6
ByLayer
370
18
48
1
60
0
100
AcDbLine
10
0.3
20
-60
30
0
11
0.3
21
-42.684567
31
0
39
0
210
0
220
0
230
1
0
LINE
5
209
100
AcDbEntity
8
1
62
256
6
ByLayer
370
18
48
1
60
0
100
AcDbLine
10
0
20
42.427468
30
0
11
0
21
59.7
31
0
39
0
210
0
220
0
230
1
0
LINE
5
20A
100
AcDbEntity
8
1
62
256
6
ByLayer
370
18
48
1
60
0
100
AcDbLine
10
46
20
83
30
0
11
46
21
63
31
0
39
0
210
0
220
0
230
1
0
LINE
5
20B
100
AcDbEntity
8
1
62
256
6
ByLayer
370
18
48
1
60
0
100
AcDbLine
10
21
20
-89.665699
30
0
11
21
21
-90
31
0
39
0
210
0
220
0
230
1
0
LINE
5
20C
100
AcDbEntity
8
1
62
256
6
ByLayer
370
18
48
1
60
0
100
AcDbLine
10
21
20
89.665699
30
0
11
21
21
90
31
0
39
0
210
0
220
0
230
1
0
LINE
5
20D
100
AcDbEntity
8
1
62
256
6
ByLayer
370
18
48
1
60
0
100
AcDbLine
10
74.370586
20
-60.150717
30
0
11
74.370572
21
-60.150258
31
0
39
0
210
0
220
0
230
1
0
LINE
5
20E
100
AcDbEntity
8
1
62
256
6
ByLayer
370
18
48
1
60
0
100
AcDbLine
10
56
20
65.5
30
0
11
56
21
80.5
31
0
39
0
210
0
220
0
230
1
0
LINE
5
20F
100
AcDbEntity
8
1
62
256
6
ByLayer
370
18
48
1
60
0
100
AcDbLine
10
55.5
20
65
30
0
11
55.5
21
81
31
0
39
0
210
0
220
0
230
1
0
LINE
5
210
100
AcDbEntity
8
1
62
256
6
ByLayer
370
18
48
1
60
0
100
AcDbLine
10
56
20
-44.5
30
0
11
56
21
-59.5
31
0
39
0
210
0
220
0
230
1
0
LINE
5
211
100
AcDbEntity
8
1
62
256
6
ByLayer
370
18
48
1
60
0
100
AcDbLine
10
57.380306
20
107.553278
30
0
11
58.939576
21
107.836174
31
0
39
0
210
0
220
0
230
1
0
MTEXT
5
3BD
100
AcDbEntity
8
SK6
62
256
6
ByLayer
370
18
48
1
60
0
100
AcDbMText
10
86.044026
20
116.86101
30
0
210
0
220
0
230
1
1
\W0.7706;820D-250SP12Y
40
3
41
0
44
1.084337
50
0
71
7
72
5
7
iso_b_vert
0
DIMENSION
5
3CA
100
AcDbEntity
8
2
62
256
6
ByLayer
370
13
48
1
60
0
100
AcDbDimension
2
DimnDraft3D1
10
82.109643
20
110.956814
30
0
11
94.168124
21
101.043745
31
0
70
34
71
5
72
1
41
1
210
0
220
0
230
1
3
Standard
100
AcDb2LineAngularDimension
13
84
23
111.99997
33
0
14
99
24
111.99997
34
0
15
83.194397
25
100.636073
35
0
16
96.397558
26
99.036353
36
0
40
0
0
DIMENSION
5
3D4
100
AcDbEntity
8
2
62
256
6
ByLayer
370
13
48
1
60
0
100
AcDbDimension
2
DimnDraft3D2
10
116.056511
20
-111.99997
30
0
11
116.056511
21
-22.630263
31
0
70
32
71
5
72
1
41
1
210
0
220
0
230
1
3
Standard
100
AcDbAlignedDimension
13
84
23
111.99997
33
0
14
84
24
-111.99997
34
0
50
90
100
AcDbRotatedDimension
1001
ACAD
1000
DSTYLE
1002
{
1070
    74
1070
     0
1070
   279
1070
     0
1070
   172
1070
     1
1070
   173
1070
     1
1070
   340
1005
3BE
1070
   271
1070
     0
1070
    77
1070
     1
1070
    73
1070
     0
1070
   171
1070
     4
1070
   274
1070
     4
1070
   177
1070
     7
1070
   176
1070
     7
1070
   178
1070
     7
1070
    78
1070
     8
1070
    41
1041
3.175
1070
   147
1041
1.5
1070
    42
1041
2.0
1070
    44
1041
2.0
1070
   140
1041
3.0
1070
   343
1005
0
1070
   344
1005
0
1002
}
0
DIMENSION
5
3DE
100
AcDbEntity
8
2
62
256
6
ByLayer
370
13
48
1
60
0
100
AcDbDimension
2
DimnDraft3D3
10
82
20
130.765797
30
0
11
39.247368
21
130.765797
31
0
70
32
71
5
72
1
41
1
210
0
220
0
230
1
3
Standard
100
AcDbAlignedDimension
13
0
23
61.7
33
0
14
82
24
113.99997
34
0
50
0
100
AcDbRotatedDimension
1001
ACAD
1000
DSTYLE
1002
{
1070
   279
1070
     0
1070
   172
1070
     1
1070
   173
1070
     1
1070
   340
1005
3BE
1070
   271
1070
     0
1070
    77
1070
     1
1070
    73
1070
     0
1070
   171
1070
     4
1070
   274
1070
     4
1070
   177
1070
     7
1070
   176
1070
     7
1070
   178
1070
     7
1070
    78
1070
     8
1070
    41
1041
3.175
1070
   147
1041
1.5
1070
    42
1041
2.0
1070
    44
1041
2.0
1070
   140
1041
3.0
1070
   343
1005
0
1070
   344
1005
0
1002
}
0
DIMENSION
5
3EA
100
AcDbEntity
8
SK2
62
256
6
ByLayer
370
13
48
1
60
0
100
AcDbDimension
2
DimnDraft3D4
10
-20.97867
20
-16.50625
30
0
11
-20.72867
21
1.188158
31
0
70
33
71
5
72
1
41
1
210
0
220
0
230
1
3
Standard
100
AcDbAlignedDimension
13
2.158438
23
16.50625
33
0
14
2.158438
24
-16.50625
34
0
1001
ACAD
1000
DSTYLE
1002
{
1070
   279
1070
     0
1070
    74
1070
     0
1070
   173
1070
     1
1070
   340
1005
3BE
1070
   271
1070
     0
1070
    77
1070
     1
1070
    73
1070
     0
1070
   171
1070
     4
1070
   274
1070
     4
1070
   177
1070
     7
1070
   176
1070
     7
1070
   178
1070
     7
1070
    78
1070
     8
1070
    41
1041
3.175
1070
   147
1041
1.75
1070
    42
1041
2.0
1070
    44
1041
2.0
1070
   140
1041
3.5
1070
   343
1005
0
1070
   344
1005
0
1002
}
0
DIMENSION
5
3F5
100
AcDbEntity
8
SK2
62
256
6
ByLayer
370
13
48
1
60
0
100
AcDbDimension
2
DimnDraft3D5
10
-40.950192
20
60
30
0
11
-40.700192
21
0.340789
31
0
70
33
71
5
72
1
41
1
210
0
220
0
230
1
3
Standard
100
AcDbAlignedDimension
13
-1.7
23
-60
33
0
14
-1.7
24
60
34
0
1001
ACAD
1000
DSTYLE
1002
{
1070
   279
1070
     0
1070
    74
1070
     0
1070
   173
1070
     1
1070
   340
1005
3BE
1070
    77
1070
     1
1070
    73
1070
     0
1070
   171
1070
     4
1070
   274
1070
     4
1070
   177
1070
     7
1070
   176
1070
     7
1070
   178
1070
     7
1070
    78
1070
     8
1070
    41
1041
3.175
1070
   147
1041
1.75
1070
    42
1041
2.0
1070
    44
1041
2.0
1070
   140
1041
3.5
1070
   343
1005
0
1070
   344
1005
0
1002
}
0
ENDSEC
0
SECTION
2
OBJECTS
0
DICTIONARY
5
46b
330
0
100
AcDbDictionary
280
0
281
1
3
ACAD_GROUP
350
46c
3
ACAD_GROUP
350
46d
3
ACAD_MLINESTYLE
350
46e
0
DICTIONARY
5
46c
330
0
100
AcDbDictionary
280
0
281
1
0
DICTIONARY
5
46d
330
0
100
AcDbDictionary
280
0
281
1
3
_DC
350
402
3
_DC_55
350
401
3
<201748167MOD000_00>
350
3FE
3
820D_250CC12_2D
350
404
3
A33_R822XLS17_LK030_A1
350
403
3
A33_R822XLS17_LK030_A110
350
405
3
DIT-000-00-UG_TO_2D CONVERT_XL_SP12Y
350
406
3
S12_R820XLR40STFC22_A1
350
400
3
S12_S17_TC22_A1
350
3FF
0
DICTIONARY
5
46e
330
0
100
AcDbDictionary
280
0
281
1
3
Standard
350
18
0
GROUP
5
402
330
46d
100
AcDbGroup
300

70
0
71
1
340
71
0
GROUP
5
401
330
46d
100
AcDbGroup
300

70
0
71
1
340
71
340
71
0
GROUP
5
3FE
330
46d
100
AcDbGroup
300

70
0
71
1
340
6C
340
6E
340
70
340
71
340
73
340
74
340
75
340
77
340
78
340
7A
340
7B
340
7C
340
7D
340
7E
340
7F
340
81
340
83
340
85
340
86
340
87
340
88
340
89
340
8A
340
8B
340
8C
340
8D
340
8E
340
8F
340
90
340
91
340
92
340
93
340
94
340
95
340
96
340
97
340
98
340
99
340
9A
340
9B
340
9C
340
9D
340
9E
340
9F
340
A0
340
A1
340
A2
340
A3
340
A4
340
A5
340
A6
340
A7
340
A8
340
A9
340
AA
340
AB
340
AC
340
AD
340
AE
340
AF
340
B0
340
B1
340
B2
340
B3
340
B4
340
B5
340
B6
340
B7
340
B8
340
B9
340
BA
340
BB
340
BC
340
BD
340
BE
340
BF
340
C0
340
C1
340
C2
340
C3
340
C4
340
C5
340
C6
340
C7
340
C8
340
C9
340
CA
340
CB
340
CC
340
CD
340
CE
340
CF
340
D0
340
D1
340
D2
340
D3
340
D4
340
D5
340
D6
340
D7
340
D8
340
D9
340
DA
340
DB
340
DC
340
DD
340
DE
340
DF
340
E0
340
E1
340
E2
340
E3
340
E4
340
E5
340
E6
340
E7
340
E8
340
E9
340
EA
340
EB
340
EC
340
ED
340
EE
340
EF
340
F0
340
F1
340
F2
340
F3
340
F4
340
F5
340
F6
340
F7
340
F8
340
F9
340
FA
340
FB
340
FC
340
FD
340
FE
340
FF
340
100
340
101
340
102
340
103
340
104
340
105
340
106
340
107
340
108
340
109
340
10A
340
10B
340
10C
340
10D
340
10E
340
10F
340
110
340
111
340
112
340
113
340
114
340
115
340
116
340
117
340
118
340
119
340
11A
340
11B
340
11C
340
11D
340
11E
340
11F
340
120
340
121
340
122
340
123
340
124
340
125
340
126
340
127
340
128
340
129
340
12A
340
12B
340
12C
340
12D
340
12E
340
12F
340
130
340
131
340
132
340
133
340
134
340
135
340
136
340
137
340
138
340
139
340
13A
340
13B
340
13C
340
13D
340
13E
340
13F
340
140
340
141
340
142
340
143
340
144
340
145
340
146
340
147
340
148
340
149
340
14A
340
14B
340
14C
340
14D
340
14E
340
14F
340
150
340
151
340
152
340
153
340
154
340
155
340
156
340
157
340
158
340
159
340
15A
340
15B
340
15C
340
15D
340
15E
340
15F
340
160
340
161
340
162
340
163
340
164
340
165
340
166
340
167
340
168
340
169
340
16A
340
16B
340
16C
340
16D
340
16E
340
16F
340
170
340
171
340
172
340
173
340
174
340
175
340
176
340
177
340
178
340
179
340
17A
340
17B
340
17C
340
17D
340
17E
340
17F
340
180
340
181
340
182
340
183
340
184
340
185
340
186
340
187
340
188
340
189
340
18A
340
18B
340
18C
340
18D
340
18E
340
18F
340
190
340
191
340
192
340
193
340
194
340
195
340
196
340
197
340
198
340
199
340
19A
340
19B
340
19C
340
19D
340
19E
340
19F
340
1A0
340
1A1
340
1A2
340
1A3
340
1A4
340
1A5
340
1A6
340
1A7
340
1A8
340
1A9
340
1AA
340
1AB
340
1AC
340
1AD
340
1AE
340
1AF
340
1B0
340
1B1
340
1B2
340
1B3
340
1B4
340
1B5
340
1B6
340
1B7
340
1B8
340
1B9
340
1BA
340
1BB
340
1BC
340
1BD
340
1BE
340
1BF
340
1C0
340
1C1
340
1C2
340
1C3
340
1C4
340
1C5
340
1C6
340
1C7
340
1C8
340
1C9
340
1CA
340
1CB
340
1CC
340
1CD
340
1CE
340
1CF
340
1D0
340
1D1
340
1D2
340
1D3
340
1D4
340
1D5
340
1D6
340
1D7
340
1D8
340
1D9
340
1DA
340
1DB
340
1DC
340
1DD
340
1DE
340
1DF
340
1E0
340
1E1
340
1E2
340
1E3
340
1E4
340
1E5
340
1E6
340
1E7
340
1E8
340
1E9
340
1EA
340
1EB
340
1EC
340
1ED
340
1EE
340
1EF
340
1F0
340
1F1
340
1F2
340
1F3
340
1F4
340
1F5
340
1F6
340
1F7
340
1F8
340
1F9
340
1FA
340
1FB
340
1FC
340
1FD
340
1FE
340
1FF
340
200
340
201
340
202
340
203
340
204
340
205
340
206
340
207
340
208
340
209
340
20A
340
20B
340
20C
340
20D
340
20E
340
20F
340
210
340
211
340
212
340
213
340
214
340
215
340
216
340
217
340
218
340
219
340
21A
340
21B
340
21C
340
21D
340
21E
340
21F
340
220
340
221
340
222
340
223
340
224
340
225
340
226
340
227
340
228
340
229
340
22A
340
22B
340
22C
340
22D
340
22E
340
22F
340
230
340
231
340
232
340
233
340
234
340
235
340
236
340
237
340
238
340
239
340
23A
340
23B
340
23C
340
23D
340
23E
340
23F
340
240
340
241
340
242
340
243
340
244
340
245
340
246
340
247
340
248
340
249
340
24A
340
24B
340
24C
340
24D
340
24E
340
24F
340
250
340
251
340
252
340
253
340
254
340
255
340
256
340
257
340
258
340
259
340
25A
340
25B
340
25C
340
25D
340
25E
340
25F
340
260
340
261
340
262
340
263
340
264
340
265
340
266
340
267
340
268
340
269
340
26A
340
26B
340
26C
340
26D
340
26E
340
26F
340
270
340
271
340
272
340
273
340
274
340
275
340
276
340
277
340
278
340
279
340
27A
340
27B
340
27C
340
27D
340
27E
340
27F
340
280
340
281
340
282
340
283
340
284
340
285
340
286
340
287
340
288
340
289
340
28A
340
28B
340
28C
340
28D
340
28E
340
28F
340
290
340
291
340
292
340
293
340
294
340
295
340
296
340
297
340
298
340
299
340
29A
340
29B
340
29C
340
29D
340
29E
340
29F
340
2A0
340
2A1
340
2A2
340
2A3
340
2A4
340
2A5
340
2A6
340
2A7
340
2A8
340
2A9
340
2AA
340
2AB
340
2AC
340
2AD
340
2AE
340
2AF
340
2B0
340
2B1
340
2B2
340
2B3
340
2B4
340
2B5
340
2B6
340
2B7
340
2B8
340
2B9
340
2BA
340
2BB
340
2BC
340
2BD
340
2BE
340
2BF
340
2C0
340
2C1
340
2C2
340
2C3
340
2C4
340
2C5
340
2C6
340
2C7
340
2C8
340
2C9
340
2CA
340
2CB
340
2CC
340
2CD
340
2CE
340
2CF
340
2D0
340
2D1
340
2D2
340
2D3
340
2D4
340
2D5
340
2D6
340
2D7
340
2D8
340
2D9
340
2DA
340
2DB
340
2DC
340
2DD
340
2DE
340
2DF
340
2E0
340
2E1
340
2E2
340
2E3
340
2E4
340
2E5
340
2E6
340
2E7
340
2E8
340
2E9
340
2EA
340
2EB
340
2EC
340
2ED
340
2EE
340
2EF
340
2F0
340
2F1
340
2F2
340
2F3
340
2F4
340
2F5
340
2F6
340
2F7
340
2F8
340
2F9
340
2FA
340
2FB
340
2FC
340
2FD
340
2FE
340
2FF
340
300
340
301
340
302
340
303
340
304
340
305
340
306
340
307
340
308
340
309
340
30A
340
30B
340
30C
340
30D
340
30E
340
30F
340
310
340
311
340
312
340
313
340
314
340
315
340
316
340
317
340
318
340
319
340
31A
340
31B
340
31C
340
31D
340
31E
340
31F
340
320
340
321
340
322
340
323
340
324
340
325
340
326
340
327
340
328
340
329
340
32A
340
32B
340
32C
340
32D
340
32E
340
32F
340
330
340
331
340
332
340
333
340
334
340
335
340
336
340
337
340
338
340
339
340
33A
340
33B
340
33C
340
33D
340
33E
340
33F
340
340
340
341
340
342
340
343
340
344
340
345
340
346
340
347
340
348
340
349
340
34A
340
34B
340
34C
340
34D
340
34E
340
34F
340
350
340
351
340
352
340
353
340
354
340
355
340
356
340
357
340
358
340
359
340
35A
340
35B
340
35C
340
35D
340
35E
340
35F
340
360
340
361
340
362
340
363
340
364
340
365
340
366
340
367
340
368
340
369
340
36A
340
36B
340
36C
340
36D
340
36E
340
36F
340
370
340
371
340
372
340
373
340
374
340
375
340
376
340
377
340
378
340
379
340
37A
340
37B
340
37C
340
37D
340
37E
340
37F
340
380
340
381
340
382
340
383
340
384
340
385
340
386
340
387
340
388
340
389
340
38A
340
38B
340
38C
340
38D
340
38E
340
38F
340
390
340
391
340
392
340
393
340
394
340
395
340
396
340
397
340
398
340
399
340
39A
340
39B
340
39C
340
39D
340
39E
340
39F
340
3A0
340
3A1
340
3A2
340
3A3
340
3A4
340
3A5
340
3A6
340
3A7
340
3A8
340
3A9
340
3AA
340
3AB
340
3AC
340
3AD
340
3AE
340
3AF
340
3B0
340
3B1
340
3B2
340
3B3
340
3B4
340
3B5
340
3B6
340
3B7
340
3B8
340
3B9
340
3BA
340
3BB
340
3BC
340
6C
340
71
340
73
340
6C
340
71
340
73
340
71
340
71
340
71
340
3CA
340
71
340
71
340
71
340
3BD
340
3CA
340
6C
340
71
340
73
340
71
340
71
340
71
340
3CA
340
71
340
71
340
71
340
6E
340
75
340
77
340
78
340
7A
340
7B
340
7C
340
7D
340
7E
340
7F
340
3EA
340
81
340
83
340
85
340
86
340
87
340
88
340
89
340
8A
340
8B
340
8C
340
8D
340
8E
340
8F
340
90
340
91
340
92
340
93
340
94
340
95
340
96
340
97
340
98
340
99
340
9A
340
9B
340
9C
340
9D
340
9E
340
9F
340
A0
340
212
340
213
340
214
340
215
340
3F5
340
A2
340
A3
340
A4
340
A5
340
A6
340
A7
340
A8
340
A9
340
AA
340
AB
340
AC
340
AD
340
AE
340
AF
340
B0
340
B1
340
B2
340
B3
340
B4
340
B5
340
B6
340
B7
340
B8
340
B9
340
BA
340
BB
340
BC
340
BD
340
BE
340
BF
340
C0
340
C1
340
C2
340
C3
340
C4
340
C5
340
C6
340
C7
340
C8
340
C9
340
CA
340
CB
340
CC
340
CD
340
CE
340
CF
340
D0
340
D1
340
D2
340
D3
340
D4
340
D5
340
D6
340
D7
340
D8
340
D9
340
DA
340
DB
340
DC
340
DD
340
DE
340
DF
340
E0
340
E1
340
E2
340
E3
340
E4
340
E5
340
E6
340
E7
340
E8
340
E9
340
EA
340
EB
340
EC
340
ED
340
EE
340
EF
340
F0
340
F1
340
F2
340
F3
340
F4
340
F5
340
F6
340
F7
340
F8
340
F9
340
FA
340
FB
340
FC
340
FD
340
FE
340
FF
340
100
340
101
340
102
340
103
340
104
340
105
340
106
340
107
340
108
340
109
340
10A
340
10B
340
10C
340
10D
340
10E
340
10F
340
110
340
111
340
112
340
113
340
114
340
115
340
116
340
117
340
118
340
119
340
11A
340
11B
340
11C
340
11D
340
11E
340
11F
340
120
340
121
340
122
340
123
340
124
340
125
340
126
340
127
340
128
340
129
340
12A
340
12B
340
12C
340
12D
340
12E
340
12F
340
130
340
131
340
132
340
133
340
134
340
135
340
136
340
137
340
138
340
139
340
13A
340
13B
340
13C
340
13D
340
13E
340
13F
340
140
340
141
340
142
340
143
340
144
340
145
340
146
340
147
340
148
340
149
340
14A
340
14B
340
14C
340
14D
340
14E
340
14F
340
150
340
151
340
152
340
153
340
154
340
155
340
156
340
157
340
158
340
159
340
15A
340
15B
340
15C
340
15D
340
15E
340
15F
340
160
340
161
340
162
340
163
340
164
340
165
340
166
340
167
340
168
340
169
340
16A
340
16B
340
16C
340
16D
340
16E
340
16F
340
170
340
171
340
172
340
173
340
174
340
175
340
176
340
177
340
178
340
179
340
17A
340
17B
340
17C
340
17D
340
17E
340
17F
340
180
340
181
340
182
340
183
340
184
340
185
340
186
340
187
340
188
340
189
340
18A
340
18B
340
18C
340
18D
340
18E
340
18F
340
190
340
191
340
192
340
193
340
194
340
195
340
196
340
197
340
198
340
199
340
19A
340
19B
340
19C
340
19D
340
19E
340
19F
340
1A0
340
1A1
340
1A2
340
1A3
340
1A4
340
1A5
340
1A6
340
1A7
340
1A8
340
1A9
340
1AA
340
1AB
340
1AC
340
1AD
340
1AE
340
1AF
340
1B0
340
1B1
340
1B2
340
1B3
340
1B4
340
1B5
340
1B6
340
1B7
340
1B8
340
1B9
340
1BA
340
1BB
340
1BC
340
1BD
340
1BE
340
1BF
340
1C0
340
1C1
340
1C2
340
1C3
340
1C4
340
1C5
340
1C6
340
1C7
340
1C8
340
1C9
340
1CA
340
1CB
340
1CC
340
1CD
340
1CE
340
1CF
340
1D0
340
1D1
340
1D2
340
1D3
340
1D4
340
1D5
340
1D6
340
1D7
340
1D8
340
1D9
340
1DA
340
1DB
340
1DC
340
1DD
340
1DE
340
1DF
340
1E0
340
1E1
340
1E2
340
1E3
340
1E4
340
1E5
340
1E6
340
1E7
340
1E8
340
1E9
340
1EA
340
1EB
340
1EC
340
1ED
340
1EE
340
1EF
340
1F0
340
1F1
340
1F2
340
1F3
340
1F4
340
1F5
340
1F6
340
1F7
340
1F8
340
1F9
340
1FA
340
1FB
340
1FC
340
1FD
340
1FE
340
1FF
340
200
340
201
340
202
340
203
340
204
340
205
340
206
340
207
340
208
340
209
340
20A
340
20B
340
20C
340
20D
340
20E
340
20F
340
210
340
211
340
216
340
217
340
218
340
219
340
21A
340
21B
340
21C
340
21D
340
21E
340
21F
340
220
340
221
340
222
340
223
340
224
340
225
340
226
340
227
340
228
340
229
340
22A
340
22B
340
22C
340
22D
340
22E
340
22F
340
230
340
231
340
232
340
233
340
234
340
235
340
236
340
237
340
238
340
239
340
23A
340
23B
340
23C
340
23D
340
23E
340
23F
340
240
340
241
340
242
340
243
340
244
340
245
340
246
340
247
340
248
340
249
340
24A
340
24B
340
24C
340
24D
340
24E
340
24F
340
250
340
251
340
252
340
253
340
254
340
255
340
256
340
257
340
258
340
259
340
25A
340
25B
340
25C
340
25D
340
25E
340
25F
340
260
340
261
340
262
340
263
340
264
340
265
340
266
340
267
340
268
340
269
340
26A
340
26B
340
26C
340
26D
340
26E
340
26F
340
270
340
271
340
272
340
273
340
274
340
275
340
276
340
277
340
278
340
279
340
27A
340
27B
340
27C
340
27D
340
27E
340
27F
340
280
340
281
340
282
340
283
340
284
340
285
340
286
340
287
340
288
340
289
340
28A
340
28B
340
28C
340
28D
340
28E
340
28F
340
290
340
291
340
292
340
293
340
294
340
295
340
296
340
297
340
298
340
299
340
29A
340
29B
340
29C
340
29D
340
29E
340
29F
340
2A0
340
2A1
340
2A2
340
2A3
340
2A4
340
2A5
340
2A6
340
2A7
340
2A8
340
2A9
340
2AA
340
2AB
340
2AC
340
2AD
340
2AE
340
2AF
340
2B0
340
2B1
340
2B2
340
2B3
340
2B4
340
2B5
340
2B6
340
2B7
340
2B8
340
2B9
340
2BA
340
2BB
340
2BC
340
2BD
340
2BE
340
2BF
340
2C0
340
2C1
340
2C2
340
2C3
340
2C4
340
2C5
340
2C6
340
2C7
340
2C8
340
2C9
340
2CA
340
2CB
340
2CC
340
2CD
340
2CE
340
2CF
340
2D0
340
2D1
340
2D2
340
2D3
340
2D4
340
2D5
340
2D6
340
2D7
340
2D8
340
2D9
340
2DA
340
2DB
340
2DC
340
2DD
340
2DE
340
2DF
340
2E0
340
2E1
340
2E2
340
2E3
340
2E4
340
2E5
340
2E6
340
2E7
340
2E8
340
2E9
340
2EA
340
2EB
340
2EC
340
2ED
340
2EE
340
2EF
340
2F0
340
2F1
340
2F2
340
2F3
340
2F4
340
2F5
340
2F6
340
2F7
340
2F8
340
2F9
340
2FA
340
2FB
340
2FC
340
2FD
340
2FE
340
2FF
340
300
340
301
340
302
340
303
340
304
340
305
340
306
340
307
340
308
340
309
340
30A
340
30B
340
30C
340
30D
340
30E
340
30F
340
310
340
311
340
312
340
313
340
314
340
315
340
316
340
317
340
318
340
319
340
31A
340
31B
340
31C
340
31D
340
31E
340
31F
340
320
340
321
340
322
340
323
340
324
340
325
340
326
340
327
340
328
340
329
340
32A
340
32B
340
32C
340
32D
340
32E
340
32F
340
330
340
331
340
332
340
333
340
334
340
335
340
336
340
337
340
338
340
339
340
33A
340
33B
340
33C
340
33D
340
33E
340
33F
340
340
340
341
340
342
340
343
340
344
340
345
340
346
340
347
340
348
340
349
340
34A
340
34B
340
34C
340
34D
340
34E
340
34F
340
350
340
351
340
352
340
353
340
354
340
355
340
356
340
357
340
358
340
359
340
35A
340
35B
340
35C
340
35D
340
35E
340
35F
340
360
340
361
340
362
340
363
340
364
340
365
340
366
340
367
340
368
340
369
340
36A
340
36B
340
36C
340
36D
340
36E
340
36F
340
370
340
371
340
372
340
373
340
374
340
375
340
376
340
377
340
378
340
379
340
37A
340
37B
340
37C
340
37D
340
37E
340
37F
340
380
340
381
340
382
340
383
340
384
340
385
340
386
340
387
340
388
340
389
340
38A
340
38B
340
38C
340
38D
340
38E
340
38F
340
390
340
391
340
392
340
393
340
394
340
395
340
396
340
397
340
398
340
399
340
39A
340
39B
340
39C
340
39D
340
39E
340
39F
340
3A0
340
3A1
340
3A2
340
3A3
340
3A4
340
3A5
340
3A6
340
3A7
340
3A8
340
3A9
340
3AA
340
3AB
340
3AC
340
3AD
340
3AE
340
3AF
340
3B0
340
3B1
340
3B2
340
3B3
340
3B4
340
3B5
340
3B6
340
3B7
340
3B8
340
3B9
340
3BA
340
3BB
340
3BC
340
3BD
340
3CA
340
3D4
340
3DE
340
3EA
340
3F5
0
GROUP
5
404
330
46d
100
AcDbGroup
300

70
0
71
1
340
81
340
83
340
85
340
86
340
87
340
88
340
89
340
8A
340
8B
340
8C
340
8D
340
8E
340
8F
340
90
340
91
340
92
340
93
340
94
340
95
340
96
340
97
340
98
340
99
340
9A
340
9B
340
9C
340
9D
340
9E
340
9F
340
A0
340
212
340
213
340
214
340
215
0
GROUP
5
403
330
46d
100
AcDbGroup
300

70
0
71
1
340
6E
340
75
340
77
340
78
340
7A
340
7B
340
7C
340
7D
340
7E
340
7F
340
3EA
0
GROUP
5
405
330
46d
100
AcDbGroup
300

70
0
71
1
340
3F5
0
GROUP
5
406
330
46d
100
AcDbGroup
300

70
0
71
1
340
A2
340
A3
340
A4
340
A5
340
A6
340
A7
340
A8
340
A9
340
AA
340
AB
340
AC
340
AD
340
AE
340
AF
340
B0
340
B1
340
B2
340
B3
340
B4
340
B5
340
B6
340
B7
340
B8
340
B9
340
BA
340
BB
340
BC
340
BD
340
BE
340
BF
340
C0
340
C1
340
C2
340
C3
340
C4
340
C5
340
C6
340
C7
340
C8
340
C9
340
CA
340
CB
340
CC
340
CD
340
CE
340
CF
340
D0
340
D1
340
D2
340
D3
340
D4
340
D5
340
D6
340
D7
340
D8
340
D9
340
DA
340
DB
340
DC
340
DD
340
DE
340
DF
340
E0
340
E1
340
E2
340
E3
340
E4
340
E5
340
E6
340
E7
340
E8
340
E9
340
EA
340
EB
340
EC
340
ED
340
EE
340
EF
340
F0
340
F1
340
F2
340
F3
340
F4
340
F5
340
F6
340
F7
340
F8
340
F9
340
FA
340
FB
340
FC
340
FD
340
FE
340
FF
340
100
340
101
340
102
340
103
340
104
340
105
340
106
340
107
340
108
340
109
340
10A
340
10B
340
10C
340
10D
340
10E
340
10F
340
110
340
111
340
112
340
113
340
114
340
115
340
116
340
117
340
118
340
119
340
11A
340
11B
340
11C
340
11D
340
11E
340
11F
340
120
340
121
340
122
340
123
340
124
340
125
340
126
340
127
340
128
340
129
340
12A
340
12B
340
12C
340
12D
340
12E
340
12F
340
130
340
131
340
132
340
133
340
134
340
135
340
136
340
137
340
138
340
139
340
13A
340
13B
340
13C
340
13D
340
13E
340
13F
340
140
340
141
340
142
340
143
340
144
340
145
340
146
340
147
340
148
340
149
340
14A
340
14B
340
14C
340
14D
340
14E
340
14F
340
150
340
151
340
152
340
153
340
154
340
155
340
156
340
157
340
158
340
159
340
15A
340
15B
340
15C
340
15D
340
15E
340
15F
340
160
340
161
340
162
340
163
340
164
340
165
340
166
340
167
340
168
340
169
340
16A
340
16B
340
16C
340
16D
340
16E
340
16F
340
170
340
171
340
172
340
173
340
174
340
175
340
176
340
177
340
178
340
179
340
17A
340
17B
340
17C
340
17D
340
17E
340
17F
340
180
340
181
340
182
340
183
340
184
340
185
340
186
340
187
340
188
340
189
340
18A
340
18B
340
18C
340
18D
340
18E
340
18F
340
190
340
191
340
192
340
193
340
194
340
195
340
196
340
197
340
198
340
199
340
19A
340
19B
340
19C
340
19D
340
19E
340
19F
340
1A0
340
1A1
340
1A2
340
1A3
340
1A4
340
1A5
340
1A6
340
1A7
340
1A8
340
1A9
340
1AA
340
1AB
340
1AC
340
1AD
340
1AE
340
1AF
340
1B0
340
1B1
340
1B2
340
1B3
340
1B4
340
1B5
340
1B6
340
1B7
340
1B8
340
1B9
340
1BA
340
1BB
340
1BC
340
1BD
340
1BE
340
1BF
340
1C0
340
1C1
340
1C2
340
1C3
340
1C4
340
1C5
340
1C6
340
1C7
340
1C8
340
1C9
340
1CA
340
1CB
340
1CC
340
1CD
340
1CE
340
1CF
340
1D0
340
1D1
340
1D2
340
1D3
340
1D4
340
1D5
340
1D6
340
1D7
340
1D8
340
1D9
340
1DA
340
1DB
340
1DC
340
1DD
340
1DE
340
1DF
340
1E0
340
1E1
340
1E2
340
1E3
340
1E4
340
1E5
340
1E6
340
1E7
340
1E8
340
1E9
340
1EA
340
1EB
340
1EC
340
1ED
340
1EE
340
1EF
340
1F0
340
1F1
340
1F2
340
1F3
340
1F4
340
1F5
340
1F6
340
1F7
340
1F8
340
1F9
340
1FA
340
1FB
340
1FC
340
1FD
340
1FE
340
1FF
340
200
340
201
340
202
340
203
340
204
340
205
340
206
340
207
340
208
340
209
340
20A
340
20B
340
20C
340
20D
340
20E
340
20F
340
210
340
211
340
216
340
217
340
218
340
219
340
21A
340
21B
340
21C
340
21D
340
21E
340
21F
340
220
340
221
340
222
340
223
340
224
340
225
340
226
340
227
340
228
340
229
340
22A
340
22B
340
22C
340
22D
340
22E
340
22F
340
230
340
231
340
232
340
233
340
234
340
235
340
236
340
237
340
238
340
239
340
23A
340
23B
340
23C
340
23D
340
23E
340
23F
340
240
340
241
340
242
340
243
340
244
340
245
340
246
340
247
340
248
340
249
340
24A
340
24B
340
24C
340
24D
340
24E
340
24F
340
250
340
251
340
252
340
253
340
254
340
255
340
256
340
257
340
258
340
259
340
25A
340
25B
340
25C
340
25D
340
25E
340
25F
340
260
340
261
340
262
340
263
340
264
340
265
340
266
340
267
340
268
340
269
340
26A
340
26B
340
26C
340
26D
340
26E
340
26F
340
270
340
271
340
272
340
273
340
274
340
275
340
276
340
277
340
278
340
279
340
27A
340
27B
340
27C
340
27D
340
27E
340
27F
340
280
340
281
340
282
340
283
340
284
340
285
340
286
340
287
340
288
340
289
340
28A
340
28B
340
28C
340
28D
340
28E
340
28F
340
290
340
291
340
292
340
293
340
294
340
295
340
296
340
297
340
298
340
299
340
29A
340
29B
340
29C
340
29D
340
29E
340
29F
340
2A0
340
2A1
340
2A2
340
2A3
340
2A4
340
2A5
340
2A6
340
2A7
340
2A8
340
2A9
340
2AA
340
2AB
340
2AC
340
2AD
340
2AE
340
2AF
340
2B0
340
2B1
340
2B2
340
2B3
340
2B4
340
2B5
340
2B6
340
2B7
340
2B8
340
2B9
340
2BA
340
2BB
340
2BC
340
2BD
340
2BE
340
2BF
340
2C0
340
2C1
340
2C2
340
2C3
340
2C4
340
2C5
340
2C6
340
2C7
340
2C8
340
2C9
340
2CA
340
2CB
340
2CC
340
2CD
340
2CE
340
2CF
340
2D0
340
2D1
340
2D2
340
2D3
340
2D4
340
2D5
340
2D6
340
2D7
340
2D8
340
2D9
340
2DA
340
2DB
340
2DC
340
2DD
340
2DE
340
2DF
340
2E0
340
2E1
340
2E2
340
2E3
340
2E4
340
2E5
340
2E6
340
2E7
340
2E8
340
2E9
340
2EA
340
2EB
340
2EC
340
2ED
340
2EE
340
2EF
340
2F0
340
2F1
340
2F2
340
2F3
340
2F4
340
2F5
340
2F6
340
2F7
340
2F8
340
2F9
340
2FA
340
2FB
340
2FC
340
2FD
340
2FE
340
2FF
340
300
340
301
340
302
340
303
340
304
340
305
340
306
340
307
340
308
340
309
340
30A
340
30B
340
30C
340
30D
340
30E
340
30F
340
310
340
311
340
312
340
313
340
314
340
315
340
316
340
317
340
318
340
319
340
31A
340
31B
340
31C
340
31D
340
31E
340
31F
340
320
340
321
340
322
340
323
340
324
340
325
340
326
340
327
340
328
340
329
340
32A
340
32B
340
32C
340
32D
340
32E
340
32F
340
330
340
331
340
332
340
333
340
334
340
335
340
336
340
337
340
338
340
339
340
33A
340
33B
340
33C
340
33D
340
33E
340
33F
340
340
340
341
340
342
340
343
340
344
340
345
340
346
340
347
340
348
340
349
340
34A
340
34B
340
34C
340
34D
340
34E
340
34F
340
350
340
351
340
352
340
353
340
354
340
355
340
356
340
357
340
358
340
359
340
35A
340
35B
340
35C
340
35D
340
35E
340
35F
340
360
340
361
340
362
340
363
340
364
340
365
340
366
340
367
340
368
340
369
340
36A
340
36B
340
36C
340
36D
340
36E
340
36F
340
370
340
371
340
372
340
373
340
374
340
375
340
376
340
377
340
378
340
379
340
37A
340
37B
340
37C
340
37D
340
37E
340
37F
340
380
340
381
340
382
340
383
340
384
340
385
340
386
340
387
340
388
340
389
340
38A
340
38B
340
38C
340
38D
340
38E
340
38F
340
390
340
391
340
392
340
393
340
394
340
395
340
396
340
397
340
398
340
399
340
39A
340
39B
340
39C
340
39D
340
39E
340
39F
340
3A0
340
3A1
340
3A2
340
3A3
340
3A4
340
3A5
340
3A6
340
3A7
340
3A8
340
3A9
340
3AA
340
3AB
340
3AC
340
3AD
340
3AE
340
3AF
340
3B0
340
3B1
340
3B2
340
3B3
340
3B4
340
3B5
340
3B6
340
3B7
340
3B8
340
3B9
340
3BA
340
3BB
340
3BC
0
GROUP
5
400
330
46d
100
AcDbGroup
300

70
0
71
1
340
6C
340
71
340
73
340
71
340
71
340
71
340
3CA
0
GROUP
5
3FF
330
46d
100
AcDbGroup
300

70
0
71
1
340
6C
340
71
340
73
340
6C
340
71
340
73
340
71
340
71
340
71
340
3CA
340
71
340
71
340
71
340
3BD
340
3CA
0
MLINESTYLE
5
18
330
46e
100
AcDbMlineStyle
2
Standard
70
0
3

62
256
51
90
52
90
71
2
49
-0.5
62
256
6
ByLayer
49
0.5
62
256
6
ByLayer
0
RASTERVARIABLES
5
457
330

100
AcDbRasterVariables
90
0
70
1
71
1
72
1
0
ENDSEC
0
EOF
