0
SECTION
2
HEADER
9
$ACADVER
1
AC1015
9
$DWGCODEPAGE
3
ANSI_1252
9
$HANDSEED
5
2bd
9
$ANGBASE
50
0
9
$ANGDIR
70
0
9
$ATTMODE
70
1
9
$AUNITS
70
0
9
$AUPREC
70
0
9
$CECOLOR
62
256
9
$CELTSCALE
40
1
9
$CELTYPE
6
ByLayer
9
$CELWEIGHT
370
18
9
$CLAYER
8
0
9
$CMLJUST
70
0
9
$CMLSCALE
40
1
9
$CMLSTYLE
2
Standard
9
$DIMSTYLE
2
Standard
9
$TEXTSIZE
40
0.2
9
$TEXTSTYLE
7
Standard
9
$LUNITS
70
2
9
$LUPREC
70
4
9
$EXTNAMES
290
1
9
$INSUNITS
70
4
9
$LTSCALE
40
1
9
$LWDISPLAY
290
1
9
$PDMODE
70
0
9
$PDSIZE
40
0
9
$PLINEGEN
70
0
0
ENDSEC
0
SECTION
2
CLASSES
0
CLASS
1
RASTERVARIABLES
2
AcDbRasterVariables
3
ISM
90
0
280
0
281
0
0
ENDSEC
0
SECTION
2
TABLES
0
TABLE
2
VPORT
5
2b3
100
AcDbSymbolTable
0
VPORT
5
1
100
AcDbSymbolTableRecord
100
AcDbViewportTableRecord
2
*Active
70
0
10
0
20
0
11
1
21
1
12
-1
22
1
13
0
23
0
14
0.5
24
0.5
15
10
25
10
16
0
26
0
36
1
17
0
27
0
37
0
0
ENDTAB
0
TABLE
2
LTYPE
5
2b4
100
AcDbSymbolTable
0
LTYPE
5
14
100
AcDbSymbolTableRecord
100
AcDbLinetypeTableRecord
70
0
2
ByBlock
3

72
65
73
0
40
0
0
LTYPE
5
15
100
AcDbSymbolTableRecord
100
AcDbLinetypeTableRecord
70
0
2
ByLayer
3

72
65
73
0
40
0
0
LTYPE
5
16
100
AcDbSymbolTableRecord
100
AcDbLinetypeTableRecord
70
0
2
CONTINUOUS
3
Solid line
72
65
73
0
40
0
0
LTYPE
5
6A
100
AcDbSymbolTableRecord
100
AcDbLinetypeTableRecord
70
0
2
CENTER
3
____ _ ____ _ ____ _ ____
72
65
73
4
40
47.5
49
22
74
0
49
-8.5
74
0
49
8.5
74
0
49
-8.5
74
0
0
LTYPE
5
6B
100
AcDbSymbolTableRecord
100
AcDbLinetypeTableRecord
70
0
2
DASHED
3
__ __ __ __ __ __ __ __ __
72
65
73
2
40
25.72
49
12.86
74
0
49
-12.86
74
0
0
ENDTAB
0
TABLE
2
LAYER
5
2b5
100
AcDbSymbolTable
0
LAYER
5
10
100
AcDbSymbolTableRecord
100
AcDbLayerTableRecord
2
0
70
0
62
7
6
CONTINUOUS
290
1
370
-3
390
0
0
LAYER
5
6F
100
AcDbSymbolTableRecord
100
AcDbLayerTableRecord
2
1
70
0
62
4
6
CONTINUOUS
290
1
370
-3
390
0
0
LAYER
5
72
100
AcDbSymbolTableRecord
100
AcDbLayerTableRecord
2
80
70
0
62
-6
6
CONTINUOUS
290
1
370
-3
390
0
0
LAYER
5
74
100
AcDbSymbolTableRecord
100
AcDbLayerTableRecord
2
81
70
0
62
-3
6
CONTINUOUS
290
1
370
-3
390
0
0
LAYER
5
220
100
AcDbSymbolTableRecord
100
AcDbLayerTableRecord
2
2
70
0
62
7
6
CONTINUOUS
290
1
370
-3
390
0
0
LAYER
5
29d
100
AcDbSymbolTableRecord
100
AcDbLayerTableRecord
2
SK1
70
0
62
4
6
CONTINUOUS
290
1
370
-3
390
0
0
LAYER
5
29e
100
AcDbSymbolTableRecord
100
AcDbLayerTableRecord
2
SK2
70
0
62
7
6
CONTINUOUS
290
1
370
-3
390
0
0
LAYER
5
29f
100
AcDbSymbolTableRecord
100
AcDbLayerTableRecord
2
SK4
70
0
62
2
6
CENTER
290
1
370
-3
390
0
0
LAYER
5
2a0
100
AcDbSymbolTableRecord
100
AcDbLayerTableRecord
2
SK6
70
0
62
5
6
CONTINUOUS
290
1
370
-3
390
0
0
ENDTAB
0
TABLE
2
STYLE
5
2b6
100
AcDbSymbolTable
0
STYLE
5
11
100
AcDbSymbolTableRecord
100
AcDbTextStyleTableRecord
2
Standard
3
txt
70
0
71
0
40
0
41
1
42
0
50
0
0
STYLE
5
21A
100
AcDbSymbolTableRecord
100
AcDbTextStyleTableRecord
2
iso_b_vert
3
simplex.shx
70
0
71
0
40
0
41
1
42
0
50
0
0
STYLE
5
21B
100
AcDbSymbolTableRecord
100
AcDbTextStyleTableRecord
2
DWGDirectTextStyle
3
simplex
70
0
71
0
40
0
41
1
42
0
50
0
0
ENDTAB
0
TABLE
2
DIMSTYLE
5
2b7
100
AcDbSymbolTable
100
AcDbDimStyleTable
0
DIMSTYLE
105
27
100
AcDbSymbolTableRecord
100
AcDbDimStyleTableRecord
2
Standard
70
0
3
<>
41
0.18
42
0.0625
44
0.18
140
0.18
147
0.09
73
0
74
0
77
1
271
2
275
0
278
52
280
0
340
11
0
ENDTAB
0
TABLE
2
VIEW
5
2b8
100
AcDbSymbolTable
0
ENDTAB
0
TABLE
2
UCS
5
2b9
100
AcDbSymbolTable
0
ENDTAB
0
TABLE
2
APPID
5
2ba
100
AcDbSymbolTable
0
APPID
5
12
100
AcDbSymbolTableRecord
100
AcDbRegAppTableRecord
2
ACAD
70
0
0
ENDTAB
0
TABLE
2
BLOCK_RECORD
5
2bb
100
AcDbSymbolTable
0
BLOCK_RECORD
5
1F
100
AcDbSymbolTableRecord
100
AcDbBlockTableRecord
2
*Model_Space
340
0
70
0
0
BLOCK_RECORD
5
1B
100
AcDbSymbolTableRecord
100
AcDbBlockTableRecord
2
*Paper_Space
340
0
70
0
0
BLOCK_RECORD
5
23
100
AcDbSymbolTableRecord
100
AcDbBlockTableRecord
2
*Paper_Space0
340
0
70
0
0
BLOCK_RECORD
5
21E
100
AcDbSymbolTableRecord
100
AcDbBlockTableRecord
2
DimnDraft3D1
340
0
70
0
0
BLOCK_RECORD
5
22D
100
AcDbSymbolTableRecord
100
AcDbBlockTableRecord
2
_CLOSED
340
0
70
0
0
BLOCK_RECORD
5
234
100
AcDbSymbolTableRecord
100
AcDbBlockTableRecord
2
DimnDraft3D2
340
0
70
0
0
ENDTAB
0
ENDSEC
0
SECTION
2
BLOCKS
0
BLOCK
5
20
100
AcDbEntity
8
0
100
AcDbBlockBegin
2
*Model_Space
70
0
10
0
20
0
30
0
3
*Model_Space
0
ENDBLK
5
21
100
AcDbEntity
8
0
100
AcDbBlockEnd
0
BLOCK
5
1C
100
AcDbEntity
8
0
100
AcDbBlockBegin
2
*Paper_Space
70
0
10
0
20
0
30
0
3
*Paper_Space
0
ENDBLK
5
1D
100
AcDbEntity
8
0
100
AcDbBlockEnd
0
BLOCK
5
24
100
AcDbEntity
8
0
100
AcDbBlockBegin
2
*Paper_Space0
70
0
10
0
20
0
30
0
3
*Paper_Space0
0
ENDBLK
5
25
100
AcDbEntity
8
0
100
AcDbBlockEnd
0
BLOCK
5
22A
100
AcDbEntity
8
0
100
AcDbBlockBegin
2
DimnDraft3D1
70
0
10
0
20
0
30
0
3
DimnDraft3D1
0
MTEXT
5
21F
100
AcDbEntity
8
2
62
256
6
ByLayer
370
18
48
1
60
0
100
AcDbMText
10
-14.950068
20
-1.399247
30
0
210
0
220
0
230
1
1
\W0.7361;40
40
3.50012
41
0
44
1.084337
50
90
71
7
72
5
7
iso_b_vert
0
LINE
5
221
100
AcDbEntity
8
2
62
256
6
ByLayer
370
13
48
1
60
0
100
AcDbLine
10
-0.5875
20
-20
30
0
11
-17.249904
21
-20
31
0
39
0
210
0
220
0
230
1
0
LINE
5
222
100
AcDbEntity
8
2
62
256
6
ByLayer
370
13
48
1
60
0
100
AcDbLine
10
-0.5885
20
20
30
0
11
-17.249904
21
20
31
0
39
0
210
0
220
0
230
1
0
LINE
5
223
100
AcDbEntity
8
2
62
256
6
ByLayer
370
13
48
1
60
0
100
AcDbLine
10
-14.074904
20
-20
30
0
11
-14.074904
21
20
31
0
39
0
210
0
220
0
230
1
0
LINE
5
224
100
AcDbEntity
8
2
62
256
6
ByLayer
370
13
48
1
60
0
100
AcDbLine
10
-14.074904
20
-20
30
0
11
-14.492901
21
-16.825002
31
0
39
0
210
0
220
0
230
1
0
LINE
5
225
100
AcDbEntity
8
2
62
256
6
ByLayer
370
13
48
1
60
0
100
AcDbLine
10
-14.074904
20
-20
30
0
11
-13.656907
21
-16.824998
31
0
39
0
210
0
220
0
230
1
0
LINE
5
226
100
AcDbEntity
8
2
62
256
6
ByLayer
370
13
48
1
60
0
100
AcDbLine
10
-14.492901
20
-16.825002
30
0
11
-13.656907
21
-16.824998
31
0
39
0
210
0
220
0
230
1
0
LINE
5
227
100
AcDbEntity
8
2
62
256
6
ByLayer
370
13
48
1
60
0
100
AcDbLine
10
-14.074904
20
20
30
0
11
-13.656907
21
16.825002
31
0
39
0
210
0
220
0
230
1
0
LINE
5
228
100
AcDbEntity
8
2
62
256
6
ByLayer
370
13
48
1
60
0
100
AcDbLine
10
-14.074904
20
20
30
0
11
-14.492901
21
16.824998
31
0
39
0
210
0
220
0
230
1
0
LINE
5
229
100
AcDbEntity
8
2
62
256
6
ByLayer
370
13
48
1
60
0
100
AcDbLine
10
-13.656907
20
16.825002
30
0
11
-14.492901
21
16.824998
31
0
39
0
210
0
220
0
230
1
0
ENDBLK
5
22B
100
AcDbEntity
8
0
100
AcDbBlockEnd
0
BLOCK
5
22E
100
AcDbEntity
8
0
100
AcDbBlockBegin
2
_CLOSED
70
0
10
0
20
0
30
0
3
_CLOSED
0
LINE
5
230
100
AcDbEntity
8
0
62
256
6
ByLayer
370
-2
48
1
60
0
100
AcDbLine
10
-1
20
0.166667
30
0
11
0
21
0
31
0
39
0
210
0
220
0
230
1
0
LINE
5
231
100
AcDbEntity
8
0
62
256
6
ByLayer
370
-2
48
1
60
0
100
AcDbLine
10
0
20
0
30
0
11
-1
21
-0.166667
31
0
39
0
210
0
220
0
230
1
0
LINE
5
232
100
AcDbEntity
8
0
62
256
6
ByLayer
370
-2
48
1
60
0
100
AcDbLine
10
-1
20
0.166667
30
0
11
-1
21
-0.166667
31
0
39
0
210
0
220
0
230
1
0
LINE
5
233
100
AcDbEntity
8
0
62
256
6
ByLayer
370
-2
48
1
60
0
100
AcDbLine
10
0
20
0
30
0
11
-1
21
0
31
0
39
0
210
0
220
0
230
1
0
ENDBLK
5
22F
100
AcDbEntity
8
0
100
AcDbBlockEnd
0
BLOCK
5
23F
100
AcDbEntity
8
0
100
AcDbBlockBegin
2
DimnDraft3D2
70
0
10
0
20
0
30
0
3
DimnDraft3D2
0
MTEXT
5
235
100
AcDbEntity
8
SK2
62
256
6
ByLayer
370
18
48
1
60
0
100
AcDbMText
10
6.428206
20
46.198381
30
0
210
0
220
0
230
1
1
\W0.6756;17.4
40
3.50012
41
0
44
1.084337
50
0
71
7
72
5
7
iso_b_vert
0
LINE
5
236
100
AcDbEntity
8
SK2
62
256
6
ByLayer
370
13
48
1
60
0
100
AcDbLine
10
0
20
1.5875
30
0
11
0
21
48.498218
31
0
39
0
210
0
220
0
230
1
0
LINE
5
237
100
AcDbEntity
8
SK2
62
256
6
ByLayer
370
13
48
1
60
0
100
AcDbLine
10
17.4
20
39.863912
30
0
11
17.4
21
48.498218
31
0
39
0
210
0
220
0
230
1
0
LINE
5
238
100
AcDbEntity
8
SK2
62
256
6
ByLayer
370
13
48
1
60
0
100
AcDbLine
10
0
20
45.323218
30
0
11
17.4
21
45.323218
31
0
39
0
210
0
220
0
230
1
0
LINE
5
239
100
AcDbEntity
8
SK2
62
256
6
ByLayer
370
13
48
1
60
0
100
AcDbLine
10
0
20
45.323218
30
0
11
3.174998
21
45.741214
31
0
39
0
210
0
220
0
230
1
0
LINE
5
23A
100
AcDbEntity
8
SK2
62
256
6
ByLayer
370
13
48
1
60
0
100
AcDbLine
10
0
20
45.323218
30
0
11
3.175002
21
44.905221
31
0
39
0
210
0
220
0
230
1
0
LINE
5
23B
100
AcDbEntity
8
SK2
62
256
6
ByLayer
370
13
48
1
60
0
100
AcDbLine
10
3.174998
20
45.741214
30
0
11
3.175002
21
44.905221
31
0
39
0
210
0
220
0
230
1
0
LINE
5
23C
100
AcDbEntity
8
SK2
62
256
6
ByLayer
370
13
48
1
60
0
100
AcDbLine
10
17.4
20
45.323218
30
0
11
14.225002
21
44.905221
31
0
39
0
210
0
220
0
230
1
0
LINE
5
23D
100
AcDbEntity
8
SK2
62
256
6
ByLayer
370
13
48
1
60
0
100
AcDbLine
10
17.4
20
45.323218
30
0
11
14.224998
21
45.741214
31
0
39
0
210
0
220
0
230
1
0
LINE
5
23E
100
AcDbEntity
8
SK2
62
256
6
ByLayer
370
13
48
1
60
0
100
AcDbLine
10
14.225002
20
44.905221
30
0
11
14.224998
21
45.741214
31
0
39
0
210
0
220
0
230
1
0
ENDBLK
5
240
100
AcDbEntity
8
0
100
AcDbBlockEnd
0
ENDSEC
0
SECTION
2
ENTITIES
0
ARC
5
140
100
AcDbEntity
8
SK1
62
256
6
ByLayer
370
18
48
1
60
0
100
AcDbCircle
39
0
10
-0.174981
20
18.10077
30
0
40
0.149999999999697
210
0
220
0
230
1
100
AcDbArc
50
120
51
180
0
ARC
5
141
100
AcDbEntity
8
SK1
62
256
6
ByLayer
370
18
48
1
60
0
100
AcDbCircle
39
0
10
-0.174981
20
17.89923
30
0
40
0.149999999999977
210
0
220
0
230
1
100
AcDbArc
50
180
51
240
0
ARC
5
142
100
AcDbEntity
8
SK1
62
256
6
ByLayer
370
18
48
1
60
0
100
AcDbCircle
39
0
10
12.55
20
27.3
30
0
40
1.59999999999716
210
0
220
0
230
1
100
AcDbArc
50
329.937705
51
353.102576
0
ARC
5
143
100
AcDbEntity
8
SK1
62
256
6
ByLayer
370
18
48
1
60
0
100
AcDbCircle
39
0
10
12.55
20
27.3
30
0
40
1.5999999999999
210
0
220
0
230
1
100
AcDbArc
50
270
51
329.937705
0
ARC
5
144
100
AcDbEntity
8
SK1
62
256
6
ByLayer
370
18
48
1
60
0
100
AcDbCircle
39
0
10
-0.174981
20
16.60077
30
0
40
0.150000000000134
210
0
220
0
230
1
100
AcDbArc
50
120
51
180
0
ARC
5
145
100
AcDbEntity
8
SK1
62
256
6
ByLayer
370
18
48
1
60
0
100
AcDbCircle
39
0
10
-0.174981
20
4.60077
30
0
40
0.150000000000659
210
0
220
0
230
1
100
AcDbArc
50
120
51
180
0
ARC
5
146
100
AcDbEntity
8
SK1
62
256
6
ByLayer
370
18
48
1
60
0
100
AcDbCircle
39
0
10
0.240519
20
18.75
30
0
40
0.2045
210
0
220
0
230
1
100
AcDbArc
50
300
51
60
0
ARC
5
147
100
AcDbEntity
8
SK1
62
256
6
ByLayer
370
18
48
1
60
0
100
AcDbCircle
39
0
10
-16.65
20
37.65
30
0
40
1.47587196868684
210
0
220
0
230
-1
100
AcDbArc
50
243.869471
51
296.130529
0
ARC
5
148
100
AcDbEntity
8
SK1
62
256
6
ByLayer
370
18
48
1
60
0
100
AcDbCircle
39
0
10
15.887417
20
30.995536
30
0
40
0.249999999999618
210
0
220
0
230
1
100
AcDbArc
50
16
51
58.036325
0
ARC
5
149
100
AcDbEntity
8
SK1
62
256
6
ByLayer
370
18
48
1
60
0
100
AcDbCircle
39
0
10
15.1
20
28.303466
30
0
40
1.00000000005431
210
0
220
0
230
1
100
AcDbArc
50
160
51
180
0
ARC
5
14A
100
AcDbEntity
8
SK1
62
256
6
ByLayer
370
18
48
1
60
0
100
AcDbCircle
39
0
10
15.124478
20
30.943771
30
0
40
0.100000000002682
210
0
220
0
230
1
100
AcDbArc
50
308.04918
51
337.572017
0
ARC
5
14B
100
AcDbEntity
8
SK1
62
256
6
ByLayer
370
18
48
1
60
0
100
AcDbCircle
39
0
10
13.830375
20
31.477901
30
0
40
1.49999999991187
210
0
220
0
230
1
100
AcDbArc
50
337.572017
51
344
0
ARC
5
14C
100
AcDbEntity
8
SK1
62
256
6
ByLayer
370
18
48
1
60
0
100
AcDbCircle
39
0
10
15.512583
20
30.995536
30
0
40
0.249999999999514
210
0
220
0
230
1
100
AcDbArc
50
121.963675
51
164
0
ARC
5
14D
100
AcDbEntity
8
SK1
62
256
6
ByLayer
370
18
48
1
60
0
100
AcDbCircle
39
0
10
16.367299
20
30.87194
30
0
40
0.0999999999977378
210
0
220
0
230
1
100
AcDbArc
50
231.95082
51
260
0
ARC
5
14E
100
AcDbEntity
8
SK1
62
256
6
ByLayer
370
18
48
1
60
0
100
AcDbCircle
39
0
10
0.240519
20
5.25
30
0
40
0.204500000000044
210
0
220
0
230
1
100
AcDbArc
50
300
51
60
0
ARC
5
14F
100
AcDbEntity
8
SK1
62
256
6
ByLayer
370
18
48
1
60
0
100
AcDbCircle
39
0
10
-0.174981
20
4.39923
30
0
40
0.150000000000185
210
0
220
0
230
1
100
AcDbArc
50
180
51
240
0
ARC
5
150
100
AcDbEntity
8
SK1
62
256
6
ByLayer
370
18
48
1
60
0
100
AcDbCircle
39
0
10
0.240519
20
3.75
30
0
40
0.204499999999965
210
0
220
0
230
1
100
AcDbArc
50
300
51
60
0
ARC
5
151
100
AcDbEntity
8
SK1
62
256
6
ByLayer
370
18
48
1
60
0
100
AcDbCircle
39
0
10
-0.174981
20
3.10077
30
0
40
0.149999999999997
210
0
220
0
230
1
100
AcDbArc
50
120
51
180
0
ARC
5
152
100
AcDbEntity
8
SK1
62
256
6
ByLayer
370
18
48
1
60
0
100
AcDbCircle
39
0
10
-0.174981
20
2.89923
30
0
40
0.149999999999951
210
0
220
0
230
1
100
AcDbArc
50
180
51
240
0
ARC
5
153
100
AcDbEntity
8
SK1
62
256
6
ByLayer
370
18
48
1
60
0
100
AcDbCircle
39
0
10
0.240519
20
2.25
30
0
40
0.204499999999994
210
0
220
0
230
1
100
AcDbArc
50
300
51
60
0
ARC
5
154
100
AcDbEntity
8
SK1
62
256
6
ByLayer
370
18
48
1
60
0
100
AcDbCircle
39
0
10
-0.174981
20
1.60077
30
0
40
0.149999999999577
210
0
220
0
230
1
100
AcDbArc
50
120
51
180
0
ARC
5
155
100
AcDbEntity
8
SK1
62
256
6
ByLayer
370
18
48
1
60
0
100
AcDbCircle
39
0
10
-0.174981
20
1.39923
30
0
40
0.149999999999984
210
0
220
0
230
1
100
AcDbArc
50
180
51
240
0
ARC
5
156
100
AcDbEntity
8
SK1
62
256
6
ByLayer
370
18
48
1
60
0
100
AcDbCircle
39
0
10
0.240519
20
0.75
30
0
40
0.204500000000019
210
0
220
0
230
1
100
AcDbArc
50
300
51
60
0
ARC
5
157
100
AcDbEntity
8
SK1
62
256
6
ByLayer
370
18
48
1
60
0
100
AcDbCircle
39
0
10
-0.174981
20
0.10077
30
0
40
0.150000000000097
210
0
220
0
230
1
100
AcDbArc
50
120
51
180
0
ARC
5
158
100
AcDbEntity
8
SK1
62
256
6
ByLayer
370
18
48
1
60
0
100
AcDbCircle
39
0
10
-0.174981
20
-0.10077
30
0
40
0.149999999999793
210
0
220
0
230
1
100
AcDbArc
50
180
51
240
0
ARC
5
159
100
AcDbEntity
8
SK1
62
256
6
ByLayer
370
18
48
1
60
0
100
AcDbCircle
39
0
10
0.240519
20
-0.75
30
0
40
0.204499999999984
210
0
220
0
230
1
100
AcDbArc
50
300
51
60
0
ARC
5
15A
100
AcDbEntity
8
SK1
62
256
6
ByLayer
370
18
48
1
60
0
100
AcDbCircle
39
0
10
-0.174981
20
-1.39923
30
0
40
0.150000000000205
210
0
220
0
230
1
100
AcDbArc
50
120
51
180
0
ARC
5
15B
100
AcDbEntity
8
SK1
62
256
6
ByLayer
370
18
48
1
60
0
100
AcDbCircle
39
0
10
-0.174981
20
-1.60077
30
0
40
0.150000000000417
210
0
220
0
230
1
100
AcDbArc
50
180
51
240
0
ARC
5
15C
100
AcDbEntity
8
SK1
62
256
6
ByLayer
370
18
48
1
60
0
100
AcDbCircle
39
0
10
0.240519
20
-2.25
30
0
40
0.204499999999994
210
0
220
0
230
1
100
AcDbArc
50
300
51
60
0
ARC
5
15D
100
AcDbEntity
8
SK1
62
256
6
ByLayer
370
18
48
1
60
0
100
AcDbCircle
39
0
10
-0.174981
20
-2.89923
30
0
40
0.149999999999932
210
0
220
0
230
1
100
AcDbArc
50
120
51
180
0
ARC
5
15E
100
AcDbEntity
8
SK1
62
256
6
ByLayer
370
18
48
1
60
0
100
AcDbCircle
39
0
10
-0.174981
20
-3.10077
30
0
40
0.15000000000079
210
0
220
0
230
1
100
AcDbArc
50
180
51
240
0
ARC
5
15F
100
AcDbEntity
8
SK1
62
256
6
ByLayer
370
18
48
1
60
0
100
AcDbCircle
39
0
10
0.240519
20
-3.75
30
0
40
0.20450000000006
210
0
220
0
230
1
100
AcDbArc
50
300
51
60
0
ARC
5
160
100
AcDbEntity
8
SK1
62
256
6
ByLayer
370
18
48
1
60
0
100
AcDbCircle
39
0
10
-0.174981
20
-4.39923
30
0
40
0.150000000000027
210
0
220
0
230
1
100
AcDbArc
50
120
51
180
0
ARC
5
161
100
AcDbEntity
8
SK1
62
256
6
ByLayer
370
18
48
1
60
0
100
AcDbCircle
39
0
10
-0.174981
20
-4.60077
30
0
40
0.149999999999739
210
0
220
0
230
1
100
AcDbArc
50
180
51
240
0
ARC
5
162
100
AcDbEntity
8
SK1
62
256
6
ByLayer
370
18
48
1
60
0
100
AcDbCircle
39
0
10
0.240519
20
-5.25
30
0
40
0.204499999999968
210
0
220
0
230
1
100
AcDbArc
50
300
51
60
0
ARC
5
163
100
AcDbEntity
8
SK1
62
256
6
ByLayer
370
18
48
1
60
0
100
AcDbCircle
39
0
10
0.240519
20
17.25
30
0
40
0.204500000000006
210
0
220
0
230
1
100
AcDbArc
50
339.855112
51
60
0
ARC
5
164
100
AcDbEntity
8
SK1
62
256
6
ByLayer
370
18
48
1
60
0
100
AcDbCircle
39
0
10
-16.9
20
13.75
30
0
40
0.399999999999999
210
0
220
0
230
-1
100
AcDbArc
50
180
51
208.956141
0
ARC
5
165
100
AcDbEntity
8
SK1
62
256
6
ByLayer
370
18
48
1
60
0
100
AcDbCircle
39
0
10
-15
20
33.876327
30
0
40
1
210
0
220
0
230
-1
100
AcDbArc
50
180
51
200
0
ARC
5
166
100
AcDbEntity
8
SK1
62
256
6
ByLayer
370
18
48
1
60
0
100
AcDbCircle
39
0
10
16.65
20
37.65
30
0
40
0.75
210
0
220
0
230
1
100
AcDbArc
50
355
51
185
0
ARC
5
167
100
AcDbEntity
8
SK1
62
256
6
ByLayer
370
18
48
1
60
0
100
AcDbCircle
39
0
10
16.65
20
37.65
30
0
40
1.44734148299002
210
0
220
0
230
1
100
AcDbArc
50
243.314091
51
296.685909
0
ARC
5
168
100
AcDbEntity
8
SK1
62
256
6
ByLayer
370
18
48
1
60
0
100
AcDbCircle
39
0
10
17.569625
20
31.477901
30
0
40
1.50000000054381
210
0
220
0
230
1
100
AcDbArc
50
196
51
202.427983
0
ARC
5
169
100
AcDbEntity
8
SK1
62
256
6
ByLayer
370
18
48
1
60
0
100
AcDbCircle
39
0
10
16.275522
20
30.943771
30
0
40
0.0999999999961948
210
0
220
0
230
1
100
AcDbArc
50
202.427983
51
231.95082
0
ELLIPSE
5
16A
100
AcDbEntity
8
SK1
62
256
6
ByLayer
370
18
48
1
60
0
100
AcDbEllipse
10
14.83783
20
30.214583
30
0
11
-0.296659196868647
21
-1.16739732989662
31
0
210
0
220
0
230
1
40
0.133188
41
1.96038270990227
42
2.15099413944322
0
ELLIPSE
5
16B
100
AcDbEntity
8
SK1
62
256
6
ByLayer
370
18
48
1
60
0
100
AcDbEllipse
10
17.058749
20
30.750018
30
0
11
0.0993516290455664
21
-0.011368982550993
31
0
210
0
220
0
230
1
40
1
41
-1.63139307682756
42
-1.45686015126261
0
ELLIPSE
5
16C
100
AcDbEntity
8
SK1
62
256
6
ByLayer
370
18
48
1
60
0
100
AcDbEllipse
10
16.826201
20
5.5
30
0
11
-2.42866301072415E-14
21
-6.50000000001645
31
0
210
0
220
0
230
1
40
0.087489
41
-2.44173935053733
42
-1.81950631588891
0
ELLIPSE
5
16D
100
AcDbEntity
8
SK1
62
256
6
ByLayer
370
18
48
1
60
0
100
AcDbEllipse
10
14.984787
20
30.618345
30
0
11
-0.198205657540818
21
-0.166314294170543
31
0
210
0
220
0
230
1
40
0.680683
41
-2.78208667526411
42
-2.43814891942828
0
ELLIPSE
5
16E
100
AcDbEntity
8
SK1
62
256
6
ByLayer
370
18
48
1
60
0
100
AcDbEllipse
10
19.869205
20
-35.806581
30
0
11
-2.26052480235418E-13
21
-60.5000000018868
31
0
210
0
220
0
230
1
40
0.087489
41
-2.62394511035957
42
-2.44173935054477
0
ELLIPSE
5
16F
100
AcDbEntity
8
SK1
62
256
6
ByLayer
370
18
48
1
60
0
100
AcDbEllipse
10
17.29286
20
7.367292
30
0
11
-2.52207312651485E-14
21
-6.75
31
0
210
0
220
0
230
1
40
0.087489
41
-3.06895206656326
42
-0.0726405870264975
0
ELLIPSE
5
170
100
AcDbEntity
8
SK1
62
256
6
ByLayer
370
18
48
1
60
0
100
AcDbEllipse
10
19.337126
20
39.85
30
0
11
-2.2511837903831E-13
21
-60.2499999914116
31
0
210
0
220
0
230
1
40
0.087489
41
-0.563989649078479
42
-0.426811497461642
0
ELLIPSE
5
171
100
AcDbEntity
8
SK1
62
256
6
ByLayer
370
18
48
1
60
0
100
AcDbEllipse
10
16.799955
20
-5.998255
30
0
11
-2.24184277912505E-14
21
-6.00000000000197
31
0
210
0
220
0
230
1
40
0.087489
41
-1.5707963267949
42
-0.563989649048558
0
ELLIPSE
5
172
100
AcDbEntity
8
SK1
62
256
6
ByLayer
370
18
48
1
60
0
100
AcDbEllipse
10
17.29286
20
-7.367292
30
0
11
-2.52207312651485E-14
21
-6.75
31
0
210
0
220
0
230
1
40
0.087489
41
-3.06895206656317
42
-0.0726405870265985
0
ELLIPSE
5
173
100
AcDbEntity
8
SK1
62
256
6
ByLayer
370
18
48
1
60
0
100
AcDbEllipse
10
15.164413
20
31.111864
30
0
11
1.13631712573501
21
3.12200564429651
31
0
210
-8.67361737988403E-16
220
-9.86076131526264E-32
230
1
40
0.060198
41
-2.913554309903
42
-2.81215810498947
0
ELLIPSE
5
174
100
AcDbEntity
8
SK1
62
256
6
ByLayer
370
18
48
1
60
0
100
AcDbEllipse
10
15.732202
20
27.200188
30
0
11
-1.30513892696367
21
-0.0306409961643583
31
0
210
0
220
0
230
1
40
0.346109
41
0.137653078458374
42
2.86848339412416
0
ELLIPSE
5
175
100
AcDbEntity
8
SK1
62
256
6
ByLayer
370
18
48
1
60
0
100
AcDbEllipse
10
16.394853
20
38.072734
30
0
11
0.159886752693094
21
-0.186955145190651
31
0
210
0
220
0
230
1
40
0.023006
41
1.04375489923786
42
1.70852619016324
0
ELLIPSE
5
176
100
AcDbEntity
8
SK1
62
256
6
ByLayer
370
18
48
1
60
0
100
AcDbEllipse
10
16.905147
20
38.072734
30
0
11
-0.159886752694465
21
-0.186955145189479
31
0
210
0
220
0
230
1
40
0.023006
41
-1.70852619016289
42
-1.04375489923798
0
POINT
5
6C
100
AcDbEntity
8
SK1
62
256
6
ByLayer
370
18
48
1
60
0
100
AcDbPoint
10
0
20
0
30
0
39
0
210
0
220
0
230
1
50
360
0
POINT
5
6E
100
AcDbEntity
8
1
62
256
6
ByLayer
370
13
48
1
60
1
100
AcDbPoint
10
5.703871
20
0
30
0
39
0
210
0
220
0
230
1
50
360
0
POINT
5
70
100
AcDbEntity
8
1
62
256
6
ByLayer
370
13
48
1
60
1
100
AcDbPoint
10
1.832783
20
0
30
0
39
0
210
0
220
0
230
1
50
360
0
POINT
5
71
100
AcDbEntity
8
80
62
256
6
ByLayer
370
18
48
1
60
0
100
AcDbPoint
10
0
20
0
30
0
39
0
210
0
220
0
230
1
50
360
0
POINT
5
73
100
AcDbEntity
8
81
62
256
6
ByLayer
370
18
48
1
60
0
100
AcDbPoint
10
17.397146
20
38.4
30
0
39
0
210
0
220
0
230
1
50
360
0
SPLINE
5
177
100
AcDbEntity
8
SK1
62
256
6
ByLayer
370
18
48
1
60
0
100
AcDbSpline
70
4
71
3
72
8
73
4
40
0
40
0
40
0
40
0
40
1
40
1
40
1
40
1
41
1
10
0.342769052829766
20
6.92710219507886
30
0
41
1
10
0.141559860419449
20
7.04327037648038
30
0
41
1
10
-0.0563906484607912
20
7.15755715606862
30
0
41
1
10
-0.249980947161646
20
7.26932656713608
30
0
0
SPLINE
5
178
100
AcDbEntity
8
SK1
62
256
6
ByLayer
370
18
48
1
60
0
100
AcDbSpline
70
4
71
3
72
8
73
4
40
0
40
0
40
0
40
0
40
1
40
1
40
1
40
1
41
1
10
-0.249980947161646
20
7.73067343286392
30
0
41
1
10
-0.052543083876742
20
7.8446642363797
30
0
41
1
10
0.145053884699991
20
7.95874689937851
30
0
41
1
10
0.342769052838349
20
8.07289780492609
30
0
0
SPLINE
5
179
100
AcDbEntity
8
SK1
62
256
6
ByLayer
370
18
48
1
60
0
100
AcDbSpline
70
4
71
3
72
8
73
4
40
0
40
0
40
0
40
0
40
1
40
1
40
1
40
1
41
1
10
0.126148905032551
20
5.5521678957215
30
0
41
1
10
0.0001260536854204
20
5.6249272228708
30
0
41
1
10
-0.125290129204387
20
5.69733628982296
30
0
41
1
10
-0.249980947161646
20
5.76932656713608
30
0
0
SPLINE
5
17A
100
AcDbEntity
8
SK1
62
256
6
ByLayer
370
18
48
1
60
0
100
AcDbSpline
70
4
71
3
72
8
73
4
40
0
40
0
40
0
40
0
40
1
40
1
40
1
40
1
41
1
10
-0.249980947161646
20
10.7306734328639
30
0
41
1
10
-0.0526311005796174
20
10.8446134199126
30
0
41
1
10
0.144956402685182
20
10.958690618111
30
0
41
1
10
0.342769052838378
20
11.0728978049261
30
0
0
SPLINE
5
17B
100
AcDbEntity
8
SK1
62
256
6
ByLayer
370
18
48
1
60
0
100
AcDbSpline
70
4
71
3
72
8
73
4
40
0
40
0
40
0
40
0
40
1
40
1
40
1
40
1
41
1
10
0.342769052838378
20
11.4271021950739
30
0
41
1
10
0.140428826570911
20
11.5439233791773
30
0
41
1
10
-0.0572098387455355
20
11.6580301158001
30
0
41
1
10
-0.249980947161646
20
11.7693265671361
30
0
0
SPLINE
5
17C
100
AcDbEntity
8
SK1
62
256
6
ByLayer
370
18
48
1
60
0
100
AcDbSpline
70
4
71
3
72
8
73
4
40
0
40
0
40
0
40
0
40
1
40
1
40
1
40
1
41
1
10
0.342769052838349
20
8.42710219507391
30
0
41
1
10
0.136066482638825
20
8.54644197962081
30
0
41
1
10
-0.0625363391942528
20
8.66110537226795
30
0
41
1
10
-0.249980947161674
20
8.76932656713608
30
0
0
SPLINE
5
17D
100
AcDbEntity
8
SK1
62
256
6
ByLayer
370
18
48
1
60
0
100
AcDbSpline
70
4
71
3
72
12
73
8
40
0
40
0
40
0
40
0
40
0.249999999999999
40
0.249999999999999
40
0.499999999999998
40
0.499999999999998
40
1
40
1
40
1
40
1
41
1
10
-0.324980947161635
20
13.3992303777037
30
0
41
1
10
-0.324980947161635
20
13.382332687634
30
0
41
1
10
-0.322317549925145
20
13.3679129498827
30
0
41
1
10
-0.314174146943344
20
13.3416620797113
30
0
41
1
10
-0.308592611466139
20
13.32992807673
30
0
41
1
10
-0.288720362393804
20
13.2983200786429
30
0
41
1
10
-0.271353500686445
20
13.2816660166669
30
0
41
1
10
-0.249980947161646
20
13.2693265671361
30
0
0
SPLINE
5
17E
100
AcDbEntity
8
SK1
62
256
6
ByLayer
370
18
48
1
60
0
100
AcDbSpline
70
4
71
3
72
12
73
8
40
0
40
0
40
0
40
0
40
0.249999999999995
40
0.249999999999995
40
0.49999999999999
40
0.49999999999999
40
1
40
1
40
1
40
1
41
1
10
-0.324980947161635
20
10.3992303777078
30
0
41
1
10
-0.324980947162118
20
10.382160386372
30
0
41
1
10
-0.322272682190061
20
10.36771321376
30
0
41
1
10
-0.314112329532747
20
10.3415186347891
30
0
41
1
10
-0.308560266702529
20
10.3298545571438
30
0
41
1
10
-0.288558618445961
20
10.2981073391071
30
0
41
1
10
-0.271062951512931
20
10.2814982680234
30
0
41
1
10
-0.249980947161646
20
10.2693265671361
30
0
0
SPLINE
5
17F
100
AcDbEntity
8
SK1
62
256
6
ByLayer
370
18
48
1
60
0
100
AcDbSpline
70
4
71
3
72
12
73
8
40
0
40
0
40
0
40
0
40
0.250000000000015
40
0.250000000000015
40
0.50000000000003
40
0.50000000000003
40
1
40
1
40
1
40
1
41
1
10
-0.324980947162743
20
7.39923037770153
30
0
41
1
10
-0.324980947162516
20
7.3833765708675
30
0
41
1
10
-0.322450175692978
20
7.36837825477245
30
0
41
1
10
-0.314111654910079
20
7.34142317214581
30
0
41
1
10
-0.30833005042382
20
7.32935310050176
30
0
41
1
10
-0.287609551001054
20
7.29688749110632
30
0
41
1
10
-0.26993116971147
20
7.28084483349561
30
0
41
1
10
-0.249980947161646
20
7.26932656713608
30
0
0
SPLINE
5
180
100
AcDbEntity
8
SK1
62
256
6
ByLayer
370
18
48
1
60
0
100
AcDbSpline
70
4
71
3
72
14
73
10
40
0
40
0
40
0
40
0
40
0.25
40
0.25
40
0.5
40
0.5
40
0.75
40
0.75
40
1
40
1
40
1
40
1
41
1
10
-0.249980947161106
20
9.23067343286608
30
0
41
1
10
-0.260244164922455
20
9.22474796132896
30
0
41
1
10
-0.27077857752252
20
9.21705150636514
30
0
41
1
10
-0.290763328836363
20
9.19717036212275
30
0
41
1
10
-0.299849915215646
20
9.18511528382068
30
0
41
1
10
-0.313591135542993
20
9.15987685939756
30
0
41
1
10
-0.318241784056937
20
9.14694235130666
30
0
41
1
10
-0.323900489139618
20
9.12264559791517
30
0
41
1
10
-0.324980945088129
20
9.1114286884024
30
0
41
1
10
-0.324980947161635
20
9.10076965147614
30
0
0
SPLINE
5
181
100
AcDbEntity
8
SK1
62
256
6
ByLayer
370
18
48
1
60
0
100
AcDbSpline
70
4
71
3
72
10
73
6
40
0
40
0
40
0
40
0
40
0.5
40
0.5
40
1
40
1
40
1
40
1
41
1
10
-0.324980947161635
20
8.89923037769223
30
0
41
1
10
-0.324980947159133
20
8.86655406122382
30
0
41
1
10
-0.315260525494296
20
8.84047279882155
30
0
41
1
10
-0.288469123361068
20
8.79798193556162
30
0
41
1
10
-0.270641110941767
20
8.7812547182556
30
0
41
1
10
-0.249980947161845
20
8.76932656713574
30
0
0
SPLINE
5
182
100
AcDbEntity
8
SK1
62
256
6
ByLayer
370
18
48
1
60
0
100
AcDbSpline
70
4
71
3
72
14
73
10
40
0
40
0
40
0
40
0
40
0.25
40
0.25
40
0.5
40
0.5
40
0.75
40
0.75
40
1
40
1
40
1
40
1
41
1
10
-0.249980947161589
20
10.7306734328641
30
0
41
1
10
-0.261170454548648
20
10.7242131677621
30
0
41
1
10
-0.273714893758125
20
10.7149334060329
30
0
41
1
10
-0.296507637462582
20
10.6902851252668
30
0
41
1
10
-0.305604265762241
20
10.6757872382091
30
0
41
1
10
-0.317090744544743
20
10.6507185917273
30
0
41
1
10
-0.320295416587868
20
10.6394071207653
30
0
41
1
10
-0.324248578481218
20
10.6188893781669
30
0
41
1
10
-0.324980944492779
20
10.6094813158657
30
0
41
1
10
-0.324980947161635
20
10.6007696682495
30
0
0
SPLINE
5
183
100
AcDbEntity
8
SK1
62
256
6
ByLayer
370
18
48
1
60
0
100
AcDbSpline
70
4
71
3
72
18
73
14
40
0
40
0
40
0
40
0
40
0.124999999999997
40
0.124999999999997
40
0.249999999999994
40
0.249999999999994
40
0.374999999999992
40
0.374999999999992
40
0.499999999999989
40
0.499999999999989
40
0.749999999999994
40
0.749999999999994
40
1
40
1
40
1
40
1
41
1
10
-0.24998094716932
20
15.2306734328595
30
0
41
1
10
-0.256081154466187
20
15.2271514765341
30
0
41
1
10
-0.262717445722132
20
15.2227905443193
30
0
41
1
10
-0.277142436186722
20
15.2109958839184
30
0
41
1
10
-0.285001470129544
20
15.2032301173287
30
0
41
1
10
-0.297781574311472
20
15.1875029750968
30
0
41
1
10
-0.302626773518881
20
15.1799265663383
30
0
41
1
10
-0.310060604035897
20
15.1664412681963
30
0
41
1
10
-0.312734553913799
20
15.1604407626017
30
0
41
1
10
-0.319279714209984
20
15.1434857839011
30
0
41
1
10
-0.321537832798242
20
15.1339462395638
30
0
41
1
10
-0.324437343072702
20
15.1163386422425
30
0
41
1
10
-0.324980944828553
20
15.1083205516147
30
0
41
1
10
-0.324980947162771
20
15.1007696686657
30
0
0
SPLINE
5
184
100
AcDbEntity
8
SK1
62
256
6
ByLayer
370
18
48
1
60
0
100
AcDbSpline
70
4
71
3
72
8
73
4
40
0
40
0
40
0
40
0
40
1
40
1
40
1
40
1
41
1
10
14.1500000000001
20
27.3
30
0
41
1
10
14.1500000000001
20
27.2257876448272
30
0
41
1
10
14.1449403937001
20
27.1617512141682
30
0
41
1
10
14.1384203860227
20
27.1078524596367
30
0
0
SPLINE
5
185
100
AcDbEntity
8
SK1
62
256
6
ByLayer
370
18
48
1
60
0
100
AcDbSpline
70
4
71
3
72
8
73
4
40
0
40
0
40
0
40
0
40
1
40
1
40
1
40
1
41
1
10
15.9028539764313
20
37.5846331929392
30
0
41
1
10
15.9214608939343
20
37.3719551526871
30
0
41
1
10
15.9382930611458
20
37.1599477067578
30
0
41
1
10
15.9544091992317
20
36.9482108144206
30
0
0
SPLINE
5
186
100
AcDbEntity
8
SK1
62
256
6
ByLayer
370
18
48
1
60
0
100
AcDbSpline
70
4
71
3
72
8
73
4
40
0
40
0
40
0
40
0
40
1
40
1
40
1
40
1
41
1
10
16.0057993293048
20
36.5027832782668
30
0
41
1
10
16.0019403837767
20
36.4778454932595
30
0
41
1
10
16.0000000000001
20
36.4527055693946
30
0
41
1
10
16.0000000000001
20
36.4273630883896
30
0
0
SPLINE
5
187
100
AcDbEntity
8
SK1
62
256
6
ByLayer
370
18
48
1
60
0
100
AcDbSpline
70
4
71
3
72
8
73
4
40
0
40
0
40
0
40
0
40
1
40
1
40
1
40
1
41
1
10
16.0000000000001
20
36.3568266286442
30
0
41
1
10
16.0000000000001
20
36.3803366294161
30
0
41
1
10
16.0000000000001
20
36.4038486848377
30
0
41
1
10
16.0000000000001
20
36.4273630883896
30
0
0
SPLINE
5
188
100
AcDbEntity
8
SK1
62
256
6
ByLayer
370
18
48
1
60
0
100
AcDbSpline
70
4
71
3
72
8
73
4
40
0
40
0
40
0
40
0
40
1
40
1
40
1
40
1
41
1
10
0.232929987210554
20
17.0094821908183
30
0
41
1
10
0.269468116944296
20
17.0305774898558
30
0
41
1
10
0.306081520690043
20
17.0517162483643
30
0
41
1
10
0.342769052838349
20
17.0728978049261
30
0
0
SPLINE
5
189
100
AcDbEntity
8
SK1
62
256
6
ByLayer
370
18
48
1
60
0
100
AcDbSpline
70
4
71
3
72
16
73
12
40
0
40
0
40
0
40
0
40
0.249999999999946
40
0.249999999999946
40
0.374999999999934
40
0.374999999999934
40
0.499999999999922
40
0.499999999999922
40
0.749999999999961
40
0.749999999999961
40
1
40
1
40
1
40
1
41
1
10
0.342769052838349
20
17.0728978049261
30
0
41
1
10
0.351284766014601
20
17.0778143542207
30
0
41
1
10
0.360975280216195
20
17.084084606744
30
0
41
1
10
0.37789078807458
20
17.0983306261414
30
0
41
1
10
0.383951566042327
20
17.10400386837
30
0
41
1
10
0.39520175690717
20
17.1159812798267
30
0
41
1
10
0.400332030443366
20
17.1222050724322
30
0
41
1
10
0.413177388042243
20
17.1394772666981
30
0
41
1
10
0.418807060486614
20
17.1493570029223
30
0
41
1
10
0.427586422954619
20
17.1668048945565
30
0
41
1
10
0.430710797241176
20
17.1744669291746
30
0
41
1
10
0.433254343189759
20
17.1816380379657
30
0
0
SPLINE
5
18A
100
AcDbEntity
8
SK1
62
256
6
ByLayer
370
18
48
1
60
0
100
AcDbSpline
70
4
71
3
72
8
73
4
40
0
40
0
40
0
40
0
40
1
40
1
40
1
40
1
41
1
10
0.433254343189759
20
17.1816380379657
30
0
41
1
10
0.455502245224466
20
17.2007543470578
30
0
41
1
10
0.477750798252373
20
17.2198701481644
30
0
41
1
10
0.500000000000028
20
17.2389854430594
30
0
0
SPLINE
5
18B
100
AcDbEntity
8
SK1
62
256
6
ByLayer
370
18
48
1
60
0
100
AcDbSpline
70
4
71
3
72
8
73
4
40
0
40
0
40
0
40
0
40
1
40
1
40
1
40
1
41
1
10
-0.32498099999998
20
16.5297120735884
30
0
41
1
10
-0.139057592688431
20
16.6896720601664
30
0
41
1
10
0.0469131958099354
20
16.8495950740717
30
0
41
1
10
0.232929987207939
20
17.0094821908147
30
0
0
SPLINE
5
18C
100
AcDbEntity
8
SK1
62
256
6
ByLayer
370
18
48
1
60
0
100
AcDbSpline
70
4
71
3
72
8
73
4
40
0
40
0
40
0
40
0
40
1
40
1
40
1
40
1
41
1
10
0.342769052839486
20
12.9271021950733
30
0
41
1
10
0.13909345017305
20
13.0446943591001
30
0
41
1
10
-0.0585614418590694
20
13.1588104642215
30
0
41
1
10
-0.249980947161646
20
13.2693265671361
30
0
0
SPLINE
5
18D
100
AcDbEntity
8
SK1
62
256
6
ByLayer
370
18
48
1
60
0
100
AcDbSpline
70
4
71
3
72
8
73
4
40
0
40
0
40
0
40
0
40
1
40
1
40
1
40
1
41
1
10
14.9674636686081
20
30.5555672054092
30
0
41
1
10
15.0185829217425
20
30.5643488604088
30
0
41
1
10
15.0697211735895
20
30.5730577410394
30
0
41
1
10
15.1208747878793
20
30.5817050983146
30
0
0
SPLINE
5
18E
100
AcDbEntity
8
SK1
62
256
6
ByLayer
370
18
48
1
60
0
100
AcDbSpline
70
4
71
3
72
8
73
4
40
0
40
0
40
0
40
0
40
1
40
1
40
1
40
1
41
1
10
-0.249980947183303
20
13.7306734328514
30
0
41
1
10
-0.0530000040877496
20
13.8444004333729
30
0
41
1
10
0.14459542232197
20
13.9584822060012
30
0
41
1
10
0.342769052838378
20
14.0728978049261
30
0
0
SPLINE
5
18F
100
AcDbEntity
8
SK1
62
256
6
ByLayer
370
18
48
1
60
0
100
AcDbSpline
70
4
71
3
72
8
73
4
40
0
40
0
40
0
40
0
40
1
40
1
40
1
40
1
41
1
10
-0.0469703231320011
20
10.1521183287042
30
0
41
1
10
-0.115112466683087
20
10.1914602136266
30
0
41
1
10
-0.182784534593111
20
10.2305307002511
30
0
41
1
10
-0.249980947161646
20
10.2693265671361
30
0
0
SPLINE
5
190
100
AcDbEntity
8
SK1
62
256
6
ByLayer
370
18
48
1
60
0
100
AcDbSpline
70
4
71
3
72
10
73
6
40
0
40
0
40
0
40
0
40
0.5
40
0.5
40
1
40
1
40
1
40
1
41
1
10
-0.324980947161663
20
5.89923037770377
30
0
41
1
10
-0.324980947161663
20
5.8692598015014
30
0
41
1
10
-0.31541920583507
20
5.84050503820625
30
0
41
1
10
-0.287575493106914
20
5.79678996467401
30
0
41
1
10
-0.269423016056493
20
5.78055145084606
30
0
41
1
10
-0.249980947161674
20
5.76932656713605
30
0
0
SPLINE
5
191
100
AcDbEntity
8
SK1
62
256
6
ByLayer
370
18
48
1
60
0
100
AcDbSpline
70
4
71
3
72
10
73
6
40
0
40
0
40
0
40
0
40
0.5
40
0.5
40
1
40
1
40
1
40
1
41
1
10
-0.24998094716176
20
6.2306734328639
30
0
41
1
10
-0.269221301634303
20
6.21956500902984
30
0
41
1
10
-0.287683543961606
20
6.20323581555739
30
0
41
1
10
-0.315955426925655
20
6.15845317404323
30
0
41
1
10
-0.324980948528577
20
6.12971339378613
30
0
41
1
10
-0.324980947161663
20
6.10076961521223
30
0
0
SPLINE
5
192
100
AcDbEntity
8
SK1
62
256
6
ByLayer
370
18
48
1
60
0
100
AcDbSpline
70
4
71
3
72
8
73
4
40
0
40
0
40
0
40
0
40
1
40
1
40
1
40
1
41
1
10
0.342769052838236
20
9.927102195074
30
0
41
1
10
0.200228104510018
20
10.0093982499618
30
0
41
1
10
0.0693189021618537
20
10.0849787131769
30
0
41
1
10
-0.0469703231317169
20
10.1521183287041
30
0
0
SPLINE
5
193
100
AcDbEntity
8
SK1
62
256
6
ByLayer
370
18
48
1
60
0
100
AcDbSpline
70
4
71
3
72
8
73
4
40
0
40
0
40
0
40
0
40
1
40
1
40
1
40
1
41
1
10
-0.249980947168893
20
15.2306734328597
30
0
41
1
10
-0.0534841279736327
20
15.344120924317
30
0
41
1
10
0.144124364079005
20
15.4582102403978
30
0
41
1
10
0.342769052838378
20
15.5728978049261
30
0
0
SPLINE
5
194
100
AcDbEntity
8
SK1
62
256
6
ByLayer
370
18
48
1
60
0
100
AcDbSpline
70
4
71
3
72
8
73
4
40
0
40
0
40
0
40
0
40
1
40
1
40
1
40
1
41
1
10
0.342769052838378
20
15.9271021950739
30
0
41
1
10
0.132896815745426
20
16.048271987655
30
0
41
1
10
-0.0648365548912295
20
16.1624334024198
30
0
41
1
10
-0.249980947161618
20
16.2693265671361
30
0
0
SPLINE
5
195
100
AcDbEntity
8
SK1
62
256
6
ByLayer
370
18
48
1
60
0
100
AcDbSpline
70
4
71
3
72
12
73
8
40
0
40
0
40
0
40
0
40
0.25
40
0.25
40
0.5
40
0.5
40
1
40
1
40
1
40
1
41
1
10
-0.324980947161635
20
11.8992303777034
30
0
41
1
10
-0.324980947161606
20
11.882281072652
30
0
41
1
10
-0.322258331788362
20
11.8676586519617
30
0
41
1
10
-0.314110184966523
20
11.841520265274
30
0
41
1
10
-0.308588305166722
20
11.8299276392252
30
0
41
1
10
-0.288794763919782
20
11.7984256267748
30
0
41
1
10
-0.271268222819231
20
11.7816167814671
30
0
41
1
10
-0.24998094716176
20
11.7693265671359
30
0
0
SPLINE
5
196
100
AcDbEntity
8
SK1
62
256
6
ByLayer
370
18
48
1
60
0
100
AcDbSpline
70
4
71
3
72
12
73
8
40
0
40
0
40
0
40
0
40
0.499999999999982
40
0.499999999999982
40
0.749999999999991
40
0.749999999999991
40
1
40
1
40
1
40
1
41
1
10
-0.249980947161987
20
7.73067343286515
30
0
41
1
10
-0.269423441542273
20
7.71944830350104
30
0
41
1
10
-0.289029564075861
20
7.70196041488732
30
0
41
1
10
-0.310297262082116
20
7.66692217929644
30
0
41
1
10
-0.315981866199195
20
7.65376622660902
30
0
41
1
10
-0.323277724085642
20
7.6271886531655
30
0
41
1
10
-0.324980946025562
20
7.61364114856785
30
0
41
1
10
-0.324980947161663
20
7.600769635536
30
0
0
SPLINE
5
197
100
AcDbEntity
8
SK1
62
256
6
ByLayer
370
18
48
1
60
0
100
AcDbSpline
70
4
71
3
72
12
73
8
40
0
40
0
40
0
40
0
40
0.250000000000001
40
0.250000000000001
40
0.500000000000001
40
0.500000000000001
40
1
40
1
40
1
40
1
41
1
10
-0.324980947162885
20
14.8992303777025
30
0
41
1
10
-0.324980947162743
20
14.8822327202223
30
0
41
1
10
-0.322303765072348
20
14.8679024610084
30
0
41
1
10
-0.314253239814207
20
14.8418833678346
30
0
41
1
10
-0.30877923218921
20
14.8302966226743
30
0
41
1
10
-0.289069242120036
20
14.7987354246533
30
0
41
1
10
-0.2715674655295
20
14.781789549324
30
0
41
1
10
-0.249980947163209
20
14.7693265671343
30
0
0
SPLINE
5
198
100
AcDbEntity
8
SK1
62
256
6
ByLayer
370
18
48
1
60
0
100
AcDbSpline
70
4
71
3
72
8
73
4
40
0
40
0
40
0
40
0
40
1
40
1
40
1
40
1
41
1
10
-0.249980947161646
20
6.23067343286392
30
0
41
1
10
-0.0532711848777581
20
6.34424386707077
30
0
41
1
10
0.14438848403023
20
6.45836273012272
30
0
41
1
10
0.342769052838349
20
6.57289780492609
30
0
0
SPLINE
5
199
100
AcDbEntity
8
SK1
62
256
6
ByLayer
370
18
48
1
60
0
100
AcDbSpline
70
4
71
3
72
8
73
4
40
0
40
0
40
0
40
0
40
1
40
1
40
1
40
1
41
1
10
-0.249980947161362
20
9.23067343286409
30
0
41
1
10
-0.0525671006114976
20
9.34465037031141
30
0
41
1
10
0.145035952120537
20
9.45873654599895
30
0
41
1
10
0.342769052838349
20
9.57289780492609
30
0
0
SPLINE
5
19A
100
AcDbEntity
8
SK1
62
256
6
ByLayer
370
18
48
1
60
0
100
AcDbSpline
70
4
71
3
72
18
73
14
40
0
40
0
40
0
40
0
40
0.125
40
0.125
40
0.25
40
0.25
40
0.375
40
0.375
40
0.5
40
0.5
40
0.75
40
0.75
40
1
40
1
40
1
40
1
41
1
10
-0.249980947105968
20
12.2306734328961
30
0
41
1
10
-0.255633945171468
20
12.2274096729445
30
0
41
1
10
-0.261545722398694
20
12.2235307522799
30
0
41
1
10
-0.274089073361125
20
12.2136471429456
30
0
41
1
10
-0.280558475671313
20
12.207688162703
30
0
41
1
10
-0.292389202618978
20
12.1945432345728
30
0
41
1
10
-0.297726742185972
20
12.1873734755297
30
0
41
1
10
-0.306407273047256
20
12.1735286661001
30
0
41
1
10
-0.309705607901094
20
12.1670655127171
30
0
41
1
10
-0.317845872191242
20
12.1484469794848
30
0
41
1
10
-0.320694136903256
20
12.1377750261149
30
0
41
1
10
-0.324336623178056
20
12.1179339928977
30
0
41
1
10
-0.324980944532342
20
12.1090654184485
30
0
41
1
10
-0.324980947161635
20
12.1007696698376
30
0
0
SPLINE
5
19B
100
AcDbEntity
8
SK1
62
256
6
ByLayer
370
18
48
1
60
0
100
AcDbSpline
70
4
71
3
72
18
73
14
40
0
40
0
40
0
40
0
40
0.125000000000004
40
0.125000000000004
40
0.250000000000007
40
0.250000000000007
40
0.375000000000011
40
0.375000000000011
40
0.500000000000014
40
0.500000000000014
40
0.750000000000007
40
0.750000000000007
40
1
40
1
40
1
40
1
41
1
10
-0.249980947185236
20
13.7306734328503
30
0
41
1
10
-0.255879787461282
20
13.7272677358276
30
0
41
1
10
-0.262132384433073
20
13.7231502516311
30
0
41
1
10
-0.275412231696293
20
13.712510163469
30
0
41
1
10
-0.282361551212887
20
13.7059304146114
30
0
41
1
10
-0.294715763793477
20
13.6916154260128
30
0
41
1
10
-0.299993431987844
20
13.6840478259869
30
0
41
1
10
-0.30810619654369
20
13.6703472663303
30
0
41
1
10
-0.311189532503988
20
13.6639225594934
30
0
41
1
10
-0.318524863889849
20
13.6461505958498
30
0
41
1
10
-0.321129814062118
20
13.6358528996718
30
0
41
1
10
-0.324389075210092
20
13.6171262393291
30
0
41
1
10
-0.324980944658819
20
13.6086863494071
30
0
41
1
10
-0.324980947161635
20
13.600769669718
30
0
0
SPLINE
5
19C
100
AcDbEntity
8
SK1
62
256
6
ByLayer
370
18
48
1
60
0
100
AcDbSpline
70
4
71
3
72
12
73
8
40
0
40
0
40
0
40
0
40
0.250000000000004
40
0.250000000000004
40
0.500000000000008
40
0.500000000000008
40
1
40
1
40
1
40
1
41
1
10
-0.324980947161635
20
16.3992303777037
30
0
41
1
10
-0.324980947161635
20
16.3824490524555
30
0
41
1
10
-0.322353063383275
20
16.3681078840145
30
0
41
1
10
-0.3142916343526
20
16.3419618637763
30
0
41
1
10
-0.308805749579392
20
16.3303458305286
30
0
41
1
10
-0.289084674083313
20
16.2987466783825
30
0
41
1
10
-0.271705523985588
20
16.2818692574134
30
0
41
1
10
-0.249980947161618
20
16.2693265671361
30
0
0
SPLINE
5
19D
100
AcDbEntity
8
SK1
62
256
6
ByLayer
370
18
48
1
60
0
100
AcDbSpline
70
4
71
3
72
26
73
22
40
0
40
0
40
0
40
0
40
0.031249999999999
40
0.031249999999999
40
0.062499999999998
40
0.062499999999998
40
0.0937499999999937
40
0.0937499999999937
40
0.124999999999989
40
0.124999999999989
40
0.187499999999987
40
0.187499999999987
40
0.249999999999984
40
0.249999999999984
40
0.374999999999986
40
0.374999999999986
40
0.499999999999989
40
0.499999999999989
40
0.749999999999994
40
0.749999999999994
40
1
40
1
40
1
40
1
41
1
10
0.342769052838378
20
15.5728978049261
30
0
41
1
10
0.349594124357793
20
15.5768382618051
30
0
41
1
10
0.356954877171091
20
15.5815885538065
30
0
41
1
10
0.372789901199951
20
15.5937177583002
30
0
41
1
10
0.381285818620313
20
15.6011915260059
30
0
41
1
10
0.397454220776638
20
15.6183542733494
30
0
41
1
10
0.404609871674069
20
15.6275380928634
30
0
41
1
10
0.415901574081119
20
15.6443416507405
30
0
41
1
10
0.42028878649171
20
15.652186781863
30
0
41
1
10
0.430951862660209
20
15.6737574524048
30
0
41
1
10
0.435119125430191
20
15.6860916729491
30
0
41
1
10
0.441074256374037
20
15.7083938363465
30
0
41
1
10
0.442799242142485
20
15.7184741707155
30
0
41
1
10
0.445882914634154
20
15.7469103630901
30
0
41
1
10
0.445142323119455
20
15.763216131862
30
0
41
1
10
0.4410224923447
20
15.7929385564271
30
0
41
1
10
0.437545776439322
20
15.8063404779235
30
0
41
1
10
0.424260602356412
20
15.8435596603405
30
0
41
1
10
0.411612191613727
20
15.86447031358
30
0
41
1
10
0.381069122415539
20
15.9004060928585
30
0
41
1
10
0.363218614943691
20
15.9152956348876
30
0
41
1
10
0.342769052838378
20
15.9271021950739
30
0
0
SPLINE
5
19E
100
AcDbEntity
8
SK1
62
256
6
ByLayer
370
18
48
1
60
0
100
AcDbSpline
70
4
71
3
72
24
73
20
40
0
40
0
40
0
40
0
40
0.0625000000000002
40
0.0625000000000002
40
0.0937500000000013
40
0.0937500000000013
40
0.125000000000002
40
0.125000000000002
40
0.187499999999998
40
0.187499999999998
40
0.249999999999995
40
0.249999999999995
40
0.374999999999996
40
0.374999999999996
40
0.499999999999997
40
0.499999999999997
40
0.749999999999999
40
0.749999999999999
40
1
40
1
40
1
40
1
41
1
10
0.342769052834711
20
14.072897804918
30
0
41
1
10
0.355492163966915
20
14.0802434965545
30
0
41
1
10
0.370101104686682
20
14.0905168173619
30
0
41
1
10
0.391579881066747
20
14.1117885239882
30
0
41
1
10
0.398484982044238
20
14.1197537295974
30
0
41
1
10
0.410274648123931
20
14.1355431801381
30
0
41
1
10
0.415157671611155
20
14.1432678560082
30
0
41
1
10
0.427372229456637
20
14.1652254088806
30
0
41
1
10
0.432321891040061
20
14.1780120112318
30
0
41
1
10
0.439549508736462
20
14.2014461443951
30
0
41
1
10
0.441681157637191
20
14.2118967014105
30
0
41
1
10
0.44578820076282
20
14.2412797940188
30
0
41
1
10
0.445442817618073
20
14.2583164448053
30
0
41
1
10
0.441818702447733
20
14.2892602049515
30
0
41
1
10
0.438463981017151
20
14.3031082300083
30
0
41
1
10
0.425407582488674
20
14.3414669139582
30
0
41
1
10
0.412753784859831
20
14.3628334233236
30
0
41
1
10
0.381951448311042
20
14.3996431149244
30
0
41
1
10
0.363680833357307
20
14.4150287729628
30
0
41
1
10
0.342769052840311
20
14.4271021950737
30
0
0
SPLINE
5
19F
100
AcDbEntity
8
SK1
62
256
6
ByLayer
370
18
48
1
60
0
100
AcDbSpline
70
4
71
3
72
8
73
4
40
0
40
0
40
0
40
0
40
1
40
1
40
1
40
1
41
1
10
0.34276905283977
20
14.4271021950731
30
0
41
1
10
0.13695146537151
20
14.5459310346019
30
0
41
1
10
-0.0607307434435427
20
14.6600629110753
30
0
41
1
10
-0.249980947161646
20
14.7693265671361
30
0
0
SPLINE
5
1A0
100
AcDbEntity
8
SK1
62
256
6
ByLayer
370
18
48
1
60
0
100
AcDbSpline
70
4
71
3
72
8
73
4
40
0
40
0
40
0
40
0
40
1
40
1
40
1
40
1
41
1
10
-0.249980947106678
20
12.2306734328957
30
0
41
1
10
-0.052763289380465
20
12.3445371006728
30
0
41
1
10
0.144826582216581
20
12.4586156662285
30
0
41
1
10
0.342769052838378
20
12.5728978049261
30
0
0
SPLINE
5
1A1
100
AcDbEntity
8
SK1
62
256
6
ByLayer
370
18
48
1
60
0
100
AcDbSpline
70
4
71
3
72
18
73
14
40
0
40
0
40
0
40
0
40
0.249999999999999
40
0.249999999999999
40
0.374999999999999
40
0.374999999999999
40
0.499999999999998
40
0.499999999999998
40
0.624999999999998
40
0.624999999999998
40
0.749999999999997
40
0.749999999999997
40
1
40
1
40
1
40
1
41
1
10
0.342769052839515
20
6.57289780491909
30
0
41
1
10
0.370516593263858
20
6.58891785485197
30
0
41
1
10
0.397303986572183
20
6.61292698995088
30
0
41
1
10
0.427069711749226
20
6.66393798432303
30
0
41
1
10
0.434841942706157
20
6.68302567681893
30
0
41
1
10
0.444310147221273
20
6.72323929480852
30
0
41
1
10
0.445902567674096
20
6.74420182497151
30
0
41
1
10
0.443169313479928
20
6.78389511560466
30
0
41
1
10
0.438900918789187
20
6.80280522841385
30
0
41
1
10
0.426637846290504
20
6.83662304318069
30
0
41
1
10
0.418504222063262
20
6.85201367673581
30
0
41
1
10
0.390918604963133
20
6.89234207927846
30
0
41
1
10
0.36778268519231
20
6.91266056770318
30
0
41
1
10
0.342769052829652
20
6.92710219507948
30
0
0
SPLINE
5
1A2
100
AcDbEntity
8
SK1
62
256
6
ByLayer
370
18
48
1
60
0
100
AcDbSpline
70
4
71
3
72
20
73
16
40
0
40
0
40
0
40
0
40
0.124999999999996
40
0.124999999999996
40
0.249999999999993
40
0.249999999999993
40
0.374999999999989
40
0.374999999999989
40
0.499999999999986
40
0.499999999999986
40
0.624999999999982
40
0.624999999999982
40
0.749999999999978
40
0.749999999999978
40
1
40
1
40
1
40
1
41
1
10
0.342769052838435
20
8.07289780491898
30
0
41
1
10
0.358292509144491
20
8.08186027659569
30
0
41
1
10
0.373840112708194
20
8.09359617355808
30
0
41
1
10
0.402117274927321
20
8.12302489792019
30
0
41
1
10
0.414983786794949
20
8.1409816045382
30
0
41
1
10
0.434460540703299
20
8.18137308670539
30
0
41
1
10
0.440646639176265
20
8.20301629896774
30
0
41
1
10
0.446015310825459
20
8.2445404277256
30
0
41
1
10
0.445321800639761
20
8.26441983775585
30
0
41
1
10
0.439548347043996
20
8.30039282960807
30
0
41
1
10
0.434428159406963
20
8.31691561693792
30
0
41
1
10
0.421597423724705
20
8.34637979558788
30
0
41
1
10
0.413807258685068
20
8.35960033832491
30
0
41
1
10
0.387312012959057
20
8.39544835043758
30
0
41
1
10
0.366333953146182
20
8.41349699353795
30
0
41
1
10
0.342769052838435
20
8.42710219507406
30
0
0
SPLINE
5
1A3
100
AcDbEntity
8
SK1
62
256
6
ByLayer
370
18
48
1
60
0
100
AcDbSpline
70
4
71
3
72
22
73
18
40
0
40
0
40
0
40
0
40
0.0625000000000052
40
0.0625000000000052
40
0.12500000000001
40
0.12500000000001
40
0.187500000000015
40
0.187500000000015
40
0.250000000000021
40
0.250000000000021
40
0.375000000000017
40
0.375000000000017
40
0.500000000000014
40
0.500000000000014
40
0.750000000000007
40
0.750000000000007
40
1
40
1
40
1
40
1
41
1
10
0.342769052838349
20
11.0728978049261
30
0
41
1
10
0.354050595451241
20
11.0794112065905
30
0
41
1
10
0.366209629257355
20
11.0878490587059
30
0
41
1
10
0.390520771895723
20
11.1100338146446
30
0
41
1
10
0.402179577389632
20
11.1236871566762
30
0
41
1
10
0.420239075387002
20
11.1510567178538
30
0
41
1
10
0.426716865430251
20
11.1644252779558
30
0
41
1
10
0.436131893586463
20
11.188940397959
30
0
41
1
10
0.439120072139275
20
11.2000710535235
30
0
41
1
10
0.445319628398295
20
11.231641555031
30
0
41
1
10
0.445676858959729
20
11.2496418556063
30
0
41
1
10
0.443105753875813
20
11.2823802755193
30
0
41
1
10
0.440018994658686
20
11.2971638179408
30
0
41
1
10
0.427264174779708
20
11.3381142409963
30
0
41
1
10
0.41438342842352
20
11.3604758779005
30
0
41
1
10
0.382981648139633
20
11.398788943257
30
0
41
1
10
0.364323351058289
20
11.4146578151945
30
0
41
1
10
0.342769052838378
20
11.4271021950739
30
0
0
SPLINE
5
1A4
100
AcDbEntity
8
SK1
62
256
6
ByLayer
370
18
48
1
60
0
100
AcDbSpline
70
4
71
3
72
18
73
14
40
0
40
0
40
0
40
0
40
0.125000000000001
40
0.125000000000001
40
0.250000000000002
40
0.250000000000002
40
0.375000000000004
40
0.375000000000004
40
0.500000000000005
40
0.500000000000005
40
0.750000000000002
40
0.750000000000002
40
1
40
1
40
1
40
1
41
1
10
0.342769052837781
20
9.57289780492356
30
0
41
1
10
0.361659745428568
20
9.5838043513758
30
0
41
1
10
0.381427263361928
20
9.59943461143855
30
0
41
1
10
0.415201412962347
20
9.64040468492159
30
0
41
1
10
0.428156283129027
20
9.66518180396041
30
0
41
1
10
0.442739500660735
20
9.71115740671534
30
0
41
1
10
0.445111268805221
20
9.73216305181926
30
0
41
1
10
0.444921672841474
20
9.76989222185939
30
0
41
1
10
0.442344734563534
20
9.78660417650859
30
0
41
1
10
0.4302071274534
20
9.83277421407418
30
0
41
1
10
0.416682839154959
20
9.85712203954078
30
0
41
1
10
0.383930349616634
20
9.89812835961133
30
0
41
1
10
0.364451801694315
20
9.91458365418585
30
0
41
1
10
0.342769052838662
20
9.92710219507443
30
0
0
SPLINE
5
1A5
100
AcDbEntity
8
SK1
62
256
6
ByLayer
370
18
48
1
60
0
100
AcDbSpline
70
4
71
3
72
22
73
18
40
0
40
0
40
0
40
0
40
0.0625000000000003
40
0.0625000000000003
40
0.125000000000001
40
0.125000000000001
40
0.187500000000001
40
0.187500000000001
40
0.250000000000001
40
0.250000000000001
40
0.375000000000002
40
0.375000000000002
40
0.500000000000002
40
0.500000000000002
40
0.750000000000001
40
0.750000000000001
40
1
40
1
40
1
40
1
41
1
10
0.342769052838378
20
12.5728978049261
30
0
41
1
10
0.35460818183941
20
12.5797331292418
30
0
41
1
10
0.367641788104038
20
12.5887969509659
30
0
41
1
10
0.39393382083739
20
12.6135796136967
30
0
41
1
10
0.406050000047856
20
12.6287545713996
30
0
41
1
10
0.42357679683775
20
12.6573133731199
30
0
41
1
10
0.429373222380718
20
12.6705238773507
30
0
41
1
10
0.437772772863894
20
12.6945624553124
30
0
41
1
10
0.440407220383804
20
12.7055989539009
30
0
41
1
10
0.445588571768383
20
12.736119363009
30
0
41
1
10
0.445625738411934
20
12.7535773835824
30
0
41
1
10
0.442516530023767
20
12.7857570881226
30
0
41
1
10
0.439280452881746
20
12.8000626434378
30
0
41
1
10
0.42642100081514
20
12.8396056103106
30
0
41
1
10
0.413679423890926
20
12.8615037472977
30
0
41
1
10
0.382525012517618
20
12.8991707316469
30
0
41
1
10
0.363925974973853
20
12.9148872403836
30
0
41
1
10
0.342769052839543
20
12.9271021950732
30
0
0
SPLINE
5
1A6
100
AcDbEntity
8
SK1
62
256
6
ByLayer
370
18
48
1
60
0
100
AcDbSpline
70
4
71
3
72
8
73
4
40
0
40
0
40
0
40
0
40
1
40
1
40
1
40
1
41
1
10
15.2357814543472
20
30.6720899922895
30
0
41
1
10
15.2515966247485
20
30.71204699054
30
0
41
1
10
15.2677256699192
20
30.7519341689279
30
0
41
1
10
15.2840461068823
20
30.7917787731748
30
0
0
SPLINE
5
1A7
100
AcDbEntity
8
SK1
62
256
6
ByLayer
370
18
48
1
60
0
100
AcDbSpline
70
4
71
3
72
52
73
48
40
0
40
0
40
0
40
0
40
0.0624999999999996
40
0.0624999999999996
40
0.124999999999999
40
0.124999999999999
40
0.187499999999999
40
0.187499999999999
40
0.249999999999999
40
0.249999999999999
40
0.312499999999998
40
0.312499999999998
40
0.374999999999998
40
0.374999999999998
40
0.406249999999998
40
0.406249999999998
40
0.437499999999998
40
0.437499999999998
40
0.453124999999998
40
0.453124999999998
40
0.468749999999998
40
0.468749999999998
40
0.484374999999999
40
0.484374999999999
40
0.5
40
0.5
40
0.515625000000001
40
0.515625000000001
40
0.531250000000001
40
0.531250000000001
40
0.562500000000001
40
0.562500000000001
40
0.593750000000001
40
0.593750000000001
40
0.625000000000001
40
0.625000000000001
40
0.687500000000001
40
0.687500000000001
40
0.750000000000001
40
0.750000000000001
40
0.8125
40
0.8125
40
0.875
40
0.875
40
0.9375
40
0.9375
40
1
40
1
40
1
40
1
41
1
10
14.4408642166604
20
27.1078524596367
30
0
41
1
10
14.4257604957768
20
27.1431626410892
30
0
41
1
10
14.4240396588349
20
27.1827235482063
30
0
41
1
10
14.4411202604741
20
27.2702340955145
30
0
41
1
10
14.4602551980765
20
27.3185825971473
30
0
41
1
10
14.5148357457772
20
27.421024513262
30
0
41
1
10
14.5501785311583
20
27.4751878969075
30
0
41
1
10
14.6346999161386
20
27.5888460384886
30
0
41
1
10
14.6838820826355
20
27.6483480001322
30
0
41
1
10
14.7960031764683
20
27.7720367395426
30
0
41
1
10
14.8585808175138
20
27.8358232438143
30
0
41
1
10
14.9962732684906
20
27.963841190507
30
0
41
1
10
15.0714788026401
20
28.0284240182026
30
0
41
1
10
15.1982835590329
20
28.1235112038788
30
0
41
1
10
15.2431935532735
20
28.1550531376088
30
0
41
1
10
15.3379262033791
20
28.2153904177854
30
0
41
1
10
15.3877511451277
20
28.2442630665872
30
0
41
1
10
15.4679705886428
20
28.2840379279587
30
0
41
1
10
15.4956351757543
20
28.2966981965829
30
0
41
1
10
15.5533637174966
20
28.3203573804575
30
0
41
1
10
15.5835679882904
20
28.3313864897371
30
0
41
1
10
15.6454613286303
20
28.3505797788878
30
0
41
1
10
15.6772965994632
20
28.3588176981371
30
0
41
1
10
15.7432091323977
20
28.371772074661
30
0
41
1
10
15.7772940094307
20
28.3764230397166
30
0
41
1
10
15.8451374573685
20
28.3811253682697
30
0
41
1
10
15.8792288441987
20
28.3812538925726
30
0
41
1
10
15.9477752680922
20
28.3767460591669
30
0
41
1
10
15.9818605810767
20
28.3720780524138
30
0
41
1
10
16.0799760923388
20
28.3521424316749
30
0
41
1
10
16.1417298138736
20
28.3305969018794
30
0
41
1
10
16.2530300122399
20
28.2800196878774
30
0
41
1
10
16.3041752732747
20
28.2504930903668
30
0
41
1
10
16.3979255572951
20
28.1884215637548
30
0
41
1
10
16.4405535318643
20
28.1559166365242
30
0
41
1
10
16.5598820678117
20
28.0563917461159
30
0
41
1
10
16.6285557070696
20
27.9869835322544
30
0
41
1
10
16.7483580621509
20
27.8518414640628
30
0
41
1
10
16.7997587016192
20
27.7856390795783
30
0
41
1
10
16.8886408486997
20
27.6574992467623
30
0
41
1
10
16.9260754921706
20
27.5954899578816
30
0
41
1
10
16.9863952766912
20
27.4767593642726
30
0
41
1
10
17.008657555336
20
27.4212337379177
30
0
41
1
10
17.0364804376752
20
27.3179618100042
30
0
41
1
10
17.0420588757657
20
27.2702140540402
30
0
41
1
10
17.0332921686301
20
27.1826763642372
30
0
41
1
10
17.0187300348402
20
27.1427352141385
30
0
41
1
10
16.991829225897
20
27.1078524596367
30
0
0
SPLINE
5
1A8
100
AcDbEntity
8
SK1
62
256
6
ByLayer
370
18
48
1
60
0
100
AcDbSpline
70
4
71
3
72
8
73
4
40
0
40
0
40
0
40
0
40
1
40
1
40
1
40
1
41
1
10
15.910735890004
20
31.2523549957009
30
0
41
1
10
15.9524514013314
20
31.2465435812256
30
0
41
1
10
15.9883062492591
20
31.2272605379216
30
0
41
1
10
16.0197627808478
20
31.2076320343559
30
0
0
SPLINE
5
1A9
100
AcDbEntity
8
SK1
62
256
6
ByLayer
370
18
48
1
60
0
100
AcDbSpline
70
4
71
3
72
14
73
10
40
0
40
0
40
0
40
0
40
0.25
40
0.25
40
0.5
40
0.5
40
0.75
40
0.75
40
1
40
1
40
1
40
1
41
1
10
16.3771616344139
20
38.1020451387667
30
0
41
1
10
16.4154647119177
20
38.1341128735047
30
0
41
1
10
16.458411714594
20
38.1597752321467
30
0
41
1
10
16.551188422782
20
38.1949853708063
30
0
41
1
10
16.6004207212022
20
38.2042384815464
30
0
41
1
10
16.6999643646284
20
38.2041909344866
30
0
41
1
10
16.7488006434361
20
38.1949986843118
30
0
41
1
10
16.8417353029893
20
38.1597102593891
30
0
41
1
10
16.8845485294207
20
38.1341017877171
30
0
41
1
10
16.922838365587
20
38.1020451387644
30
0
0
SPLINE
5
1AA
100
AcDbEntity
8
SK1
62
256
6
ByLayer
370
18
48
1
60
0
100
AcDbSpline
70
4
71
3
72
8
73
4
40
0
40
0
40
0
40
0
40
1
40
1
40
1
40
1
41
1
10
17.3000000000001
20
36.4273630883896
30
0
41
1
10
17.3000000000001
20
36.4038486848377
30
0
41
1
10
17.3000000000001
20
36.3803366294161
30
0
41
1
10
17.3000000000001
20
36.3568266286441
30
0
0
SPLINE
5
1AB
100
AcDbEntity
8
SK1
62
256
6
ByLayer
370
18
48
1
60
0
100
AcDbSpline
70
4
71
3
72
8
73
4
40
0
40
0
40
0
40
0
40
1
40
1
40
1
40
1
41
1
10
17.3000000000001
20
36.4273630883896
30
0
41
1
10
17.3000000000001
20
36.4525498639478
30
0
41
1
10
17.2980835333003
20
36.4776909331825
30
0
41
1
10
17.2942006706955
20
36.5027832782668
30
0
0
SPLINE
5
1AC
100
AcDbEntity
8
SK1
62
256
6
ByLayer
370
18
48
1
60
0
100
AcDbSpline
70
4
71
3
72
10
73
6
40
0
40
0
40
0
40
0
40
0.5
40
0.5
40
1
40
1
40
1
40
1
41
1
10
17.3455908007667
20
36.9482108143952
30
0
41
1
10
17.3159269648803
20
36.8788679322708
30
0
41
1
10
17.2970652348137
20
36.8040554690123
30
0
41
1
10
17.2805745809114
20
36.6542098743589
30
0
41
1
10
17.2826024575636
20
36.5777347756252
30
0
41
1
10
17.2942006706955
20
36.5027832782668
30
0
0
SPLINE
5
1AD
100
AcDbEntity
8
SK1
62
256
6
ByLayer
370
18
48
1
60
0
100
AcDbSpline
70
4
71
3
72
8
73
4
40
0
40
0
40
0
40
0
40
1
40
1
40
1
40
1
41
1
10
17.3455908007666
20
36.9482108143953
30
0
41
1
10
17.3617069388532
20
37.1599477067408
30
0
41
1
10
17.3785391060652
20
37.3719551526786
30
0
41
1
10
17.397146023569
20
37.5846331929392
30
0
0
SPLINE
5
1AE
100
AcDbEntity
8
SK1
62
256
6
ByLayer
370
18
48
1
60
0
100
AcDbSpline
70
4
71
3
72
8
73
4
40
0
40
0
40
0
40
0
40
1
40
1
40
1
40
1
41
1
10
15.7200000000001
20
31.2664417764388
30
0
41
1
10
15.7840643114182
20
31.2664417764388
30
0
41
1
10
15.8475976510898
20
31.2611508240065
30
0
41
1
10
15.9107358900041
20
31.2523549956951
30
0
0
SPLINE
5
1AF
100
AcDbEntity
8
SK1
62
256
6
ByLayer
370
18
48
1
60
0
100
AcDbSpline
70
4
71
3
72
10
73
6
40
0
40
0
40
0
40
0
40
0.5
40
0.5
40
1
40
1
40
1
40
1
41
1
10
15.1208747878793
20
30.5817050983146
30
0
41
1
10
15.1483574141825
20
30.5863509496743
30
0
41
1
10
15.1731257241624
20
30.5981442658046
30
0
41
1
10
15.212531145799
20
30.6301922696061
30
0
41
1
10
15.2271512275869
20
30.6502857406029
30
0
41
1
10
15.2357814543546
20
30.6720899922872
30
0
0
SPLINE
5
1B0
100
AcDbEntity
8
SK1
62
256
6
ByLayer
370
18
48
1
60
0
100
AcDbSpline
70
4
71
3
72
34
73
30
40
0
40
0
40
0
40
0
40
0.0078125000000004
40
0.0078125000000004
40
0.0156250000000008
40
0.0156250000000008
40
0.031250000000001
40
0.031250000000001
40
0.0468750000000011
40
0.0468750000000011
40
0.0625000000000013
40
0.0625000000000013
40
0.0937500000000007
40
0.0937500000000007
40
0.125
40
0.125
40
0.187499999999999
40
0.187499999999999
40
0.249999999999999
40
0.249999999999999
40
0.312499999999999
40
0.312499999999999
40
0.374999999999999
40
0.374999999999999
40
0.499999999999999
40
0.499999999999999
40
0.749999999999999
40
0.749999999999999
40
1
40
1
40
1
40
1
41
1
10
2.17000000000002
20
10.5200837037992
30
0
41
1
10
2.20648743083928
20
10.5200837037992
30
0
41
1
10
2.24182263749975
20
10.5269191244433
30
0
41
1
10
2.30524230297894
20
10.5485770557444
30
0
41
1
10
2.33382787965743
20
10.5632679989507
30
0
41
1
10
2.41075531492333
20
10.6115241859493
30
0
41
1
10
2.45227791223354
20
10.6497516705167
30
0
41
1
10
2.52570065207544
20
10.7280667308772
30
0
41
1
10
2.55749403129133
20
10.768607355711
30
0
41
1
10
2.61598471346699
20
10.8510296708749
30
0
41
1
10
2.64256425495813
20
10.8929465689458
30
0
41
1
10
2.71717808226362
20
11.019946329978
30
0
41
1
10
2.76006541296476
20
11.1060754632919
30
0
41
1
10
2.83790200879773
20
11.277866015152
30
0
41
1
10
2.87286941055265
20
11.363885987635
30
0
41
1
10
2.97019477540562
20
11.6217624990409
30
0
41
1
10
3.02511262982534
20
11.793417717853
30
0
41
1
10
3.12406861424714
20
12.1350040207818
30
0
41
1
10
3.16788780720506
20
12.3049633837306
30
0
41
1
10
3.24792505470373
20
12.6427082369857
30
0
41
1
10
3.28411563592547
20
12.8106396191464
30
0
41
1
10
3.35055877832036
20
13.1431902223696
30
0
41
1
10
3.38080715314885
20
13.3078454878682
30
0
41
1
10
3.46448597831434
20
13.7969157887708
30
0
41
1
10
3.51094483587121
20
14.1164337204213
30
0
41
1
10
3.63031618351263
20
15.055267147563
30
0
41
1
10
3.68354651953501
20
15.6548690685378
30
0
41
1
10
3.75357937471256
20
16.8011260950362
30
0
41
1
10
3.77000000000004
20
17.3477927783426
30
0
41
1
10
3.77000000000004
20
17.8677152469604
30
0
0
SPLINE
5
1B1
100
AcDbEntity
8
SK1
62
256
6
ByLayer
370
18
48
1
60
0
100
AcDbSpline
70
4
71
3
72
26
73
22
40
0
40
0
40
0
40
0
40
0.124999999999998
40
0.124999999999998
40
0.187499999999997
40
0.187499999999997
40
0.249999999999997
40
0.249999999999997
40
0.374999999999997
40
0.374999999999997
40
0.437499999999998
40
0.437499999999998
40
0.499999999999999
40
0.499999999999999
40
0.624999999999999
40
0.624999999999999
40
0.749999999999999
40
0.749999999999999
40
0.875
40
0.875
40
1
40
1
40
1
40
1
41
1
10
2.17000000000004
20
17.4537271872854
30
0
41
1
10
2.27825694411413
20
17.4537271872854
30
0
41
1
10
2.38455365040261
20
17.4630654430944
30
0
41
1
10
2.54119442284312
20
17.4904319962674
30
0
41
1
10
2.59293696882136
20
17.5017981620324
30
0
41
1
10
2.6954593422669
20
17.5291167287679
30
0
41
1
10
2.74603809903354
20
17.5450465769664
30
0
41
1
10
2.89290869996438
20
17.598557160778
30
0
41
1
10
2.98550860900727
20
17.6420865557114
30
0
41
1
10
3.11656202123788
20
17.7189804189269
30
0
41
1
10
3.15906889025985
20
17.7466861813043
30
0
41
1
10
3.23970117247797
20
17.8048441904614
30
0
41
1
10
3.27803649164869
20
17.8353994967597
30
0
41
1
10
3.38728641907105
20
17.9313553707268
30
0
41
1
10
3.45281709248673
20
18.001434301486
30
0
41
1
10
3.56688295381389
20
18.1513391341169
30
0
41
1
10
3.61445613031881
20
18.2297082176391
30
0
41
1
10
3.6915626467692
20
18.3929619998836
30
0
41
1
10
3.72120879315378
20
18.478741115139
30
0
41
1
10
3.76026089270997
20
18.6513185407512
30
0
41
1
10
3.77000000000007
20
18.7383208776446
30
0
41
1
10
3.77000000000007
20
18.8260333506771
30
0
0
SPLINE
5
1B2
100
AcDbEntity
8
SK1
62
256
6
ByLayer
370
18
48
1
60
0
100
AcDbSpline
70
4
71
3
72
26
73
22
40
0
40
0
40
0
40
0
40
0.124999999999996
40
0.124999999999996
40
0.249999999999993
40
0.249999999999993
40
0.312499999999992
40
0.312499999999992
40
0.374999999999991
40
0.374999999999991
40
0.499999999999992
40
0.499999999999992
40
0.624999999999993
40
0.624999999999993
40
0.687499999999994
40
0.687499999999994
40
0.749999999999996
40
0.749999999999996
40
0.874999999999998
40
0.874999999999998
40
1
40
1
40
1
40
1
41
1
10
3.77000000000007
20
19.44138879058
30
0
41
1
10
3.77000000000007
20
19.353085161814
30
0
41
1
10
3.76006883544937
20
19.2638103094507
30
0
41
1
10
3.72132043640906
20
19.0907756398876
30
0
41
1
10
3.69258292087682
20
19.006112784297
30
0
41
1
10
3.63493692552206
20
18.8819982084804
30
0
41
1
10
3.61317401719162
20
18.8409719551845
30
0
41
1
10
3.56555242774394
20
18.7615858749687
30
0
41
1
10
3.53962381743381
20
18.7230341725555
30
0
41
1
10
3.45553811562502
20
18.6107742051721
30
0
41
1
10
3.39114674281032
20
18.5404257323912
30
0
41
1
10
3.24450731529703
20
18.4093521479322
30
0
41
1
10
3.16386891167289
20
18.3502194121442
30
0
41
1
10
3.03406163141651
20
18.2726107140341
30
0
41
1
10
2.98920569015712
20
18.248510654174
30
0
41
1
10
2.89621535632105
20
18.2039663606187
30
0
41
1
10
2.84778002194341
20
18.1834158355926
30
0
41
1
10
2.69961399697743
20
18.1284504959317
30
0
41
1
10
2.59773663102516
20
18.1007657547215
30
0
41
1
10
2.38782119701685
20
18.0632002490607
30
0
41
1
10
2.27895462238843
20
18.0534004971049
30
0
41
1
10
2.17000000000004
20
18.0534004971049
30
0
0
SPLINE
5
1B3
100
AcDbEntity
8
SK1
62
256
6
ByLayer
370
18
48
1
60
0
100
AcDbSpline
70
4
71
3
72
26
73
22
40
0
40
0
40
0
40
0
40
0.125000000000001
40
0.125000000000001
40
0.187500000000001
40
0.187500000000001
40
0.250000000000002
40
0.250000000000002
40
0.375000000000004
40
0.375000000000004
40
0.500000000000007
40
0.500000000000007
40
0.625000000000009
40
0.625000000000009
40
0.687500000000009
40
0.687500000000009
40
0.750000000000009
40
0.750000000000009
40
0.875000000000004
40
0.875000000000004
40
1
40
1
40
1
40
1
41
1
10
2.17000000000004
20
20.2499996253655
30
0
41
1
10
2.2756727737254
20
20.2499996253655
30
0
41
1
10
2.37958023221833
20
20.2603655692918
30
0
41
1
10
2.53290175130922
20
20.2908274380175
30
0
41
1
10
2.58358250054329
20
20.3034853579025
30
0
41
1
10
2.68407171762479
20
20.3339232403399
30
0
41
1
10
2.73401435476165
20
20.35178841532
30
0
41
1
10
2.8792892637583
20
20.4119796639535
30
0
41
1
10
2.97115953193872
20
20.4610899599109
30
0
41
1
10
3.14503162031008
20
20.5771121818962
30
0
41
1
10
3.22735119603902
20
20.6446374158061
30
0
41
1
10
3.37491068937271
20
20.7921324022701
30
0
41
1
10
3.44113068900964
20
20.872609247047
30
0
41
1
10
3.52885316612634
20
21.0036570158258
30
0
41
1
10
3.55608990920163
20
21.0490576291154
30
0
41
1
10
3.60546096755689
20
21.1413346304463
30
0
41
1
10
3.62776608441973
20
21.1884523437168
30
0
41
1
10
3.6876486736617
20
21.3326984985389
30
0
41
1
10
3.71837418111625
20
21.4332835266741
30
0
41
1
10
3.75964479091874
20
21.6399060782961
30
0
41
1
10
3.77000000000257
20
21.7443611349002
30
0
41
1
10
3.77000000000257
20
21.8499683295261
30
0
0
SPLINE
5
1B4
100
AcDbEntity
8
SK1
62
256
6
ByLayer
370
18
48
1
60
0
100
AcDbSpline
70
4
71
3
72
10
73
6
40
0
40
0
40
0
40
0
40
0.5
40
0.5
40
1
40
1
40
1
40
1
41
1
10
15.2840461068823
20
30.7917787731748
30
0
41
1
10
15.2941164611667
20
30.8163644679078
30
0
41
1
10
15.3125459786882
20
30.8382791616114
30
0
41
1
10
15.3621241541282
20
30.8696247226146
30
0
41
1
10
15.3932658861156
20
30.8787282143791
30
0
41
1
10
15.4249999999986
20
30.8787282143794
30
0
0
SPLINE
5
1B5
100
AcDbEntity
8
SK1
62
256
6
ByLayer
370
18
48
1
60
0
100
AcDbSpline
70
4
71
3
72
8
73
4
40
0
40
0
40
0
40
0
40
1
40
1
40
1
40
1
41
1
10
0.500000000000057
20
19.96672254916
30
0
41
1
10
0.261026764335526
20
19.727894583962
30
0
41
1
10
0.022053530497459
20
19.4890666169387
30
0
41
1
10
-0.216919701447125
20
19.2502386480231
30
0
0
SPLINE
5
1B6
100
AcDbEntity
8
SK1
62
256
6
ByLayer
370
18
48
1
60
0
100
AcDbSpline
70
4
71
3
72
10
73
6
40
0
40
0
40
0
40
0
40
0.5
40
0.5
40
1
40
1
40
1
40
1
41
1
10
15.3802372191525
20
31.2076320343559
30
0
41
1
10
15.3959356232942
20
31.2174276528209
30
0
41
1
10
15.4126057918547
20
31.2268571211354
30
0
41
1
10
15.4489593513774
20
31.2429456918521
30
0
41
1
10
15.468505344651
20
31.2494630788676
30
0
41
1
10
15.4892641099963
20
31.2523549957009
30
0
0
SPLINE
5
1B7
100
AcDbEntity
8
SK1
62
256
6
ByLayer
370
18
48
1
60
0
100
AcDbSpline
70
4
71
3
72
8
73
4
40
0
40
0
40
0
40
0
40
1
40
1
40
1
40
1
41
1
10
15.4892641099963
20
31.2523549957009
30
0
41
1
10
15.5524023489107
20
31.2611508240127
30
0
41
1
10
15.615935688583
20
31.2664417764339
30
0
41
1
10
15.6800000000008
20
31.2664417764338
30
0
0
SPLINE
5
1B8
100
AcDbEntity
8
SK1
62
256
6
ByLayer
370
18
48
1
60
0
100
AcDbSpline
70
4
71
3
72
10
73
6
40
0
40
0
40
0
40
0
40
0.5
40
0.5
40
1
40
1
40
1
40
1
41
1
10
16.1642185456531
20
30.672089992289
30
0
41
1
10
16.1728652465531
20
30.6502441187409
30
0
41
1
10
16.1875033599539
20
30.6301870097685
30
0
41
1
10
16.226675795395
20
30.598282979713
30
0
41
1
10
16.2515545259659
20
30.5863658359147
30
0
41
1
10
16.2791252121208
20
30.5817050983146
30
0
0
SPLINE
5
1B9
100
AcDbEntity
8
SK1
62
256
6
ByLayer
370
18
48
1
60
0
100
AcDbSpline
70
4
71
3
72
10
73
6
40
0
40
0
40
0
40
0
40
0.5
40
0.5
40
1
40
1
40
1
40
1
41
1
10
16.2791252121208
20
30.5817050983146
30
0
41
1
10
16.4414595585673
20
30.5542629886758
30
0
41
1
10
16.6036345090822
20
30.5262316410974
30
0
41
1
10
16.9274024928207
20
30.4680177759442
30
0
41
1
10
17.0890149814515
20
30.4379071790514
30
0
41
1
10
17.2500000000001
20
30.4054770174459
30
0
0
SPLINE
5
1BA
100
AcDbEntity
8
SK1
62
256
6
ByLayer
370
18
48
1
60
0
100
AcDbSpline
70
4
71
3
72
10
73
6
40
0
40
0
40
0
40
0
40
0.5
40
0.5
40
1
40
1
40
1
40
1
41
1
10
15.9750000000001
20
30.8787282143671
30
0
41
1
10
16.0066993115086
20
30.8787282143671
30
0
41
1
10
16.0374066875656
20
30.8698683858657
30
0
41
1
10
16.0875406435204
20
30.8382769521614
30
0
41
1
10
16.1058883288132
20
30.8163527736839
30
0
41
1
10
16.115953893118
20
30.7917787731745
30
0
0
SPLINE
5
1BB
100
AcDbEntity
8
SK1
62
256
6
ByLayer
370
18
48
1
60
0
100
AcDbSpline
70
4
71
3
72
8
73
4
40
0
40
0
40
0
40
0
40
1
40
1
40
1
40
1
41
1
10
16.115953893118
20
30.7917787731745
30
0
41
1
10
16.1322729303988
20
30.7519375861024
30
0
41
1
10
16.1484017801382
20
30.7120510205909
30
0
41
1
10
16.1642185456531
20
30.672089992289
30
0
0
SPLINE
5
1BC
100
AcDbEntity
8
SK1
62
256
6
ByLayer
370
18
48
1
60
0
100
AcDbSpline
70
4
71
3
72
14
73
10
40
0
40
0
40
0
40
0
40
0.25
40
0.25
40
0.5
40
0.5
40
0.75
40
0.75
40
1
40
1
40
1
40
1
41
1
10
16.821010071665
20
37.981878438129
30
0
41
1
10
16.7980872067252
20
38.0044003782495
30
0
41
1
10
16.7721015322182
20
38.0229336894673
30
0
41
1
10
16.7133348013462
20
38.0492343215569
30
0
41
1
10
16.6819168368444
20
38.0562275383933
30
0
41
1
10
16.6178861726423
20
38.056198864354
30
0
41
1
10
16.5863556756695
20
38.0490984350559
30
0
41
1
10
16.5281746038341
20
38.0230546323704
30
0
41
1
10
16.5019171081407
20
38.0044046176474
30
0
41
1
10
16.4789899283358
20
37.9818784381295
30
0
0
SPLINE
5
1BD
100
AcDbEntity
8
SK1
62
256
6
ByLayer
370
18
48
1
60
0
100
AcDbSpline
70
4
71
3
72
8
73
4
40
0
40
0
40
0
40
0
40
1
40
1
40
1
40
1
41
1
10
0.126148905032437
20
-5.55216789572154
30
0
41
1
10
0.0001260536853351
20
-5.62492722287084
30
0
41
1
10
-0.125290129204473
20
-5.69733628982299
30
0
41
1
10
-0.249980947161703
20
-5.76932656713608
30
0
0
SPLINE
5
1BE
100
AcDbEntity
8
SK1
62
256
6
ByLayer
370
18
48
1
60
0
100
AcDbSpline
70
4
71
3
72
16
73
12
40
0
40
0
40
0
40
0
40
0.25
40
0.25
40
0.375
40
0.375
40
0.5
40
0.5
40
0.75
40
0.75
40
1
40
1
40
1
40
1
41
1
10
16.8355710252939
20
36.917921100829
30
0
41
1
10
16.8121478624024
20
36.8886716215183
30
0
41
1
10
16.7860535987802
20
36.8617234250269
30
0
41
1
10
16.7397633693256
20
36.8299653300684
30
0
41
1
10
16.7230864703049
20
36.8209456406169
30
0
41
1
10
16.6880217802464
20
36.8083572808129
30
0
41
1
10
16.6689967482702
20
36.8047173876615
30
0
41
1
10
16.6125248162391
20
36.8046545509092
30
0
41
1
10
16.576083052082
20
36.8191511324452
30
0
41
1
10
16.5140815566692
20
36.8615737350094
30
0
41
1
10
16.487870742645
20
36.8886431431076
30
0
41
1
10
16.464398864437
20
36.9179587041438
30
0
0
SPLINE
5
1BF
100
AcDbEntity
8
SK1
62
256
6
ByLayer
370
18
48
1
60
0
100
AcDbSpline
70
4
71
3
72
8
73
4
40
0
40
0
40
0
40
0
40
1
40
1
40
1
40
1
41
1
10
16.9263396165486
20
37.0643056275971
30
0
41
1
10
16.8987676481671
20
37.0138617641448
30
0
41
1
10
16.8700344780736
20
36.9639342236006
30
0
41
1
10
16.8355710252937
20
36.9179211008292
30
0
0
SPLINE
5
1C0
100
AcDbEntity
8
SK1
62
256
6
ByLayer
370
18
48
1
60
0
100
AcDbSpline
70
4
71
3
72
16
73
12
40
0
40
0
40
0
40
0
40
0.25
40
0.25
40
0.499999999999999
40
0.499999999999999
40
0.624999999999999
40
0.624999999999999
40
0.749999999999999
40
0.749999999999999
40
1
40
1
40
1
40
1
41
1
10
17.1587253825124
20
37.5025679924052
30
0
41
1
10
17.1499277496018
20
37.4615091914809
30
0
41
1
10
17.1361326236997
20
37.4226057137056
30
0
41
1
10
17.0991041678793
20
37.3488693722062
30
0
41
1
10
17.0754473631059
20
37.3141692039686
30
0
41
1
10
17.0392486536281
20
37.2629674388999
30
0
41
1
10
17.0272595581217
20
37.2458668286104
30
0
41
1
10
17.0047864122101
20
37.2108227188737
30
0
41
1
10
16.994246922309
20
37.1929108681469
30
0
41
1
10
16.9639951518218
20
37.1384159971379
30
0
41
1
10
16.9454544699799
20
37.1011848638679
30
0
41
1
10
16.9263396165486
20
37.0643056275971
30
0
0
SPLINE
5
1C1
100
AcDbEntity
8
SK1
62
256
6
ByLayer
370
18
48
1
60
0
100
AcDbSpline
70
4
71
3
72
14
73
10
40
0
40
0
40
0
40
0
40
0.25
40
0.25
40
0.5
40
0.5
40
0.75
40
0.75
40
1
40
1
40
1
40
1
41
1
10
16.922838365587
20
38.1020451387644
30
0
41
1
10
16.9668761168548
20
38.0651762755258
30
0
41
1
10
17.0080113198251
20
38.0251856232448
30
0
41
1
10
17.0808372423928
20
37.9375705199956
30
0
41
1
10
17.1130416326098
20
37.8891143298776
30
0
41
1
10
17.1607408142259
20
37.7854516226864
30
0
41
1
10
17.1764257451868
20
37.7289264640373
30
0
41
1
10
17.1843683004115
20
37.6156327566728
30
0
41
1
10
17.1766947252796
20
37.5575145754125
30
0
41
1
10
17.1587253825124
20
37.5025679924052
30
0
0
SPLINE
5
1C2
100
AcDbEntity
8
SK1
62
256
6
ByLayer
370
18
48
1
60
0
100
AcDbSpline
70
4
71
3
72
14
73
10
40
0
40
0
40
0
40
0
40
0.25
40
0.25
40
0.5
40
0.5
40
0.75
40
0.75
40
1
40
1
40
1
40
1
41
1
10
16.1412746182897
20
37.5025679899529
30
0
41
1
10
16.123282932556
20
37.5575828922099
30
0
41
1
10
16.115613883815
20
37.6157754763788
30
0
41
1
10
16.1236218003697
20
37.7292063328504
30
0
41
1
10
16.1393669666188
20
37.7857915820993
30
0
41
1
10
16.1872067357852
20
37.8895475844428
30
0
41
1
10
16.2195088987994
20
37.9380422934339
30
0
41
1
10
16.2922777481489
20
38.0254775691125
30
0
41
1
10
16.3331340431272
20
38.0651847815683
30
0
41
1
10
16.3771616344147
20
38.1020451387656
30
0
0
SPLINE
5
1C3
100
AcDbEntity
8
SK1
62
256
6
ByLayer
370
18
48
1
60
0
100
AcDbSpline
70
4
71
3
72
16
73
12
40
0
40
0
40
0
40
0
40
0.250000000000001
40
0.250000000000001
40
0.375000000000001
40
0.375000000000001
40
0.5
40
0.5
40
0.75
40
0.75
40
1
40
1
40
1
40
1
41
1
10
16.3737614962275
20
37.0641105378731
30
0
41
1
10
16.3546423351134
20
37.1010008481378
30
0
41
1
10
16.3360958633156
20
37.1382401747437
30
0
41
1
10
16.3058392631628
20
37.1927615260224
30
0
41
1
10
16.295298050211
20
37.210684359883
30
0
41
1
10
16.2728167504582
20
37.2457544553639
30
0
41
1
10
16.2608202165824
20
37.2628700075864
30
0
41
1
10
16.2245924024625
20
37.314113009307
30
0
41
1
10
16.2009607193506
20
37.348763894394
30
0
41
1
10
16.1639220809201
20
37.4224731246537
30
0
41
1
10
16.150093675046
20
37.4614092040371
30
0
41
1
10
16.1412746182898
20
37.5025679899529
30
0
0
SPLINE
5
1C4
100
AcDbEntity
8
SK1
62
256
6
ByLayer
370
18
48
1
60
0
100
AcDbSpline
70
4
71
3
72
8
73
4
40
0
40
0
40
0
40
0
40
1
40
1
40
1
40
1
41
1
10
16.4643988644368
20
36.9179587041436
30
0
41
1
10
16.4300461177388
20
36.9639398118694
30
0
41
1
10
16.4013569093384
20
37.0137825924058
30
0
41
1
10
16.3737614962275
20
37.0641105378731
30
0
0
SPLINE
5
1C5
100
AcDbEntity
8
SK1
62
256
6
ByLayer
370
18
48
1
60
0
100
AcDbSpline
70
4
71
3
72
16
73
12
40
0
40
0
40
0
40
0
40
0.249999999999979
40
0.249999999999979
40
0.499999999999959
40
0.499999999999959
40
0.624999999999973
40
0.624999999999973
40
0.749999999999988
40
0.749999999999988
40
1
40
1
40
1
40
1
41
1
10
-0.324980947189715
20
-12.1007696222698
30
0
41
1
10
-0.324980947191193
20
-12.1091375518884
30
0
41
1
10
-0.324309016993112
20
-12.1181205982701
30
0
41
1
10
-0.320686052162728
20
-12.1377824738949
30
0
41
1
10
-0.317786456289241
20
-12.1486027991513
30
0
41
1
10
-0.309681694932948
20
-12.1671101461963
30
0
41
1
10
-0.306333788099494
20
-12.1736485913715
30
0
41
1
10
-0.297771572636037
20
-12.187299242956
30
0
41
1
10
-0.292433481716614
20
-12.1944924874515
30
0
41
1
10
-0.274589605548385
20
-12.214323171248
30
0
41
1
10
-0.261321720492362
20
-12.2241258343668
30
0
41
1
10
-0.249980947142376
20
-12.2306734329092
30
0
0
SPLINE
5
1C6
100
AcDbEntity
8
SK1
62
256
6
ByLayer
370
18
48
1
60
0
100
AcDbSpline
70
4
71
3
72
8
73
4
40
0
40
0
40
0
40
0
40
1
40
1
40
1
40
1
41
1
10
-0.24998094715707
20
-16.7306734328666
30
0
41
1
10
-0.0547247618712277
20
-16.8434046440024
30
0
41
1
10
0.142923239003068
20
-16.9575167705119
30
0
41
1
10
0.342769052838236
20
-17.0728978049261
30
0
0
SPLINE
5
1C7
100
AcDbEntity
8
SK1
62
256
6
ByLayer
370
18
48
1
60
0
100
AcDbSpline
70
4
71
3
72
22
73
18
40
0
40
0
40
0
40
0
40
0.0624999999999952
40
0.0624999999999952
40
0.12499999999999
40
0.12499999999999
40
0.187499999999986
40
0.187499999999986
40
0.249999999999981
40
0.249999999999981
40
0.374999999999981
40
0.374999999999981
40
0.499999999999981
40
0.499999999999981
40
0.749999999999991
40
0.749999999999991
40
1
40
1
40
1
40
1
41
1
10
0.342769052838293
20
-11.0728978049261
30
0
41
1
10
0.354050595451156
20
-11.0794112065905
30
0
41
1
10
0.366209629257298
20
-11.0878490587059
30
0
41
1
10
0.390520771895666
20
-11.1100338146446
30
0
41
1
10
0.402179577389575
20
-11.1236871566762
30
0
41
1
10
0.420239075386945
20
-11.1510567178538
30
0
41
1
10
0.426716865430166
20
-11.1644252779558
30
0
41
1
10
0.436131893586378
20
-11.188940397959
30
0
41
1
10
0.439120072139218
20
-11.2000710535235
30
0
41
1
10
0.445319628398238
20
-11.231641555031
30
0
41
1
10
0.445676858959644
20
-11.2496418556063
30
0
41
1
10
0.443105753875727
20
-11.2823802755193
30
0
41
1
10
0.440018994658601
20
-11.2971638179408
30
0
41
1
10
0.427264174779651
20
-11.3381142409963
30
0
41
1
10
0.414383428423463
20
-11.3604758779005
30
0
41
1
10
0.382981648139548
20
-11.398788943257
30
0
41
1
10
0.364323351058204
20
-11.4146578151945
30
0
41
1
10
0.342769052838293
20
-11.4271021950739
30
0
0
SPLINE
5
1C8
100
AcDbEntity
8
SK1
62
256
6
ByLayer
370
18
48
1
60
0
100
AcDbSpline
70
4
71
3
72
8
73
4
40
0
40
0
40
0
40
0
40
1
40
1
40
1
40
1
41
1
10
-0.249980947159713
20
-15.2306734328651
30
0
41
1
10
-0.053484127967522
20
-15.3441209243206
30
0
41
1
10
0.144124364082018
20
-15.4582102403996
30
0
41
1
10
0.342769052838293
20
-15.5728978049261
30
0
0
SPLINE
5
1C9
100
AcDbEntity
8
SK1
62
256
6
ByLayer
370
18
48
1
60
0
100
AcDbSpline
70
4
71
3
72
8
73
4
40
0
40
0
40
0
40
0
40
1
40
1
40
1
40
1
41
1
10
0.342769052838264
20
-15.9271021950739
30
0
41
1
10
0.132896815745312
20
-16.048271987655
30
0
41
1
10
-0.0648365548913432
20
-16.1624334024198
30
0
41
1
10
-0.249980947161731
20
-16.2693265671361
30
0
0
SPLINE
5
1CA
100
AcDbEntity
8
SK1
62
256
6
ByLayer
370
18
48
1
60
0
100
AcDbSpline
70
4
71
3
72
12
73
8
40
0
40
0
40
0
40
0
40
0.5
40
0.5
40
0.75
40
0.75
40
1
40
1
40
1
40
1
41
1
10
-0.249980947161731
20
-13.2693265671361
30
0
41
1
10
-0.271365093900812
20
-13.2816727100123
30
0
41
1
10
-0.288886118499505
20
-13.298502388523
30
0
41
1
10
-0.308718668188675
20
-13.3301698901522
30
0
41
1
10
-0.314220321073321
20
-13.3417949276563
30
0
41
1
10
-0.322302273623137
20
-13.3678797646459
30
0
41
1
10
-0.32498094716172
20
-13.3822418326898
30
0
41
1
10
-0.32498094716172
20
-13.3992303777037
30
0
0
SPLINE
5
1CB
100
AcDbEntity
8
SK1
62
256
6
ByLayer
370
18
48
1
60
0
100
AcDbSpline
70
4
71
3
72
14
73
10
40
0
40
0
40
0
40
0
40
0.25
40
0.25
40
0.5
40
0.5
40
0.75
40
0.75
40
1
40
1
40
1
40
1
41
1
10
-0.32498094716172
20
-10.6007696222963
30
0
41
1
10
-0.32498094716172
20
-10.6094638429982
30
0
41
1
10
-0.324257414918691
20
-10.6188504811585
30
0
41
1
10
-0.320279451864962
20
-10.6394830025956
30
0
41
1
10
-0.317087137316179
20
-10.6507433672038
30
0
41
1
10
-0.305544085308497
20
-10.6759015823237
30
0
41
1
10
-0.296574052598146
20
-10.690224877575
30
0
41
1
10
-0.273553804333773
20
-10.7150959876526
30
0
41
1
10
-0.261125044145871
20
-10.7242393854777
30
0
41
1
10
-0.249980947157809
20
-10.7306734328728
30
0
0
SPLINE
5
1CC
100
AcDbEntity
8
SK1
62
256
6
ByLayer
370
18
48
1
60
0
100
AcDbSpline
70
4
71
3
72
8
73
4
40
0
40
0
40
0
40
0
40
1
40
1
40
1
40
1
41
1
10
-0.249980947161703
20
-10.7306734328639
30
0
41
1
10
-0.0526311005796742
20
-10.8446134199126
30
0
41
1
10
0.144956402685096
20
-10.958690618111
30
0
41
1
10
0.342769052838293
20
-11.0728978049261
30
0
0
SPLINE
5
1CD
100
AcDbEntity
8
SK1
62
256
6
ByLayer
370
18
48
1
60
0
100
AcDbSpline
70
4
71
3
72
8
73
4
40
0
40
0
40
0
40
0
40
1
40
1
40
1
40
1
41
1
10
-0.0469703231316885
20
-10.152118328704
30
0
41
1
10
-0.115112466683513
20
-10.1914602136268
30
0
41
1
10
-0.182784534594248
20
-10.2305307002517
30
0
41
1
10
-0.249980947163465
20
-10.2693265671371
30
0
0
SPLINE
5
1CE
100
AcDbEntity
8
SK1
62
256
6
ByLayer
370
18
48
1
60
0
100
AcDbSpline
70
4
71
3
72
26
73
22
40
0
40
0
40
0
40
0
40
0.0312499999999984
40
0.0312499999999984
40
0.0624999999999968
40
0.0624999999999968
40
0.0937499999999951
40
0.0937499999999951
40
0.124999999999994
40
0.124999999999994
40
0.18749999999999
40
0.18749999999999
40
0.249999999999987
40
0.249999999999987
40
0.374999999999989
40
0.374999999999989
40
0.499999999999992
40
0.499999999999992
40
0.749999999999996
40
0.749999999999996
40
1
40
1
40
1
40
1
41
1
10
0.342769052838264
20
-15.5728978049261
30
0
41
1
10
0.349594124357708
20
-15.5768382618051
30
0
41
1
10
0.356954877170978
20
-15.5815885538065
30
0
41
1
10
0.372789901199838
20
-15.5937177583002
30
0
41
1
10
0.381285818620199
20
-15.6011915260059
30
0
41
1
10
0.397454220776552
20
-15.6183542733494
30
0
41
1
10
0.404609871673955
20
-15.6275380928634
30
0
41
1
10
0.415901574081005
20
-15.6443416507405
30
0
41
1
10
0.420288786491597
20
-15.652186781863
30
0
41
1
10
0.430951862660095
20
-15.6737574524048
30
0
41
1
10
0.435119125430106
20
-15.6860916729491
30
0
41
1
10
0.441074256373923
20
-15.7083938363465
30
0
41
1
10
0.442799242142371
20
-15.7184741707155
30
0
41
1
10
0.445882914634041
20
-15.7469103630901
30
0
41
1
10
0.445142323119342
20
-15.763216131862
30
0
41
1
10
0.441022492344615
20
-15.7929385564271
30
0
41
1
10
0.437545776439208
20
-15.8063404779236
30
0
41
1
10
0.424260602356298
20
-15.8435596603405
30
0
41
1
10
0.411612191613614
20
-15.8644703135801
30
0
41
1
10
0.381069122415426
20
-15.9004060928585
30
0
41
1
10
0.363218614943577
20
-15.9152956348876
30
0
41
1
10
0.342769052838264
20
-15.9271021950739
30
0
0
SPLINE
5
1CF
100
AcDbEntity
8
SK1
62
256
6
ByLayer
370
18
48
1
60
0
100
AcDbSpline
70
4
71
3
72
12
73
8
40
0
40
0
40
0
40
0
40
0.499999999999991
40
0.499999999999991
40
0.749999999999995
40
0.749999999999995
40
1
40
1
40
1
40
1
41
1
10
-0.249980947162527
20
-16.2693265671352
30
0
41
1
10
-0.271790390976719
20
-16.2819182553923
30
0
41
1
10
-0.289240949627981
20
-16.2989278931105
30
0
41
1
10
-0.308904019991502
20
-16.3305383497192
30
0
41
1
10
-0.314354285966402
20
-16.3421324331949
30
0
41
1
10
-0.322353048377522
20
-16.3681407231553
30
0
41
1
10
-0.32498094716172
20
-16.382518693589
30
0
41
1
10
-0.324980947161748
20
-16.3992303777035
30
0
0
SPLINE
5
1D0
100
AcDbEntity
8
SK1
62
256
6
ByLayer
370
18
48
1
60
0
100
AcDbSpline
70
4
71
3
72
28
73
24
40
0
40
0
40
0
40
0
40
0.0312500000000014
40
0.0312500000000014
40
0.0468750000000001
40
0.0468750000000001
40
0.0624999999999988
40
0.0624999999999988
40
0.0937499999999963
40
0.0937499999999963
40
0.124999999999994
40
0.124999999999994
40
0.187499999999995
40
0.187499999999995
40
0.249999999999997
40
0.249999999999997
40
0.374999999999997
40
0.374999999999997
40
0.499999999999998
40
0.499999999999998
40
0.749999999999999
40
0.749999999999999
40
1
40
1
40
1
40
1
41
1
10
0.342769052838236
20
-17.0728978049261
30
0
41
1
10
0.350219788009213
20
-17.0771994888827
30
0
41
1
10
0.358549452454497
20
-17.0825539799039
30
0
41
1
10
0.372864218035431
20
-17.093979869987
30
0
41
1
10
0.37798796333351
20
-17.0984317564579
30
0
41
1
10
0.388166271881545
20
-17.1083280814276
30
0
41
1
10
0.393183542585462
20
-17.1137579495875
30
0
41
1
10
0.406502037973269
20
-17.1297408233558
30
0
41
1
10
0.41274488729519
20
-17.1393052009069
30
0
41
1
10
0.422483911889884
20
-17.1561710776414
30
0
41
1
10
0.42601649971698
20
-17.1635944235194
30
0
41
1
10
0.434672051565258
20
-17.1840851392542
30
0
41
1
10
0.437986803453384
20
-17.1957274100747
30
0
41
1
10
0.442636637049787
20
-17.2170226031547
30
0
41
1
10
0.443877476648453
20
-17.2266145363653
30
0
41
1
10
0.445780954070017
20
-17.2535938389764
30
0
41
1
10
0.444634637795787
20
-17.2691943605649
30
0
41
1
10
0.439866649629693
20
-17.2978762065492
30
0
41
1
10
0.436160069704812
20
-17.3109072275389
30
0
41
1
10
0.422428671235508
20
-17.3468944380384
30
0
41
1
10
0.409842691366464
20
-17.3669156018501
30
0
41
1
10
0.379945598132991
20
-17.4013274297263
30
0
41
1
10
0.362582983642824
20
-17.4156626167902
30
0
41
1
10
0.342769052838264
20
-17.4271021950739
30
0
0
SPLINE
5
1D1
100
AcDbEntity
8
SK1
62
256
6
ByLayer
370
18
48
1
60
0
100
AcDbSpline
70
4
71
3
72
8
73
4
40
0
40
0
40
0
40
0
40
1
40
1
40
1
40
1
41
1
10
0.342769052838264
20
-17.4271021950739
30
0
41
1
10
0.122384349147353
20
-17.5543413630751
30
0
41
1
10
-0.0754822092164034
20
-17.6685796738101
30
0
41
1
10
-0.249980947161731
20
-17.7693265671361
30
0
0
SPLINE
5
1D2
100
AcDbEntity
8
SK1
62
256
6
ByLayer
370
18
48
1
60
0
100
AcDbSpline
70
4
71
3
72
12
73
8
40
0
40
0
40
0
40
0
40
0.500000000000008
40
0.500000000000008
40
0.750000000000004
40
0.750000000000004
40
1
40
1
40
1
40
1
41
1
10
-0.249980947161731
20
-14.7693265671361
30
0
41
1
10
-0.271516642800975
20
-14.7817602068106
30
0
41
1
10
-0.2890053006345
20
-14.7986536555468
30
0
41
1
10
-0.308758860239436
20
-14.8302537328973
30
0
41
1
10
-0.314253887073931
20
-14.8418692188385
30
0
41
1
10
-0.322334268365751
20
-14.8680173504829
30
0
41
1
10
-0.32498094716172
20
-14.8824182338689
30
0
41
1
10
-0.32498094716172
20
-14.8992303777037
30
0
0
SPLINE
5
1D3
100
AcDbEntity
8
SK1
62
256
6
ByLayer
370
18
48
1
60
0
100
AcDbSpline
70
4
71
3
72
8
73
4
40
0
40
0
40
0
40
0
40
1
40
1
40
1
40
1
41
1
10
-0.249980947161731
20
-13.7306734328639
30
0
41
1
10
-0.0530000040733682
20
-13.8444004333812
30
0
41
1
10
0.144595422329132
20
-13.9584822060053
30
0
41
1
10
0.342769052838264
20
-14.0728978049261
30
0
0
SPLINE
5
1D4
100
AcDbEntity
8
SK1
62
256
6
ByLayer
370
18
48
1
60
0
100
AcDbSpline
70
4
71
3
72
22
73
18
40
0
40
0
40
0
40
0
40
0.0625
40
0.0625
40
0.125
40
0.125
40
0.1875
40
0.1875
40
0.25
40
0.25
40
0.375
40
0.375
40
0.5
40
0.5
40
0.75
40
0.75
40
1
40
1
40
1
40
1
41
1
10
0.342769052838264
20
-12.5728978049261
30
0
41
1
10
0.354608181839751
20
-12.579733129242
30
0
41
1
10
0.3676417881058
20
-12.5887969509675
30
0
41
1
10
0.393933820836594
20
-12.6135796136962
30
0
41
1
10
0.406050000047884
20
-12.6287545713999
30
0
41
1
10
0.423576796837182
20
-12.6573133731191
30
0
41
1
10
0.42937322238032
20
-12.67052387735
30
0
41
1
10
0.437772772863468
20
-12.6945624553112
30
0
41
1
10
0.440407220383491
20
-12.7055989538999
30
0
41
1
10
0.445588571768269
20
-12.7361193630081
30
0
41
1
10
0.445625738411877
20
-12.7535773835817
30
0
41
1
10
0.442516530023795
20
-12.7857570881221
30
0
41
1
10
0.439280452881775
20
-12.8000626434373
30
0
41
1
10
0.426421000815225
20
-12.8396056103103
30
0
41
1
10
0.413679423890983
20
-12.8615037472975
30
0
41
1
10
0.382525012517618
20
-12.8991707316468
30
0
41
1
10
0.363925974973824
20
-12.9148872403835
30
0
41
1
10
0.342769052839458
20
-12.9271021950732
30
0
0
SPLINE
5
1D5
100
AcDbEntity
8
SK1
62
256
6
ByLayer
370
18
48
1
60
0
100
AcDbSpline
70
4
71
3
72
24
73
20
40
0
40
0
40
0
40
0
40
0.0624999999999964
40
0.0624999999999964
40
0.0937499999999946
40
0.0937499999999946
40
0.124999999999993
40
0.124999999999993
40
0.187499999999989
40
0.187499999999989
40
0.249999999999986
40
0.249999999999986
40
0.374999999999988
40
0.374999999999988
40
0.499999999999991
40
0.499999999999991
40
0.749999999999995
40
0.749999999999995
40
1
40
1
40
1
40
1
41
1
10
0.342769052834598
20
-14.072897804918
30
0
41
1
10
0.355492163966801
20
-14.0802434965545
30
0
41
1
10
0.370101104686569
20
-14.0905168173619
30
0
41
1
10
0.391579881066633
20
-14.1117885239882
30
0
41
1
10
0.398484982044153
20
-14.1197537295974
30
0
41
1
10
0.410274648123846
20
-14.1355431801381
30
0
41
1
10
0.415157671611041
20
-14.1432678560081
30
0
41
1
10
0.427372229456552
20
-14.1652254088806
30
0
41
1
10
0.432321891039948
20
-14.1780120112318
30
0
41
1
10
0.439549508736377
20
-14.2014461443951
30
0
41
1
10
0.441681157637106
20
-14.2118967014105
30
0
41
1
10
0.445788200762735
20
-14.2412797940188
30
0
41
1
10
0.445442817617987
20
-14.2583164448053
30
0
41
1
10
0.441818702447648
20
-14.2892602049515
30
0
41
1
10
0.438463981017065
20
-14.3031082300083
30
0
41
1
10
0.425407582488589
20
-14.3414669139582
30
0
41
1
10
0.412753784859746
20
-14.3628334233235
30
0
41
1
10
0.381951448310957
20
-14.3996431149244
30
0
41
1
10
0.363680833357193
20
-14.4150287729628
30
0
41
1
10
0.342769052840225
20
-14.4271021950737
30
0
0
SPLINE
5
1D6
100
AcDbEntity
8
SK1
62
256
6
ByLayer
370
18
48
1
60
0
100
AcDbSpline
70
4
71
3
72
12
73
8
40
0
40
0
40
0
40
0
40
0.5
40
0.5
40
0.75
40
0.75
40
1
40
1
40
1
40
1
41
1
10
-0.249980947161731
20
-17.7693265671361
30
0
41
1
10
-0.272414825236723
20
-17.7822787726816
30
0
41
1
10
-0.289849679960639
20
-17.7996215327343
30
0
41
1
10
-0.309329969157915
20
-17.8313737108875
30
0
41
1
10
-0.314672522354158
20
-17.8429531170883
30
0
41
1
10
-0.322455514656269
20
-17.8686997670906
30
0
41
1
10
-0.324980947161748
20
-17.8827821226977
30
0
41
1
10
-0.324980947161748
20
-17.8992303777037
30
0
0
SPLINE
5
1D7
100
AcDbEntity
8
SK1
62
256
6
ByLayer
370
18
48
1
60
0
100
AcDbSpline
70
4
71
3
72
8
73
4
40
0
40
0
40
0
40
0
40
1
40
1
40
1
40
1
41
1
10
-0.249980947164147
20
-18.2306734328625
30
0
41
1
10
-0.0602000624356265
20
-18.3402434777476
30
0
41
1
10
0.137660453241608
20
-18.4544782997359
30
0
41
1
10
0.34276905284446
20
-18.5728978049296
30
0
0
SPLINE
5
1D8
100
AcDbEntity
8
SK1
62
256
6
ByLayer
370
18
48
1
60
0
100
AcDbSpline
70
4
71
3
72
22
73
18
40
0
40
0
40
0
40
0
40
0.499999999999963
40
0.499999999999963
40
0.624999999999967
40
0.624999999999967
40
0.74999999999997
40
0.74999999999997
40
0.812499999999972
40
0.812499999999972
40
0.843749999999977
40
0.843749999999977
40
0.874999999999981
40
0.874999999999981
40
0.937499999999991
40
0.937499999999991
40
1
40
1
40
1
40
1
41
1
10
-0.324980947161748
20
-18.1007696736902
30
0
41
1
10
-0.324980942713694
20
-18.1137518803149
30
0
41
1
10
-0.323786972692858
20
-18.1278012981292
30
0
41
1
10
-0.316461247037807
20
-18.1508365404436
30
0
41
1
10
-0.314676140574136
20
-18.1557309360372
30
0
41
1
10
-0.309877142831454
20
-18.1666369849616
30
0
41
1
10
-0.307015946514042
20
-18.1725080306412
30
0
41
1
10
-0.299937942812306
20
-18.1838699189831
30
0
41
1
10
-0.297061244389283
20
-18.1881873513923
30
0
41
1
10
-0.290809955665594
20
-18.1961373598805
30
0
41
1
10
-0.288344686571122
20
-18.1990897237154
30
0
41
1
10
-0.282576626494176
20
-18.2053705283389
30
0
41
1
10
-0.279276769685652
20
-18.2086541663267
30
0
41
1
10
-0.27023552933224
20
-18.2169304518466
30
0
41
1
10
-0.265307390124008
20
-18.2206340696716
30
0
41
1
10
-0.256901453626028
20
-18.2265288472598
30
0
41
1
10
-0.253317987424708
20
-18.2287467917697
30
0
41
1
10
-0.249980947164119
20
-18.2306734328625
30
0
0
SPLINE
5
1D9
100
AcDbEntity
8
SK1
62
256
6
ByLayer
370
18
48
1
60
0
100
AcDbSpline
70
4
71
3
72
18
73
14
40
0
40
0
40
0
40
0
40
0.249999999999993
40
0.249999999999993
40
0.499999999999986
40
0.499999999999986
40
0.624999999999989
40
0.624999999999989
40
0.749999999999993
40
0.749999999999993
40
0.874999999999996
40
0.874999999999996
40
1
40
1
40
1
40
1
41
1
10
-0.324980947162288
20
-13.6007696670361
30
0
41
1
10
-0.324980944779611
20
-13.6087580826515
30
0
41
1
10
-0.324375091817671
20
-13.6172515822333
30
0
41
1
10
-0.321101652115999
20
-13.6359691257659
30
0
41
1
10
-0.318480845447794
20
-13.6462848088004
30
0
41
1
10
-0.311140598526833
20
-13.6640271324653
30
0
41
1
10
-0.308065534855785
20
-13.67042906028
30
0
41
1
10
-0.299905142428798
20
-13.684183591263
30
0
41
1
10
-0.294738072321366
20
-13.6915917814673
30
0
41
1
10
-0.28230951572246
20
-13.7059884988997
30
0
41
1
10
-0.275307003668388
20
-13.7125990917557
30
0
41
1
10
-0.262137194402385
20
-13.7231417450231
30
0
41
1
10
-0.255819243409462
20
-13.727302690991
30
0
41
1
10
-0.249980947137743
20
-13.7306734329128
30
0
0
SPLINE
5
1DA
100
AcDbEntity
8
SK1
62
256
6
ByLayer
370
18
48
1
60
0
100
AcDbSpline
70
4
71
3
72
18
73
14
40
0
40
0
40
0
40
0
40
0.249999999999994
40
0.249999999999994
40
0.499999999999989
40
0.499999999999989
40
0.624999999999991
40
0.624999999999991
40
0.749999999999994
40
0.749999999999994
40
0.874999999999997
40
0.874999999999997
40
1
40
1
40
1
40
1
41
1
10
-0.324980947177011
20
-15.1007696733176
30
0
41
1
10
-0.324980944602714
20
-15.1083379719955
30
0
41
1
10
-0.324432712680675
20
-15.116420417677
30
0
41
1
10
-0.32149464679415
20
-15.1341539514463
30
0
41
1
10
-0.319182438023091
20
-15.1438135323921
30
0
41
1
10
-0.312597598822208
20
-15.1607560309805
30
0
41
1
10
-0.309874417347203
20
-15.1668188717233
30
0
41
1
10
-0.302439168977031
20
-15.1802249766799
30
0
41
1
10
-0.297509190612345
20
-15.1878765947346
30
0
41
1
10
-0.28480794629948
20
-15.2034284034641
30
0
41
1
10
-0.27692257905025
20
-15.2111916961387
30
0
41
1
10
-0.262620965309225
20
-15.2228530278962
30
0
41
1
10
-0.256002024866234
20
-15.2271971620468
30
0
41
1
10
-0.249980947147122
20
-15.2306734328874
30
0
0
SPLINE
5
1DB
100
AcDbEntity
8
SK1
62
256
6
ByLayer
370
18
48
1
60
0
100
AcDbSpline
70
4
71
3
72
8
73
4
40
0
40
0
40
0
40
0
40
1
40
1
40
1
40
1
41
1
10
0.342769052839685
20
-14.4271021950731
30
0
41
1
10
0.136951465371425
20
-14.5459310346019
30
0
41
1
10
-0.0607307434436564
20
-14.6600629110752
30
0
41
1
10
-0.249980947161731
20
-14.7693265671361
30
0
0
SPLINE
5
1DC
100
AcDbEntity
8
SK1
62
256
6
ByLayer
370
18
48
1
60
0
100
AcDbSpline
70
4
71
3
72
10
73
6
40
0
40
0
40
0
40
0
40
0.5
40
0.5
40
1
40
1
40
1
40
1
41
1
10
-0.249980947160026
20
-7.26932656713434
30
0
41
1
10
-0.269739875690277
20
-7.28073438983976
30
0
41
1
10
-0.287604165308949
20
-7.29692770850387
30
0
41
1
10
-0.315076899640559
20
-7.33987593818738
30
0
41
1
10
-0.324980951061264
20
-7.36726670859458
30
0
41
1
10
-0.32498094716172
20
-7.39923039600369
30
0
0
SPLINE
5
1DD
100
AcDbEntity
8
SK1
62
256
6
ByLayer
370
18
48
1
60
0
100
AcDbSpline
70
4
71
3
72
20
73
16
40
0
40
0
40
0
40
0
40
0.124999999999996
40
0.124999999999996
40
0.249999999999993
40
0.249999999999993
40
0.374999999999989
40
0.374999999999989
40
0.499999999999986
40
0.499999999999986
40
0.624999999999982
40
0.624999999999982
40
0.749999999999978
40
0.749999999999978
40
1
40
1
40
1
40
1
41
1
10
0.342769052838378
20
-8.07289780491897
30
0
41
1
10
0.358292509144434
20
-8.08186027659568
30
0
41
1
10
0.373840112708137
20
-8.09359617355808
30
0
41
1
10
0.402117274927292
20
-8.1230248979202
30
0
41
1
10
0.414983786794892
20
-8.14098160453818
30
0
41
1
10
0.434460540703242
20
-8.18137308670541
30
0
41
1
10
0.440646639176208
20
-8.20301629896775
30
0
41
1
10
0.446015310825402
20
-8.2445404277256
30
0
41
1
10
0.445321800639704
20
-8.26441983775584
30
0
41
1
10
0.439548347043939
20
-8.30039282960807
30
0
41
1
10
0.434428159406906
20
-8.31691561693791
30
0
41
1
10
0.421597423724648
20
-8.34637979558789
30
0
41
1
10
0.413807258685011
20
-8.35960033832491
30
0
41
1
10
0.387312012959001
20
-8.39544835043758
30
0
41
1
10
0.366333953146125
20
-8.41349699353795
30
0
41
1
10
0.342769052838378
20
-8.42710219507404
30
0
0
SPLINE
5
1DE
100
AcDbEntity
8
SK1
62
256
6
ByLayer
370
18
48
1
60
0
100
AcDbSpline
70
4
71
3
72
12
73
8
40
0
40
0
40
0
40
0
40
0.499999999999967
40
0.499999999999967
40
0.749999999999984
40
0.749999999999984
40
1
40
1
40
1
40
1
41
1
10
-0.249980947162243
20
-8.76932656713528
30
0
41
1
10
-0.270604914733241
20
-8.78123382036416
30
0
41
1
10
-0.288263389710181
20
-8.79770683350711
30
0
41
1
10
-0.308536328216121
20
-8.82978294689872
30
0
41
1
10
-0.314161023968154
20
-8.84158814262523
30
0
41
1
10
-0.322390682705645
20
-8.86818056431365
30
0
41
1
10
-0.324980951347385
20
-8.88288598383099
30
0
41
1
10
-0.32498094716172
20
-8.8992304161176
30
0
0
SPLINE
5
1DF
100
AcDbEntity
8
SK1
62
256
6
ByLayer
370
18
48
1
60
0
100
AcDbSpline
70
4
71
3
72
8
73
4
40
0
40
0
40
0
40
0
40
1
40
1
40
1
40
1
41
1
10
0.342769052838293
20
-8.42710219507391
30
0
41
1
10
0.136066482638768
20
-8.54644197962079
30
0
41
1
10
-0.0625363391943097
20
-8.66110537226795
30
0
41
1
10
-0.249980947161731
20
-8.76932656713608
30
0
0
SPLINE
5
1E0
100
AcDbEntity
8
SK1
62
256
6
ByLayer
370
18
48
1
60
0
100
AcDbSpline
70
4
71
3
72
8
73
4
40
0
40
0
40
0
40
0
40
1
40
1
40
1
40
1
41
1
10
0.342769052838293
20
-6.92710219507391
30
0
41
1
10
0.141559860425645
20
-7.0432703764768
30
0
41
1
10
-0.0563906484568975
20
-7.15755715606635
30
0
41
1
10
-0.249980947159969
20
-7.26932656713507
30
0
0
SPLINE
5
1E1
100
AcDbEntity
8
SK1
62
256
6
ByLayer
370
18
48
1
60
0
100
AcDbSpline
70
4
71
3
72
10
73
6
40
0
40
0
40
0
40
0
40
0.5
40
0.5
40
1
40
1
40
1
40
1
41
1
10
-0.249980947161731
20
-5.76932656713608
30
0
41
1
10
-0.269347069078179
20
-5.7805076028377
30
0
41
1
10
-0.287503923386055
20
-5.79667268399618
30
0
41
1
10
-0.315507104250116
20
-5.840647958063
30
0
41
1
10
-0.324980950420468
20
-5.86885663496989
30
0
41
1
10
-0.324980947161691
20
-5.89923039379708
30
0
0
SPLINE
5
1E2
100
AcDbEntity
8
SK1
62
256
6
ByLayer
370
18
48
1
60
0
100
AcDbSpline
70
4
71
3
72
8
73
4
40
0
40
0
40
0
40
0
40
1
40
1
40
1
40
1
41
1
10
0.342769052838207
20
-9.92710219507397
30
0
41
1
10
0.200228104510018
20
-10.0093982499618
30
0
41
1
10
0.0693189021618537
20
-10.0849787131769
30
0
41
1
10
-0.0469703231317169
20
-10.152118328704
30
0
0
SPLINE
5
1E3
100
AcDbEntity
8
SK1
62
256
6
ByLayer
370
18
48
1
60
0
100
AcDbSpline
70
4
71
3
72
10
73
6
40
0
40
0
40
0
40
0
40
0.5
40
0.5
40
1
40
1
40
1
40
1
41
1
10
-0.324980947161691
20
-6.10076962229395
30
0
41
1
10
-0.324980947162146
20
-6.1293185221936
30
0
41
1
10
-0.315985583490743
20
-6.15835355448566
30
0
41
1
10
-0.287820516916753
20
-6.2030703955591
30
0
41
1
10
-0.269391712225342
20
-6.21946662242927
30
0
41
1
10
-0.249980947161703
20
-6.23067343286394
30
0
0
SPLINE
5
1E4
100
AcDbEntity
8
SK1
62
256
6
ByLayer
370
18
48
1
60
0
100
AcDbSpline
70
4
71
3
72
18
73
14
40
0
40
0
40
0
40
0
40
0.124999999999994
40
0.124999999999994
40
0.249999999999987
40
0.249999999999987
40
0.374999999999981
40
0.374999999999981
40
0.499999999999974
40
0.499999999999974
40
0.749999999999987
40
0.749999999999987
40
1
40
1
40
1
40
1
41
1
10
0.342769052837667
20
-9.57289780492353
30
0
41
1
10
0.361659745428455
20
-9.58380435137578
30
0
41
1
10
0.381427263361843
20
-9.59943461143851
30
0
41
1
10
0.415201412962233
20
-9.64040468492155
30
0
41
1
10
0.428156283128942
20
-9.66518180396035
30
0
41
1
10
0.442739500660679
20
-9.71115740671527
30
0
41
1
10
0.445111268805164
20
-9.73216305181921
30
0
41
1
10
0.444921672841389
20
-9.76989222185934
30
0
41
1
10
0.442344734563477
20
-9.78660417650855
30
0
41
1
10
0.430207127453343
20
-9.83277421407415
30
0
41
1
10
0.416682839154902
20
-9.85712203954073
30
0
41
1
10
0.383930349616605
20
-9.89812835961131
30
0
41
1
10
0.364451801694287
20
-9.91458365418582
30
0
41
1
10
0.342769052838634
20
-9.9271021950744
30
0
0
SPLINE
5
1E5
100
AcDbEntity
8
SK1
62
256
6
ByLayer
370
18
48
1
60
0
100
AcDbSpline
70
4
71
3
72
8
73
4
40
0
40
0
40
0
40
0
40
1
40
1
40
1
40
1
41
1
10
-0.249980947161703
20
-9.23067343286392
30
0
41
1
10
-0.0525671006117534
20
-9.3446503703113
30
0
41
1
10
0.145035952120338
20
-9.45873654599887
30
0
41
1
10
0.342769052838264
20
-9.57289780492606
30
0
0
SPLINE
5
1E6
100
AcDbEntity
8
SK1
62
256
6
ByLayer
370
18
48
1
60
0
100
AcDbSpline
70
4
71
3
72
14
73
10
40
0
40
0
40
0
40
0
40
0.25
40
0.25
40
0.5
40
0.5
40
0.75
40
0.75
40
1
40
1
40
1
40
1
41
1
10
-0.324980947166552
20
-9.10076962228267
30
0
41
1
10
-0.324980947167518
20
-9.11136059578082
30
0
41
1
10
-0.323881994656631
20
-9.12274977248747
30
0
41
1
10
-0.318229425941382
20
-9.14697051270781
30
0
41
1
10
-0.313571777695841
20
-9.15991639605677
30
0
41
1
10
-0.299850214227632
20
-9.18511074688465
30
0
41
1
10
-0.290682009752658
20
-9.19725898448242
30
0
41
1
10
-0.270776707340531
20
-9.2170456096347
30
0
41
1
10
-0.260190127137975
20
-9.22477916006086
30
0
41
1
10
-0.249980947161646
20
-9.2306734328682
30
0
0
SPLINE
5
1E7
100
AcDbEntity
8
SK1
62
256
6
ByLayer
370
18
48
1
60
0
100
AcDbSpline
70
4
71
3
72
8
73
4
40
0
40
0
40
0
40
0
40
1
40
1
40
1
40
1
41
1
10
-0.249980947161703
20
-6.23067343286392
30
0
41
1
10
-0.0532711848777865
20
-6.34424386707077
30
0
41
1
10
0.144388484030173
20
-6.45836273012272
30
0
41
1
10
0.342769052838321
20
-6.57289780492609
30
0
0
SPLINE
5
1E8
100
AcDbEntity
8
SK1
62
256
6
ByLayer
370
18
48
1
60
0
100
AcDbSpline
70
4
71
3
72
18
73
14
40
0
40
0
40
0
40
0
40
0.249999999999999
40
0.249999999999999
40
0.374999999999999
40
0.374999999999999
40
0.499999999999998
40
0.499999999999998
40
0.624999999999998
40
0.624999999999998
40
0.749999999999997
40
0.749999999999997
40
1
40
1
40
1
40
1
41
1
10
0.342769052839458
20
-6.57289780491908
30
0
41
1
10
0.370516593263005
20
-6.58891785485152
30
0
41
1
10
0.397303986570535
20
-6.61292698994951
30
0
41
1
10
0.427069711747322
20
-6.66393798431919
30
0
41
1
10
0.434841942704452
20
-6.68302567681425
30
0
41
1
10
0.444310147220392
20
-6.72323929480253
30
0
41
1
10
0.445902567673841
20
-6.74420182496485
30
0
41
1
10
0.443169313481064
20
-6.78389511559728
30
0
41
1
10
0.43890091879112
20
-6.80280522840637
30
0
41
1
10
0.426637846293943
20
-6.83662304317319
30
0
41
1
10
0.418504222067412
20
-6.85201367672843
30
0
41
1
10
0.390918604969329
20
-6.89234207927177
30
0
41
1
10
0.367782685199842
20
-6.91266056769713
30
0
41
1
10
0.342769052838463
20
-6.92710219507437
30
0
0
SPLINE
5
1E9
100
AcDbEntity
8
SK1
62
256
6
ByLayer
370
18
48
1
60
0
100
AcDbSpline
70
4
71
3
72
12
73
8
40
0
40
0
40
0
40
0
40
0.250000000000003
40
0.250000000000003
40
0.500000000000005
40
0.500000000000005
40
1
40
1
40
1
40
1
41
1
10
-0.324980947161748
20
-7.60076962228364
30
0
41
1
10
-0.324980947162828
20
-7.61355284176683
30
0
41
1
10
-0.323278187877406
20
-7.62715829572271
30
0
41
1
10
-0.316025131018847
20
-7.65363711598731
30
0
41
1
10
-0.310349374009093
20
-7.66682045254662
30
0
41
1
10
-0.289065322062811
20
-7.70193309425636
30
0
41
1
10
-0.269481467385731
20
-7.7194148022634
30
0
41
1
10
-0.24998094716176
20
-7.73067343286404
30
0
0
SPLINE
5
1EA
100
AcDbEntity
8
SK1
62
256
6
ByLayer
370
18
48
1
60
0
100
AcDbSpline
70
4
71
3
72
8
73
4
40
0
40
0
40
0
40
0
40
1
40
1
40
1
40
1
41
1
10
-0.249980947161703
20
-7.73067343286392
30
0
41
1
10
-0.0525430838767988
20
-7.8446642363797
30
0
41
1
10
0.145053884699934
20
-7.95874689937853
30
0
41
1
10
0.342769052838293
20
-8.07289780492609
30
0
0
SPLINE
5
1EB
100
AcDbEntity
8
SK1
62
256
6
ByLayer
370
18
48
1
60
0
100
AcDbSpline
70
4
71
3
72
20
73
16
40
0
40
0
40
0
40
0
40
0.249999999999991
40
0.249999999999991
40
0.499999999999981
40
0.499999999999981
40
0.624999999999961
40
0.624999999999961
40
0.74999999999994
40
0.74999999999994
40
0.812499999999951
40
0.812499999999951
40
0.874999999999962
40
0.874999999999962
40
1
40
1
40
1
40
1
41
1
10
-0.32498094716172
20
-16.6007696742417
30
0
41
1
10
-0.324980944714127
20
-16.6078374423781
30
0
41
1
10
-0.324500996960751
20
-16.6153798571388
30
0
41
1
10
-0.321956071445726
20
-16.6318825954065
30
0
41
1
10
-0.319966113323687
20
-16.6407981042996
30
0
41
1
10
-0.314369069028942
20
-16.6564624937186
30
0
41
1
10
-0.3120579217167
20
-16.662085122696
30
0
41
1
10
-0.305703740350083
20
-16.6746698177185
30
0
41
1
10
-0.301711034698201
20
-16.6816998750712
30
0
41
1
10
-0.292329218117686
20
-16.6943481376134
30
0
41
1
10
-0.288588938352319
20
-16.6989035673295
30
0
41
1
10
-0.280264486169727
20
-16.7077856175685
30
0
41
1
10
-0.275807648856784
20
-16.7119602336366
30
0
41
1
10
-0.263376019538526
20
-16.7224405493048
30
0
41
1
10
-0.256236858595713
20
-16.7270615807138
30
0
41
1
10
-0.249980947157098
20
-16.7306734328666
30
0
0
SPLINE
5
1EC
100
AcDbEntity
8
SK1
62
256
6
ByLayer
370
18
48
1
60
0
100
AcDbSpline
70
4
71
3
72
8
73
4
40
0
40
0
40
0
40
0
40
1
40
1
40
1
40
1
41
1
10
15.0843361031344
20
30.5745483047524
30
0
41
1
10
15.0879401443874
20
30.590111978048
30
0
41
1
10
15.0912506551268
20
30.6057375932498
30
0
41
1
10
15.0943347366885
20
30.6214164179197
30
0
0
SPLINE
5
1ED
100
AcDbEntity
8
SK1
62
256
6
ByLayer
370
18
48
1
60
0
100
AcDbSpline
70
4
71
3
72
12
73
8
40
0
40
0
40
0
40
0
40
0.50000000000001
40
0.50000000000001
40
0.750000000000005
40
0.750000000000005
40
1
40
1
40
1
40
1
41
1
10
-0.249980947163351
20
-10.269326567137
30
0
41
1
10
-0.271072889936477
20
-10.2815040059752
30
0
41
1
10
-0.288435995715759
20
-10.2979819796639
30
0
41
1
10
-0.308444760829587
20
-10.3296370448461
30
0
41
1
10
-0.314074872656789
20
-10.3414150937225
30
0
41
1
10
-0.322278016727239
20
-10.3677137080055
30
0
41
1
10
-0.324980951859601
20
-10.3821975796411
30
0
41
1
10
-0.32498094716172
20
-10.3992304190757
30
0
0
SPLINE
5
1EE
100
AcDbEntity
8
SK1
62
256
6
ByLayer
370
18
48
1
60
0
100
AcDbSpline
70
4
71
3
72
8
73
4
40
0
40
0
40
0
40
0
40
1
40
1
40
1
40
1
41
1
10
-0.249980947161731
20
-12.2306734328639
30
0
41
1
10
-0.0527632894172712
20
-12.3445371006516
30
0
41
1
10
0.144826582198107
20
-12.4586156662179
30
0
41
1
10
0.342769052838293
20
-12.5728978049261
30
0
0
SPLINE
5
1EF
100
AcDbEntity
8
SK1
62
256
6
ByLayer
370
18
48
1
60
0
100
AcDbSpline
70
4
71
3
72
12
73
8
40
0
40
0
40
0
40
0
40
0.499999999999991
40
0.499999999999991
40
0.749999999999995
40
0.749999999999995
40
1
40
1
40
1
40
1
41
1
10
-0.249980947161703
20
-11.7693265671361
30
0
41
1
10
-0.271180770286804
20
-11.7815662907241
30
0
41
1
10
-0.28859849031673
20
-11.7981560037921
30
0
41
1
10
-0.308577748339132
20
-11.8298896356489
30
0
41
1
10
-0.314125680259338
20
-11.8415504008793
30
0
41
1
10
-0.322280802533015
20
-11.8677503986238
30
0
41
1
10
-0.324980952094307
20
-11.8823349663461
30
0
41
1
10
-0.32498094716172
20
-11.899230421496
30
0
0
SPLINE
5
1F0
100
AcDbEntity
8
SK1
62
256
6
ByLayer
370
18
48
1
60
0
100
AcDbSpline
70
4
71
3
72
8
73
4
40
0
40
0
40
0
40
0
40
1
40
1
40
1
40
1
41
1
10
0.342769052838293
20
-11.4271021950739
30
0
41
1
10
0.140428826570826
20
-11.5439233791773
30
0
41
1
10
-0.0572098387456208
20
-11.6580301158001
30
0
41
1
10
-0.249980947161703
20
-11.7693265671361
30
0
0
SPLINE
5
1F1
100
AcDbEntity
8
SK1
62
256
6
ByLayer
370
18
48
1
60
0
100
AcDbSpline
70
4
71
3
72
8
73
4
40
0
40
0
40
0
40
0
40
1
40
1
40
1
40
1
41
1
10
0.342769052839401
20
-12.9271021950733
30
0
41
1
10
0.139093450172965
20
-13.0446943591001
30
0
41
1
10
-0.0585614418591547
20
-13.1588104642215
30
0
41
1
10
-0.249980947161731
20
-13.2693265671361
30
0
0
SPLINE
5
1F2
100
AcDbEntity
8
SK1
62
256
6
ByLayer
370
18
48
1
60
0
100
AcDbSpline
70
4
71
3
72
30
73
26
40
0
40
0
40
0
40
0
40
0.0156249999999989
40
0.0156249999999989
40
0.0312499999999978
40
0.0312499999999978
40
0.0390624999999973
40
0.0390624999999973
40
0.0468749999999968
40
0.0468749999999968
40
0.0624999999999957
40
0.0624999999999957
40
0.0937499999999961
40
0.0937499999999961
40
0.124999999999996
40
0.124999999999996
40
0.187499999999996
40
0.187499999999996
40
0.249999999999995
40
0.249999999999995
40
0.499999999999997
40
0.499999999999997
40
0.749999999999998
40
0.749999999999998
40
1
40
1
40
1
40
1
41
1
10
0.34276905284446
20
-18.5728978049296
30
0
41
1
10
0.347171951280075
20
-18.5754398195269
30
0
41
1
10
0.351960418968901
20
-18.5784059956171
30
0
41
1
10
0.362777228869391
20
-18.5859371497908
30
0
41
1
10
0.368887800440774
20
-18.5905116721255
30
0
41
1
10
0.37981739554786
20
-18.6002003847112
30
0
41
1
10
0.383684111845838
20
-18.6038737992161
30
0
41
1
10
0.39115756260523
20
-18.611590679319
30
0
41
1
10
0.394657280740887
20
-18.6155242596522
30
0
41
1
10
0.403675823340706
20
-18.6263537691197
30
0
41
1
10
0.407992032601811
20
-18.632462271674
30
0
41
1
10
0.418659317700474
20
-18.6487351879591
30
0
41
1
10
0.422837359929787
20
-18.6569874846892
30
0
41
1
10
0.429873212522096
20
-18.6723064010643
30
0
41
1
10
0.432448702746342
20
-18.6790960893602
30
0
41
1
10
0.438742659264278
20
-18.697999306862
30
0
41
1
10
0.441072721492333
20
-18.7087665577519
30
0
41
1
10
0.444156752008098
20
-18.7287007453874
30
0
41
1
10
0.444833293181176
20
-18.737793336681
30
0
41
1
10
0.445598279075057
20
-18.7805244811046
30
0
41
1
10
0.438596852656047
20
-18.8064686815959
30
0
41
1
10
0.419591814375622
20
-18.8517667571323
30
0
41
1
10
0.407057571212334
20
-18.8706572738759
30
0
41
1
10
0.377955530591578
20
-18.9029851967484
30
0
41
1
10
0.361336931577228
20
-18.9163820252857
30
0
41
1
10
0.342769052838264
20
-18.9271021950739
30
0
0
SPLINE
5
1F3
100
AcDbEntity
8
SK1
62
256
6
ByLayer
370
18
48
1
60
0
100
AcDbSpline
70
4
71
3
72
9
73
5
40
0
40
0
40
0
40
0
40
0.999292586043409
40
1
40
1
40
1
40
1
41
1
10
0.342769052838264
20
-18.9271021950739
30
0
41
1
10
-0.0434394769975199
20
-19.1500797937379
30
0
41
1
10
-0.237878022121407
20
-19.2623389401061
30
0
41
1
10
-0.237740711892046
20
-19.2622596640082
30
0
41
1
10
-0.237739845780041
20
-19.2622591639582
30
0
0
SPLINE
5
1F4
100
AcDbEntity
8
SK1
62
256
6
ByLayer
370
18
48
1
60
0
100
AcDbSpline
70
4
71
3
72
8
73
4
40
0
40
0
40
0
40
0
40
1
40
1
40
1
40
1
41
1
10
16.8355710255722
20
36.9179211008729
30
0
41
1
10
16.8212125696283
20
36.9283196316764
30
0
41
1
10
16.8068156925973
20
36.938958884341
30
0
41
1
10
16.7926339504236
20
36.9496504206999
30
0
0
SPLINE
5
1F5
100
AcDbEntity
8
SK1
62
256
6
ByLayer
370
18
48
1
60
0
100
AcDbSpline
70
4
71
3
72
8
73
4
40
0
40
0
40
0
40
0
40
1
40
1
40
1
40
1
41
1
10
16.4643988637236
20
36.9179587039921
30
0
41
1
10
16.4787545061327
20
36.9283408375559
30
0
41
1
10
16.4931490100696
20
36.9389637135591
30
0
41
1
10
16.5073291614253
20
36.9496394910741
30
0
0
SPLINE
5
1F6
100
AcDbEntity
8
SK1
62
256
6
ByLayer
370
18
48
1
60
0
100
AcDbSpline
70
4
71
3
72
18
73
14
40
0
40
0
40
0
40
0
40
0.250000000000001
40
0.250000000000001
40
0.375000000000001
40
0.375000000000001
40
0.500000000000001
40
0.500000000000001
40
0.625000000000001
40
0.625000000000001
40
0.75
40
0.75
40
1
40
1
40
1
40
1
41
1
10
16.5084999530325
20
36.9499999999971
30
0
41
1
10
16.5249055889449
20
36.9234119860128
30
0
41
1
10
16.5433924335651
20
36.898095780936
30
0
41
1
10
16.5778419913605
20
36.866441187014
30
0
41
1
10
16.5905266743049
20
36.8570146995123
30
0
41
1
10
16.6184404803588
20
36.8432443843973
30
0
41
1
10
16.6341141525768
20
36.838968848856
30
0
41
1
10
16.665463531644
20
36.8388974893789
30
0
41
1
10
16.6813400050827
20
36.8431556675965
30
0
41
1
10
16.7094396775138
20
36.856978702747
30
0
41
1
10
16.7221968758021
20
36.866472958231
30
0
41
1
10
16.7566201711491
20
36.8981152636878
30
0
41
1
10
16.775082757557
20
36.9233930996246
30
0
41
1
10
16.7915000469637
20
36.95
30
0
0
SPLINE
5
1F7
100
AcDbEntity
8
SK1
62
256
6
ByLayer
370
18
48
1
60
0
100
AcDbSpline
70
4
71
3
72
9
73
5
40
0
40
0
40
0
40
0
40
0.5
40
1
40
1
40
1
40
1
41
1
10
17.3000000000001
20
36.3249724274734
30
0
41
1
10
17.3000000000001
20
36.3302766539012
30
0
41
1
10
17.3000000000001
20
36.3408898990199
30
0
41
1
10
17.3000000000001
20
36.3515127554662
30
0
41
1
10
17.3000000000001
20
36.3568266286441
30
0
0
SPLINE
5
1F8
100
AcDbEntity
8
SK1
62
256
6
ByLayer
370
18
48
1
60
0
100
AcDbSpline
70
4
71
3
72
10
73
6
40
0
40
0
40
0
40
0
40
0.5
40
0.5
40
1
40
1
40
1
40
1
41
1
10
16.0000000000001
20
36.3568266286442
30
0
41
1
10
16.0000000000001
20
36.3515769547582
30
0
41
1
10
16.0000000000001
20
36.346295987895
30
0
41
1
10
16.0000000000001
20
36.3356701194018
30
0
41
1
10
16.0000000000001
20
36.3303062541705
30
0
41
1
10
16.0000000000001
20
36.3249724274734
30
0
0
SPLINE
5
1F9
100
AcDbEntity
8
SK1
62
256
6
ByLayer
370
18
48
1
60
0
100
AcDbSpline
70
4
71
3
72
12
73
8
40
0
40
0
40
0
40
0
40
0.499999999999999
40
0.499999999999999
40
0.75
40
0.75
40
1
40
1
40
1
40
1
41
1
10
16.0057993293048
20
36.5027832782668
30
0
41
1
10
16.0174537231919
20
36.5780978342863
30
0
41
1
10
16.0194793928688
20
36.653407564905
30
0
41
1
10
16.0070909940876
20
36.7664438662759
30
0
41
1
10
16.0002481753371
20
36.8043826688076
30
0
41
1
10
15.9813245834273
20
36.877789672477
30
0
41
1
10
15.969251207829
20
36.9135157851904
30
0
41
1
10
15.9544091992242
20
36.9482108144178
30
0
0
SPLINE
5
1FA
100
AcDbEntity
8
SK1
62
256
6
ByLayer
370
18
48
1
60
0
100
AcDbSpline
70
4
71
3
72
8
73
4
40
0
40
0
40
0
40
0
40
1
40
1
40
1
40
1
41
1
10
16.261271606137
20
37.5342773021256
30
0
41
1
10
16.2599148109632
20
37.5342778326685
30
0
41
1
10
16.2585486526772
20
37.534115949749
30
0
41
1
10
16.2572399761491
20
37.5337625807065
30
0
0
SPLINE
5
1FB
100
AcDbEntity
8
SK1
62
256
6
ByLayer
370
18
48
1
60
0
100
AcDbSpline
70
4
71
3
72
10
73
6
40
0
40
0
40
0
40
0
40
0.5
40
0.5
40
1
40
1
40
1
40
1
41
1
10
16.1412746182898
20
37.5025679899529
30
0
41
1
10
16.16060713537
20
37.5077506438646
30
0
41
1
10
16.1807461806021
20
37.5131580487614
30
0
41
1
10
16.219663201081
20
37.5236264601972
30
0
41
1
10
16.2386799551281
20
37.5287510009023
30
0
41
1
10
16.2572399761491
20
37.5337625807065
30
0
0
SPLINE
5
1FC
100
AcDbEntity
8
SK1
62
256
6
ByLayer
370
18
48
1
60
0
100
AcDbSpline
70
4
71
3
72
8
73
4
40
0
40
0
40
0
40
0
40
1
40
1
40
1
40
1
41
1
10
16.821010071663
20
37.5342038115749
30
0
41
0.993561136270461
10
16.8392475003131
20
37.3670673779324
30
0
41
0.988282957549092
10
16.8289684810087
20
37.349052984165
30
0
41
0.980382272961311
10
16.8519428668709
20
37.1052347090642
30
0
0
SPLINE
5
1FD
100
AcDbEntity
8
SK1
62
256
6
ByLayer
370
18
48
1
60
0
100
AcDbSpline
70
4
71
3
72
8
73
4
40
0
40
0
40
0
40
0
40
1
40
1
40
1
40
1
41
1
10
16.7915000469637
20
36.95
30
0
41
1
10
16.7446507096158
20
36.95
30
0
41
1
10
16.6973255148978
20
36.95
30
0
41
1
10
16.6500000000001
20
36.95
30
0
0
SPLINE
5
1FE
100
AcDbEntity
8
SK1
62
256
6
ByLayer
370
18
48
1
60
0
100
AcDbSpline
70
4
71
3
72
10
73
6
40
0
40
0
40
0
40
0
40
0.475200528693249
40
0.475200528693249
40
1
40
1
40
1
40
1
41
1
10
16.7915000469636
20
36.95
30
0
41
1
10
16.7916909823595
20
36.95
30
0
41
1
10
16.7918841820936
20
36.9499782188177
30
0
41
1
10
16.792270381583
20
36.9498713082603
30
0
41
1
10
16.7924660458256
20
36.9497770030375
30
0
41
1
10
16.7926339504235
20
36.9496504206999
30
0
0
SPLINE
5
1FF
100
AcDbEntity
8
SK1
62
256
6
ByLayer
370
18
48
1
60
0
100
AcDbSpline
70
4
71
3
72
10
73
6
40
0
40
0
40
0
40
0
40
0.850536863922696
40
0.850536863922696
40
1
40
1
40
1
40
1
41
1
10
16.7926339504235
20
36.9496504206999
30
0
41
1
10
16.792689153866
20
36.9497495033598
30
0
41
1
10
16.792744315283
20
36.9498486093334
30
0
41
1
10
16.7928091207551
20
36.9499651582967
30
0
41
1
10
16.7928188042176
20
36.9499825795096
30
0
41
1
10
16.792828488917
20
36.9499999999999
30
0
0
SPLINE
5
200
100
AcDbEntity
8
SK1
62
256
6
ByLayer
370
18
48
1
60
0
100
AcDbSpline
70
4
71
3
72
8
73
4
40
0
40
0
40
0
40
0
40
1
40
1
40
1
40
1
41
1
10
16.792828488917
20
36.9499999999999
30
0
41
1
10
16.8174588562713
20
36.9973284330593
30
0
41
1
10
16.8363227239612
20
37.0476110936751
30
0
41
1
10
16.8525786219998
20
37.0985194109246
30
0
0
SPLINE
5
201
100
AcDbEntity
8
SK1
62
256
6
ByLayer
370
18
48
1
60
0
100
AcDbSpline
70
4
71
3
72
10
73
6
40
0
40
0
40
0
40
0
40
0.0217766023804652
40
0.0217766023804652
40
1
40
1
40
1
40
1
41
1
10
16.8525786219998
20
37.0985194109246
30
0
41
1
10
16.8525865028147
20
37.09853762485
30
0
41
1
10
16.8525943836588
20
37.0985558387743
30
0
41
1
10
16.8529562808303
20
37.0993922371645
30
0
41
1
10
16.8533103796116
20
37.100210408632
30
0
41
1
10
16.8536645611084
20
37.1010285669578
30
0
0
SPLINE
5
202
100
AcDbEntity
8
SK1
62
256
6
ByLayer
370
18
48
1
60
0
100
AcDbSpline
70
4
71
3
72
10
73
6
40
0
40
0
40
0
40
0
40
0.5
40
0.5
40
1
40
1
40
1
40
1
41
1
10
16.4789899283373
20
37.5342038115749
30
0
41
1
10
16.4699299284266
20
37.4511736814556
30
0
41
1
10
16.4679034852331
20
37.4048062820998
30
0
41
1
10
16.4627529771306
20
37.2932519831433
30
0
41
1
10
16.4596368994893
20
37.2281262962586
30
0
41
1
10
16.4480571350889
20
37.1052347298602
30
0
0
SPLINE
5
203
100
AcDbEntity
8
SK1
62
256
6
ByLayer
370
18
48
1
60
0
100
AcDbSpline
70
4
71
3
72
8
73
4
40
0
40
0
40
0
40
0
40
1
40
1
40
1
40
1
41
1
10
16.5084999530366
20
36.95
30
0
41
1
10
16.555746289592
20
36.95
30
0
41
1
10
16.6031509250627
20
36.95
30
0
41
1
10
16.6500000000001
20
36.95
30
0
0
SPLINE
5
204
100
AcDbEntity
8
SK1
62
256
6
ByLayer
370
18
48
1
60
0
100
AcDbSpline
70
4
71
3
72
8
73
4
40
0
40
0
40
0
40
0
40
1
40
1
40
1
40
1
41
1
10
16.6438773456976
20
37.5342038115749
30
0
41
1
10
16.6462632039162
20
37.3379176754856
30
0
41
1
10
16.6481446621379
20
37.3434114471201
30
0
41
1
10
16.6500000000001
20
36.95
30
0
0
SPLINE
5
205
100
AcDbEntity
8
SK1
62
256
6
ByLayer
370
18
48
1
60
0
100
AcDbSpline
70
4
71
3
72
10
73
6
40
0
40
0
40
0
40
0
40
0.979295256385164
40
0.979295256385164
40
1
40
1
40
1
40
1
41
1
10
16.4462386017752
20
37.1007891703002
30
0
41
1
10
16.446613417405
20
37.0999285252936
30
0
41
1
10
16.4469881230696
20
37.0990678576779
30
0
41
1
10
16.4473706387733
20
37.0981889704332
30
0
41
1
10
16.4473785586001
20
37.0981707732819
30
0
41
1
10
16.4473864784052
20
37.0981525761328
30
0
0
SPLINE
5
206
100
AcDbEntity
8
SK1
62
256
6
ByLayer
370
18
48
1
60
0
100
AcDbSpline
70
4
71
3
72
8
73
4
40
0
40
0
40
0
40
0
40
1
40
1
40
1
40
1
41
1
10
16.4473864784052
20
37.0981525761328
30
0
41
1
10
16.4637412048211
20
37.0473399251611
30
0
41
1
10
16.4825735159238
20
36.9972989879064
30
0
41
1
10
16.5071290596044
20
36.95
30
0
0
SPLINE
5
207
100
AcDbEntity
8
SK1
62
256
6
ByLayer
370
18
48
1
60
0
100
AcDbSpline
70
4
71
3
72
10
73
6
40
0
40
0
40
0
40
0
40
0.145019172798306
40
0.145019172798306
40
1
40
1
40
1
40
1
41
1
10
16.5071290596044
20
36.95
30
0
41
1
10
16.5071387248762
20
36.9499825689198
30
0
41
1
10
16.5071483889267
20
36.9499651371278
30
0
41
1
10
16.5072150462163
20
36.9498449435423
30
0
41
1
10
16.5072720815103
20
36.9497422049281
30
0
41
1
10
16.5073291614623
20
36.9496394910238
30
0
0
SPLINE
5
208
100
AcDbEntity
8
SK1
62
256
6
ByLayer
370
18
48
1
60
0
100
AcDbSpline
70
4
71
3
72
10
73
6
40
0
40
0
40
0
40
0
40
0.472596937740774
40
0.472596937740774
40
1
40
1
40
1
40
1
41
1
10
16.5073291614431
20
36.9496394910868
30
0
41
1
10
16.5074857852555
20
36.9497574080875
30
0
41
1
10
16.5076654189058
20
36.9498483687082
30
0
41
1
10
16.5080603158641
20
36.9499722823262
30
0
41
1
10
16.5082817984628
20
36.9500000000001
30
0
41
1
10
16.5084999530366
20
36.95
30
0
0
SPLINE
5
209
100
AcDbEntity
8
SK1
62
256
6
ByLayer
370
18
48
1
60
0
100
AcDbSpline
70
4
71
3
72
18
73
14
40
0
40
0
40
0
40
0
40
0.125
40
0.125
40
0.25
40
0.25
40
0.375000000000001
40
0.375000000000001
40
0.500000000000001
40
0.500000000000001
40
0.75
40
0.75
40
1
40
1
40
1
40
1
41
1
10
16.2572399761491
20
37.5337625807065
30
0
41
1
10
16.2619592592677
20
37.5140447410804
30
0
41
1
10
16.268492933562
20
37.4952834148805
30
0
41
1
10
16.2852249608483
20
37.4596929873691
30
0
41
1
10
16.2954718462621
20
37.4428901679376
30
0
41
1
10
16.3177257506171
20
37.4101964085796
30
0
41
1
10
16.3296187843613
20
37.3942613552283
30
0
41
1
10
16.3514999045691
20
37.3612582322545
30
0
41
1
10
16.3613947681967
20
37.3440200649927
30
0
41
1
10
16.3869707066027
20
37.2909706072807
30
0
41
1
10
16.3999324990664
20
37.2540856235161
30
0
41
1
10
16.4247683955971
20
37.1799370547019
30
0
41
1
10
16.4362092452995
20
37.1424223049468
30
0
41
1
10
16.4480571350889
20
37.1052347298604
30
0
0
SPLINE
5
20A
100
AcDbEntity
8
SK1
62
256
6
ByLayer
370
18
48
1
60
0
100
AcDbSpline
70
4
71
3
72
8
73
4
40
0
40
0
40
0
40
0
40
1
40
1
40
1
40
1
41
1
10
16.4462386017752
20
37.1007891703002
30
0
41
1
10
16.4225693527799
20
37.0883720164183
30
0
41
1
10
16.398073448834
20
37.0759779776519
30
0
41
1
10
16.3737614962451
20
37.0641105378818
30
0
0
SPLINE
5
20B
100
AcDbEntity
8
SK1
62
256
6
ByLayer
370
18
48
1
60
0
100
AcDbSpline
70
4
71
3
72
14
73
10
40
0
40
0
40
0
40
0
40
0.0657784750596133
40
0.0657784750596133
40
0.630164659072176
40
0.630164659072176
40
0.844995480568037
40
0.844995480568037
40
1
40
1
40
1
40
1
41
1
10
16.4480571350889
20
37.1052347298604
30
0
41
1
10
16.4480468280646
20
37.1051253453931
30
0
41
1
10
16.4480356164846
20
37.1050160520455
30
0
41
1
10
16.4479193528659
20
37.1039770147111
30
0
41
1
10
16.4477575167458
20
37.1030314347223
30
0
41
1
10
16.4472439844306
20
37.1018512432513
30
0
41
1
10
16.4470646803466
20
37.1015337648526
30
0
41
1
10
16.4466641045031
20
37.1010750332159
30
0
41
1
10
16.446462555011
20
37.1009066586831
30
0
41
1
10
16.4462386017752
20
37.1007891703002
30
0
0
SPLINE
5
20C
100
AcDbEntity
8
SK1
62
256
6
ByLayer
370
18
48
1
60
0
100
AcDbSpline
70
4
71
3
72
22
73
18
40
0
40
0
40
0
40
0
40
0.0625000000000001
40
0.0625000000000001
40
0.125
40
0.125
40
0.25
40
0.25
40
0.499999999999999
40
0.499999999999999
40
0.625
40
0.625
40
0.75
40
0.75
40
0.875
40
0.875
40
1
40
1
40
1
40
1
41
1
10
16.8519428668555
20
37.1052347092285
30
0
41
1
10
16.8550101395004
20
37.1148621130334
30
0
41
1
10
16.8578479489635
20
37.1238774622498
30
0
41
1
10
16.8637118559899
20
37.1425345597923
30
0
41
1
10
16.8666388298483
20
37.1518652886327
30
0
41
1
10
16.8754740815857
20
37.1798379801305
30
0
41
1
10
16.8814362242385
20
37.1984606135465
30
0
41
1
10
16.9000574151138
20
37.254056601754
30
0
41
1
10
16.913016066129
20
37.2909264096878
30
0
41
1
10
16.9385551324638
20
37.3439244904757
30
0
41
1
10
16.9484403815403
20
37.3611636886481
30
0
41
1
10
16.9703639864284
20
37.394239828337
30
0
41
1
10
16.9822657219488
20
37.4101837894782
30
0
41
1
10
17.0045386958695
20
37.4429057516945
30
0
41
1
10
17.0147897866696
20
37.4597194241993
30
0
41
1
10
17.0315186416145
20
37.4953129838608
30
0
41
1
10
17.0380517006588
20
37.5140905353416
30
0
41
1
10
17.0427600246821
20
37.5337625826502
30
0
0
SPLINE
5
20D
100
AcDbEntity
8
SK1
62
256
6
ByLayer
370
18
48
1
60
0
100
AcDbSpline
70
4
71
3
72
14
73
10
40
0
40
0
40
0
40
0
40
0.103636238161912
40
0.103636238161912
40
0.267531551329913
40
0.267531551329913
40
0.636083882949144
40
0.636083882949144
40
1
40
1
40
1
40
1
41
1
10
16.8536645611084
20
37.1010285669578
30
0
41
1
10
16.8535221506312
20
37.1011031754878
30
0
41
1
10
16.8533891476831
20
37.1011990218575
30
0
41
1
10
16.8530828887231
20
37.1014810327606
30
0
41
1
10
16.85292593224
20
37.1016902314608
30
0
41
1
10
16.8525055791349
20
37.102405419263
30
0
41
1
10
16.8523296918016
20
37.1029700410602
30
0
41
1
10
16.8520752799246
20
37.1040917879483
30
0
41
1
10
16.851996740555
20
37.1046629684834
30
0
41
1
10
16.8519428668555
20
37.1052347092286
30
0
0
SPLINE
5
20E
100
AcDbEntity
8
SK1
62
256
6
ByLayer
370
18
48
1
60
0
100
AcDbSpline
70
4
71
3
72
8
73
4
40
0
40
0
40
0
40
0
40
1
40
1
40
1
40
1
41
1
10
16.9263396165484
20
37.0643056275972
30
0
41
1
10
16.9019574046994
20
37.0761874401784
30
0
41
1
10
16.877392932339
20
37.0885973264286
30
0
41
1
10
16.8536645611084
20
37.1010285669578
30
0
0
SPLINE
5
20F
100
AcDbEntity
8
SK1
62
256
6
ByLayer
370
18
48
1
60
0
100
AcDbSpline
70
4
71
3
72
8
73
4
40
0
40
0
40
0
40
0
40
1
40
1
40
1
40
1
41
1
10
17.0387085435664
20
37.5342038115749
30
0
41
1
10
16.9661493878931
20
37.5342038115749
30
0
41
1
10
16.8935820945995
20
37.5342038115749
30
0
41
1
10
16.821010071663
20
37.5342038115749
30
0
0
SPLINE
5
210
100
AcDbEntity
8
SK1
62
256
6
ByLayer
370
18
48
1
60
0
100
AcDbSpline
70
4
71
3
72
8
73
4
40
0
40
0
40
0
40
0
40
1
40
1
40
1
40
1
41
1
10
16.4789899283373
20
37.5342038115749
30
0
41
1
10
16.406417876323
20
37.5342038115749
30
0
41
1
10
16.3338505794684
20
37.5342038115749
30
0
41
1
10
16.2612914568714
20
37.5342038115749
30
0
0
SPLINE
5
211
100
AcDbEntity
8
SK1
62
256
6
ByLayer
370
18
48
1
60
0
100
AcDbSpline
70
4
71
3
72
8
73
4
40
0
40
0
40
0
40
0
40
1
40
1
40
1
40
1
41
1
10
16.6438773456976
20
37.5342038115749
30
0
41
1
10
16.5873050620652
20
37.5342038115749
30
0
41
1
10
16.5320943849655
20
37.5342038115749
30
0
41
1
10
16.4789899283373
20
37.5342038115749
30
0
0
SPLINE
5
212
100
AcDbEntity
8
SK1
62
256
6
ByLayer
370
18
48
1
60
0
100
AcDbSpline
70
4
71
3
72
12
73
8
40
0
40
0
40
0
40
0
40
0.5
40
0.5
40
0.75
40
0.75
40
1
40
1
40
1
40
1
41
1
10
16.821010071663
20
37.5342038115749
30
0
41
1
10
16.7928459013699
20
37.5342038115749
30
0
41
1
10
16.7633281857695
20
37.5342038115749
30
0
41
1
10
16.7187557082581
20
37.5342038115749
30
0
41
1
10
16.7038119273568
20
37.5342038115749
30
0
41
1
10
16.6737516320819
20
37.5342038115749
30
0
41
1
10
16.6580204166056
20
37.5342038115749
30
0
41
1
10
16.6438773456976
20
37.5342038115749
30
0
0
SPLINE
5
213
100
AcDbEntity
8
SK1
62
256
6
ByLayer
370
18
48
1
60
0
100
AcDbSpline
70
4
71
3
72
8
73
4
40
0
40
0
40
0
40
0
40
1
40
1
40
1
40
1
41
1
10
17.0427600246816
20
37.5337625826238
30
0
41
1
10
17.0414513481642
20
37.5341159516591
30
0
41
1
10
17.0400851898934
20
37.5342778346068
30
0
41
1
10
17.0387283947316
20
37.5342773040503
30
0
0
SPLINE
5
214
100
AcDbEntity
8
SK1
62
256
6
ByLayer
370
18
48
1
60
0
100
AcDbSpline
70
4
71
3
72
10
73
6
40
0
40
0
40
0
40
0
40
0.5
40
0.5
40
1
40
1
40
1
40
1
41
1
10
17.1587253825124
20
37.5025679924053
30
0
41
1
10
17.139392876754
20
37.507750643192
30
0
41
1
10
17.1192537870222
20
37.5131580599558
30
0
41
1
10
17.0803368221929
20
37.5236264562571
30
0
41
1
10
17.0613200690094
20
37.5287509965964
30
0
41
1
10
17.0427600246755
20
37.5337625826246
30
0
0
SPLINE
5
215
100
AcDbEntity
8
SK1
62
256
6
ByLayer
370
18
48
1
60
0
100
AcDbSpline
70
4
71
3
72
18
73
14
40
0
40
0
40
0
40
0
40
0.125
40
0.125
40
0.25
40
0.25
40
0.375
40
0.375
40
0.5
40
0.5
40
0.75
40
0.75
40
1
40
1
40
1
40
1
41
1
10
17.0386875499988
20
37.5341871244096
30
0
41
1
10
17.0481679447058
20
37.5551098276118
30
0
41
1
10
17.0552540291855
20
37.5767722737007
30
0
41
1
10
17.0633394691579
20
37.6219765532528
30
0
41
1
10
17.0641312299464
20
37.6452671741585
30
0
41
1
10
17.0591605060283
20
37.690358932767
30
0
41
1
10
17.0534154069358
20
37.7126388709823
30
0
41
1
10
17.0369040022806
20
37.7551479700679
30
0
41
1
10
17.0263554137284
20
37.775097072723
30
0
41
1
10
16.9898349818663
20
37.8321660710202
30
0
41
1
10
16.9590682429146
20
37.8663784398402
30
0
41
1
10
16.8934152654785
20
37.9279232737511
30
0
41
1
10
16.8579905344635
20
37.9557816429198
30
0
41
1
10
16.8210100716653
20
37.9818784381294
30
0
0
SPLINE
5
216
100
AcDbEntity
8
SK1
62
256
6
ByLayer
370
18
48
1
60
0
100
AcDbSpline
70
4
71
3
72
16
73
12
40
0
40
0
40
0
40
0
40
0.25
40
0.25
40
0.5
40
0.5
40
0.625
40
0.625
40
0.75
40
0.75
40
1
40
1
40
1
40
1
41
1
10
16.4789899283355
20
37.9818784381297
30
0
41
1
10
16.4419943345449
20
37.9557709651088
30
0
41
1
10
16.4065556822986
20
37.9279005465269
30
0
41
1
10
16.340880223929
20
37.8663256186689
30
0
41
1
10
16.3101043852544
20
37.8320944049798
30
0
41
1
10
16.2735852660644
20
37.7749927916571
30
0
41
1
10
16.2630392066222
20
37.7550316273041
30
0
41
1
10
16.2465401050795
20
37.7124942839813
30
0
41
1
10
16.2407307006196
20
37.6898494151374
30
0
41
1
10
16.2334182564638
20
37.6220647020697
30
0
41
1
10
16.2423680415702
20
37.5759963788992
30
0
41
1
10
16.2613124500024
20
37.5341871244097
30
0
0
SPLINE
5
217
100
AcDbEntity
8
SK4
62
256
6
ByLayer
370
13
48
0.05
60
0
100
AcDbSpline
70
4
71
1
72
6
73
4
40
0
40
0
40
0.383197531023232
40
0.616802468976768
40
1
40
1
41
1
10
21.6149335088695
20
0
30
0
41
1
10
5.70387110282635
20
-1.42E-14
30
0
41
1
10
1.83278312362165
20
0
30
0
41
1
10
-11.241585713144
20
0
30
0
0
LINE
5
75
100
AcDbEntity
8
1
62
256
6
ByLayer
370
18
48
1
60
1
100
AcDbLine
10
-193.299897
20
-123.412458
30
0
11
-193.299897
21
173.587542
31
0
39
0
210
0
220
0
230
1
0
LINE
5
76
100
AcDbEntity
8
1
62
256
6
ByLayer
370
18
48
1
60
1
100
AcDbLine
10
226.700103
20
173.587542
30
0
11
-193.299897
21
173.587542
31
0
39
0
210
0
220
0
230
1
0
LINE
5
77
100
AcDbEntity
8
1
62
256
6
ByLayer
370
18
48
1
60
1
100
AcDbLine
10
226.700103
20
173.587542
30
0
11
226.700103
21
-123.412458
31
0
39
0
210
0
220
0
230
1
0
LINE
5
78
100
AcDbEntity
8
1
62
256
6
ByLayer
370
18
48
1
60
1
100
AcDbLine
10
-193.299897
20
-123.412458
30
0
11
226.700103
21
-123.412458
31
0
39
0
210
0
220
0
230
1
0
LINE
5
79
100
AcDbEntity
8
SK1
62
256
6
ByLayer
370
18
48
1
60
0
100
AcDbLine
10
1.5
20
-20.4
30
0
11
11.75
21
-20.4
31
0
39
0
210
0
220
0
230
1
0
LINE
5
7A
100
AcDbEntity
8
SK1
62
256
6
ByLayer
370
18
48
1
60
0
100
AcDbLine
10
0.5
20
-20
30
0
11
1.5
21
-20
31
0
39
0
210
0
220
0
230
1
0
LINE
5
7B
100
AcDbEntity
8
SK1
62
256
6
ByLayer
370
18
48
1
60
0
100
AcDbLine
10
-6.824981
20
5.9325
30
0
11
-7.824981
21
5.664551
31
0
39
0
210
0
220
0
230
1
0
LINE
5
7C
100
AcDbEntity
8
SK1
62
256
6
ByLayer
370
18
48
1
60
0
100
AcDbLine
10
-7.824981
20
-5.664551
30
0
11
-6.824981
21
-5.9325
31
0
39
0
210
0
220
0
230
1
0
LINE
5
7D
100
AcDbEntity
8
SK1
62
256
6
ByLayer
370
18
48
1
60
0
100
AcDbLine
10
-0.04697
20
10.152118
30
0
11
0.5
21
10.61352
31
0
39
0
210
0
220
0
230
1
0
LINE
5
7E
100
AcDbEntity
8
SK1
62
256
6
ByLayer
370
18
48
1
60
0
100
AcDbLine
10
0.5
20
10.61352
30
0
11
0.5
21
17.238985
31
0
39
0
210
0
220
0
230
1
0
LINE
5
7F
100
AcDbEntity
8
SK1
62
256
6
ByLayer
370
18
48
1
60
0
100
AcDbLine
10
3.77
20
20.214019
30
0
11
3.77
21
19.934705
31
0
39
0
210
0
220
0
230
1
0
LINE
5
80
100
AcDbEntity
8
SK1
62
256
6
ByLayer
370
18
48
1
60
0
100
AcDbLine
10
0.5
20
17.83612
30
0
11
0.5
21
20
31
0
39
0
210
0
220
0
230
1
0
LINE
5
81
100
AcDbEntity
8
SK1
62
256
6
ByLayer
370
18
48
1
60
0
100
AcDbLine
10
0.126149
20
5.552168
30
0
11
0.5
21
5.552168
31
0
39
0
210
0
220
0
230
1
0
LINE
5
82
100
AcDbEntity
8
SK1
62
256
6
ByLayer
370
18
48
1
60
0
100
AcDbLine
10
14.583699
20
29.501184
30
0
11
14.967464
21
30.555567
31
0
39
0
210
0
220
0
230
1
0
LINE
5
83
100
AcDbEntity
8
SK1
62
256
6
ByLayer
370
18
48
1
60
0
100
AcDbLine
10
0.342769
20
18.572898
30
0
11
-0.249981
21
18.230673
31
0
39
0
210
0
220
0
230
1
0
LINE
5
84
100
AcDbEntity
8
SK1
62
256
6
ByLayer
370
18
48
1
60
0
100
AcDbLine
10
-0.249981
20
17.769327
30
0
11
0.342769
21
17.427102
31
0
39
0
210
0
220
0
230
1
0
LINE
5
85
100
AcDbEntity
8
SK1
62
256
6
ByLayer
370
18
48
1
60
0
100
AcDbLine
10
14.15
20
28.309604
30
0
11
14.583699
21
29.501184
31
0
39
0
210
0
220
0
230
1
0
LINE
5
86
100
AcDbEntity
8
SK1
62
256
6
ByLayer
370
18
48
1
60
0
100
AcDbLine
10
-0.324981
20
12.10077
30
0
11
-0.324981
21
11.89923
31
0
39
0
210
0
220
0
230
1
0
LINE
5
87
100
AcDbEntity
8
SK1
62
256
6
ByLayer
370
18
48
1
60
0
100
AcDbLine
10
-0.324981
20
7.60077
30
0
11
-0.324981
21
7.39923
31
0
39
0
210
0
220
0
230
1
0
LINE
5
88
100
AcDbEntity
8
SK1
62
256
6
ByLayer
370
18
48
1
60
0
100
AcDbLine
10
-0.324981
20
9.10077
30
0
11
-0.324981
21
8.89923
31
0
39
0
210
0
220
0
230
1
0
LINE
5
89
100
AcDbEntity
8
SK1
62
256
6
ByLayer
370
18
48
1
60
0
100
AcDbLine
10
-0.324981
20
6.10077
30
0
11
-0.324981
21
5.89923
31
0
39
0
210
0
220
0
230
1
0
LINE
5
8A
100
AcDbEntity
8
SK1
62
256
6
ByLayer
370
18
48
1
60
0
100
AcDbLine
10
-0.324981
20
10.60077
30
0
11
-0.324981
21
10.39923
31
0
39
0
210
0
220
0
230
1
0
LINE
5
8B
100
AcDbEntity
8
SK1
62
256
6
ByLayer
370
18
48
1
60
0
100
AcDbLine
10
17.3
20
31.207632
30
0
11
16.019763
21
31.207632
31
0
39
0
210
0
220
0
230
1
0
LINE
5
8C
100
AcDbEntity
8
SK1
62
256
6
ByLayer
370
18
48
1
60
0
100
AcDbLine
10
17.3
20
35.862342
30
0
11
16
21
35.862342
31
0
39
0
210
0
220
0
230
1
0
LINE
5
8D
100
AcDbEntity
8
SK1
62
256
6
ByLayer
370
18
48
1
60
0
100
AcDbLine
10
17.3
20
34.167678
30
0
11
16
21
34.167678
31
0
39
0
210
0
220
0
230
1
0
LINE
5
8E
100
AcDbEntity
8
SK1
62
256
6
ByLayer
370
18
48
1
60
0
100
AcDbLine
10
16
20
34.244932
30
0
11
17.3
21
34.244932
31
0
39
0
210
0
220
0
230
1
0
LINE
5
8F
100
AcDbEntity
8
SK1
62
256
6
ByLayer
370
18
48
1
60
0
100
AcDbLine
10
15.092852
20
31.207632
30
0
11
14.955443
21
30.830104
31
0
39
0
210
0
220
0
230
1
0
LINE
5
90
100
AcDbEntity
8
SK1
62
256
6
ByLayer
370
18
48
1
60
0
100
AcDbLine
10
14.1
20
28.187412
30
0
11
14.1
21
28.303466
31
0
39
0
210
0
220
0
230
1
0
LINE
5
91
100
AcDbEntity
8
SK1
62
256
6
ByLayer
370
18
48
1
60
0
100
AcDbLine
10
14.160307
20
28.645486
30
0
11
14.955443
21
30.830104
31
0
39
0
210
0
220
0
230
1
0
LINE
5
92
100
AcDbEntity
8
SK1
62
256
6
ByLayer
370
18
48
1
60
0
100
AcDbLine
10
14.1
20
28.055217
30
0
11
14.1
21
28.187412
31
0
39
0
210
0
220
0
230
1
0
LINE
5
93
100
AcDbEntity
8
SK1
62
256
6
ByLayer
370
18
48
1
60
0
100
AcDbLine
10
14.15
20
28.309604
30
0
11
14.15
21
27.3
31
0
39
0
210
0
220
0
230
1
0
LINE
5
94
100
AcDbEntity
8
SK1
62
256
6
ByLayer
370
18
48
1
60
0
100
AcDbLine
10
7.97
20
25.7
30
0
11
3.77
21
22.759128
31
0
39
0
210
0
220
0
230
1
0
LINE
5
95
100
AcDbEntity
8
SK1
62
256
6
ByLayer
370
18
48
1
60
0
100
AcDbLine
10
3.77
20
19.110696
30
0
11
3.77
21
17.867715
31
0
39
0
210
0
220
0
230
1
0
LINE
5
96
100
AcDbEntity
8
SK1
62
256
6
ByLayer
370
18
48
1
60
0
100
AcDbLine
10
3.77
20
22.759128
30
0
11
3.77
21
21.5
31
0
39
0
210
0
220
0
230
1
0
LINE
5
97
100
AcDbEntity
8
SK1
62
256
6
ByLayer
370
18
48
1
60
0
100
AcDbLine
10
3.77
20
21.5
30
0
11
3.77
21
20.214019
31
0
39
0
210
0
220
0
230
1
0
LINE
5
98
100
AcDbEntity
8
SK1
62
256
6
ByLayer
370
18
48
1
60
0
100
AcDbLine
10
1.5
20
18.0534
30
0
11
1.5
21
20.25
31
0
39
0
210
0
220
0
230
1
0
LINE
5
99
100
AcDbEntity
8
SK1
62
256
6
ByLayer
370
18
48
1
60
0
100
AcDbLine
10
-0.324981
20
15.10077
30
0
11
-0.324981
21
14.89923
31
0
39
0
210
0
220
0
230
1
0
LINE
5
9A
100
AcDbEntity
8
SK1
62
256
6
ByLayer
370
18
48
1
60
0
100
AcDbLine
10
-0.324981
20
17.89923
30
0
11
-0.324981
21
18.10077
31
0
39
0
210
0
220
0
230
1
0
LINE
5
9B
100
AcDbEntity
8
SK1
62
256
6
ByLayer
370
18
48
1
60
0
100
AcDbLine
10
-0.324981
20
16.529712
30
0
11
-0.324981
21
16.39923
31
0
39
0
210
0
220
0
230
1
0
LINE
5
9C
100
AcDbEntity
8
SK1
62
256
6
ByLayer
370
18
48
1
60
0
100
AcDbLine
10
-0.324981
20
13.60077
30
0
11
-0.324981
21
13.39923
31
0
39
0
210
0
220
0
230
1
0
LINE
5
9D
100
AcDbEntity
8
SK1
62
256
6
ByLayer
370
18
48
1
60
0
100
AcDbLine
10
15.186112
20
30.865023
30
0
11
15.130494
21
30.821492
31
0
39
0
210
0
220
0
230
1
0
LINE
5
9E
100
AcDbEntity
8
SK1
62
256
6
ByLayer
370
18
48
1
60
0
100
AcDbLine
10
1.5
20
10.472088
30
0
11
1.5
21
10.520084
31
0
39
0
210
0
220
0
230
1
0
LINE
5
9F
100
AcDbEntity
8
SK1
62
256
6
ByLayer
370
18
48
1
60
0
100
AcDbLine
10
1.5
20
10.520084
30
0
11
1.5
21
17.453727
31
0
39
0
210
0
220
0
230
1
0
LINE
5
A0
100
AcDbEntity
8
SK1
62
256
6
ByLayer
370
18
48
1
60
0
100
AcDbLine
10
1.5
20
7.1
30
0
11
1.5
21
10.472088
31
0
39
0
210
0
220
0
230
1
0
LINE
5
A1
100
AcDbEntity
8
SK1
62
256
6
ByLayer
370
18
48
1
60
0
100
AcDbLine
10
-0.21692
20
19.250239
30
0
11
0.342769
21
18.927102
31
0
39
0
210
0
220
0
230
1
0
LINE
5
A2
100
AcDbEntity
8
SK1
62
256
6
ByLayer
370
18
48
1
60
0
100
AcDbLine
10
0.5
20
5.552168
30
0
11
0.5
21
10.61352
31
0
39
0
210
0
220
0
230
1
0
LINE
5
A3
100
AcDbEntity
8
SK1
62
256
6
ByLayer
370
18
48
1
60
0
100
AcDbLine
10
15.68
20
31.266442
30
0
11
15.72
21
31.266442
31
0
39
0
210
0
220
0
230
1
0
LINE
5
A4
100
AcDbEntity
8
SK1
62
256
6
ByLayer
370
18
48
1
60
0
100
AcDbLine
10
17.25
20
29.501184
30
0
11
17.25
21
30.405477
31
0
39
0
210
0
220
0
230
1
0
LINE
5
A5
100
AcDbEntity
8
SK1
62
256
6
ByLayer
370
18
48
1
60
0
100
AcDbLine
10
16.305665
20
30.793191
30
0
11
16.213888
21
30.865023
31
0
39
0
210
0
220
0
230
1
0
LINE
5
A6
100
AcDbEntity
8
SK1
62
256
6
ByLayer
370
18
48
1
60
0
100
AcDbLine
10
17.25
20
26.498494
30
0
11
17.25
21
27.107852
31
0
39
0
210
0
220
0
230
1
0
LINE
5
A7
100
AcDbEntity
8
SK1
62
256
6
ByLayer
370
18
48
1
60
0
100
AcDbLine
10
17.25
20
27.107852
30
0
11
17.25
21
29.501184
31
0
39
0
210
0
220
0
230
1
0
LINE
5
A8
100
AcDbEntity
8
SK1
62
256
6
ByLayer
370
18
48
1
60
0
100
AcDbLine
10
17.3
20
34.167678
30
0
11
17.3
21
34.244932
31
0
39
0
210
0
220
0
230
1
0
LINE
5
A9
100
AcDbEntity
8
SK1
62
256
6
ByLayer
370
18
48
1
60
0
100
AcDbLine
10
17.25
20
20.214019
30
0
11
17.25
21
21.5
31
0
39
0
210
0
220
0
230
1
0
LINE
5
AA
100
AcDbEntity
8
SK1
62
256
6
ByLayer
370
18
48
1
60
0
100
AcDbLine
10
17.25
20
19.934705
30
0
11
17.25
21
20.214019
31
0
39
0
210
0
220
0
230
1
0
LINE
5
AB
100
AcDbEntity
8
SK1
62
256
6
ByLayer
370
18
48
1
60
0
100
AcDbLine
10
12.55
20
25.7
30
0
11
7.97
21
25.7
31
0
39
0
210
0
220
0
230
1
0
LINE
5
AC
100
AcDbEntity
8
SK1
62
256
6
ByLayer
370
18
48
1
60
0
100
AcDbLine
10
17.25
20
21.5
30
0
11
3.77
21
21.5
31
0
39
0
210
0
220
0
230
1
0
LINE
5
AD
100
AcDbEntity
8
SK1
62
256
6
ByLayer
370
18
48
1
60
0
100
AcDbLine
10
17.25
20
20.214019
30
0
11
3.77
21
20.214019
31
0
39
0
210
0
220
0
230
1
0
LINE
5
AE
100
AcDbEntity
8
SK1
62
256
6
ByLayer
370
18
48
1
60
0
100
AcDbLine
10
2.17
20
17.453727
30
0
11
2.17
21
10.520084
31
0
39
0
210
0
220
0
230
1
0
LINE
5
AF
100
AcDbEntity
8
SK1
62
256
6
ByLayer
370
18
48
1
60
0
100
AcDbLine
10
1.5
20
7.1
30
0
11
16.275023
21
7.1
31
0
39
0
210
0
220
0
230
1
0
LINE
5
B0
100
AcDbEntity
8
SK1
62
256
6
ByLayer
370
18
48
1
60
0
100
AcDbLine
10
16.459914
20
10.472088
30
0
11
1.5
21
10.472088
31
0
39
0
210
0
220
0
230
1
0
LINE
5
B1
100
AcDbEntity
8
SK1
62
256
6
ByLayer
370
18
48
1
60
0
100
AcDbLine
10
1.5
20
18.0534
30
0
11
2.17
21
18.0534
31
0
39
0
210
0
220
0
230
1
0
LINE
5
B2
100
AcDbEntity
8
SK1
62
256
6
ByLayer
370
18
48
1
60
0
100
AcDbLine
10
2.17
20
20.25
30
0
11
1.5
21
20.25
31
0
39
0
210
0
220
0
230
1
0
LINE
5
B3
100
AcDbEntity
8
SK1
62
256
6
ByLayer
370
18
48
1
60
0
100
AcDbLine
10
2.17
20
17.453727
30
0
11
1.5
21
17.453727
31
0
39
0
210
0
220
0
230
1
0
LINE
5
B4
100
AcDbEntity
8
SK1
62
256
6
ByLayer
370
18
48
1
60
0
100
AcDbLine
10
2.17
20
10.520084
30
0
11
1.5
21
10.520084
31
0
39
0
210
0
220
0
230
1
0
LINE
5
B5
100
AcDbEntity
8
SK1
62
256
6
ByLayer
370
18
48
1
60
0
100
AcDbLine
10
1.5
20
17.238985
30
0
11
0.5
21
17.238985
31
0
39
0
210
0
220
0
230
1
0
LINE
5
B6
100
AcDbEntity
8
SK1
62
256
6
ByLayer
370
18
48
1
60
0
100
AcDbLine
10
1.5
20
10.61352
30
0
11
0.5
21
10.61352
31
0
39
0
210
0
220
0
230
1
0
LINE
5
B7
100
AcDbEntity
8
SK1
62
256
6
ByLayer
370
18
48
1
60
0
100
AcDbLine
10
1.5
20
20
30
0
11
0.5
21
20
31
0
39
0
210
0
220
0
230
1
0
LINE
5
B8
100
AcDbEntity
8
SK1
62
256
6
ByLayer
370
18
48
1
60
0
100
AcDbLine
10
1.5
20
5.552168
30
0
11
0.5
21
5.552168
31
0
39
0
210
0
220
0
230
1
0
LINE
5
B9
100
AcDbEntity
8
SK1
62
256
6
ByLayer
370
18
48
1
60
0
100
AcDbLine
10
17.25
20
19.110696
30
0
11
3.77
21
19.110696
31
0
39
0
210
0
220
0
230
1
0
LINE
5
BA
100
AcDbEntity
8
SK1
62
256
6
ByLayer
370
18
48
1
60
0
100
AcDbLine
10
16.349934
20
30.773459
30
0
11
17.041384
21
30.651537
31
0
39
0
210
0
220
0
230
1
0
LINE
5
BB
100
AcDbEntity
8
SK1
62
256
6
ByLayer
370
18
48
1
60
0
100
AcDbLine
10
17.25
20
21.5
30
0
11
17.25
21
26.498494
31
0
39
0
210
0
220
0
230
1
0
LINE
5
BC
100
AcDbEntity
8
SK1
62
256
6
ByLayer
370
18
48
1
60
0
100
AcDbLine
10
2.17
20
20.25
30
0
11
2.17
21
18.0534
31
0
39
0
210
0
220
0
230
1
0
LINE
5
BD
100
AcDbEntity
8
SK1
62
256
6
ByLayer
370
18
48
1
60
0
100
AcDbLine
10
0.5
20
17.83612
30
0
11
1.5
21
17.83612
31
0
39
0
210
0
220
0
230
1
0
LINE
5
BE
100
AcDbEntity
8
SK1
62
256
6
ByLayer
370
18
48
1
60
0
100
AcDbLine
10
17.25
20
29.501184
30
0
11
14.583699
21
29.501184
31
0
39
0
210
0
220
0
230
1
0
LINE
5
BF
100
AcDbEntity
8
SK1
62
256
6
ByLayer
370
18
48
1
60
0
100
AcDbLine
10
14.440864
20
27.107852
30
0
11
14.13842
21
27.107852
31
0
39
0
210
0
220
0
230
1
0
LINE
5
C0
100
AcDbEntity
8
SK1
62
256
6
ByLayer
370
18
48
1
60
0
100
AcDbLine
10
17.25
20
27.107852
30
0
11
16.991829
21
27.107852
31
0
39
0
210
0
220
0
230
1
0
LINE
5
C1
100
AcDbEntity
8
SK1
62
256
6
ByLayer
370
18
48
1
60
0
100
AcDbLine
10
17.25
20
16.767052
30
0
11
17.25
21
19.110696
31
0
39
0
210
0
220
0
230
1
0
LINE
5
C2
100
AcDbEntity
8
SK1
62
256
6
ByLayer
370
18
48
1
60
0
100
AcDbLine
10
15.062715
20
30.832449
30
0
11
14.955443
21
30.830104
31
0
39
0
210
0
220
0
230
1
0
LINE
5
C3
100
AcDbEntity
8
SK1
62
256
6
ByLayer
370
18
48
1
60
0
100
AcDbLine
10
15.380237
20
31.207632
30
0
11
15.092852
21
31.207632
31
0
39
0
210
0
220
0
230
1
0
LINE
5
C4
100
AcDbEntity
8
SK1
62
256
6
ByLayer
370
18
48
1
60
0
100
AcDbLine
10
15.062715
20
30.832449
30
0
11
14.1
21
28.187412
31
0
39
0
210
0
220
0
230
1
0
LINE
5
C5
100
AcDbEntity
8
SK1
62
256
6
ByLayer
370
18
48
1
60
0
100
AcDbLine
10
13.93477
20
26.498494
30
0
11
17.25
21
26.498494
31
0
39
0
210
0
220
0
230
1
0
LINE
5
C6
100
AcDbEntity
8
SK1
62
256
6
ByLayer
370
18
48
1
60
0
100
AcDbLine
10
3.77
20
19.934705
30
0
11
17.25
21
19.934705
31
0
39
0
210
0
220
0
230
1
0
LINE
5
C7
100
AcDbEntity
8
SK1
62
256
6
ByLayer
370
18
48
1
60
0
100
AcDbLine
10
1.5
20
18.0534
30
0
11
1.5
21
17.83612
31
0
39
0
210
0
220
0
230
1
0
LINE
5
C8
100
AcDbEntity
8
SK1
62
256
6
ByLayer
370
18
48
1
60
0
100
AcDbLine
10
3.77
20
19.441389
30
0
11
3.77
21
19.934705
31
0
39
0
210
0
220
0
230
1
0
LINE
5
C9
100
AcDbEntity
8
SK1
62
256
6
ByLayer
370
18
48
1
60
0
100
AcDbLine
10
17.25
20
-14.099491
30
0
11
17.25
21
-14.9
31
0
39
0
210
0
220
0
230
1
0
LINE
5
CA
100
AcDbEntity
8
SK1
62
256
6
ByLayer
370
18
48
1
60
0
100
AcDbLine
10
1.5
20
5.552168
30
0
11
1.5
21
7.1
31
0
39
0
210
0
220
0
230
1
0
LINE
5
CB
100
AcDbEntity
8
SK1
62
256
6
ByLayer
370
18
48
1
60
0
100
AcDbLine
10
0.342769
20
5.427102
30
0
11
0.126149
21
5.552168
31
0
39
0
210
0
220
0
230
1
0
LINE
5
CC
100
AcDbEntity
8
SK1
62
256
6
ByLayer
370
18
48
1
60
0
100
AcDbLine
10
0.5
20
-5.552168
30
0
11
0.5
21
5.552168
31
0
39
0
210
0
220
0
230
1
0
LINE
5
CD
100
AcDbEntity
8
SK1
62
256
6
ByLayer
370
18
48
1
60
0
100
AcDbLine
10
-0.324981
20
4.60077
30
0
11
-0.324981
21
4.39923
31
0
39
0
210
0
220
0
230
1
0
LINE
5
CE
100
AcDbEntity
8
SK1
62
256
6
ByLayer
370
18
48
1
60
0
100
AcDbLine
10
0.342769
20
3.927102
30
0
11
-0.249981
21
4.269327
31
0
39
0
210
0
220
0
230
1
0
LINE
5
CF
100
AcDbEntity
8
SK1
62
256
6
ByLayer
370
18
48
1
60
0
100
AcDbLine
10
-0.249981
20
3.230673
30
0
11
0.342769
21
3.572898
31
0
39
0
210
0
220
0
230
1
0
LINE
5
D0
100
AcDbEntity
8
SK1
62
256
6
ByLayer
370
18
48
1
60
0
100
AcDbLine
10
0.342769
20
2.427102
30
0
11
-0.249981
21
2.769327
31
0
39
0
210
0
220
0
230
1
0
LINE
5
D1
100
AcDbEntity
8
SK1
62
256
6
ByLayer
370
18
48
1
60
0
100
AcDbLine
10
-0.324981
20
3.10077
30
0
11
-0.324981
21
2.89923
31
0
39
0
210
0
220
0
230
1
0
LINE
5
D2
100
AcDbEntity
8
SK1
62
256
6
ByLayer
370
18
48
1
60
0
100
AcDbLine
10
-0.249981
20
1.730673
30
0
11
0.342769
21
2.072898
31
0
39
0
210
0
220
0
230
1
0
LINE
5
D3
100
AcDbEntity
8
SK1
62
256
6
ByLayer
370
18
48
1
60
0
100
AcDbLine
10
-0.324981
20
1.60077
30
0
11
-0.324981
21
1.39923
31
0
39
0
210
0
220
0
230
1
0
LINE
5
D4
100
AcDbEntity
8
SK1
62
256
6
ByLayer
370
18
48
1
60
0
100
AcDbLine
10
0.342769
20
0.927102
30
0
11
-0.249981
21
1.269327
31
0
39
0
210
0
220
0
230
1
0
LINE
5
D5
100
AcDbEntity
8
SK1
62
256
6
ByLayer
370
18
48
1
60
0
100
AcDbLine
10
-0.249981
20
0.230673
30
0
11
0.342769
21
0.572898
31
0
39
0
210
0
220
0
230
1
0
LINE
5
D6
100
AcDbEntity
8
SK1
62
256
6
ByLayer
370
18
48
1
60
0
100
AcDbLine
10
-0.324981
20
0.10077
30
0
11
-0.324981
21
-0.10077
31
0
39
0
210
0
220
0
230
1
0
LINE
5
D7
100
AcDbEntity
8
SK1
62
256
6
ByLayer
370
18
48
1
60
0
100
AcDbLine
10
-0.249981
20
-0.230673
30
0
11
0.342769
21
-0.572898
31
0
39
0
210
0
220
0
230
1
0
LINE
5
D8
100
AcDbEntity
8
SK1
62
256
6
ByLayer
370
18
48
1
60
0
100
AcDbLine
10
0.342769
20
-0.927102
30
0
11
-0.249981
21
-1.269327
31
0
39
0
210
0
220
0
230
1
0
LINE
5
D9
100
AcDbEntity
8
SK1
62
256
6
ByLayer
370
18
48
1
60
0
100
AcDbLine
10
-0.324981
20
-1.39923
30
0
11
-0.324981
21
-1.60077
31
0
39
0
210
0
220
0
230
1
0
LINE
5
DA
100
AcDbEntity
8
SK1
62
256
6
ByLayer
370
18
48
1
60
0
100
AcDbLine
10
-0.249981
20
-1.730673
30
0
11
0.342769
21
-2.072898
31
0
39
0
210
0
220
0
230
1
0
LINE
5
DB
100
AcDbEntity
8
SK1
62
256
6
ByLayer
370
18
48
1
60
0
100
AcDbLine
10
0.342769
20
-2.427102
30
0
11
-0.249981
21
-2.769327
31
0
39
0
210
0
220
0
230
1
0
LINE
5
DC
100
AcDbEntity
8
SK1
62
256
6
ByLayer
370
18
48
1
60
0
100
AcDbLine
10
-0.324981
20
-2.89923
30
0
11
-0.324981
21
-3.10077
31
0
39
0
210
0
220
0
230
1
0
LINE
5
DD
100
AcDbEntity
8
SK1
62
256
6
ByLayer
370
18
48
1
60
0
100
AcDbLine
10
-0.249981
20
-3.230673
30
0
11
0.342769
21
-3.572898
31
0
39
0
210
0
220
0
230
1
0
LINE
5
DE
100
AcDbEntity
8
SK1
62
256
6
ByLayer
370
18
48
1
60
0
100
AcDbLine
10
0.342769
20
-3.927102
30
0
11
-0.249981
21
-4.269327
31
0
39
0
210
0
220
0
230
1
0
LINE
5
DF
100
AcDbEntity
8
SK1
62
256
6
ByLayer
370
18
48
1
60
0
100
AcDbLine
10
-0.324981
20
-4.39923
30
0
11
-0.324981
21
-4.60077
31
0
39
0
210
0
220
0
230
1
0
LINE
5
E0
100
AcDbEntity
8
SK1
62
256
6
ByLayer
370
18
48
1
60
0
100
AcDbLine
10
-0.249981
20
-4.730673
30
0
11
0.342769
21
-5.072898
31
0
39
0
210
0
220
0
230
1
0
LINE
5
E1
100
AcDbEntity
8
SK1
62
256
6
ByLayer
370
18
48
1
60
0
100
AcDbLine
10
0.342769
20
-5.427102
30
0
11
0.126149
21
-5.552168
31
0
39
0
210
0
220
0
230
1
0
LINE
5
E2
100
AcDbEntity
8
SK1
62
256
6
ByLayer
370
18
48
1
60
0
100
AcDbLine
10
17.25
20
0.635093
30
0
11
17.25
21
-0.635093
31
0
39
0
210
0
220
0
230
1
0
LINE
5
E3
100
AcDbEntity
8
SK1
62
256
6
ByLayer
370
18
48
1
60
0
100
AcDbLine
10
17.25
20
16.767052
30
0
11
17.25
21
14.099491
31
0
39
0
210
0
220
0
230
1
0
LINE
5
E4
100
AcDbEntity
8
SK1
62
256
6
ByLayer
370
18
48
1
60
0
100
AcDbLine
10
-0.324981
20
-10.39923
30
0
11
-0.324981
21
-10.60077
31
0
39
0
210
0
220
0
230
1
0
LINE
5
E5
100
AcDbEntity
8
SK1
62
256
6
ByLayer
370
18
48
1
60
0
100
AcDbLine
10
0.5
20
-10.61352
30
0
11
0.5
21
-5.552168
31
0
39
0
210
0
220
0
230
1
0
LINE
5
E6
100
AcDbEntity
8
SK1
62
256
6
ByLayer
370
18
48
1
60
0
100
AcDbLine
10
17.3
20
17.241616
30
0
11
17.3
21
13.75
31
0
39
0
210
0
220
0
230
1
0
LINE
5
E7
100
AcDbEntity
8
SK1
62
256
6
ByLayer
370
18
48
1
60
0
100
AcDbLine
10
1.5
20
-5.998255
30
0
11
1.5
21
-5.552168
31
0
39
0
210
0
220
0
230
1
0
LINE
5
E8
100
AcDbEntity
8
SK1
62
256
6
ByLayer
370
18
48
1
60
0
100
AcDbLine
10
17.3
20
17.550633
30
0
11
17.3
21
17.241616
31
0
39
0
210
0
220
0
230
1
0
LINE
5
E9
100
AcDbEntity
8
SK1
62
256
6
ByLayer
370
18
48
1
60
0
100
AcDbLine
10
16.519346
20
-11.06903
30
0
11
1.5
21
-11.06903
31
0
39
0
210
0
220
0
230
1
0
LINE
5
EA
100
AcDbEntity
8
SK1
62
256
6
ByLayer
370
18
48
1
60
0
100
AcDbLine
10
17.3
20
17.550633
30
0
11
17.3
21
21.387083
31
0
39
0
210
0
220
0
230
1
0
LINE
5
EB
100
AcDbEntity
8
SK1
62
256
6
ByLayer
370
18
48
1
60
0
100
AcDbLine
10
1.5
20
-11.06903
30
0
11
1.5
21
-5.998255
31
0
39
0
210
0
220
0
230
1
0
LINE
5
EC
100
AcDbEntity
8
SK1
62
256
6
ByLayer
370
18
48
1
60
0
100
AcDbLine
10
1.5
20
-5.998255
30
0
11
16.275023
21
-5.998255
31
0
39
0
210
0
220
0
230
1
0
LINE
5
ED
100
AcDbEntity
8
SK1
62
256
6
ByLayer
370
18
48
1
60
0
100
AcDbLine
10
-0.324981
20
-13.39923
30
0
11
-0.324981
21
-13.60077
31
0
39
0
210
0
220
0
230
1
0
LINE
5
EE
100
AcDbEntity
8
SK1
62
256
6
ByLayer
370
18
48
1
60
0
100
AcDbLine
10
0.126149
20
-5.552168
30
0
11
0.5
21
-5.552168
31
0
39
0
210
0
220
0
230
1
0
LINE
5
EF
100
AcDbEntity
8
SK1
62
256
6
ByLayer
370
18
48
1
60
0
100
AcDbLine
10
-0.324981
20
-17.89923
30
0
11
-0.324981
21
-18.10077
31
0
39
0
210
0
220
0
230
1
0
LINE
5
F0
100
AcDbEntity
8
SK1
62
256
6
ByLayer
370
18
48
1
60
0
100
AcDbLine
10
-0.324981
20
-16.39923
30
0
11
-0.324981
21
-16.60077
31
0
39
0
210
0
220
0
230
1
0
LINE
5
F1
100
AcDbEntity
8
SK1
62
256
6
ByLayer
370
18
48
1
60
0
100
AcDbLine
10
16.275023
20
-5.998255
30
0
11
16.275023
21
7.1
31
0
39
0
210
0
220
0
230
1
0
LINE
5
F2
100
AcDbEntity
8
SK1
62
256
6
ByLayer
370
18
48
1
60
0
100
AcDbLine
10
-0.324981
20
-14.89923
30
0
11
-0.324981
21
-15.10077
31
0
39
0
210
0
220
0
230
1
0
LINE
5
F3
100
AcDbEntity
8
SK1
62
256
6
ByLayer
370
18
48
1
60
0
100
AcDbLine
10
-0.324981
20
-7.39923
30
0
11
-0.324981
21
-7.60077
31
0
39
0
210
0
220
0
230
1
0
LINE
5
F4
100
AcDbEntity
8
SK1
62
256
6
ByLayer
370
18
48
1
60
0
100
AcDbLine
10
-0.324981
20
-5.89923
30
0
11
-0.324981
21
-6.10077
31
0
39
0
210
0
220
0
230
1
0
LINE
5
F5
100
AcDbEntity
8
SK1
62
256
6
ByLayer
370
18
48
1
60
0
100
AcDbLine
10
-0.324981
20
-8.89923
30
0
11
-0.324981
21
-9.10077
31
0
39
0
210
0
220
0
230
1
0
LINE
5
F6
100
AcDbEntity
8
SK1
62
256
6
ByLayer
370
18
48
1
60
0
100
AcDbLine
10
1.5
20
-5.552168
30
0
11
0.5
21
-5.552168
31
0
39
0
210
0
220
0
230
1
0
LINE
5
F7
100
AcDbEntity
8
SK1
62
256
6
ByLayer
370
18
48
1
60
0
100
AcDbLine
10
-0.04697
20
-10.152118
30
0
11
0.5
21
-10.61352
31
0
39
0
210
0
220
0
230
1
0
LINE
5
F8
100
AcDbEntity
8
SK1
62
256
6
ByLayer
370
18
48
1
60
0
100
AcDbLine
10
17.25
20
-14.9
30
0
11
17.155008
21
-14.994992
31
0
39
0
210
0
220
0
230
1
0
LINE
5
F9
100
AcDbEntity
8
SK1
62
256
6
ByLayer
370
18
48
1
60
0
100
AcDbLine
10
1.5
20
-10.61352
30
0
11
0.5
21
-10.61352
31
0
39
0
210
0
220
0
230
1
0
LINE
5
FA
100
AcDbEntity
8
SK1
62
256
6
ByLayer
370
18
48
1
60
0
100
AcDbLine
10
0.5
20
-20
30
0
11
0.5
21
-10.61352
31
0
39
0
210
0
220
0
230
1
0
LINE
5
FB
100
AcDbEntity
8
SK1
62
256
6
ByLayer
370
18
48
1
60
0
100
AcDbLine
10
17.25
20
-14.099487
30
0
11
17.25
21
-0.635097
31
0
39
0
210
0
220
0
230
1
0
LINE
5
FC
100
AcDbEntity
8
SK1
62
256
6
ByLayer
370
18
48
1
60
0
100
AcDbLine
10
16.213888
20
30.865023
30
0
11
16.213888
21
30.612007
31
0
39
0
210
0
220
0
230
1
0
LINE
5
FD
100
AcDbEntity
8
SK1
62
256
6
ByLayer
370
18
48
1
60
0
100
AcDbLine
10
0.5
20
17.238931
30
0
11
0.5
21
17.83612
31
0
39
0
210
0
220
0
230
1
0
LINE
5
FE
100
AcDbEntity
8
SK1
62
256
6
ByLayer
370
18
48
1
60
0
100
AcDbLine
10
15.489264
20
30.878672
30
0
11
15.489264
21
31.252355
31
0
39
0
210
0
220
0
230
1
0
LINE
5
FF
100
AcDbEntity
8
SK1
62
256
6
ByLayer
370
18
48
1
60
0
100
AcDbLine
10
17.155008
20
-14.994992
30
0
11
11.75
21
-20.4
31
0
39
0
210
0
220
0
230
1
0
LINE
5
100
100
AcDbEntity
8
SK1
62
256
6
ByLayer
370
18
48
1
60
0
100
AcDbLine
10
15.68
20
30.878595
30
0
11
15.68
21
31.266442
31
0
39
0
210
0
220
0
230
1
0
LINE
5
101
100
AcDbEntity
8
SK1
62
256
6
ByLayer
370
18
48
1
60
0
100
AcDbLine
10
1.5
20
-20.4
30
0
11
1.5
21
-11.06903
31
0
39
0
210
0
220
0
230
1
0
LINE
5
102
100
AcDbEntity
8
SK1
62
256
6
ByLayer
370
18
48
1
60
0
100
AcDbLine
10
16.127733
20
31.064445
30
0
11
16.127733
21
30.762558
31
0
39
0
210
0
220
0
230
1
0
LINE
5
103
100
AcDbEntity
8
SK1
62
256
6
ByLayer
370
18
48
1
60
0
100
AcDbLine
10
16.183086
20
30.642031
30
0
11
16.183086
21
30.905619
31
0
39
0
210
0
220
0
230
1
0
LINE
5
104
100
AcDbEntity
8
SK1
62
256
6
ByLayer
370
18
48
1
60
0
100
AcDbLine
10
17.3
20
21.387083
30
0
11
17.249997
21
21.387083
31
0
39
0
210
0
220
0
230
1
0
LINE
5
105
100
AcDbEntity
8
SK1
62
256
6
ByLayer
370
18
48
1
60
0
100
AcDbLine
10
15.186112
20
30.610898
30
0
11
15.186112
21
30.865023
31
0
39
0
210
0
220
0
230
1
0
LINE
5
106
100
AcDbEntity
8
SK1
62
256
6
ByLayer
370
18
48
1
60
0
100
AcDbLine
10
15.216914
20
30.905619
30
0
11
15.216914
21
30.64187
31
0
39
0
210
0
220
0
230
1
0
LINE
5
107
100
AcDbEntity
8
SK1
62
256
6
ByLayer
370
18
48
1
60
0
100
AcDbLine
10
17.24995
20
17.550633
30
0
11
17.3
21
17.550633
31
0
39
0
210
0
220
0
230
1
0
LINE
5
108
100
AcDbEntity
8
SK1
62
256
6
ByLayer
370
18
48
1
60
0
100
AcDbLine
10
14.1
20
28.055217
30
0
11
14.1
21
26.903089
31
0
39
0
210
0
220
0
230
1
0
LINE
5
109
100
AcDbEntity
8
SK1
62
256
6
ByLayer
370
18
48
1
60
0
100
AcDbLine
10
15.72
20
31.266442
30
0
11
15.72
21
30.878595
31
0
39
0
210
0
220
0
230
1
0
LINE
5
10A
100
AcDbEntity
8
SK1
62
256
6
ByLayer
370
18
48
1
60
0
100
AcDbLine
10
16.349934
20
30.773459
30
0
11
16.349934
21
30.568825
31
0
39
0
210
0
220
0
230
1
0
LINE
5
10B
100
AcDbEntity
8
SK1
62
256
6
ByLayer
370
18
48
1
60
0
100
AcDbLine
10
16.305665
20
30.576871
30
0
11
16.305665
21
30.793191
31
0
39
0
210
0
220
0
230
1
0
LINE
5
10C
100
AcDbEntity
8
SK1
62
256
6
ByLayer
370
18
48
1
60
0
100
AcDbLine
10
15.094335
20
30.621416
30
0
11
15.094335
21
30.577123
31
0
39
0
210
0
220
0
230
1
0
LINE
5
10D
100
AcDbEntity
8
SK1
62
256
6
ByLayer
370
18
48
1
60
0
100
AcDbLine
10
15.910736
20
31.252355
30
0
11
15.910736
21
30.878672
31
0
39
0
210
0
220
0
230
1
0
LINE
5
10E
100
AcDbEntity
8
SK1
62
256
6
ByLayer
370
18
48
1
60
0
100
AcDbLine
10
17.3
20
17.241616
30
0
11
17.24995
21
17.241616
31
0
39
0
210
0
220
0
230
1
0
LINE
5
10F
100
AcDbEntity
8
SK1
62
256
6
ByLayer
370
18
48
1
60
0
100
AcDbLine
10
17.058749
20
30.650018
30
0
11
17.058749
21
30.440155
31
0
39
0
210
0
220
0
230
1
0
LINE
5
110
100
AcDbEntity
8
SK1
62
256
6
ByLayer
370
18
48
1
60
0
100
AcDbLine
10
15.272267
20
30.762558
30
0
11
15.272267
21
31.064445
31
0
39
0
210
0
220
0
230
1
0
LINE
5
111
100
AcDbEntity
8
SK1
62
256
6
ByLayer
370
18
48
1
60
0
100
AcDbLine
10
17.041384
20
30.443272
30
0
11
17.041384
21
30.651537
31
0
39
0
210
0
220
0
230
1
0
LINE
5
112
100
AcDbEntity
8
SK1
62
256
6
ByLayer
370
18
48
1
60
0
100
AcDbLine
10
-0.324981
20
-11.89923
30
0
11
-0.324981
21
-12.10077
31
0
39
0
210
0
220
0
230
1
0
LINE
5
113
100
AcDbEntity
8
SK1
62
256
6
ByLayer
370
18
48
1
60
0
100
AcDbLine
10
-7.824981
20
-5.664551
30
0
11
-7.824981
21
5.664551
31
0
39
0
210
0
220
0
230
1
0
LINE
5
114
100
AcDbEntity
8
SK1
62
256
6
ByLayer
370
18
48
1
60
0
100
AcDbLine
10
-0.324981
20
16.529711
30
0
11
-0.324981
21
16.60077
31
0
39
0
210
0
220
0
230
1
0
LINE
5
115
100
AcDbEntity
8
SK1
62
256
6
ByLayer
370
18
48
1
60
0
100
AcDbLine
10
17.25
20
0.635097
30
0
11
17.25
21
14.099487
31
0
39
0
210
0
220
0
230
1
0
LINE
5
116
100
AcDbEntity
8
SK1
62
256
6
ByLayer
370
18
48
1
60
0
100
AcDbLine
10
17.25
20
19.934705
30
0
11
17.25
21
19.110662
31
0
39
0
210
0
220
0
230
1
0
LINE
5
117
100
AcDbEntity
8
SK1
62
256
6
ByLayer
370
18
48
1
60
0
100
AcDbLine
10
-6.824981
20
-5.9325
30
0
11
-6.824981
21
0
31
0
39
0
210
0
220
0
230
1
0
LINE
5
118
100
AcDbEntity
8
SK1
62
256
6
ByLayer
370
18
48
1
60
0
100
AcDbLine
10
-6.824981
20
0
30
0
11
-6.824981
21
5.9325
31
0
39
0
210
0
220
0
230
1
0
LINE
5
119
100
AcDbEntity
8
SK1
62
256
6
ByLayer
370
18
48
1
60
0
100
AcDbLine
10
0.224145
20
17.00441
30
0
11
-0.249981
21
16.730673
31
0
39
0
210
0
220
0
230
1
0
LINE
5
11A
100
AcDbEntity
8
SK1
62
256
6
ByLayer
370
18
48
1
60
0
100
AcDbLine
10
15.170062
20
31.419764
30
0
11
15.092852
21
31.207632
31
0
39
0
210
0
220
0
230
1
0
LINE
5
11B
100
AcDbEntity
8
SK1
62
256
6
ByLayer
370
18
48
1
60
0
100
AcDbLine
10
15.939693
20
33.534307
30
0
11
15.170062
21
31.419764
31
0
39
0
210
0
220
0
230
1
0
LINE
5
11C
100
AcDbEntity
8
SK1
62
256
6
ByLayer
370
18
48
1
60
0
100
AcDbLine
10
16
20
34.244932
30
0
11
16
21
34.167678
31
0
39
0
210
0
220
0
230
1
0
LINE
5
11D
100
AcDbEntity
8
SK1
62
256
6
ByLayer
370
18
48
1
60
0
100
AcDbLine
10
17.3
20
35.939596
30
0
11
17.3
21
36.324972
31
0
39
0
210
0
220
0
230
1
0
LINE
5
11E
100
AcDbEntity
8
SK1
62
256
6
ByLayer
370
18
48
1
60
0
100
AcDbLine
10
16
20
36.324972
30
0
11
16
21
35.939596
31
0
39
0
210
0
220
0
230
1
0
LINE
5
11F
100
AcDbEntity
8
SK1
62
256
6
ByLayer
370
18
48
1
60
0
100
AcDbLine
10
16
20
35.939596
30
0
11
17.3
21
35.939596
31
0
39
0
210
0
220
0
230
1
0
LINE
5
120
100
AcDbEntity
8
SK1
62
256
6
ByLayer
370
18
48
1
60
0
100
AcDbLine
10
17.3
20
35.939596
30
0
11
17.3
21
35.862342
31
0
39
0
210
0
220
0
230
1
0
LINE
5
121
100
AcDbEntity
8
SK1
62
256
6
ByLayer
370
18
48
1
60
0
100
AcDbLine
10
16
20
35.862342
30
0
11
16
21
35.939596
31
0
39
0
210
0
220
0
230
1
0
LINE
5
122
100
AcDbEntity
8
SK1
62
256
6
ByLayer
370
18
48
1
60
0
100
AcDbLine
10
17.3
20
31.419764
30
0
11
17.3
21
34.167678
31
0
39
0
210
0
220
0
230
1
0
LINE
5
123
100
AcDbEntity
8
SK1
62
256
6
ByLayer
370
18
48
1
60
0
100
AcDbLine
10
16
20
34.167678
30
0
11
16
21
33.876327
31
0
39
0
210
0
220
0
230
1
0
LINE
5
124
100
AcDbEntity
8
SK1
62
256
6
ByLayer
370
18
48
1
60
0
100
AcDbLine
10
17.3
20
31.419764
30
0
11
15.170062
21
31.419764
31
0
39
0
210
0
220
0
230
1
0
LINE
5
125
100
AcDbEntity
8
SK1
62
256
6
ByLayer
370
18
48
1
60
0
100
AcDbLine
10
17.3
20
21.387083
30
0
11
17.3
21
30.650018
31
0
39
0
210
0
220
0
230
1
0
LINE
5
126
100
AcDbEntity
8
SK1
62
256
6
ByLayer
370
18
48
1
60
0
100
AcDbLine
10
17.3
20
34.244932
30
0
11
17.3
21
35.862342
31
0
39
0
210
0
220
0
230
1
0
LINE
5
127
100
AcDbEntity
8
SK1
62
256
6
ByLayer
370
18
48
1
60
0
100
AcDbLine
10
16
20
35.862342
30
0
11
16
21
34.244932
31
0
39
0
210
0
220
0
230
1
0
LINE
5
128
100
AcDbEntity
8
SK1
62
256
6
ByLayer
370
18
48
1
60
0
100
AcDbLine
10
-0.249981
20
4.730673
30
0
11
0.342769
21
5.072898
31
0
39
0
210
0
220
0
230
1
0
LINE
5
129
100
AcDbEntity
8
SK1
62
256
6
ByLayer
370
18
48
1
60
0
100
AcDbLine
10
16.82101
20
37.534204
30
0
11
16.82101
21
37.981878
31
0
39
0
210
0
220
0
230
1
0
LINE
5
12A
100
AcDbEntity
8
SK1
62
256
6
ByLayer
370
18
48
1
60
0
100
AcDbLine
10
16.47899
20
37.534204
30
0
11
16.47899
21
37.981878
31
0
39
0
210
0
220
0
230
1
0
LINE
5
12B
100
AcDbEntity
8
SK1
62
256
6
ByLayer
370
18
48
1
60
0
100
AcDbLine
10
17.058749
20
30.650018
30
0
11
17.3
21
30.650018
31
0
39
0
210
0
220
0
230
1
0
LINE
5
12C
100
AcDbEntity
8
SK1
62
256
6
ByLayer
370
18
48
1
60
0
100
AcDbLine
10
15.425
20
30.878728
30
0
11
15.975
21
30.878728
31
0
39
0
210
0
220
0
230
1
0
LINE
5
12D
100
AcDbEntity
8
SK1
62
256
6
ByLayer
370
18
48
1
60
0
100
AcDbLine
10
17.3
20
31.207632
30
0
11
17.3
21
31.419764
31
0
39
0
210
0
220
0
230
1
0
LINE
5
12E
100
AcDbEntity
8
SK1
62
256
6
ByLayer
370
18
48
1
60
0
100
AcDbLine
10
17.3
20
30.650018
30
0
11
17.3
21
31.207632
31
0
39
0
210
0
220
0
230
1
0
LINE
5
12F
100
AcDbEntity
8
SK1
62
256
6
ByLayer
370
18
48
1
60
0
100
AcDbLine
10
-0.237493
20
-19.262507
30
0
11
0.5
21
-20
31
0
39
0
210
0
220
0
230
1
0
LINE
5
130
100
AcDbEntity
8
SK1
62
256
6
ByLayer
370
18
48
1
60
0
100
AcDbLine
10
-6.824981
20
-5.9325
30
0
11
-0.325106
21
-5.9325
31
0
39
0
210
0
220
0
230
1
0
LINE
5
131
100
AcDbEntity
8
SK1
62
256
6
ByLayer
370
18
48
1
60
0
100
AcDbLine
10
-0.325106
20
5.9325
30
0
11
-6.824981
21
5.9325
31
0
39
0
210
0
220
0
230
1
0
LINE
5
132
100
AcDbEntity
8
SK2
62
256
6
ByLayer
370
13
48
1
60
0
100
AcDbLine
10
29.418554
20
0
30
0
11
29.418554
21
38.4
31
0
39
0
210
0
220
0
230
1
0
LINE
5
134
100
AcDbEntity
8
SK2
62
256
6
ByLayer
370
13
48
1
60
0
100
AcDbLine
10
18.2375
20
38.4
30
0
11
32.593554
21
38.4
31
0
39
0
210
0
220
0
230
1
0
LINE
5
135
100
AcDbEntity
8
SK2
62
256
6
ByLayer
370
13
48
1
60
0
100
AcDbLine
10
13.641371
20
0
30
0
11
32.593554
21
0
31
0
39
0
210
0
220
0
230
1
0
LINE
5
136
100
AcDbEntity
8
SK2
62
256
6
ByLayer
370
18
48
1
60
0
100
AcDbLine
10
29.418554
20
38.4
30
0
11
29.836551
21
35.225002
31
0
39
0
210
0
220
0
230
1
0
LINE
5
137
100
AcDbEntity
8
SK2
62
256
6
ByLayer
370
18
48
1
60
0
100
AcDbLine
10
29.418554
20
38.4
30
0
11
29.000557
21
35.224998
31
0
39
0
210
0
220
0
230
1
0
LINE
5
138
100
AcDbEntity
8
SK2
62
256
6
ByLayer
370
18
48
1
60
0
100
AcDbLine
10
29.836551
20
35.225002
30
0
11
29.000557
21
35.224998
31
0
39
0
210
0
220
0
230
1
0
LINE
5
139
100
AcDbEntity
8
SK2
62
256
6
ByLayer
370
18
48
1
60
0
100
AcDbLine
10
29.418554
20
0
30
0
11
29.000557
21
3.174998
31
0
39
0
210
0
220
0
230
1
0
LINE
5
13A
100
AcDbEntity
8
SK2
62
256
6
ByLayer
370
18
48
1
60
0
100
AcDbLine
10
29.418554
20
0
30
0
11
29.836551
21
3.175002
31
0
39
0
210
0
220
0
230
1
0
LINE
5
13B
100
AcDbEntity
8
SK2
62
256
6
ByLayer
370
18
48
1
60
0
100
AcDbLine
10
29.000557
20
3.174998
30
0
11
29.836551
21
3.175002
31
0
39
0
210
0
220
0
230
1
0
LINE
5
13C
100
AcDbEntity
8
1
62
256
6
ByLayer
370
18
48
1
60
1
100
AcDbLine
10
1
20
-20
30
0
11
1.001
21
-20
31
0
39
0
210
0
220
0
230
1
0
LINE
5
13D
100
AcDbEntity
8
1
62
256
6
ByLayer
370
18
48
1
60
1
100
AcDbLine
10
1
20
20
30
0
11
0.999
21
20
31
0
39
0
210
0
220
0
230
1
0
LINE
5
13E
100
AcDbEntity
8
80
62
256
6
ByLayer
370
18
48
1
60
0
100
AcDbLine
10
0
20
0
30
0
11
-2
21
0
31
0
39
0
210
0
220
0
230
1
0
LINE
5
13F
100
AcDbEntity
8
81
62
256
6
ByLayer
370
18
48
1
60
0
100
AcDbLine
10
17.397146
20
38.4
30
0
11
17.397146
21
38.9
31
0
39
0
210
0
220
0
230
1
0
MTEXT
5
219
100
AcDbEntity
8
SK6
62
256
6
ByLayer
370
18
48
1
60
0
100
AcDbMText
10
-16.337865
20
-29.973838
30
0
210
0
220
0
230
1
1
\W0.7177;SL70-R123H11LC-HP 
40
3.5
41
0
44
1.084337
50
0
71
7
72
5
7
iso_b_vert
0
MTEXT
5
21D
100
AcDbEntity
8
SK2
62
256
6
ByLayer
370
18
48
1
60
0
100
AcDbMText
10
28.543391
20
15.784485
30
0
210
0
220
0
230
1
1
\W0.7528;38.4
40
3.50012
41
0
44
1.084337
50
89.9999999999999
71
7
72
5
7
iso_b_vert
0
DIMENSION
5
22C
100
AcDbEntity
8
2
62
256
6
ByLayer
370
13
48
1
60
0
100
AcDbDimension
2
DimnDraft3D1
10
-14.074904
20
20
30
0
11
-14.074904
21
-2.274277
31
0
70
32
71
5
72
1
41
1
210
0
220
0
230
1
3
Standard
100
AcDbAlignedDimension
13
-0.5875
23
-20
33
0
14
-0.5885
24
20
34
0
50
90
100
AcDbRotatedDimension
1001
ACAD
1000
DSTYLE
1002
{
1070
    74
1070
     0
1070
   279
1070
     0
1070
   172
1070
     1
1070
   173
1070
     1
1070
   340
1005
21A
1070
   271
1070
     1
1070
   272
1070
     2
1070
    77
1070
     1
1070
    73
1070
     0
1070
   171
1070
     3
1070
   274
1070
     4
1070
   177
1070
     7
1070
   176
1070
     7
1070
   178
1070
     7
1070
    78
1070
     8
1070
    48
1040
-0.005
1070
    41
1041
3.175
1070
   147
1041
1.75006
1070
    42
1041
1.5875
1070
    44
1041
3.175
1070
   140
1041
3.50012
1070
   343
1005
22D
1070
   344
1005
22D
1002
}
0
DIMENSION
5
241
100
AcDbEntity
8
SK2
62
256
6
ByLayer
370
13
48
1
60
0
100
AcDbDimension
2
DimnDraft3D2
10
17.4
20
45.323218
30
0
11
5.553176
21
45.323218
31
0
70
32
71
5
72
1
41
1
210
0
220
0
230
1
3
Standard
100
AcDbAlignedDimension
13
0
23
1.5875
33
0
14
17.4
24
39.863912
34
0
50
0
100
AcDbRotatedDimension
1001
ACAD
1000
DSTYLE
1002
{
1070
   279
1070
     0
1070
   172
1070
     1
1070
   173
1070
     1
1070
   340
1005
21A
1070
   271
1070
     6
1070
   272
1070
     2
1070
    77
1070
     1
1070
    73
1070
     0
1070
   171
1070
     3
1070
   274
1070
     4
1070
   177
1070
     7
1070
   176
1070
     7
1070
   178
1070
     7
1070
    78
1070
     8
1070
    48
1040
-0.005
1070
    41
1041
3.175
1070
   147
1041
1.75006
1070
    42
1041
1.5875
1070
    44
1041
3.175
1070
   140
1041
3.50012
1070
   343
1005
22D
1070
   344
1005
22D
1002
}
0
ENDSEC
0
SECTION
2
OBJECTS
0
DICTIONARY
5
2af
330
0
100
AcDbDictionary
280
0
281
1
3
ACAD_GROUP
350
2b0
3
ACAD_GROUP
350
2b1
3
ACAD_MLINESTYLE
350
2b2
0
DICTIONARY
5
2b0
330
0
100
AcDbDictionary
280
0
281
1
0
DICTIONARY
5
2b1
330
0
100
AcDbDictionary
280
0
281
1
3
<201730728MOD000_00>
350
24A
3
DIMENSION
350
24B
0
DICTIONARY
5
2b2
330
0
100
AcDbDictionary
280
0
281
1
3
Standard
350
18
0
GROUP
5
24A
330
2b1
100
AcDbGroup
300

70
0
71
1
340
6C
340
6E
340
70
340
71
340
73
340
75
340
76
340
77
340
78
340
79
340
7A
340
7B
340
7C
340
7D
340
7E
340
7F
340
80
340
81
340
82
340
83
340
84
340
85
340
86
340
87
340
88
340
89
340
8A
340
8B
340
8C
340
8D
340
8E
340
8F
340
90
340
91
340
92
340
93
340
94
340
95
340
96
340
97
340
98
340
99
340
9A
340
9B
340
9C
340
9D
340
9E
340
9F
340
A0
340
A1
340
A2
340
A3
340
A4
340
A5
340
A6
340
A7
340
A8
340
A9
340
AA
340
AB
340
AC
340
AD
340
AE
340
AF
340
B0
340
B1
340
B2
340
B3
340
B4
340
B5
340
B6
340
B7
340
B8
340
B9
340
BA
340
BB
340
BC
340
BD
340
BE
340
BF
340
C0
340
C1
340
C2
340
C3
340
C4
340
C5
340
C6
340
C7
340
C8
340
C9
340
CA
340
CB
340
CC
340
CD
340
CE
340
CF
340
D0
340
D1
340
D2
340
D3
340
D4
340
D5
340
D6
340
D7
340
D8
340
D9
340
DA
340
DB
340
DC
340
DD
340
DE
340
DF
340
E0
340
E1
340
E2
340
E3
340
E4
340
E5
340
E6
340
E7
340
E8
340
E9
340
EA
340
EB
340
EC
340
ED
340
EE
340
EF
340
F0
340
F1
340
F2
340
F3
340
F4
340
F5
340
F6
340
F7
340
F8
340
F9
340
FA
340
FB
340
FC
340
FD
340
FE
340
FF
340
100
340
101
340
102
340
103
340
104
340
105
340
106
340
107
340
108
340
109
340
10A
340
10B
340
10C
340
10D
340
10E
340
10F
340
110
340
111
340
112
340
113
340
114
340
115
340
116
340
117
340
118
340
119
340
11A
340
11B
340
11C
340
11D
340
11E
340
11F
340
120
340
121
340
122
340
123
340
124
340
125
340
126
340
127
340
128
340
129
340
12A
340
12B
340
12C
340
12D
340
12E
340
12F
340
130
340
131
340
132
340
134
340
135
340
136
340
137
340
138
340
139
340
13A
340
13B
340
13C
340
13D
340
13E
340
13F
340
140
340
141
340
142
340
143
340
144
340
145
340
146
340
147
340
148
340
149
340
14A
340
14B
340
14C
340
14D
340
14E
340
14F
340
150
340
151
340
152
340
153
340
154
340
155
340
156
340
157
340
158
340
159
340
15A
340
15B
340
15C
340
15D
340
15E
340
15F
340
160
340
161
340
162
340
163
340
164
340
165
340
166
340
167
340
168
340
169
340
16A
340
16B
340
16C
340
16D
340
16E
340
16F
340
170
340
171
340
172
340
173
340
174
340
175
340
176
340
177
340
178
340
179
340
17A
340
17B
340
17C
340
17D
340
17E
340
17F
340
180
340
181
340
182
340
183
340
184
340
185
340
186
340
187
340
188
340
189
340
18A
340
18B
340
18C
340
18D
340
18E
340
18F
340
190
340
191
340
192
340
193
340
194
340
195
340
196
340
197
340
198
340
199
340
19A
340
19B
340
19C
340
19D
340
19E
340
19F
340
1A0
340
1A1
340
1A2
340
1A3
340
1A4
340
1A5
340
1A6
340
1A7
340
1A8
340
1A9
340
1AA
340
1AB
340
1AC
340
1AD
340
1AE
340
1AF
340
1B0
340
1B1
340
1B2
340
1B3
340
1B4
340
1B5
340
1B6
340
1B7
340
1B8
340
1B9
340
1BA
340
1BB
340
1BC
340
1BD
340
1BE
340
1BF
340
1C0
340
1C1
340
1C2
340
1C3
340
1C4
340
1C5
340
1C6
340
1C7
340
1C8
340
1C9
340
1CA
340
1CB
340
1CC
340
1CD
340
1CE
340
1CF
340
1D0
340
1D1
340
1D2
340
1D3
340
1D4
340
1D5
340
1D6
340
1D7
340
1D8
340
1D9
340
1DA
340
1DB
340
1DC
340
1DD
340
1DE
340
1DF
340
1E0
340
1E1
340
1E2
340
1E3
340
1E4
340
1E5
340
1E6
340
1E7
340
1E8
340
1E9
340
1EA
340
1EB
340
1EC
340
1ED
340
1EE
340
1EF
340
1F0
340
1F1
340
1F2
340
1F3
340
1F4
340
1F5
340
1F6
340
1F7
340
1F8
340
1F9
340
1FA
340
1FB
340
1FC
340
1FD
340
1FE
340
1FF
340
200
340
201
340
202
340
203
340
204
340
205
340
206
340
207
340
208
340
209
340
20A
340
20B
340
20C
340
20D
340
20E
340
20F
340
210
340
211
340
212
340
213
340
214
340
215
340
216
340
217
340
132
340
134
340
135
340
21D
340
136
340
137
340
138
340
139
340
13A
340
13B
340
219
340
21D
340
22C
340
241
0
GROUP
5
24B
330
2b1
100
AcDbGroup
300

70
0
71
1
340
132
340
134
340
135
340
21D
340
136
340
137
340
138
340
139
340
13A
340
13B
0
MLINESTYLE
5
18
330
2b2
100
AcDbMlineStyle
2
Standard
70
0
3

62
256
51
90
52
90
71
2
49
-0.5
62
256
6
ByLayer
49
0.5
62
256
6
ByLayer
0
RASTERVARIABLES
5
29c
330

100
AcDbRasterVariables
90
0
70
1
71
1
72
1
0
ENDSEC
0
EOF
