0
SECTION
2
HEADER
9
$ACADVER
1
AC1015
9
$DWGCODEPAGE
3
ANSI_1252
9
$HANDSEED
5
1be
9
$ANGBASE
50
0
9
$ANGDIR
70
0
9
$ATTMODE
70
1
9
$AUNITS
70
0
9
$AUPREC
70
0
9
$CECOLOR
62
256
9
$CELTSCALE
40
1
9
$CELTYPE
6
ByLayer
9
$CELWEIGHT
370
18
9
$CLAYER
8
0
9
$CMLJUST
70
0
9
$CMLSCALE
40
1
9
$CMLSTYLE
2
Standard
9
$DIMSTYLE
2
Standard
9
$TEXTSIZE
40
0.2
9
$TEXTSTYLE
7
Standard
9
$LUNITS
70
2
9
$LUPREC
70
4
9
$EXTNAMES
290
1
9
$INSUNITS
70
4
9
$LTSCALE
40
1
9
$LWDISPLAY
290
1
9
$PDMODE
70
0
9
$PDSIZE
40
0
9
$PLINEGEN
70
0
0
ENDSEC
0
SECTION
2
CLASSES
0
CLASS
1
RASTERVARIABLES
2
AcDbRasterVariables
3
ISM
90
0
280
0
281
0
0
ENDSEC
0
SECTION
2
TABLES
0
TABLE
2
VPORT
5
1b4
100
AcDbSymbolTable
0
VPORT
5
1
100
AcDbSymbolTableRecord
100
AcDbViewportTableRecord
2
*Active
70
0
10
0
20
0
11
1
21
1
12
-1
22
1
13
0
23
0
14
0.5
24
0.5
15
10
25
10
16
0
26
0
36
1
17
0
27
0
37
0
0
ENDTAB
0
TABLE
2
LTYPE
5
1b5
100
AcDbSymbolTable
0
LTYPE
5
14
100
AcDbSymbolTableRecord
100
AcDbLinetypeTableRecord
70
0
2
ByBlock
3

72
65
73
0
40
0
0
LTYPE
5
15
100
AcDbSymbolTableRecord
100
AcDbLinetypeTableRecord
70
0
2
ByLayer
3

72
65
73
0
40
0
0
LTYPE
5
16
100
AcDbSymbolTableRecord
100
AcDbLinetypeTableRecord
70
0
2
CONTINUOUS
3
Solid line
72
65
73
0
40
0
0
LTYPE
5
6A
100
AcDbSymbolTableRecord
100
AcDbLinetypeTableRecord
70
0
2
CENTER
3
____ _ ____ _ ____ _ ____
72
65
73
4
40
47.5
49
22
74
0
49
-8.5
74
0
49
8.5
74
0
49
-8.5
74
0
0
LTYPE
5
6B
100
AcDbSymbolTableRecord
100
AcDbLinetypeTableRecord
70
0
2
DASHED
3
__ __ __ __ __ __ __ __ __
72
65
73
2
40
25.72
49
12.86
74
0
49
-12.86
74
0
0
ENDTAB
0
TABLE
2
LAYER
5
1b6
100
AcDbSymbolTable
0
LAYER
5
10
100
AcDbSymbolTableRecord
100
AcDbLayerTableRecord
2
0
70
0
62
7
6
CONTINUOUS
290
1
370
-3
390
0
0
LAYER
5
6D
100
AcDbSymbolTableRecord
100
AcDbLayerTableRecord
2
81
70
0
62
-3
6
CONTINUOUS
290
1
370
-3
390
0
0
LAYER
5
6F
100
AcDbSymbolTableRecord
100
AcDbLayerTableRecord
2
80
70
0
62
-6
6
CONTINUOUS
290
1
370
-3
390
0
0
LAYER
5
74
100
AcDbSymbolTableRecord
100
AcDbLayerTableRecord
2
2
70
0
62
7
6
CONTINUOUS
290
1
370
-3
390
0
0
LAYER
5
78
100
AcDbSymbolTableRecord
100
AcDbLayerTableRecord
2
1
70
0
62
4
6
CONTINUOUS
290
1
370
-3
390
0
0
LAYER
5
90
100
AcDbSymbolTableRecord
100
AcDbLayerTableRecord
2
4
70
0
62
-2
6
CENTER
290
1
370
-3
390
0
0
LAYER
5
1a0
100
AcDbSymbolTableRecord
100
AcDbLayerTableRecord
2
SK2
70
0
62
7
6
CONTINUOUS
290
1
370
-3
390
0
0
LAYER
5
1a1
100
AcDbSymbolTableRecord
100
AcDbLayerTableRecord
2
SK1
70
0
62
4
6
CONTINUOUS
290
1
370
-3
390
0
0
LAYER
5
1a2
100
AcDbSymbolTableRecord
100
AcDbLayerTableRecord
2
SK4
70
0
62
2
6
CENTER
290
1
370
-3
390
0
0
LAYER
5
1a3
100
AcDbSymbolTableRecord
100
AcDbLayerTableRecord
2
SK6
70
0
62
5
6
CONTINUOUS
290
1
370
-3
390
0
0
ENDTAB
0
TABLE
2
STYLE
5
1b7
100
AcDbSymbolTable
0
STYLE
5
11
100
AcDbSymbolTableRecord
100
AcDbTextStyleTableRecord
2
Standard
3
txt
70
0
71
0
40
0
41
1
42
0
50
0
0
STYLE
5
FC
100
AcDbSymbolTableRecord
100
AcDbTextStyleTableRecord
2
iso_b_vert
3
simplex.shx
70
0
71
0
40
0
41
1
42
0
50
0
0
STYLE
5
FD
100
AcDbSymbolTableRecord
100
AcDbTextStyleTableRecord
2
DWGDirectTextStyle
3
simplex
70
0
71
0
40
0
41
1
42
0
50
0
0
ENDTAB
0
TABLE
2
DIMSTYLE
5
1b8
100
AcDbSymbolTable
100
AcDbDimStyleTable
0
DIMSTYLE
105
27
100
AcDbSymbolTableRecord
100
AcDbDimStyleTableRecord
2
Standard
70
0
3
<>
41
0.18
42
0.0625
44
0.18
140
0.18
147
0.09
73
0
74
0
77
1
271
2
275
0
278
52
280
0
340
11
0
ENDTAB
0
TABLE
2
VIEW
5
1b9
100
AcDbSymbolTable
0
ENDTAB
0
TABLE
2
UCS
5
1ba
100
AcDbSymbolTable
0
ENDTAB
0
TABLE
2
APPID
5
1bb
100
AcDbSymbolTable
0
APPID
5
12
100
AcDbSymbolTableRecord
100
AcDbRegAppTableRecord
2
ACAD
70
0
0
ENDTAB
0
TABLE
2
BLOCK_RECORD
5
1bc
100
AcDbSymbolTable
0
BLOCK_RECORD
5
1F
100
AcDbSymbolTableRecord
100
AcDbBlockTableRecord
2
*Model_Space
340
0
70
0
0
BLOCK_RECORD
5
1B
100
AcDbSymbolTableRecord
100
AcDbBlockTableRecord
2
*Paper_Space
340
0
70
0
0
BLOCK_RECORD
5
23
100
AcDbSymbolTableRecord
100
AcDbBlockTableRecord
2
*Paper_Space0
340
0
70
0
0
BLOCK_RECORD
5
FF
100
AcDbSymbolTableRecord
100
AcDbBlockTableRecord
2
DimnDraft3D1
340
0
70
0
0
BLOCK_RECORD
5
109
100
AcDbSymbolTableRecord
100
AcDbBlockTableRecord
2
DimnDraft3D2
340
0
70
0
0
BLOCK_RECORD
5
113
100
AcDbSymbolTableRecord
100
AcDbBlockTableRecord
2
DimnDraft3D3
340
0
70
0
0
BLOCK_RECORD
5
11D
100
AcDbSymbolTableRecord
100
AcDbBlockTableRecord
2
DimnDraft3D4
340
0
70
0
0
BLOCK_RECORD
5
127
100
AcDbSymbolTableRecord
100
AcDbBlockTableRecord
2
DimnDraft3D5
340
0
70
0
0
BLOCK_RECORD
5
131
100
AcDbSymbolTableRecord
100
AcDbBlockTableRecord
2
DimnDraft3D6
340
0
70
0
0
BLOCK_RECORD
5
13C
100
AcDbSymbolTableRecord
100
AcDbBlockTableRecord
2
DimnDraft3D7
340
0
70
0
0
ENDTAB
0
ENDSEC
0
SECTION
2
BLOCKS
0
BLOCK
5
20
100
AcDbEntity
8
0
100
AcDbBlockBegin
2
*Model_Space
70
0
10
0
20
0
30
0
3
*Model_Space
0
ENDBLK
5
21
100
AcDbEntity
8
0
100
AcDbBlockEnd
0
BLOCK
5
1C
100
AcDbEntity
8
0
100
AcDbBlockBegin
2
*Paper_Space
70
0
10
0
20
0
30
0
3
*Paper_Space
0
ENDBLK
5
1D
100
AcDbEntity
8
0
100
AcDbBlockEnd
0
BLOCK
5
24
100
AcDbEntity
8
0
100
AcDbBlockBegin
2
*Paper_Space0
70
0
10
0
20
0
30
0
3
*Paper_Space0
0
ENDBLK
5
25
100
AcDbEntity
8
0
100
AcDbBlockEnd
0
BLOCK
5
106
100
AcDbEntity
8
0
100
AcDbBlockBegin
2
DimnDraft3D1
70
0
10
0
20
0
30
0
3
DimnDraft3D1
0
MTEXT
5
100
100
AcDbEntity
8
SK2
62
256
6
ByLayer
370
13
48
1
60
0
100
AcDbMText
10
22.734046
20
-32.888398
30
0
210
0
220
0
230
1
1
\W0.7317;56,50
40
3.5
41
0
44
1.084337
50
0
71
7
72
5
7
iso_b_vert
0
LINE
5
101
100
AcDbEntity
8
SK2
62
256
6
ByLayer
370
13
48
1
60
0
100
AcDbLine
10
0
20
-1.5875
30
0
11
0
21
-35.763398
31
0
39
0
210
0
220
0
230
1
0
LINE
5
102
100
AcDbEntity
8
SK2
62
256
6
ByLayer
370
13
48
1
60
0
100
AcDbLine
10
56.502672
20
-3.6375
30
0
11
56.502672
21
-35.763398
31
0
39
0
210
0
220
0
230
1
0
LINE
5
103
100
AcDbEntity
8
SK2
62
256
6
ByLayer
370
13
48
1
60
0
100
AcDbLine
10
0
20
-33.763398
30
0
11
56.502672
21
-33.763398
31
0
39
0
210
0
220
0
230
1
0
SOLID
5
104
100
AcDbEntity
8
SK2
62
256
6
ByLayer
370
13
48
1
60
0
100
AcDbTrace
10
0
20
-33.763398
30
0
11
3.499998
21
-33.302615
31
0
12
3.500002
22
-34.224182
32
0
13
0
23
-33.763398
33
0
39
0
210
0
220
0
230
1
0
SOLID
5
105
100
AcDbEntity
8
SK2
62
256
6
ByLayer
370
13
48
1
60
0
100
AcDbTrace
10
56.502672
20
-33.763398
30
0
11
53.002673
21
-34.224182
31
0
12
53.00267
22
-33.302615
32
0
13
56.502672
23
-33.763398
33
0
39
0
210
0
220
0
230
1
0
ENDBLK
5
107
100
AcDbEntity
8
0
100
AcDbBlockEnd
0
BLOCK
5
110
100
AcDbEntity
8
0
100
AcDbBlockBegin
2
DimnDraft3D2
70
0
10
0
20
0
30
0
3
DimnDraft3D2
0
MTEXT
5
10A
100
AcDbEntity
8
SK2
62
256
6
ByLayer
370
13
48
1
60
0
100
AcDbMText
10
2.524893
20
-49.867985
30
0
210
0
220
0
230
1
1
\W0.6930;100,00
40
3.5
41
0
44
1.084337
50
0
71
7
72
5
7
iso_b_vert
0
LINE
5
10B
100
AcDbEntity
8
SK2
62
256
6
ByLayer
370
13
48
1
60
0
100
AcDbLine
10
-42.86
20
-3.6375
30
0
11
-42.86
21
-52.742985
31
0
39
0
210
0
220
0
230
1
0
LINE
5
10C
100
AcDbEntity
8
SK2
62
256
6
ByLayer
370
13
48
1
60
0
100
AcDbLine
10
57.14
20
-1.5875
30
0
11
57.14
21
-52.742985
31
0
39
0
210
0
220
0
230
1
0
LINE
5
10D
100
AcDbEntity
8
SK2
62
256
6
ByLayer
370
13
48
1
60
0
100
AcDbLine
10
-42.86
20
-50.742985
30
0
11
57.14
21
-50.742985
31
0
39
0
210
0
220
0
230
1
0
SOLID
5
10E
100
AcDbEntity
8
SK2
62
256
6
ByLayer
370
13
48
1
60
0
100
AcDbTrace
10
-42.86
20
-50.742985
30
0
11
-39.360002
21
-50.282202
31
0
12
-39.359998
22
-51.203769
32
0
13
-42.86
23
-50.742985
33
0
39
0
210
0
220
0
230
1
0
SOLID
5
10F
100
AcDbEntity
8
SK2
62
256
6
ByLayer
370
13
48
1
60
0
100
AcDbTrace
10
57.14
20
-50.742985
30
0
11
53.640002
21
-51.203769
31
0
12
53.639998
22
-50.282202
32
0
13
57.14
23
-50.742985
33
0
39
0
210
0
220
0
230
1
0
ENDBLK
5
111
100
AcDbEntity
8
0
100
AcDbBlockEnd
0
BLOCK
5
11A
100
AcDbEntity
8
0
100
AcDbBlockBegin
2
DimnDraft3D3
70
0
10
0
20
0
30
0
3
DimnDraft3D3
0
MTEXT
5
114
100
AcDbEntity
8
SK2
62
256
6
ByLayer
370
13
48
1
60
0
100
AcDbMText
10
30.007105
20
-22.565881
30
0
210
0
220
0
230
1
1
\W0.7581;45,00
40
3.5
41
0
44
1.084337
50
0
71
7
72
5
7
iso_b_vert
0
LINE
5
115
100
AcDbEntity
8
SK2
62
256
6
ByLayer
370
13
48
1
60
0
100
AcDbLine
10
12.14
20
-3.6375
30
0
11
12.14
21
-25.440881
31
0
39
0
210
0
220
0
230
1
0
LINE
5
116
100
AcDbEntity
8
SK2
62
256
6
ByLayer
370
13
48
1
60
0
100
AcDbLine
10
57.14
20
-1.5875
30
0
11
57.14
21
-25.440881
31
0
39
0
210
0
220
0
230
1
0
LINE
5
117
100
AcDbEntity
8
SK2
62
256
6
ByLayer
370
13
48
1
60
0
100
AcDbLine
10
12.14
20
-23.440881
30
0
11
57.14
21
-23.440881
31
0
39
0
210
0
220
0
230
1
0
SOLID
5
118
100
AcDbEntity
8
SK2
62
256
6
ByLayer
370
13
48
1
60
0
100
AcDbTrace
10
12.14
20
-23.440881
30
0
11
15.639998
21
-22.980097
31
0
12
15.640002
22
-23.901665
32
0
13
12.14
23
-23.440881
33
0
39
0
210
0
220
0
230
1
0
SOLID
5
119
100
AcDbEntity
8
SK2
62
256
6
ByLayer
370
13
48
1
60
0
100
AcDbTrace
10
57.14
20
-23.440881
30
0
11
53.640002
21
-23.901665
31
0
12
53.639998
22
-22.980097
32
0
13
57.14
23
-23.440881
33
0
39
0
210
0
220
0
230
1
0
ENDBLK
5
11B
100
AcDbEntity
8
0
100
AcDbBlockEnd
0
BLOCK
5
124
100
AcDbEntity
8
0
100
AcDbBlockBegin
2
DimnDraft3D4
70
0
10
0
20
0
30
0
3
DimnDraft3D4
0
MTEXT
5
11E
100
AcDbEntity
8
SK2
62
256
6
ByLayer
370
13
48
1
60
0
100
AcDbMText
10
67.996425
20
-13.977503
30
0
210
0
220
0
230
1
1
\W0.7383;0,64
40
3.5
41
0
44
1.084337
50
0
71
7
72
5
7
iso_b_vert
0
LINE
5
11F
100
AcDbEntity
8
SK2
62
256
6
ByLayer
370
13
48
1
60
0
100
AcDbLine
10
57.14
20
-1.5875
30
0
11
57.14
21
-13.352503
31
0
39
0
210
0
220
0
230
1
0
LINE
5
120
100
AcDbEntity
8
SK2
62
256
6
ByLayer
370
13
48
1
60
0
100
AcDbLine
10
56.502672
20
-3.6375
30
0
11
56.502672
21
-13.352503
31
0
39
0
210
0
220
0
230
1
0
LINE
5
121
100
AcDbEntity
8
SK2
62
256
6
ByLayer
370
13
48
1
60
0
100
AcDbLine
10
47.752672
20
-11.352503
30
0
11
65.621425
21
-11.352503
31
0
39
0
210
0
220
0
230
1
0
SOLID
5
122
100
AcDbEntity
8
SK2
62
256
6
ByLayer
370
13
48
1
60
0
100
AcDbTrace
10
57.14
20
-11.352503
30
0
11
60.639998
21
-10.891719
31
0
12
60.640002
22
-11.813287
32
0
13
57.14
23
-11.352503
33
0
39
0
210
0
220
0
230
1
0
SOLID
5
123
100
AcDbEntity
8
SK2
62
256
6
ByLayer
370
13
48
1
60
0
100
AcDbTrace
10
56.502672
20
-11.352503
30
0
11
53.002673
21
-11.813287
31
0
12
53.00267
22
-10.891719
32
0
13
56.502672
23
-11.352503
33
0
39
0
210
0
220
0
230
1
0
ENDBLK
5
125
100
AcDbEntity
8
0
100
AcDbBlockEnd
0
BLOCK
5
12E
100
AcDbEntity
8
0
100
AcDbBlockBegin
2
DimnDraft3D5
70
0
10
0
20
0
30
0
3
DimnDraft3D5
0
MTEXT
5
128
100
AcDbEntity
8
SK2
62
256
6
ByLayer
370
13
48
1
60
0
100
AcDbMText
10
0.314664
20
-41.518428
30
0
210
0
220
0
230
1
1
\W0.7317;99,36
40
3.5
41
0
44
1.084337
50
0
71
7
72
5
7
iso_b_vert
0
LINE
5
129
100
AcDbEntity
8
SK2
62
256
6
ByLayer
370
13
48
1
60
0
100
AcDbLine
10
-42.86
20
-3.6375
30
0
11
-42.86
21
-44.393428
31
0
39
0
210
0
220
0
230
1
0
LINE
5
12A
100
AcDbEntity
8
SK2
62
256
6
ByLayer
370
13
48
1
60
0
100
AcDbLine
10
56.502672
20
-3.6375
30
0
11
56.502672
21
-44.393428
31
0
39
0
210
0
220
0
230
1
0
LINE
5
12B
100
AcDbEntity
8
SK2
62
256
6
ByLayer
370
13
48
1
60
0
100
AcDbLine
10
-42.86
20
-42.393428
30
0
11
56.502672
21
-42.393428
31
0
39
0
210
0
220
0
230
1
0
SOLID
5
12C
100
AcDbEntity
8
SK2
62
256
6
ByLayer
370
13
48
1
60
0
100
AcDbTrace
10
-42.86
20
-42.393428
30
0
11
-39.360002
21
-41.932645
31
0
12
-39.359998
22
-42.854212
32
0
13
-42.86
23
-42.393428
33
0
39
0
210
0
220
0
230
1
0
SOLID
5
12D
100
AcDbEntity
8
SK2
62
256
6
ByLayer
370
13
48
1
60
0
100
AcDbTrace
10
56.502672
20
-42.393428
30
0
11
53.002673
21
-42.854212
31
0
12
53.00267
22
-41.932645
32
0
13
56.502672
23
-42.393428
33
0
39
0
210
0
220
0
230
1
0
ENDBLK
5
12F
100
AcDbEntity
8
0
100
AcDbBlockEnd
0
BLOCK
5
139
100
AcDbEntity
8
0
100
AcDbBlockBegin
2
DimnDraft3D6
70
0
10
0
20
0
30
0
3
DimnDraft3D6
0
MTEXT
5
132
100
AcDbEntity
8
SK2
62
256
6
ByLayer
370
13
48
1
60
0
100
AcDbMText
10
-50.610163
20
21.39918
30
0
210
0
220
0
230
1
1
\W0.6977;4,100
40
3.5
41
0
44
1.084337
50
90
71
7
72
5
7
iso_b_vert
0
MTEXT
5
133
100
AcDbEntity
8
SK2
62
256
6
ByLayer
370
13
48
1
60
0
100
AcDbMText
10
-50.610163
20
16.176524
30
0
210
0
220
0
230
1
1
%%c
40
3.5
41
0
44
1.084337
50
90
71
7
72
5
7
iso_b_vert
0
LINE
5
134
100
AcDbEntity
8
SK2
62
256
6
ByLayer
370
13
48
1
60
0
100
AcDbLine
10
-44.4475
20
-2.05
30
0
11
-55.235163
21
-2.05
31
0
39
0
210
0
220
0
230
1
0
LINE
5
135
100
AcDbEntity
8
SK2
62
256
6
ByLayer
370
13
48
1
60
0
100
AcDbLine
10
-44.4475
20
2.05
30
0
11
-55.235163
21
2.05
31
0
39
0
210
0
220
0
230
1
0
LINE
5
136
100
AcDbEntity
8
SK2
62
256
6
ByLayer
370
13
48
1
60
0
100
AcDbLine
10
-53.235163
20
12.02418
30
0
11
-53.235163
21
-10.8
31
0
39
0
210
0
220
0
230
1
0
SOLID
5
137
100
AcDbEntity
8
SK2
62
256
6
ByLayer
370
13
48
1
60
0
100
AcDbTrace
10
-53.235163
20
-2.05
30
0
11
-52.774379
21
-5.549998
31
0
12
-53.695946
22
-5.550002
32
0
13
-53.235163
23
-2.05
33
0
39
0
210
0
220
0
230
1
0
SOLID
5
138
100
AcDbEntity
8
SK2
62
256
6
ByLayer
370
13
48
1
60
0
100
AcDbTrace
10
-53.235163
20
2.05
30
0
11
-53.695946
21
5.549998
31
0
12
-52.774379
22
5.550002
32
0
13
-53.235163
23
2.05
33
0
39
0
210
0
220
0
230
1
0
ENDBLK
5
13A
100
AcDbEntity
8
0
100
AcDbBlockEnd
0
BLOCK
5
144
100
AcDbEntity
8
0
100
AcDbBlockBegin
2
DimnDraft3D7
70
0
10
0
20
0
30
0
3
DimnDraft3D7
0
MTEXT
5
13D
100
AcDbEntity
8
2
62
256
6
ByLayer
370
13
48
1
60
0
100
AcDbMText
10
70.098343
20
19.992266
30
0
210
0
220
0
230
1
1
\W0.6977;4,100
40
3.5
41
0
44
1.084337
50
90
71
7
72
5
7
iso_b_vert
0
MTEXT
5
13E
100
AcDbEntity
8
2
62
256
6
ByLayer
370
13
48
1
60
0
100
AcDbMText
10
70.098343
20
14.76961
30
0
210
0
220
0
230
1
1
%%c
40
3.5
41
0
44
1.084337
50
90
71
7
72
5
7
iso_b_vert
0
LINE
5
13F
100
AcDbEntity
8
2
62
256
6
ByLayer
370
13
48
1
60
0
100
AcDbLine
10
58.090172
20
-2.05
30
0
11
69.473343
21
-2.05
31
0
39
0
210
0
220
0
230
1
0
LINE
5
140
100
AcDbEntity
8
2
62
256
6
ByLayer
370
13
48
1
60
0
100
AcDbLine
10
58.090172
20
2.05
30
0
11
69.473343
21
2.05
31
0
39
0
210
0
220
0
230
1
0
LINE
5
141
100
AcDbEntity
8
2
62
256
6
ByLayer
370
13
48
1
60
0
100
AcDbLine
10
67.473343
20
10.617266
30
0
11
67.473343
21
-10.8
31
0
39
0
210
0
220
0
230
1
0
SOLID
5
142
100
AcDbEntity
8
2
62
256
6
ByLayer
370
13
48
1
60
0
100
AcDbTrace
10
67.473343
20
-2.05
30
0
11
67.934126
21
-5.549998
31
0
12
67.012559
22
-5.550002
32
0
13
67.473343
23
-2.05
33
0
39
0
210
0
220
0
230
1
0
SOLID
5
143
100
AcDbEntity
8
2
62
256
6
ByLayer
370
13
48
1
60
0
100
AcDbTrace
10
67.473343
20
2.05
30
0
11
67.012559
21
5.549998
31
0
12
67.934126
22
5.550002
32
0
13
67.473343
23
2.05
33
0
39
0
210
0
220
0
230
1
0
ENDBLK
5
145
100
AcDbEntity
8
0
100
AcDbBlockEnd
0
ENDSEC
0
SECTION
2
ENTITIES
0
ELLIPSE
5
99
100
AcDbEntity
8
1
62
256
6
ByLayer
370
18
48
1
60
0
100
AcDbEllipse
10
38.994459
20
-6.609038
30
0
11
17.9910716238703
21
7.54015085506922
31
0
210
0
220
0
230
-1
40
0.312186
41
0.138912401704338
42
0.142561801316181
0
ELLIPSE
5
9A
100
AcDbEntity
8
1
62
256
6
ByLayer
370
18
48
1
60
0
100
AcDbEllipse
10
57.167695
20
-0.000547
30
0
11
3.0276970931227
21
-0.931986163740485
31
0
210
0
220
0
230
-1
40
0.603219
41
2.13993903422805
42
2.4846772325883
0
ELLIPSE
5
9B
100
AcDbEntity
8
1
62
256
6
ByLayer
370
18
48
1
60
0
100
AcDbEllipse
10
2.539988
20
1E-06
30
0
11
0.00156638848091956
21
2.01627332194752
31
0
210
0
220
0
230
-1
40
0.00578
41
2.21351852697039
42
3.00671260979999
0
ELLIPSE
5
9C
100
AcDbEntity
8
1
62
256
6
ByLayer
370
18
48
1
60
0
100
AcDbEllipse
10
55.07865
20
1.552974
30
0
11
2.56271845685508
21
4.07366704102822
31
0
210
0
220
0
230
-1
40
0.533569
41
1.62634858321642
42
1.98835796445535
0
ELLIPSE
5
9D
100
AcDbEntity
8
1
62
256
6
ByLayer
370
18
48
1
60
0
100
AcDbEllipse
10
12.139969
20
-4.9E-05
30
0
11
0.00904962655387419
21
-2.02231673811512
31
0
210
0
220
0
230
-1
40
0.000452
41
2.63700209700392
42
2.71796146994297
0
ELLIPSE
5
9E
100
AcDbEntity
8
1
62
256
6
ByLayer
370
18
48
1
60
0
100
AcDbEllipse
10
12.139968
20
-5E-06
30
0
11
0.00904943590081525
21
-2.02227614002756
31
0
210
0
220
0
230
-1
40
0.000452
41
1.46671208797788
42
1.57216164910249
0
ELLIPSE
5
9F
100
AcDbEntity
8
1
62
256
6
ByLayer
370
13
48
1
60
0
100
AcDbEllipse
10
57.07238
20
0.941407
30
0
11
1.22527352816794
21
-0.372444003444902
31
0
210
0
220
0
230
-1
40
0.59729
41
2.14701833896257
42
2.30702840891084
0
POINT
5
6C
100
AcDbEntity
8
81
62
256
6
ByLayer
370
18
48
1
60
0
100
AcDbPoint
10
57.14
20
0
30
0
39
0
210
0
220
0
230
1
50
360
0
POINT
5
6E
100
AcDbEntity
8
80
62
256
6
ByLayer
370
18
48
1
60
0
100
AcDbPoint
10
0
20
0
30
0
39
0
210
0
220
0
230
1
50
360
0
POINT
5
70
100
AcDbEntity
8
SK2
62
256
6
ByLayer
370
18
48
1
60
1
100
AcDbPoint
10
-42.86
20
-2.05
30
0
39
0
210
0
220
0
230
1
50
360
0
POINT
5
72
100
AcDbEntity
8
SK2
62
256
6
ByLayer
370
18
48
1
60
1
100
AcDbPoint
10
-42.86
20
2.05
30
0
39
0
210
0
220
0
230
1
50
360
0
POINT
5
73
100
AcDbEntity
8
2
62
256
6
ByLayer
370
18
48
1
60
1
100
AcDbPoint
10
56.502672
20
-2.05
30
0
39
0
210
0
220
0
230
1
50
360
0
POINT
5
75
100
AcDbEntity
8
2
62
256
6
ByLayer
370
18
48
1
60
1
100
AcDbPoint
10
56.502672
20
2.05
30
0
39
0
210
0
220
0
230
1
50
360
0
SPLINE
5
A0
100
AcDbEntity
8
1
62
256
6
ByLayer
370
18
48
1
60
0
100
AcDbSpline
70
4
71
2
72
6
73
3
40
0
40
0
40
0
40
1
40
1
40
1
41
1
10
34.3897929465576
20
-0.0127495415289616
30
0
41
1
10
34.3900542981009
20
-0.0128357059580537
30
0
41
1
10
34.3903156459766
20
-0.0129312520680855
30
0
0
SPLINE
5
A1
100
AcDbEntity
8
1
62
256
6
ByLayer
370
18
48
1
60
0
100
AcDbSpline
70
4
71
3
72
12
73
8
40
0
40
0
40
0
40
0
40
0.315013282111471
40
0.569638485730755
40
0.78339895568558
40
0.968147997778604
40
1
40
1
40
1
40
1
41
1
10
3.43229852460098
20
-1.83580623223924
30
0
41
1
10
3.64289346398607
20
-1.83508459522562
30
0
41
1
10
4.0237237618058
20
-1.8339953231775
30
0
41
1
10
4.54886264013669
20
-1.83363868222071
30
0
41
1
10
4.98459794249757
20
-1.83278107461803
30
0
41
1
10
5.27353278139992
20
-1.83205657415868
30
0
41
1
10
5.41879660652091
20
-1.83162376259125
30
0
41
1
10
5.44015556172468
20
-1.83155860029603
30
0
0
SPLINE
5
A2
100
AcDbEntity
8
1
62
256
6
ByLayer
370
18
48
1
60
0
100
AcDbSpline
70
4
71
3
72
13
73
9
40
0
40
0
40
0
40
0
40
0.310834908796293
40
0.545657233757541
40
0.70522631978938
40
0.837007500355631
40
0.968789347987301
40
1
40
1
40
1
40
1
41
1
10
25.4045940154198
20
1.81402860971573
30
0
41
1
10
25.1461236030053
20
1.8146561263683
30
0
41
1
10
24.6923700453506
20
1.8158734466422
30
0
41
1
10
24.1058504847313
20
1.81758942826426
30
0
41
1
10
23.6682556441318
20
1.81916161605494
30
0
41
1
10
23.3164078833165
20
1.82021902239075
30
0
41
1
10
23.0713100174246
20
1.82059091060219
30
0
41
1
10
22.9357692319913
20
1.8208091696076
30
0
41
1
10
22.9098146903119
20
1.82085157319858
30
0
0
SPLINE
5
A3
100
AcDbEntity
8
1
62
256
6
ByLayer
370
18
48
1
60
0
100
AcDbSpline
70
4
71
1
72
4
73
2
40
0
40
0
40
1
40
1
41
1
10
29.0334379885184
20
1.89372733643057
30
0
41
1
10
29.0334173840261
20
1.89372746565911
30
0
0
SPLINE
5
A4
100
AcDbEntity
8
1
62
256
6
ByLayer
370
18
48
1
60
0
100
AcDbSpline
70
4
71
3
72
10
73
6
40
0
40
0
40
0
40
0
40
0.48659935365238
40
0.848333639519679
40
1
40
1
40
1
40
1
41
1
10
38.8287940202721
20
-1.81191517199255
30
0
41
1
10
39.1061631814362
20
-1.81168668216989
30
0
41
1
10
39.5897529755719
20
-1.81116155673942
30
0
41
1
10
40.1599010952198
20
-1.8101683564513
30
0
41
1
10
40.4525981976311
20
-1.80966031080152
30
0
41
1
10
40.5390602724224
20
-1.80952480363712
30
0
0
SPLINE
5
A5
100
AcDbEntity
8
1
62
256
6
ByLayer
370
18
48
1
60
0
100
AcDbSpline
70
4
71
3
72
12
73
8
40
0
40
0
40
0
40
0
40
0.32246962761622
40
0.566426740242043
40
0.732473380871061
40
0.869879562053201
40
1
40
1
40
1
40
1
41
1
10
43.096582928838
20
1.80571070641943
30
0
41
1
10
42.8394510576965
20
1.80588792653597
30
0
41
1
10
42.3877778291517
20
1.80640136170578
30
0
41
1
10
41.8036353867418
20
1.80768993797494
30
0
41
1
10
41.367100654416
20
1.80869350024554
30
0
41
1
10
41.0214006487941
20
1.80894477470116
30
0
41
1
10
40.8081123019903
20
1.80915378009809
30
0
41
1
10
40.7043629190747
20
1.80928720884739
30
0
0
SPLINE
5
A6
100
AcDbEntity
8
1
62
256
6
ByLayer
370
18
48
1
60
0
100
AcDbSpline
70
4
71
1
72
4
73
2
40
0
40
0
40
1
40
1
41
1
10
46.7294251556059
20
-1.89463979771321
30
0
41
1
10
46.7294853695811
20
-1.8946358004394
30
0
0
SPLINE
5
A7
100
AcDbEntity
8
1
62
256
6
ByLayer
370
18
48
1
60
0
100
AcDbSpline
70
4
71
3
72
11
73
7
40
0
40
0
40
0
40
0
40
0.410526304912458
40
0.709236208950579
40
0.907217596010065
40
1
40
1
40
1
40
1
41
1
10
7.7138296625908
20
1.82206379877059
30
0
41
1
10
7.41781748855561
20
1.82371278374725
30
0
41
1
10
6.90638742600652
20
1.82631271459348
30
0
41
1
10
6.25209763869458
20
1.82840501246199
30
0
41
1
10
5.8269624093729
20
1.83025252095268
30
0
41
1
10
5.61734362422769
20
1.83098137887248
30
0
41
1
10
5.55044440668811
20
1.83120129045403
30
0
0
SPLINE
5
A8
100
AcDbEntity
8
1
62
256
6
ByLayer
370
18
48
1
60
0
100
AcDbSpline
70
4
71
3
72
10
73
6
40
0
40
0
40
0
40
0
40
0.44795766657302
40
0.78120521364965
40
1
40
1
40
1
40
1
41
1
10
21.1344260695152
20
-1.82382622577501
30
0
41
1
10
21.4108700181403
20
-1.82355220597668
30
0
41
1
10
21.8930015375985
20
-1.82294404170349
30
0
41
1
10
22.5102819422432
20
-1.82151840469075
30
0
41
1
10
22.8510380416973
20
-1.82094374009131
30
0
41
1
10
22.9860763697816
20
-1.82072859501011
30
0
0
SPLINE
5
A9
100
AcDbEntity
8
1
62
256
6
ByLayer
370
18
48
1
60
0
100
AcDbSpline
70
4
71
1
72
4
73
2
40
0
40
0
40
1
40
1
41
1
10
46.7294854005246
20
1.89463579902136
30
0
41
1
10
46.7294251555952
20
1.89463979771469
30
0
0
SPLINE
5
AA
100
AcDbEntity
8
1
62
256
6
ByLayer
370
18
48
1
60
0
100
AcDbSpline
70
4
71
3
72
58
73
54
40
0
40
0
40
0
40
0
40
0.124999999999945
40
0.124999999999945
40
0.24999999999989
40
0.24999999999989
40
0.312499999999864
40
0.312499999999864
40
0.374999999999837
40
0.374999999999837
40
0.406249999999824
40
0.406249999999824
40
0.43749999999981
40
0.43749999999981
40
0.468749999999797
40
0.468749999999797
40
0.484374999999791
40
0.484374999999791
40
0.499999999999784
40
0.499999999999784
40
0.515624999999777
40
0.515624999999777
40
0.531249999999771
40
0.531249999999771
40
0.546874999999764
40
0.546874999999764
40
0.562499999999757
40
0.562499999999757
40
0.578124999999751
40
0.578124999999751
40
0.593749999999744
40
0.593749999999744
40
0.624999999999732
40
0.624999999999732
40
0.640624999999727
40
0.640624999999727
40
0.644531249999726
40
0.644531249999726
40
0.646484374999726
40
0.646484374999726
40
0.648437499999726
40
0.648437499999726
40
0.652343749999729
40
0.652343749999729
40
0.656249999999731
40
0.656249999999731
40
0.687499999999756
40
0.687499999999756
40
0.749999999999804
40
0.749999999999804
40
0.874999999999902
40
0.874999999999902
40
1
40
1
40
1
40
1
41
1
10
6.58785498022843
20
-1.70976627468488
30
0
41
1
10
6.21603286193309
20
-1.63010154849448
30
0
41
1
10
5.84885086874743
20
-1.53349652024923
30
0
41
1
10
5.12335024471753
20
-1.30047687534736
30
0
41
1
10
4.76494909449946
20
-1.16448324297048
30
0
41
1
10
4.23504813032679
20
-0.919818624578966
30
0
41
1
10
4.0589683359635
20
-0.83094301213913
30
0
41
1
10
3.71614956423821
20
-0.638070412569704
30
0
41
1
10
3.54892513516165
20
-0.534090597296711
30
0
41
1
10
3.3073920844148
20
-0.361364971630877
30
0
41
1
10
3.22845105056067
20
-0.300963143775903
30
0
41
1
10
3.07482241215189
20
-0.172532496818974
30
0
41
1
10
2.99958369152287
20
-0.103988551691657
30
0
41
1
10
2.85875957103053
20
0.0410775824578593
30
0
41
1
10
2.79304258673466
20
0.117461415901403
30
0
41
1
10
2.7055034078569
20
0.241103165327502
30
0
41
1
10
2.67811429498732
20
0.284055840624433
30
0
41
1
10
2.62955591023089
20
0.371770057289865
30
0
41
1
10
2.6082160799518
20
0.416721394389242
30
0
41
1
10
2.57301975588337
20
0.509432386333003
30
0
41
1
10
2.55927196723798
20
0.557265173408723
30
0
41
1
10
2.54210498163516
20
0.652274482603133
30
0
41
1
10
2.53849851483366
20
0.70026342169399
30
0
41
1
10
2.54261080807959
20
0.795012726610963
30
0
41
1
10
2.55019845689983
20
0.840630791908552
30
0
41
1
10
2.57562148797013
20
0.928679430653574
30
0
41
1
10
2.5936866598887
20
0.971311763170917
30
0
41
1
10
2.6372063862041
20
1.05029203785162
30
0
41
1
10
2.6627485457127
20
1.08716251785077
30
0
41
1
10
2.71993224003751
20
1.15673855710443
30
0
41
1
10
2.75164245377283
20
1.1894272393194
30
0
41
1
10
2.85161373349092
20
1.2801325448329
30
0
41
1
10
2.92543269170088
20
1.33202743647524
30
0
41
1
10
3.04304185072309
20
1.40187529134465
30
0
41
1
10
3.08348247400053
20
1.42380798311586
30
0
41
1
10
3.13498349339474
20
1.44965487523856
30
0
41
1
10
3.14532418096115
20
1.45476338974996
30
0
41
1
10
3.16092335733407
20
1.46227453673254
30
0
41
1
10
3.16622928983804
20
1.46463054354635
30
0
41
1
10
3.1780713953558
20
1.46772537878508
30
0
41
1
10
3.18444524079095
20
1.46876539025439
30
0
41
1
10
3.20339908188433
20
1.47077546855354
30
0
41
1
10
3.21613007468582
20
1.47086433530839
30
0
41
1
10
3.24155410868133
20
1.47154165603496
30
0
41
1
10
3.25426569466839
20
1.47188585075216
30
0
41
1
10
3.3686620486904
20
1.47508627154923
30
0
41
1
10
3.47041766471219
20
1.47690559576185
30
0
41
1
10
3.77561131275141
20
1.47945952206422
30
0
41
1
10
3.97929670818348
20
1.47730242881463
30
0
41
1
10
4.58867573539831
20
1.45986371280921
30
0
41
1
10
4.99208441401598
20
1.43386059629697
30
0
41
1
10
5.79373058574663
20
1.35125988501889
30
0
41
1
10
6.19191932651975
20
1.29434556907287
30
0
41
1
10
6.58785498022843
20
1.21981210530618
30
0
0
SPLINE
5
AB
100
AcDbEntity
8
1
62
256
6
ByLayer
370
13
48
1
60
0
100
AcDbSpline
70
4
71
3
72
8
73
4
40
0
40
0
40
0
40
0
40
1
40
1
40
1
40
1
41
1
10
56.1287987545136
20
0.716731942212618
30
0
41
1
10
56.1736323982739
20
0.675367085616045
30
0
41
1
10
56.2210248413672
20
0.637782025128132
30
0
41
1
10
56.2702656086655
20
0.60301542346113
30
0
0
SPLINE
5
AC
100
AcDbEntity
8
1
62
256
6
ByLayer
370
18
48
1
60
0
100
AcDbSpline
70
4
71
3
72
8
73
4
40
0
40
0
40
0
40
0
40
1
40
1
40
1
40
1
41
1
10
57.0469916790214
20
-0.557102269033805
30
0
41
1
10
57.0269801533775
20
-0.622294740086318
30
0
41
1
10
57.0020604090884
20
-0.692603905713497
30
0
41
1
10
56.9739477297483
20
-0.766871531712383
30
0
0
SPLINE
5
AD
100
AcDbEntity
8
1
62
256
6
ByLayer
370
18
48
1
60
0
100
AcDbSpline
70
4
71
3
72
14
73
10
40
0
40
0
40
0
40
0
40
0.25
40
0.25
40
0.5
40
0.5
40
0.75
40
0.75
40
1
40
1
40
1
40
1
41
1
10
56.0847664662954
20
0.649204616636126
30
0
41
1
10
56.0833080529371
20
0.656932355241622
30
0
41
1
10
56.0825643709237
20
0.664716071515642
30
0
41
1
10
56.0834615764824
20
0.680472275153932
30
0
41
1
10
56.0851569293715
20
0.688413957432971
30
0
41
1
10
56.0925873539758
20
0.702390863504945
30
0
41
1
10
56.0985318673767
20
0.708225966921617
30
0
41
1
10
56.1128505563308
20
0.715254632418322
30
0
41
1
10
56.120846124173
20
0.716600520095312
30
0
41
1
10
56.1287987545128
20
0.716731942215631
30
0
0
SPLINE
5
AE
100
AcDbEntity
8
1
62
256
6
ByLayer
370
18
48
1
60
0
100
AcDbSpline
70
4
71
3
72
26
73
22
40
0
40
0
40
0
40
0
40
0.0127175860893195
40
0.0127175860893195
40
0.0884178150595484
40
0.0884178150595484
40
0.23981827300001
40
0.23981827300001
40
0.391218730940471
40
0.391218730940471
40
0.542619188880933
40
0.542619188880933
40
0.618319417851162
40
0.618319417851162
40
0.694019646821391
40
0.694019646821391
40
0.845420104761852
40
0.845420104761852
40
0.996820562702313
40
0.996820562702313
40
1
40
1
40
1
40
1
41
1
10
38.8720689308648
20
-1.81186370051071
30
0
41
1
10
38.8248535490431
20
-1.81195889958792
30
0
41
1
10
38.7776293952763
20
-1.81186245751229
30
0
41
1
10
38.4492372349455
20
-1.80985634462465
30
0
41
1
10
38.1674254432375
20
-1.80130851653249
30
0
41
1
10
37.3238035508445
20
-1.75575412473438
30
0
41
1
10
36.7629393201474
20
-1.69863430766327
30
0
41
1
10
35.6396629348081
20
-1.53552932165945
30
0
41
1
10
35.0760595073248
20
-1.42927338975906
30
0
41
1
10
33.9522729218994
20
-1.17793914503048
30
0
41
1
10
33.3913002951939
20
-1.0328414977057
30
0
41
1
10
32.5477256222673
20
-0.794746346397943
30
0
41
1
10
32.2659811957027
20
-0.711940224412274
30
0
41
1
10
31.7037737669911
20
-0.541895243409272
30
0
41
1
10
31.4230142009318
20
-0.45461510837697
30
0
41
1
10
30.5809086486956
20
-0.188625866149948
30
0
41
1
10
30.0193341568311
20
-0.0056836534964759
30
0
41
1
10
28.8935880422752
20
0.35608029393714
30
0
41
1
10
28.3327123592816
20
0.533746883931741
30
0
41
1
10
27.7597014653926
20
0.704701757383134
30
0
41
1
10
27.7479154785796
20
0.708213468548337
30
0
41
1
10
27.7361293123688
20
0.711720585937002
30
0
0
SPLINE
5
AF
100
AcDbEntity
8
1
62
256
6
ByLayer
370
18
48
1
60
0
100
AcDbSpline
70
4
71
3
72
11
73
7
40
0
40
0
40
0
40
0
40
0.080036788594719
40
0.54001839429736
40
0.54001839429736
40
1
40
1
40
1
40
1
41
1
10
3.45435828043827
20
-1.83578082928437
30
0
41
1
10
3.43004821428462
20
-1.8357976937221
30
0
41
1
10
3.2659891363827
20
-1.83556490883069
30
0
41
1
10
3.10167901696673
20
-1.8329878146204
30
0
41
1
10
2.82133075672419
20
-1.82514473685816
30
0
41
1
10
2.68056761794881
20
-1.81947679275854
30
0
41
1
10
2.54029821841851
20
-1.81209618325997
30
0
0
SPLINE
5
B0
100
AcDbEntity
8
1
62
256
6
ByLayer
370
18
48
1
60
0
100
AcDbSpline
70
4
71
3
72
22
73
18
40
0
40
0
40
0
40
0
40
0.132065853877235
40
0.132065853877235
40
0.26413170775447
40
0.26413170775447
40
0.396197561631706
40
0.396197561631706
40
0.528263415508941
40
0.528263415508941
40
0.660329269386176
40
0.660329269386176
40
0.792395123263411
40
0.792395123263411
40
0.924460977140646
40
0.924460977140646
40
1
40
1
40
1
40
1
41
1
10
12.1399996643131
20
-0.210116554621209
30
0
41
1
10
12.601907945211
20
-0.373785547998637
30
0
41
1
10
13.0635265757824
20
-0.536149903927054
30
0
41
1
10
13.985836969308
20
-0.846547826033145
30
0
41
1
10
14.4471836652412
20
-0.994666210085796
30
0
41
1
10
15.369922113078
20
-1.26891597128798
30
0
41
1
10
15.8303367832457
20
-1.39501192183533
30
0
41
1
10
16.7530558816116
20
-1.61691564634691
30
0
41
1
10
17.2139954236237
20
-1.71238529850163
30
0
41
1
10
18.1359546201031
20
-1.8680240536558
30
0
41
1
10
18.5969387385724
20
-1.9281936281898
30
0
41
1
10
19.5181846585907
20
-2.008054161655
30
0
41
1
10
19.9796873293199
20
-2.02796874902379
30
0
41
1
10
20.9012396670757
20
-2.02690392012124
30
0
41
1
10
21.3621669501958
20
-2.00579132561086
30
0
41
1
10
22.0867520158982
20
-1.94143325703328
30
0
41
1
10
22.3502902269422
20
-1.91162687579984
30
0
41
1
10
22.6139171071029
20
-1.87565600131444
30
0
0
SPLINE
5
B1
100
AcDbEntity
8
1
62
256
6
ByLayer
370
18
48
1
60
0
100
AcDbSpline
70
4
71
3
72
34
73
30
40
0
40
0
40
0
40
0
40
0.0167161203572571
40
0.0167161203572571
40
0.0923533418682374
40
0.0923533418682374
40
0.167990563379218
40
0.167990563379218
40
0.243627784890198
40
0.243627784890198
40
0.319265006401178
40
0.319265006401178
40
0.394902227912158
40
0.394902227912158
40
0.470539449423139
40
0.470539449423139
40
0.546176670934119
40
0.546176670934119
40
0.621813892445099
40
0.621813892445099
40
0.697451113956079
40
0.697451113956079
40
0.773088335467059
40
0.773088335467059
40
0.84872555697804
40
0.84872555697804
40
0.92436277848902
40
0.92436277848902
40
1
40
1
40
1
40
1
41
1
10
38.1060275739863
20
2.0384867927296
30
0
41
1
10
38.2078116177017
20
2.03853830917924
30
0
41
1
10
38.3096276237673
20
2.03758785030396
30
0
41
1
10
38.8724436402009
20
2.02677231098244
30
0
41
1
10
39.3329805592826
20
1.99752944991587
30
0
41
1
10
40.2542858500791
20
1.8996127149093
30
0
41
1
10
40.7149591122508
20
1.83061530387809
30
0
41
1
10
41.6357632814161
20
1.65792389259536
30
0
41
1
10
42.0970791978417
20
1.55423898093792
30
0
41
1
10
43.0178647015891
20
1.3173114714578
30
0
41
1
10
43.478356979249
20
1.18351403413558
30
0
41
1
10
44.3994867696624
20
0.89630330536292
30
0
41
1
10
44.8599276329069
20
0.743226571142458
30
0
41
1
10
45.7819283377552
20
0.423477767721238
30
0
41
1
10
46.2416151833837
20
0.257034804885734
30
0
41
1
10
47.1626457781176
20
-0.0773641004675198
30
0
41
1
10
47.6234026435798
20
-0.244958030799296
30
0
41
1
10
48.5440822826656
20
-0.572664489684456
30
0
41
1
10
49.0048200100885
20
-0.733230711485191
30
0
41
1
10
49.9252926662899
20
-1.03519994778057
30
0
41
1
10
50.3863080526335
20
-1.17701700723723
30
0
41
1
10
51.3071692141731
20
-1.43475248730175
30
0
41
1
10
51.7673941050524
20
-1.55071904792871
30
0
41
1
10
52.6889073899469
20
-1.74909203523833
30
0
41
1
10
53.1490191462822
20
-1.83140540683232
30
0
41
1
10
54.0702747873386
20
-1.95894494166848
30
0
41
1
10
54.5299741009432
20
-2.00374544002227
30
0
41
1
10
55.4481743973716
20
-2.05222194738335
30
0
41
1
10
55.9071545610993
20
-2.05614645434727
30
0
41
1
10
56.3672500071314
20
-2.03924485783551
30
0
0
SPLINE
5
B2
100
AcDbEntity
8
1
62
256
6
ByLayer
370
18
48
1
60
0
100
AcDbSpline
70
4
71
3
72
8
73
4
40
0
40
0
40
0
40
0
40
1
40
1
40
1
40
1
41
1
10
56.2811258695479
20
0.605267657423326
30
0
41
1
10
56.2772411347838
20
0.605511419340729
30
0
41
1
10
56.2728201607077
20
0.605268565817426
30
0
41
1
10
56.2702656086654
20
0.60301542346113
30
0
0
SPLINE
5
B3
100
AcDbEntity
8
1
62
256
6
ByLayer
370
18
48
1
60
0
100
AcDbSpline
70
4
71
3
72
8
73
4
40
0
40
0
40
0
40
0
40
1
40
1
40
1
40
1
41
1
10
54.4268058929539
20
-0.377844533796832
30
0
41
1
10
54.427150278812
20
-0.377931918735015
30
0
41
1
10
54.4274946665153
20
-0.378019266075427
30
0
41
1
10
54.4278390560546
20
-0.378106575808943
30
0
0
SPLINE
5
B4
100
AcDbEntity
8
1
62
256
6
ByLayer
370
18
48
1
60
0
100
AcDbSpline
70
4
71
3
72
8
73
4
40
0
40
0
40
0
40
0
40
1
40
1
40
1
40
1
41
1
10
54.4278390565332
20
-0.378106576831101
30
0
41
1
10
54.4148556199613
20
-0.297235047348067
30
0
41
1
10
54.4028858812414
20
-0.216345659555884
30
0
41
1
10
54.3917328063125
20
-0.135449298204918
30
0
0
SPLINE
5
B5
100
AcDbEntity
8
1
62
256
6
ByLayer
370
18
48
1
60
0
100
AcDbSpline
70
4
71
3
72
10
73
6
40
0
40
0
40
0
40
0
40
0.5
40
0.5
40
1
40
1
40
1
40
1
41
1
10
56.5027406050731
20
1.9202384356675
30
0
41
1
10
56.4812726431899
20
1.95090156267054
30
0
41
1
10
56.4590414987993
20
1.97653341338898
30
0
41
1
10
56.4139116582973
20
2.01619098019862
30
0
41
1
10
56.3909034074389
20
2.0304388343601
30
0
41
1
10
56.3672500071314
20
2.03924485783551
30
0
0
SPLINE
5
B6
100
AcDbEntity
8
1
62
256
6
ByLayer
370
18
48
1
60
0
100
AcDbSpline
70
4
71
3
72
10
73
6
40
0
40
0
40
0
40
0
40
0.185832964078794
40
0.185832964078794
40
1
40
1
40
1
40
1
41
1
10
5.48214578859054
20
-1.8684281015552
30
0
41
1
10
5.29990635701031
20
-1.89299932131743
30
0
41
1
10
5.11783888691645
20
-1.91461586388905
30
0
41
1
10
4.13853944998098
20
-2.01458710180211
30
0
41
1
10
3.34239400343506
20
-2.03716977821972
30
0
41
1
10
2.5400027252372
20
-1.99796069610616
30
0
0
SPLINE
5
B7
100
AcDbEntity
8
1
62
256
6
ByLayer
370
18
48
1
60
0
100
AcDbSpline
70
4
71
3
72
14
73
10
40
0
40
0
40
0
40
0
40
0.313971509314801
40
0.313971509314801
40
0.627943018629602
40
0.627943018629602
40
0.941914527944403
40
0.941914527944403
40
1
40
1
40
1
40
1
41
1
10
2.54837744349078
20
-1.20851350088614
30
0
41
1
10
3.09669216986168
20
-1.36709613171195
30
0
41
1
10
3.64311770885536
20
-1.50577232141845
30
0
41
1
10
4.73567357084332
20
-1.73826366034794
30
0
41
1
10
5.28158822909245
20
-1.83211982202548
30
0
41
1
10
6.37897990700881
20
-1.96573870993623
30
0
41
1
10
6.92577823869223
20
-2.00536239831882
30
0
41
1
10
7.57393306507922
20
-2.01839354313233
30
0
41
1
10
7.67512996403457
20
-2.01945710555566
30
0
41
1
10
7.77634794339153
20
-2.019545597068
30
0
0
SPLINE
5
B8
100
AcDbEntity
8
1
62
256
6
ByLayer
370
18
48
1
60
0
100
AcDbSpline
70
4
71
3
72
44
73
40
40
0
40
0
40
0
40
0
40
0.0042986495345803
40
0.0042986495345803
40
0.0448567616446881
40
0.0448567616446881
40
0.125972985864904
40
0.125972985864904
40
0.20708921008512
40
0.20708921008512
40
0.247647322195228
40
0.247647322195228
40
0.288205434305335
40
0.288205434305335
40
0.369321658525551
40
0.369321658525551
40
0.409879770635658
40
0.409879770635658
40
0.450437882745765
40
0.450437882745765
40
0.531554106965977
40
0.531554106965977
40
0.612670331186189
40
0.612670331186189
40
0.653228443296294
40
0.653228443296294
40
0.693786555406399
40
0.693786555406399
40
0.774902779626608
40
0.774902779626608
40
0.815460891736711
40
0.815460891736711
40
0.856019003846815
40
0.856019003846815
40
0.937135228067023
40
0.937135228067023
40
0.977693340177128
40
0.977693340177128
40
1
40
1
40
1
40
1
41
1
10
22.9861412054474
20
1.83133671441456
30
0
41
1
10
23.0151619251731
20
1.83585824982447
30
0
41
1
10
23.0441761546111
20
1.84030608084197
30
0
41
1
10
23.346858418982
20
1.88593953836138
30
0
41
1
10
23.6202788436843
20
1.92046298469884
30
0
41
1
10
24.4403007681668
20
2.00359196362791
30
0
41
1
10
24.9870631478431
20
2.03162223862069
30
0
41
1
10
26.0832565915389
20
2.02957090456275
30
0
41
1
10
26.6294934161276
20
1.99976185642501
30
0
41
1
10
27.4493022711945
20
1.91345599175244
30
0
41
1
10
27.7227635919404
20
1.8778417528606
30
0
41
1
10
28.2706999367255
20
1.79357303101892
30
0
41
1
10
28.5449201302971
20
1.74484763458665
30
0
41
1
10
29.3654256185037
20
1.5808087759263
30
0
41
1
10
29.9112556273868
20
1.44784636870992
30
0
41
1
10
30.7320006038123
20
1.22008784085423
30
0
41
1
10
31.006378361075
20
1.13956181303951
30
0
41
1
10
31.55380090403
20
0.970391422001228
30
0
41
1
10
31.8271482492143
20
0.882377550603678
30
0
41
1
10
32.6470251670583
20
0.610509266419541
30
0
41
1
10
33.1930266905329
20
0.417852777784418
30
0
41
1
10
34.2892629861553
20
0.0240502790562118
30
0
41
1
10
34.8355925861241
20
-0.174758622379756
30
0
41
1
10
35.6551028796777
20
-0.466202192117009
30
0
41
1
10
35.9284383760961
20
-0.561888349056403
30
0
41
1
10
36.475909240141
20
-0.749057121110326
30
0
41
1
10
36.7501284038795
20
-0.840798559943465
30
0
41
1
10
37.5706505537877
20
-1.10540255078234
30
0
41
1
10
38.1165701396586
20
-1.26733656688444
30
0
41
1
10
38.9366549117509
20
-1.48208381858052
30
0
41
1
10
39.2106458709753
20
-1.54879904526874
30
0
41
1
10
39.7583209211896
20
-1.67077039895764
30
0
41
1
10
40.031777126407
20
-1.7257692167415
30
0
41
1
10
40.8515267667738
20
-1.87223170764341
30
0
41
1
10
41.3970886270872
20
-1.94503496062859
30
0
41
1
10
42.2187892881361
20
-2.01177149489723
30
0
41
1
10
42.4926476271935
20
-2.02702764879464
30
0
41
1
10
42.9162468423653
20
-2.03943166682197
30
0
41
1
10
43.0665637482999
20
-2.04165346886143
30
0
41
1
10
43.2168538338283
20
-2.04170815319983
30
0
0
SPLINE
5
B9
100
AcDbEntity
8
1
62
256
6
ByLayer
370
18
48
1
60
0
100
AcDbSpline
70
4
71
3
72
8
73
4
40
0
40
0
40
0
40
0
40
1
40
1
40
1
40
1
41
1
10
55.0624692056873
20
-1.0367517385443
30
0
41
1
10
55.1717459614569
20
-1.03858884643768
30
0
41
1
10
55.2805308328358
20
-1.03524075991075
30
0
41
1
10
55.388753075015
20
-1.02596172326236
30
0
0
SPLINE
5
BA
100
AcDbEntity
8
1
62
256
6
ByLayer
370
18
48
1
60
0
100
AcDbSpline
70
4
71
3
72
27
73
23
40
0
40
0
40
0
40
0
40
0.005247619348219
40
0.005247619348219
40
0.291855655713702
40
0.291855655713702
40
0.435159673896444
40
0.435159673896444
40
0.506811682987814
40
0.506811682987814
40
0.5426376875335
40
0.551594188669921
40
0.551594188669921
40
0.560550689806343
40
0.560550689806343
40
0.569507190942764
40
0.569507190942764
40
0.578463692079185
40
0.578463692079185
40
0.865071728444669
40
0.865071728444669
40
1
40
1
40
1
40
1
41
1
10
6.58785498022843
20
1.21981210530618
30
0
41
1
10
6.58785498022843
20
1.21575207746898
30
0
41
1
10
6.58785498022843
20
1.2116844242866
30
0
41
1
10
6.58785498022843
20
0.985050095717583
30
0
41
1
10
6.58785498022843
20
0.739827570638226
30
0
41
1
10
6.58785498022843
20
0.340617787819156
30
0
41
1
10
6.5878549802284
20
0.201775879115331
30
0
41
1
10
6.5878549802284
20
-0.0129754433170888
30
0
41
1
10
6.5878549802284
20
-0.0854846600558119
30
0
41
1
10
6.5878549802284
20
-0.195632574897928
30
0
41
1
10
6.58785498022846
20
-0.241827893455593
30
0
41
1
10
6.5878549802284
20
-0.288332339988017
30
0
41
1
10
6.5878549802284
20
-0.306959708187634
30
0
41
1
10
6.58785498022843
20
-0.316203811773335
30
0
41
1
10
6.58785498022843
20
-0.335062848141803
30
0
41
1
10
6.58785498022843
20
-0.345452849323635
30
0
41
1
10
6.58785498022843
20
-0.364737264921814
30
0
41
1
10
6.58785498022843
20
-0.374370788463523
30
0
41
1
10
6.58785498022843
20
-0.692217579105687
30
0
41
1
10
6.58785498022843
20
-0.996050825834487
30
0
41
1
10
6.58785498022843
20
-1.43399389549097
30
0
41
1
10
6.58785498022843
20
-1.57267171158679
30
0
41
1
10
6.58785498022843
20
-1.70976627468488
30
0
0
SPLINE
5
BB
100
AcDbEntity
8
1
62
256
6
ByLayer
370
18
48
1
60
0
100
AcDbSpline
70
4
71
1
72
4
73
2
40
0
40
0
40
1
40
1
41
1
10
12.1399996643131
20
-0.210116554621265
30
0
41
1
10
12.1390764995136
20
0.0025891132662821
30
0
0
SPLINE
5
BC
100
AcDbEntity
8
1
62
256
6
ByLayer
370
18
48
1
60
0
100
AcDbSpline
70
4
71
3
72
10
73
6
40
0
40
0
40
0
40
0
40
0.5
40
0.5
40
1
40
1
40
1
40
1
41
1
10
56.396803507037
20
-1.79946494965091
30
0
41
1
10
56.4006718730399
20
-1.7998112805279
30
0
41
1
10
56.4029877703126
20
-1.80430003644901
30
0
41
1
10
56.4011527362186
20
-1.82297995464006
30
0
41
1
10
56.3967202847666
20
-1.83696911788812
30
0
41
1
10
56.3910973667296
20
-1.84947484676016
30
0
0
SPLINE
5
BD
100
AcDbEntity
8
1
62
256
6
ByLayer
370
18
48
1
60
0
100
AcDbSpline
70
4
71
3
72
12
73
8
40
0
40
0
40
0
40
0
40
0.250000000000012
40
0.250000000000012
40
0.500000000000024
40
0.500000000000024
40
1
40
1
40
1
40
1
41
1
10
56.973947729749
20
0.76687153171261
30
0
41
1
10
56.9044366099078
20
0.756253166169842
30
0
41
1
10
56.8343668847733
20
0.749279851711776
30
0
41
1
10
56.6938085358599
20
0.737951788477091
30
0
41
1
10
56.6232699213976
20
0.7337546949976
30
0
41
1
10
56.4115496649797
20
0.723343676894956
30
0
41
1
10
56.2702439270159
20
0.719069410907593
30
0
41
1
10
56.1287987545135
20
0.716731942207588
30
0
0
SPLINE
5
BE
100
AcDbEntity
8
1
62
256
6
ByLayer
370
18
48
1
60
0
100
AcDbSpline
70
4
71
3
72
32
73
28
40
0
40
0
40
0
40
0
40
0.0344703613543732
40
0.0344703613543732
40
0.115389674916997
40
0.115389674916997
40
0.196308988479621
40
0.196308988479621
40
0.277228302042245
40
0.277228302042245
40
0.358147615604869
40
0.358147615604869
40
0.439066929167493
40
0.439066929167493
40
0.519986242730117
40
0.519986242730117
40
0.60090555629274
40
0.60090555629274
40
0.681824869855364
40
0.681824869855364
40
0.762744183417988
40
0.762744183417988
40
0.843663496980612
40
0.843663496980612
40
0.924582810543236
40
0.924582810543236
40
1
40
1
40
1
40
1
41
1
10
25.3924775233288
20
1.81408302083886
30
0
41
1
10
25.5102495834797
20
1.81367194069276
30
0
41
1
10
25.6280491592291
20
1.81204682918812
30
0
41
1
10
26.0225548864914
20
1.80244368981917
30
0
41
1
10
26.2997070547701
20
1.78874543026288
30
0
41
1
10
26.8542018247161
20
1.74934803183365
30
0
41
1
10
27.1310090649256
20
1.72385546522793
30
0
41
1
10
27.6840737000785
20
1.65979404356136
30
0
41
1
10
27.9605409984418
20
1.62119833559791
30
0
41
1
10
28.5135198855261
20
1.53316302576403
30
0
41
1
10
28.7900680713009
20
1.48365763109498
30
0
41
1
10
29.3438161535708
20
1.3742208935536
30
0
41
1
10
29.6213364307535
20
1.3142290034915
30
0
41
1
10
30.1753250382191
20
1.18514324028206
30
0
41
1
10
30.4519453651134
20
1.11590012741817
30
0
41
1
10
31.0051262150217
20
0.970493739437927
30
0
41
1
10
31.2816185798913
20
0.894126046853103
30
0
41
1
10
31.8349471473191
20
0.735195728484484
30
0
41
1
10
32.1121373659968
20
0.653071314798268
30
0
41
1
10
32.6668000453875
20
0.483856445548412
30
0
41
1
10
32.9437003800989
20
0.397351133337708
30
0
41
1
10
33.4971883470467
20
0.22234406066525
30
0
41
1
10
33.7737033079274
20
0.133635774812859
30
0
41
1
10
34.3270732314849
20
-0.0439050668224183
30
0
41
1
10
34.6039278494907
20
-0.132709146599097
30
0
41
1
10
35.1394867344402
20
-0.303134400958072
30
0
41
1
10
35.3979621014919
20
-0.384938359423955
30
0
41
1
10
35.656003445643
20
-0.464880980997606
30
0
0
SPLINE
5
BF
100
AcDbEntity
8
1
62
256
6
ByLayer
370
18
48
1
60
0
100
AcDbSpline
70
4
71
3
72
12
73
8
40
0
40
0
40
0
40
0
40
0.290268288208546
40
0.290268288208546
40
0.580536576417092
40
0.580536576417092
40
1
40
1
40
1
40
1
41
1
10
12.1313432345584
20
1.84349804339234
30
0
41
1
10
11.8999051992722
20
1.87755954393032
30
0
41
1
10
11.6688956380792
20
1.90670849710648
30
0
41
1
10
11.2077454292215
20
1.95540243913891
30
0
41
1
10
10.9777035077754
20
1.97498074272011
30
0
41
1
10
10.4155036306158
20
2.01043248807636
30
0
41
1
10
10.0833982961085
20
2.02089299367751
30
0
41
1
10
9.75122716145461
20
2.02079813518242
30
0
0
SPLINE
5
C0
100
AcDbEntity
8
1
62
256
6
ByLayer
370
18
48
1
60
0
100
AcDbSpline
70
4
71
3
72
44
73
40
40
0
40
0
40
0
40
0
40
0.0172327391238867
40
0.0172327391238867
40
0.0992907282976633
40
0.0992907282976633
40
0.140319722884551
40
0.140319722884551
40
0.181348717471439
40
0.181348717471439
40
0.263406706645214
40
0.263406706645214
40
0.304435701232101
40
0.304435701232101
40
0.345464695818988
40
0.345464695818988
40
0.427522684992764
40
0.427522684992764
40
0.468551679579652
40
0.468551679579652
40
0.50958067416654
40
0.50958067416654
40
0.550609668753428
40
0.550609668753428
40
0.591638663340316
40
0.591638663340316
40
0.67369665251409
40
0.67369665251409
40
0.714725647100977
40
0.714725647100977
40
0.755754641687864
40
0.755754641687864
40
0.837812630861638
40
0.837812630861638
40
0.878841625448524
40
0.878841625448524
40
0.91987062003541
40
0.91987062003541
40
1
40
1
40
1
40
1
41
1
10
5.48490069171498
20
1.85329793503106
30
0
41
1
10
5.5999130882347
20
1.86967095101471
30
0
41
1
10
5.71501901480462
20
1.8848942921631
30
0
41
1
10
6.37893723960178
20
1.96573470880347
30
0
41
1
10
6.92572977718189
20
2.00535953745666
30
0
41
1
10
7.74616817137235
20
2.02185727095716
30
0
41
1
10
8.01969933681065
20
2.02026513303767
30
0
41
1
10
8.56741780024709
20
2.00273173181122
30
0
41
1
10
8.84200655676136
20
1.98679569284886
30
0
41
1
10
9.66373438777612
20
1.918286521635
30
0
41
1
10
10.2097702920843
20
1.84460707496103
30
0
41
1
10
11.0307764236289
20
1.69703002379481
30
0
41
1
10
11.3048715467137
20
1.6414949606374
30
0
41
1
10
11.8531885031354
20
1.51888772373306
30
0
41
1
10
12.126918983492
20
1.45223678425435
30
0
41
1
10
12.9475706738096
20
1.23790484373742
30
0
41
1
10
13.4935528526193
20
1.07482159889094
30
0
41
1
10
14.3158125415476
20
0.811248557471544
30
0
41
1
10
14.5902027318112
20
0.719970541174376
30
0
41
1
10
15.1375196115509
20
0.533150095072187
30
0
41
1
10
15.4108231234065
20
0.437532238339628
30
0
41
1
10
15.9574923661187
20
0.244003242311123
30
0
41
1
10
16.2308941702125
20
0.146195082223613
30
0
41
1
10
16.778354449659
20
-0.0500376272909477
30
0
41
1
10
17.0527202118129
20
-0.148776679256002
30
0
41
1
10
17.874527983893
20
-0.442138175923134
30
0
41
1
10
18.4206415881286
20
-0.633411922887433
30
0
41
1
10
19.2411227010652
20
-0.903300170489217
30
0
41
1
10
19.5147033920614
20
-0.990767218893495
30
0
41
1
10
20.0629421164417
20
-1.15835449037786
30
0
41
1
10
20.3369344467236
20
-1.23797195279235
30
0
41
1
10
21.1575956271971
20
-1.46283038653618
30
0
41
1
10
21.703432159564
20
-1.59438446185806
30
0
41
1
10
22.5248953775113
20
-1.75546377371313
30
0
41
1
10
22.7992817729792
20
-1.80338126251414
30
0
41
1
10
23.3466281638544
20
-1.88590848930804
30
0
41
1
10
23.6200456166291
20
-1.92043541092241
30
0
41
1
10
24.4272100812138
20
-2.00227257852552
30
0
41
1
10
24.9611128580034
20
-2.03028066054714
30
0
41
1
10
25.4962616577186
20
-2.03062060683686
30
0
0
SPLINE
5
C1
100
AcDbEntity
8
1
62
256
6
ByLayer
370
18
48
1
60
0
100
AcDbSpline
70
4
71
3
72
32
73
28
40
0
40
0
40
0
40
0
40
0.0889415978603744
40
0.0889415978603744
40
0.145882747994102
40
0.145882747994102
40
0.202823898127828
40
0.202823898127828
40
0.259765048261555
40
0.259765048261555
40
0.316706198395282
40
0.316706198395282
40
0.430588498662734
40
0.430588498662734
40
0.544470798930185
40
0.544470798930185
40
0.658353099197637
40
0.658353099197637
40
0.715294249331363
40
0.715294249331363
40
0.77223539946509
40
0.77223539946509
40
0.829176549598817
40
0.829176549598817
40
0.886117699732544
40
0.886117699732544
40
1
40
1
40
1
40
1
41
1
10
40.6635610513123
20
1.83506458512011
30
0
41
1
10
41.0901685199051
20
1.90270498918127
30
0
41
1
10
41.5166277468859
20
1.95473202152408
30
0
41
1
10
42.2183487999017
20
2.01174314671218
30
0
41
1
10
42.4922054039051
20
2.02700684553753
30
0
41
1
10
43.0387819394526
20
2.04302763438417
30
0
41
1
10
43.3120991313029
20
2.0438325893393
30
0
41
1
10
43.8583638224129
20
2.03118205622945
30
0
41
1
10
44.1313624433306
20
2.01763339354994
30
0
41
1
10
44.6781925677544
20
1.97627845241115
30
0
41
1
10
44.952372897125
20
1.94845419006575
30
0
41
1
10
45.7733654581113
20
1.84521677308211
30
0
41
1
10
46.3189122435418
20
1.74944403839757
30
0
41
1
10
47.4116476664551
20
1.51049915713472
30
0
41
1
10
47.9602362383232
20
1.36782649620756
30
0
41
1
10
49.0528709819221
20
1.04842529104548
30
0
41
1
10
49.5984779425905
20
0.87213375017339
30
0
41
1
10
50.4193683649132
20
0.591355153985603
30
0
41
1
10
50.6934047054925
20
0.495231294880966
30
0
41
1
10
51.2401093576399
20
0.300727281991669
30
0
41
1
10
51.5131763367404
20
0.202297543739718
30
0
41
1
10
52.0592397196495
20
0.0044702046932912
30
0
41
1
10
52.3321644437825
20
-0.0951284751859873
30
0
41
1
10
52.8788152125173
20
-0.292868996317566
30
0
41
1
10
53.1529951954729
20
-0.391100330525319
30
0
41
1
10
53.9735655530502
20
-0.68041990075335
30
0
41
1
10
54.5178555078812
20
-0.866114380125737
30
0
41
1
10
55.0624692056873
20
-1.0367517385443
30
0
0
SPLINE
5
C2
100
AcDbEntity
8
1
62
256
6
ByLayer
370
18
48
1
60
0
100
AcDbSpline
70
4
71
3
72
32
73
28
40
0
40
0
40
0
40
0
40
0.0777029558127997
40
0.0777029558127997
40
0.155405911625599
40
0.155405911625599
40
0.233108867438399
40
0.233108867438399
40
0.310811823251199
40
0.310811823251199
40
0.388514779063998
40
0.388514779063998
40
0.466217734876798
40
0.466217734876798
40
0.543920690689599
40
0.543920690689599
40
0.6216236465024
40
0.6216236465024
40
0.6993266023152
40
0.6993266023152
40
0.777029558128001
40
0.777029558128001
40
0.854732513940802
40
0.854732513940802
40
0.932435469753603
40
0.932435469753603
40
1
40
1
40
1
40
1
41
1
10
12.1316049602644
20
1.77022965549264
30
0
41
1
10
12.5707266801706
20
1.69737280450809
30
0
41
1
10
13.0088762096717
20
1.60815228951932
30
0
41
1
10
13.8822579117607
20
1.39888091433932
30
0
41
1
10
14.317824204132
20
1.27886357528257
30
0
41
1
10
15.1903100881643
20
1.01717624575636
30
0
41
1
10
15.6259473388418
20
0.876378976022352
30
0
41
1
10
16.4992821028008
20
0.583525813224554
30
0
41
1
10
16.9366121540785
20
0.431676492166616
30
0
41
1
10
17.8102796080438
20
0.1226760796512
30
0
41
1
10
18.2473001589692
20
-0.0358435560114003
30
0
41
1
10
19.1195376237983
20
-0.350538980171677
30
0
41
1
10
19.5557446392064
20
-0.506498294137657
30
0
41
1
10
20.4284377591359
20
-0.806144481735373
30
0
41
1
10
20.8639956481627
20
-0.950054579881396
30
0
41
1
10
21.7366354663319
20
-1.2182452436829
30
0
41
1
10
22.1729105133903
20
-1.34186425792194
30
0
41
1
10
23.0456305456292
20
-1.56218259428215
30
0
41
1
10
23.4825240528684
20
-1.65942786529968
30
0
41
1
10
24.3546713298842
20
-1.8223919913882
30
0
41
1
10
24.7912731056601
20
-1.8879619030136
30
0
41
1
10
25.6640985337128
20
-1.98364122007692
30
0
41
1
10
26.0999401230618
20
-2.01398076493356
30
0
41
1
10
26.9727957261119
20
-2.03771292159829
30
0
41
1
10
27.4084430162127
20
-2.03088865398308
30
0
41
1
10
28.2241542776684
20
-1.9841809082094
30
0
41
1
10
28.6039861934879
20
-1.94878009426799
30
0
41
1
10
28.9833128830821
20
-1.90021489627423
30
0
0
SPLINE
5
C3
100
AcDbEntity
8
1
62
256
6
ByLayer
370
18
48
1
60
0
100
AcDbSpline
70
4
71
3
72
22
73
18
40
0
40
0
40
0
40
0
40
0.0302031612335659
40
0.0302031612335659
40
0.168745566771628
40
0.168745566771628
40
0.30728797230969
40
0.30728797230969
40
0.445830377847752
40
0.445830377847752
40
0.584372783385814
40
0.584372783385814
40
0.722915188923876
40
0.722915188923876
40
0.861457594461938
40
0.861457594461938
40
1
40
1
40
1
40
1
41
1
10
44.5695565896745
20
2.04253836582225
30
0
41
1
10
44.6646031920521
20
2.04258136686835
30
0
41
1
10
44.7596681893576
20
2.0417490214594
30
0
41
1
10
45.2909783979495
20
2.03221800243008
30
0
41
1
10
45.727388681776
20
2.00589498129958
30
0
41
1
10
46.5991838732607
20
1.91762031274104
30
0
41
1
10
47.0358628272818
20
1.85571575521072
30
0
41
1
10
47.9081283801104
20
1.70012919560304
30
0
41
1
10
48.3441408343057
20
1.60606621527296
30
0
41
1
10
49.2159969971064
20
1.38911046818504
30
0
41
1
10
49.6510598666481
20
1.26680534224931
30
0
41
1
10
50.522720152776
20
1.00131701477068
30
0
41
1
10
50.9584396934697
20
0.858152951246808
30
0
41
1
10
51.8294298262656
20
0.559375027963227
30
0
41
1
10
52.2659458538311
20
0.403845045548735
30
0
41
1
10
53.1379108020381
20
0.0896999942946763
30
0
41
1
10
53.5735437605908
20
-0.0693514680899625
30
0
41
1
10
54.0096859296127
20
-0.228034126806932
30
0
0
SPLINE
5
C4
100
AcDbEntity
8
1
62
256
6
ByLayer
370
18
48
1
60
0
100
AcDbSpline
70
4
71
3
72
8
73
4
40
0
40
0
40
0
40
0
40
1
40
1
40
1
40
1
41
1
10
56.5027406050669
20
1.92023843568546
30
0
41
1
10
56.6577280964366
20
1.53607075611612
30
0
41
1
10
56.8148236953554
20
1.15150201239734
30
0
41
1
10
56.9739477297484
20
0.766871531712354
30
0
0
SPLINE
5
C5
100
AcDbEntity
8
1
62
256
6
ByLayer
370
18
48
1
60
0
100
AcDbSpline
70
4
71
3
72
8
73
4
40
0
40
0
40
0
40
0
40
1
40
1
40
1
40
1
41
1
10
12.1390764995136
20
0.0025891132663105
30
0
41
1
10
12.1390650538224
20
0.0026431538952352
30
0
41
1
10
12.139053607428
20
0.0026973516923761
30
0
41
1
10
12.1390421603303
20
0.0027517066857285
30
0
0
SPLINE
5
C6
100
AcDbEntity
8
1
62
256
6
ByLayer
370
18
48
1
60
0
100
AcDbSpline
70
4
71
3
72
8
73
4
40
0
40
0
40
0
40
0
40
1
40
1
40
1
40
1
41
1
10
56.5027406050754
20
-1.92023843566437
30
0
41
1
10
56.6579172202347
20
-1.53560197473271
30
0
41
1
10
56.8149965188277
20
-1.15108426799114
30
0
41
1
10
56.9739477297483
20
-0.766871531712326
30
0
0
SPLINE
5
C7
100
AcDbEntity
8
1
62
256
6
ByLayer
370
18
48
1
60
0
100
AcDbSpline
70
4
71
3
72
26
73
22
40
0
40
0
40
0
40
0
40
0.088542584101156
40
0.088542584101156
40
0.177085168202312
40
0.177085168202312
40
0.354170336404619
40
0.354170336404619
40
0.531255504606926
40
0.531255504606926
40
0.61979808870808
40
0.61979808870808
40
0.708340672809233
40
0.708340672809233
40
0.796883256910387
40
0.796883256910387
40
0.88542584101154
40
0.88542584101154
40
0.973968425112694
40
0.973968425112694
40
1
40
1
40
1
40
1
41
1
10
54.3917328063126
20
-0.135449298204946
30
0
41
1
10
54.1716418513887
20
-0.0587008225430736
30
0
41
1
10
53.9512098674614
20
0.0181775571558376
30
0
41
1
10
53.5108547649088
20
0.171910039817874
30
0
41
1
10
53.2910218218473
20
0.24897809727841
30
0
41
1
10
52.6311879458229
20
0.477045664644862
30
0
41
1
10
52.1902770864524
20
0.625095791162096
30
0
41
1
10
51.3104770854218
20
0.909589927721697
30
0
41
1
10
50.8700224997029
20
1.04350948833132
30
0
41
1
10
50.2095920434629
20
1.23024950669958
30
0
41
1
10
49.9896267330523
20
1.28975271505493
30
0
41
1
10
49.5494826972957
20
1.40227861523761
30
0
41
1
10
49.3294174766355
20
1.4554888895768
30
0
41
1
10
48.8892323108673
20
1.55535361808168
30
0
41
1
10
48.6690406443761
20
1.60196010889658
30
0
41
1
10
48.2288154288167
20
1.68705657510571
30
0
41
1
10
48.0087570285068
20
1.72569522658196
30
0
41
1
10
47.5687725547181
20
1.79488334749868
30
0
41
1
10
47.3488756810166
20
1.82542657707
30
0
41
1
10
47.063861725437
20
1.8594212050975
30
0
41
1
10
46.9991131475455
20
1.86677730241311
30
0
41
1
10
46.9343727206648
20
1.87376370615041
30
0
0
SPLINE
5
C8
100
AcDbEntity
8
1
62
256
6
ByLayer
370
18
48
1
60
0
100
AcDbSpline
70
4
71
3
72
56
73
52
40
0
40
0
40
0
40
0
40
0.0052060954941252
40
0.0052060954941252
40
0.0715256891278496
40
0.0715256891278496
40
0.137845282761574
40
0.137845282761574
40
0.171005079578437
40
0.171005079578437
40
0.204164876395301
40
0.204164876395301
40
0.237324673212164
40
0.237324673212164
40
0.270484470029027
40
0.270484470029027
40
0.30364426684589
40
0.30364426684589
40
0.336804063662753
40
0.336804063662753
40
0.403123657296478
40
0.403123657296478
40
0.469443250930202
40
0.469443250930202
40
0.502603047747064
40
0.502603047747064
40
0.535762844563927
40
0.535762844563927
40
0.568922641380789
40
0.568922641380789
40
0.602082438197651
40
0.602082438197651
40
0.635242235014513
40
0.635242235014513
40
0.668402031831376
40
0.668402031831376
40
0.701561828648238
40
0.701561828648238
40
0.7347216254651
40
0.7347216254651
40
0.801041219098826
40
0.801041219098826
40
0.867360812732551
40
0.867360812732551
40
0.900520609549413
40
0.900520609549413
40
0.933680406366275
40
0.933680406366275
40
0.966840203183138
40
0.966840203183138
40
1
40
1
40
1
40
1
41
1
10
32.045261461652
20
-1.35290226206055
30
0
41
1
10
32.010686455394
20
-1.3616876032163
30
0
41
1
10
31.9761083584112
20
-1.37039859176343
30
0
41
1
10
31.5010044058095
20
-1.48905124309545
30
0
41
1
10
31.0612536153926
20
-1.58644853211186
30
0
41
1
10
30.1808182335018
20
-1.74978078490329
30
0
41
1
10
29.7405079389509
20
-1.81651819508559
30
0
41
1
10
29.0802860603368
20
-1.89057888234373
30
0
41
1
10
28.8602237822361
20
-1.91100222410489
30
0
41
1
10
28.4200069730356
20
-1.94279757765003
30
0
41
1
10
28.1998044117873
20
-1.9541617418212
30
0
41
1
10
27.7595189228464
20
-1.96818311969778
30
0
41
1
10
27.5394120829113
20
-1.97083261732934
30
0
41
1
10
27.0993231964463
20
-1.96706323530563
30
0
41
1
10
26.8793288231823
20
-1.96054965526272
30
0
41
1
10
26.4387535173554
20
-1.93896085719513
30
0
41
1
10
26.2185654984976
20
-1.92386956847162
30
0
41
1
10
25.7784497542005
20
-1.884528666878
30
0
41
1
10
25.5586004493501
20
-1.86011600257768
30
0
41
1
10
24.8984022261325
20
-1.77462705861635
30
0
41
1
10
24.4575773308318
20
-1.70183378515421
30
0
41
1
10
23.577922936656
20
-1.52419220058073
30
0
41
1
10
23.1368514200924
20
-1.42187400316797
30
0
41
1
10
22.4769364660781
20
-1.24832868100211
30
0
41
1
10
22.2570339654262
20
-1.18747890103896
30
0
41
1
10
21.8167573169394
20
-1.06147159278956
30
0
41
1
10
21.5963589217154
20
-0.995949684924966
30
0
41
1
10
21.1560854160033
20
-0.860074552187058
30
0
41
1
10
20.9362202790507
20
-0.789732115615749
30
0
41
1
10
20.4961222408622
20
-0.646794563554096
30
0
41
1
10
20.2759986261828
20
-0.57388190973748
30
0
41
1
10
19.8356377722557
20
-0.424946995878997
30
0
41
1
10
19.6155185915724
20
-0.348795289689235
30
0
41
1
10
19.1754193865824
20
-0.196308867225241
30
0
41
1
10
18.9553471460632
20
-0.119800246960921
30
0
41
1
10
18.5152061266739
20
0.0339170834795652
30
0
41
1
10
18.2951110258636
20
0.111393623248262
30
0
41
1
10
17.8548216286492
20
0.265215979148394
30
0
41
1
10
17.634719018811
20
0.341187169076335
30
0
41
1
10
16.9745674348732
20
0.566350234363682
30
0
41
1
10
16.5344077477336
20
0.713586685070794
30
0
41
1
10
15.6536808556365
20
0.99028502224354
30
0
41
1
10
15.2141391310312
20
1.12165734610031
30
0
41
1
10
14.5530558207726
20
1.30130072637894
30
0
41
1
10
14.3328227483622
20
1.35831408665496
30
0
41
1
10
13.8926313434736
20
1.46610018195938
30
0
41
1
10
13.6726710948369
20
1.51683487500216
30
0
41
1
10
13.2320709681671
20
1.61034022151318
30
0
41
1
10
13.011882245982
20
1.65317979141517
30
0
41
1
10
12.571725651031
20
1.73055777929048
30
0
41
1
10
12.3518206688848
20
1.76508128282782
30
0
41
1
10
12.1315742678447
20
1.79499487617963
30
0
0
SPLINE
5
C9
100
AcDbEntity
8
1
62
256
6
ByLayer
370
18
48
1
60
0
100
AcDbSpline
70
4
71
3
72
30
73
26
40
0
40
0
40
0
40
0
40
0.0480146460540106
40
0.0480146460540106
40
0.131084951635949
40
0.131084951635949
40
0.214155257217889
40
0.214155257217889
40
0.297225562799827
40
0.297225562799827
40
0.380295868381766
40
0.380295868381766
40
0.463366173963705
40
0.463366173963705
40
0.546436479545644
40
0.546436479545644
40
0.629506785127584
40
0.629506785127584
40
0.712577090709522
40
0.712577090709522
40
0.795647396291462
40
0.795647396291462
40
0.878717701873401
40
0.878717701873401
40
1
40
1
40
1
40
1
41
1
10
34.4274770217697
20
-0.0251413233736741
30
0
41
1
10
34.2679505756396
20
0.0273811534604533
30
0
41
1
10
34.1085103877902
20
0.0799254811541914
30
0
41
1
10
33.6733401723524
20
0.223040949880385
30
0
41
1
10
33.3977019735048
20
0.313355858480264
30
0
41
1
10
32.8458458198855
20
0.4909555669621
30
0
41
1
10
32.5696135950988
20
0.57854539548967
30
0
41
1
10
32.0166391942286
20
0.748956735142826
30
0
41
1
10
31.7405233922469
20
0.83128415511348
30
0
41
1
10
31.1891325243533
20
0.990272833401377
30
0
41
1
10
30.913458838801
20
1.06612319859934
30
0
41
1
10
30.3620363754124
20
1.21034993095483
30
0
41
1
10
30.0862010773687
20
1.27855244102977
30
0
41
1
10
29.5337486296123
20
1.40499119794987
30
0
41
1
10
29.2571543066049
20
1.46335782982032
30
0
41
1
10
28.7053163175497
20
1.56900308205019
30
0
41
1
10
28.4296882061094
20
1.61637617634818
30
0
41
1
10
27.8785041856595
20
1.69965336201736
30
0
41
1
10
27.6029105151788
20
1.73554368579949
30
0
41
1
10
27.0515284287117
20
1.79359130039615
30
0
41
1
10
26.7754661815833
20
1.81606672704785
30
0
41
1
10
26.2224903315686
20
1.84897037186926
30
0
41
1
10
25.9464399459867
20
1.85916501632974
30
0
41
1
10
25.2681894631907
20
1.86651119208187
30
0
41
1
10
24.8661921189811
20
1.85613506036933
30
0
41
1
10
24.4637598832365
20
1.83216501601808
30
0
0
SPLINE
5
CA
100
AcDbEntity
8
1
62
256
6
ByLayer
370
18
48
1
60
0
100
AcDbSpline
70
4
71
1
72
4
73
2
40
0
40
0
40
1
40
1
41
1
10
12.1316049602623
20
1.77022965723617
30
0
41
1
10
12.1315742678447
20
1.79499487619472
30
0
0
SPLINE
5
CB
100
AcDbEntity
8
1
62
256
6
ByLayer
370
18
48
1
60
0
100
AcDbSpline
70
4
71
3
72
8
73
4
40
0
40
0
40
0
40
0
40
1
40
1
40
1
40
1
41
1
10
57.0469916790211
20
0.557102269033862
30
0
41
1
10
57.0893721095855
20
0.398593071159468
30
0
41
1
10
57.121105451144
20
0.239847537746044
30
0
41
1
10
57.1381652923985
20
0.0807762937462257
30
0
0
SPLINE
5
CC
100
AcDbEntity
8
1
62
256
6
ByLayer
370
18
48
1
60
0
100
AcDbSpline
70
4
71
3
72
32
73
28
40
0
40
0
40
0
40
0
40
0.0495295462141877
40
0.0495295462141877
40
0.12607241631759
40
0.12607241631759
40
0.202615286420993
40
0.202615286420993
40
0.279158156524396
40
0.279158156524396
40
0.355701026627799
40
0.355701026627799
40
0.432243896731201
40
0.432243896731201
40
0.508786766834604
40
0.508786766834604
40
0.661872507041409
40
0.661872507041409
40
0.738415377144812
40
0.738415377144812
40
0.814958247248215
40
0.814958247248215
40
0.891501117351618
40
0.891501117351618
40
0.96804398745502
40
0.96804398745502
40
1
40
1
40
1
40
1
41
1
10
40.6608352598822
20
-1.84721831871431
30
0
41
1
10
40.3629222274707
20
-1.88280539623184
30
0
41
1
10
40.064913046143
20
-1.91067914729788
30
0
41
1
10
39.3069422013871
20
-1.96048961918987
30
0
41
1
10
38.8466883125399
20
-1.97103881606066
30
0
41
1
10
37.9257904825828
20
-1.95325232484922
30
0
41
1
10
37.4659718033792
20
-1.92502287298726
30
0
41
1
10
36.5448502444629
20
-1.8297639810333
30
0
41
1
10
36.0847113639315
20
-1.76316180704251
30
0
41
1
10
35.1640645475949
20
-1.59663594553311
30
0
41
1
10
34.7033718145395
20
-1.49651743879264
30
0
41
1
10
33.7829658212706
20
-1.26831045138712
30
0
41
1
10
33.3221372921988
20
-1.13998236103819
30
0
41
1
10
32.4015447496764
20
-0.864241459388438
30
0
41
1
10
31.9409911548371
20
-0.716282562845578
30
0
41
1
10
30.5595441930629
20
-0.25519105691049
30
0
41
1
10
29.6390045144929
20
0.074415223947625
30
0
41
1
10
28.2576149342976
20
0.545278423354659
30
0
41
1
10
27.796852017954
20
0.698126568283271
30
0
41
1
10
26.8761599023956
20
0.986897618998199
30
0
41
1
10
26.4151958195843
20
1.12313941136966
30
0
41
1
10
25.4945043483172
20
1.36957503525764
30
0
41
1
10
25.0337497636537
20
1.48016131310314
30
0
41
1
10
24.1127065914507
20
1.66978264961932
30
0
41
1
10
23.6525304384737
20
1.74884514460459
30
0
41
1
10
22.9992667886614
20
1.83473602957542
30
0
41
1
10
22.8070078173835
20
1.85679267909094
30
0
41
1
10
22.6147875666721
20
1.87556755694041
30
0
0
SPLINE
5
CD
100
AcDbEntity
8
1
62
256
6
ByLayer
370
18
48
1
60
0
100
AcDbSpline
70
4
71
3
72
38
73
34
40
0
40
0
40
0
40
0
40
0.0013924811233869
40
0.0013924811233869
40
0.0710177582894467
40
0.0710177582894467
40
0.140643035455506
40
0.140643035455506
40
0.210268312621566
40
0.210268312621566
40
0.279893589787626
40
0.279893589787626
40
0.349518866953686
40
0.349518866953686
40
0.419144144119746
40
0.419144144119746
40
0.488769421285806
40
0.488769421285806
40
0.558394698451866
40
0.558394698451866
40
0.628019975617925
40
0.628019975617925
40
0.697645252783985
40
0.697645252783985
40
0.767270529950045
40
0.767270529950045
40
0.836895807116105
40
0.836895807116105
40
0.906521084282165
40
0.906521084282165
40
0.976146361448224
40
0.976146361448224
40
1
40
1
40
1
40
1
41
1
10
20.4128165539717
20
2.02744374678818
30
0
41
1
10
20.4220324840716
20
2.02744945226323
30
0
41
1
10
20.43124813643
20
2.0274469826748
30
0
41
1
10
20.9012396670757
20
2.02690392012124
30
0
41
1
10
21.3621669501958
20
2.00579132561086
30
0
41
1
10
22.2840426490032
20
1.92390978781469
30
0
41
1
10
22.7446473131346
20
1.86344016333743
30
0
41
1
10
23.6673029712074
20
1.7058435537692
30
0
41
1
10
24.1273497784512
20
1.60869018282571
30
0
41
1
10
25.04910646501
20
1.38437430827398
30
0
41
1
10
25.5103240751751
20
1.25752894391238
30
0
41
1
10
26.4317385810814
20
0.9805610749209
30
0
41
1
10
26.8927589681525
20
0.829729878669781
30
0
41
1
10
27.8139980219192
20
0.516160098072788
30
0
41
1
10
28.2754773702418
20
0.353211072192067
30
0
41
1
10
29.1971913743044
20
0.0226605096007688
30
0
41
1
10
29.6575272890987
20
-0.145498533958261
30
0
41
1
10
30.5794854523345
20
-0.47490461076336
30
0
41
1
10
31.0398618430298
20
-0.63559456422945
30
0
41
1
10
31.961789564219
20
-0.942614638593341
30
0
41
1
10
32.422198279441
20
-1.08886798980359
30
0
41
1
10
33.3434252450412
20
-1.35558177309551
30
0
41
1
10
33.8048323031192
20
-1.47620246885233
30
0
41
1
10
34.7260865624302
20
-1.68610878448979
30
0
41
1
10
35.1870612142829
20
-1.77576212363536
30
0
41
1
10
36.1081742598459
20
-1.91703348669657
30
0
41
1
10
36.5691037400796
20
-1.96892119058847
30
0
41
1
10
37.490727662379
20
-2.03272529126457
30
0
41
1
10
37.950553022195
20
-2.04448812563246
30
0
41
1
10
38.872443640201
20
-2.02677231098244
30
0
41
1
10
39.3329805592827
20
-1.99752944991587
30
0
41
1
10
39.95145292402
20
-1.93179793263073
30
0
41
1
10
40.1092750632516
20
-1.91267270125712
30
0
41
1
10
40.2670878885405
20
-1.8913035905353
30
0
0
SPLINE
5
CE
100
AcDbEntity
8
1
62
256
6
ByLayer
370
18
48
1
60
0
100
AcDbSpline
70
4
71
3
72
8
73
4
40
0
40
0
40
0
40
0
40
1
40
1
40
1
40
1
41
1
10
55.7949123253022
20
2.04956363396477
30
0
41
1
10
55.9855583297396
20
2.04968648878457
30
0
41
1
10
56.1763081264039
20
2.04625910379923
30
0
41
1
10
56.3672500071314
20
2.03924485783551
30
0
0
SPLINE
5
CF
100
AcDbEntity
8
1
62
256
6
ByLayer
370
18
48
1
60
0
100
AcDbSpline
70
4
71
3
72
8
73
4
40
0
40
0
40
0
40
0
40
1
40
1
40
1
40
1
41
1
10
56.3672500071314
20
-2.03924485783551
30
0
41
1
10
56.3583536153583
20
-2.01798213782774
30
0
41
1
10
56.3472775472981
20
-1.99672603348097
30
0
41
1
10
56.3341193630815
20
-1.9752502614358
30
0
0
SPLINE
5
D0
100
AcDbEntity
8
1
62
256
6
ByLayer
370
18
48
1
60
0
100
AcDbSpline
70
4
71
3
72
8
73
4
40
0
40
0
40
0
40
0
40
1
40
1
40
1
40
1
41
1
10
12.1313432345338
20
-1.84349804339595
30
0
41
1
10
12.1314203768108
20
-1.82729557202771
30
0
41
1
10
12.1314973878023
20
-1.81112787934583
30
0
41
1
10
12.1315742678466
20
-1.79499487579136
30
0
0
SPLINE
5
D1
100
AcDbEntity
8
1
62
256
6
ByLayer
370
18
48
1
60
0
100
AcDbSpline
70
4
71
3
72
44
73
40
40
0
40
0
40
0
40
0
40
0.0624180752190391
40
0.0624180752190391
40
0.124836150438078
40
0.124836150438078
40
0.187254225657117
40
0.187254225657117
40
0.218463263266636
40
0.218463263266636
40
0.249672300876155
40
0.249672300876155
40
0.312090376095193
40
0.312090376095193
40
0.37450845131423
40
0.37450845131423
40
0.436926526533268
40
0.436926526533268
40
0.499344601752305
40
0.499344601752305
40
0.561762676971343
40
0.561762676971343
40
0.62418075219038
40
0.62418075219038
40
0.686598827409418
40
0.686598827409418
40
0.717807865018938
40
0.717807865018938
40
0.749016902628457
40
0.749016902628457
40
0.811434977847496
40
0.811434977847496
40
0.873853053066535
40
0.873853053066535
40
0.936271128285575
40
0.936271128285575
40
0.998689203504614
40
0.998689203504614
40
1
40
1
40
1
40
1
41
1
10
6.58785498022843
20
1.21981210530618
30
0
41
1
10
6.84911368348673
20
1.14438935665507
30
0
41
1
10
7.11022203927121
20
1.06646946874909
30
0
41
1
10
7.6315305038537
20
0.90437779166632
30
0
41
1
10
7.89158980547415
20
0.819823009076003
30
0
41
1
10
8.41107454171424
20
0.645022475030544
30
0
41
1
10
8.67120691735295
20
0.556682044792979
30
0
41
1
10
9.06137343673007
20
0.421177014925718
30
0
41
1
10
9.19144565524761
20
0.375565622852321
30
0
41
1
10
9.45155988042288
20
0.283255664930721
30
0
41
1
10
9.58153449764256
20
0.236358384023418
30
0
41
1
10
9.97220944214172
20
0.0962926355605305
30
0
41
1
10
10.2337936061226
20
0.0033007919136026
30
0
41
1
10
10.7567256734003
20
-0.18358537140071
30
0
41
1
10
11.0168020526117
20
-0.277782201264614
30
0
41
1
10
11.5362477634791
20
-0.461194693681847
30
0
41
1
10
11.7955916537693
20
-0.550592622002824
30
0
41
1
10
12.3129297310463
20
-0.726623470395651
30
0
41
1
10
12.5706957682459
20
-0.81379026428732
30
0
41
1
10
13.0869239406924
20
-0.979684429629458
30
0
41
1
10
13.3450944101342
20
-1.05927455951112
30
0
41
1
10
13.861101366242
20
-1.21281836988078
30
0
41
1
10
14.1188080556171
20
-1.2869862295924
30
0
41
1
10
14.6360602243861
20
-1.42454143883805
30
0
41
1
10
14.8951807159365
20
-1.48896225808136
30
0
41
1
10
15.2843600236129
20
-1.5794040283794
30
0
41
1
10
15.4141030460251
20
-1.60863308076162
30
0
41
1
10
15.674240402687
20
-1.66404345723126
30
0
41
1
10
15.8046105682444
20
-1.69028385518396
30
0
41
1
10
16.1964864885845
20
-1.76490734924147
30
0
41
1
10
16.4583249667039
20
-1.80924015613206
30
0
41
1
10
16.9796584522408
20
-1.88672493139441
30
0
41
1
10
17.2401492443819
20
-1.91924450771739
30
0
41
1
10
17.7616023653996
20
-1.97150336397107
30
0
41
1
10
18.022252798789
20
-1.99154340966569
30
0
41
1
10
18.5433186450495
20
-2.0189432285035
30
0
41
1
10
18.8048874075353
20
-2.02598123303119
30
0
41
1
10
19.0717493197975
20
-2.02659284377879
30
0
41
1
10
19.0772377160213
20
-2.02660255830034
30
0
41
1
10
19.0827256076492
20
-2.02660940730002
30
0
0
SPLINE
5
D2
100
AcDbEntity
8
1
62
256
6
ByLayer
370
18
48
1
60
0
100
AcDbSpline
70
4
71
3
72
8
73
4
40
0
40
0
40
0
40
0
40
1
40
1
40
1
40
1
41
1
10
28.8539444786518
20
0.328170300098151
30
0
41
1
10
28.8667525058134
20
0.332733205248132
30
0
41
1
10
28.8795607022256
20
0.33729220058018
30
0
41
1
10
28.8923689700637
20
0.341847149614324
30
0
0
SPLINE
5
D3
100
AcDbEntity
8
1
62
256
6
ByLayer
370
18
48
1
60
0
100
AcDbSpline
70
4
71
3
72
74
73
70
40
0
40
0
40
0
40
0
40
0.013193051518386
40
0.013193051518386
40
0.0305572428974225
40
0.0305572428974225
40
0.0479214342764593
40
0.0479214342764593
40
0.0826498170345323
40
0.0826498170345323
40
0.117378199792605
40
0.117378199792605
40
0.152106582550678
40
0.152106582550678
40
0.186834965308751
40
0.186834965308751
40
0.221563348066825
40
0.221563348066825
40
0.256291730824897
40
0.256291730824897
40
0.291020113582971
40
0.291020113582971
40
0.308384304962007
40
0.308384304962007
40
0.325748496341044
40
0.325748496341044
40
0.360476879099117
40
0.360476879099117
40
0.39520526185719
40
0.39520526185719
40
0.429933644615263
40
0.429933644615263
40
0.464662027373336
40
0.464662027373336
40
0.499390410131409
40
0.499390410131409
40
0.534118792889482
40
0.534118792889482
40
0.551482984268518
40
0.551482984268518
40
0.568847175647554
40
0.568847175647554
40
0.603575558405625
40
0.603575558405625
40
0.638303941163697
40
0.638303941163697
40
0.673032323921768
40
0.673032323921768
40
0.707760706679839
40
0.707760706679839
40
0.742489089437911
40
0.742489089437911
40
0.777217472195982
40
0.777217472195982
40
0.811945854954053
40
0.811945854954053
40
0.829310046333089
40
0.829310046333089
40
0.846674237712125
40
0.846674237712125
40
0.881402620470195
40
0.881402620470195
40
0.916131003228265
40
0.916131003228265
40
0.950859385986335
40
0.950859385986335
40
0.985587768744404
40
0.985587768744404
40
1
40
1
40
1
40
1
41
1
10
32.0344806096523
20
1.35178991397726
30
0
41
1
10
32.1335300501284
20
1.37841999388112
30
0
41
1
10
32.2324775571581
20
1.40437963469961
30
0
41
1
10
32.4612351933595
20
1.46305513112566
30
0
41
1
10
32.5910226669851
20
1.49526592346405
30
0
41
1
10
32.8500974387623
20
1.55756998825541
30
0
41
1
10
32.9793517895653
20
1.58770551055363
30
0
41
1
10
33.3672085556202
20
1.67331785854691
30
0
41
1
10
33.6256984996981
20
1.72452190076655
30
0
41
1
10
34.141792217531
20
1.81661801332513
30
0
41
1
10
34.3991564338711
20
1.85766757652357
30
0
41
1
10
34.9148214793873
20
1.92682885069829
30
0
41
1
10
35.1730180017217
20
1.95522690519155
30
0
41
1
10
35.6895459694114
20
2.00015679069531
30
0
41
1
10
35.9476729476018
20
2.01663693170673
30
0
41
1
10
36.4661663749373
20
2.0362513804053
30
0
41
1
10
36.7261997858807
20
2.03968265709435
30
0
41
1
10
37.2474689545678
20
2.03348947777548
30
0
41
1
10
37.5086991946896
20
2.02362825724978
30
0
41
1
10
38.0305701254525
20
1.99142511042669
30
0
41
1
10
38.2912790880882
20
1.96904758818448
30
0
41
1
10
38.6817078187676
20
1.92568039101698
30
0
41
1
10
38.811693423992
20
1.90951449351513
30
0
41
1
10
39.0720335305227
20
1.87441883761008
30
0
41
1
10
39.2023418354779
20
1.85546545964067
30
0
41
1
10
39.5935021875706
20
1.79428483761691
30
0
41
1
10
39.854625116346
20
1.74768590732799
30
0
41
1
10
40.3767036906106
20
1.6419288439387
30
0
41
1
10
40.6374861139511
20
1.58399560379749
30
0
41
1
10
41.1589530177549
20
1.45913544744354
30
0
41
1
10
41.4193678269607
20
1.39171603905424
30
0
41
1
10
41.9396846815361
20
1.24680603397277
30
0
41
1
10
42.2004306553797
20
1.17114596637433
30
0
41
1
10
42.7224635439804
20
1.01225933564811
30
0
41
1
10
42.9839058216136
20
0.928330384876176
30
0
41
1
10
43.5042670085445
20
0.755639518694295
30
0
41
1
10
43.7640521831435
20
0.668142480175646
30
0
41
1
10
44.152598165427
20
0.533623894637088
30
0
41
1
10
44.2819523369795
20
0.488317721411022
30
0
41
1
10
44.540238795818
20
0.396485978898028
30
0
41
1
10
44.6691491041682
20
0.349897223395573
30
0
41
1
10
45.0561224705812
20
0.210816016991572
30
0
41
1
10
45.3141998433165
20
0.118353642529968
30
0
41
1
10
45.8298139379926
20
-0.068153781311139
30
0
41
1
10
46.087113848515
20
-0.162879805571805
30
0
41
1
10
46.6030405857025
20
-0.348547958991276
30
0
41
1
10
46.861539292106
20
-0.439857929392588
30
0
41
1
10
47.3790370241346
20
-0.621069660913236
30
0
41
1
10
47.6378442218418
20
-0.711523526015952
30
0
41
1
10
48.1580663497156
20
-0.884963300718738
30
0
41
1
10
48.4195582715942
20
-0.96907651013052
30
0
41
1
10
48.9416793304422
20
-1.13203167547172
30
0
41
1
10
49.2021856422989
20
-1.21091219067136
30
0
41
1
10
49.7245612225786
20
-1.35800484216853
30
0
41
1
10
49.9861393741311
20
-1.42736658469468
30
0
41
1
10
50.3770697359731
20
-1.52512204973519
30
0
41
1
10
50.5071542329547
20
-1.55672035502087
30
0
41
1
10
50.7675410306853
20
-1.61673170167867
30
0
41
1
10
50.8977927240748
20
-1.64525568479976
30
0
41
1
10
51.2885357187019
20
-1.72679518122612
30
0
41
1
10
51.5489702796768
20
-1.77587369868917
30
0
41
1
10
52.069391023184
20
-1.86350350478716
30
0
41
1
10
52.3301095969522
20
-1.90108556661463
30
0
41
1
10
52.8527918711101
20
-1.96383985248377
30
0
41
1
10
53.1136472253432
20
-1.98914976323348
30
0
41
1
10
53.6344302689291
20
-2.02702006828056
30
0
41
1
10
53.8952241433804
20
-2.03918785712497
30
0
41
1
10
54.2643174348294
20
-2.04732723825813
30
0
41
1
10
54.3725810175117
20
-2.04859775361061
30
0
41
1
10
54.480848291301
20
-2.04873345140425
30
0
0
SPLINE
5
D4
100
AcDbEntity
8
1
62
256
6
ByLayer
370
18
48
1
60
0
100
AcDbSpline
70
4
71
3
72
8
73
4
40
0
40
0
40
0
40
0
40
1
40
1
40
1
40
1
41
1
10
54.0096859296142
20
-0.228034126807472
30
0
41
1
10
54.1487679769713
20
-0.278221255023681
30
0
41
1
10
54.2877948254398
20
-0.328193970875532
30
0
41
1
10
54.4268058929539
20
-0.377844533798594
30
0
0
SPLINE
5
D5
100
AcDbEntity
8
1
62
256
6
ByLayer
370
18
48
1
60
0
100
AcDbSpline
70
4
71
3
72
38
73
34
40
0
40
0
40
0
40
0
40
0.0454374802146049
40
0.0454374802146049
40
0.111577657177485
40
0.111577657177485
40
0.177717834140366
40
0.177717834140366
40
0.243858011103247
40
0.243858011103247
40
0.309998188066127
40
0.309998188066127
40
0.376138365029007
40
0.376138365029007
40
0.442278541991888
40
0.442278541991888
40
0.508418718954768
40
0.508418718954768
40
0.574558895917649
40
0.574558895917649
40
0.640699072880529
40
0.640699072880529
40
0.70683924984341
40
0.70683924984341
40
0.772979426806291
40
0.772979426806291
40
0.839119603769171
40
0.839119603769171
40
0.905259780732051
40
0.905259780732051
40
0.971399957694932
40
0.971399957694932
40
1
40
1
40
1
40
1
41
1
10
26.9460050549009
20
2.03151215327461
30
0
41
1
10
27.2455877047108
20
2.03166155081359
30
0
41
1
10
27.5450167381177
20
2.02306842275246
30
0
41
1
10
28.2810839329767
20
1.98092110784506
30
0
41
1
10
28.7179878192101
20
1.93784796812031
30
0
41
1
10
29.5900835044726
20
1.81708194746278
30
0
41
1
10
30.0266777851025
20
1.73933094593352
30
0
41
1
10
30.8991414405013
20
1.55451756442454
30
0
41
1
10
31.3354539897278
20
1.44749960588106
30
0
41
1
10
32.2081024014768
20
1.2073837592192
30
0
41
1
10
32.6434385632843
20
1.07486876222075
30
0
41
1
10
33.5158417427781
20
0.793458848335746
30
0
41
1
10
33.9523759627531
20
0.64487251941793
30
0
41
1
10
34.8244972399973
20
0.338046108949555
30
0
41
1
10
35.2610514744753
20
0.1794794420843
30
0
41
1
10
36.133203861949
20
-0.136730279994083
30
0
41
1
10
36.5697669318629
20
-0.294649130243158
30
0
41
1
10
37.4422701999201
20
-0.603733421847835
30
0
41
1
10
37.8775372046123
20
-0.754963158284596
30
0
41
1
10
38.7499764577305
20
-1.04059793936054
30
0
41
1
10
39.1860073030832
20
-1.17458374834556
30
0
41
1
10
40.0581649391002
20
-1.41925524019985
30
0
41
1
10
40.4945687315301
20
-1.53037622596062
30
0
41
1
10
41.3663971475794
20
-1.72219232191375
30
0
41
1
10
41.8030429197243
20
-1.80316501877013
30
0
41
1
10
42.675314995017
20
-1.93150649673157
30
0
41
1
10
43.1106275696487
20
-1.97909850477984
30
0
41
1
10
43.9830193596249
20
-2.03731259251094
30
0
41
1
10
44.4185525820607
20
-2.0478681949516
30
0
41
1
10
45.2909783979625
20
-2.03221800242952
30
0
41
1
10
45.7273886817891
20
-2.00589498129861
30
0
41
1
10
46.3517751847493
20
-1.942671976469
30
0
41
1
10
46.5404101928577
20
-1.92026413321685
30
0
41
1
10
46.7290839646628
20
-1.89468600244044
30
0
0
SPLINE
5
D6
100
AcDbEntity
8
1
62
256
6
ByLayer
370
18
48
1
60
0
100
AcDbSpline
70
4
71
3
72
12
73
8
40
0
40
0
40
0
40
0
40
0.25
40
0.25
40
0.500000000000001
40
0.500000000000001
40
1
40
1
40
1
40
1
41
1
10
55.3887530749979
20
-1.02596172325775
30
0
41
1
10
55.4033511165813
20
-1.02471007886271
30
0
41
1
10
55.4181117673104
20
-1.02686018297661
30
0
41
1
10
55.4477305125036
20
-1.03319889419006
30
0
41
1
10
55.4625649673579
20
-1.0376807382454
30
0
41
1
10
55.5062526228512
20
-1.05357212926773
30
0
41
1
10
55.5347635208981
20
-1.06719346779624
30
0
41
1
10
55.5623470127497
20
-1.08538547562702
30
0
0
SPLINE
5
D7
100
AcDbEntity
8
1
62
256
6
ByLayer
370
18
48
1
60
0
100
AcDbSpline
70
4
71
3
72
8
73
4
40
0
40
0
40
0
40
0
40
1
40
1
40
1
40
1
41
1
10
12.1315742678449
20
1.79499487612938
30
0
41
1
10
12.1314973874223
20
1.81112795909104
30
0
41
1
10
12.1314203764297
20
1.82729565207086
30
0
41
1
10
12.1313432345338
20
1.84349804339695
30
0
0
SPLINE
5
D8
100
AcDbEntity
8
1
62
256
6
ByLayer
370
18
48
1
60
0
100
AcDbSpline
70
4
71
3
72
30
73
26
40
0
40
0
40
0
40
0
40
0.0633720487645098
40
0.0633720487645098
40
0.143590126368495
40
0.143590126368495
40
0.304026281576464
40
0.304026281576464
40
0.384244359180448
40
0.384244359180448
40
0.464462436784432
40
0.464462436784432
40
0.544680514388417
40
0.544680514388417
40
0.624898591992401
40
0.624898591992401
40
0.705116669596385
40
0.705116669596385
40
0.78533474720037
40
0.78533474720037
40
0.865552824804354
40
0.865552824804354
40
0.945770902408338
40
0.945770902408338
40
1
40
1
40
1
40
1
41
1
10
7.66390089907404
20
1.82232367889722
30
0
41
1
10
7.88154729239824
20
1.82149054039039
30
0
41
1
10
8.09959639254524
20
1.81671648681731
30
0
41
1
10
8.59477987185304
20
1.79702721220028
30
0
41
1
10
8.87220099384405
20
1.77902613206496
30
0
41
1
10
9.70213106962936
20
1.70596585041005
30
0
41
1
10
10.2541219211217
20
1.63302739287926
30
0
41
1
10
11.0839008898849
20
1.48844187657821
30
0
41
1
10
11.36091615063
20
1.43487702513295
30
0
41
1
10
11.9149907470489
20
1.31784648684842
30
0
41
1
10
12.1916067959706
20
1.25424525948964
30
0
41
1
10
12.7444693865966
20
1.11856206177262
30
0
41
1
10
13.0206577158015
20
1.04665170958077
30
0
41
1
10
13.5732395746379
20
0.895870406088335
30
0
41
1
10
13.8496938173132
20
0.816868832366197
30
0
41
1
10
14.4033836966434
20
0.653311607275668
30
0
41
1
10
14.6807690369553
20
0.568767439693573
30
0
41
1
10
15.2342718364051
20
0.396592967946731
30
0
41
1
10
15.510656135656
20
0.308828881520156
30
0
41
1
10
16.0633203447264
20
0.131848436899759
30
0
41
1
10
16.3396285679042
20
0.04270701283275
30
0
41
1
10
16.8926577847359
20
-0.135356620343032
30
0
41
1
10
17.1693307023792
20
-0.224396430790023
30
0
41
1
10
17.6338481793967
20
-0.372009926716572
30
0
41
1
10
17.8210575058638
20
-0.431018857780856
30
0
41
1
10
18.0081254943796
20
-0.489114131773363
30
0
0
SPLINE
5
D9
100
AcDbEntity
8
1
62
256
6
ByLayer
370
18
48
1
60
0
100
AcDbSpline
70
4
71
3
72
30
73
26
40
0
40
0
40
0
40
0
40
0.0060178239567002
40
0.0060178239567002
40
0.0884580967918277
40
0.0884580967918277
40
0.170898369626955
40
0.170898369626955
40
0.253338642462083
40
0.253338642462083
40
0.33577891529721
40
0.33577891529721
40
0.418219188132338
40
0.418219188132338
40
0.500659460967466
40
0.500659460967466
40
0.583099733802593
40
0.583099733802593
40
0.747980279472844
40
0.747980279472844
40
0.912860825143096
40
0.912860825143096
40
0.995301097978222
40
0.995301097978222
40
1
40
1
40
1
40
1
41
1
10
43.1280612394698
20
1.80551829825376
30
0
41
1
10
43.148272538709
20
1.80539721485977
30
0
41
1
10
43.1684806601825
20
1.80523635757689
30
0
41
1
10
43.4654743138323
20
1.80227865478915
30
0
41
1
10
43.7417391379487
20
1.79276561915384
30
0
41
1
10
44.2939338478105
20
1.76310910362383
30
0
41
1
10
44.5698274324972
20
1.74232891275466
30
0
41
1
10
45.1220599890389
20
1.68665341818641
30
0
41
1
10
45.3983713968707
20
1.65224906626958
30
0
41
1
10
45.9517524293879
20
1.57199124453484
30
0
41
1
10
46.2292619805415
20
1.52606597178288
30
0
41
1
10
46.7831257537521
20
1.42438786624706
30
0
41
1
10
47.0590109924301
20
1.36854668283553
30
0
41
1
10
47.6090403428769
20
1.2471869174185
30
0
41
1
10
47.883209651993
20
1.18187412020552
30
0
41
1
10
48.4304158687812
20
1.04407609698191
30
0
41
1
10
48.7034480799545
20
0.971484520213579
30
0
41
1
10
49.5215724657332
20
0.744322148584615
30
0
41
1
10
50.0655703738074
20
0.580775320423385
30
0
41
1
10
51.1548979788471
20
0.241732765054195
30
0
41
1
10
51.700388578014
20
0.0666489043757679
30
0
41
1
10
52.5221135620906
20
-0.195578507155176
30
0
41
1
10
52.7966897972997
20
-0.282787899118404
30
0
41
1
10
53.0879476138804
20
-0.373644173757924
30
0
41
1
10
53.1036568611049
20
-0.378539975161033
30
0
41
1
10
53.1193694710988
20
-0.383432127321697
30
0
0
SPLINE
5
DA
100
AcDbEntity
8
1
62
256
6
ByLayer
370
18
48
1
60
0
100
AcDbSpline
70
4
71
3
72
8
73
4
40
0
40
0
40
0
40
0
40
1
40
1
40
1
40
1
41
1
10
55.3532474354851
20
-1.03157030122907
30
0
41
1
10
55.4229453119979
20
-1.0497371698506
30
0
41
1
10
55.4926439292727
20
-1.06767762642332
30
0
41
1
10
55.5623470127604
20
-1.0853854756341
30
0
0
SPLINE
5
DB
100
AcDbEntity
8
1
62
256
6
ByLayer
370
18
48
1
60
0
100
AcDbSpline
70
4
71
3
72
18
73
14
40
0
40
0
40
0
40
0
40
0.208986423622258
40
0.208986423622258
40
0.313479635433385
40
0.313479635433385
40
0.417972847244511
40
0.417972847244511
40
0.626959270866765
40
0.626959270866765
40
0.835945694489018
40
0.835945694489018
40
1
40
1
40
1
40
1
41
1
10
56.3968035070369
20
-1.79946494965091
30
0
41
1
10
55.8338530140115
20
-1.7951678890374
30
0
41
1
10
55.2722216823875
20
-1.7636381391255
30
0
41
1
10
54.4284306296356
20
-1.67792744709291
30
0
41
1
10
54.1465952536361
20
-1.64286669046507
30
0
41
1
10
53.5836375099165
20
-1.56073096289583
30
0
41
1
10
53.3026963808347
20
-1.5137247084719
30
0
41
1
10
52.4606438781001
20
-1.35651031661254
30
0
41
1
10
51.9002766102902
20
-1.22991966767904
30
0
41
1
10
50.7770094879048
20
-0.943369639194913
30
0
41
1
10
50.2124965438493
20
-0.782824014261479
30
0
41
1
10
49.2128052367567
20
-0.481908773417217
30
0
41
1
10
48.7749449142219
20
-0.344444583730791
30
0
41
1
10
48.3378261509125
20
-0.205280861337371
30
0
0
SPLINE
5
DC
100
AcDbEntity
8
1
62
256
6
ByLayer
370
13
48
1
60
0
100
AcDbSpline
70
4
71
3
72
10
73
6
40
0
40
0
40
0
40
0
40
0.194481989523261
40
0.194481989523261
40
1
40
1
40
1
40
1
41
1
10
48.3378255311404
20
-0.205280664023007
30
0
41
1
10
48.2181051866063
20
-0.167165784477447
30
0
41
1
10
48.0984404686797
20
-0.128923417864172
30
0
41
1
10
47.4833170747004
20
0.0680068832779455
30
0
41
1
10
46.9884076339709
20
0.227598835125804
30
0
41
1
10
46.4925339229601
20
0.383089003490056
30
0
0
SPLINE
5
DD
100
AcDbEntity
8
1
62
256
6
ByLayer
370
18
48
1
60
0
100
AcDbSpline
70
4
71
3
72
10
73
6
40
0
40
0
40
0
40
0
40
0.343798823972541
40
0.343798823972541
40
1
40
1
40
1
40
1
41
1
10
46.4925339229155
20
0.383089003503954
30
0
41
1
10
46.4315590115747
20
0.402208789489436
30
0
41
1
10
46.3705695201855
20
0.421266555309842
30
0
41
1
10
46.1931199626207
20
0.476491678867632
30
0
41
1
10
46.0766152074357
20
0.512475467192161
30
0
41
1
10
45.960028258032
20
0.548139251309891
30
0
0
SPLINE
5
DE
100
AcDbEntity
8
1
62
256
6
ByLayer
370
18
48
1
60
0
100
AcDbSpline
70
4
71
3
72
28
73
24
40
0
40
0
40
0
40
0
40
0.0113268817175287
40
0.0113268817175287
40
0.0922330218001151
40
0.0922330218001151
40
0.173139161882701
40
0.173139161882701
40
0.334951442047876
40
0.334951442047876
40
0.496763722213049
40
0.496763722213049
40
0.577669862295638
40
0.577669862295638
40
0.658576002378226
40
0.658576002378226
40
0.8203882825434
40
0.8203882825434
40
0.901294422625988
40
0.901294422625988
40
0.982200562708576
40
0.982200562708576
40
1
40
1
40
1
40
1
41
1
10
21.1487984055555
20
-1.82380441259167
30
0
41
1
10
21.1094777544155
20
-1.82382299383119
30
0
41
1
10
21.0701511149456
20
-1.82370752319929
30
0
41
1
10
20.7498651245578
20
-1.82167226766629
30
0
41
1
10
20.4682464830303
20
-1.81307337460262
30
0
41
1
10
19.9061201007418
20
-1.78245931275623
30
0
41
1
10
19.6254586540392
20
-1.76040295054403
30
0
41
1
10
18.7837948716443
20
-1.67487503283135
30
0
41
1
10
18.2231272440734
20
-1.59209447779031
30
0
41
1
10
17.0979352543265
20
-1.38078716237902
30
0
41
1
10
16.5365945185246
20
-1.25290802967996
30
0
41
1
10
15.6951330842161
20
-1.0362726837044
30
0
41
1
10
15.4146197093837
20
-0.959904632553474
30
0
41
1
10
14.8529476836924
20
-0.800319496921503
30
0
41
1
10
14.5714424865485
20
-0.717011495494859
30
0
41
1
10
13.728213824564
20
-0.460336239022581
30
0
41
1
10
13.1677653596844
20
-0.28019751068635
30
0
41
1
10
12.3261277567379
20
-0.0072401057739455
30
0
41
1
10
12.0454222745013
20
0.0842009424649177
30
0
41
1
10
11.4830841635745
20
0.266100401444078
30
0
41
1
10
11.2017807585973
20
0.356453884207213
30
0
41
1
10
10.8593075384255
20
0.464479045444335
30
0
41
1
10
10.7975638803227
20
0.483875079272167
30
0
41
1
10
10.7358311393076
20
0.503178066057274
30
0
0
SPLINE
5
DF
100
AcDbEntity
8
1
62
256
6
ByLayer
370
18
48
1
60
0
100
AcDbSpline
70
4
71
3
72
8
73
4
40
0
40
0
40
0
40
0
40
1
40
1
40
1
40
1
41
1
10
57.0469916790214
20
0.557102269033805
30
0
41
1
10
57.0269801533775
20
0.622294740086318
30
0
41
1
10
57.0020604090884
20
0.692603905713497
30
0
41
1
10
56.9739477297483
20
0.766871531712354
30
0
0
SPLINE
5
E0
100
AcDbEntity
8
1
62
256
6
ByLayer
370
18
48
1
60
0
100
AcDbSpline
70
4
71
3
72
14
73
10
40
0
40
0
40
0
40
0
40
0.297179953303384
40
0.297179953303384
40
0.594359906606769
40
0.594359906606769
40
0.891539859910153
40
0.891539859910153
40
1
40
1
40
1
40
1
41
1
10
12.1315742678447
20
-1.79499487617974
30
0
41
1
10
12.3518205504625
20
-1.76508129891184
30
0
41
1
10
12.5717927647478
20
-1.73054858646552
30
0
41
1
10
13.0122308842945
20
-1.65311589402873
30
0
41
1
10
13.2325929607663
20
-1.61023280514479
30
0
41
1
10
13.6727193302351
20
-1.51682127168877
30
0
41
1
10
13.892509827062
20
-1.46612790587437
30
0
41
1
10
14.1928106948556
20
-1.39259844125877
30
0
41
1
10
14.2731450752232
20
-1.37251716349201
30
0
41
1
10
14.3535049435448
20
-1.35203074192197
30
0
0
SPLINE
5
E1
100
AcDbEntity
8
1
62
256
6
ByLayer
370
18
48
1
60
0
100
AcDbSpline
70
4
71
3
72
8
73
4
40
0
40
0
40
0
40
0
40
1
40
1
40
1
40
1
41
1
10
15.463159638412
20
-1.04496500885457
30
0
41
1
10
15.5038616024993
20
-1.03288265238237
30
0
41
1
10
15.5445631060502
20
-1.02072146474814
30
0
41
1
10
15.5852657357642
20
-1.00848510450408
30
0
0
SPLINE
5
E2
100
AcDbEntity
8
1
62
256
6
ByLayer
370
18
48
1
60
0
100
AcDbSpline
70
4
71
3
72
60
73
56
40
0
40
0
40
0
40
0
40
0.0129694975247492
40
0.0129694975247492
40
0.0768570353172652
40
0.0768570353172652
40
0.108800804213524
40
0.108800804213524
40
0.140744573109783
40
0.140744573109783
40
0.172688342006042
40
0.172688342006042
40
0.2046321109023
40
0.2046321109023
40
0.23657587979856
40
0.23657587979856
40
0.268519648694818
40
0.268519648694818
40
0.300463417591077
40
0.300463417591077
40
0.332407186487336
40
0.332407186487336
40
0.396294724279854
40
0.396294724279854
40
0.460182262072371
40
0.460182262072371
40
0.524069799864889
40
0.524069799864889
40
0.556013568761147
40
0.556013568761147
40
0.587957337657404
40
0.587957337657404
40
0.619901106553662
40
0.619901106553662
40
0.65184487544992
40
0.65184487544992
40
0.683788644346178
40
0.683788644346178
40
0.715732413242436
40
0.715732413242436
40
0.779619951034952
40
0.779619951034952
40
0.81156371993121
40
0.81156371993121
40
0.843507488827468
40
0.843507488827468
40
0.875451257723726
40
0.875451257723726
40
0.907395026619984
40
0.907395026619984
40
0.939338795516241
40
0.939338795516241
40
0.971282564412499
40
0.971282564412499
40
1
40
1
40
1
40
1
41
1
10
29.0319312923376
20
1.89387132593603
30
0
41
1
10
29.1212807465944
20
1.88527367049326
30
0
41
1
10
29.2106318861697
20
1.87595532638952
30
0
41
1
10
29.7401579031326
20
1.81656706237126
30
0
41
1
10
30.1805128133665
20
1.74982979346552
30
0
41
1
10
30.8407957238054
20
1.62735016898935
30
0
41
1
10
31.0608406019057
20
1.58278156822232
30
0
41
1
10
31.5007828528483
20
1.48608090048836
30
0
41
1
10
31.7210513721527
20
1.4340942214273
30
0
41
1
10
32.1614881348135
20
1.32410417357485
30
0
41
1
10
32.381606638246
20
1.26607459009418
30
0
41
1
10
32.8215928994932
20
1.14411925693221
30
0
41
1
10
33.0414719390175
20
1.08017722239779
30
0
41
1
10
33.4819104981266
20
0.948240829351221
30
0
41
1
10
33.7023045522556
20
0.880150319776561
30
0
41
1
10
34.142469102553
20
0.739988133952693
30
0
41
1
10
34.3622828111648
20
0.667648819882743
30
0
41
1
10
34.8023485705724
20
0.520809158881605
30
0
41
1
10
35.0226925602178
20
0.446266549144155
30
0
41
1
10
35.4632430117199
20
0.295254965461623
30
0
41
1
10
35.6831697625897
20
0.218497241427627
30
0
41
1
10
36.3430957108633
20
-0.0121810461212419
30
0
41
1
10
36.7839599803016
20
-0.166254931240132
30
0
41
1
10
37.6639195014649
20
-0.471417248132042
30
0
41
1
10
38.1041422045288
20
-0.618819623938748
30
0
41
1
10
38.9849776247706
20
-0.903860291286492
30
0
41
1
10
39.4249067214252
20
-1.0381836355169
30
0
41
1
10
40.0851663192498
20
-1.22479806701762
30
0
41
1
10
40.305357741794
20
-1.28475697755044
30
0
41
1
10
40.7456452381967
20
-1.3974875397825
30
0
41
1
10
40.965754324931
20
-1.4504890663386
30
0
41
1
10
41.4058451072536
20
-1.55019791519723
30
0
41
1
10
41.625723820002
20
-1.59712123295353
30
0
41
1
10
42.0661048035236
20
-1.68288101989302
30
0
41
1
10
42.2863885533732
20
-1.72171717365595
30
0
41
1
10
42.7265607192879
20
-1.79127439337191
30
0
41
1
10
42.9464266540469
20
-1.82220839545971
30
0
41
1
10
43.3864439435523
20
-1.8753617327387
30
0
41
1
10
43.6067848821749
20
-1.89752454737848
30
0
41
1
10
44.2675447093718
20
-1.9509906329456
30
0
41
1
10
44.7069568622419
20
-1.96997548272321
30
0
41
1
10
45.3676500448444
20
-1.97057807055569
30
0
41
1
10
45.5880491194108
20
-1.9662058656113
30
0
41
1
10
46.0280723651493
20
-1.9486394515985
30
0
41
1
10
46.2479274272326
20
-1.93536192409329
30
0
41
1
10
46.6880758939385
20
-1.89999749200842
30
0
41
1
10
46.9083675755207
20
-1.87796713198918
30
0
41
1
10
47.3488038287253
20
-1.82543556041387
30
0
41
1
10
47.5686638277645
20
-1.79489905241087
30
0
41
1
10
48.0086381664635
20
-1.72571530961028
30
0
41
1
10
48.2287142252167
20
-1.68707541126082
30
0
41
1
10
48.66901868289
20
-1.60196508061014
30
0
41
1
10
48.8892247185691
20
-1.55535498749885
30
0
41
1
10
49.3071292695432
20
-1.46054572840219
30
0
41
1
10
49.5049640671169
20
-1.41300966965716
30
0
41
1
10
49.7028188087693
20
-1.36298340269761
30
0
0
SPLINE
5
E3
100
AcDbEntity
8
1
62
256
6
ByLayer
370
18
48
1
60
0
100
AcDbSpline
70
4
71
3
72
8
73
4
40
0
40
0
40
0
40
0
40
1
40
1
40
1
40
1
41
1
10
2.54000050469199
20
-1.8687035202523
30
0
41
1
10
3.39761852391078
20
-1.90701418764223
30
0
41
1
10
4.24578745956265
20
-1.87823898778797
30
0
41
1
10
5.09234782914413
20
-1.78923521282351
30
0
0
SPLINE
5
E4
100
AcDbEntity
8
1
62
256
6
ByLayer
370
18
48
1
60
0
100
AcDbSpline
70
4
71
3
72
8
73
4
40
0
40
0
40
0
40
0
40
1
40
1
40
1
40
1
41
1
10
12.1257418172011
20
-0.0069006414918817
30
0
41
1
10
12.150733332586
20
0.0014377378954293
30
0
41
1
10
12.1757221506842
20
0.0097751637478041
30
0
41
1
10
12.2007084855235
20
0.0181109854273984
30
0
0
SPLINE
5
E5
100
AcDbEntity
8
1
62
256
6
ByLayer
370
18
48
1
60
0
100
AcDbSpline
70
4
71
3
72
24
73
20
40
0
40
0
40
0
40
0
40
0.135962426159993
40
0.135962426159993
40
0.218772213297006
40
0.218772213297006
40
0.301582000434018
40
0.301582000434018
40
0.467201574708044
40
0.467201574708044
40
0.63282114898207
40
0.63282114898207
40
0.798440723256096
40
0.798440723256096
40
0.88125051039311
40
0.88125051039311
40
0.964060297530125
40
0.964060297530125
40
1
40
1
40
1
40
1
41
1
10
29.7559392341279
20
0.0283306502078631
30
0
41
1
10
30.2176693040372
20
-0.12473310412858
30
0
41
1
10
30.6785820935351
20
-0.27770524849987
30
0
41
1
10
31.4200898560865
20
-0.516843557212809
30
0
41
1
10
31.7008271178502
20
-0.605767628453634
30
0
41
1
10
32.2630474914193
20
-0.778586493531776
30
0
41
1
10
32.5448218455726
20
-0.862550846084702
30
0
41
1
10
33.3883615666168
20
-1.10330441022083
30
0
41
1
10
33.9492408575961
20
-1.24912805324368
30
0
41
1
10
35.0730010754866
20
-1.49982756906527
30
0
41
1
10
35.6366443354079
20
-1.6046958396191
30
0
41
1
10
36.759820734106
20
-1.76303285238671
30
0
41
1
10
37.3205989439207
20
-1.81673735068614
30
0
41
1
10
38.1642581514629
20
-1.85595952974054
30
0
41
1
10
38.4460920993544
20
-1.86216614076372
30
0
41
1
10
39.0083705056362
20
-1.86054299457606
30
0
41
1
10
39.2891355729195
20
-1.85274200856989
30
0
41
1
10
39.6916641215744
20
-1.83172456483027
30
0
41
1
10
39.8134779144801
20
-1.82407657860685
30
0
41
1
10
39.93530436881
20
-1.81515942256698
30
0
0
SPLINE
5
E6
100
AcDbEntity
8
1
62
256
6
ByLayer
370
18
48
1
60
0
100
AcDbSpline
70
4
71
3
72
8
73
4
40
0
40
0
40
0
40
0
40
1
40
1
40
1
40
1
41
1
10
57.0469916790212
20
-0.557102269033862
30
0
41
1
10
57.089332868429
20
-0.398739838999603
30
0
41
1
10
57.1210878522681
20
-0.240011635115593
30
0
41
1
10
57.1381652923985
20
-0.0807762937466805
30
0
0
SPLINE
5
E7
100
AcDbEntity
8
1
62
256
6
ByLayer
370
18
48
1
60
0
100
AcDbSpline
70
4
71
3
72
14
73
10
40
0
40
0
40
0
40
0
40
0.25
40
0.25
40
0.5
40
0.5
40
0.75
40
0.75
40
1
40
1
40
1
40
1
41
1
10
56.0262147498328
20
-1.34893459767625
30
0
41
1
10
56.0542559515585
20
-1.41852661878423
30
0
41
1
10
56.0838477033258
20
-1.48051680806501
30
0
41
1
10
56.1451116665498
20
-1.58970078741152
30
0
41
1
10
56.1769745663568
20
-1.6369677485435
30
0
41
1
10
56.2400850836237
20
-1.71322977409031
30
0
41
1
10
56.271591305407
20
-1.74276996610064
30
0
41
1
10
56.3344787864709
20
-1.78455337367421
30
0
41
1
10
56.3659559929743
20
-1.79670320306585
30
0
41
1
10
56.396803507037
20
-1.79946494965091
30
0
0
SPLINE
5
E8
100
AcDbEntity
8
1
62
256
6
ByLayer
370
18
48
1
60
0
100
AcDbSpline
70
4
71
3
72
18
73
14
40
0
40
0
40
0
40
0
40
0.124999999999999
40
0.124999999999999
40
0.249999999999998
40
0.249999999999998
40
0.5
40
0.5
40
0.750000000000002
40
0.750000000000002
40
0.875000000000001
40
0.875000000000001
40
1
40
1
40
1
40
1
41
1
10
12.1313432345455
20
-1.84349804339425
30
0
41
1
10
11.8999051992598
20
-1.87755954393197
30
0
41
1
10
11.6688956380674
20
-1.90670849710787
30
0
41
1
10
11.2077454292108
20
-1.95540243913987
30
0
41
1
10
10.9777035077653
20
-1.9749807427209
30
0
41
1
10
10.2879127321979
20
-2.01847823874991
30
0
41
1
10
9.82836689330506
20
-2.02737951806634
30
0
41
1
10
8.90868467413992
20
-2.00465241457002
30
0
41
1
10
8.44744527321708
20
-1.97334061301251
30
0
41
1
10
7.75313634359833
20
-1.89598112276747
30
0
41
1
10
7.52098007172975
20
-1.86537296956612
30
0
41
1
10
7.05511179656793
20
-1.79467764687905
30
0
41
1
10
6.82126197615332
20
-1.75458191275578
30
0
41
1
10
6.58785498022843
20
-1.70976627468491
30
0
0
SPLINE
5
E9
100
AcDbEntity
8
1
62
256
6
ByLayer
370
18
48
1
60
0
100
AcDbSpline
70
4
71
3
72
30
73
26
40
0
40
0
40
0
40
0
40
0.0861367673180692
40
0.0861367673180692
40
0.172273534636138
40
0.172273534636138
40
0.258410301954208
40
0.258410301954208
40
0.344547069272277
40
0.344547069272277
40
0.430683836590346
40
0.430683836590346
40
0.516820603908415
40
0.516820603908415
40
0.602957371226484
40
0.602957371226484
40
0.689094138544553
40
0.689094138544553
40
0.775230905862623
40
0.775230905862623
40
0.861367673180692
40
0.861367673180692
40
0.947504440498761
40
0.947504440498761
40
1
40
1
40
1
40
1
41
1
10
56.3341193630851
20
-1.97525026143399
30
0
41
1
10
55.8738338830787
20
-1.97365530830589
30
0
41
1
10
55.413363799986
20
-1.95210966115275
30
0
41
1
10
54.4935170075456
20
-1.87096651340383
30
0
41
1
10
54.0332226994103
20
-1.81117886347459
30
0
41
1
10
53.1130673175904
20
-1.65634782163878
30
0
41
1
10
52.6533873147474
20
-1.56134201166054
30
0
41
1
10
51.7325503378223
20
-1.34214520809798
30
0
41
1
10
51.2729393767845
20
-1.21849770564927
30
0
41
1
10
50.3525283440919
20
-0.948774528392647
30
0
41
1
10
49.8922872635536
20
-0.802960368293128
30
0
41
1
10
48.972192226949
20
-0.498952003127414
30
0
41
1
10
48.5115636227287
20
-0.340259102352519
30
0
41
1
10
47.5915997602403
20
-0.019615693283157
30
0
41
1
10
47.1310490764776
20
0.142570537349229
30
0
41
1
10
46.2108267392002
20
0.46072830157118
30
0
41
1
10
45.7507874372219
20
0.616604159813875
30
0
41
1
10
44.8298578354309
20
0.912884283352355
30
0
41
1
10
44.3702319332066
20
1.05299639248293
30
0
41
1
10
43.4494628605172
20
1.31002816517258
30
0
41
1
10
42.9892159400831
20
1.42672469864783
30
0
41
1
10
42.068939381143
20
1.62895728585701
30
0
41
1
10
41.6082235034071
20
1.71447699332123
30
0
41
1
10
40.8677455269694
20
1.82347937755975
30
0
41
1
10
40.5871082987254
20
1.85819913285417
30
0
41
1
10
40.3064998859241
20
1.88586873259084
30
0
0
SPLINE
5
EA
100
AcDbEntity
8
1
62
256
6
ByLayer
370
18
48
1
60
0
100
AcDbSpline
70
4
71
3
72
22
73
18
40
0
40
0
40
0
40
0
40
0.111900787776127
40
0.111900787776127
40
0.238772103808109
40
0.238772103808109
40
0.365643419840091
40
0.365643419840091
40
0.492514735872073
40
0.492514735872073
40
0.619386051904055
40
0.619386051904055
40
0.746257367936036
40
0.746257367936036
40
0.873128683968018
40
0.873128683968018
40
1
40
1
40
1
40
1
41
1
10
23.0285631489295
20
-1.83011088465989
30
0
41
1
10
22.6222405960732
20
-1.87967760876038
30
0
41
1
10
22.2164336599392
20
-1.91472883525236
30
0
41
1
10
21.3494754159119
20
-1.95772057047373
30
0
41
1
10
20.8888081962987
20
-1.96126959680399
30
0
41
1
10
19.9678885891337
20
-1.92873720195559
30
0
41
1
10
19.5068642841894
20
-1.89270196300163
30
0
41
1
10
18.5859735511081
20
-1.78432375872677
30
0
41
1
10
18.1250060715674
20
-1.71169107434324
30
0
41
1
10
17.2039285069779
20
-1.53304003224039
30
0
41
1
10
16.7434985701974
20
-1.42726548286257
30
0
41
1
10
15.821744770952
20
-1.18964915636784
30
0
41
1
10
15.361665193601
20
-1.05792743668218
30
0
41
1
10
14.4400395455338
20
-0.775555303554455
30
0
41
1
10
13.9795904694298
20
-0.625436484190345
30
0
41
1
10
13.0599611301772
20
-0.316171745954307
30
0
41
1
10
12.6002604587445
20
-0.15687805420913
30
0
41
1
10
12.1390764995136
20
0.0025891132663105
30
0
0
SPLINE
5
EB
100
AcDbEntity
8
1
62
256
6
ByLayer
370
18
48
1
60
0
100
AcDbSpline
70
4
71
3
72
22
73
18
40
0
40
0
40
0
40
0
40
0.135717604984244
40
0.135717604984244
40
0.271435209968489
40
0.271435209968489
40
0.407152814952733
40
0.407152814952733
40
0.542870419936977
40
0.542870419936977
40
0.6107292224291
40
0.6107292224291
40
0.678588024921222
40
0.678588024921222
40
0.814305629905466
40
0.814305629905466
40
1
40
1
40
1
40
1
41
1
10
12.1390421603304
20
0.0027517066856717
30
0
41
1
10
11.7381265279317
20
0.14665934476659
30
0
41
1
10
11.3375648984139
20
0.290499621698359
30
0
41
1
10
10.5377638718087
20
0.57078612959134
30
0
41
1
10
10.1381355648099
20
0.707550651273124
30
0
41
1
10
9.3373742635236
20
0.968811021135281
30
0
41
1
10
8.93585104865787
20
1.09323537729188
30
0
41
1
10
8.13550752846024
20
1.32301972777165
30
0
41
1
10
7.73590927364401
20
1.42853490493587
30
0
41
1
10
7.1357930764288
20
1.56953138396241
30
0
41
1
10
6.9356428101058
20
1.61367195030476
30
0
41
1
10
6.5348814635874
20
1.69578603446473
30
0
41
1
10
6.33414133126709
20
1.73375383882336
30
0
41
1
10
5.73355647649521
20
1.83721931126078
30
0
41
1
10
5.3345094297546
20
1.89249717212854
30
0
41
1
10
4.39039444585458
20
1.98887662473817
30
0
41
1
10
3.84548271081869
20
2.01703484829008
30
0
41
1
10
3.29874382574485
20
2.01671397427219
30
0
0
SPLINE
5
EC
100
AcDbEntity
8
1
62
256
6
ByLayer
370
18
48
1
60
0
100
AcDbSpline
70
4
71
3
72
24
73
20
40
0
40
0
40
0
40
0
40
0.0475912004344599
40
0.0475912004344599
40
0.214871261776305
40
0.214871261776305
40
0.298511292447227
40
0.298511292447227
40
0.382151323118148
40
0.382151323118148
40
0.549431384459991
40
0.549431384459991
40
0.716711445801834
40
0.716711445801834
40
0.800351476472755
40
0.800351476472755
40
0.883991507143676
40
0.883991507143676
40
1
40
1
40
1
40
1
41
1
10
12.1257418166245
20
0.0069006416842399
30
0
41
1
10
12.2855197600146
20
-0.0464090151807852
30
0
41
1
10
12.4451874541633
20
-0.0996796971394645
30
0
41
1
10
13.1658317520966
20
-0.339249838983108
30
0
41
1
10
13.7261953249799
20
-0.523130867107938
30
0
41
1
10
14.5694727160804
20
-0.783962899129989
30
0
41
1
10
14.8509796250992
20
-0.868419774342414
30
0
41
1
10
15.4125980313744
20
-1.02975768762644
30
0
41
1
10
15.6930726827728
20
-1.10673947771505
30
0
41
1
10
16.5344414724065
20
-1.3244259857631
30
0
41
1
10
17.0958181424592
20
-1.45198057973596
30
0
41
1
10
18.2209759062468
20
-1.66049203239538
30
0
41
1
10
18.7815659452361
20
-1.74083588634414
30
0
41
1
10
19.6231533574367
20
-1.82130096055968
30
0
41
1
10
19.9037945715399
20
-1.8414152863798
30
0
41
1
10
20.46594531736
20
-1.86776590193279
30
0
41
1
10
20.7475850118091
20
-1.87403144527576
30
0
41
1
10
21.4181645961102
20
-1.87224758960835
30
0
41
1
10
21.8071259941818
20
-1.85767052456441
30
0
41
1
10
22.1962181763716
20
-1.83002422344433
30
0
0
SPLINE
5
ED
100
AcDbEntity
8
1
62
256
6
ByLayer
370
18
48
1
60
0
100
AcDbSpline
70
4
71
3
72
20
73
16
40
0
40
0
40
0
40
0
40
0.0487061938470689
40
0.0487061938470689
40
0.238964955077654
40
0.238964955077654
40
0.42922371630824
40
0.42922371630824
40
0.619482477538825
40
0.619482477538825
40
0.714611858154117
40
0.714611858154117
40
0.80974123876941
40
0.80974123876941
40
1
40
1
40
1
40
1
41
1
10
47.5469092254141
20
-0.0034532403554692
30
0
41
1
10
47.6892139077718
20
-0.050334675257659
30
0
41
1
10
47.8315318291935
20
-0.0972089440164154
30
0
41
1
10
48.5300345148988
20
-0.326545372865524
30
0
41
1
10
49.0869624254751
20
-0.507136897214934
30
0
41
1
10
50.2068987496059
20
-0.849941810339629
30
0
41
1
10
50.7715266880045
20
-1.01241420628188
30
0
41
1
10
51.8947008442246
20
-1.3005895112758
30
0
41
1
10
52.4549577279879
20
-1.42693614967337
30
0
41
1
10
53.2969611150212
20
-1.58226707546171
30
0
41
1
10
53.5779031175845
20
-1.62839634734954
30
0
41
1
10
54.140912800907
20
-1.708260340783
30
0
41
1
10
54.4227634822491
20
-1.74191954499349
30
0
41
1
10
55.2665542971217
20
-1.82278327338926
30
0
41
1
10
55.8281433168104
20
-1.85018381301629
30
0
41
1
10
56.3910973667297
20
-1.84947484676013
30
0
0
SPLINE
5
EE
100
AcDbEntity
8
1
62
256
6
ByLayer
370
18
48
1
60
0
100
AcDbSpline
70
4
71
3
72
8
73
4
40
0
40
0
40
0
40
0
40
1
40
1
40
1
40
1
41
1
10
54.0096859296142
20
-0.228034126807472
30
0
41
1
10
54.1486838871273
20
-0.278171881819191
30
0
41
1
10
54.2880497773581
20
-0.328231527972463
30
0
41
1
10
54.4278390571045
20
-0.378106576587214
30
0
0
SPLINE
5
EF
100
AcDbEntity
8
1
62
256
6
ByLayer
370
18
48
1
60
0
100
AcDbSpline
70
4
71
3
72
74
73
70
40
0
40
0
40
0
40
0
40
0.0015996276558905
40
0.0015996276558905
40
0.0363737572202674
40
0.0363737572202674
40
0.0537608220024559
40
0.0537608220024559
40
0.0711478867846443
40
0.0711478867846443
40
0.105922016349021
40
0.105922016349021
40
0.140696145913398
40
0.140696145913398
40
0.175470275477775
40
0.175470275477775
40
0.210244405042152
40
0.210244405042152
40
0.245018534606528
40
0.245018534606528
40
0.279792664170905
40
0.279792664170905
40
0.297179728953093
40
0.297179728953093
40
0.314566793735282
40
0.314566793735282
40
0.34934092329966
40
0.34934092329966
40
0.384115052864039
40
0.384115052864039
40
0.418889182428418
40
0.418889182428418
40
0.453663311992796
40
0.453663311992796
40
0.488437441557175
40
0.488437441557175
40
0.523211571121553
40
0.523211571121553
40
0.557985700685932
40
0.557985700685932
40
0.575372765468121
40
0.575372765468121
40
0.59275983025031
40
0.59275983025031
40
0.627533959814689
40
0.627533959814689
40
0.662308089379067
40
0.662308089379067
40
0.697082218943446
40
0.697082218943446
40
0.731856348507825
40
0.731856348507825
40
0.766630478072203
40
0.766630478072203
40
0.801404607636582
40
0.801404607636582
40
0.818791672418771
40
0.818791672418771
40
0.83617873720096
40
0.83617873720096
40
0.870952866765339
40
0.870952866765339
40
0.905726996329717
40
0.905726996329717
40
0.940501125894096
40
0.940501125894096
40
0.975275255458474
40
0.975275255458474
40
1
40
1
40
1
40
1
41
1
10
14.3417490635923
20
1.34623847288938
30
0
41
1
10
14.3536422225007
20
1.34942481855845
30
0
41
1
10
14.3655372085097
20
1.35260002940291
30
0
41
1
10
14.6360602243861
20
1.42454143883805
30
0
41
1
10
14.8951807159365
20
1.48896225808133
30
0
41
1
10
15.2843600236129
20
1.5794040283794
30
0
41
1
10
15.4141030460251
20
1.60863308076162
30
0
41
1
10
15.674240402687
20
1.66404345723126
30
0
41
1
10
15.8046105682444
20
1.69028385518396
30
0
41
1
10
16.1964864885845
20
1.76490734924147
30
0
41
1
10
16.4583249667039
20
1.80924015613206
30
0
41
1
10
16.9796584522408
20
1.88672493139441
30
0
41
1
10
17.2401492443819
20
1.91924450771739
30
0
41
1
10
17.7616023653996
20
1.9715033639711
30
0
41
1
10
18.022252798789
20
1.99154340966569
30
0
41
1
10
18.5433186450494
20
2.0189432285035
30
0
41
1
10
18.8048874075352
20
2.02598123303119
30
0
41
1
10
19.3276334240449
20
2.02717929490237
30
0
41
1
10
19.587855025202
20
2.0212812363736
30
0
41
1
10
20.1066838005052
20
1.99644094319439
30
0
41
1
10
20.3658965078303
20
1.97784923610692
30
0
41
1
10
20.7538578803933
20
1.94074220783617
30
0
41
1
10
20.8830576023851
20
1.92683889120363
30
0
41
1
10
21.1411427353733
20
1.89585091268421
30
0
41
1
10
21.2699678013254
20
1.87868561469358
30
0
41
1
10
21.6567659751766
20
1.82322210616499
30
0
41
1
10
21.9149172470051
20
1.78093172408441
30
0
41
1
10
22.4310202784519
20
1.68489510095893
30
0
41
1
10
22.6887435913042
20
1.63063107771697
30
0
41
1
10
23.2056865565729
20
1.51305316724648
30
0
41
1
10
23.4648797353766
20
1.44985969260247
30
0
41
1
10
23.9840839658195
20
1.31329999461363
30
0
41
1
10
24.2439002979914
20
1.23929164431661
30
0
41
1
10
24.7663498159437
20
1.08547346077114
30
0
41
1
10
25.0280123111072
20
1.00529926823054
30
0
41
1
10
25.549509134494
20
0.837920743922041
30
0
41
1
10
25.8095532956123
20
0.750225391621029
30
0
41
1
10
26.3307855229453
20
0.573488275749554
30
0
41
1
10
26.5915255569825
20
0.483322162139444
30
0
41
1
10
26.9825367329216
20
0.344520678001857
30
0
41
1
10
27.1127933030697
20
0.297471863669472
30
0
41
1
10
27.3738261003066
20
0.203720083141775
30
0
41
1
10
27.5046234719475
20
0.156899265434959
30
0
41
1
10
27.8968410299429
20
0.016461069145862
30
0
41
1
10
28.1581616150695
20
-0.0773477602953108
30
0
41
1
10
28.6800884630623
20
-0.266422513033348
30
0
41
1
10
28.9415832942203
20
-0.359975721901435
30
0
41
1
10
29.4639745090169
20
-0.542796102135526
30
0
41
1
10
29.7246910230545
20
-0.632907676233401
30
0
41
1
10
30.2451852894179
20
-0.810297472281746
30
0
41
1
10
30.5058119668081
20
-0.89536695931821
30
0
41
1
10
31.0272867105298
20
-1.05981051950161
30
0
41
1
10
31.2879235781464
20
-1.13966507386164
30
0
41
1
10
31.8100172295563
20
-1.29200143825685
30
0
41
1
10
32.0712597573146
20
-1.36302785910161
30
0
41
1
10
32.4612351933594
20
-1.46305513112566
30
0
41
1
10
32.591022666985
20
-1.49526592346405
30
0
41
1
10
32.8500974387623
20
-1.55756998825541
30
0
41
1
10
32.9793517895652
20
-1.5877055105536
30
0
41
1
10
33.36720855562
20
-1.67331785854691
30
0
41
1
10
33.625698499698
20
-1.72452190076652
30
0
41
1
10
34.141792217531
20
-1.8166180133251
30
0
41
1
10
34.399156433871
20
-1.85766757652357
30
0
41
1
10
34.9148214793873
20
-1.92682885069829
30
0
41
1
10
35.1730180017217
20
-1.95522690519155
30
0
41
1
10
35.6895459694113
20
-2.00015679069531
30
0
41
1
10
35.9476729476017
20
-2.01663693170673
30
0
41
1
10
36.3912465976719
20
-2.03341718801212
30
0
41
1
10
36.575971236955
20
-2.03716695629447
30
0
41
1
10
36.7610268943815
20
-2.03763885522088
30
0
0
SPLINE
5
F0
100
AcDbEntity
8
1
62
256
6
ByLayer
370
18
48
1
60
0
100
AcDbSpline
70
4
71
3
72
30
73
26
40
0
40
0
40
0
40
0
40
0.0832015975021829
40
0.0832015975021829
40
0.140501497658298
40
0.140501497658298
40
0.197801397814413
40
0.197801397814413
40
0.312401198126638
40
0.312401198126638
40
0.427000998438863
40
0.427000998438863
40
0.541600798751089
40
0.541600798751089
40
0.656200599063314
40
0.656200599063314
40
0.713500499219427
40
0.713500499219427
40
0.770800399375539
40
0.770800399375539
40
0.88540019968777
40
0.88540019968777
40
0.942700099843885
40
0.942700099843885
40
1
40
1
40
1
40
1
41
1
10
49.678115325935
20
1.34396697371003
30
0
41
1
10
49.867824362813
20
1.39569785055178
30
0
41
1
10
50.0575444478588
20
1.44522203126479
30
0
41
1
10
50.3770697359731
20
1.52512204973519
30
0
41
1
10
50.5071542329547
20
1.55672035502087
30
0
41
1
10
50.7675410306852
20
1.61673170167867
30
0
41
1
10
50.8977927240747
20
1.64525568479976
30
0
41
1
10
51.2885357187018
20
1.72679518122612
30
0
41
1
10
51.5489702796767
20
1.7758736986892
30
0
41
1
10
52.0693910231839
20
1.86350350478713
30
0
41
1
10
52.3301095969521
20
1.90108556661463
30
0
41
1
10
52.85279187111
20
1.96383985248377
30
0
41
1
10
53.1136472253431
20
1.98914976323346
30
0
41
1
10
53.6344302689289
20
2.02702006828056
30
0
41
1
10
53.8952241433803
20
2.03918785712497
30
0
41
1
10
54.2864894955586
20
2.04781618470329
30
0
41
1
10
54.4169313978409
20
2.04907136956817
30
0
41
1
10
54.6778198719497
20
2.04827633430512
30
0
41
1
10
54.8082443193458
20
2.04619891579944
30
0
41
1
10
55.1995424522542
20
2.03500639256768
30
0
41
1
10
55.4605297122012
20
2.02110827651424
30
0
41
1
10
55.8515682511102
20
1.99061518859239
30
0
41
1
10
55.981873977482
20
1.97884797794458
30
0
41
1
10
56.2422868347066
20
1.95194777397825
30
0
41
1
10
56.3724027497619
20
1.93679845954537
30
0
41
1
10
56.5027406050754
20
1.92023843566429
30
0
0
SPLINE
5
F1
100
AcDbEntity
8
1
62
256
6
ByLayer
370
18
48
1
60
0
100
AcDbSpline
70
4
71
3
72
8
73
4
40
0
40
0
40
0
40
0
40
1
40
1
40
1
40
1
41
1
10
57.0469916790211
20
0.557102269035056
30
0
41
1
10
56.7917027277801
20
0.573191666362732
30
0
41
1
10
56.5364140958133
20
0.589248661731887
30
0
41
1
10
56.2811258695442
20
0.605267656934444
30
0
0
SPLINE
5
F2
100
AcDbEntity
8
1
62
256
6
ByLayer
370
18
48
1
60
0
100
AcDbSpline
70
4
71
3
72
8
73
4
40
0
40
0
40
0
40
0
40
1
40
1
40
1
40
1
41
1
10
57.1381652923985
20
-0.0807762937466521
30
0
41
1
10
57.1406083158723
20
-0.0269245517094134
30
0
41
1
10
57.1406135425568
20
0.0268093395280857
30
0
41
1
10
57.1381652923985
20
0.0807762937462257
30
0
0
SPLINE
5
F3
100
AcDbEntity
8
1
62
256
6
ByLayer
370
18
48
1
60
0
100
AcDbSpline
70
4
71
3
72
10
73
6
40
0
40
0
40
0
40
0
40
0.5
40
0.5
40
1
40
1
40
1
40
1
41
1
10
57.1374609483917
20
0.0566219759490707
30
0
41
1
10
57.1370152784019
20
0.0435522112001365
30
0
41
1
10
57.1344073954481
20
0.0274239834616878
30
0
41
1
10
57.1237339068308
20
-0.0070874621711141
30
0
41
1
10
57.1153956133673
20
-0.0253723630558227
30
0
41
1
10
57.1065898233605
20
-0.0384899637761293
30
0
0
SPLINE
5
F4
100
AcDbEntity
8
1
62
256
6
ByLayer
370
18
48
1
60
0
100
AcDbSpline
70
4
71
3
72
8
73
4
40
0
40
0
40
0
40
0
40
1
40
1
40
1
40
1
41
1
10
55.56234701275
20
-1.0853854756273
30
0
41
1
10
55.7139955298546
20
-1.18540149338858
30
0
41
1
10
55.8688512915675
20
-1.27229729560577
30
0
41
1
10
56.0262147498328
20
-1.34893459767625
30
0
0
SPLINE
5
F5
100
AcDbEntity
8
1
62
256
6
ByLayer
370
18
48
1
60
0
100
AcDbSpline
70
4
71
3
72
24
73
20
40
0
40
0
40
0
40
0
40
0.250000000000052
40
0.250000000000052
40
0.500000000000103
40
0.500000000000103
40
0.750000000000155
40
0.750000000000155
40
0.781250000000162
40
0.781250000000162
40
0.789062500000156
40
0.789062500000156
40
0.79687500000015
40
0.79687500000015
40
0.812500000000138
40
0.812500000000138
40
0.875000000000092
40
0.875000000000092
40
1
40
1
40
1
40
1
41
1
10
54.3917328063126
20
-0.135449298204975
30
0
41
1
10
54.5856626856697
20
-0.176633553120467
30
0
41
1
10
54.7790930915911
20
-0.202523173221635
30
0
41
1
10
55.1646699502213
20
-0.214985816944363
30
0
41
1
10
55.3570900350809
20
-0.201374535523001
30
0
41
1
10
55.7275826580802
20
-0.125688983507445
30
0
41
1
10
55.9058844775945
20
-0.0636021201122787
30
0
41
1
10
56.0920181399248
20
0.0369875495134977
30
0
41
1
10
56.1125247318284
20
0.0485725895070459
30
0
41
1
10
56.137845734707
20
0.0636251486069739
30
0
41
1
10
56.1431877964972
20
0.0664552753088401
30
0
41
1
10
56.1506543102843
20
0.07618894017412
30
0
41
1
10
56.1523641147165
20
0.0829892128148799
30
0
41
1
10
56.1523388336083
20
0.104250633962181
30
0
41
1
10
56.151046999266
20
0.118641795629685
30
0
41
1
10
56.1471816741001
20
0.190159284585832
30
0
41
1
10
56.1424396767453
20
0.247547909655367
30
0
41
1
10
56.1240889999235
20
0.419743738294585
30
0
41
1
10
56.1063337869449
20
0.534925207818418
30
0
41
1
10
56.0847664662955
20
0.649204616636183
30
0
0
SPLINE
5
F6
100
AcDbEntity
8
1
62
256
6
ByLayer
370
18
48
1
60
0
100
AcDbSpline
70
4
71
3
72
8
73
4
40
0
40
0
40
0
40
0
40
1
40
1
40
1
40
1
41
1
10
56.3910973667297
20
-1.84947484676013
30
0
41
1
10
56.3721934649861
20
-1.89151833170479
30
0
41
1
10
56.353202007833
20
-1.93344422643452
30
0
41
1
10
56.334119363083
20
-1.97525026142822
30
0
0
SPLINE
5
F7
100
AcDbEntity
8
1
62
256
6
ByLayer
370
18
48
1
60
0
100
AcDbSpline
70
4
71
3
72
10
73
6
40
0
40
0
40
0
40
0
40
0.5
40
0.5
40
1
40
1
40
1
40
1
41
1
10
56.5027406050754
20
-1.92023843566432
30
0
41
1
10
56.4812726431918
20
-1.95090156266824
30
0
41
1
10
56.4590414988008
20
-1.97653341338739
30
0
41
1
10
56.4139116582981
20
-2.0161909801981
30
0
41
1
10
56.3909034074393
20
-2.03043883435993
30
0
41
1
10
56.3672500071314
20
-2.03924485783551
30
0
0
SPLINE
5
F8
100
AcDbEntity
8
1
62
256
6
ByLayer
370
18
48
1
60
0
100
AcDbSpline
70
4
71
3
72
10
73
6
40
0
40
0
40
0
40
0
40
0.5
40
0.5
40
1
40
1
40
1
40
1
41
1
10
56.2182413374414
20
0.530666400865442
30
0
41
1
10
56.2235877221809
20
0.543248836812836
30
0
41
1
10
56.2314755610051
20
0.557031402433154
30
0
41
1
10
56.249640922851
20
0.582294039152742
30
0
41
1
10
56.2600937624526
20
0.594043745779658
30
0
41
1
10
56.2702656086655
20
0.60301542346113
30
0
0
SPLINE
5
F9
100
AcDbEntity
8
1
62
256
6
ByLayer
370
18
48
1
60
0
100
AcDbSpline
70
4
71
3
72
30
73
26
40
0
40
0
40
0
40
0
40
0.165766476239815
40
0.165766476239815
40
0.248857464865017
40
0.248857464865017
40
0.331948453490219
40
0.331948453490219
40
0.415039442115421
40
0.415039442115421
40
0.498130430740623
40
0.498130430740623
40
0.581221419365825
40
0.581221419365825
40
0.664312407991027
40
0.664312407991027
40
0.747403396616229
40
0.747403396616229
40
0.830494385241431
40
0.830494385241431
40
0.913585373866633
40
0.913585373866633
40
0.996676362491835
40
0.996676362491835
40
1
40
1
40
1
40
1
41
1
10
52.0833310665659
20
-0.0043469194406498
30
0
41
1
10
51.5394262800044
20
0.174204261908386
30
0
41
1
10
50.9978007244154
20
0.351715476710268
30
0
41
1
10
50.1856202395077
20
0.607660105676871
30
0
41
1
10
49.9145784898457
20
0.691243370576416
30
0
41
1
10
49.372152890552
20
0.853223289141738
30
0
41
1
10
49.1007502307234
20
0.931641799802264
30
0
41
1
10
48.557179212081
20
1.08156990204989
30
0
41
1
10
48.2850156852185
20
1.15308055406189
30
0
41
1
10
47.7393885957702
20
1.28815626610083
30
0
41
1
10
47.4659227151454
20
1.35173897691237
30
0
41
1
10
46.9171111834291
20
1.46871672948601
30
0
41
1
10
46.6417619028335
20
1.52205331318663
30
0
41
1
10
46.0888257646848
20
1.61845731077662
30
0
41
1
10
45.8127268094193
20
1.66130824769084
30
0
41
1
10
45.261379362891
20
1.73481638802639
30
0
41
1
10
44.9860348776885
20
1.76554762195667
30
0
41
1
10
44.4358104268945
20
1.81301771274028
30
0
41
1
10
44.160784433764
20
1.82949191294816
30
0
41
1
10
43.6103085842244
20
1.85107956497254
30
0
41
1
10
43.334731758956
20
1.85644158528061
30
0
41
1
10
42.782582651262
20
1.85227411859958
30
0
41
1
10
42.5059122776926
20
1.84249716272933
30
0
41
1
10
42.2187416217506
20
1.82625994685026
30
0
41
1
10
42.2076970727243
20
1.82562586709494
30
0
41
1
10
42.19665298558
20
1.82498215746492
30
0
0
SPLINE
5
FA
100
AcDbEntity
8
1
62
256
6
ByLayer
370
18
48
1
60
0
100
AcDbSpline
70
4
71
3
72
26
73
22
40
0
40
0
40
0
40
0
40
0.0951679642163755
40
0.0951679642163755
40
0.177778464339986
40
0.177778464339986
40
0.260388964463596
40
0.260388964463596
40
0.425609964710817
40
0.425609964710817
40
0.508220464834428
40
0.508220464834428
40
0.590830964958039
40
0.590830964958039
40
0.756051965205259
40
0.756051965205259
40
0.838662465328871
40
0.838662465328871
40
0.921272965452482
40
0.921272965452482
40
1
40
1
40
1
40
1
41
1
10
16.6955167656472
20
-0.0206310622643286
30
0
41
1
10
16.3779546074845
20
0.0844315479249929
30
0
41
1
10
16.0606974596747
20
0.189471659443797
30
0
41
1
10
15.4679186343695
20
0.383424136714638
30
0
41
1
10
15.1923879059534
20
0.472566936228333
30
0
41
1
10
14.6405244394909
20
0.647011971228153
30
0
41
1
10
14.3639718019145
20
0.732437837840166
30
0
41
1
10
13.5361565952788
20
0.979435926347207
30
0
41
1
10
12.9860639314244
20
1.1315568049059
30
0
41
1
10
12.159323570541
20
1.33362506906374
30
0
41
1
10
11.8835376525764
20
1.39642144624048
30
0
41
1
10
11.3310683440063
20
1.51146893232001
30
0
41
1
10
11.0550267763406
20
1.56381629175036
30
0
41
1
10
10.2279369397818
20
1.70396634750435
30
0
41
1
10
9.67775699250998
20
1.77297559376237
30
0
41
1
10
8.85033960508392
20
1.83911976353485
30
0
41
1
10
8.5736982185081
20
1.85454166089457
30
0
41
1
10
8.02233058736704
20
1.87120208428689
30
0
41
1
10
7.74745316280058
20
1.87317526046058
30
0
41
1
10
7.21184472634562
20
1.86436614953095
30
0
41
1
10
6.95110858356585
20
1.85380272902111
30
0
41
1
10
6.69072585133392
20
1.8373742323725
30
0
0
LINE
5
76
100
AcDbEntity
8
81
62
256
6
ByLayer
370
18
48
1
60
0
100
AcDbLine
10
57.14
20
0
30
0
11
62.14
21
0
31
0
39
0
210
0
220
0
230
1
0
LINE
5
77
100
AcDbEntity
8
1
62
256
6
ByLayer
370
18
48
1
60
0
100
AcDbLine
10
3.298149
20
2.016747
30
0
11
0.1
21
2.014748
31
0
39
0
210
0
220
0
230
1
0
LINE
5
79
100
AcDbEntity
8
1
62
256
6
ByLayer
370
18
48
1
60
0
100
AcDbLine
10
9.744212
20
2.020776
30
0
11
7.779102
21
2.019548
31
0
39
0
210
0
220
0
230
1
0
LINE
5
7A
100
AcDbEntity
8
1
62
256
6
ByLayer
370
18
48
1
60
0
100
AcDbLine
10
20.41085
20
2.027443
30
0
11
19.091332
21
2.026618
31
0
39
0
210
0
220
0
230
1
0
LINE
5
7B
100
AcDbEntity
8
1
62
256
6
ByLayer
370
18
48
1
60
0
100
AcDbLine
10
26.944441
20
2.031526
30
0
11
25.495871
21
2.030621
31
0
39
0
210
0
220
0
230
1
0
LINE
5
7C
100
AcDbEntity
8
1
62
256
6
ByLayer
370
18
48
1
60
0
100
AcDbLine
10
38.104232
20
2.038501
30
0
11
36.790984
21
2.03768
31
0
39
0
210
0
220
0
230
1
0
LINE
5
7D
100
AcDbEntity
8
1
62
256
6
ByLayer
370
18
48
1
60
0
100
AcDbLine
10
44.568908
20
2.042541
30
0
11
43.214311
21
2.041695
31
0
39
0
210
0
220
0
230
1
0
LINE
5
7E
100
AcDbEntity
8
1
62
256
6
ByLayer
370
18
48
1
60
0
100
AcDbLine
10
55.794541
20
2.049557
30
0
11
54.488874
21
2.048741
31
0
39
0
210
0
220
0
230
1
0
LINE
5
7F
100
AcDbEntity
8
1
62
256
6
ByLayer
370
18
48
1
60
0
100
AcDbLine
10
54.488874
20
-2.048741
30
0
11
55.794541
21
-2.049557
31
0
39
0
210
0
220
0
230
1
0
LINE
5
80
100
AcDbEntity
8
1
62
256
6
ByLayer
370
18
48
1
60
0
100
AcDbLine
10
43.214311
20
-2.041695
30
0
11
44.568908
21
-2.042541
31
0
39
0
210
0
220
0
230
1
0
LINE
5
81
100
AcDbEntity
8
1
62
256
6
ByLayer
370
18
48
1
60
0
100
AcDbLine
10
36.790984
20
-2.03768
30
0
11
38.104232
21
-2.038501
31
0
39
0
210
0
220
0
230
1
0
LINE
5
82
100
AcDbEntity
8
1
62
256
6
ByLayer
370
18
48
1
60
0
100
AcDbLine
10
25.495871
20
-2.030621
30
0
11
26.944441
21
-2.031526
31
0
39
0
210
0
220
0
230
1
0
LINE
5
83
100
AcDbEntity
8
1
62
256
6
ByLayer
370
18
48
1
60
0
100
AcDbLine
10
19.091332
20
-2.026618
30
0
11
20.41085
21
-2.027443
31
0
39
0
210
0
220
0
230
1
0
LINE
5
84
100
AcDbEntity
8
1
62
256
6
ByLayer
370
18
48
1
60
0
100
AcDbLine
10
7.779102
20
-2.019548
30
0
11
9.744212
21
-2.020776
31
0
39
0
210
0
220
0
230
1
0
LINE
5
85
100
AcDbEntity
8
1
62
256
6
ByLayer
370
18
48
1
60
0
100
AcDbLine
10
0.1
20
-2.014748
30
0
11
3.298149
21
-2.016747
31
0
39
0
210
0
220
0
230
1
0
LINE
5
86
100
AcDbEntity
8
1
62
256
6
ByLayer
370
18
48
1
60
0
100
AcDbLine
10
0
20
-2.05
30
0
11
0.1
21
-2.014748
31
0
39
0
210
0
220
0
230
1
0
LINE
5
87
100
AcDbEntity
8
1
62
256
6
ByLayer
370
18
48
1
60
0
100
AcDbLine
10
0.1
20
2.014748
30
0
11
0
21
2.05
31
0
39
0
210
0
220
0
230
1
0
LINE
5
88
100
AcDbEntity
8
SK1
62
256
6
ByLayer
370
18
48
1
60
0
100
AcDbLine
10
0
20
2.05
30
0
11
-42.100225
21
2.05
31
0
39
0
210
0
220
0
230
1
0
LINE
5
8A
100
AcDbEntity
8
SK1
62
256
6
ByLayer
370
18
48
1
60
0
100
AcDbLine
10
-42.100225
20
-2.05
30
0
11
0
21
-2.05
31
0
39
0
210
0
220
0
230
1
0
LINE
5
8B
100
AcDbEntity
8
SK1
62
256
6
ByLayer
370
18
48
1
60
0
100
AcDbLine
10
-42.100225
20
2.05
30
0
11
-42.86
21
1.290225
31
0
39
0
210
0
220
0
230
1
0
LINE
5
8C
100
AcDbEntity
8
SK1
62
256
6
ByLayer
370
18
48
1
60
0
100
AcDbLine
10
-42.86
20
-1.290225
30
0
11
-42.100225
21
-2.05
31
0
39
0
210
0
220
0
230
1
0
LINE
5
8D
100
AcDbEntity
8
SK4
62
256
6
ByLayer
370
18
48
0.05
60
0
100
AcDbLine
10
62.14
20
0
30
0
11
-47.86
21
0
31
0
39
0
210
0
220
0
230
1
0
LINE
5
8F
100
AcDbEntity
8
4
62
256
6
ByLayer
370
18
48
0.05
60
0
100
AcDbLine
10
57.14
20
0
30
0
11
0
21
0
31
0
39
0
210
0
220
0
230
1
0
LINE
5
91
100
AcDbEntity
8
80
62
256
6
ByLayer
370
18
48
1
60
0
100
AcDbLine
10
0
20
0
30
0
11
-5
21
0
31
0
39
0
210
0
220
0
230
1
0
LINE
5
92
100
AcDbEntity
8
1
62
256
6
ByLayer
370
18
48
1
60
0
100
AcDbLine
10
0.1
20
2.014748
30
0
11
0.1
21
-2.014748
31
0
39
0
210
0
220
0
230
1
0
LINE
5
93
100
AcDbEntity
8
1
62
256
6
ByLayer
370
13
48
1
60
0
100
AcDbLine
10
56.281126
20
0.605268
30
0
11
57.137461
21
0.056622
31
0
39
0
210
0
220
0
230
1
0
LINE
5
94
100
AcDbEntity
8
1
62
256
6
ByLayer
370
13
48
1
60
0
100
AcDbLine
10
56.218241
20
0.530666
30
0
11
57.10659
21
-0.03849
31
0
39
0
210
0
220
0
230
1
0
LINE
5
95
100
AcDbEntity
8
1
62
256
6
ByLayer
370
18
48
1
60
0
100
AcDbLine
10
0
20
-2.05
30
0
11
0
21
2.05
31
0
39
0
210
0
220
0
230
1
0
LINE
5
96
100
AcDbEntity
8
SK1
62
256
6
ByLayer
370
18
48
1
60
0
100
AcDbLine
10
-42.100225
20
2.05
30
0
11
-42.100225
21
-2.05
31
0
39
0
210
0
220
0
230
1
0
LINE
5
97
100
AcDbEntity
8
SK1
62
256
6
ByLayer
370
18
48
1
60
0
100
AcDbLine
10
-42.86
20
1.290225
30
0
11
-42.86
21
-1.290225
31
0
39
0
210
0
220
0
230
1
0
LINE
5
98
100
AcDbEntity
8
SK1
62
256
6
ByLayer
370
18
48
1
60
0
100
AcDbLine
10
0
20
-2.05
30
0
11
0
21
2.05
31
0
39
0
210
0
220
0
230
1
0
MTEXT
5
FB
100
AcDbEntity
8
SK6
62
256
6
ByLayer
370
13
48
1
60
0
100
AcDbMText
10
9.269169
20
34.432694
30
0
210
0
220
0
230
1
1
\W0.7384;452.1-0410-045A0-CM H10F
40
3.5
41
0
44
1.084337
50
0
71
8
72
5
7
iso_b_vert
0
DIMENSION
5
108
100
AcDbEntity
8
SK2
62
256
6
ByLayer
370
13
48
1
60
0
100
AcDbDimension
2
DimnDraft3D1
10
56.502672
20
-33.763398
30
0
11
27.18273
21
-33.763398
31
0
70
32
71
5
72
1
41
1
210
0
220
0
230
1
3
Standard
100
AcDbAlignedDimension
13
0
23
-1.5875
33
0
14
56.502672
24
-3.6375
34
0
50
0
100
AcDbRotatedDimension
1001
ACAD
1000
DSTYLE
1002
{
1070
   279
1070
     0
1070
   172
1070
     1
1070
   173
1070
     1
1070
   340
1005
FC
1070
   271
1070
     2
1070
   272
1070
     2
1070
    77
1070
     1
1070
    73
1070
     0
1070
   171
1070
     3
1070
   274
1070
     4
1070
   177
1070
    35
1070
   176
1070
    35
1070
   178
1070
    35
1070
    48
1040
-0.005
1070
    41
1041
3.5
1070
   147
1041
1.75
1070
    42
1041
1.5875
1070
    44
1041
2.0
1070
   140
1041
3.5
1070
   343
1005
0
1070
   344
1005
0
1002
}
0
DIMENSION
5
112
100
AcDbEntity
8
SK2
62
256
6
ByLayer
370
13
48
1
60
0
100
AcDbDimension
2
DimnDraft3D2
10
57.14
20
-50.742985
30
0
11
7.843972
21
-50.742985
31
0
70
32
71
5
72
1
41
1
210
0
220
0
230
1
3
Standard
100
AcDbAlignedDimension
13
-42.86
23
-3.6375
33
0
14
57.14
24
-1.5875
34
0
50
0
100
AcDbRotatedDimension
1001
ACAD
1000
DSTYLE
1002
{
1070
   279
1070
     0
1070
   172
1070
     1
1070
   173
1070
     1
1070
   340
1005
FC
1070
   271
1070
     2
1070
   272
1070
     2
1070
    77
1070
     1
1070
    73
1070
     0
1070
   171
1070
     3
1070
   274
1070
     4
1070
   177
1070
    35
1070
   176
1070
    35
1070
   178
1070
    35
1070
    48
1040
-0.005
1070
    41
1041
3.5
1070
   147
1041
1.75
1070
    42
1041
1.5875
1070
    44
1041
2.0
1070
   140
1041
3.5
1070
   343
1005
0
1070
   344
1005
0
1002
}
0
DIMENSION
5
11C
100
AcDbEntity
8
SK2
62
256
6
ByLayer
370
13
48
1
60
0
100
AcDbDimension
2
DimnDraft3D3
10
57.14
20
-23.440881
30
0
11
34.64
21
-23.440881
31
0
70
32
71
5
72
1
41
1
210
0
220
0
230
1
3
Standard
100
AcDbAlignedDimension
13
12.14
23
-3.6375
33
0
14
57.14
24
-1.5875
34
0
50
0
100
AcDbRotatedDimension
1001
ACAD
1000
DSTYLE
1002
{
1070
   279
1070
     0
1070
   172
1070
     1
1070
   173
1070
     1
1070
   340
1005
FC
1070
   271
1070
     2
1070
   272
1070
     2
1070
    77
1070
     1
1070
    73
1070
     0
1070
   171
1070
     3
1070
   274
1070
     4
1070
   177
1070
    35
1070
   176
1070
    35
1070
   178
1070
    35
1070
    48
1040
-0.005
1070
    41
1041
3.5
1070
   147
1041
1.75
1070
    42
1041
1.5875
1070
    44
1041
2.0
1070
   140
1041
3.5
1070
   343
1005
0
1070
   344
1005
0
1002
}
0
DIMENSION
5
126
100
AcDbEntity
8
SK2
62
256
6
ByLayer
370
13
48
1
60
0
100
AcDbDimension
2
DimnDraft3D4
10
56.502672
20
-11.352503
30
0
11
67.121425
21
-11.352503
31
0
70
32
71
5
72
1
41
1
210
0
220
0
230
1
3
Standard
100
AcDbAlignedDimension
13
57.14
23
-1.5875
33
0
14
56.502672
24
-11.352503
34
0
50
0
100
AcDbRotatedDimension
1001
ACAD
1000
DSTYLE
1002
{
1070
   279
1070
     0
1070
   172
1070
     1
1070
   173
1070
     1
1070
   340
1005
FC
1070
   271
1070
     2
1070
   272
1070
     2
1070
    73
1070
     0
1070
   171
1070
     3
1070
   274
1070
     4
1070
   177
1070
    35
1070
   176
1070
    35
1070
   178
1070
    35
1070
    48
1040
-0.005
1070
    41
1041
3.5
1070
   147
1041
1.75
1070
    42
1041
1.5875
1070
    44
1041
2.0
1070
   140
1041
3.5
1070
   343
1005
0
1070
   344
1005
0
1002
}
0
DIMENSION
5
130
100
AcDbEntity
8
SK2
62
256
6
ByLayer
370
13
48
1
60
0
100
AcDbDimension
2
DimnDraft3D5
10
56.502672
20
-42.393428
30
0
11
4.763348
21
-42.393428
31
0
70
32
71
5
72
1
41
1
210
0
220
0
230
1
3
Standard
100
AcDbAlignedDimension
13
-42.86
23
-3.6375
33
0
14
56.502672
24
-3.6375
34
0
50
0
100
AcDbRotatedDimension
1001
ACAD
1000
DSTYLE
1002
{
1070
   279
1070
     0
1070
   172
1070
     1
1070
   173
1070
     1
1070
   340
1005
FC
1070
   271
1070
     2
1070
   272
1070
     2
1070
    77
1070
     1
1070
    73
1070
     0
1070
   171
1070
     3
1070
   274
1070
     4
1070
   177
1070
    35
1070
   176
1070
    35
1070
   178
1070
    35
1070
    48
1040
-0.005
1070
    41
1041
3.5
1070
   147
1041
1.75
1070
    42
1041
1.5875
1070
    44
1041
2.0
1070
   140
1041
3.5
1070
   343
1005
0
1070
   344
1005
0
1002
}
0
DIMENSION
5
13B
100
AcDbEntity
8
SK2
62
256
6
ByLayer
370
13
48
1
60
0
100
AcDbDimension
2
DimnDraft3D6
10
-55.235163
20
2.05
30
0
11
-51.485163
21
20.52418
31
0
70
33
71
5
72
1
41
1
210
0
220
0
230
1
3
Standard
100
AcDbAlignedDimension
13
-44.4475
23
-2.05
33
0
14
-44.4475
24
2.05
34
0
1001
ACAD
1000
DSTYLE
1002
{
1070
   279
1070
     0
1070
    74
1070
     0
1070
   173
1070
     1
1070
   340
1005
FC
1070
   271
1070
     3
1070
   272
1070
     2
1070
    73
1070
     0
1070
   171
1070
     3
1070
   274
1070
     4
1070
   177
1070
    35
1070
   176
1070
    35
1070
   178
1070
    35
1070
    48
1040
-0.005
1070
    41
1041
3.5
1070
   147
1041
1.75
1070
    42
1041
1.5875
1070
    44
1041
2.0
1070
   140
1041
3.5
1070
   343
1005
0
1070
   344
1005
0
1002
}
0
DIMENSION
5
146
100
AcDbEntity
8
2
62
256
6
ByLayer
370
13
48
1
60
0
100
AcDbDimension
2
DimnDraft3D7
10
69.473343
20
2.05
30
0
11
69.223343
21
19.117266
31
0
70
33
71
5
72
1
41
1
210
0
220
0
230
1
3
Standard
100
AcDbAlignedDimension
13
58.090172
23
-2.05
33
0
14
58.090172
24
2.05
34
0
1001
ACAD
1000
DSTYLE
1002
{
1070
   279
1070
     0
1070
    74
1070
     0
1070
   173
1070
     1
1070
   340
1005
FC
1070
   271
1070
     3
1070
   272
1070
     2
1070
    73
1070
     0
1070
   171
1070
     3
1070
   274
1070
     4
1070
   177
1070
    35
1070
   176
1070
    35
1070
   178
1070
    35
1070
    48
1040
-0.005
1070
    41
1041
3.5
1070
   147
1041
1.75
1070
    42
1041
1.5875
1070
    44
1041
2.0
1070
   140
1041
3.5
1070
   343
1005
0
1070
   344
1005
0
1002
}
0
ENDSEC
0
SECTION
2
OBJECTS
0
DICTIONARY
5
1b1
330
0
100
AcDbDictionary
280
0
281
1
3
ACAD_GROUP
350
1b2
3
ACAD_MLINESTYLE
350
1b3
0
DICTIONARY
5
1b2
330
0
100
AcDbDictionary
280
0
281
1
0
DICTIONARY
5
1b3
330
0
100
AcDbDictionary
280
0
281
1
3
Standard
350
18
0
MLINESTYLE
5
18
330
1b3
100
AcDbMlineStyle
2
Standard
70
0
3

62
256
51
90
52
90
71
2
49
-0.5
62
256
6
ByLayer
49
0.5
62
256
6
ByLayer
0
RASTERVARIABLES
5
19f
330

100
AcDbRasterVariables
90
0
70
1
71
1
72
1
0
ENDSEC
0
EOF
