0
SECTION
2
HEADER
9
$ACADVER
1
AC1015
9
$DWGCODEPAGE
3
ANSI_1252
9
$HANDSEED
5
1b1
9
$ANGBASE
50
0
9
$ANGDIR
70
0
9
$ATTMODE
70
1
9
$AUNITS
70
0
9
$AUPREC
70
0
9
$CECOLOR
62
256
9
$CELTSCALE
40
1
9
$CELTYPE
6
ByLayer
9
$CELWEIGHT
370
18
9
$CLAYER
8
0
9
$CMLJUST
70
0
9
$CMLSCALE
40
1
9
$CMLSTYLE
2
Standard
9
$DIMSTYLE
2
Standard
9
$TEXTSIZE
40
0.2
9
$TEXTSTYLE
7
Standard
9
$LUNITS
70
2
9
$LUPREC
70
4
9
$EXTNAMES
290
1
9
$INSUNITS
70
4
9
$LTSCALE
40
1
9
$LWDISPLAY
290
1
9
$PDMODE
70
0
9
$PDSIZE
40
0
9
$PLINEGEN
70
0
0
ENDSEC
0
SECTION
2
CLASSES
0
CLASS
1
RASTERVARIABLES
2
AcDbRasterVariables
3
ISM
90
0
280
0
281
0
0
ENDSEC
0
SECTION
2
TABLES
0
TABLE
2
VPORT
5
1a7
100
AcDbSymbolTable
0
VPORT
5
1
100
AcDbSymbolTableRecord
100
AcDbViewportTableRecord
2
*Active
70
0
10
0
20
0
11
1
21
1
12
-1
22
1
13
0
23
0
14
0.5
24
0.5
15
10
25
10
16
0
26
0
36
1
17
0
27
0
37
0
0
ENDTAB
0
TABLE
2
LTYPE
5
1a8
100
AcDbSymbolTable
0
LTYPE
5
14
100
AcDbSymbolTableRecord
100
AcDbLinetypeTableRecord
70
0
2
ByBlock
3

72
65
73
0
40
0
0
LTYPE
5
15
100
AcDbSymbolTableRecord
100
AcDbLinetypeTableRecord
70
0
2
ByLayer
3

72
65
73
0
40
0
0
LTYPE
5
16
100
AcDbSymbolTableRecord
100
AcDbLinetypeTableRecord
70
0
2
CONTINUOUS
3
Solid line
72
65
73
0
40
0
0
LTYPE
5
6A
100
AcDbSymbolTableRecord
100
AcDbLinetypeTableRecord
70
0
2
CENTER
3
____ _ ____ _ ____ _ ____
72
65
73
4
40
47.5
49
22
74
0
49
-8.5
74
0
49
8.5
74
0
49
-8.5
74
0
0
LTYPE
5
6B
100
AcDbSymbolTableRecord
100
AcDbLinetypeTableRecord
70
0
2
DASHED
3
__ __ __ __ __ __ __ __ __
72
65
73
2
40
25.72
49
12.86
74
0
49
-12.86
74
0
0
ENDTAB
0
TABLE
2
LAYER
5
1a9
100
AcDbSymbolTable
0
LAYER
5
10
100
AcDbSymbolTableRecord
100
AcDbLayerTableRecord
2
0
70
0
62
7
6
CONTINUOUS
290
1
370
-3
390
0
0
LAYER
5
6D
100
AcDbSymbolTableRecord
100
AcDbLayerTableRecord
2
81
70
0
62
-3
6
CONTINUOUS
290
1
370
-3
390
0
0
LAYER
5
6F
100
AcDbSymbolTableRecord
100
AcDbLayerTableRecord
2
80
70
0
62
-6
6
CONTINUOUS
290
1
370
-3
390
0
0
LAYER
5
74
100
AcDbSymbolTableRecord
100
AcDbLayerTableRecord
2
2
70
0
62
7
6
CONTINUOUS
290
1
370
-3
390
0
0
LAYER
5
78
100
AcDbSymbolTableRecord
100
AcDbLayerTableRecord
2
1
70
0
62
4
6
CONTINUOUS
290
1
370
-3
390
0
0
LAYER
5
94
100
AcDbSymbolTableRecord
100
AcDbLayerTableRecord
2
4
70
0
62
-2
6
CENTER
290
1
370
-3
390
0
0
LAYER
5
193
100
AcDbSymbolTableRecord
100
AcDbLayerTableRecord
2
SK2
70
0
62
7
6
CONTINUOUS
290
1
370
-3
390
0
0
LAYER
5
194
100
AcDbSymbolTableRecord
100
AcDbLayerTableRecord
2
SK1
70
0
62
4
6
CONTINUOUS
290
1
370
-3
390
0
0
LAYER
5
195
100
AcDbSymbolTableRecord
100
AcDbLayerTableRecord
2
SK4
70
0
62
2
6
CENTER
290
1
370
-3
390
0
0
LAYER
5
196
100
AcDbSymbolTableRecord
100
AcDbLayerTableRecord
2
SK6
70
0
62
5
6
CONTINUOUS
290
1
370
-3
390
0
0
ENDTAB
0
TABLE
2
STYLE
5
1aa
100
AcDbSymbolTable
0
STYLE
5
11
100
AcDbSymbolTableRecord
100
AcDbTextStyleTableRecord
2
Standard
3
txt
70
0
71
0
40
0
41
1
42
0
50
0
0
STYLE
5
EF
100
AcDbSymbolTableRecord
100
AcDbTextStyleTableRecord
2
iso_b_vert
3
simplex.shx
70
0
71
0
40
0
41
1
42
0
50
0
0
STYLE
5
F0
100
AcDbSymbolTableRecord
100
AcDbTextStyleTableRecord
2
DWGDirectTextStyle
3
simplex
70
0
71
0
40
0
41
1
42
0
50
0
0
ENDTAB
0
TABLE
2
DIMSTYLE
5
1ab
100
AcDbSymbolTable
100
AcDbDimStyleTable
0
DIMSTYLE
105
27
100
AcDbSymbolTableRecord
100
AcDbDimStyleTableRecord
2
Standard
70
0
3
<>
41
0.18
42
0.0625
44
0.18
140
0.18
147
0.09
73
0
74
0
77
1
271
2
275
0
278
52
280
0
340
11
0
ENDTAB
0
TABLE
2
VIEW
5
1ac
100
AcDbSymbolTable
0
ENDTAB
0
TABLE
2
UCS
5
1ad
100
AcDbSymbolTable
0
ENDTAB
0
TABLE
2
APPID
5
1ae
100
AcDbSymbolTable
0
APPID
5
12
100
AcDbSymbolTableRecord
100
AcDbRegAppTableRecord
2
ACAD
70
0
0
ENDTAB
0
TABLE
2
BLOCK_RECORD
5
1af
100
AcDbSymbolTable
0
BLOCK_RECORD
5
1F
100
AcDbSymbolTableRecord
100
AcDbBlockTableRecord
2
*Model_Space
340
0
70
0
0
BLOCK_RECORD
5
1B
100
AcDbSymbolTableRecord
100
AcDbBlockTableRecord
2
*Paper_Space
340
0
70
0
0
BLOCK_RECORD
5
23
100
AcDbSymbolTableRecord
100
AcDbBlockTableRecord
2
*Paper_Space0
340
0
70
0
0
BLOCK_RECORD
5
F2
100
AcDbSymbolTableRecord
100
AcDbBlockTableRecord
2
DimnDraft3D1
340
0
70
0
0
BLOCK_RECORD
5
FC
100
AcDbSymbolTableRecord
100
AcDbBlockTableRecord
2
DimnDraft3D2
340
0
70
0
0
BLOCK_RECORD
5
106
100
AcDbSymbolTableRecord
100
AcDbBlockTableRecord
2
DimnDraft3D3
340
0
70
0
0
BLOCK_RECORD
5
110
100
AcDbSymbolTableRecord
100
AcDbBlockTableRecord
2
DimnDraft3D4
340
0
70
0
0
BLOCK_RECORD
5
11A
100
AcDbSymbolTableRecord
100
AcDbBlockTableRecord
2
DimnDraft3D5
340
0
70
0
0
BLOCK_RECORD
5
124
100
AcDbSymbolTableRecord
100
AcDbBlockTableRecord
2
DimnDraft3D6
340
0
70
0
0
BLOCK_RECORD
5
12F
100
AcDbSymbolTableRecord
100
AcDbBlockTableRecord
2
DimnDraft3D7
340
0
70
0
0
ENDTAB
0
ENDSEC
0
SECTION
2
BLOCKS
0
BLOCK
5
20
100
AcDbEntity
8
0
100
AcDbBlockBegin
2
*Model_Space
70
0
10
0
20
0
30
0
3
*Model_Space
0
ENDBLK
5
21
100
AcDbEntity
8
0
100
AcDbBlockEnd
0
BLOCK
5
1C
100
AcDbEntity
8
0
100
AcDbBlockBegin
2
*Paper_Space
70
0
10
0
20
0
30
0
3
*Paper_Space
0
ENDBLK
5
1D
100
AcDbEntity
8
0
100
AcDbBlockEnd
0
BLOCK
5
24
100
AcDbEntity
8
0
100
AcDbBlockBegin
2
*Paper_Space0
70
0
10
0
20
0
30
0
3
*Paper_Space0
0
ENDBLK
5
25
100
AcDbEntity
8
0
100
AcDbBlockEnd
0
BLOCK
5
F9
100
AcDbEntity
8
0
100
AcDbBlockBegin
2
DimnDraft3D1
70
0
10
0
20
0
30
0
3
DimnDraft3D1
0
MTEXT
5
F3
100
AcDbEntity
8
SK2
62
256
6
ByLayer
370
13
48
1
60
0
100
AcDbMText
10
22.106043
20
-32.388398
30
0
210
0
220
0
230
1
1
\W0.7581;55,46
40
3.5
41
0
44
1.084337
50
0
71
7
72
5
7
iso_b_vert
0
LINE
5
F4
100
AcDbEntity
8
SK2
62
256
6
ByLayer
370
13
48
1
60
0
100
AcDbLine
10
0
20
-1.5875
30
0
11
0
21
-35.263398
31
0
39
0
210
0
220
0
230
1
0
LINE
5
F5
100
AcDbEntity
8
SK2
62
256
6
ByLayer
370
13
48
1
60
0
100
AcDbLine
10
55.458879
20
-3.1375
30
0
11
55.458879
21
-35.263398
31
0
39
0
210
0
220
0
230
1
0
LINE
5
F6
100
AcDbEntity
8
SK2
62
256
6
ByLayer
370
13
48
1
60
0
100
AcDbLine
10
0
20
-33.263398
30
0
11
55.458879
21
-33.263398
31
0
39
0
210
0
220
0
230
1
0
SOLID
5
F7
100
AcDbEntity
8
SK2
62
256
6
ByLayer
370
13
48
1
60
0
100
AcDbTrace
10
0
20
-33.263398
30
0
11
3.499998
21
-32.802615
31
0
12
3.500002
22
-33.724182
32
0
13
0
23
-33.263398
33
0
39
0
210
0
220
0
230
1
0
SOLID
5
F8
100
AcDbEntity
8
SK2
62
256
6
ByLayer
370
13
48
1
60
0
100
AcDbTrace
10
55.458879
20
-33.263398
30
0
11
51.958881
21
-33.724182
31
0
12
51.958877
22
-32.802615
32
0
13
55.458879
23
-33.263398
33
0
39
0
210
0
220
0
230
1
0
ENDBLK
5
FA
100
AcDbEntity
8
0
100
AcDbBlockEnd
0
BLOCK
5
103
100
AcDbEntity
8
0
100
AcDbBlockBegin
2
DimnDraft3D2
70
0
10
0
20
0
30
0
3
DimnDraft3D2
0
MTEXT
5
FD
100
AcDbEntity
8
SK2
62
256
6
ByLayer
370
13
48
1
60
0
100
AcDbMText
10
1.4811
20
-49.367985
30
0
210
0
220
0
230
1
1
\W0.6930;100,00
40
3.5
41
0
44
1.084337
50
0
71
7
72
5
7
iso_b_vert
0
LINE
5
FE
100
AcDbEntity
8
SK2
62
256
6
ByLayer
370
13
48
1
60
0
100
AcDbLine
10
-44.06
20
-3.1375
30
0
11
-44.06
21
-52.242985
31
0
39
0
210
0
220
0
230
1
0
LINE
5
FF
100
AcDbEntity
8
SK2
62
256
6
ByLayer
370
13
48
1
60
0
100
AcDbLine
10
55.94
20
-1.5875
30
0
11
55.94
21
-52.242985
31
0
39
0
210
0
220
0
230
1
0
LINE
5
100
100
AcDbEntity
8
SK2
62
256
6
ByLayer
370
13
48
1
60
0
100
AcDbLine
10
-44.06
20
-50.242985
30
0
11
55.94
21
-50.242985
31
0
39
0
210
0
220
0
230
1
0
SOLID
5
101
100
AcDbEntity
8
SK2
62
256
6
ByLayer
370
13
48
1
60
0
100
AcDbTrace
10
-44.06
20
-50.242985
30
0
11
-40.560002
21
-49.782202
31
0
12
-40.559998
22
-50.703769
32
0
13
-44.06
23
-50.242985
33
0
39
0
210
0
220
0
230
1
0
SOLID
5
102
100
AcDbEntity
8
SK2
62
256
6
ByLayer
370
13
48
1
60
0
100
AcDbTrace
10
55.94
20
-50.242985
30
0
11
52.440002
21
-50.703769
31
0
12
52.439998
22
-49.782202
32
0
13
55.94
23
-50.242985
33
0
39
0
210
0
220
0
230
1
0
ENDBLK
5
104
100
AcDbEntity
8
0
100
AcDbBlockEnd
0
BLOCK
5
10D
100
AcDbEntity
8
0
100
AcDbBlockBegin
2
DimnDraft3D3
70
0
10
0
20
0
30
0
3
DimnDraft3D3
0
MTEXT
5
107
100
AcDbEntity
8
SK2
62
256
6
ByLayer
370
13
48
1
60
0
100
AcDbMText
10
28.807105
20
-22.065881
30
0
210
0
220
0
230
1
1
\W0.7581;45,00
40
3.5
41
0
44
1.084337
50
0
71
7
72
5
7
iso_b_vert
0
LINE
5
108
100
AcDbEntity
8
SK2
62
256
6
ByLayer
370
13
48
1
60
0
100
AcDbLine
10
10.94
20
-3.1375
30
0
11
10.94
21
-24.940881
31
0
39
0
210
0
220
0
230
1
0
LINE
5
109
100
AcDbEntity
8
SK2
62
256
6
ByLayer
370
13
48
1
60
0
100
AcDbLine
10
55.94
20
-1.5875
30
0
11
55.94
21
-24.940881
31
0
39
0
210
0
220
0
230
1
0
LINE
5
10A
100
AcDbEntity
8
SK2
62
256
6
ByLayer
370
13
48
1
60
0
100
AcDbLine
10
10.94
20
-22.940881
30
0
11
55.94
21
-22.940881
31
0
39
0
210
0
220
0
230
1
0
SOLID
5
10B
100
AcDbEntity
8
SK2
62
256
6
ByLayer
370
13
48
1
60
0
100
AcDbTrace
10
10.94
20
-22.940881
30
0
11
14.439998
21
-22.480097
31
0
12
14.440002
22
-23.401665
32
0
13
10.94
23
-22.940881
33
0
39
0
210
0
220
0
230
1
0
SOLID
5
10C
100
AcDbEntity
8
SK2
62
256
6
ByLayer
370
13
48
1
60
0
100
AcDbTrace
10
55.94
20
-22.940881
30
0
11
52.440002
21
-23.401665
31
0
12
52.439998
22
-22.480097
32
0
13
55.94
23
-22.940881
33
0
39
0
210
0
220
0
230
1
0
ENDBLK
5
10E
100
AcDbEntity
8
0
100
AcDbBlockEnd
0
BLOCK
5
117
100
AcDbEntity
8
0
100
AcDbBlockBegin
2
DimnDraft3D4
70
0
10
0
20
0
30
0
3
DimnDraft3D4
0
MTEXT
5
111
100
AcDbEntity
8
SK2
62
256
6
ByLayer
370
13
48
1
60
0
100
AcDbMText
10
66.796425
20
-13.477503
30
0
210
0
220
0
230
1
1
\W0.7493;0,48
40
3.5
41
0
44
1.084337
50
0
71
7
72
5
7
iso_b_vert
0
LINE
5
112
100
AcDbEntity
8
SK2
62
256
6
ByLayer
370
13
48
1
60
0
100
AcDbLine
10
55.94
20
-1.5875
30
0
11
55.94
21
-12.852503
31
0
39
0
210
0
220
0
230
1
0
LINE
5
113
100
AcDbEntity
8
SK2
62
256
6
ByLayer
370
13
48
1
60
0
100
AcDbLine
10
55.458879
20
-3.1375
30
0
11
55.458879
21
-12.852503
31
0
39
0
210
0
220
0
230
1
0
LINE
5
114
100
AcDbEntity
8
SK2
62
256
6
ByLayer
370
13
48
1
60
0
100
AcDbLine
10
46.708879
20
-10.852503
30
0
11
64.421425
21
-10.852503
31
0
39
0
210
0
220
0
230
1
0
SOLID
5
115
100
AcDbEntity
8
SK2
62
256
6
ByLayer
370
13
48
1
60
0
100
AcDbTrace
10
55.94
20
-10.852503
30
0
11
59.439998
21
-10.391719
31
0
12
59.440002
22
-11.313287
32
0
13
55.94
23
-10.852503
33
0
39
0
210
0
220
0
230
1
0
SOLID
5
116
100
AcDbEntity
8
SK2
62
256
6
ByLayer
370
13
48
1
60
0
100
AcDbTrace
10
55.458879
20
-10.852503
30
0
11
51.958881
21
-11.313287
31
0
12
51.958877
22
-10.391719
32
0
13
55.458879
23
-10.852503
33
0
39
0
210
0
220
0
230
1
0
ENDBLK
5
118
100
AcDbEntity
8
0
100
AcDbBlockEnd
0
BLOCK
5
121
100
AcDbEntity
8
0
100
AcDbBlockBegin
2
DimnDraft3D5
70
0
10
0
20
0
30
0
3
DimnDraft3D5
0
MTEXT
5
11B
100
AcDbEntity
8
SK2
62
256
6
ByLayer
370
13
48
1
60
0
100
AcDbMText
10
-0.729129
20
-41.018428
30
0
210
0
220
0
230
1
1
\W0.7317;99,52
40
3.5
41
0
44
1.084337
50
0
71
7
72
5
7
iso_b_vert
0
LINE
5
11C
100
AcDbEntity
8
SK2
62
256
6
ByLayer
370
13
48
1
60
0
100
AcDbLine
10
-44.06
20
-3.1375
30
0
11
-44.06
21
-43.893428
31
0
39
0
210
0
220
0
230
1
0
LINE
5
11D
100
AcDbEntity
8
SK2
62
256
6
ByLayer
370
13
48
1
60
0
100
AcDbLine
10
55.458879
20
-3.1375
30
0
11
55.458879
21
-43.893428
31
0
39
0
210
0
220
0
230
1
0
LINE
5
11E
100
AcDbEntity
8
SK2
62
256
6
ByLayer
370
13
48
1
60
0
100
AcDbLine
10
-44.06
20
-41.893428
30
0
11
55.458879
21
-41.893428
31
0
39
0
210
0
220
0
230
1
0
SOLID
5
11F
100
AcDbEntity
8
SK2
62
256
6
ByLayer
370
13
48
1
60
0
100
AcDbTrace
10
-44.06
20
-41.893428
30
0
11
-40.560002
21
-41.432645
31
0
12
-40.559998
22
-42.354212
32
0
13
-44.06
23
-41.893428
33
0
39
0
210
0
220
0
230
1
0
SOLID
5
120
100
AcDbEntity
8
SK2
62
256
6
ByLayer
370
13
48
1
60
0
100
AcDbTrace
10
55.458879
20
-41.893428
30
0
11
51.958881
21
-42.354212
31
0
12
51.958877
22
-41.432645
32
0
13
55.458879
23
-41.893428
33
0
39
0
210
0
220
0
230
1
0
ENDBLK
5
122
100
AcDbEntity
8
0
100
AcDbBlockEnd
0
BLOCK
5
12C
100
AcDbEntity
8
0
100
AcDbBlockBegin
2
DimnDraft3D6
70
0
10
0
20
0
30
0
3
DimnDraft3D6
0
MTEXT
5
125
100
AcDbEntity
8
SK2
62
256
6
ByLayer
370
13
48
1
60
0
100
AcDbMText
10
-51.810163
20
20.89918
30
0
210
0
220
0
230
1
1
\W0.6713;3,100
40
3.5
41
0
44
1.084337
50
90
71
7
72
5
7
iso_b_vert
0
MTEXT
5
126
100
AcDbEntity
8
SK2
62
256
6
ByLayer
370
13
48
1
60
0
100
AcDbMText
10
-51.810163
20
15.676524
30
0
210
0
220
0
230
1
1
%%c
40
3.5
41
0
44
1.084337
50
90
71
7
72
5
7
iso_b_vert
0
LINE
5
127
100
AcDbEntity
8
SK2
62
256
6
ByLayer
370
13
48
1
60
0
100
AcDbLine
10
-45.6475
20
-1.55
30
0
11
-56.435163
21
-1.55
31
0
39
0
210
0
220
0
230
1
0
LINE
5
128
100
AcDbEntity
8
SK2
62
256
6
ByLayer
370
13
48
1
60
0
100
AcDbLine
10
-45.6475
20
1.55
30
0
11
-56.435163
21
1.55
31
0
39
0
210
0
220
0
230
1
0
LINE
5
129
100
AcDbEntity
8
SK2
62
256
6
ByLayer
370
13
48
1
60
0
100
AcDbLine
10
-54.435163
20
11.52418
30
0
11
-54.435163
21
-10.3
31
0
39
0
210
0
220
0
230
1
0
SOLID
5
12A
100
AcDbEntity
8
SK2
62
256
6
ByLayer
370
13
48
1
60
0
100
AcDbTrace
10
-54.435163
20
-1.55
30
0
11
-53.974379
21
-5.049998
31
0
12
-54.895946
22
-5.050002
32
0
13
-54.435163
23
-1.55
33
0
39
0
210
0
220
0
230
1
0
SOLID
5
12B
100
AcDbEntity
8
SK2
62
256
6
ByLayer
370
13
48
1
60
0
100
AcDbTrace
10
-54.435163
20
1.55
30
0
11
-54.895946
21
5.049998
31
0
12
-53.974379
22
5.050002
32
0
13
-54.435163
23
1.55
33
0
39
0
210
0
220
0
230
1
0
ENDBLK
5
12D
100
AcDbEntity
8
0
100
AcDbBlockEnd
0
BLOCK
5
137
100
AcDbEntity
8
0
100
AcDbBlockBegin
2
DimnDraft3D7
70
0
10
0
20
0
30
0
3
DimnDraft3D7
0
MTEXT
5
130
100
AcDbEntity
8
2
62
256
6
ByLayer
370
13
48
1
60
0
100
AcDbMText
10
68.898343
20
19.492266
30
0
210
0
220
0
230
1
1
\W0.6713;3,100
40
3.5
41
0
44
1.084337
50
90
71
7
72
5
7
iso_b_vert
0
MTEXT
5
131
100
AcDbEntity
8
2
62
256
6
ByLayer
370
13
48
1
60
0
100
AcDbMText
10
68.898343
20
14.26961
30
0
210
0
220
0
230
1
1
%%c
40
3.5
41
0
44
1.084337
50
90
71
7
72
5
7
iso_b_vert
0
LINE
5
132
100
AcDbEntity
8
2
62
256
6
ByLayer
370
13
48
1
60
0
100
AcDbLine
10
57.046379
20
-1.55
30
0
11
68.273343
21
-1.55
31
0
39
0
210
0
220
0
230
1
0
LINE
5
133
100
AcDbEntity
8
2
62
256
6
ByLayer
370
13
48
1
60
0
100
AcDbLine
10
57.046379
20
1.55
30
0
11
68.273343
21
1.55
31
0
39
0
210
0
220
0
230
1
0
LINE
5
134
100
AcDbEntity
8
2
62
256
6
ByLayer
370
13
48
1
60
0
100
AcDbLine
10
66.273343
20
10.117266
30
0
11
66.273343
21
-10.3
31
0
39
0
210
0
220
0
230
1
0
SOLID
5
135
100
AcDbEntity
8
2
62
256
6
ByLayer
370
13
48
1
60
0
100
AcDbTrace
10
66.273343
20
-1.55
30
0
11
66.734126
21
-5.049998
31
0
12
65.812559
22
-5.050002
32
0
13
66.273343
23
-1.55
33
0
39
0
210
0
220
0
230
1
0
SOLID
5
136
100
AcDbEntity
8
2
62
256
6
ByLayer
370
13
48
1
60
0
100
AcDbTrace
10
66.273343
20
1.55
30
0
11
65.812559
21
5.049998
31
0
12
66.734126
22
5.050002
32
0
13
66.273343
23
1.55
33
0
39
0
210
0
220
0
230
1
0
ENDBLK
5
138
100
AcDbEntity
8
0
100
AcDbBlockEnd
0
ENDSEC
0
SECTION
2
ENTITIES
0
ELLIPSE
5
9D
100
AcDbEntity
8
1
62
256
6
ByLayer
370
18
48
1
60
0
100
AcDbEllipse
10
2.539996
20
-1E-06
30
0
11
0.00220300009628396
21
-1.51692569823828
31
0
210
0
220
0
230
-1
40
0.007595
41
-0.803335717986214
42
1.85287763121205E-05
0
ELLIPSE
5
9E
100
AcDbEntity
8
1
62
256
6
ByLayer
370
13
48
1
60
0
100
AcDbEllipse
10
55.936025
20
0.700924
30
0
11
0.922875335263702
21
-0.280524615724107
31
0
210
0
220
0
230
-1
40
0.59729
41
2.13655028194006
42
2.30108818913886
0
ELLIPSE
5
9F
100
AcDbEntity
8
1
62
256
6
ByLayer
370
18
48
1
60
0
100
AcDbEllipse
10
54.440993
20
1.211459
30
0
11
1.89889537167382
21
3.01846169213549
31
0
210
0
220
0
230
-1
40
0.533569
41
1.64023759829532
42
1.99382551922169
0
ELLIPSE
5
A0
100
AcDbEntity
8
1
62
256
6
ByLayer
370
18
48
1
60
0
100
AcDbEllipse
10
55.998254
20
-0.000414
30
0
11
2.28926812159017
21
-0.704682849309392
31
0
210
0
220
0
230
-1
40
0.603219
41
2.3994812181013
42
2.78256202888409
0
ELLIPSE
5
A1
100
AcDbEntity
8
1
62
256
6
ByLayer
370
18
48
1
60
0
100
AcDbEllipse
10
42.333724
20
-4.963452
30
0
11
13.4885039074491
21
5.65403615717734
31
0
210
0
220
0
230
-1
40
0.312372
41
0.132397234391464
42
0.138054468629237
0
ELLIPSE
5
A2
100
AcDbEntity
8
1
62
256
6
ByLayer
370
18
48
1
60
0
100
AcDbEllipse
10
2.539996
20
1E-06
30
0
11
0.00220300009637377
21
1.51692569826512
31
0
210
0
220
0
230
-1
40
0.007595
41
-0.188119789471562
42
0.412205890342414
0
POINT
5
6C
100
AcDbEntity
8
81
62
256
6
ByLayer
370
18
48
1
60
0
100
AcDbPoint
10
55.94
20
0
30
0
39
0
210
0
220
0
230
1
50
360
0
POINT
5
6E
100
AcDbEntity
8
80
62
256
6
ByLayer
370
18
48
1
60
0
100
AcDbPoint
10
0
20
0
30
0
39
0
210
0
220
0
230
1
50
360
0
POINT
5
70
100
AcDbEntity
8
SK2
62
256
6
ByLayer
370
18
48
1
60
1
100
AcDbPoint
10
-44.06
20
-1.55
30
0
39
0
210
0
220
0
230
1
50
360
0
POINT
5
72
100
AcDbEntity
8
SK2
62
256
6
ByLayer
370
18
48
1
60
1
100
AcDbPoint
10
-44.06
20
1.55
30
0
39
0
210
0
220
0
230
1
50
360
0
POINT
5
73
100
AcDbEntity
8
2
62
256
6
ByLayer
370
18
48
1
60
1
100
AcDbPoint
10
55.458879
20
-1.55
30
0
39
0
210
0
220
0
230
1
50
360
0
POINT
5
75
100
AcDbEntity
8
2
62
256
6
ByLayer
370
18
48
1
60
1
100
AcDbPoint
10
55.458879
20
1.55
30
0
39
0
210
0
220
0
230
1
50
360
0
SPLINE
5
A3
100
AcDbEntity
8
1
62
256
6
ByLayer
370
18
48
1
60
0
100
AcDbSpline
70
4
71
3
72
11
73
7
40
0
40
0
40
0
40
0
40
0.400527924539302
40
0.699067412652507
40
0.933114228615465
40
1
40
1
40
1
40
1
41
1
10
28.6489546213834
20
-1.31803485777692
30
0
41
1
10
28.8957365963269
20
-1.31777517830003
30
0
41
1
10
29.3264551560423
20
-1.31704572287492
30
0
41
1
10
29.9013942556206
20
-1.31525302907582
30
0
41
1
10
30.2707174172019
20
-1.31398750809436
30
0
41
1
10
30.4561324329643
20
-1.31352779812281
30
0
41
1
10
30.4973434409732
20
-1.31342988352284
30
0
0
SPLINE
5
A4
100
AcDbEntity
8
1
62
256
6
ByLayer
370
18
48
1
60
0
100
AcDbSpline
70
4
71
3
72
11
73
7
40
0
40
0
40
0
40
0
40
0.409147904261236
40
0.727367051783415
40
0.954599612292385
40
1
40
1
40
1
40
1
41
1
10
46.0450536971368
20
1.30168336806628
30
0
41
1
10
45.798400961756
20
1.30193787085875
30
0
41
1
10
45.3599103874897
20
1.3025646891268
30
0
41
1
10
44.7844230015554
20
1.30320584196548
30
0
41
1
10
44.4282308980032
20
1.3044156906553
30
0
41
1
10
44.2638740727934
20
1.30495841524643
30
0
41
1
10
44.2365044162852
20
1.3050466970185
30
0
0
SPLINE
5
A5
100
AcDbEntity
8
1
62
256
6
ByLayer
370
18
48
1
60
0
100
AcDbSpline
70
4
71
1
72
4
73
2
40
0
40
0
40
1
40
1
41
1
10
55.3659839269089
20
-1.30004684013949
30
0
41
1
10
55.4078725975042
20
-1.29989400258566
30
0
0
SPLINE
5
A6
100
AcDbEntity
8
1
62
256
6
ByLayer
370
18
48
1
60
0
100
AcDbSpline
70
4
71
3
72
12
73
8
40
0
40
0
40
0
40
0
40
0.354148009505561
40
0.62155775246304
40
0.801084904480526
40
0.931037253178578
40
1
40
1
40
1
40
1
41
1
10
5.91243102565531
20
1.31619311094929
30
0
41
1
10
5.66883603386344
20
1.31828111606731
30
0
41
1
10
5.24128150782872
20
1.32161124891937
30
0
41
1
10
4.69014252970831
20
1.32367754304832
30
0
41
1
10
4.29325743255899
20
1.32654197959627
30
0
41
1
10
4.03288568464072
20
1.32830497517716
30
0
41
1
10
3.8960448282792
20
1.3291573684528
30
0
41
1
10
3.84860473233627
20
1.32944137458821
30
0
0
SPLINE
5
A7
100
AcDbEntity
8
1
62
256
6
ByLayer
370
18
48
1
60
0
100
AcDbSpline
70
4
71
3
72
11
73
7
40
0
40
0
40
0
40
0
40
0.475827815423485
40
0.822006010294196
40
0.980768077312917
40
1
40
1
40
1
40
1
41
1
10
32.6699090969235
20
1.30547507793744
30
0
41
1
10
32.368963280433
20
1.30728065530715
30
0
41
1
10
31.8490589485777
20
1.30990031625632
30
0
41
1
10
31.2286991893899
20
1.31162681859965
30
0
41
1
10
30.8971523890662
20
1.31249957767741
30
0
41
1
10
30.7845706885971
20
1.31276771080204
30
0
41
1
10
30.7724064547315
20
1.31279641949161
30
0
0
SPLINE
5
A8
100
AcDbEntity
8
1
62
256
6
ByLayer
370
18
48
1
60
0
100
AcDbSpline
70
4
71
3
72
11
73
7
40
0
40
0
40
0
40
0
40
0.413402618350743
40
0.737356951570711
40
0.972129684764705
40
1
40
1
40
1
40
1
41
1
10
42.0285703260627
20
-1.30898619050941
30
0
41
1
10
42.2761557857312
20
-1.30854830200192
30
0
41
1
10
42.7177618048908
20
-1.30781990115551
30
0
41
1
10
43.2999932648608
20
-1.30669853475322
30
0
41
1
10
43.6513193743854
20
-1.30637487438094
30
0
41
1
10
43.8086209280564
20
-1.30611269683018
30
0
41
1
10
43.8253129418642
20
-1.30608342902457
30
0
0
SPLINE
5
A9
100
AcDbEntity
8
1
62
256
6
ByLayer
370
18
48
1
60
0
100
AcDbSpline
70
4
71
3
72
11
73
7
40
0
40
0
40
0
40
0
40
0.442181044518645
40
0.754437791240241
40
0.984434042244681
40
1
40
1
40
1
40
1
41
1
10
15.2708088915891
20
-1.32699838824558
30
0
41
1
10
15.547557809251
20
-1.32662836541152
30
0
41
1
10
16.0197508302229
20
-1.32563620963981
30
0
41
1
10
16.6359226622376
20
-1.32381898838827
30
0
41
1
10
16.9850779024087
20
-1.32218586982395
30
0
41
1
10
17.1387691106392
20
-1.32142781405767
30
0
41
1
10
17.1485114064484
20
-1.32137971509798
30
0
0
SPLINE
5
AA
100
AcDbEntity
8
1
62
256
6
ByLayer
370
18
48
1
60
0
100
AcDbSpline
70
4
71
3
72
10
73
6
40
0
40
0
40
0
40
0
40
0.47571807916811
40
0.838365754229466
40
1
40
1
40
1
40
1
41
1
10
2.54216766285126
20
-1.3333976021969
30
0
41
1
10
2.75046225014478
20
-1.33348011572849
30
0
41
1
10
3.11770811234834
20
-1.33303811317276
30
0
41
1
10
3.55611812936408
20
-1.33114467856856
30
0
41
1
10
3.78607185593071
20
-1.3298467416347
30
0
41
1
10
3.85696922236039
20
-1.32941858924448
30
0
0
SPLINE
5
AB
100
AcDbEntity
8
1
62
256
6
ByLayer
370
18
48
1
60
0
100
AcDbSpline
70
4
71
3
72
11
73
7
40
0
40
0
40
0
40
0
40
0.42916342833528
40
0.74649404061921
40
0.95318827540926
40
1
40
1
40
1
40
1
41
1
10
19.2914573223892
20
1.31108624171492
30
0
41
1
10
19.0138325945561
20
1.31280173433348
30
0
41
1
10
18.5308966019829
20
1.31542033542831
30
0
41
1
10
17.914127781999
20
1.31869896795098
30
0
41
1
10
17.544779289395
20
1.31958311338496
30
0
41
1
10
17.3807641306306
20
1.32027743874241
30
0
41
1
10
17.3504776398431
20
1.32041258713153
30
0
0
SPLINE
5
AC
100
AcDbEntity
8
1
62
256
6
ByLayer
370
18
48
1
60
0
100
AcDbSpline
70
4
71
3
72
8
73
4
40
0
40
0
40
0
40
0
40
1
40
1
40
1
40
1
41
1
10
55.8755733982346
20
-0.403906928213814
30
0
41
1
10
55.9033324004536
20
-0.297765657011667
30
0
41
1
10
55.9246363110286
20
-0.191444340033002
30
0
41
1
10
55.9373327708793
20
-0.0848829435581138
30
0
0
SPLINE
5
AD
100
AcDbEntity
8
1
62
256
6
ByLayer
370
18
48
1
60
0
100
AcDbSpline
70
4
71
3
72
32
73
28
40
0
40
0
40
0
40
0
40
0.250000000000001
40
0.250000000000001
40
0.375000000000002
40
0.375000000000002
40
0.500000000000003
40
0.500000000000003
40
0.750000000000004
40
0.750000000000004
40
0.812500000000016
40
0.812500000000016
40
0.843750000000014
40
0.843750000000014
40
0.859375000000014
40
0.859375000000014
40
0.875000000000013
40
0.875000000000013
40
0.882812500000012
40
0.882812500000012
40
0.890625000000012
40
0.890625000000012
40
0.906250000000011
40
0.906250000000011
40
0.937500000000008
40
0.937500000000008
40
1
40
1
40
1
40
1
41
1
10
53.7055964267798
20
0.174124369250109
30
0
41
1
10
53.8549204143235
20
0.12544776787243
30
0
41
1
10
54.0044266073292
20
0.0891339317074085
30
0
41
1
10
54.228991535318
20
0.0554009574139513
30
0
41
1
10
54.3038978258099
20
0.0476383562838407
30
0
41
1
10
54.4538248536686
20
0.0398784527471321
30
0
41
1
10
54.5287317792963
20
0.0399209036521029
30
0
41
1
10
54.7500454212722
20
0.0529116530513249
30
0
41
1
10
54.8950568148709
20
0.0787892047723915
30
0
41
1
10
55.0672416884367
20
0.137299866462655
30
0
41
1
10
55.1012142109073
20
0.150276329222919
30
0
41
1
10
55.1513465201435
20
0.171680449117559
30
0
41
1
10
55.1679210882677
20
0.179138856555596
30
0
41
1
10
55.1925604723773
20
0.190812531638301
30
0
41
1
10
55.2007369686646
20
0.19478496091304
30
0
41
1
10
55.2170129145578
20
0.202891725781029
30
0
41
1
10
55.2258731894169
20
0.20687845224387
30
0
41
1
10
55.2319418901428
20
0.220515651017962
30
0
41
1
10
55.2325662976995
20
0.225934198726236
30
0
41
1
10
55.2319383953441
20
0.236794226358342
30
0
41
1
10
55.2310460043954
20
0.242287764340915
30
0
41
1
10
55.2292445253892
20
0.258704713665764
30
0
41
1
10
55.2279711802006
20
0.269650867388407
30
0
41
1
10
55.2239436390869
20
0.302493689890753
30
0
41
1
10
55.2209802648319
20
0.324402923877329
30
0
41
1
10
55.2113288731771
20
0.390069630661571
30
0
41
1
10
55.2038820141441
20
0.433771441876189
30
0
41
1
10
55.1955619721892
20
0.477407722580722
30
0
0
SPLINE
5
AE
100
AcDbEntity
8
1
62
256
6
ByLayer
370
18
48
1
60
0
100
AcDbSpline
70
4
71
3
72
20
73
16
40
0
40
0
40
0
40
0
40
0.19713033174485
40
0.19713033174485
40
0.304208197668603
40
0.304208197668603
40
0.411286063592356
40
0.411286063592356
40
0.51836392951611
40
0.51836392951611
40
0.625441795439863
40
0.625441795439863
40
0.839597527287375
40
0.839597527287375
40
1
40
1
40
1
40
1
41
1
10
42.0495616359004
20
-1.30895368091785
30
0
41
1
10
41.5411804277713
20
-1.30959172472282
30
0
41
1
10
41.0337286323584
20
-1.28203949718679
30
0
41
1
10
40.2477745137255
20
-1.19836454759047
30
0
41
1
10
39.9709407984661
20
-1.16094556707898
30
0
41
1
10
39.4185832148225
20
-1.0722531946125
30
0
41
1
10
39.1426923958631
20
-1.02094420500435
30
0
41
1
10
38.5905815827242
20
-0.906027786536043
30
0
41
1
10
38.3143693695392
20
-0.842384360989655
30
0
41
1
10
37.7607147230446
20
-0.704877855775749
30
0
41
1
10
37.4848290251318
20
-0.631408499590322
30
0
41
1
10
36.6599731596183
20
-0.4013712364507
30
0
41
1
10
36.1132995660641
20
-0.234893835065748
30
0
41
1
10
35.1570049105377
20
0.0595898792143146
30
0
41
1
10
34.7473995194538
20
0.186676907160774
30
0
41
1
10
34.3363363650166
20
0.309983940306182
30
0
0
SPLINE
5
AF
100
AcDbEntity
8
1
62
256
6
ByLayer
370
18
48
1
60
0
100
AcDbSpline
70
4
71
3
72
24
73
20
40
0
40
0
40
0
40
0
40
0.152547509993239
40
0.152547509993239
40
0.257391303282037
40
0.257391303282037
40
0.362235096570836
40
0.362235096570836
40
0.571922683148434
40
0.571922683148434
40
0.676766476437233
40
0.676766476437233
40
0.781610269726031
40
0.781610269726031
40
0.886454063014829
40
0.886454063014829
40
0.991297856303627
40
0.991297856303627
40
1
40
1
40
1
40
1
41
1
10
15.2880416973525
20
-1.32696309359989
30
0
41
1
10
14.8905898749307
20
-1.32743359500461
30
0
41
1
10
14.4934290433971
20
-1.31061023939549
30
0
41
1
10
13.8215533762531
20
-1.25367476778396
30
0
41
1
10
13.5473856889259
20
-1.22238541258355
30
0
41
1
10
12.9972329045867
20
-1.14476020015422
30
0
41
1
10
12.7206633472513
20
-1.09832988432117
30
0
41
1
10
11.8919891753112
20
-0.939238890639103
30
0
41
1
10
11.3416600010997
20
-0.806743842007137
30
0
41
1
10
10.5138595357608
20
-0.582293150822807
30
0
41
1
10
10.2371482308891
20
-0.503101072581472
30
0
41
1
10
9.6849979564077
20
-0.339649471488826
30
0
41
1
10
9.40938498637402
20
-0.255317209739957
30
0
41
1
10
8.85814328836901
20
-0.0844839949739651
30
0
41
1
10
8.58252272127916
20
0.0020437338227453
30
0
41
1
10
8.03034321244775
20
0.17432321856478
30
0
41
1
10
7.75364319652203
20
0.260106527701254
30
0
41
1
10
7.4556614875319
20
0.350213980606554
30
0
41
1
10
7.43283078857684
20
0.357102949295239
30
0
41
1
10
7.41000642083165
20
0.363974341683189
30
0
0
SPLINE
5
B0
100
AcDbEntity
8
1
62
256
6
ByLayer
370
18
48
1
60
0
100
AcDbSpline
70
4
71
3
72
10
73
6
40
0
40
0
40
0
40
0
40
0.5
40
0.5
40
1
40
1
40
1
40
1
41
1
10
55.2998683915004
20
0.38596515385666
30
0
41
1
10
55.3035463517911
20
0.39472785104158
30
0
41
1
10
55.3090039599105
20
0.404332173579149
30
0
41
1
10
55.3215885620993
20
0.421898559544275
30
0
41
1
10
55.3288518169739
20
0.430060380654993
30
0
41
1
10
55.3358728019153
20
0.436223523526849
30
0
0
SPLINE
5
B1
100
AcDbEntity
8
1
62
256
6
ByLayer
370
18
48
1
60
0
100
AcDbSpline
70
4
71
3
72
10
73
6
40
0
40
0
40
0
40
0
40
0.5
40
0.5
40
1
40
1
40
1
40
1
41
1
10
55.4591395875813
20
1.45158985957025
30
0
41
1
10
55.4372393907266
20
1.48288860275304
30
0
41
1
10
55.4143434516199
20
1.50712902872067
30
0
41
1
10
55.367478509625
20
1.53976495042448
30
0
41
1
10
55.3433203484012
20
1.54851592509951
30
0
41
1
10
55.3180884230889
20
1.54975575364003
30
0
0
SPLINE
5
B2
100
AcDbEntity
8
1
62
256
6
ByLayer
370
18
48
1
60
0
100
AcDbSpline
70
4
71
3
72
24
73
20
40
0
40
0
40
0
40
0
40
0.123808272650582
40
0.123808272650582
40
0.247616545301163
40
0.247616545301163
40
0.371424817951745
40
0.371424817951745
40
0.495233090602327
40
0.495233090602327
40
0.619041363252908
40
0.619041363252908
40
0.74284963590349
40
0.74284963590349
40
0.866657908554072
40
0.866657908554072
40
0.990466181204654
40
0.990466181204654
40
1
40
1
40
1
40
1
41
1
10
53.7055964267798
20
0.17412436925008
30
0
41
1
10
53.449506172823
20
0.266983947999734
30
0
41
1
10
53.1926356738473
20
0.359067244749014
30
0
41
1
10
52.6778378868515
20
0.537521874723751
30
0
41
1
10
52.4218396738648
20
0.624348816266291
30
0
41
1
10
51.9114788746797
20
0.789892279554635
30
0
41
1
10
51.6567533156993
20
0.867721152314658
30
0
41
1
10
51.1482680990524
20
1.01398091968869
30
0
41
1
10
50.8946915012567
20
1.08268725911395
30
0
41
1
10
50.3865767823182
20
1.20643311867963
30
0
41
1
10
50.132240523809
20
1.26199517416424
30
0
41
1
10
49.6228915551688
20
1.36007413634874
30
0
41
1
10
49.3676919845132
20
1.4022066712117
30
0
41
1
10
48.8547240275951
20
1.47055070376769
30
0
41
1
10
48.5968000752101
20
1.49719374624911
30
0
41
1
10
48.0831688492399
20
1.53370545647255
30
0
41
1
10
47.8263840350367
20
1.54342380095647
30
0
41
1
10
47.5499135328167
20
1.54495479628528
30
0
41
1
10
47.5301479385731
20
1.54501390628403
30
0
41
1
10
47.5103835658329
20
1.54502273324917
30
0
0
SPLINE
5
B3
100
AcDbEntity
8
1
62
256
6
ByLayer
370
18
48
1
60
0
100
AcDbSpline
70
4
71
3
72
52
73
48
40
0
40
0
40
0
40
0
40
0.0331046472609541
40
0.0331046472609541
40
0.0794696315262627
40
0.0794696315262627
40
0.125834615791571
40
0.125834615791571
40
0.17219960005688
40
0.17219960005688
40
0.218564584322189
40
0.218564584322189
40
0.264929568587497
40
0.264929568587497
40
0.311294552852806
40
0.311294552852806
40
0.357659537118114
40
0.357659537118114
40
0.404024521383423
40
0.404024521383423
40
0.450389505648732
40
0.450389505648732
40
0.49675448991404
40
0.49675448991404
40
0.543119474179349
40
0.543119474179349
40
0.589484458444658
40
0.589484458444658
40
0.635849442709966
40
0.635849442709966
40
0.682214426975275
40
0.682214426975275
40
0.728579411240583
40
0.728579411240583
40
0.774944395505892
40
0.774944395505892
40
0.821309379771201
40
0.821309379771201
40
0.867674364036509
40
0.867674364036509
40
0.914039348301818
40
0.914039348301818
40
0.960404332567127
40
0.960404332567127
40
0.983586824699781
40
0.983586824699781
40
1
40
1
40
1
40
1
41
1
10
37.353892995187
20
-1.11618963548943
30
0
41
1
10
37.1704620921147
20
-1.16158430539755
30
0
41
1
10
36.9871268539803
20
-1.20391022150525
30
0
41
1
10
36.5471645754223
20
-1.29786841186001
30
0
41
1
10
36.2899284992549
20
-1.34547348557169
30
0
41
1
10
35.7744299671913
20
-1.42569900682577
30
0
41
1
10
35.5176173027783
20
-1.45842179024041
30
0
41
1
10
35.0039540717237
20
-1.507158493704
30
0
41
1
10
34.7470011293494
20
-1.52325949293387
30
0
41
1
10
34.2328946335086
20
-1.53899592832454
30
0
41
1
10
33.975348213615
20
-1.5384279417043
30
0
41
1
10
33.4604362493473
20
-1.52053495094916
30
0
41
1
10
33.2034099883876
20
-1.5033381642082
30
0
41
1
10
32.6899958632055
20
-1.45232335106039
30
0
41
1
10
32.4331271760851
20
-1.41883101584989
30
0
41
1
10
31.9183373378206
20
-1.33689931056458
30
0
41
1
10
31.6605887244624
20
-1.28788937009585
30
0
41
1
10
31.1464025350766
20
-1.17692556556975
30
0
41
1
10
30.8893821821447
20
-1.11531713458788
30
0
41
1
10
30.3755430072332
20
-0.979864979612955
30
0
41
1
10
30.1188039084299
20
-0.905716229990048
30
0
41
1
10
29.6034021613815
20
-0.749653481489531
30
0
41
1
10
29.3460644899237
20
-0.66745282429136
30
0
41
1
10
28.8343953074754
20
-0.49612267759511
30
0
41
1
10
28.5793225177339
20
-0.407878736088037
30
0
41
1
10
28.0697541723521
20
-0.22896832348718
30
0
41
1
10
27.8155964882124
20
-0.137329083828064
30
0
41
1
10
27.3070973298619
20
0.046181748660814
30
0
41
1
10
27.0524927944157
20
0.137285239208978
30
0
41
1
10
26.5426470296509
20
0.318396557010118
30
0
41
1
10
26.2875357240869
20
0.408793403197848
30
0
41
1
10
25.774733084553
20
0.582816354849712
30
0
41
1
10
25.5166373946103
20
0.667350790714494
30
0
41
1
10
25.0019112420721
20
0.829186667908175
30
0
41
1
10
24.7450538762226
20
0.905755332754183
30
0
41
1
10
24.2310064202252
20
1.04733640032993
30
0
41
1
10
23.974184656078
20
1.11315326855294
30
0
41
1
10
23.4597357656451
20
1.23215747393087
30
0
41
1
10
23.2014499073034
20
1.28473011091276
30
0
41
1
10
22.6867524027218
20
1.37559901389565
30
0
41
1
10
22.4301420267823
20
1.41405565466963
30
0
41
1
10
21.9160340038985
20
1.47433644054271
30
0
41
1
10
21.6587575364372
20
1.49654142101159
30
0
41
1
10
21.2723930579809
20
1.51764419168944
30
0
41
1
10
21.1435339122517
20
1.5226203041874
30
0
41
1
10
20.9236290247159
20
1.52745034831568
30
0
41
1
10
20.8325015060982
20
1.52839716986046
30
0
41
1
10
20.7414067463004
20
1.52830126133037
30
0
0
SPLINE
5
B4
100
AcDbEntity
8
1
62
256
6
ByLayer
370
18
48
1
60
0
100
AcDbSpline
70
4
71
3
72
22
73
18
40
0
40
0
40
0
40
0
40
0.118387441452013
40
0.118387441452013
40
0.244332092673154
40
0.244332092673154
40
0.370276743894295
40
0.370276743894295
40
0.496221395115436
40
0.496221395115436
40
0.622166046336577
40
0.622166046336577
40
0.748110697557718
40
0.748110697557718
40
0.874055348778859
40
0.874055348778859
40
1
40
1
40
1
40
1
41
1
10
10.5746650876827
20
-1.11106143779568
30
0
41
1
10
10.3321709211492
20
-1.17012559094212
30
0
41
1
10
10.0900228512709
20
-1.22337035884559
30
0
41
1
10
9.59108717346294
20
-1.32125418492524
30
0
41
1
10
9.33426382234478
20
-1.36489187726184
30
0
41
1
10
8.81938904061741
20
-1.43609639124182
30
0
41
1
10
8.56106775892118
20
-1.46415544063081
30
0
41
1
10
8.04643830011418
20
-1.50409091250597
30
0
41
1
10
7.78983255084574
20
-1.51556172976012
30
0
41
1
10
7.27794946036454
20
-1.52226983616924
30
0
41
1
10
7.02291425949417
20
-1.51735842705759
30
0
41
1
10
6.51266935510026
20
-1.49131555818434
30
0
41
1
10
6.25745799640049
20
-1.47035634565728
30
0
41
1
10
5.74686352379561
20
-1.41254243712388
30
0
41
1
10
5.4914738689707
20
-1.37552213384231
30
0
41
1
10
4.97855167491696
20
-1.28752846414687
30
0
41
1
10
4.72097386160215
20
-1.23641898620241
30
0
41
1
10
4.46309259095642
20
-1.17783880896542
30
0
0
SPLINE
5
B5
100
AcDbEntity
8
1
62
256
6
ByLayer
370
18
48
1
60
0
100
AcDbSpline
70
4
71
3
72
12
73
8
40
0
40
0
40
0
40
0
40
0.500000000000153
40
0.500000000000153
40
0.750000000000076
40
0.750000000000076
40
1
40
1
40
1
40
1
41
1
10
55.1955619721892
20
0.477407722580722
30
0
41
1
10
55.1935191149026
20
0.488121934657897
30
0
41
1
10
55.1932586528904
20
0.499802271302542
30
0
41
1
10
55.2012472234908
20
0.514180793056823
30
0
41
1
10
55.2054973837034
20
0.518124341322135
30
0
41
1
10
55.2155090415501
20
0.522763105333723
30
0
41
1
10
55.2210659385466
20
0.523612382855845
30
0
41
1
10
55.2265802009583
20
0.523646403378422
30
0
0
SPLINE
5
B6
100
AcDbEntity
8
1
62
256
6
ByLayer
370
18
48
1
60
0
100
AcDbSpline
70
4
71
3
72
10
73
6
40
0
40
0
40
0
40
0
40
0.5
40
0.5
40
1
40
1
40
1
40
1
41
1
10
54.5261625031704
20
-0.537777303348292
30
0
41
1
10
54.6198234731772
20
-0.624380928235041
30
0
41
1
10
54.7177670937844
20
-0.700170194956087
30
0
41
1
10
54.919617620849
20
-0.836690505103519
30
0
41
1
10
55.0235750466655
20
-0.897293979299462
30
0
41
1
10
55.1300370148383
20
-0.951573094912334
30
0
0
SPLINE
5
B7
100
AcDbEntity
8
1
62
256
6
ByLayer
370
18
48
1
60
0
100
AcDbSpline
70
4
71
3
72
8
73
4
40
0
40
0
40
0
40
0
40
1
40
1
40
1
40
1
41
1
10
54.0236776990764
20
-0.414326934410752
30
0
41
1
10
54.1412367299468
20
-0.437802694465489
30
0
41
1
10
54.2587595941909
20
-0.455241490453147
30
0
41
1
10
54.3762418940601
20
-0.465909246439139
30
0
0
SPLINE
5
B8
100
AcDbEntity
8
1
62
256
6
ByLayer
370
18
48
1
60
0
100
AcDbSpline
70
4
71
3
72
10
73
6
40
0
40
0
40
0
40
0
40
0.5
40
0.5
40
1
40
1
40
1
40
1
41
1
10
55.4591395875817
20
-1.45158985956971
30
0
41
1
10
55.437239390727
20
-1.48288860275267
30
0
41
1
10
55.4143434516201
20
-1.50712902872044
30
0
41
1
10
55.3674785096252
20
-1.53976495042443
30
0
41
1
10
55.3433203484013
20
-1.54851592509951
30
0
41
1
10
55.3180884230889
20
-1.54975575364003
30
0
0
SPLINE
5
B9
100
AcDbEntity
8
1
62
256
6
ByLayer
370
18
48
1
60
0
100
AcDbSpline
70
4
71
3
72
10
73
6
40
0
40
0
40
0
40
0
40
0.5
40
0.5
40
1
40
1
40
1
40
1
41
1
10
54.3762418941037
20
-0.465909246449314
30
0
41
1
10
54.4026064614768
20
-0.468303230663992
30
0
41
1
10
54.4286644524874
20
-0.477847307775789
30
0
41
1
10
54.479382719954
20
-0.502310408601033
30
0
41
1
10
54.5038197942933
20
-0.517118115448852
30
0
41
1
10
54.5261625031697
20
-0.537777303347639
30
0
0
SPLINE
5
BA
100
AcDbEntity
8
1
62
256
6
ByLayer
370
18
48
1
60
0
100
AcDbSpline
70
4
71
3
72
10
73
6
40
0
40
0
40
0
40
0
40
0.5
40
0.5
40
1
40
1
40
1
40
1
41
1
10
55.4126375482078
20
-1.30003893690014
30
0
41
1
10
55.416492736152
20
-1.30006958362665
30
0
41
1
10
55.4187990992562
20
-1.30419872724707
30
0
41
1
10
55.417106087931
20
-1.32217622570991
30
0
41
1
10
55.4128556798329
20
-1.33585973438664
30
0
41
1
10
55.4073916971383
20
-1.34836792776372
30
0
0
SPLINE
5
BB
100
AcDbEntity
8
1
62
256
6
ByLayer
370
18
48
1
60
0
100
AcDbSpline
70
4
71
3
72
8
73
4
40
0
40
0
40
0
40
0
40
1
40
1
40
1
40
1
41
1
10
55.9373327708793
20
-0.0848829435581138
30
0
41
1
10
55.9408807475293
20
-0.0282797221897511
30
0
41
1
10
55.940893765103
20
0.02807204421444
30
0
41
1
10
55.9373327708793
20
0.0848829435581138
30
0
0
SPLINE
5
BC
100
AcDbEntity
8
1
62
256
6
ByLayer
370
18
48
1
60
0
100
AcDbSpline
70
4
71
3
72
48
73
44
40
0
40
0
40
0
40
0
40
0.124999999999977
40
0.124999999999977
40
0.249999999999954
40
0.249999999999954
40
0.312499999999942
40
0.312499999999942
40
0.374999999999931
40
0.374999999999931
40
0.406249999999924
40
0.406249999999924
40
0.437499999999917
40
0.437499999999917
40
0.468749999999909
40
0.468749999999909
40
0.499999999999902
40
0.499999999999902
40
0.531249999999895
40
0.531249999999895
40
0.562499999999888
40
0.562499999999888
40
0.593749999999881
40
0.593749999999881
40
0.624999999999874
40
0.624999999999874
40
0.687499999999858
40
0.687499999999858
40
0.691406249999858
40
0.691406249999858
40
0.695312499999857
40
0.695312499999857
40
0.699218749999857
40
0.699218749999857
40
0.703124999999857
40
0.703124999999857
40
0.718749999999864
40
0.718749999999864
40
0.749999999999878
40
0.749999999999878
40
0.874999999999939
40
0.874999999999939
40
1
40
1
40
1
40
1
41
1
10
4.46309259095642
20
-1.17783880896542
30
0
41
1
10
4.27732290171099
20
-1.10314447881294
30
0
41
1
10
4.09603965358485
20
-1.01633568119391
30
0
41
1
10
3.74152749021161
20
-0.816572994519078
30
0
41
1
10
3.56822674625684
20
-0.703856534822563
30
0
41
1
10
3.31519352612111
20
-0.509511928914691
30
0
41
1
10
3.23142613386747
20
-0.439880589278744
30
0
41
1
10
3.07113883837582
20
-0.293315018246091
30
0
41
1
10
2.99436797921101
20
-0.216336077120189
30
0
41
1
10
2.88599901312614
20
-0.0934764393775822
30
0
41
1
10
2.85101924880161
20
-0.051278775373703
30
0
41
1
10
2.78391394553046
20
0.0362066906984069
30
0
41
1
10
2.75158982725509
20
0.0817935372949989
30
0
41
1
10
2.69174972323833
20
0.175456634830709
30
0
41
1
10
2.66431899562235
20
0.223329277398761
30
0
41
1
10
2.61579508720996
20
0.321764950040745
30
0
41
1
10
2.59464955933328
20
0.372656155169352
30
0
41
1
10
2.56205380839236
20
0.474152343657039
30
0
41
1
10
2.55036562628607
20
0.525118129983923
30
0
41
1
10
2.53842993720625
20
0.62773203197014
30
0
41
1
10
2.53849063049989
20
0.678456574741091
30
0
41
1
10
2.55110084474077
20
0.774553189168387
30
0
41
1
10
2.56379948982328
20
0.821097167355504
30
0
41
1
10
2.60057331652104
20
0.907790453518032
30
0
41
1
10
2.62424456246657
20
0.947506169804882
30
0
41
1
10
2.70845172536167
20
1.0579133951145
30
0
41
1
10
2.78089045115041
20
1.11818074693383
30
0
41
1
10
2.86573423932703
20
1.17157486931256
30
0
41
1
10
2.87049776662829
20
1.17484756112879
30
0
41
1
10
2.881451576036
20
1.18041073021232
30
0
41
1
10
2.88816241028289
20
1.18203604592466
30
0
41
1
10
2.90190072802463
20
1.18339629710039
30
0
41
1
10
2.9089624808127
20
1.18318905817776
30
0
41
1
10
2.92292374513264
20
1.18244453066416
30
0
41
1
10
2.92989809382391
20
1.18202729729055
30
0
41
1
10
2.96479637069666
20
1.18012830765124
30
0
41
1
10
2.99269376314308
20
1.17842469881984
30
0
41
1
10
3.07626313534331
20
1.17276029605327
30
0
41
1
10
3.13182237380556
20
1.16824580254232
30
0
41
1
10
3.40886951247535
20
1.14189080653603
30
0
41
1
10
3.62675009843684
20
1.10896431873738
30
0
41
1
10
4.05155419765242
20
1.01610399961109
30
0
41
1
10
4.25919649846446
20
0.956068130771371
30
0
41
1
10
4.46309259095645
20
0.880494415478722
30
0
0
SPLINE
5
BD
100
AcDbEntity
8
1
62
256
6
ByLayer
370
18
48
1
60
0
100
AcDbSpline
70
4
71
3
72
8
73
4
40
0
40
0
40
0
40
0
40
1
40
1
40
1
40
1
41
1
10
55.8755733982346
20
0.403906928213814
30
0
41
1
10
55.9033520344787
20
0.297690582973331
30
0
41
1
10
55.9246461748942
20
0.191361552601649
30
0
41
1
10
55.9373327708793
20
0.0848829435581138
30
0
0
SPLINE
5
BE
100
AcDbEntity
8
1
62
256
6
ByLayer
370
18
48
1
60
0
100
AcDbSpline
70
4
71
3
72
14
73
10
40
0
40
0
40
0
40
0
40
0.25
40
0.25
40
0.5
40
0.5
40
0.75
40
0.75
40
1
40
1
40
1
40
1
41
1
10
55.1300370148383
20
-0.951573094912362
30
0
41
1
10
55.1505107960943
20
-1.00693446858102
30
0
41
1
10
55.1725988818425
20
-1.05629090360765
30
0
41
1
10
55.2190715311829
20
-1.1430920271506
30
0
41
1
10
55.2431148370865
20
-1.17977945527292
30
0
41
1
10
55.2913050464884
20
-1.23875354704197
30
0
41
1
10
55.3156481357831
20
-1.26135599257222
30
0
41
1
10
55.3646032314336
20
-1.29205146164193
30
0
41
1
10
55.3887170242293
20
-1.29984878125342
30
0
41
1
10
55.4126375482078
20
-1.30003893690014
30
0
0
SPLINE
5
BF
100
AcDbEntity
8
1
62
256
6
ByLayer
370
18
48
1
60
0
100
AcDbSpline
70
4
71
3
72
29
73
25
40
0
40
0
40
0
40
0
40
0.0010764959570841
40
0.0010764959570841
40
0.125070536649869
40
0.125070536649869
40
0.373058618035437
40
0.373058618035437
40
0.497052658728222
40
0.504802286271521
40
0.504802286271521
40
0.51255191381482
40
0.51255191381482
40
0.520301541358119
40
0.520301541358119
40
0.528051168901418
40
0.528051168901418
40
0.559049679074614
40
0.559049679074614
40
0.621046699421006
40
0.621046699421006
40
0.869034780806575
40
0.869034780806575
40
1
40
1
40
1
40
1
41
1
10
4.46309259095645
20
0.880494415588572
30
0
41
1
10
4.46309259095645
20
0.879941090334455
30
0
41
1
10
4.46309259095645
20
0.879387402421969
30
0
41
1
10
4.46309259095645
20
0.815016266477357
30
0
41
1
10
4.46309259095642
20
0.746985375374379
30
0
41
1
10
4.46309259095642
20
0.531776629570828
30
0
41
1
10
4.46309259095642
20
0.373418383187897
30
0
41
1
10
4.46309259095642
20
0.116332267891607
30
0
41
1
10
4.46309259095645
20
0.0226276750637737
30
0
41
1
10
4.46309259095645
20
-0.0736106478211696
30
0
41
1
10
4.46309259095645
20
-0.0849474580217873
30
0
41
1
10
4.46309259095642
20
-0.0904934636759265
30
0
41
1
10
4.46309259095642
20
-0.102252607503573
30
0
41
1
10
4.46309259095642
20
-0.108512062897006
30
0
41
1
10
4.46309259095642
20
-0.121010434087594
30
0
41
1
10
4.46309259095645
20
-0.127148706596273
30
0
41
1
10
4.46309259095645
20
-0.156808553332695
30
0
41
1
10
4.46309259095645
20
-0.180494540967771
30
0
41
1
10
4.46309259095645
20
-0.251409006617251
30
0
41
1
10
4.46309259095642
20
-0.298497829304892
30
0
41
1
10
4.46309259095642
20
-0.53291394742962
30
0
41
1
10
4.46309259095642
20
-0.717060259046349
30
0
41
1
10
4.46309259095642
20
-0.991936641546346
30
0
41
1
10
4.46309259095642
20
-1.0856011824998
30
0
41
1
10
4.46309259095642
20
-1.17783880896542
30
0
0
SPLINE
5
C0
100
AcDbEntity
8
1
62
256
6
ByLayer
370
18
48
1
60
0
100
AcDbSpline
70
4
71
3
72
10
73
6
40
0
40
0
40
0
40
0
40
0.5
40
0.5
40
1
40
1
40
1
40
1
41
1
10
55.4591395875765
20
1.45158985958392
30
0
41
1
10
55.5189518047678
20
1.30102099636073
30
0
41
1
10
55.5797052848393
20
1.14984271879658
30
0
41
1
10
55.7028705562155
20
0.846829861738655
30
0
41
1
10
55.7652807982004
20
0.695029002961547
30
0
41
1
10
55.8281265322104
20
0.543561064157444
30
0
0
SPLINE
5
C1
100
AcDbEntity
8
1
62
256
6
ByLayer
370
18
48
1
60
0
100
AcDbSpline
70
4
71
3
72
22
73
18
40
0
40
0
40
0
40
0
40
0.0904481696877298
40
0.0904481696877298
40
0.196111954248581
40
0.196111954248581
40
0.301775738809432
40
0.301775738809432
40
0.513103307931137
40
0.513103307931137
40
0.618767092491988
40
0.618767092491988
40
0.72443087705284
40
0.72443087705284
40
0.935758446174542
40
0.935758446174542
40
1
40
1
40
1
40
1
41
1
10
8.42364402343028
20
0.0011273559020708
30
0
41
1
10
8.65987624859255
20
-0.0754698034785406
30
0
41
1
10
8.89581073435645
20
-0.151923725732075
30
0
41
1
10
9.40736840265615
20
-0.315402316572715
30
0
41
1
10
9.68297816049957
20
-0.402073121268813
30
0
41
1
10
10.2352080549173
20
-0.569392353426196
30
0
41
1
10
10.5119933304467
20
-0.650076777111792
30
0
41
1
10
11.3398274131007
20
-0.877717184368976
30
0
41
1
10
11.8900662389
20
-1.01057087879372
30
0
41
1
10
12.718906459796
20
-1.16758058368711
30
0
41
1
10
12.9955024490937
20
-1.21286396347793
30
0
41
1
10
13.5455026592674
20
-1.2873743992248
30
0
41
1
10
13.8195168940019
20
-1.31662655528493
30
0
41
1
10
14.6400545373692
20
-1.37913111119892
30
0
41
1
10
15.1850472496862
20
-1.38745465866285
30
0
41
1
10
15.8977797046631
20
-1.35387371584616
30
0
41
1
10
16.0640891857795
20
-1.34288936159049
30
0
41
1
10
16.230649697606
20
-1.32884326761132
30
0
0
SPLINE
5
C2
100
AcDbEntity
8
1
62
256
6
ByLayer
370
18
48
1
60
0
100
AcDbSpline
70
4
71
3
72
22
73
18
40
0
40
0
40
0
40
0
40
0.0478421696277646
40
0.0478421696277646
40
0.260948269719265
40
0.260948269719265
40
0.367501319765016
40
0.367501319765016
40
0.474054369810766
40
0.474054369810766
40
0.580607419856517
40
0.580607419856517
40
0.687160469902268
40
0.687160469902268
40
0.900266569993764
40
0.900266569993764
40
1
40
1
40
1
40
1
41
1
10
35.1934488339962
20
-0.0020026430428572
30
0
41
1
10
35.3161745590442
20
-0.041272157885345
30
0
41
1
10
35.4388549831115
20
-0.0805176826526406
30
0
41
1
10
36.1079716832077
20
-0.293711967743292
30
0
41
1
10
36.6543082752233
20
-0.46467962376488
30
0
41
1
10
37.4790598045055
20
-0.699009447509326
30
0
41
1
10
37.755013963323
20
-0.77354889502999
30
0
41
1
10
38.3087855579109
20
-0.912293591607664
30
0
41
1
10
38.5850194306736
20
-0.976091430116867
30
0
41
1
10
39.1371702331151
20
-1.09044918917397
30
0
41
1
10
39.4130881737242
20
-1.14104046178477
30
0
41
1
10
39.9655302011154
20
-1.22745831491139
30
0
41
1
10
40.2424498407158
20
-1.26327651484945
30
0
41
1
10
41.0725560794545
20
-1.34565929573216
30
0
41
1
10
41.6236504664391
20
-1.36755736688531
30
0
41
1
10
42.4348416877638
20
-1.3487737604024
30
0
41
1
10
42.6943528368265
20
-1.33522392280668
30
0
41
1
10
42.9530477842106
20
-1.31448589363401
30
0
0
SPLINE
5
C3
100
AcDbEntity
8
1
62
256
6
ByLayer
370
18
48
1
60
0
100
AcDbSpline
70
4
71
3
72
42
73
38
40
0
40
0
40
0
40
0
40
0.0855359140509378
40
0.0855359140509378
40
0.128303871076408
40
0.128303871076408
40
0.171071828101878
40
0.171071828101878
40
0.256607742152815
40
0.256607742152815
40
0.299375699178285
40
0.299375699178285
40
0.342143656203755
40
0.342143656203755
40
0.384911613229225
40
0.384911613229225
40
0.427679570254695
40
0.427679570254695
40
0.513215484305633
40
0.513215484305633
40
0.598751398356571
40
0.598751398356571
40
0.684287312407508
40
0.684287312407508
40
0.727055269432978
40
0.727055269432978
40
0.769823226458448
40
0.769823226458448
40
0.812591183483918
40
0.812591183483918
40
0.855359140509388
40
0.855359140509388
40
0.940895054560327
40
0.940895054560327
40
0.983663011585797
40
0.983663011585797
40
1
40
1
40
1
40
1
41
1
10
4.46309259095645
20
0.880494415478722
30
0
41
1
10
4.73051703202589
20
0.801652005343584
30
0
41
1
10
4.99787212725667
20
0.719964802667533
30
0
41
1
10
5.39791661963437
20
0.591199566033339
30
0
41
1
10
5.5311294392917
20
0.547305541871481
30
0
41
1
10
5.79709967939226
20
0.457035700056565
30
0
41
1
10
5.92994617477382
20
0.410887684183763
30
0
41
1
10
6.32932229891443
20
0.272885489262535
30
0
41
1
10
6.59610721563652
20
0.179943109686008
30
0
41
1
10
6.99633036366563
20
0.0368810832557926
30
0
41
1
10
7.12965025407883
20
-0.0117191722856091
30
0
41
1
10
7.39722394482422
20
-0.107465480479135
30
0
41
1
10
7.53122511160748
20
-0.154739818895052
30
0
41
1
10
7.79830705498156
20
-0.248460748174892
30
0
41
1
10
7.93153589545352
20
-0.295019742049163
30
0
41
1
10
8.19737746999385
20
-0.38748408590294
30
0
41
1
10
8.32984533609743
20
-0.433807062408533
30
0
41
1
10
8.72702924853954
20
-0.569636975485338
30
0
41
1
10
8.99188895908091
20
-0.655144054774695
30
0
41
1
10
9.52047971103883
20
-0.819888984047424
30
0
41
1
10
9.78390187430762
20
-0.899661593757259
30
0
41
1
10
10.312965644347
20
-1.0444589894642
30
0
41
1
10
10.5780629512385
20
-1.11095686888603
30
0
41
1
10
10.9759602696728
20
-1.20272107870426
30
0
41
1
10
11.1087262683074
20
-1.23175863154009
30
0
41
1
10
11.3752589855473
20
-1.28540187467382
30
0
41
1
10
11.508923721702
20
-1.31021931771946
30
0
41
1
10
11.7767905733754
20
-1.35628945683669
30
0
41
1
10
11.9105859379689
20
-1.37740802066253
30
0
41
1
10
12.1771426252388
20
-1.4157129044934
30
0
41
1
10
12.3099040548819
20
-1.43299759591747
30
0
41
1
10
12.7082072977268
20
-1.4775913604073
30
0
41
1
10
12.9734117408455
20
-1.49837083472698
30
0
41
1
10
13.3699068621049
20
-1.51697885665686
30
0
41
1
10
13.5017404322882
20
-1.52105467749712
30
0
41
1
10
13.6840090697938
20
-1.52355011415037
30
0
41
1
10
13.7344107795401
20
-1.52391332613985
30
0
41
1
10
13.7848301054802
20
-1.52395535325744
30
0
0
SPLINE
5
C4
100
AcDbEntity
8
1
62
256
6
ByLayer
370
18
48
1
60
0
100
AcDbSpline
70
4
71
3
72
72
73
68
40
0
40
0
40
0
40
0
40
0.0026403652658835
40
0.0026403652658835
40
0.0266441592971715
40
0.0266441592971715
40
0.0746517473597473
40
0.0746517473597473
40
0.122659335422323
40
0.122659335422323
40
0.146663129453611
40
0.146663129453611
40
0.170666923484899
40
0.170666923484899
40
0.218674511547475
40
0.218674511547475
40
0.242678305578762
40
0.242678305578762
40
0.266682099610049
40
0.266682099610049
40
0.290685893641336
40
0.290685893641336
40
0.314689687672623
40
0.314689687672623
40
0.362697275735196
40
0.362697275735196
40
0.41070486379777
40
0.41070486379777
40
0.458712451860344
40
0.458712451860344
40
0.482716245891631
40
0.482716245891631
40
0.506720039922919
40
0.506720039922919
40
0.530723833954207
40
0.530723833954207
40
0.554727627985495
40
0.554727627985495
40
0.578731422016783
40
0.578731422016783
40
0.602735216048071
40
0.602735216048071
40
0.626739010079359
40
0.626739010079359
40
0.650742804110646
40
0.650742804110646
40
0.69875039217322
40
0.69875039217322
40
0.746757980235794
40
0.746757980235794
40
0.770761774267081
40
0.770761774267081
40
0.794765568298368
40
0.794765568298368
40
0.842773156360944
40
0.842773156360944
40
0.866776950392232
40
0.866776950392232
40
0.89078074442352
40
0.89078074442352
40
0.914784538454807
40
0.914784538454807
40
0.938788332486095
40
0.938788332486095
40
0.986795920548671
40
0.986795920548671
40
1
40
1
40
1
40
1
41
1
10
23.9560006289956
20
1.11502327533751
30
0
41
1
10
23.9706590161523
20
1.11867157803039
30
0
41
1
10
23.9853191962047
20
1.12229752219176
30
0
41
1
10
24.1332807118698
20
1.1586486514133
30
0
41
1
10
24.2668340785221
20
1.18937117550408
30
0
41
1
10
24.6679894210599
20
1.27612200807184
30
0
41
1
10
24.9359981209075
20
1.32717941725264
30
0
41
1
10
25.4675717246847
20
1.41377337854331
30
0
41
1
10
25.7330961402471
20
1.44779662686656
30
0
41
1
10
26.1301574487619
20
1.48671717343234
30
0
41
1
10
26.2623413250241
20
1.49760909454736
30
0
41
1
10
26.5261727765239
20
1.51518666791131
30
0
41
1
10
26.6580086302492
20
1.52173820636798
30
0
41
1
10
27.0541430001634
20
1.53460360652306
30
0
41
1
10
27.318568884026
20
1.53449846749615
30
0
41
1
10
27.7150244383346
20
1.52095353744235
30
0
41
1
10
27.8470783987241
20
1.51410209484061
30
0
41
1
10
28.112062981214
20
1.49618063291425
30
0
41
1
10
28.2449051755321
20
1.48512412924669
30
0
41
1
10
28.5110280123845
20
1.45871540797197
30
0
41
1
10
28.6443018667609
20
1.44334454010496
30
0
41
1
10
28.911298052814
20
1.40812324957952
30
0
41
1
10
29.0450212647266
20
1.38802792640621
30
0
41
1
10
29.4450471810037
20
1.32232105045796
30
0
41
1
10
29.711159742394
20
1.27170581260705
30
0
41
1
10
30.2411005433967
20
1.15550890009217
30
0
41
1
10
30.5046426564527
20
1.08910174858249
30
0
41
1
10
31.0328444757886
20
0.947881569062531
30
0
41
1
10
31.2969192725668
20
0.872057403656385
30
0
41
1
10
31.6923569552528
20
0.748640290238257
30
0
41
1
10
31.8242119867642
20
0.706237326236078
30
0
41
1
10
32.0886240482013
20
0.620579735554117
30
0
41
1
10
32.2210845417999
20
0.57709251264464
30
0
41
1
10
32.4862523867882
20
0.488090199833437
30
0
41
1
10
32.6189960368947
20
0.442673089837399
30
0
41
1
10
32.8847397899013
20
0.34970634012825
30
0
41
1
10
33.0176597139849
20
0.301879169137152
30
0
41
1
10
33.2846273990633
20
0.206726203212355
30
0
41
1
10
33.4186587995057
20
0.159144271008273
30
0
41
1
10
33.6856294618754
20
0.0638880310874299
30
0
41
1
10
33.8187842045006
20
0.0161093636000942
30
0
41
1
10
34.0844336131769
20
-0.0797269205058058
30
0
41
1
10
34.2167741680776
20
-0.128244449236945
30
0
41
1
10
34.481357405789
20
-0.223819756043895
30
0
41
1
10
34.6136501815613
20
-0.270747150202482
30
0
41
1
10
35.0103088311457
20
-0.409722812343631
30
0
41
1
10
35.2742344167074
20
-0.50060956094805
30
0
41
1
10
35.8010034479628
20
-0.678663601627505
30
0
41
1
10
36.065230173396
20
-0.762168053473886
30
0
41
1
10
36.4619598405571
20
-0.881592886816009
30
0
41
1
10
36.5943025590059
20
-0.920332156822695
30
0
41
1
10
36.8590128031842
20
-0.996010220844397
30
0
41
1
10
36.991528650986
20
-1.03258222772962
30
0
41
1
10
37.3905224511627
20
-1.13633026005004
30
0
41
1
10
37.658634669482
20
-1.19898949363849
30
0
41
1
10
38.0589793302449
20
-1.28329272106953
30
0
41
1
10
38.1920547998536
20
-1.30985085476999
30
0
41
1
10
38.4586112261788
20
-1.35817412377779
30
0
41
1
10
38.5920047874549
20
-1.380118940318
30
0
41
1
10
38.8587462617098
20
-1.42004613559399
30
0
41
1
10
38.9920853964724
20
-1.43802750710864
30
0
41
1
10
39.2587076370062
20
-1.46992046069437
30
0
41
1
10
39.3918262024266
20
-1.48394564424197
30
0
41
1
10
39.7920428062058
20
-1.51895220459915
30
0
41
1
10
40.0601419923184
20
-1.53305436317362
30
0
41
1
10
40.4003557802158
20
-1.53980979165524
30
0
41
1
10
40.4736633083605
20
-1.54057111679191
30
0
41
1
10
40.5469338981686
20
-1.5406438276035
30
0
0
SPLINE
5
C5
100
AcDbEntity
8
1
62
256
6
ByLayer
370
18
48
1
60
0
100
AcDbSpline
70
4
71
3
72
24
73
20
40
0
40
0
40
0
40
0
40
0.159804802381832
40
0.159804802381832
40
0.327843841905471
40
0.327843841905471
40
0.411863361667289
40
0.411863361667289
40
0.495882881429109
40
0.495882881429109
40
0.579902401190928
40
0.579902401190928
40
0.663921920952747
40
0.663921920952747
40
0.831960960476378
40
0.831960960476378
40
0.915980480238189
40
0.915980480238189
40
1
40
1
40
1
40
1
41
1
10
50.7218160061752
20
1.12718321293744
30
0
41
1
10
50.9725454940365
20
1.18965378824183
30
0
41
1
10
51.2229274328128
20
1.24728449951076
30
0
41
1
10
51.7393920055748
20
1.34923778910078
30
0
41
1
10
52.004976281178
20
1.3940665033864
30
0
41
1
10
52.4041626558821
20
1.45017158934027
30
0
41
1
10
52.5377576361444
20
1.46675958556287
30
0
41
1
10
52.804830021265
20
1.49513464907903
30
0
41
1
10
52.9382225740614
20
1.50704549261874
30
0
41
1
10
53.2044807760515
20
1.5265713084311
30
0
41
1
10
53.3373879420022
20
1.5341551025202
30
0
41
1
10
53.6026388470376
20
1.54489758918859
30
0
41
1
10
53.7349325513516
20
1.54801790255564
30
0
41
1
10
54.1324453518485
20
1.55045097725846
30
0
41
1
10
54.3977548987102
20
1.54320715673234
30
0
41
1
10
54.7953337960596
20
1.51885648904676
30
0
41
1
10
54.9276684508509
20
1.50834662757461
30
0
41
1
10
55.1929634907207
20
1.48307089798115
30
0
41
1
10
55.3259372119863
20
1.46836931025714
30
0
41
1
10
55.4591395875828
20
1.45158985956817
30
0
0
SPLINE
5
C6
100
AcDbEntity
8
1
62
256
6
ByLayer
370
18
48
1
60
0
100
AcDbSpline
70
4
71
3
72
28
73
24
40
0
40
0
40
0
40
0
40
0.0173965852974499
40
0.0173965852974499
40
0.12607993867211
40
0.12607993867211
40
0.23476329204677
40
0.23476329204677
40
0.34344664542143
40
0.34344664542143
40
0.452129998796089
40
0.452129998796089
40
0.560813352170749
40
0.560813352170749
40
0.669496705545409
40
0.669496705545409
40
0.723838382232739
40
0.723838382232739
40
0.778180058920069
40
0.778180058920069
40
0.886863412294729
40
0.886863412294729
40
1
40
1
40
1
40
1
41
1
10
52.8844242539055
20
-0.0053154085063909
30
0
41
1
10
52.8410624804822
20
0.00843626364383
30
0
41
1
10
52.797690952237
20
0.0221809589520205
30
0
41
1
10
52.4832918364287
20
0.121640526385733
30
0
41
1
10
52.2127386440895
20
0.206491231845462
30
0
41
1
10
51.6724520990866
20
0.373004684141733
30
0
41
1
10
51.4028529571512
20
0.454728312166424
30
0
41
1
10
50.863075727604
20
0.611605938997997
30
0
41
1
10
50.5929163273573
20
0.686785427828909
30
0
41
1
10
50.0515690914848
20
0.828535033689917
30
0
41
1
10
49.7801479715084
20
0.894928954128488
30
0
41
1
10
49.2388668177652
20
1.01585391893468
30
0
41
1
10
48.9686649821125
20
1.07014026871164
30
0
41
1
10
48.4279938674082
20
1.16613873954415
30
0
41
1
10
48.157516049385
20
1.20784451288415
30
0
41
1
10
47.751276429782
20
1.25855437207096
30
0
41
1
10
47.6155878807912
20
1.27346461646451
30
0
41
1
10
47.3446377500187
20
1.29886978512442
30
0
41
1
10
47.2095772496797
20
1.30962889398907
30
0
41
1
10
46.8047087476994
20
1.33683654600969
30
0
41
1
10
46.5354245776898
20
1.34765102835618
30
0
41
1
10
45.9873896732013
20
1.35254946834388
30
0
41
1
10
45.7086040517296
20
1.34559883004937
30
0
41
1
10
45.4299650951073
20
1.3301807350434
30
0
0
SPLINE
5
C7
100
AcDbEntity
8
1
62
256
6
ByLayer
370
18
48
1
60
0
100
AcDbSpline
70
4
71
3
72
30
73
26
40
0
40
0
40
0
40
0
40
0.0131181273927143
40
0.0131181273927143
40
0.117230215267343
40
0.117230215267343
40
0.221342303141971
40
0.221342303141971
40
0.3254543910166
40
0.3254543910166
40
0.429566478891228
40
0.429566478891228
40
0.533678566765857
40
0.533678566765857
40
0.637790654640486
40
0.637790654640486
40
0.741902742515115
40
0.741902742515115
40
0.846014830389743
40
0.846014830389743
40
0.898070874327058
40
0.898070874327058
40
0.950126918264372
40
0.950126918264372
40
1
40
1
40
1
40
1
41
1
10
26.116827926488
20
-0.0165387765646017
30
0
41
1
10
26.082692164014
20
-0.0056866595925271
30
0
41
1
10
26.0485584495671
20
0.0051599392891433
30
0
41
1
10
25.7435375695437
20
0.102029948280688
30
0
41
1
10
25.4727580772162
20
0.187654775181159
30
0
41
1
10
24.9310763861641
20
0.356652276138504
30
0
41
1
10
24.6597458470302
20
0.439750215858766
30
0
41
1
10
24.116903257563
20
0.599508096034015
30
0
41
1
10
23.8466137686817
20
0.675931706257956
30
0
41
1
10
23.3072898578535
20
0.819481745631293
30
0
41
1
10
23.0383444276846
20
0.886737160458182
30
0
41
1
10
22.5017144746491
20
1.00893260123536
30
0
41
1
10
22.2338270937411
20
1.06430917340128
30
0
41
1
10
21.6975473793161
20
1.16272318011335
30
0
41
1
10
21.429307804546
20
1.20561112856558
30
0
41
1
10
20.8921135242638
20
1.27522302326398
30
0
41
1
10
20.6230944664381
20
1.3025081551657
30
0
41
1
10
20.0831298752406
20
1.34294905453123
30
0
41
1
10
19.8117583270698
20
1.35560455669153
30
0
41
1
10
19.404548483889
20
1.36059304479036
30
0
41
1
10
19.2690238304834
20
1.35990948412592
30
0
41
1
10
18.9981480184755
20
1.35509311445014
30
0
41
1
10
18.8626864048889
20
1.35098008122361
30
0
41
1
10
18.5975107743098
20
1.33898061678963
30
0
41
1
10
18.467827999537
20
1.33121715227688
30
0
41
1
10
18.3381398288873
20
1.32152582154174
30
0
0
SPLINE
5
C8
100
AcDbEntity
8
1
62
256
6
ByLayer
370
18
48
1
60
0
100
AcDbSpline
70
4
71
3
72
10
73
6
40
0
40
0
40
0
40
0
40
0.5
40
0.5
40
1
40
1
40
1
40
1
41
1
10
55.4591395875781
20
-1.45158985957977
30
0
41
1
10
55.5189420682615
20
-1.30104550664865
30
0
41
1
10
55.5797121631873
20
-1.14982501023834
30
0
41
1
10
55.7029495660316
20
-0.846636267628952
30
0
41
1
10
55.7652997333668
20
-0.69498336628223
30
0
41
1
10
55.8281265322103
20
-0.543561064157757
30
0
0
SPLINE
5
C9
100
AcDbEntity
8
1
62
256
6
ByLayer
370
18
48
1
60
0
100
AcDbSpline
70
4
71
3
72
8
73
4
40
0
40
0
40
0
40
0
40
1
40
1
40
1
40
1
41
1
10
55.4073916971383
20
-1.34836792776372
30
0
41
1
10
55.3779201605224
20
-1.41583440775068
30
0
41
1
10
55.3481586413562
20
-1.4829674045628
30
0
41
1
10
55.318088423089
20
-1.54975575363994
30
0
0
SPLINE
5
CA
100
AcDbEntity
8
1
62
256
6
ByLayer
370
18
48
1
60
0
100
AcDbSpline
70
4
71
3
72
52
73
48
40
0
40
0
40
0
40
0
40
0.0054658954659246
40
0.0054658954659246
40
0.0517861855105674
40
0.0517861855105674
40
0.0981064755552103
40
0.0981064755552103
40
0.144426765599853
40
0.144426765599853
40
0.190747055644496
40
0.190747055644496
40
0.237067345689139
40
0.237067345689139
40
0.283387635733782
40
0.283387635733782
40
0.329707925778424
40
0.329707925778424
40
0.376028215823067
40
0.376028215823067
40
0.42234850586771
40
0.42234850586771
40
0.468668795912353
40
0.468668795912353
40
0.514989085956996
40
0.514989085956996
40
0.561309376001639
40
0.561309376001639
40
0.607629666046281
40
0.607629666046281
40
0.653949956090924
40
0.653949956090924
40
0.700270246135567
40
0.700270246135567
40
0.74659053618021
40
0.74659053618021
40
0.792910826224853
40
0.792910826224853
40
0.839231116269496
40
0.839231116269496
40
0.885551406314138
40
0.885551406314138
40
0.931871696358781
40
0.931871696358781
40
0.978191986403424
40
0.978191986403424
40
1
40
1
40
1
40
1
41
1
10
50.7305539140602
20
-1.12237526999701
30
0
41
1
10
50.7005860948174
20
-1.12986275508033
30
0
41
1
10
50.6706134654892
20
-1.1372590479489
30
0
41
1
10
50.3865767823182
20
-1.20643311867963
30
0
41
1
10
50.132240523809
20
-1.26199517416421
30
0
41
1
10
49.6228915551688
20
-1.36007413634874
30
0
41
1
10
49.3676919845132
20
-1.40220667121167
30
0
41
1
10
48.8547240275951
20
-1.47055070376769
30
0
41
1
10
48.59680007521
20
-1.49719374624911
30
0
41
1
10
48.0831688492399
20
-1.53370545647255
30
0
41
1
10
47.8263840350367
20
-1.54342380095647
30
0
41
1
10
47.312977728783
20
-1.54626686251399
30
0
41
1
10
47.0565705168539
20
-1.53919650499461
30
0
41
1
10
46.5420118967423
20
-1.50838526397891
30
0
41
1
10
46.2842329052065
20
-1.48475180148358
30
0
41
1
10
45.7706172640612
20
-1.42131792831336
30
0
41
1
10
45.514232550579
20
-1.38149053819001
30
0
41
1
10
45.0004933340273
20
-1.28799772179695
30
0
41
1
10
44.7433724262658
20
-1.23395569911676
30
0
41
1
10
44.2286748321148
20
-1.11169191681415
30
0
41
1
10
43.9715605845314
20
-1.04502361833431
30
0
41
1
10
43.4578899518547
20
-0.900777727066554
30
0
41
1
10
43.2015625535417
20
-0.82258598783568
30
0
41
1
10
42.6876458487735
20
-0.659271029580708
30
0
41
1
10
42.4295168358694
20
-0.573801689804611
30
0
41
1
10
41.915895555851
20
-0.396974782868739
30
0
41
1
10
41.6603561718807
20
-0.305839672728411
30
0
41
1
10
41.1499905027774
20
-0.123515161338787
30
0
41
1
10
40.8954289054906
20
-0.0315272390373593
30
0
41
1
10
40.3873383342998
20
0.153452898347496
30
0
41
1
10
40.1331253410818
20
0.244471632985068
30
0
41
1
10
39.6243320250962
20
0.423527721895738
30
0
41
1
10
39.3699883514284
20
0.512214041945924
30
0
41
1
10
38.8594383700425
20
0.682360203849015
30
0
41
1
10
38.6032206233039
20
0.76380988279837
30
0
41
1
10
38.0888808594633
20
0.919367969631651
30
0
41
1
10
37.8313865071629
20
0.993175669917633
30
0
41
1
10
37.3173446143453
20
1.12716517495184
30
0
41
1
10
37.0605391496061
20
1.18823231732355
30
0
41
1
10
36.5471645754223
20
1.29786841186001
30
0
41
1
10
36.2899284992549
20
1.34547348557169
30
0
41
1
10
35.7744299671913
20
1.42569900682577
30
0
41
1
10
35.5176173027783
20
1.45842179024041
30
0
41
1
10
35.0039540717237
20
1.507158493704
30
0
41
1
10
34.7470011293494
20
1.52325949293387
30
0
41
1
10
34.3689248757377
20
1.53483213904093
30
0
41
1
10
34.2477925529556
20
1.53666658828848
30
0
41
1
10
34.1266118186569
20
1.53663707948658
30
0
0
SPLINE
5
CB
100
AcDbEntity
8
1
62
256
6
ByLayer
370
18
48
1
60
0
100
AcDbSpline
70
4
71
3
72
54
73
50
40
0
40
0
40
0
40
0
40
0.0147138126213707
40
0.0147138126213707
40
0.0611347639797426
40
0.0611347639797426
40
0.107555715338115
40
0.107555715338115
40
0.153976666696486
40
0.153976666696486
40
0.177187142375672
40
0.177187142375672
40
0.200397618054858
40
0.200397618054858
40
0.24681856941323
40
0.24681856941323
40
0.293239520771602
40
0.293239520771602
40
0.339660472129974
40
0.339660472129974
40
0.386081423488346
40
0.386081423488346
40
0.432502374846718
40
0.432502374846718
40
0.47892332620509
40
0.47892332620509
40
0.525344277563461
40
0.525344277563461
40
0.571765228921833
40
0.571765228921833
40
0.618186180280205
40
0.618186180280205
40
0.664607131638577
40
0.664607131638577
40
0.711028082996949
40
0.711028082996949
40
0.757449034355321
40
0.757449034355321
40
0.803869985713693
40
0.803869985713693
40
0.850290937072065
40
0.850290937072065
40
0.896711888430437
40
0.896711888430437
40
0.943132839788809
40
0.943132839788809
40
0.98955379114718
40
0.98955379114718
40
1
40
1
40
1
40
1
41
1
10
23.9614514658433
20
-1.11421457014987
30
0
41
1
10
23.8799820005251
20
-1.13430079012542
30
0
41
1
10
23.7984913337232
20
-1.15379529267986
30
0
41
1
10
23.4597357656451
20
-1.23215747393087
30
0
41
1
10
23.2014499073034
20
-1.28473011091276
30
0
41
1
10
22.6867524027218
20
-1.37559901389565
30
0
41
1
10
22.4301420267823
20
-1.41405565466963
30
0
41
1
10
21.9160340038984
20
-1.47433644054271
30
0
41
1
10
21.6587575364371
20
-1.49654142101159
30
0
41
1
10
21.2723930579809
20
-1.51764419168944
30
0
41
1
10
21.1435339122516
20
-1.5226203041874
30
0
41
1
10
20.8860338545056
20
-1.52827609772564
30
0
41
1
10
20.7573383680333
20
-1.5289986576656
30
0
41
1
10
20.3714613420881
20
-1.52495680195273
30
0
41
1
10
20.1146061439035
20
-1.51393289252454
30
0
41
1
10
19.6006709650567
20
-1.47521345995477
30
0
41
1
10
19.3428426393469
20
-1.44784703564215
30
0
41
1
10
18.8273253746227
20
-1.37740715383538
30
0
41
1
10
18.5710943183817
20
-1.33413224587122
30
0
41
1
10
18.0595384687341
20
-1.23486759754897
30
0
41
1
10
17.8043703851735
20
-1.17874588479717
30
0
41
1
10
17.2951500923432
20
-1.05374931003971
30
0
41
1
10
17.0409414653268
20
-0.985104179899167
30
0
41
1
10
16.5317360534102
20
-0.839164498915778
30
0
41
1
10
16.2770445545641
20
-0.761215320904654
30
0
41
1
10
15.7669251912992
20
-0.596397393478526
30
0
41
1
10
15.5109065204793
20
-0.511147684772055
30
0
41
1
10
14.9970617608327
20
-0.334712741154647
30
0
41
1
10
14.7389870949033
20
-0.242704473945736
30
0
41
1
10
14.224108307159
20
-0.0593690436934651
30
0
41
1
10
13.9668834575721
20
0.0323986567850056
30
0
41
1
10
13.4528130205374
20
0.215992617542355
30
0
41
1
10
13.1958681220121
20
0.307529945887524
30
0
41
1
10
12.6803105578149
20
0.48491848761276
30
0
41
1
10
12.4221807674708
20
0.571556156333173
30
0
41
1
10
11.9079628126933
20
0.738604833320693
30
0
41
1
10
11.6507578820839
20
0.817390150181211
30
0
41
1
10
11.1362283483821
20
0.965908718287295
30
0
41
1
10
10.8791282907674
20
1.03605441464185
30
0
41
1
10
10.3630873650575
20
1.16330417679242
30
0
41
1
10
10.1054549688337
20
1.22034280483663
30
0
41
1
10
9.59108717346288
20
1.32125418492524
30
0
41
1
10
9.33426382234475
20
1.36489187726187
30
0
41
1
10
8.81938904061735
20
1.43609639124182
30
0
41
1
10
8.56106775892113
20
1.46415544063081
30
0
41
1
10
8.04643830011412
20
1.50409091250597
30
0
41
1
10
7.78983255084569
20
1.51556172976012
30
0
41
1
10
7.47629591637357
20
1.51967055293929
30
0
41
1
10
7.41874672396006
20
1.52000676410563
30
0
41
1
10
7.36123210582866
20
1.51992618774844
30
0
0
SPLINE
5
CC
100
AcDbEntity
8
1
62
256
6
ByLayer
370
18
48
1
60
0
100
AcDbSpline
70
4
71
3
72
10
73
6
40
0
40
0
40
0
40
0
40
0.5
40
0.5
40
1
40
1
40
1
40
1
41
1
10
55.936945812013
20
0.0569520188919626
30
0
41
1
10
55.9367506248636
20
0.0479095363286888
30
0
41
1
10
55.9350664612676
20
0.0367634934429759
30
0
41
1
10
55.9278323532496
20
0.0129352203073552
30
0
41
1
10
55.9220803833909
20
0.000310042032595
30
0
41
1
10
55.9159142275807
20
-0.0087295116644839
30
0
0
SPLINE
5
CD
100
AcDbEntity
8
1
62
256
6
ByLayer
370
18
48
1
60
0
100
AcDbSpline
70
4
71
3
72
50
73
46
40
0
40
0
40
0
40
0
40
0.019508630115188
40
0.019508630115188
40
0.0713919923119013
40
0.0713919923119013
40
0.123275354508615
40
0.123275354508615
40
0.227042078902043
40
0.227042078902043
40
0.278925441098757
40
0.278925441098757
40
0.33080880329547
40
0.33080880329547
40
0.382692165492184
40
0.382692165492184
40
0.434575527688898
40
0.434575527688898
40
0.486458889885612
40
0.486458889885612
40
0.538342252082326
40
0.538342252082326
40
0.564283933180683
40
0.564283933180683
40
0.59022561427904
40
0.59022561427904
40
0.642108976475753
40
0.642108976475753
40
0.66805065757411
40
0.66805065757411
40
0.693992338672467
40
0.693992338672467
40
0.745875700869179
40
0.745875700869179
40
0.797759063065892
40
0.797759063065892
40
0.849642425262605
40
0.849642425262605
40
0.901525787459317
40
0.901525787459317
40
0.95340914965603
40
0.95340914965603
40
0.979350830754385
40
0.979350830754385
40
1
40
1
40
1
40
1
41
1
10
3.85481075745537
20
1.33478726431048
30
0
41
1
10
3.9553870323117
20
1.35179849745319
30
0
41
1
10
4.0559557968447
20
1.36769933162884
30
0
41
1
10
4.42402420544522
20
1.42178081541201
30
0
41
1
10
4.69148626383245
20
1.45316350593555
30
0
41
1
10
5.22742393235524
20
1.49856148080883
30
0
41
1
10
5.49669478044302
20
1.5123912728229
30
0
41
1
10
6.30243032950813
20
1.5267251146183
30
0
41
1
10
6.83732913359745
20
1.49987221780017
30
0
41
1
10
7.64361609719958
20
1.40775527262119
30
0
41
1
10
7.91258920362438
20
1.36840243876634
30
0
41
1
10
8.44877832210389
20
1.27365487965054
30
0
41
1
10
8.71681792431747
20
1.21880128368937
30
0
41
1
10
9.25329349253678
20
1.09523338021947
30
0
41
1
10
9.52192978274718
20
1.02623060421229
30
0
41
1
10
10.0592831316667
20
0.876225314952649
30
0
41
1
10
10.3274373468124
20
0.795939464932161
30
0
41
1
10
10.8637943038451
20
0.627646091005744
30
0
41
1
10
11.1318111173163
20
0.53918217033663
30
0
41
1
10
11.6683698774377
20
0.355653352192917
30
0
41
1
10
11.9373924604158
20
0.260766825623421
30
0
41
1
10
12.3399990820901
20
0.118042502699637
30
0
41
1
10
12.474000859411
20
0.0699992918404462
30
0
41
1
10
12.7421596268559
20
-0.0254469232771726
30
0
41
1
10
12.8762653427834
20
-0.0729965678626456
30
0
41
1
10
13.2784536387543
20
-0.215713052701119
30
0
41
1
10
13.546323378546
20
-0.311177445107859
30
0
41
1
10
13.9493788391116
20
-0.450248879362135
30
0
41
1
10
14.0837441971285
20
-0.496314312163122
30
0
41
1
10
14.3522259099796
20
-0.58603517706581
30
0
41
1
10
14.4864527309386
20
-0.629757345999678
30
0
41
1
10
14.8887814037139
20
-0.758367756446091
30
0
41
1
10
15.1566031926231
20
-0.840469851931971
30
0
41
1
10
15.692746112882
20
-0.994115000187264
30
0
41
1
10
15.9614751873494
20
-1.06579751999729
30
0
41
1
10
16.4986038836484
20
-1.19513726648805
30
0
41
1
10
16.766701003048
20
-1.25272699008408
30
0
41
1
10
17.3028738817921
20
-1.35250170140696
30
0
41
1
10
17.5705496914571
20
-1.39517506455908
30
0
41
1
10
18.107300380552
20
-1.46304199108704
30
0
41
1
10
18.3763070494109
20
-1.48850165772572
30
0
41
1
10
18.7787783521528
20
-1.51308525291171
30
0
41
1
10
18.9128531060316
20
-1.51906125278447
30
0
41
1
10
19.1534129198225
20
-1.52578632381616
30
0
41
1
10
19.2599411042465
20
-1.5273345219878
30
0
41
1
10
19.3665321434066
20
-1.5274399183937
30
0
0
SPLINE
5
CE
100
AcDbEntity
8
1
62
256
6
ByLayer
370
18
48
1
60
0
100
AcDbSpline
70
4
71
3
72
48
73
44
40
0
40
0
40
0
40
0
40
0.0061008597313626
40
0.0061008597313626
40
0.0578018242246601
40
0.0578018242246601
40
0.109502788717957
40
0.109502788717957
40
0.161203753211255
40
0.161203753211255
40
0.212904717704552
40
0.212904717704552
40
0.264605682197849
40
0.264605682197849
40
0.316306646691147
40
0.316306646691147
40
0.368007611184444
40
0.368007611184444
40
0.419708575677742
40
0.419708575677742
40
0.471409540171039
40
0.471409540171039
40
0.523110504664336
40
0.523110504664336
40
0.574811469157634
40
0.574811469157634
40
0.626512433650931
40
0.626512433650931
40
0.678213398144228
40
0.678213398144228
40
0.729914362637526
40
0.729914362637526
40
0.781615327130823
40
0.781615327130823
40
0.83331629162412
40
0.83331629162412
40
0.885017256117418
40
0.885017256117418
40
0.936718220610715
40
0.936718220610715
40
0.988419185104012
40
0.988419185104012
40
1
40
1
40
1
40
1
41
1
10
30.61652845734
20
1.342826059907
30
0
41
1
10
30.6481925093929
20
1.34837068347446
30
0
41
1
10
30.6798640122076
20
1.35380595079522
30
0
41
1
10
30.9800136292404
20
1.40424492115454
30
0
41
1
10
31.2482407029198
20
1.44124221165234
30
0
41
1
10
31.7840364447281
20
1.49734670426488
30
0
41
1
10
32.0518054148776
20
1.51662812158352
30
0
41
1
10
32.5878819337372
20
1.53727895271368
30
0
41
1
10
32.8564868918532
20
1.53862683463004
30
0
41
1
10
33.3928476247291
20
1.52281409915915
30
0
41
1
10
33.6607674223763
20
1.50587272379028
30
0
41
1
10
34.1964619097057
20
1.45460173345603
30
0
41
1
10
34.4640917686524
20
1.42006938733692
30
0
41
1
10
35.0003965497173
20
1.33429844178116
30
0
41
1
10
35.2692936636231
20
1.28334691062474
30
0
41
1
10
35.8053632115064
20
1.1671746926624
30
0
41
1
10
36.0728641007785
20
1.10159241382635
30
0
41
1
10
36.6081515530695
20
0.957763291155118
30
0
41
1
10
36.8764016977129
20
0.880255099622417
30
0
41
1
10
37.4137521761022
20
0.715292492005204
30
0
41
1
10
37.6816487620675
20
0.628046384751798
30
0
41
1
10
38.2168930581833
20
0.446529397396176
30
0
41
1
10
38.4844893715383
20
0.352920949738348
30
0
41
1
10
39.0202938974193
20
0.161792243341409
30
0
41
1
10
39.2893001718273
20
0.0651599965091521
30
0
41
1
10
39.8256515373705
20
-0.127914565912334
30
0
41
1
10
40.0930988086305
20
-0.224830460576953
30
0
41
1
10
40.6281753196645
20
-0.414800476722831
30
0
41
1
10
40.8961251102729
20
-0.50700099199986
30
0
41
1
10
41.4329744157549
20
-0.685526736808981
30
0
41
1
10
41.7013027926894
20
-0.771705195848028
30
0
41
1
10
42.2365998883024
20
-0.933709166745473
30
0
41
1
10
42.504274621836
20
-1.00892362376729
30
0
41
1
10
43.0400236105319
20
-1.14722499777474
30
0
41
1
10
43.3083445649078
20
-1.21066108906263
30
0
41
1
10
43.8446525024463
20
-1.3221184304013
30
0
41
1
10
44.112392218704
20
-1.36987605738665
30
0
41
1
10
44.6478994034177
20
-1.44874258873554
30
0
41
1
10
44.9154316848465
20
-1.48007737597774
30
0
41
1
10
45.4514173894668
20
-1.52494390667456
30
0
41
1
10
45.7199940930785
20
-1.53844844703502
30
0
41
1
10
46.0478533828808
20
-1.54365983842601
30
0
41
1
10
46.1078409581797
20
-1.54415540800764
30
0
41
1
10
46.1678206936185
20
-1.54419456897247
30
0
0
SPLINE
5
CF
100
AcDbEntity
8
1
62
256
6
ByLayer
370
18
48
1
60
0
100
AcDbSpline
70
4
71
3
72
22
73
18
40
0
40
0
40
0
40
0
40
0.214570921642652
40
0.214570921642652
40
0.321856382463976
40
0.321856382463976
40
0.429141843285299
40
0.429141843285299
40
0.643712764927941
40
0.643712764927941
40
0.75099822574926
40
0.75099822574926
40
0.858283686570579
40
0.858283686570579
40
0.965569147391897
40
0.965569147391897
40
1
40
1
40
1
40
1
41
1
10
55.4126375482077
20
-1.30003893690014
30
0
41
1
10
54.8594995468648
20
-1.30013812570357
30
0
41
1
10
54.3089025960514
20
-1.26659994100908
30
0
41
1
10
53.4818310112036
20
-1.17103604525906
30
0
41
1
10
53.2059342315015
20
-1.13156072200962
30
0
41
1
10
52.6528204413125
20
-1.0384327534901
30
0
41
1
10
52.3756055921159
20
-0.984818764680654
30
0
41
1
10
51.5468208948467
20
-0.80705450233765
30
0
41
1
10
50.9960635055699
20
-0.665220803941025
30
0
41
1
10
50.1673774435693
20
-0.432102577678307
30
0
41
1
10
49.890268874013
20
-0.35087925334193
30
0
41
1
10
49.3369751475505
20
-0.185210991875465
30
0
41
1
10
49.0608208451717
20
-0.100784002107844
30
0
41
1
10
48.5086073526166
20
0.0683115640016467
30
0
41
1
10
48.2325522806017
20
0.152994050949303
30
0
41
1
10
47.8673818671281
20
0.26308055915365
30
0
41
1
10
47.7785700070167
20
0.289701546279815
30
0
41
1
10
47.6897426183675
20
0.316123001285519
30
0
0
SPLINE
5
D0
100
AcDbEntity
8
1
62
256
6
ByLayer
370
18
48
1
60
0
100
AcDbSpline
70
4
71
3
72
20
73
16
40
0
40
0
40
0
40
0
40
0.174510728732254
40
0.174510728732254
40
0.28027488779692
40
0.28027488779692
40
0.386039046861586
40
0.386039046861586
40
0.491803205926252
40
0.491803205926252
40
0.597567364990918
40
0.597567364990918
40
0.809095683120249
40
0.809095683120249
40
1
40
1
40
1
40
1
41
1
10
28.658926953383
20
-1.31799577237831
30
0
41
1
10
28.2033723102949
20
-1.31817796462337
30
0
41
1
10
27.7487857734998
20
-1.29564137115025
30
0
41
1
10
27.016995223868
20
-1.22475584647083
30
0
41
1
10
26.7400661322264
20
-1.18998999121433
30
0
41
1
10
26.1875280973825
20
-1.10582450237837
30
0
41
1
10
25.9117061558956
20
-1.05653426892823
30
0
41
1
10
25.3600551778742
20
-0.945407046525531
30
0
41
1
10
25.0842246910012
20
-0.88352883578392
30
0
41
1
10
24.5316412852833
20
-0.749094924714427
30
0
41
1
10
24.2547278251845
20
-0.676476822500518
30
0
41
1
10
23.4286316443187
20
-0.44845197365018
30
0
41
1
10
22.881692970243
20
-0.282347507582699
30
0
41
1
10
21.8420077155924
20
0.0391575568913254
30
0
41
1
10
21.3491736473267
20
0.19399526445244
30
0
41
1
10
20.8541861391119
20
0.342591271215781
30
0
0
SPLINE
5
D1
100
AcDbEntity
8
1
62
256
6
ByLayer
370
13
48
1
60
0
100
AcDbSpline
70
4
71
3
72
8
73
4
40
0
40
0
40
0
40
0
40
1
40
1
40
1
40
1
41
1
10
55.2265802009592
20
0.523646403374215
30
0
41
1
10
55.2611703185842
20
0.491849662154806
30
0
41
1
10
55.2977727546342
20
0.462952626616385
30
0
41
1
10
55.3358728019131
20
0.436223523525172
30
0
0
SPLINE
5
D2
100
AcDbEntity
8
1
62
256
6
ByLayer
370
18
48
1
60
0
100
AcDbSpline
70
4
71
3
72
8
73
4
40
0
40
0
40
0
40
0
40
1
40
1
40
1
40
1
41
1
10
55.875573398235
20
0.403906928213701
30
0
41
1
10
55.8625240066814
20
0.447434973530534
30
0
41
1
10
55.8464472415767
20
0.494019701513082
30
0
41
1
10
55.8281265322087
20
0.543561064161253
30
0
0
SPLINE
5
D3
100
AcDbEntity
8
1
62
256
6
ByLayer
370
18
48
1
60
0
100
AcDbSpline
70
4
71
3
72
10
73
6
40
0
40
0
40
0
40
0
40
0.5
40
0.5
40
1
40
1
40
1
40
1
41
1
10
55.8281265322341
20
0.543561064167108
30
0
41
1
10
55.7282857218876
20
0.534688858230311
30
0
41
1
10
55.6280233013563
20
0.53061228479973
30
0
41
1
10
55.4274242366075
20
0.525290504993734
30
0
41
1
10
55.3270142919295
20
0.524266036613852
30
0
41
1
10
55.2265802009593
20
0.523646403374158
30
0
0
SPLINE
5
D4
100
AcDbEntity
8
1
62
256
6
ByLayer
370
18
48
1
60
0
100
AcDbSpline
70
4
71
3
72
28
73
24
40
0
40
0
40
0
40
0
40
0.0669876697700002
40
0.0669876697700002
40
0.171655861998223
40
0.171655861998223
40
0.276324054226446
40
0.276324054226446
40
0.380992246454669
40
0.380992246454669
40
0.485660438682891
40
0.485660438682891
40
0.590328630911114
40
0.590328630911114
40
0.694996823139337
40
0.694996823139337
40
0.79966501536756
40
0.79966501536756
40
0.851999111481671
40
0.851999111481671
40
0.904333207595783
40
0.904333207595783
40
1
40
1
40
1
40
1
41
1
10
39.5061460727737
20
-0.0127774805962133
30
0
41
1
10
39.3329741580899
20
0.0419261174332348
30
0
41
1
10
39.1598683554778
20
0.0965917965125698
30
0
41
1
10
38.7163904482275
20
0.236283241368966
30
0
41
1
10
38.4459670743652
20
0.320752215602937
30
0
41
1
10
37.9040721970154
20
0.485128764460569
30
0
41
1
10
37.6327961838848
20
0.56484733566657
30
0
41
1
10
37.0928867562
20
0.71577253010517
30
0
41
1
10
36.8237771533558
20
0.787369457680796
30
0
41
1
10
36.2870133565495
20
0.919609825225848
30
0
41
1
10
36.0193885570975
20
0.980182553250557
30
0
41
1
10
35.4837841498492
20
1.0899658730832
30
0
41
1
10
35.2160624741691
20
1.13905059423698
30
0
41
1
10
34.6801618690264
20
1.22249653125033
30
0
41
1
10
34.4119928202051
20
1.25658574332545
30
0
41
1
10
33.8740367608772
20
1.31145276272827
30
0
41
1
10
33.6043608994959
20
1.331823687856
30
0
41
1
10
33.1981564614523
20
1.3489119403695
30
0
41
1
10
33.0623723457367
20
1.35216052561685
30
0
41
1
10
32.7911916039451
20
1.35483233561038
30
0
41
1
10
32.6556284674617
20
1.35441159340348
30
0
41
1
10
32.2723497984315
20
1.34787225970001
30
0
41
1
10
32.0247102140259
20
1.33742174779744
30
0
41
1
10
31.7769646347516
20
1.31973914867285
30
0
0
SPLINE
5
D5
100
AcDbEntity
8
1
62
256
6
ByLayer
370
18
48
1
60
0
100
AcDbSpline
70
4
71
3
72
30
73
26
40
0
40
0
40
0
40
0
40
0.0107549151956144
40
0.0107549151956144
40
0.0629633281878193
40
0.0629633281878193
40
0.167380154172228
40
0.167380154172228
40
0.271796980156635
40
0.271796980156635
40
0.32400539314884
40
0.32400539314884
40
0.376213806141045
40
0.376213806141045
40
0.480630632125456
40
0.480630632125456
40
0.585047458109867
40
0.585047458109867
40
0.689464284094278
40
0.689464284094278
40
0.793881110078688
40
0.793881110078688
40
0.898297936063099
40
0.898297936063099
40
1
40
1
40
1
40
1
41
1
10
12.7276627410334
20
-0.0210791919738256
30
0
41
1
10
12.7000523563332
20
-0.0123052463143551
30
0
41
1
10
12.6724442530511
20
-0.0035262326321117
30
0
41
1
10
12.510831939283
20
0.0479072457292204
30
0
41
1
10
12.3769564810673
20
0.0909275288289848
30
0
41
1
10
11.9749440088006
20
0.218547382417512
30
0
41
1
10
11.7068816566127
20
0.30322213493136
30
0
41
1
10
11.1695410721466
20
0.468124878878768
30
0
41
1
10
10.9002248482916
20
0.548249884784326
30
0
41
1
10
10.4948243553243
20
0.663438933059041
30
0
41
1
10
10.35943527748
20
0.700942436397156
30
0
41
1
10
10.0880720643966
20
0.773904211434285
30
0
41
1
10
9.95244619636492
20
0.80941313200907
30
0
41
1
10
9.54610107593982
20
0.9113046337377
30
0
41
1
10
9.2755332864738
20
0.97406496425171
30
0
41
1
10
8.73435824267671
20
1.08789280362234
30
0
41
1
10
8.46378059980026
20
1.13844924259504
30
0
41
1
10
7.92204384609801
20
1.22447456746329
30
0
41
1
10
7.65013813539423
20
1.26079776189564
30
0
41
1
10
7.10937351519456
20
1.31800757888325
30
0
41
1
10
6.84016927832107
20
1.33860699704812
30
0
41
1
10
6.3035218273229
20
1.36252502431822
30
0
41
1
10
6.03576362373201
20
1.36703174847148
30
0
41
1
10
5.50788580593621
20
1.36014974690894
30
0
41
1
10
5.24777355859428
20
1.3489127019119
30
0
41
1
10
4.98765276051753
20
1.329540742099
30
0
0
SPLINE
5
D6
100
AcDbEntity
8
1
62
256
6
ByLayer
370
18
48
1
60
0
100
AcDbSpline
70
4
71
3
72
24
73
20
40
0
40
0
40
0
40
0
40
0.0918291385575958
40
0.0918291385575958
40
0.196180611370866
40
0.196180611370866
40
0.300532084184135
40
0.300532084184135
40
0.404883556997405
40
0.404883556997405
40
0.509235029810675
40
0.509235029810675
40
0.613586502623945
40
0.613586502623945
40
0.822289448250485
40
0.822289448250485
40
0.926640921063755
40
0.926640921063755
40
1
40
1
40
1
40
1
41
1
10
5.88480694970943
20
1.3164304557437
30
0
41
1
10
6.12141788467366
20
1.31456652332861
30
0
41
1
10
6.35821858654504
20
1.30677684566004
30
0
41
1
10
6.86488873448371
20
1.27804907291088
30
0
41
1
10
7.13512856526654
20
1.25431970977334
30
0
41
1
10
7.6776335910148
20
1.1918080644364
30
0
41
1
10
7.95009759261274
20
1.15331007733693
30
0
41
1
10
8.49307808328953
20
1.06352831495954
30
0
41
1
10
8.76430353989019
20
1.01139826940121
30
0
41
1
10
9.30680285780338
20
0.895562642427109
30
0
41
1
10
9.57810648998918
20
0.832420717426714
30
0
41
1
10
10.1212468400097
20
0.696087739771485
30
0
41
1
10
10.3935916282031
20
0.622911041632619
30
0
41
1
10
11.2060924867799
20
0.39499462018415
30
0
41
1
10
11.7441341603694
20
0.230873783506581
30
0
41
1
10
12.5504865686376
20
-0.017322529016667
30
0
41
1
10
12.8192497976664
20
-0.100054237508857
30
0
41
1
10
13.2773568337309
20
-0.239458127014757
30
0
41
1
10
13.466512275911
20
-0.29681059761117
30
0
41
1
10
13.6559442909752
20
-0.353186449861795
30
0
0
SPLINE
5
D7
100
AcDbEntity
8
1
62
256
6
ByLayer
370
18
48
1
60
0
100
AcDbSpline
70
4
71
3
72
26
73
22
40
0
40
0
40
0
40
0
40
0.0975583874746882
40
0.0975583874746882
40
0.202346425573986
40
0.202346425573986
40
0.307134463673284
40
0.307134463673284
40
0.411922501772582
40
0.411922501772582
40
0.516710539871879
40
0.516710539871879
40
0.621498577971177
40
0.621498577971177
40
0.726286616070475
40
0.726286616070475
40
0.831074654169773
40
0.831074654169773
40
0.935862692269071
40
0.935862692269071
40
1
40
1
40
1
40
1
41
1
10
32.6675313799402
20
1.30547515967595
30
0
41
1
10
32.9205952333973
20
1.30424391339994
30
0
41
1
10
33.1740606554235
20
1.29708692610464
30
0
41
1
10
33.6977162809858
20
1.26578035237117
30
0
41
1
10
33.9679052353856
20
1.24119124143667
30
0
41
1
10
34.5070588042572
20
1.17898450667769
30
0
41
1
10
34.7759465540242
20
1.14146008090052
30
0
41
1
10
35.3134077214197
20
1.05185447253246
30
0
41
1
10
35.5819834380577
20
1.0002983823158
30
0
41
1
10
36.1193187213086
20
0.886659406525354
30
0
41
1
10
36.3879020061551
20
0.824578158053583
30
0
41
1
10
36.9266853506033
20
0.690167314930136
30
0
41
1
10
37.196779171405
20
0.618163492161131
30
0
41
1
10
37.738600151409
20
0.46752912973389
30
0
41
1
10
38.0107513328565
20
0.388435732017115
30
0
41
1
10
38.5537066300772
20
0.226894023726516
30
0
41
1
10
38.8247231409407
20
0.144280713143729
30
0
41
1
10
39.3669922220216
20
-0.0208942301113098
30
0
41
1
10
39.6382012141611
20
-0.103584464082445
30
0
41
1
10
40.0758124093894
20
-0.236007553147886
30
0
41
1
10
40.2421382659049
20
-0.286223924896177
30
0
41
1
10
40.4083994197182
20
-0.33551362512921
30
0
0
SPLINE
5
D8
100
AcDbEntity
8
1
62
256
6
ByLayer
370
18
48
1
60
0
100
AcDbSpline
70
4
71
3
72
14
73
10
40
0
40
0
40
0
40
0
40
0.470585826545363
40
0.470585826545363
40
0.705878739818048
40
0.705878739818048
40
0.941171653090732
40
0.941171653090732
40
1
40
1
40
1
40
1
41
1
10
2.54981693075811
20
-1.05320592667644
30
0
41
1
10
3.08685165740505
20
-1.19350688367248
30
0
41
1
10
3.62154788459961
20
-1.30386994622438
30
0
41
1
10
4.42401185200922
20
-1.42177921198388
30
0
41
1
10
4.69147214958451
20
-1.4531619598045
30
0
41
1
10
5.22740622801484
20
-1.49856033164394
30
0
41
1
10
5.49667526735857
20
-1.51239045110844
30
0
41
1
10
5.83240207098933
20
-1.51836354348168
30
0
41
1
10
5.89951681443614
20
-1.51898926625734
30
0
41
1
10
5.96660580800398
20
-1.51904962500831
30
0
0
SPLINE
5
D9
100
AcDbEntity
8
1
62
256
6
ByLayer
370
18
48
1
60
0
100
AcDbSpline
70
4
71
3
72
48
73
44
40
0
40
0
40
0
40
0
40
0.0381982278960737
40
0.0381982278960737
40
0.0900309247045881
40
0.0900309247045881
40
0.115947273108845
40
0.115947273108845
40
0.141863621513101
40
0.141863621513101
40
0.193696318321617
40
0.193696318321617
40
0.245529015130133
40
0.245529015130133
40
0.297361711938649
40
0.297361711938649
40
0.349194408747165
40
0.349194408747165
40
0.40102710555568
40
0.40102710555568
40
0.452859802364196
40
0.452859802364196
40
0.504692499172712
40
0.504692499172712
40
0.556525195981228
40
0.556525195981228
40
0.608357892789743
40
0.608357892789743
40
0.660190589598259
40
0.660190589598259
40
0.712023286406775
40
0.712023286406775
40
0.763855983215291
40
0.763855983215291
40
0.815688680023807
40
0.815688680023807
40
0.867521376832322
40
0.867521376832322
40
0.919354073640838
40
0.919354073640838
40
0.971186770449354
40
0.971186770449354
40
1
40
1
40
1
40
1
41
1
10
17.2461840421667
20
1.34044076588299
30
0
41
1
10
17.4436470771558
20
1.37433180211303
30
0
41
1
10
17.641045678347
20
1.40408703006432
30
0
41
1
10
18.1071975748428
20
1.463031120838
30
0
41
1
10
18.3762025270638
20
1.48849293039285
30
0
41
1
10
18.7786713153051
20
1.51307988570315
30
0
41
1
10
18.9127452393653
20
1.51905702641994
30
0
41
1
10
19.180629943383
20
1.52654841063381
30
0
41
1
10
19.314432561972
20
1.5280334541888
30
0
41
1
10
19.7163216467618
20
1.52564439431183
30
0
41
1
10
19.9845348816077
20
1.51500361778548
30
0
41
1
10
20.5223235336733
20
1.47591131508432
30
0
41
1
10
20.7904367151033
20
1.44736926219528
30
0
41
1
10
21.3261192799954
20
1.37338507644034
30
0
41
1
10
21.5940546237568
20
1.32834646511034
30
0
41
1
10
22.1304921649337
20
1.22294127254389
30
0
41
1
10
22.3993255052886
20
1.16214279852872
30
0
41
1
10
22.9357816722513
20
1.02735438640121
30
0
41
1
10
23.2037973423363
20
0.954166619867067
30
0
41
1
10
23.7397770990818
20
0.797307771995179
30
0
41
1
10
24.0076727333454
20
0.713442423689969
30
0
41
1
10
24.54435670681
20
0.537225012654574
30
0
41
1
10
24.8131476589257
20
0.445425993463886
30
0
41
1
10
25.3491093589971
20
0.257914380475711
30
0
41
1
10
25.6170169661278
20
0.162829916974573
30
0
41
1
10
26.1530855172052
20
-0.0288519203100179
30
0
41
1
10
26.4213755502082
20
-0.125928817613897
30
0
41
1
10
26.9582297448128
20
-0.317934246316241
30
0
41
1
10
27.2263405168743
20
-0.411449578871441
30
0
41
1
10
27.7622913810095
20
-0.592738550048438
30
0
41
1
10
28.0300217446141
20
-0.680772264263737
30
0
41
1
10
28.5663225099064
20
-0.848099387947599
30
0
41
1
10
28.8350662022314
20
-0.927912423265724
30
0
41
1
10
29.3712934035819
20
-1.07439398093956
30
0
41
1
10
29.6391328336226
20
-1.14123351618139
30
0
41
1
10
30.1750444538374
20
-1.26085134143722
30
0
41
1
10
30.4428907864814
20
-1.3139798248437
30
0
41
1
10
30.9798256363761
20
-1.40421702842585
30
0
41
1
10
31.2480515174531
20
-1.44121826414394
30
0
41
1
10
31.7838439081663
20
-1.49733067777231
30
0
41
1
10
32.0516110292136
20
-1.51661625691611
30
0
41
1
10
32.4686459023112
20
-1.53268815232766
30
0
41
1
10
32.617819512764
20
-1.53565625024703
30
0
41
1
10
32.7669979988149
20
-1.53580268462622
30
0
0
SPLINE
5
DA
100
AcDbEntity
8
1
62
256
6
ByLayer
370
18
48
1
60
0
100
AcDbSpline
70
4
71
3
72
32
73
28
40
0
40
0
40
0
40
0
40
0.0360699585998188
40
0.0360699585998188
40
0.116397462049834
40
0.116397462049834
40
0.196724965499849
40
0.196724965499849
40
0.277052468949864
40
0.277052468949864
40
0.357379972399879
40
0.357379972399879
40
0.437707475849894
40
0.437707475849894
40
0.518034979299909
40
0.518034979299909
40
0.598362482749924
40
0.598362482749924
40
0.67868998619994
40
0.67868998619994
40
0.759017489649955
40
0.759017489649955
40
0.839344993099969
40
0.839344993099969
40
0.919672496549985
40
0.919672496549985
40
1
40
1
40
1
40
1
41
1
10
44.0191490469724
20
1.35113716372268
30
0
41
1
10
44.1394125058593
20
1.37217148004859
30
0
41
1
10
44.2596399693126
20
1.39155936952625
30
0
41
1
10
44.647622173037
20
1.44870736424556
30
0
41
1
10
44.9151526963648
20
1.48004778430794
30
0
41
1
10
45.4511341994947
20
1.52492643271992
30
0
41
1
10
45.719709419352
20
1.53843740699352
30
0
41
1
10
46.2554257617906
20
1.54696575256247
30
0
41
1
10
46.5230452187358
20
1.54209904953288
30
0
41
1
10
47.0585414316584
20
1.51441146330524
30
0
41
1
10
47.3260504687
20
1.49128487554182
30
0
41
1
10
47.8629546255873
20
1.42767680526478
30
0
41
1
10
48.1308145676232
20
1.38736927460155
30
0
41
1
10
48.6662543775653
20
1.29114008910017
30
0
41
1
10
48.9336173056971
20
1.23487010993227
30
0
41
1
10
49.4691529141344
20
1.1082121113823
30
0
41
1
10
49.7377203774156
20
1.03759089940903
30
0
41
1
10
50.2736758237368
20
0.885549619819358
30
0
41
1
10
50.5413348231996
20
0.804357791485558
30
0
41
1
10
51.0765373201038
20
0.632940566014014
30
0
41
1
10
51.3439230651771
20
0.54227000893701
30
0
41
1
10
51.8801273679636
20
0.355651703108009
30
0
41
1
10
52.1486935300219
20
0.260450802341325
30
0
41
1
10
52.6842719233912
20
0.0676964024903839
30
0
41
1
10
52.9515256146976
20
-0.0304034408862321
30
0
41
1
10
53.486774975493
20
-0.225017735215232
30
0
41
1
10
53.7555229256209
20
-0.320857050958381
30
0
41
1
10
54.0236776990685
20
-0.414326934408024
30
0
0
SPLINE
5
DB
100
AcDbEntity
8
1
62
256
6
ByLayer
370
18
48
1
60
0
100
AcDbSpline
70
4
71
3
72
8
73
4
40
0
40
0
40
0
40
0
40
1
40
1
40
1
40
1
41
1
10
55.8755733982343
20
0.403906928240446
30
0
41
1
10
55.6979693337117
20
0.415171408455336
30
0
41
1
10
55.5203654428965
20
0.426416780811053
30
0
41
1
10
55.3427617683749
20
0.437640043318339
30
0
0
SPLINE
5
DC
100
AcDbEntity
8
1
62
256
6
ByLayer
370
18
48
1
60
0
100
AcDbSpline
70
4
71
3
72
8
73
4
40
0
40
0
40
0
40
0
40
1
40
1
40
1
40
1
41
1
10
55.875573398235
20
-0.403906928213701
30
0
41
1
10
55.8625240066814
20
-0.447434973530591
30
0
41
1
10
55.8464472415766
20
-0.494019701513167
30
0
41
1
10
55.8281265322087
20
-0.543561064161395
30
0
0
SPLINE
5
DD
100
AcDbEntity
8
1
62
256
6
ByLayer
370
18
48
1
60
0
100
AcDbSpline
70
4
71
3
72
36
73
32
40
0
40
0
40
0
40
0
40
0.122601724763307
40
0.122601724763307
40
0.18390258714496
40
0.18390258714496
40
0.245203449526614
40
0.245203449526614
40
0.306504311908267
40
0.306504311908267
40
0.367805174289921
40
0.367805174289921
40
0.49040689905323
40
0.49040689905323
40
0.551707761434885
40
0.551707761434885
40
0.61300862381654
40
0.61300862381654
40
0.674309486198195
40
0.674309486198195
40
0.73561034857985
40
0.73561034857985
40
0.796911210961505
40
0.796911210961505
40
0.858212073343159
40
0.858212073343159
40
0.919512935724814
40
0.919512935724814
40
0.980813798106469
40
0.980813798106469
40
1
40
1
40
1
40
1
41
1
10
55.3180884231018
20
-1.54975575363986
30
0
41
1
10
54.7699840612179
20
-1.5522593945484
30
0
41
1
10
54.2241683156578
20
-1.51584861686285
30
0
41
1
10
53.4028906461377
20
-1.40711098357039
30
0
41
1
10
53.1287722137919
20
-1.36173590915476
30
0
41
1
10
52.5783407186422
20
-1.25424964456411
30
0
41
1
10
52.3037878724765
20
-1.19259455797615
30
0
41
1
10
51.7550445725855
20
-1.05535772050058
30
0
41
1
10
51.4809196577748
20
-0.979617662717175
30
0
41
1
10
50.9317184908978
20
-0.816843839536205
30
0
41
1
10
50.6561823198085
20
-0.729737256425778
30
0
41
1
10
49.8319493699281
20
-0.457103271503883
30
0
41
1
10
49.2845174426906
20
-0.259683767179865
30
0
41
1
10
48.4589607735527
20
0.0397172156332601
30
0
41
1
10
48.1840583852355
20
0.139581104461115
30
0
41
1
10
47.6351656389992
20
0.33622555226745
30
0
41
1
10
47.3610294782011
20
0.433254344643387
30
0
41
1
10
46.8117677992156
20
0.620374459751162
30
0
41
1
10
46.5362265773054
20
0.710806835283336
30
0
41
1
10
45.9865086328949
20
0.881332802509746
30
0
41
1
10
45.7122105765855
20
0.961533337546854
30
0
41
1
10
45.1634408363434
20
1.10893872739331
30
0
41
1
10
44.8889859169552
20
1.17618000753171
30
0
41
1
10
44.3386725695387
20
1.29529460255262
30
0
41
1
10
44.0635174145589
20
1.34700404064256
30
0
41
1
10
43.5144815893308
20
1.43296929123446
30
0
41
1
10
43.2402766333236
20
1.46728411554381
30
0
41
1
10
42.6909891278518
20
1.51715103531646
30
0
41
1
10
42.4154755079658
20
1.53278992659969
30
0
41
1
10
42.054460627869
20
1.54061531131558
30
0
41
1
10
41.9684554263317
20
1.54153110273157
30
0
41
1
10
41.8824849916931
20
1.5415037251644
30
0
0
SPLINE
5
DE
100
AcDbEntity
8
1
62
256
6
ByLayer
370
18
48
1
60
0
100
AcDbSpline
70
4
71
3
72
36
73
32
40
0
40
0
40
0
40
0
40
0.0019683067002063
40
0.0019683067002063
40
0.0551654713552878
40
0.0551654713552878
40
0.108362636010369
40
0.108362636010369
40
0.161559800665451
40
0.161559800665451
40
0.214756965320533
40
0.214756965320533
40
0.321151294630695
40
0.321151294630695
40
0.427545623940858
40
0.427545623940858
40
0.480742788595941
40
0.480742788595941
40
0.533939953251024
40
0.533939953251024
40
0.640334282561187
40
0.640334282561187
40
0.693531447216269
40
0.693531447216269
40
0.74672861187135
40
0.74672861187135
40
0.853122941181515
40
0.853122941181515
40
0.959517270491681
40
0.959517270491681
40
1
40
1
40
1
40
1
41
1
10
30.6289617123204
20
-1.34644975997583
30
0
41
1
10
30.6188003964001
20
-1.34820196169753
30
0
41
1
10
30.6086388339879
20
-1.34994271560487
30
0
41
1
10
30.3238344054664
20
-1.39840859333867
30
0
41
1
10
30.0486151675397
20
-1.43665507145803
30
0
41
1
10
29.497786912248
20
-1.49477082512999
30
0
41
1
10
29.2230600554239
20
-1.51458022466596
30
0
41
1
10
28.6738651903949
20
-1.53513720450005
30
0
41
1
10
28.3993368981541
20
-1.53586513773993
30
0
41
1
10
27.8492786681479
20
-1.51814597473967
30
0
41
1
10
27.5734725015575
20
-1.49966650483523
30
0
41
1
10
26.7486683215143
20
-1.41675942095898
30
0
41
1
10
26.2002737738517
20
-1.32439565913125
30
0
41
1
10
25.0980600684325
20
-1.07831727655668
30
0
41
1
10
24.5499333630379
20
-0.925372734214676
30
0
41
1
10
23.7248374029421
20
-0.667022852109824
30
0
41
1
10
23.4489512207676
20
-0.576060677884641
30
0
41
1
10
22.8988640375001
20
-0.38857704589671
30
0
41
1
10
22.6243309949672
20
-0.291786537302158
30
0
41
1
10
21.8001801196564
20
0.0020066682480433
30
0
41
1
10
21.2485258370843
20
0.203068510298664
30
0
41
1
10
20.4242453743343
20
0.488831322029853
30
0
41
1
10
20.1495893711829
20
0.581382272448053
30
0
41
1
10
19.5995006073107
20
0.758479898036967
30
0
41
1
10
19.323683768221
20
0.843254197249223
30
0
41
1
10
18.498260438853
20
1.07889449346683
30
0
41
1
10
17.9499193544941
20
1.21217218267884
30
0
41
1
10
16.8475878294752
20
1.41306027287285
30
0
41
1
10
16.298521723205
20
1.47977714352791
30
0
41
1
10
15.5392103498453
20
1.5194314356817
30
0
41
1
10
15.3294346652572
20
1.52487459692372
30
0
41
1
10
15.119800778027
20
1.52478052744169
30
0
0
SPLINE
5
DF
100
AcDbEntity
8
1
62
256
6
ByLayer
370
18
48
1
60
0
100
AcDbSpline
70
4
71
3
72
8
73
4
40
0
40
0
40
0
40
0
40
1
40
1
40
1
40
1
41
1
10
3.8440900902684
20
-1.33588564994963
30
0
41
1
10
3.40971324342155
20
-1.40903036857685
30
0
41
1
10
2.97568641579781
20
-1.46128295717884
30
0
41
1
10
2.54000608244181
20
-1.49016798435016
30
0
0
SPLINE
5
E0
100
AcDbEntity
8
1
62
256
6
ByLayer
370
18
48
1
60
0
100
AcDbSpline
70
4
71
3
72
8
73
4
40
0
40
0
40
0
40
0
40
1
40
1
40
1
40
1
41
1
10
2.54000157467223
20
-1.36034498184313
30
0
41
1
10
2.64223397856995
20
-1.35409035026299
30
0
41
1
10
2.74450570682711
20
-1.34662759668532
30
0
41
1
10
2.84678669120822
20
-1.33799499232629
30
0
0
SPLINE
5
E1
100
AcDbEntity
8
1
62
256
6
ByLayer
370
18
48
1
60
0
100
AcDbSpline
70
4
71
3
72
22
73
18
40
0
40
0
40
0
40
0
40
0.0688655420877846
40
0.0688655420877846
40
0.282402146777732
40
0.282402146777732
40
0.389170449122703
40
0.389170449122703
40
0.495938751467675
40
0.495938751467675
40
0.602707053812646
40
0.602707053812646
40
0.709475356157617
40
0.709475356157617
40
0.923011960847555
40
0.923011960847555
40
1
40
1
40
1
40
1
41
1
10
21.8023200883616
20
0.0015781108869248
30
0
41
1
10
21.9784648461579
20
-0.0551642931347942
30
0
41
1
10
22.1545384206529
20
-0.111876558365054
30
0
41
1
10
22.8767823421239
20
-0.342686551656442
30
0
41
1
10
23.4234273599591
20
-0.512929615844769
30
0
41
1
10
24.2494934608467
20
-0.744844866658866
30
0
41
1
10
24.5265015704439
20
-0.818374139045631
30
0
41
1
10
25.0791234541435
20
-0.953681802996584
30
0
41
1
10
25.3549478261283
20
-1.01554061660744
30
0
41
1
10
25.9066162312205
20
-1.12577773247313
30
0
41
1
10
26.1824503489972
20
-1.1742001423431
30
0
41
1
10
26.7350593147605
20
-1.25572997465417
30
0
41
1
10
27.0120563080423
20
-1.28873014468036
30
0
41
1
10
27.8405645754654
20
-1.36261423594016
30
0
41
1
10
28.391252140841
20
-1.37857994237254
30
0
41
1
10
29.1434914483932
20
-1.35270092392074
30
0
41
1
10
29.3430875544418
20
-1.34130743749577
30
0
41
1
10
29.5425017945613
20
-1.32560676983743
30
0
0
SPLINE
5
E2
100
AcDbEntity
8
1
62
256
6
ByLayer
370
18
48
1
60
0
100
AcDbSpline
70
4
71
3
72
20
73
16
40
0
40
0
40
0
40
0
40
0.0363328750138597
40
0.0363328750138597
40
0.177158202292771
40
0.177158202292771
40
0.317983529571682
40
0.317983529571682
40
0.599634184129496
40
0.599634184129496
40
0.740459511408401
40
0.740459511408401
40
0.881284838687306
40
0.881284838687306
40
1
40
1
40
1
40
1
41
1
10
48.5649544029251
20
0.0007098000146186
30
0
41
1
10
48.6362005707231
20
-0.021934882977007
30
0
41
1
10
48.7074420165196
20
-0.0445772980493189
30
0
41
1
10
49.0548286767406
20
-0.15484832822591
30
0
41
1
10
49.3310246064247
20
-0.242070583956178
30
0
41
1
10
49.8844818518234
20
-0.412604016959705
30
0
41
1
10
50.1616797195895
20
-0.495873880041501
30
0
41
1
10
50.9904884202499
20
-0.733803442438784
30
0
41
1
10
51.5411924058391
20
-0.877171470336776
30
0
41
1
10
52.370168597165
20
-1.05459520460826
30
0
41
1
10
52.6475216890096
20
-1.10767834043855
30
0
41
1
10
53.2007087573642
20
-1.19879013228086
30
0
41
1
10
53.4765995583583
20
-1.23679857930321
30
0
41
1
10
53.9846885087704
20
-1.29213744675261
30
0
41
1
10
54.2169412641255
20
-1.31182074217793
30
0
41
1
10
54.449307545036
20
-1.32560810122794
30
0
0
SPLINE
5
E3
100
AcDbEntity
8
1
62
256
6
ByLayer
370
13
48
1
60
0
100
AcDbSpline
70
4
71
3
72
8
73
4
40
0
40
0
40
0
40
0
40
1
40
1
40
1
40
1
41
1
10
54.4493075448016
20
-1.32560810121402
30
0
41
1
10
54.7682281795741
20
-1.34453112775685
30
0
41
1
10
55.0873626660239
20
-1.35234779257749
30
0
41
1
10
55.4073916971385
20
-1.34836792776372
30
0
0
SPLINE
5
E4
100
AcDbEntity
8
1
62
256
6
ByLayer
370
18
48
1
60
0
100
AcDbSpline
70
4
71
3
72
70
73
66
40
0
40
0
40
0
40
0
40
0.0160495379702559
40
0.0160495379702559
40
0.040075249938823
40
0.040075249938823
40
0.0641009619073901
40
0.0641009619073901
40
0.0881266738759571
40
0.0881266738759571
40
0.112152385844524
40
0.112152385844524
40
0.160203809781658
40
0.160203809781658
40
0.184229521750225
40
0.184229521750225
40
0.208255233718791
40
0.208255233718791
40
0.256306657655926
40
0.256306657655926
40
0.30435808159306
40
0.30435808159306
40
0.328383793561627
40
0.328383793561627
40
0.352409505530194
40
0.352409505530194
40
0.400460929467328
40
0.400460929467328
40
0.424486641435894
40
0.424486641435894
40
0.448512353404461
40
0.448512353404461
40
0.472538065373028
40
0.472538065373028
40
0.496563777341595
40
0.496563777341595
40
0.544615201278731
40
0.544615201278731
40
0.592666625215866
40
0.592666625215866
40
0.640718049153001
40
0.640718049153001
40
0.66474376112157
40
0.66474376112157
40
0.688769473090139
40
0.688769473090139
40
0.712795185058708
40
0.712795185058708
40
0.736820897027276
40
0.736820897027276
40
0.784872320964414
40
0.784872320964414
40
0.808898032932981
40
0.808898032932981
40
0.832923744901549
40
0.832923744901549
40
0.880975168838687
40
0.880975168838687
40
0.929026592775824
40
0.929026592775824
40
0.953052304744393
40
0.953052304744393
40
0.977078016712962
40
0.977078016712962
40
1
40
1
40
1
40
1
41
1
10
10.5775973283813
20
1.10903045841698
30
0
41
1
10
10.6661455846256
20
1.13067272583183
30
0
41
1
10
10.7547273601534
20
1.15169971669127
30
0
41
1
10
10.9759602696728
20
1.20272107870426
30
0
41
1
10
11.1087262683075
20
1.23175863154009
30
0
41
1
10
11.3752589855474
20
1.28540187467382
30
0
41
1
10
11.508923721702
20
1.31021931771946
30
0
41
1
10
11.7767905733754
20
1.35628945683669
30
0
41
1
10
11.9105859379689
20
1.37740802066253
30
0
41
1
10
12.1771426252387
20
1.4157129044934
30
0
41
1
10
12.3099040548819
20
1.43299759591744
30
0
41
1
10
12.7082072977268
20
1.47759136040733
30
0
41
1
10
12.9734117408456
20
1.49837083472698
30
0
41
1
10
13.3699068621049
20
1.51697885665686
30
0
41
1
10
13.5017404322882
20
1.52105467749712
30
0
41
1
10
13.7655172515693
20
1.52466604120792
30
0
41
1
10
13.8975528807036
20
1.52423386194138
30
0
41
1
10
14.2938933671089
20
1.51651211625486
30
0
41
1
10
14.5582223051542
20
1.50282258650424
30
0
41
1
10
15.0868196572534
20
1.45707672968069
30
0
41
1
10
15.3524574101236
20
1.42606604089369
30
0
41
1
10
15.7522027152146
20
1.36703987911045
30
0
41
1
10
15.8856899885803
20
1.34528206417153
30
0
41
1
10
16.1530057919822
20
1.29712326597328
30
0
41
1
10
16.2865865630742
20
1.27090732938169
30
0
41
1
10
16.6866549423251
20
1.18823108911104
30
0
41
1
10
16.9526070879911
20
1.12688497415604
30
0
41
1
10
17.3497021569578
20
1.02415295935634
30
0
41
1
10
17.4816641628214
20
0.987867704833945
30
0
41
1
10
17.7458671751875
20
0.913657899860851
30
0
41
1
10
17.8780402887809
20
0.875607691359789
30
0
41
1
10
18.1422892720835
20
0.797119559005694
30
0
41
1
10
18.2743458108238
20
0.756628533841621
30
0
41
1
10
18.5383363050673
20
0.673141640680939
30
0
41
1
10
18.6701270620692
20
0.629760113577873
30
0
41
1
10
19.0660082621715
20
0.497574361310427
30
0
41
1
10
19.331018535132
20
0.408001910567862
30
0
41
1
10
19.8619039113858
20
0.22238038673575
30
0
41
1
10
20.1275189976968
20
0.125295297448133
30
0
41
1
10
20.6628830540513
20
-0.0656494420199465
30
0
41
1
10
20.9305864643537
20
-0.160502798784933
30
0
41
1
10
21.3303518496346
20
-0.303392363636931
30
0
41
1
10
21.4634815848041
20
-0.3508119780725
30
0
41
1
10
21.7302623319051
20
-0.443140324080218
30
0
41
1
10
21.8638057771574
20
-0.48835297618615
30
0
41
1
10
22.1309085585311
20
-0.577667107238653
30
0
41
1
10
22.2645044424099
20
-0.621669274822494
30
0
41
1
10
22.5317145829081
20
-0.70851044421488
30
0
41
1
10
22.6653152157334
20
-0.751618606709911
30
0
41
1
10
23.0661992958862
20
-0.875196731265106
30
0
41
1
10
23.3334865680599
20
-0.951374359155011
30
0
41
1
10
23.7335833144034
20
-1.05844803639351
30
0
41
1
10
23.8666828652672
20
-1.09315099326565
30
0
41
1
10
24.1332807118698
20
-1.1586486514133
30
0
41
1
10
24.2668340785221
20
-1.18937117550408
30
0
41
1
10
24.6679894210599
20
-1.27612200807184
30
0
41
1
10
24.9359981209075
20
-1.32717941725266
30
0
41
1
10
25.4675717246847
20
-1.41377337854331
30
0
41
1
10
25.7330961402471
20
-1.44779662686656
30
0
41
1
10
26.1301574487619
20
-1.48671717343237
30
0
41
1
10
26.2623413250241
20
-1.49760909454736
30
0
41
1
10
26.5261727765239
20
-1.51518666791131
30
0
41
1
10
26.6580086302492
20
-1.52173820636798
30
0
41
1
10
26.916032141385
20
-1.53011812987953
30
0
41
1
10
27.0420873911529
20
-1.5322339127591
30
0
41
1
10
27.1681694000751
20
-1.53234767161109
30
0
0
SPLINE
5
E5
100
AcDbEntity
8
1
62
256
6
ByLayer
370
18
48
1
60
0
100
AcDbSpline
70
4
71
3
72
10
73
6
40
0
40
0
40
0
40
0
40
0.23026240100725
40
0.23026240100725
40
1
40
1
40
1
40
1
41
1
10
36.3019467620006
20
0.833410585424389
30
0
41
1
10
36.311203045924
20
0.836206735941431
30
0
41
1
10
36.3204596729717
20
0.838998053783484
30
0
41
1
10
36.3606613956926
20
0.851099704941504
30
0
41
1
10
36.3916116211736
20
0.860356266774545
30
0
41
1
10
36.4225661787208
20
0.869556456936692
30
0
0
SPLINE
5
E6
100
AcDbEntity
8
1
62
256
6
ByLayer
370
18
48
1
60
0
100
AcDbSpline
70
4
71
3
72
70
73
66
40
0
40
0
40
0
40
0
40
0.0363306571974294
40
0.0363306571974294
40
0.0603240154972161
40
0.0603240154972161
40
0.0843173737970027
40
0.0843173737970027
40
0.108310732096789
40
0.108310732096789
40
0.132304090396576
40
0.132304090396576
40
0.180290806996149
40
0.180290806996149
40
0.228277523595722
40
0.228277523595722
40
0.276264240195296
40
0.276264240195296
40
0.300257598495081
40
0.300257598495081
40
0.324250956794866
40
0.324250956794866
40
0.348244315094651
40
0.348244315094651
40
0.372237673394437
40
0.372237673394437
40
0.420224389994008
40
0.420224389994008
40
0.444217748293792
40
0.444217748293792
40
0.468211106593577
40
0.468211106593577
40
0.516197823193143
40
0.516197823193143
40
0.56418453979271
40
0.56418453979271
40
0.588177898092493
40
0.588177898092493
40
0.612171256392276
40
0.612171256392276
40
0.660157972991843
40
0.660157972991843
40
0.684151331291625
40
0.684151331291625
40
0.708144689591408
40
0.708144689591408
40
0.73213804789119
40
0.73213804789119
40
0.756131406190972
40
0.756131406190972
40
0.804118122790534
40
0.804118122790534
40
0.852104839390096
40
0.852104839390096
40
0.900091555989659
40
0.900091555989659
40
0.924084914289439
40
0.924084914289439
40
0.948078272589219
40
0.948078272589219
40
0.972071630888998
40
0.972071630888998
40
0.996064989188778
40
0.996064989188778
40
1
40
1
40
1
40
1
41
1
10
37.3186860495134
20
1.11641516523392
30
0
41
1
10
37.5207005947073
20
1.16638936406065
30
0
41
1
10
37.7234642928702
20
1.21264109692041
30
0
41
1
10
38.0589793302449
20
1.28329272106953
30
0
41
1
10
38.1920547998536
20
1.30985085477002
30
0
41
1
10
38.4586112261789
20
1.35817412377779
30
0
41
1
10
38.592004787455
20
1.380118940318
30
0
41
1
10
38.8587462617098
20
1.42004613559399
30
0
41
1
10
38.9920853964724
20
1.43802750710864
30
0
41
1
10
39.2587076370063
20
1.46992046069437
30
0
41
1
10
39.3918262024266
20
1.48394564424197
30
0
41
1
10
39.7920428062058
20
1.51895220459915
30
0
41
1
10
40.0601419923184
20
1.53305436317362
30
0
41
1
10
40.5937933057343
20
1.54365076875786
30
0
41
1
10
40.8595534587379
20
1.53974975805227
30
0
41
1
10
41.3931400169386
20
1.51424969654363
30
0
41
1
10
41.6604530769582
20
1.4928274655874
30
0
41
1
10
42.060946785024
20
1.44655047324906
30
0
41
1
10
42.1942953326697
20
1.42894323184768
30
0
41
1
10
42.4612114149777
20
1.39008317753664
30
0
41
1
10
42.5946856145829
20
1.36875240662411
30
0
41
1
10
42.8614101826557
20
1.32200493834537
30
0
41
1
10
42.9947055122435
20
1.29664473023323
30
0
41
1
10
43.2610389289384
20
1.24163928805615
30
0
41
1
10
43.394041298712
20
1.21189184796955
30
0
41
1
10
43.7941889540738
20
1.11875530145295
30
0
41
1
10
44.0624946381109
20
1.05051579632982
30
0
41
1
10
44.4619140313298
20
0.938422799678023
30
0
41
1
10
44.5945202472317
20
0.899082705911809
30
0
41
1
10
44.8596550671526
20
0.818899096534636
30
0
41
1
10
44.9921804585376
20
0.778063643834145
30
0
41
1
10
45.3893616782441
20
0.652724691496104
30
0
41
1
10
45.6533670153825
20
0.564719360881696
30
0
41
1
10
46.1802650649576
20
0.380796251884561
30
0
41
1
10
46.4444282462998
20
0.288403565980104
30
0
41
1
10
46.840741367522
20
0.146490016235532
30
0
41
1
10
46.9728952703329
20
0.0987317342053871
30
0
41
1
10
47.2371463854072
20
0.001790780587072
30
0
41
1
10
47.3694698998507
20
-0.0467302485127732
30
0
41
1
10
47.7676961667399
20
-0.190398496172776
30
0
41
1
10
48.0349162092772
20
-0.285184407228826
30
0
41
1
10
48.4352543765824
20
-0.426951314579952
30
0
41
1
10
48.5681836595829
20
-0.474056720855458
30
0
41
1
10
48.8339994969517
20
-0.565053865133621
30
0
41
1
10
48.9667959251303
20
-0.609253760347912
30
0
41
1
10
49.2319086333078
20
-0.695888597075424
30
0
41
1
10
49.3642315605072
20
-0.738296633591347
30
0
41
1
10
49.6283939717855
20
-0.82128730402664
30
0
41
1
10
49.760075397299
20
-0.862239135867583
30
0
41
1
10
50.1554200522181
20
-0.97976175278248
30
0
41
1
10
50.419363877466
20
-1.05128303860994
30
0
41
1
10
50.9467463345406
20
-1.18369366489853
30
0
41
1
10
51.2099557334124
20
-1.24472380610564
30
0
41
1
10
51.7393920055748
20
-1.34923778910078
30
0
41
1
10
52.0049762811779
20
-1.3940665033864
30
0
41
1
10
52.404162655882
20
-1.45017158934024
30
0
41
1
10
52.5377576361444
20
-1.46675958556287
30
0
41
1
10
52.8048300212649
20
-1.49513464907901
30
0
41
1
10
52.9382225740613
20
-1.50704549261874
30
0
41
1
10
53.2044807760514
20
-1.5265713084311
30
0
41
1
10
53.3373879420021
20
-1.5341551025202
30
0
41
1
10
53.6026388470375
20
-1.54489758918859
30
0
41
1
10
53.7349325513515
20
-1.54801790255564
30
0
41
1
10
53.8891680704747
20
-1.54896193892225
30
0
41
1
10
53.9109013468813
20
-1.54903533324423
30
0
41
1
10
53.9326363397377
20
-1.54904904199944
30
0
0
SPLINE
5
E7
100
AcDbEntity
8
1
62
256
6
ByLayer
370
18
48
1
60
0
100
AcDbSpline
70
4
71
3
72
8
73
4
40
0
40
0
40
0
40
0
40
1
40
1
40
1
40
1
41
1
10
55.3427617683761
20
0.437640043442599
30
0
41
1
10
55.3402861822505
20
0.437796482508531
30
0
41
1
10
55.3374892310538
20
0.437642453177347
30
0
41
1
10
55.3358728019153
20
0.436223523526849
30
0
0
SPLINE
5
E8
100
AcDbEntity
8
1
62
256
6
ByLayer
370
18
48
1
60
0
100
AcDbSpline
70
4
71
3
72
28
73
24
40
0
40
0
40
0
40
0
40
0.0419682341613838
40
0.0419682341613838
40
0.146102140854703
40
0.146102140854703
40
0.250236047548023
40
0.250236047548023
40
0.354369954241342
40
0.354369954241342
40
0.458503860934661
40
0.458503860934661
40
0.562637767627981
40
0.562637767627981
40
0.6667716743213
40
0.6667716743213
40
0.77090558101462
40
0.77090558101462
40
0.875039487707939
40
0.875039487707939
40
0.979173394401259
40
0.979173394401259
40
1
40
1
40
1
40
1
41
1
10
19.269670514629
20
1.31130774990214
30
0
41
1
10
19.3791796824374
20
1.3108500259535
30
0
41
1
10
19.4887576239235
20
1.30911354809592
30
0
41
1
10
19.8706667002168
20
1.29814669034135
30
0
41
1
10
20.142268664151
20
1.28149298173022
30
0
41
1
10
20.6833464268611
20
1.23396783429115
30
0
41
1
10
20.9530338860776
20
1.20365612825376
30
0
41
1
10
21.4916858766148
20
1.12801646830749
30
0
41
1
10
21.7607006892288
20
1.08269083362072
30
0
41
1
10
22.2985945163421
20
0.980371673725926
30
0
41
1
10
22.5673302062802
20
0.92362619060691
30
0
41
1
10
23.1058230211026
20
0.799026865025326
30
0
41
1
10
23.3756658787895
20
0.731172657728081
30
0
41
1
10
23.9167421488278
20
0.587451497446267
30
0
41
1
10
24.1879616604796
20
0.511468491094632
30
0
41
1
10
24.7324131206079
20
0.353628518369589
30
0
41
1
10
25.0040064229047
20
0.272122598448163
30
0
41
1
10
25.5469610543937
20
0.1072589753079
30
0
41
1
10
25.8184031244529
20
0.0241380045157769
30
0
41
1
10
26.3615547289326
20
-0.142144036501861
30
0
41
1
10
26.6333849038244
20
-0.225963892453223
30
0
41
1
10
26.959849692302
20
-0.323389094565215
30
0
41
1
10
27.0142407873394
20
-0.339518524777247
30
0
41
1
10
27.0686152303837
20
-0.355536425600803
30
0
0
SPLINE
5
E9
100
AcDbEntity
8
1
62
256
6
ByLayer
370
18
48
1
60
0
100
AcDbSpline
70
4
71
3
72
28
73
24
40
0
40
0
40
0
40
0
40
0.0496106918328467
40
0.0496106918328467
40
0.156528150748642
40
0.156528150748642
40
0.263445609664436
40
0.263445609664436
40
0.37036306858023
40
0.37036306858023
40
0.477280527496025
40
0.477280527496025
40
0.584197986411819
40
0.584197986411819
40
0.691115445327614
40
0.691115445327614
40
0.798032904243408
40
0.798032904243408
40
0.904950363159202
40
0.904950363159202
40
0.958409092617103
40
0.958409092617103
40
1
40
1
40
1
40
1
41
1
10
46.020307631869
20
1.30159093870378
30
0
41
1
10
46.1451262827536
20
1.30138364452296
30
0
41
1
10
46.2700491800563
20
1.29943569808643
30
0
41
1
10
46.6646775789292
20
1.2876136512138
30
0
41
1
10
46.9349910467497
20
1.27147193137978
30
0
41
1
10
47.4766750776113
20
1.22586662307441
30
0
41
1
10
47.7489553123145
20
1.19569131654035
30
0
41
1
10
48.2916979483275
20
1.11958623812578
30
0
41
1
10
48.5627813044163
20
1.07430433547017
30
0
41
1
10
49.1047950986271
20
0.972460954115604
30
0
41
1
10
49.3758229986546
20
0.915401303641005
30
0
41
1
10
49.9187466679911
20
0.790526352855352
30
0
41
1
10
50.1907659055205
20
0.722668507772369
30
0
41
1
10
50.7331082612749
20
0.579570427038732
30
0
41
1
10
51.0038468390662
20
0.50430615879435
30
0
41
1
10
51.5449433940092
20
0.34841543955369
30
0
41
1
10
51.8154260718106
20
0.267875612311883
30
0
41
1
10
52.3574327809341
20
0.104865977681413
30
0
41
1
10
52.6290261817229
20
0.022224181430289
30
0
41
1
10
53.0365113257491
20
-0.10215593493993
30
0
41
1
10
53.1721508773983
20
-0.143628577821175
30
0
41
1
10
53.4131479692478
20
-0.216445413944058
30
0
41
1
10
53.5185468037431
20
-0.247971825142088
30
0
41
1
10
53.6239099755194
20
-0.279160603073365
30
0
0
SPLINE
5
EA
100
AcDbEntity
8
1
62
256
6
ByLayer
370
18
48
1
60
0
100
AcDbSpline
70
4
71
3
72
8
73
4
40
0
40
0
40
0
40
0
40
1
40
1
40
1
40
1
41
1
10
54.1883922131403
20
-0.443049168911017
30
0
41
1
10
54.3009850150332
20
-0.475066164167174
30
0
41
1
10
54.4135687164855
20
-0.50665455856111
30
0
41
1
10
54.5261625031809
20
-0.537777303357984
30
0
0
SPLINE
5
EB
100
AcDbEntity
8
1
62
256
6
ByLayer
370
18
48
1
60
0
100
AcDbSpline
70
4
71
3
72
8
73
4
40
0
40
0
40
0
40
0
40
1
40
1
40
1
40
1
41
1
10
55.3180884230989
20
1.54975575363989
30
0
41
1
10
55.2978246281108
20
1.54984831496509
30
0
41
1
10
55.2775634236048
20
1.54988768626097
30
0
41
1
10
55.2573046077468
20
1.54987400285466
30
0
0
SPLINE
5
EC
100
AcDbEntity
8
1
62
256
6
ByLayer
370
18
48
1
60
0
100
AcDbSpline
70
4
71
3
72
40
73
36
40
0
40
0
40
0
40
0
40
0.0152903345222026
40
0.0152903345222026
40
0.0683972860345559
40
0.0683972860345559
40
0.121504237546909
40
0.121504237546909
40
0.227718140571616
40
0.227718140571616
40
0.333932043596323
40
0.333932043596323
40
0.387038995108677
40
0.387038995108677
40
0.440145946621032
40
0.440145946621032
40
0.493252898133387
40
0.493252898133387
40
0.546359849645741
40
0.546359849645741
40
0.599466801158096
40
0.599466801158096
40
0.65257375267045
40
0.65257375267045
40
0.758787655695159
40
0.758787655695159
40
0.811894607207515
40
0.811894607207515
40
0.865001558719871
40
0.865001558719871
40
0.918108510232226
40
0.918108510232226
40
0.971215461744582
40
0.971215461744582
40
1
40
1
40
1
40
1
41
1
10
44.0259519169578
20
-1.35073386761073
30
0
41
1
10
43.9468546845075
20
-1.3645459003607
30
0
41
1
10
43.8677895994068
20
-1.37765149242281
30
0
41
1
10
43.5143156585019
20
-1.43299046578574
30
0
41
1
10
43.2400735074815
20
-1.46731027190558
30
0
41
1
10
42.6905102510678
20
-1.51718678480034
30
0
41
1
10
42.4148655040459
20
-1.53281336199592
30
0
41
1
10
41.5905077467104
20
-1.55065153733122
30
0
41
1
10
41.0426609322562
20
-1.52382435607501
30
0
41
1
10
39.9413417188531
20
-1.39575297182452
30
0
41
1
10
39.3931674118937
20
-1.29525914833408
30
0
41
1
10
38.5688738459473
20
-1.10009587448207
30
0
41
1
10
38.2932697659983
20
-1.02746819434947
30
0
41
1
10
37.7434876224684
20
-0.870734059978503
30
0
41
1
10
37.4690732402694
20
-0.786615688059271
30
0
41
1
10
36.9199639225982
20
-0.60988486160258
30
0
41
1
10
36.6452968852056
20
-0.517214132907583
30
0
41
1
10
36.0947624955575
20
-0.325696851865814
30
0
41
1
10
35.8196982531102
20
-0.227380130752692
30
0
41
1
10
35.2704353442753
20
-0.0298814657699324
30
0
41
1
10
34.9960008377108
20
0.0695061694593164
30
0
41
1
10
34.4465165569723
20
0.266734930107816
30
0
41
1
10
34.1709022176349
20
0.364540496836668
30
0
41
1
10
33.3457183454398
20
0.648262807144334
30
0
41
1
10
32.7978846293741
20
0.825385128363791
30
0
41
1
10
31.9719805519642
20
1.05435294845193
30
0
41
1
10
31.6966015389377
20
1.12451602171842
30
0
41
1
10
31.1472628917108
20
1.24986768881325
30
0
41
1
10
30.8728234465026
20
1.30499388123889
30
0
41
1
10
30.3233403048513
20
1.39848454597637
30
0
41
1
10
30.047715672332
20
1.4367651585251
30
0
41
1
10
29.497318133524
20
1.49480506154489
30
0
41
1
10
29.2227043324147
20
1.51460152798137
30
0
41
1
10
28.7992880894633
20
1.53043814725592
30
0
41
1
10
28.6504491227487
20
1.53320024752287
30
0
41
1
10
28.5015095302032
20
1.53314867164153
30
0
0
SPLINE
5
ED
100
AcDbEntity
8
1
62
256
6
ByLayer
370
18
48
1
60
0
100
AcDbSpline
70
4
71
3
72
32
73
28
40
0
40
0
40
0
40
0
40
0.101426340508057
40
0.101426340508057
40
0.157587194226303
40
0.157587194226303
40
0.213748047944548
40
0.213748047944548
40
0.32606975538104
40
0.32606975538104
40
0.382230609099285
40
0.382230609099285
40
0.438391462817531
40
0.438391462817531
40
0.550713170254023
40
0.550713170254023
40
0.663034877690516
40
0.663034877690516
40
0.719195731408763
40
0.719195731408763
40
0.77535658512701
40
0.77535658512701
40
0.831517438845257
40
0.831517438845257
40
0.887678292563505
40
0.887678292563505
40
1
40
1
40
1
40
1
41
1
10
17.2375104805763
20
-1.34104614071129
30
0
41
1
10
16.7402440182499
20
-1.42576097238452
30
0
41
1
10
16.2448051464361
20
-1.48260914195384
30
0
41
1
10
15.4726790755835
20
-1.52289115365278
30
0
41
1
10
15.1967701793188
20
-1.52775374891832
30
0
41
1
10
14.6465486197665
20
-1.51832634790202
30
0
41
1
10
14.3718211170867
20
-1.50409850890733
30
0
41
1
10
13.5472439122857
20
-1.43354124592616
30
0
41
1
10
12.9954389841507
20
-1.34872381937933
30
0
41
1
10
12.1708127894267
20
-1.17522917303901
30
0
41
1
10
11.8961117273692
20
-1.10965840049272
30
0
41
1
10
11.3457929838751
20
-0.965339978809197
30
0
41
1
10
11.0698062621097
20
-0.886450743273372
30
0
41
1
10
10.244117681468
20
-0.635702516011548
30
0
41
1
10
9.69557084120117
20
-0.448609423124196
30
0
41
1
10
8.5925160244152
20
-0.0603249385349613
30
0
41
1
10
8.04361533008546
20
0.13943935879081
30
0
41
1
10
7.21803532515813
20
0.426750092710961
30
0
41
1
10
6.9419623403746
20
0.52066662024825
30
0
41
1
10
6.39142959372799
20
0.700494149660358
30
0
41
1
10
6.11667542442339
20
0.786347703784372
30
0
41
1
10
5.56700431402689
20
0.947080380935375
30
0
41
1
10
5.29210487085811
20
1.02200776058476
30
0
41
1
10
4.74113763029743
20
1.15861310988038
30
0
41
1
10
4.46531635728195
20
1.22004605145469
30
0
41
1
10
3.64024714798859
20
1.37960618175316
30
0
41
1
10
3.09150455141224
20
1.45360436868623
30
0
41
1
10
2.54000608244175
20
1.49016798435016
30
0
0
LINE
5
76
100
AcDbEntity
8
81
62
256
6
ByLayer
370
18
48
1
60
0
100
AcDbLine
10
55.94
20
0
30
0
11
60.94
21
0
31
0
39
0
210
0
220
0
230
1
0
LINE
5
77
100
AcDbEntity
8
1
62
256
6
ByLayer
370
18
48
1
60
0
100
AcDbLine
10
2.542199
20
1.516927
30
0
11
0.1
21
1.515401
31
0
39
0
210
0
220
0
230
1
0
LINE
5
79
100
AcDbEntity
8
1
62
256
6
ByLayer
370
18
48
1
60
0
100
AcDbLine
10
7.370119
20
1.519945
30
0
11
5.971223
21
1.51907
31
0
39
0
210
0
220
0
230
1
0
LINE
5
7A
100
AcDbEntity
8
1
62
256
6
ByLayer
370
18
48
1
60
0
100
AcDbLine
10
15.118565
20
1.524787
30
0
11
13.787537
21
1.523955
31
0
39
0
210
0
220
0
230
1
0
LINE
5
7B
100
AcDbEntity
8
1
62
256
6
ByLayer
370
18
48
1
60
0
100
AcDbLine
10
20.74542
20
1.528304
30
0
11
19.370722
21
1.527445
31
0
39
0
210
0
220
0
230
1
0
LINE
5
7C
100
AcDbEntity
8
1
62
256
6
ByLayer
370
18
48
1
60
0
100
AcDbLine
10
28.49815
20
1.53315
30
0
11
27.168534
21
1.532319
31
0
39
0
210
0
220
0
230
1
0
LINE
5
7D
100
AcDbEntity
8
1
62
256
6
ByLayer
370
18
48
1
60
0
100
AcDbLine
10
34.122203
20
1.536665
30
0
11
32.771125
21
1.53582
31
0
39
0
210
0
220
0
230
1
0
LINE
5
7E
100
AcDbEntity
8
1
62
256
6
ByLayer
370
18
48
1
60
0
100
AcDbLine
10
41.878126
20
1.541512
30
0
11
40.551069
21
1.540683
31
0
39
0
210
0
220
0
230
1
0
LINE
5
7F
100
AcDbEntity
8
1
62
256
6
ByLayer
370
18
48
1
60
0
100
AcDbLine
10
47.498061
20
1.545024
30
0
11
46.169199
21
1.544194
31
0
39
0
210
0
220
0
230
1
0
LINE
5
80
100
AcDbEntity
8
1
62
256
6
ByLayer
370
18
48
1
60
0
100
AcDbLine
10
55.257947
20
1.549874
30
0
11
53.932374
21
1.549046
31
0
39
0
210
0
220
0
230
1
0
LINE
5
81
100
AcDbEntity
8
1
62
256
6
ByLayer
370
18
48
1
60
0
100
AcDbLine
10
53.932374
20
-1.549046
30
0
11
55.25798
21
-1.549874
31
0
39
0
210
0
220
0
230
1
0
LINE
5
82
100
AcDbEntity
8
1
62
256
6
ByLayer
370
18
48
1
60
0
100
AcDbLine
10
46.169199
20
-1.544194
30
0
11
47.498061
21
-1.545024
31
0
39
0
210
0
220
0
230
1
0
LINE
5
83
100
AcDbEntity
8
1
62
256
6
ByLayer
370
18
48
1
60
0
100
AcDbLine
10
40.551069
20
-1.540683
30
0
11
41.877889
21
-1.541512
31
0
39
0
210
0
220
0
230
1
0
LINE
5
84
100
AcDbEntity
8
1
62
256
6
ByLayer
370
18
48
1
60
0
100
AcDbLine
10
32.771125
20
-1.53582
30
0
11
34.122203
21
-1.536665
31
0
39
0
210
0
220
0
230
1
0
LINE
5
85
100
AcDbEntity
8
1
62
256
6
ByLayer
370
18
48
1
60
0
100
AcDbLine
10
27.168534
20
-1.532319
30
0
11
28.49845
21
-1.53315
31
0
39
0
210
0
220
0
230
1
0
LINE
5
86
100
AcDbEntity
8
1
62
256
6
ByLayer
370
18
48
1
60
0
100
AcDbLine
10
19.370722
20
-1.527445
30
0
11
20.74542
21
-1.528304
31
0
39
0
210
0
220
0
230
1
0
LINE
5
87
100
AcDbEntity
8
1
62
256
6
ByLayer
370
18
48
1
60
0
100
AcDbLine
10
13.787537
20
-1.523955
30
0
11
15.118493
21
-1.524787
31
0
39
0
210
0
220
0
230
1
0
LINE
5
88
100
AcDbEntity
8
1
62
256
6
ByLayer
370
18
48
1
60
0
100
AcDbLine
10
5.971223
20
-1.51907
30
0
11
7.370119
21
-1.519945
31
0
39
0
210
0
220
0
230
1
0
LINE
5
89
100
AcDbEntity
8
1
62
256
6
ByLayer
370
18
48
1
60
0
100
AcDbLine
10
0.1
20
-1.515401
30
0
11
2.542199
21
-1.516927
31
0
39
0
210
0
220
0
230
1
0
LINE
5
8A
100
AcDbEntity
8
1
62
256
6
ByLayer
370
18
48
1
60
0
100
AcDbLine
10
0
20
-1.55
30
0
11
0.1
21
-1.515401
31
0
39
0
210
0
220
0
230
1
0
LINE
5
8B
100
AcDbEntity
8
1
62
256
6
ByLayer
370
18
48
1
60
0
100
AcDbLine
10
0.1
20
1.515401
30
0
11
0
21
1.55
31
0
39
0
210
0
220
0
230
1
0
LINE
5
8C
100
AcDbEntity
8
SK1
62
256
6
ByLayer
370
18
48
1
60
0
100
AcDbLine
10
-43.750092
20
1.55
30
0
11
-44.06
21
1.240092
31
0
39
0
210
0
220
0
230
1
0
LINE
5
8E
100
AcDbEntity
8
SK1
62
256
6
ByLayer
370
18
48
1
60
0
100
AcDbLine
10
-44.06
20
-1.240092
30
0
11
-43.750092
21
-1.55
31
0
39
0
210
0
220
0
230
1
0
LINE
5
8F
100
AcDbEntity
8
SK1
62
256
6
ByLayer
370
18
48
1
60
0
100
AcDbLine
10
0
20
1.55
30
0
11
-43.750092
21
1.55
31
0
39
0
210
0
220
0
230
1
0
LINE
5
90
100
AcDbEntity
8
SK1
62
256
6
ByLayer
370
18
48
1
60
0
100
AcDbLine
10
-43.750092
20
-1.55
30
0
11
0
21
-1.55
31
0
39
0
210
0
220
0
230
1
0
LINE
5
91
100
AcDbEntity
8
SK4
62
256
6
ByLayer
370
18
48
0.05
60
0
100
AcDbLine
10
60.94
20
0
30
0
11
-49.06
21
0
31
0
39
0
210
0
220
0
230
1
0
LINE
5
93
100
AcDbEntity
8
4
62
256
6
ByLayer
370
18
48
0.05
60
0
100
AcDbLine
10
55.94
20
0
30
0
11
0
21
0
31
0
39
0
210
0
220
0
230
1
0
LINE
5
95
100
AcDbEntity
8
80
62
256
6
ByLayer
370
18
48
1
60
0
100
AcDbLine
10
0
20
0
30
0
11
-5
21
0
31
0
39
0
210
0
220
0
230
1
0
LINE
5
96
100
AcDbEntity
8
1
62
256
6
ByLayer
370
18
48
1
60
0
100
AcDbLine
10
0
20
-1.55
30
0
11
0
21
1.55
31
0
39
0
210
0
220
0
230
1
0
LINE
5
97
100
AcDbEntity
8
1
62
256
6
ByLayer
370
13
48
1
60
0
100
AcDbLine
10
55.299868
20
0.385965
30
0
11
55.915914
21
-0.00873
31
0
39
0
210
0
220
0
230
1
0
LINE
5
98
100
AcDbEntity
8
1
62
256
6
ByLayer
370
13
48
1
60
0
100
AcDbLine
10
55.342762
20
0.43764
30
0
11
55.936946
21
0.056952
31
0
39
0
210
0
220
0
230
1
0
LINE
5
99
100
AcDbEntity
8
1
62
256
6
ByLayer
370
18
48
1
60
0
100
AcDbLine
10
0.1
20
1.515401
30
0
11
0.1
21
-1.515401
31
0
39
0
210
0
220
0
230
1
0
LINE
5
9A
100
AcDbEntity
8
SK1
62
256
6
ByLayer
370
18
48
1
60
0
100
AcDbLine
10
0
20
-1.55
30
0
11
0
21
1.55
31
0
39
0
210
0
220
0
230
1
0
LINE
5
9B
100
AcDbEntity
8
SK1
62
256
6
ByLayer
370
18
48
1
60
0
100
AcDbLine
10
-43.750092
20
1.55
30
0
11
-43.750092
21
-1.55
31
0
39
0
210
0
220
0
230
1
0
LINE
5
9C
100
AcDbEntity
8
SK1
62
256
6
ByLayer
370
18
48
1
60
0
100
AcDbLine
10
-44.06
20
1.240092
30
0
11
-44.06
21
-1.240092
31
0
39
0
210
0
220
0
230
1
0
MTEXT
5
EE
100
AcDbEntity
8
SK6
62
256
6
ByLayer
370
13
48
1
60
0
100
AcDbMText
10
8.069169
20
33.932694
30
0
210
0
220
0
230
1
1
\W0.7338;452.1-0310-045A0-CM H10F
40
3.5
41
0
44
1.084337
50
0
71
8
72
5
7
iso_b_vert
0
DIMENSION
5
FB
100
AcDbEntity
8
SK2
62
256
6
ByLayer
370
13
48
1
60
0
100
AcDbDimension
2
DimnDraft3D1
10
55.458879
20
-33.263398
30
0
11
26.738938
21
-33.263398
31
0
70
32
71
5
72
1
41
1
210
0
220
0
230
1
3
Standard
100
AcDbAlignedDimension
13
0
23
-1.5875
33
0
14
55.458879
24
-3.1375
34
0
50
0
100
AcDbRotatedDimension
1001
ACAD
1000
DSTYLE
1002
{
1070
   279
1070
     0
1070
   172
1070
     1
1070
   173
1070
     1
1070
   340
1005
EF
1070
   271
1070
     2
1070
   272
1070
     2
1070
    77
1070
     1
1070
    73
1070
     0
1070
   171
1070
     3
1070
   274
1070
     4
1070
   177
1070
    35
1070
   176
1070
    35
1070
   178
1070
    35
1070
    48
1040
-0.005
1070
    41
1041
3.5
1070
   147
1041
1.75
1070
    42
1041
1.5875
1070
    44
1041
2.0
1070
   140
1041
3.5
1070
   343
1005
0
1070
   344
1005
0
1002
}
0
DIMENSION
5
105
100
AcDbEntity
8
SK2
62
256
6
ByLayer
370
13
48
1
60
0
100
AcDbDimension
2
DimnDraft3D2
10
55.94
20
-50.242985
30
0
11
6.800179
21
-50.242985
31
0
70
32
71
5
72
1
41
1
210
0
220
0
230
1
3
Standard
100
AcDbAlignedDimension
13
-44.06
23
-3.1375
33
0
14
55.94
24
-1.5875
34
0
50
0
100
AcDbRotatedDimension
1001
ACAD
1000
DSTYLE
1002
{
1070
   279
1070
     0
1070
   172
1070
     1
1070
   173
1070
     1
1070
   340
1005
EF
1070
   271
1070
     2
1070
   272
1070
     2
1070
    77
1070
     1
1070
    73
1070
     0
1070
   171
1070
     3
1070
   274
1070
     4
1070
   177
1070
    35
1070
   176
1070
    35
1070
   178
1070
    35
1070
    48
1040
-0.005
1070
    41
1041
3.5
1070
   147
1041
1.75
1070
    42
1041
1.5875
1070
    44
1041
2.0
1070
   140
1041
3.5
1070
   343
1005
0
1070
   344
1005
0
1002
}
0
DIMENSION
5
10F
100
AcDbEntity
8
SK2
62
256
6
ByLayer
370
13
48
1
60
0
100
AcDbDimension
2
DimnDraft3D3
10
55.94
20
-22.940881
30
0
11
33.44
21
-22.940881
31
0
70
32
71
5
72
1
41
1
210
0
220
0
230
1
3
Standard
100
AcDbAlignedDimension
13
10.94
23
-3.1375
33
0
14
55.94
24
-1.5875
34
0
50
0
100
AcDbRotatedDimension
1001
ACAD
1000
DSTYLE
1002
{
1070
   279
1070
     0
1070
   172
1070
     1
1070
   173
1070
     1
1070
   340
1005
EF
1070
   271
1070
     2
1070
   272
1070
     2
1070
    77
1070
     1
1070
    73
1070
     0
1070
   171
1070
     3
1070
   274
1070
     4
1070
   177
1070
    35
1070
   176
1070
    35
1070
   178
1070
    35
1070
    48
1040
-0.005
1070
    41
1041
3.5
1070
   147
1041
1.75
1070
    42
1041
1.5875
1070
    44
1041
2.0
1070
   140
1041
3.5
1070
   343
1005
0
1070
   344
1005
0
1002
}
0
DIMENSION
5
119
100
AcDbEntity
8
SK2
62
256
6
ByLayer
370
13
48
1
60
0
100
AcDbDimension
2
DimnDraft3D4
10
55.458879
20
-10.852503
30
0
11
65.921425
21
-10.852503
31
0
70
32
71
5
72
1
41
1
210
0
220
0
230
1
3
Standard
100
AcDbAlignedDimension
13
55.94
23
-1.5875
33
0
14
55.458879
24
-10.852503
34
0
50
0
100
AcDbRotatedDimension
1001
ACAD
1000
DSTYLE
1002
{
1070
   279
1070
     0
1070
   172
1070
     1
1070
   173
1070
     1
1070
   340
1005
EF
1070
   271
1070
     2
1070
   272
1070
     2
1070
    73
1070
     0
1070
   171
1070
     3
1070
   274
1070
     4
1070
   177
1070
    35
1070
   176
1070
    35
1070
   178
1070
    35
1070
    48
1040
-0.005
1070
    41
1041
3.5
1070
   147
1041
1.75
1070
    42
1041
1.5875
1070
    44
1041
2.0
1070
   140
1041
3.5
1070
   343
1005
0
1070
   344
1005
0
1002
}
0
DIMENSION
5
123
100
AcDbEntity
8
SK2
62
256
6
ByLayer
370
13
48
1
60
0
100
AcDbDimension
2
DimnDraft3D5
10
55.458879
20
-41.893428
30
0
11
3.719555
21
-41.893428
31
0
70
32
71
5
72
1
41
1
210
0
220
0
230
1
3
Standard
100
AcDbAlignedDimension
13
-44.06
23
-3.1375
33
0
14
55.458879
24
-3.1375
34
0
50
0
100
AcDbRotatedDimension
1001
ACAD
1000
DSTYLE
1002
{
1070
   279
1070
     0
1070
   172
1070
     1
1070
   173
1070
     1
1070
   340
1005
EF
1070
   271
1070
     2
1070
   272
1070
     2
1070
    77
1070
     1
1070
    73
1070
     0
1070
   171
1070
     3
1070
   274
1070
     4
1070
   177
1070
    35
1070
   176
1070
    35
1070
   178
1070
    35
1070
    48
1040
-0.005
1070
    41
1041
3.5
1070
   147
1041
1.75
1070
    42
1041
1.5875
1070
    44
1041
2.0
1070
   140
1041
3.5
1070
   343
1005
0
1070
   344
1005
0
1002
}
0
DIMENSION
5
12E
100
AcDbEntity
8
SK2
62
256
6
ByLayer
370
13
48
1
60
0
100
AcDbDimension
2
DimnDraft3D6
10
-56.435163
20
1.55
30
0
11
-52.685163
21
20.02418
31
0
70
33
71
5
72
1
41
1
210
0
220
0
230
1
3
Standard
100
AcDbAlignedDimension
13
-45.6475
23
-1.55
33
0
14
-45.6475
24
1.55
34
0
1001
ACAD
1000
DSTYLE
1002
{
1070
   279
1070
     0
1070
    74
1070
     0
1070
   173
1070
     1
1070
   340
1005
EF
1070
   271
1070
     3
1070
   272
1070
     2
1070
    73
1070
     0
1070
   171
1070
     3
1070
   274
1070
     4
1070
   177
1070
    35
1070
   176
1070
    35
1070
   178
1070
    35
1070
    48
1040
-0.005
1070
    41
1041
3.5
1070
   147
1041
1.75
1070
    42
1041
1.5875
1070
    44
1041
2.0
1070
   140
1041
3.5
1070
   343
1005
0
1070
   344
1005
0
1002
}
0
DIMENSION
5
139
100
AcDbEntity
8
2
62
256
6
ByLayer
370
13
48
1
60
0
100
AcDbDimension
2
DimnDraft3D7
10
68.273343
20
1.55
30
0
11
68.023343
21
18.617266
31
0
70
33
71
5
72
1
41
1
210
0
220
0
230
1
3
Standard
100
AcDbAlignedDimension
13
57.046379
23
-1.55
33
0
14
57.046379
24
1.55
34
0
1001
ACAD
1000
DSTYLE
1002
{
1070
   279
1070
     0
1070
    74
1070
     0
1070
   173
1070
     1
1070
   340
1005
EF
1070
   271
1070
     3
1070
   272
1070
     2
1070
    73
1070
     0
1070
   171
1070
     3
1070
   274
1070
     4
1070
   177
1070
    35
1070
   176
1070
    35
1070
   178
1070
    35
1070
    48
1040
-0.005
1070
    41
1041
3.5
1070
   147
1041
1.75
1070
    42
1041
1.5875
1070
    44
1041
2.0
1070
   140
1041
3.5
1070
   343
1005
0
1070
   344
1005
0
1002
}
0
ENDSEC
0
SECTION
2
OBJECTS
0
DICTIONARY
5
1a4
330
0
100
AcDbDictionary
280
0
281
1
3
ACAD_GROUP
350
1a5
3
ACAD_MLINESTYLE
350
1a6
0
DICTIONARY
5
1a5
330
0
100
AcDbDictionary
280
0
281
1
0
DICTIONARY
5
1a6
330
0
100
AcDbDictionary
280
0
281
1
3
Standard
350
18
0
MLINESTYLE
5
18
330
1a6
100
AcDbMlineStyle
2
Standard
70
0
3

62
256
51
90
52
90
71
2
49
-0.5
62
256
6
ByLayer
49
0.5
62
256
6
ByLayer
0
RASTERVARIABLES
5
192
330

100
AcDbRasterVariables
90
0
70
1
71
1
72
1
0
ENDSEC
0
EOF
