0
SECTION
2
HEADER
9
$ACADVER
1
AC1015
9
$DWGCODEPAGE
3
ANSI_1252
9
$HANDSEED
5
1b7
9
$ANGBASE
50
0
9
$ANGDIR
70
0
9
$ATTMODE
70
1
9
$AUNITS
70
0
9
$AUPREC
70
0
9
$CECOLOR
62
256
9
$CELTSCALE
40
1
9
$CELTYPE
6
ByLayer
9
$CELWEIGHT
370
18
9
$CLAYER
8
0
9
$CMLJUST
70
0
9
$CMLSCALE
40
1
9
$CMLSTYLE
2
Standard
9
$DIMSTYLE
2
Standard
9
$TEXTSIZE
40
0.2
9
$TEXTSTYLE
7
Standard
9
$LUNITS
70
2
9
$LUPREC
70
4
9
$EXTNAMES
290
1
9
$INSUNITS
70
4
9
$LTSCALE
40
1
9
$LWDISPLAY
290
1
9
$PDMODE
70
0
9
$PDSIZE
40
0
9
$PLINEGEN
70
0
0
ENDSEC
0
SECTION
2
CLASSES
0
CLASS
1
RASTERVARIABLES
2
AcDbRasterVariables
3
ISM
90
0
280
0
281
0
0
ENDSEC
0
SECTION
2
TABLES
0
TABLE
2
VPORT
5
1ad
100
AcDbSymbolTable
0
VPORT
5
1
100
AcDbSymbolTableRecord
100
AcDbViewportTableRecord
2
*Active
70
0
10
0
20
0
11
1
21
1
12
-1
22
1
13
0
23
0
14
0.5
24
0.5
15
10
25
10
16
0
26
0
36
1
17
0
27
0
37
0
0
ENDTAB
0
TABLE
2
LTYPE
5
1ae
100
AcDbSymbolTable
0
LTYPE
5
14
100
AcDbSymbolTableRecord
100
AcDbLinetypeTableRecord
70
0
2
ByBlock
3

72
65
73
0
40
0
0
LTYPE
5
15
100
AcDbSymbolTableRecord
100
AcDbLinetypeTableRecord
70
0
2
ByLayer
3

72
65
73
0
40
0
0
LTYPE
5
16
100
AcDbSymbolTableRecord
100
AcDbLinetypeTableRecord
70
0
2
CONTINUOUS
3
Solid line
72
65
73
0
40
0
0
LTYPE
5
6A
100
AcDbSymbolTableRecord
100
AcDbLinetypeTableRecord
70
0
2
CENTER
3
____ _ ____ _ ____ _ ____
72
65
73
4
40
47.5
49
22
74
0
49
-8.5
74
0
49
8.5
74
0
49
-8.5
74
0
0
LTYPE
5
6B
100
AcDbSymbolTableRecord
100
AcDbLinetypeTableRecord
70
0
2
DASHED
3
__ __ __ __ __ __ __ __ __
72
65
73
2
40
25.72
49
12.86
74
0
49
-12.86
74
0
0
ENDTAB
0
TABLE
2
LAYER
5
1af
100
AcDbSymbolTable
0
LAYER
5
10
100
AcDbSymbolTableRecord
100
AcDbLayerTableRecord
2
0
70
0
62
7
6
CONTINUOUS
290
1
370
-3
390
0
0
LAYER
5
6D
100
AcDbSymbolTableRecord
100
AcDbLayerTableRecord
2
81
70
0
62
-3
6
CONTINUOUS
290
1
370
-3
390
0
0
LAYER
5
6F
100
AcDbSymbolTableRecord
100
AcDbLayerTableRecord
2
80
70
0
62
-6
6
CONTINUOUS
290
1
370
-3
390
0
0
LAYER
5
74
100
AcDbSymbolTableRecord
100
AcDbLayerTableRecord
2
2
70
0
62
7
6
CONTINUOUS
290
1
370
-3
390
0
0
LAYER
5
78
100
AcDbSymbolTableRecord
100
AcDbLayerTableRecord
2
1
70
0
62
4
6
CONTINUOUS
290
1
370
-3
390
0
0
LAYER
5
8E
100
AcDbSymbolTableRecord
100
AcDbLayerTableRecord
2
4
70
0
62
-2
6
CENTER
290
1
370
-3
390
0
0
LAYER
5
199
100
AcDbSymbolTableRecord
100
AcDbLayerTableRecord
2
SK2
70
0
62
7
6
CONTINUOUS
290
1
370
-3
390
0
0
LAYER
5
19a
100
AcDbSymbolTableRecord
100
AcDbLayerTableRecord
2
SK1
70
0
62
4
6
CONTINUOUS
290
1
370
-3
390
0
0
LAYER
5
19b
100
AcDbSymbolTableRecord
100
AcDbLayerTableRecord
2
SK4
70
0
62
2
6
CENTER
290
1
370
-3
390
0
0
LAYER
5
19c
100
AcDbSymbolTableRecord
100
AcDbLayerTableRecord
2
SK6
70
0
62
5
6
CONTINUOUS
290
1
370
-3
390
0
0
ENDTAB
0
TABLE
2
STYLE
5
1b0
100
AcDbSymbolTable
0
STYLE
5
11
100
AcDbSymbolTableRecord
100
AcDbTextStyleTableRecord
2
Standard
3
txt
70
0
71
0
40
0
41
1
42
0
50
0
0
STYLE
5
F5
100
AcDbSymbolTableRecord
100
AcDbTextStyleTableRecord
2
iso_b_vert
3
simplex.shx
70
0
71
0
40
0
41
1
42
0
50
0
0
STYLE
5
F6
100
AcDbSymbolTableRecord
100
AcDbTextStyleTableRecord
2
DWGDirectTextStyle
3
simplex
70
0
71
0
40
0
41
1
42
0
50
0
0
ENDTAB
0
TABLE
2
DIMSTYLE
5
1b1
100
AcDbSymbolTable
100
AcDbDimStyleTable
0
DIMSTYLE
105
27
100
AcDbSymbolTableRecord
100
AcDbDimStyleTableRecord
2
Standard
70
0
3
<>
41
0.18
42
0.0625
44
0.18
140
0.18
147
0.09
73
0
74
0
77
1
271
2
275
0
278
52
280
0
340
11
0
ENDTAB
0
TABLE
2
VIEW
5
1b2
100
AcDbSymbolTable
0
ENDTAB
0
TABLE
2
UCS
5
1b3
100
AcDbSymbolTable
0
ENDTAB
0
TABLE
2
APPID
5
1b4
100
AcDbSymbolTable
0
APPID
5
12
100
AcDbSymbolTableRecord
100
AcDbRegAppTableRecord
2
ACAD
70
0
0
ENDTAB
0
TABLE
2
BLOCK_RECORD
5
1b5
100
AcDbSymbolTable
0
BLOCK_RECORD
5
1F
100
AcDbSymbolTableRecord
100
AcDbBlockTableRecord
2
*Model_Space
340
0
70
0
0
BLOCK_RECORD
5
1B
100
AcDbSymbolTableRecord
100
AcDbBlockTableRecord
2
*Paper_Space
340
0
70
0
0
BLOCK_RECORD
5
23
100
AcDbSymbolTableRecord
100
AcDbBlockTableRecord
2
*Paper_Space0
340
0
70
0
0
BLOCK_RECORD
5
F8
100
AcDbSymbolTableRecord
100
AcDbBlockTableRecord
2
DimnDraft3D1
340
0
70
0
0
BLOCK_RECORD
5
102
100
AcDbSymbolTableRecord
100
AcDbBlockTableRecord
2
DimnDraft3D2
340
0
70
0
0
BLOCK_RECORD
5
10C
100
AcDbSymbolTableRecord
100
AcDbBlockTableRecord
2
DimnDraft3D3
340
0
70
0
0
BLOCK_RECORD
5
116
100
AcDbSymbolTableRecord
100
AcDbBlockTableRecord
2
DimnDraft3D4
340
0
70
0
0
BLOCK_RECORD
5
120
100
AcDbSymbolTableRecord
100
AcDbBlockTableRecord
2
DimnDraft3D5
340
0
70
0
0
BLOCK_RECORD
5
12A
100
AcDbSymbolTableRecord
100
AcDbBlockTableRecord
2
DimnDraft3D6
340
0
70
0
0
BLOCK_RECORD
5
135
100
AcDbSymbolTableRecord
100
AcDbBlockTableRecord
2
DimnDraft3D7
340
0
70
0
0
ENDTAB
0
ENDSEC
0
SECTION
2
BLOCKS
0
BLOCK
5
20
100
AcDbEntity
8
0
100
AcDbBlockBegin
2
*Model_Space
70
0
10
0
20
0
30
0
3
*Model_Space
0
ENDBLK
5
21
100
AcDbEntity
8
0
100
AcDbBlockEnd
0
BLOCK
5
1C
100
AcDbEntity
8
0
100
AcDbBlockBegin
2
*Paper_Space
70
0
10
0
20
0
30
0
3
*Paper_Space
0
ENDBLK
5
1D
100
AcDbEntity
8
0
100
AcDbBlockEnd
0
BLOCK
5
24
100
AcDbEntity
8
0
100
AcDbBlockBegin
2
*Paper_Space0
70
0
10
0
20
0
30
0
3
*Paper_Space0
0
ENDBLK
5
25
100
AcDbEntity
8
0
100
AcDbBlockEnd
0
BLOCK
5
FF
100
AcDbEntity
8
0
100
AcDbBlockBegin
2
DimnDraft3D1
70
0
10
0
20
0
30
0
3
DimnDraft3D1
0
MTEXT
5
F9
100
AcDbEntity
8
SK2
62
256
6
ByLayer
370
13
48
1
60
0
100
AcDbMText
10
22.946264
20
-33.388398
30
0
210
0
220
0
230
1
1
\W0.7581;57,45
40
3.5
41
0
44
1.084337
50
0
71
7
72
5
7
iso_b_vert
0
LINE
5
FA
100
AcDbEntity
8
SK2
62
256
6
ByLayer
370
13
48
1
60
0
100
AcDbLine
10
0
20
-1.5875
30
0
11
0
21
-36.263398
31
0
39
0
210
0
220
0
230
1
0
LINE
5
FB
100
AcDbEntity
8
SK2
62
256
6
ByLayer
370
13
48
1
60
0
100
AcDbLine
10
57.4491
20
-4.1375
30
0
11
57.4491
21
-36.263398
31
0
39
0
210
0
220
0
230
1
0
LINE
5
FC
100
AcDbEntity
8
SK2
62
256
6
ByLayer
370
13
48
1
60
0
100
AcDbLine
10
0
20
-34.263398
30
0
11
57.4491
21
-34.263398
31
0
39
0
210
0
220
0
230
1
0
SOLID
5
FD
100
AcDbEntity
8
SK2
62
256
6
ByLayer
370
13
48
1
60
0
100
AcDbTrace
10
0
20
-34.263398
30
0
11
3.499998
21
-33.802615
31
0
12
3.500002
22
-34.724182
32
0
13
0
23
-34.263398
33
0
39
0
210
0
220
0
230
1
0
SOLID
5
FE
100
AcDbEntity
8
SK2
62
256
6
ByLayer
370
13
48
1
60
0
100
AcDbTrace
10
57.4491
20
-34.263398
30
0
11
53.949102
21
-34.724182
31
0
12
53.949099
22
-33.802615
32
0
13
57.4491
23
-34.263398
33
0
39
0
210
0
220
0
230
1
0
ENDBLK
5
100
100
AcDbEntity
8
0
100
AcDbBlockEnd
0
BLOCK
5
109
100
AcDbEntity
8
0
100
AcDbBlockBegin
2
DimnDraft3D2
70
0
10
0
20
0
30
0
3
DimnDraft3D2
0
MTEXT
5
103
100
AcDbEntity
8
SK2
62
256
6
ByLayer
370
13
48
1
60
0
100
AcDbMText
10
3.471321
20
-50.367985
30
0
210
0
220
0
230
1
1
\W0.6930;100,00
40
3.5
41
0
44
1.084337
50
0
71
7
72
5
7
iso_b_vert
0
LINE
5
104
100
AcDbEntity
8
SK2
62
256
6
ByLayer
370
13
48
1
60
0
100
AcDbLine
10
-41.76
20
-4.1375
30
0
11
-41.76
21
-53.242985
31
0
39
0
210
0
220
0
230
1
0
LINE
5
105
100
AcDbEntity
8
SK2
62
256
6
ByLayer
370
13
48
1
60
0
100
AcDbLine
10
58.24
20
-1.5875
30
0
11
58.24
21
-53.242985
31
0
39
0
210
0
220
0
230
1
0
LINE
5
106
100
AcDbEntity
8
SK2
62
256
6
ByLayer
370
13
48
1
60
0
100
AcDbLine
10
-41.76
20
-51.242985
30
0
11
58.24
21
-51.242985
31
0
39
0
210
0
220
0
230
1
0
SOLID
5
107
100
AcDbEntity
8
SK2
62
256
6
ByLayer
370
13
48
1
60
0
100
AcDbTrace
10
-41.76
20
-51.242985
30
0
11
-38.260002
21
-50.782202
31
0
12
-38.259998
22
-51.703769
32
0
13
-41.76
23
-51.242985
33
0
39
0
210
0
220
0
230
1
0
SOLID
5
108
100
AcDbEntity
8
SK2
62
256
6
ByLayer
370
13
48
1
60
0
100
AcDbTrace
10
58.24
20
-51.242985
30
0
11
54.740002
21
-51.703769
31
0
12
54.739998
22
-50.782202
32
0
13
58.24
23
-51.242985
33
0
39
0
210
0
220
0
230
1
0
ENDBLK
5
10A
100
AcDbEntity
8
0
100
AcDbBlockEnd
0
BLOCK
5
113
100
AcDbEntity
8
0
100
AcDbBlockBegin
2
DimnDraft3D3
70
0
10
0
20
0
30
0
3
DimnDraft3D3
0
MTEXT
5
10D
100
AcDbEntity
8
SK2
62
256
6
ByLayer
370
13
48
1
60
0
100
AcDbMText
10
31.107105
20
-23.065881
30
0
210
0
220
0
230
1
1
\W0.7581;45,00
40
3.5
41
0
44
1.084337
50
0
71
7
72
5
7
iso_b_vert
0
LINE
5
10E
100
AcDbEntity
8
SK2
62
256
6
ByLayer
370
13
48
1
60
0
100
AcDbLine
10
13.24
20
-4.1375
30
0
11
13.24
21
-25.940881
31
0
39
0
210
0
220
0
230
1
0
LINE
5
10F
100
AcDbEntity
8
SK2
62
256
6
ByLayer
370
13
48
1
60
0
100
AcDbLine
10
58.24
20
-1.5875
30
0
11
58.24
21
-25.940881
31
0
39
0
210
0
220
0
230
1
0
LINE
5
110
100
AcDbEntity
8
SK2
62
256
6
ByLayer
370
13
48
1
60
0
100
AcDbLine
10
13.24
20
-23.940881
30
0
11
58.24
21
-23.940881
31
0
39
0
210
0
220
0
230
1
0
SOLID
5
111
100
AcDbEntity
8
SK2
62
256
6
ByLayer
370
13
48
1
60
0
100
AcDbTrace
10
13.24
20
-23.940881
30
0
11
16.739998
21
-23.480097
31
0
12
16.740002
22
-24.401665
32
0
13
13.24
23
-23.940881
33
0
39
0
210
0
220
0
230
1
0
SOLID
5
112
100
AcDbEntity
8
SK2
62
256
6
ByLayer
370
13
48
1
60
0
100
AcDbTrace
10
58.24
20
-23.940881
30
0
11
54.740002
21
-24.401665
31
0
12
54.739998
22
-23.480097
32
0
13
58.24
23
-23.940881
33
0
39
0
210
0
220
0
230
1
0
ENDBLK
5
114
100
AcDbEntity
8
0
100
AcDbBlockEnd
0
BLOCK
5
11D
100
AcDbEntity
8
0
100
AcDbBlockBegin
2
DimnDraft3D4
70
0
10
0
20
0
30
0
3
DimnDraft3D4
0
MTEXT
5
117
100
AcDbEntity
8
SK2
62
256
6
ByLayer
370
13
48
1
60
0
100
AcDbMText
10
69.096425
20
-14.477503
30
0
210
0
220
0
230
1
1
\W0.7259;0,79
40
3.5
41
0
44
1.084337
50
0
71
7
72
5
7
iso_b_vert
0
LINE
5
118
100
AcDbEntity
8
SK2
62
256
6
ByLayer
370
13
48
1
60
0
100
AcDbLine
10
58.24
20
-1.5875
30
0
11
58.24
21
-13.852503
31
0
39
0
210
0
220
0
230
1
0
LINE
5
119
100
AcDbEntity
8
SK2
62
256
6
ByLayer
370
13
48
1
60
0
100
AcDbLine
10
57.4491
20
-4.1375
30
0
11
57.4491
21
-13.852503
31
0
39
0
210
0
220
0
230
1
0
LINE
5
11A
100
AcDbEntity
8
SK2
62
256
6
ByLayer
370
13
48
1
60
0
100
AcDbLine
10
48.6991
20
-11.852503
30
0
11
66.721425
21
-11.852503
31
0
39
0
210
0
220
0
230
1
0
SOLID
5
11B
100
AcDbEntity
8
SK2
62
256
6
ByLayer
370
13
48
1
60
0
100
AcDbTrace
10
58.24
20
-11.852503
30
0
11
61.739998
21
-11.391719
31
0
12
61.740002
22
-12.313287
32
0
13
58.24
23
-11.852503
33
0
39
0
210
0
220
0
230
1
0
SOLID
5
11C
100
AcDbEntity
8
SK2
62
256
6
ByLayer
370
13
48
1
60
0
100
AcDbTrace
10
57.4491
20
-11.852503
30
0
11
53.949102
21
-12.313287
31
0
12
53.949099
22
-11.391719
32
0
13
57.4491
23
-11.852503
33
0
39
0
210
0
220
0
230
1
0
ENDBLK
5
11E
100
AcDbEntity
8
0
100
AcDbBlockEnd
0
BLOCK
5
127
100
AcDbEntity
8
0
100
AcDbBlockBegin
2
DimnDraft3D5
70
0
10
0
20
0
30
0
3
DimnDraft3D5
0
MTEXT
5
121
100
AcDbEntity
8
SK2
62
256
6
ByLayer
370
13
48
1
60
0
100
AcDbMText
10
1.698592
20
-42.018428
30
0
210
0
220
0
230
1
1
\W0.7211;99,21
40
3.5
41
0
44
1.084337
50
0
71
7
72
5
7
iso_b_vert
0
LINE
5
122
100
AcDbEntity
8
SK2
62
256
6
ByLayer
370
13
48
1
60
0
100
AcDbLine
10
-41.76
20
-4.1375
30
0
11
-41.76
21
-44.893428
31
0
39
0
210
0
220
0
230
1
0
LINE
5
123
100
AcDbEntity
8
SK2
62
256
6
ByLayer
370
13
48
1
60
0
100
AcDbLine
10
57.4491
20
-4.1375
30
0
11
57.4491
21
-44.893428
31
0
39
0
210
0
220
0
230
1
0
LINE
5
124
100
AcDbEntity
8
SK2
62
256
6
ByLayer
370
13
48
1
60
0
100
AcDbLine
10
-41.76
20
-42.893428
30
0
11
57.4491
21
-42.893428
31
0
39
0
210
0
220
0
230
1
0
SOLID
5
125
100
AcDbEntity
8
SK2
62
256
6
ByLayer
370
13
48
1
60
0
100
AcDbTrace
10
-41.76
20
-42.893428
30
0
11
-38.260002
21
-42.432645
31
0
12
-38.259998
22
-43.354212
32
0
13
-41.76
23
-42.893428
33
0
39
0
210
0
220
0
230
1
0
SOLID
5
126
100
AcDbEntity
8
SK2
62
256
6
ByLayer
370
13
48
1
60
0
100
AcDbTrace
10
57.4491
20
-42.893428
30
0
11
53.949102
21
-43.354212
31
0
12
53.949099
22
-42.432645
32
0
13
57.4491
23
-42.893428
33
0
39
0
210
0
220
0
230
1
0
ENDBLK
5
128
100
AcDbEntity
8
0
100
AcDbBlockEnd
0
BLOCK
5
132
100
AcDbEntity
8
0
100
AcDbBlockBegin
2
DimnDraft3D6
70
0
10
0
20
0
30
0
3
DimnDraft3D6
0
MTEXT
5
12B
100
AcDbEntity
8
SK2
62
256
6
ByLayer
370
13
48
1
60
0
100
AcDbMText
10
-49.510163
20
21.89918
30
0
210
0
220
0
230
1
1
\W0.6713;5,100
40
3.5
41
0
44
1.084337
50
90
71
7
72
5
7
iso_b_vert
0
MTEXT
5
12C
100
AcDbEntity
8
SK2
62
256
6
ByLayer
370
13
48
1
60
0
100
AcDbMText
10
-49.510163
20
16.676524
30
0
210
0
220
0
230
1
1
%%c
40
3.5
41
0
44
1.084337
50
90
71
7
72
5
7
iso_b_vert
0
LINE
5
12D
100
AcDbEntity
8
SK2
62
256
6
ByLayer
370
13
48
1
60
0
100
AcDbLine
10
-43.3475
20
-2.55
30
0
11
-54.135163
21
-2.55
31
0
39
0
210
0
220
0
230
1
0
LINE
5
12E
100
AcDbEntity
8
SK2
62
256
6
ByLayer
370
13
48
1
60
0
100
AcDbLine
10
-43.3475
20
2.55
30
0
11
-54.135163
21
2.55
31
0
39
0
210
0
220
0
230
1
0
LINE
5
12F
100
AcDbEntity
8
SK2
62
256
6
ByLayer
370
13
48
1
60
0
100
AcDbLine
10
-52.135163
20
12.52418
30
0
11
-52.135163
21
-11.3
31
0
39
0
210
0
220
0
230
1
0
SOLID
5
130
100
AcDbEntity
8
SK2
62
256
6
ByLayer
370
13
48
1
60
0
100
AcDbTrace
10
-52.135163
20
-2.55
30
0
11
-51.674379
21
-6.049998
31
0
12
-52.595946
22
-6.050002
32
0
13
-52.135163
23
-2.55
33
0
39
0
210
0
220
0
230
1
0
SOLID
5
131
100
AcDbEntity
8
SK2
62
256
6
ByLayer
370
13
48
1
60
0
100
AcDbTrace
10
-52.135163
20
2.55
30
0
11
-52.595946
21
6.049998
31
0
12
-51.674379
22
6.050002
32
0
13
-52.135163
23
2.55
33
0
39
0
210
0
220
0
230
1
0
ENDBLK
5
133
100
AcDbEntity
8
0
100
AcDbBlockEnd
0
BLOCK
5
13D
100
AcDbEntity
8
0
100
AcDbBlockBegin
2
DimnDraft3D7
70
0
10
0
20
0
30
0
3
DimnDraft3D7
0
MTEXT
5
136
100
AcDbEntity
8
2
62
256
6
ByLayer
370
13
48
1
60
0
100
AcDbMText
10
71.198343
20
20.492266
30
0
210
0
220
0
230
1
1
\W0.6713;5,100
40
3.5
41
0
44
1.084337
50
90
71
7
72
5
7
iso_b_vert
0
MTEXT
5
137
100
AcDbEntity
8
2
62
256
6
ByLayer
370
13
48
1
60
0
100
AcDbMText
10
71.198343
20
15.26961
30
0
210
0
220
0
230
1
1
%%c
40
3.5
41
0
44
1.084337
50
90
71
7
72
5
7
iso_b_vert
0
LINE
5
138
100
AcDbEntity
8
2
62
256
6
ByLayer
370
13
48
1
60
0
100
AcDbLine
10
59.0366
20
-2.55
30
0
11
70.573343
21
-2.55
31
0
39
0
210
0
220
0
230
1
0
LINE
5
139
100
AcDbEntity
8
2
62
256
6
ByLayer
370
13
48
1
60
0
100
AcDbLine
10
59.0366
20
2.55
30
0
11
70.573343
21
2.55
31
0
39
0
210
0
220
0
230
1
0
LINE
5
13A
100
AcDbEntity
8
2
62
256
6
ByLayer
370
13
48
1
60
0
100
AcDbLine
10
68.573343
20
11.117266
30
0
11
68.573343
21
-11.3
31
0
39
0
210
0
220
0
230
1
0
SOLID
5
13B
100
AcDbEntity
8
2
62
256
6
ByLayer
370
13
48
1
60
0
100
AcDbTrace
10
68.573343
20
-2.55
30
0
11
69.034126
21
-6.049998
31
0
12
68.112559
22
-6.050002
32
0
13
68.573343
23
-2.55
33
0
39
0
210
0
220
0
230
1
0
SOLID
5
13C
100
AcDbEntity
8
2
62
256
6
ByLayer
370
13
48
1
60
0
100
AcDbTrace
10
68.573343
20
2.55
30
0
11
68.112559
21
6.049998
31
0
12
69.034126
22
6.050002
32
0
13
68.573343
23
2.55
33
0
39
0
210
0
220
0
230
1
0
ENDBLK
5
13E
100
AcDbEntity
8
0
100
AcDbBlockEnd
0
ENDSEC
0
SECTION
2
ENTITIES
0
ELLIPSE
5
97
100
AcDbEntity
8
1
62
256
6
ByLayer
370
18
48
1
60
0
100
AcDbEllipse
10
55.668959
20
1.940279
30
0
11
3.19976800459521
21
5.08631349029405
31
0
210
0
220
0
230
-1
40
0.533569
41
1.6246815484477
42
1.9985798761987
0
ELLIPSE
5
98
100
AcDbEntity
8
1
62
256
6
ByLayer
370
18
48
1
60
0
100
AcDbEllipse
10
13.23998
20
1E-06
30
0
11
0.00130064757763905
21
2.52236937153004
31
0
210
0
220
0
230
-1
40
0.003593
41
2.99678129510302
42
-3.1371322100957
0
ELLIPSE
5
99
100
AcDbEntity
8
1
62
256
6
ByLayer
370
18
48
1
60
0
100
AcDbEllipse
10
2.539994
20
7E-06
30
0
11
0.0119070142525503
21
2.51568181020283
31
0
210
0
220
0
230
-1
40
0.000189
41
0.796327089539576
42
1.60994248707941
0
ELLIPSE
5
9A
100
AcDbEntity
8
1
62
256
6
ByLayer
370
13
48
1
60
0
100
AcDbEllipse
10
58.155217
20
1.160466
30
0
11
1.49095901832518
21
-0.453203906159883
31
0
210
0
220
0
230
-1
40
0.59729
41
2.1448753482784
42
2.3399564565669
0
ELLIPSE
5
9B
100
AcDbEntity
8
1
62
256
6
ByLayer
370
18
48
1
60
0
100
AcDbEllipse
10
13.23998
20
1E-06
30
0
11
0.00130065019437129
21
2.52237020197769
31
0
210
0
220
0
230
-1
40
0.003593
41
-2.10293936959692
42
-1.97828781976966
0
ELLIPSE
5
9C
100
AcDbEntity
8
1
62
256
6
ByLayer
370
18
48
1
60
0
100
AcDbEllipse
10
58.2684
20
-0.000681
30
0
11
3.76615248528045
21
-1.15929761095883
31
0
210
0
220
0
230
-1
40
0.603219
41
2.16887856529306
42
2.44640650877006
0
ELLIPSE
5
9D
100
AcDbEntity
8
1
62
256
6
ByLayer
370
18
48
1
60
0
100
AcDbEllipse
10
13.23998
20
-1E-06
30
0
11
0.0013006475242474
21
-2.52236918162838
31
0
210
0
220
0
230
-1
40
0.003593
41
3.13713220992285
42
-2.99678128964222
0
ELLIPSE
5
9E
100
AcDbEntity
8
1
62
256
6
ByLayer
370
18
48
1
60
0
100
AcDbEllipse
10
35.611758
20
-8.244438
30
0
11
22.4363478696838
21
9.4052218773581
31
0
210
0
220
0
230
-1
40
0.312426
41
0.140836462481512
42
0.144114223769851
0
POINT
5
6C
100
AcDbEntity
8
81
62
256
6
ByLayer
370
18
48
1
60
0
100
AcDbPoint
10
58.24
20
0
30
0
39
0
210
0
220
0
230
1
50
360
0
POINT
5
6E
100
AcDbEntity
8
80
62
256
6
ByLayer
370
18
48
1
60
0
100
AcDbPoint
10
0
20
0
30
0
39
0
210
0
220
0
230
1
50
360
0
POINT
5
70
100
AcDbEntity
8
SK2
62
256
6
ByLayer
370
18
48
1
60
1
100
AcDbPoint
10
-41.76
20
-2.55
30
0
39
0
210
0
220
0
230
1
50
360
0
POINT
5
72
100
AcDbEntity
8
SK2
62
256
6
ByLayer
370
18
48
1
60
1
100
AcDbPoint
10
-41.76
20
2.55
30
0
39
0
210
0
220
0
230
1
50
360
0
POINT
5
73
100
AcDbEntity
8
2
62
256
6
ByLayer
370
18
48
1
60
1
100
AcDbPoint
10
57.4491
20
-2.55
30
0
39
0
210
0
220
0
230
1
50
360
0
POINT
5
75
100
AcDbEntity
8
2
62
256
6
ByLayer
370
18
48
1
60
1
100
AcDbPoint
10
57.4491
20
2.55
30
0
39
0
210
0
220
0
230
1
50
360
0
SPLINE
5
9F
100
AcDbEntity
8
1
62
256
6
ByLayer
370
18
48
1
60
0
100
AcDbSpline
70
4
71
3
72
11
73
7
40
0
40
0
40
0
40
0
40
0.320973417894264
40
0.557796579733807
40
0.75785616564025
40
1
40
1
40
1
40
1
41
1
10
35.4159947694912
20
-2.3147868678335
30
0
41
1
10
35.708314942477
20
-2.31441699638532
30
0
41
1
10
36.2163329979802
20
-2.31373345712652
30
0
41
1
10
36.9069184044965
20
-2.3124606049729
30
0
41
1
10
37.5251625442838
20
-2.31166235203003
30
0
41
1
10
37.9280556797125
20
-2.31099795508303
30
0
41
1
10
38.1486844364179
20
-2.31054589191322
30
0
0
SPLINE
5
A0
100
AcDbEntity
8
1
62
256
6
ByLayer
370
18
48
1
60
0
100
AcDbSpline
70
4
71
2
72
6
73
3
40
0
40
0
40
0
40
1
40
1
40
1
41
1
10
8.0617121640409
20
-0.0299373490294954
30
0
41
1
10
8.06211520567689
20
-0.0300719092334418
30
0
41
1
10
8.06251824226081
20
-0.0302182071557127
30
0
0
SPLINE
5
A1
100
AcDbEntity
8
1
62
256
6
ByLayer
370
18
48
1
60
0
100
AcDbSpline
70
4
71
3
72
14
73
10
40
0
40
0
40
0
40
0
40
0.300338628346513
40
0.529247108784181
40
0.686700491415505
40
0.780496203118965
40
0.862200703416391
40
0.941222598088287
40
1
40
1
40
1
40
1
41
1
10
13.4030982003428
20
-2.32973817108311
30
0
41
1
10
13.6901556852828
20
-2.32935393372983
30
0
41
1
10
14.1960445592215
20
-2.32851542528581
30
0
41
1
10
14.8525214658034
20
-2.32704706660479
30
0
41
1
10
15.3116224255474
20
-2.32584532540463
30
0
41
1
10
15.6298703134605
20
-2.32515532341694
30
0
41
1
10
15.8731593820306
20
-2.32467340861345
30
0
41
1
10
16.0830071412462
20
-2.32426187036029
30
0
41
1
10
16.2147512421555
20
-2.32398058874025
30
0
41
1
10
16.2709460137315
20
-2.32385076979048
30
0
0
SPLINE
5
A2
100
AcDbEntity
8
1
62
256
6
ByLayer
370
18
48
1
60
0
100
AcDbSpline
70
4
71
1
72
4
73
2
40
0
40
0
40
1
40
1
41
1
10
44.9784049440192
20
2.37114355222394
30
0
41
1
10
44.9782843023698
20
2.3711534413369
30
0
0
SPLINE
5
A3
100
AcDbEntity
8
1
62
256
6
ByLayer
370
18
48
1
60
0
100
AcDbSpline
70
4
71
3
72
13
73
9
40
0
40
0
40
0
40
0
40
0.232195886360578
40
0.413608820912235
40
0.57399755771611
40
0.768716552080351
40
0.960581239372046
40
1
40
1
40
1
40
1
41
1
10
40.9364421229353
20
2.30515143739328
30
0
41
1
10
40.6586433092883
20
2.30549747249708
30
0
41
1
10
40.1637401099888
20
2.30621481876318
30
0
41
1
10
39.476247316274
20
2.30814169548489
30
0
41
1
10
38.8344435433332
20
2.30893484312452
30
0
41
1
10
38.1794488018591
20
2.31058143050052
30
0
41
1
10
37.6693518562414
20
2.31142674226186
30
0
41
1
10
37.392541231203
20
2.31181737953253
30
0
41
1
10
37.3453646385982
20
2.31188328923031
30
0
0
SPLINE
5
A4
100
AcDbEntity
8
1
62
256
6
ByLayer
370
18
48
1
60
0
100
AcDbSpline
70
4
71
3
72
16
73
12
40
0
40
0
40
0
40
0
40
0.194670075322681
40
0.339902127169966
40
0.435845616789351
40
0.514211012574875
40
0.60025411900305
40
0.694131120663758
40
0.814520411769975
40
0.974171094462245
40
1
40
1
40
1
40
1
41
1
10
18.9307621696853
20
2.31516231298838
30
0
41
1
10
18.6765642450369
20
2.31620112360625
30
0
41
1
10
18.2327223190518
20
2.31786901093611
30
0
41
1
10
17.6635991247625
20
2.31963622017929
30
0
41
1
10
17.2463376598922
20
2.32081641066932
30
0
41
1
10
16.9063960064893
20
2.32197960639488
30
0
41
1
10
16.5691318527662
20
2.32309990851738
30
0
41
1
10
16.1769915637762
20
2.32411531041603
30
0
41
1
10
15.6887285552962
20
2.32499189223259
30
0
41
1
10
15.2893242228084
20
2.32599872115784
30
0
41
1
10
15.0471242237641
20
2.32659174426425
30
0
41
1
10
15.0133967390729
20
2.32667382501472
30
0
0
SPLINE
5
A5
100
AcDbEntity
8
1
62
256
6
ByLayer
370
18
48
1
60
0
100
AcDbSpline
70
4
71
1
72
4
73
2
40
0
40
0
40
1
40
1
41
1
10
22.9749972432443
20
-2.36647190979741
30
0
41
1
10
22.9750836609241
20
-2.36645290408873
30
0
0
SPLINE
5
A6
100
AcDbEntity
8
1
62
256
6
ByLayer
370
18
48
1
60
0
100
AcDbSpline
70
4
71
1
72
4
73
2
40
0
40
0
40
1
40
1
41
1
10
22.9750836088269
20
2.36645291394098
30
0
41
1
10
22.9749972432443
20
2.36647190979733
30
0
0
SPLINE
5
A7
100
AcDbEntity
8
1
62
256
6
ByLayer
370
18
48
1
60
0
100
AcDbSpline
70
4
71
1
72
4
73
2
40
0
40
0
40
1
40
1
41
1
10
44.97828430237
20
-2.37115344133682
30
0
41
1
10
44.9784048714216
20
-2.3711435561911
30
0
0
SPLINE
5
A8
100
AcDbEntity
8
1
62
256
6
ByLayer
370
18
48
1
60
0
100
AcDbSpline
70
4
71
3
72
10
73
6
40
0
40
0
40
0
40
0
40
0.5
40
0.5
40
1
40
1
40
1
40
1
41
1
10
57.4492823068358
20
-2.38845383022576
30
0
41
1
10
57.4277176522063
20
-2.41904078590628
30
0
41
1
10
57.4055201977619
20
-2.445665177488
30
0
41
1
10
57.3605311828763
20
-2.48970336696686
30
0
41
1
10
57.3377257885935
20
-2.50720530647473
30
0
41
1
10
57.3144724437925
20
-2.52032805043271
30
0
0
SPLINE
5
A9
100
AcDbEntity
8
1
62
256
6
ByLayer
370
18
48
1
60
0
100
AcDbSpline
70
4
71
3
72
12
73
8
40
0
40
0
40
0
40
0
40
0.24999999999999
40
0.24999999999999
40
0.499999999999981
40
0.499999999999981
40
1
40
1
40
1
40
1
41
1
10
58.0247526186333
20
0.976084002247717
30
0
41
1
10
57.9381435048929
20
0.958736215950864
30
0
41
1
10
57.8505282827286
20
0.948312397498398
30
0
41
1
10
57.6746851976286
20
0.931423170114869
30
0
41
1
10
57.5863886492473
20
0.92542741589395
30
0
41
1
10
57.3209462811216
20
0.911087705975319
30
0
41
1
10
57.1436950063061
20
0.906262617013198
30
0
41
1
10
56.9663643714894
20
0.902726907074907
30
0
0
SPLINE
5
AA
100
AcDbEntity
8
1
62
256
6
ByLayer
370
18
48
1
60
0
100
AcDbSpline
70
4
71
3
72
8
73
4
40
0
40
0
40
0
40
0
40
1
40
1
40
1
40
1
41
1
10
35.4475971371493
20
2.49837833333152
30
0
41
1
10
35.043248635154
20
2.52333752778776
30
0
41
1
10
34.6389001331586
20
2.53567894982171
30
0
41
1
10
34.2345516311634
20
2.53540503010271
30
0
0
SPLINE
5
AB
100
AcDbEntity
8
1
62
256
6
ByLayer
370
18
48
1
60
0
100
AcDbSpline
70
4
71
3
72
26
73
22
40
0
40
0
40
0
40
0
40
0.103050801196757
40
0.103050801196757
40
0.250794089603047
40
0.250794089603047
40
0.398537378009337
40
0.398537378009337
40
0.546280666415627
40
0.546280666415627
40
0.620152310618772
40
0.620152310618772
40
0.694023954821917
40
0.694023954821917
40
0.841767243228207
40
0.841767243228207
40
0.915638887431353
40
0.915638887431353
40
0.9895105316345
40
0.9895105316345
40
1
40
1
40
1
40
1
41
1
10
52.0529700005823
20
-0.0009642482352774
30
0
41
1
10
51.6662719979264
20
0.128481830522333
30
0
41
1
10
51.2806166988677
20
0.257534331326127
30
0
41
1
10
50.343726085907
20
0.56737955297848
30
0
41
1
10
49.7928405785558
20
0.745807206940327
30
0
41
1
10
48.6908089880664
20
1.08609234950157
30
0
41
1
10
48.1394510087991
20
1.24798769300349
30
0
41
1
10
47.0333808091625
20
1.54630485597278
30
0
41
1
10
46.4786245265368
20
1.68329606036701
30
0
41
1
10
45.6416628284143
20
1.86351995883913
30
0
41
1
10
45.3614527990319
20
1.91960145046204
30
0
41
1
10
44.802041752919
20
2.02241744828044
30
0
41
1
10
44.5227351583083
20
2.06902370886431
30
0
41
1
10
43.6855943972307
20
2.19315335538371
30
0
41
1
10
43.1282359648285
20
2.25663065227286
30
0
41
1
10
42.291194029671
20
2.3176891316356
30
0
41
1
10
42.0120082136374
20
2.33256647210862
30
0
41
1
10
41.4528091207312
20
2.35190124128539
30
0
41
1
10
41.1725003062054
20
2.35599672474771
30
0
41
1
10
40.8537617849462
20
2.3537739603762
30
0
41
1
10
40.8141431241111
20
2.3533923284557
30
0
41
1
10
40.7745374713975
20
2.35290475043328
30
0
0
SPLINE
5
AC
100
AcDbEntity
8
1
62
256
6
ByLayer
370
18
48
1
60
0
100
AcDbSpline
70
4
71
3
72
14
73
10
40
0
40
0
40
0
40
0
40
0.399579485006565
40
0.399579485006565
40
0.549684613754924
40
0.549684613754924
40
0.699789742503282
40
0.699789742503282
40
1
40
1
40
1
40
1
41
1
10
8.10834950316976
20
-0.0457776933058938
30
0
41
1
10
7.37356235504797
20
0.202399226162015
30
0
41
1
10
6.63817790279691
20
0.451107402794207
30
0
41
1
10
5.62121193035529
20
0.780243141871978
30
0
41
1
10
5.34292486683302
20
0.868632070131525
30
0
41
1
10
4.78485335960585
20
1.04136840530697
30
0
41
1
10
4.50475243184891
20
1.12581903058745
30
0
41
1
10
3.66579197456125
20
1.37018374281405
30
0
41
1
10
3.10727302960424
20
1.52105143080476
30
0
41
1
10
2.54815199434196
20
1.65589225552671
30
0
0
SPLINE
5
AD
100
AcDbEntity
8
1
62
256
6
ByLayer
370
18
48
1
60
0
100
AcDbSpline
70
4
71
3
72
46
73
42
40
0
40
0
40
0
40
0
40
0.0119498774591972
40
0.0238921336535713
40
0.0358272478831925
40
0.0477557044681036
40
0.0596779968921556
40
0.0715946320043186
40
0.0835061342757207
40
0.0954130501103938
40
0.107315952207467
40
0.119215443972202
40
0.131112161195959
40
0.14300672494634
40
0.154899701351836
40
0.166791616074651
40
0.178682959485026
40
0.190574191524602
40
0.20246574664225
40
0.214358038799943
40
0.226251466546548
40
0.238146418157751
40
0.250043276840425
40
0.261942425999949
40
0.273844259409834
40
0.285749326428612
40
0.339283406658047
40
0.392800696602045
40
0.446363981407987
40
0.499994042507353
40
0.562401285866637
40
0.624892297594352
40
0.687428231386054
40
0.749967511987255
40
0.806488360415046
40
0.856058337119984
40
0.898684857629177
40
0.934383654285307
40
0.963164434254291
40
0.985034359460593
40
1
40
1
40
1
40
1
41
1
10
16.5122479977576
20
2.06747897790669
30
0
41
1
10
16.5877328191664
20
2.05178418261829
30
0
41
1
10
16.7386543200833
20
2.02040460169988
30
0
41
1
10
16.9649506156226
20
1.97071004753553
30
0
41
1
10
17.1911001626613
20
1.91916991295957
30
0
41
1
10
17.4171115244681
20
1.86563678407032
30
0
41
1
10
17.6429948811256
20
1.81020743636387
30
0
41
1
10
17.8687600236558
20
1.75291350069983
30
0
41
1
10
18.0944168891812
20
1.69380425747991
30
0
41
1
10
18.319975425283
20
1.63292458625963
30
0
41
1
10
18.5454455985206
20
1.57032047286373
30
0
41
1
10
18.7708374789861
20
1.50603905916776
30
0
41
1
10
18.9961604809045
20
1.4401231028167
30
0
41
1
10
19.2214248932331
20
1.37264384072026
30
0
41
1
10
19.4466420519352
20
1.30368658350949
30
0
41
1
10
19.6718230589147
20
1.23333370250558
30
0
41
1
10
19.8969791084789
20
1.1616688149295
30
0
41
1
10
20.1221214191281
20
1.08877566315553
30
0
41
1
10
20.3472612536956
20
1.01473842228711
30
0
41
1
10
20.5724099093495
20
0.939641620368121
30
0
41
1
10
20.7975787374126
20
0.863570180818641
30
0
41
1
10
21.0227790740651
20
0.786609363464436
30
0
41
1
10
21.2480224977854
20
0.708844989187099
30
0
41
1
10
21.4733198992427
20
0.630362620786599
30
0
41
1
10
21.6986859806727
20
0.551250283674761
30
0
41
1
10
22.186865078212
20
0.378739953021892
30
0
41
1
10
22.937984966084
20
0.109246694772594
30
0
41
1
10
23.9521372492441
20
-0.256813537656285
30
0
41
1
10
24.9666314463999
20
-0.61858258431181
30
0
41
1
10
26.0368159132517
20
-0.987825492224459
30
0
41
1
10
27.1633820361655
20
-1.35254966704883
30
0
41
1
10
28.3463099208666
20
-1.69601017444788
30
0
41
1
10
29.5301881758123
20
-1.99160792384069
30
0
41
1
10
30.6765540922781
20
-2.22199969843527
30
0
41
1
10
31.7409724982174
20
-2.38186987615529
30
0
41
1
10
32.6796168929303
20
-2.47769307474275
30
0
41
1
10
33.4867523736053
20
-2.52433007087078
30
0
41
1
10
34.1625750425355
20
-2.53813442658577
30
0
41
1
10
34.7073047112943
20
-2.53201285805068
30
0
41
1
10
35.1211639072195
20
-2.51737989934438
30
0
41
1
10
35.3532888626956
20
-2.50386798554303
30
0
41
1
10
35.4475971371461
20
-2.49837833333171
30
0
0
SPLINE
5
AE
100
AcDbEntity
8
1
62
256
6
ByLayer
370
18
48
1
60
0
100
AcDbSpline
70
4
71
3
72
8
73
4
40
0
40
0
40
0
40
0
40
1
40
1
40
1
40
1
41
1
10
13.2386999623878
20
-2.40761612461148
30
0
41
1
10
13.2386794723672
20
-2.44585854294291
30
0
41
1
10
13.2386589811064
20
-2.48410095933753
30
0
41
1
10
13.2386384886051
20
-2.52234337378562
30
0
0
SPLINE
5
AF
100
AcDbEntity
8
1
62
256
6
ByLayer
370
18
48
1
60
0
100
AcDbSpline
70
4
71
3
72
56
73
52
40
0
40
0
40
0
40
0
40
0.0643880023477457
40
0.0643880023477457
40
0.149443638497951
40
0.149443638497951
40
0.191971456573055
40
0.191971456573055
40
0.234499274648159
40
0.234499274648159
40
0.255763183685711
40
0.255763183685711
40
0.277027092723264
40
0.277027092723264
40
0.298291001760816
40
0.298291001760816
40
0.319554910798369
40
0.319554910798369
40
0.340818819835921
40
0.340818819835921
40
0.362082728873474
40
0.362082728873474
40
0.383346637911027
40
0.383346637911027
40
0.404610546948579
40
0.404610546948579
40
0.425874455986132
40
0.425874455986132
40
0.447138365023684
40
0.447138365023684
40
0.457770319542461
40
0.457770319542461
40
0.463086296801849
40
0.463086296801849
40
0.465744285431543
40
0.465744285431543
40
0.468402274061237
40
0.468402274061237
40
0.473718251320625
40
0.473718251320625
40
0.479034228580012
40
0.479034228580012
40
0.489666183098788
40
0.489666183098788
40
0.57472181924899
40
0.57472181924899
40
0.659777455399193
40
0.659777455399193
40
0.829888727699597
40
0.829888727699597
40
1
40
1
40
1
40
1
41
1
10
4.87832561312021
20
-2.02632163120939
30
0
41
1
10
4.70249480556683
20
-2.08475363608426
30
0
41
1
10
4.52859200421088
20
-2.1401104855388
30
0
41
1
10
4.13019166408381
20
-2.25992955888262
30
0
41
1
10
3.90727636271646
20
-2.32172659073436
30
0
41
1
10
3.58174895298862
20
-2.4003266477427
30
0
41
1
10
3.47530349019712
20
-2.42399086697219
30
0
41
1
10
3.27016876344243
20
-2.46448620859439
30
0
41
1
10
3.17112997048389
20
-2.48142236974292
30
0
41
1
10
3.03012950467962
20
-2.50013525761983
30
0
41
1
10
2.98440209954049
20
-2.50524813514258
30
0
41
1
10
2.89616675964953
20
-2.51272328606944
30
0
41
1
10
2.8534405973889
20
-2.51508864738773
30
0
41
1
10
2.77357720390143
20
-2.51628791581609
30
0
41
1
10
2.73640788383881
20
-2.5151451870704
30
0
41
1
10
2.66916396608295
20
-2.50854424146658
30
0
41
1
10
2.63897154265555
20
-2.50301232590613
30
0
41
1
10
2.58963273348772
20
-2.48693474625958
30
0
41
1
10
2.57023587461029
20
-2.47639969861052
30
0
41
1
10
2.54453563728805
20
-2.44937669734188
30
0
41
1
10
2.5384999940911
20
-2.4327464527164
30
0
41
1
10
2.5421588714745
20
-2.39481760974726
30
0
41
1
10
2.55183646911843
20
-2.37307192248503
30
0
41
1
10
2.58575541978556
20
-2.32614773023394
30
0
41
1
10
2.60962203708652
20
-2.30123352464491
30
0
41
1
10
2.66903171130133
20
-2.24915967603619
30
0
41
1
10
2.70428725419575
20
-2.22229777195199
30
0
41
1
10
2.78176394973929
20
-2.16866368321794
30
0
41
1
10
2.82423814933122
20
-2.14167925775911
30
0
41
1
10
2.89237907673339
20
-2.10110158922592
30
0
41
1
10
2.91587004257931
20
-2.0875400526279
30
0
41
1
10
2.95198734218025
20
-2.06725322968944
30
0
41
1
10
2.96416707242599
20
-2.06050355754383
30
0
41
1
10
2.98263538578092
20
-2.05039806010774
30
0
41
1
10
2.98893078975823
20
-2.04709691122994
30
0
41
1
10
3.00107431245794
20
-2.04019170417564
30
0
41
1
10
3.00713108665673
20
-2.03659484342467
30
0
41
1
10
3.028275654178
20
-2.02866956713427
30
0
41
1
10
3.0454019509327
20
-2.02684019300287
30
0
41
1
10
3.07849723435265
20
-2.02487981785998
30
0
41
1
10
3.09508015659878
20
-2.02406526140968
30
0
41
1
10
3.14485892947866
20
-2.021761684909
30
0
41
1
10
3.17805023118825
20
-2.0202415369489
30
0
41
1
10
3.47684038429449
20
-2.00728046919846
30
0
41
1
10
3.74303102565526
20
-2.00145983861907
30
0
41
1
10
4.27484801085035
20
-2.00045041780427
30
0
41
1
10
4.54070536993876
20
-2.00525771866663
30
0
41
1
10
5.33813425030331
20
-2.03407081812944
30
0
41
1
10
5.86423441299382
20
-2.07270892195439
30
0
41
1
10
6.90629460987617
20
-2.17267893684001
30
0
41
1
10
7.42226252410634
20
-2.23406159340371
30
0
41
1
10
7.93412258247662
20
-2.29446563459078
30
0
0
SPLINE
5
B0
100
AcDbEntity
8
1
62
256
6
ByLayer
370
18
48
1
60
0
100
AcDbSpline
70
4
71
3
72
22
73
18
40
0
40
0
40
0
40
0
40
0.133770368131408
40
0.133770368131408
40
0.267540736262816
40
0.267540736262816
40
0.401311104394224
40
0.401311104394224
40
0.535081472525632
40
0.535081472525632
40
0.66885184065704
40
0.66885184065704
40
0.802622208788448
40
0.802622208788448
40
0.936392576919858
40
0.936392576919858
40
1
40
1
40
1
40
1
41
1
10
13.2315096110213
20
-1.27979775656053
30
0
41
1
10
13.6679061753683
20
-1.41226400130532
30
0
41
1
10
14.1036103632771
20
-1.53880826720871
30
0
41
1
10
14.9743788723223
20
-1.77445693554426
30
0
41
1
10
15.408734662884
20
-1.88328293101637
30
0
41
1
10
16.2776250313146
20
-2.07822864669683
30
0
41
1
10
16.7126985299057
20
-2.1644211116913
30
0
41
1
10
17.5820112380267
20
-2.31060579072963
30
0
41
1
10
18.0161023930679
20
-2.37066922771012
30
0
41
1
10
18.8840786516572
20
-2.46315382063329
30
0
41
1
10
19.3181511454279
20
-2.49563248167362
30
0
41
1
10
20.1843163960013
20
-2.52972445795916
30
0
41
1
10
20.6169159270331
20
-2.53132640470003
30
0
41
1
10
21.4845456407168
20
-2.50445349967635
30
0
41
1
10
21.9196873213541
20
-2.47611341281586
30
0
41
1
10
22.5616957109102
20
-2.41480892840082
30
0
41
1
10
22.7686897832576
20
-2.39207906248615
30
0
41
1
10
22.9757814275301
20
-2.36640372241214
30
0
0
SPLINE
5
B1
100
AcDbEntity
8
1
62
256
6
ByLayer
370
18
48
1
60
0
100
AcDbSpline
70
4
71
3
72
24
73
20
40
0
40
0
40
0
40
0
40
0.063873486768856
40
0.063873486768856
40
0.167887543794539
40
0.167887543794539
40
0.271901600820222
40
0.271901600820222
40
0.375915657845905
40
0.375915657845905
40
0.479929714871588
40
0.479929714871588
40
0.583943771897271
40
0.583943771897271
40
0.791971885948637
40
0.791971885948637
40
0.895985942974319
40
0.895985942974319
40
1
40
1
40
1
40
1
41
1
10
42.4074615187282
20
2.54059141653855
30
0
41
1
10
42.6742831251147
20
2.5407341147841
30
0
41
1
10
42.9412142123018
20
2.5353229987239
30
0
41
1
10
43.6421787980737
20
2.50655334932353
30
0
41
1
10
44.0757704093306
20
2.47397696260248
30
0
41
1
10
44.9438212139733
20
2.38030089595622
30
0
41
1
10
45.3786286058765
20
2.31922699368388
30
0
41
1
10
46.2468853111478
20
2.17145898596564
30
0
41
1
10
46.6806917660626
20
2.0845626186362
30
0
41
1
10
47.5494533802878
20
1.88737372437382
30
0
41
1
10
47.9841715756073
20
1.77729704757545
30
0
41
1
10
48.8523908431985
20
1.5383137493065
30
0
41
1
10
49.2862678817852
20
1.40906283879863
30
0
41
1
10
50.589536505722
20
0.996735982822912
30
0
41
1
10
51.4551584981033
20
0.692251459816816
30
0
41
1
10
52.7585550164503
20
0.221118038250267
30
0
41
1
10
53.1923983496986
20
0.0624853052336221
30
0
41
1
10
54.0600822907224
20
-0.253173765401897
30
0
41
1
10
54.4939366199784
20
-0.410389600222714
30
0
41
1
10
54.928313929117
20
-0.565576900885532
30
0
0
SPLINE
5
B2
100
AcDbEntity
8
1
62
256
6
ByLayer
370
18
48
1
60
0
100
AcDbSpline
70
4
71
3
72
14
73
10
40
0
40
0
40
0
40
0
40
0.25
40
0.25
40
0.5
40
0.5
40
0.75
40
0.75
40
1
40
1
40
1
40
1
41
1
10
56.9237152843396
20
0.835839525972943
30
0
41
1
10
56.9224093775857
20
0.843411604922011
30
0
41
1
10
56.9217692594941
20
0.851025072130284
30
0
41
1
10
56.9226843242415
20
0.8663894710308
30
0
41
1
10
56.9242789136624
20
0.874155513183496
30
0
41
1
10
56.9312856347485
20
0.888006220523806
30
0
41
1
10
56.9368421622287
20
0.893867146894536
30
0
41
1
10
56.9507615263748
20
0.901155125568096
30
0
41
1
10
56.9585717704106
20
0.902571534166071
30
0
41
1
10
56.9663643714889
20
0.902726907077749
30
0
0
SPLINE
5
B3
100
AcDbEntity
8
1
62
256
6
ByLayer
370
18
48
1
60
0
100
AcDbSpline
70
4
71
3
72
12
73
8
40
0
40
0
40
0
40
0
40
0.139343356907524
40
0.30921124941349
40
0.509415346241248
40
0.73975035800064
40
1
40
1
40
1
40
1
41
1
10
13.2400003970894
20
2.49596788785359
30
0
41
1
10
13.3140874804035
20
2.49195214427968
30
0
41
1
10
13.4784911527805
20
2.48304096892565
30
0
41
1
10
13.7492445872004
20
2.46419148946452
30
0
41
1
10
14.0683164047153
20
2.43737915194748
30
0
41
1
10
14.4353651436679
20
2.40061754766131
30
0
41
1
10
14.6959845127669
20
2.36811640852329
30
0
41
1
10
14.8342401573054
20
2.35087491969881
30
0
0
SPLINE
5
B4
100
AcDbEntity
8
1
62
256
6
ByLayer
370
18
48
1
60
0
100
AcDbSpline
70
4
71
3
72
8
73
4
40
0
40
0
40
0
40
0
40
1
40
1
40
1
40
1
41
1
10
54.9283139291288
20
-0.56557690088971
30
0
41
1
10
54.8926724879009
20
-0.427630364825262
30
0
41
1
10
54.8605311204212
20
-0.289149634841948
30
0
41
1
10
54.8311124262436
20
-0.150359760011043
30
0
0
SPLINE
5
B5
100
AcDbEntity
8
1
62
256
6
ByLayer
370
18
48
1
60
0
100
AcDbSpline
70
4
71
3
72
8
73
4
40
0
40
0
40
0
40
0
40
1
40
1
40
1
40
1
41
1
10
56.2482289204807
20
2.54924971394689
30
0
41
1
10
56.6036184600755
20
2.54949300200832
30
0
41
1
10
56.9589091697394
20
2.53986056355171
30
0
41
1
10
57.3144724437926
20
2.52032805043268
30
0
0
SPLINE
5
B6
100
AcDbEntity
8
1
62
256
6
ByLayer
370
18
48
1
60
0
100
AcDbSpline
70
4
71
3
72
34
73
30
40
0
40
0
40
0
40
0
40
0.249999999999983
40
0.249999999999983
40
0.37499999999998
40
0.37499999999998
40
0.499999999999976
40
0.499999999999976
40
0.624999999999972
40
0.624999999999972
40
0.68749999999997
40
0.68749999999997
40
0.695312499999971
40
0.695312499999971
40
0.703124999999972
40
0.703124999999972
40
0.707031249999973
40
0.707031249999973
40
0.710937499999973
40
0.710937499999973
40
0.718749999999974
40
0.718749999999974
40
0.749999999999977
40
0.749999999999977
40
0.812499999999982
40
0.812499999999982
40
0.874999999999988
40
0.874999999999988
40
1
40
1
40
1
40
1
41
1
10
54.8311124262436
20
-0.150359760011043
30
0
41
1
10
55.0849939698259
20
-0.228316186172862
30
0
41
1
10
55.3395245726362
20
-0.286274215673956
30
0
41
1
10
55.7225013061965
20
-0.336828303461431
30
0
41
1
10
55.8506165165036
20
-0.347654611074773
30
0
41
1
10
56.1061557331609
20
-0.355649001787782
30
0
41
1
10
56.2326097864718
20
-0.352805708551102
30
0
41
1
10
56.4826188627101
20
-0.332045040036036
30
0
41
1
10
56.6062954613088
20
-0.314171193427058
30
0
41
1
10
56.7888998549054
20
-0.274088334350694
30
0
41
1
10
56.8490186449214
20
-0.258217764958402
30
0
41
1
10
56.9160613200658
20
-0.238608061139303
30
0
41
1
10
56.9236556086938
20
-0.236797648643659
30
0
41
1
10
56.9381798272273
20
-0.231494159796654
30
0
41
1
10
56.9452045520072
20
-0.227822837857815
30
0
41
1
10
56.9529116256419
20
-0.218531321517475
30
0
41
1
10
56.9549580880429
20
-0.214845840436198
30
0
41
1
10
56.9574138715541
20
-0.206424790420726
30
0
41
1
10
56.9580637336226
20
-0.201873837676402
30
0
41
1
10
56.9603602116816
20
-0.188513872921561
30
0
41
1
10
56.961580087611
20
-0.179486612729335
30
0
41
1
10
56.9674626106753
20
-0.134266236547091
30
0
41
1
10
56.9720255227977
20
-0.0980452752404801
30
0
41
1
10
56.9821331224563
20
0.0117324493347724
30
0
41
1
10
56.9854094577314
20
0.086096263217712
30
0
41
1
10
56.9861415802145
20
0.234880085543239
30
0
41
1
10
56.9836324063371
20
0.309528225896457
30
0
41
1
10
56.9689754655606
20
0.534107991621966
30
0
41
1
10
56.9497870082094
20
0.684667054522009
30
0
41
1
10
56.9237152843396
20
0.835839525972943
30
0
0
SPLINE
5
B7
100
AcDbEntity
8
1
62
256
6
ByLayer
370
18
48
1
60
0
100
AcDbSpline
70
4
71
3
72
8
73
4
40
0
40
0
40
0
40
0
40
1
40
1
40
1
40
1
41
1
10
57.1809533400679
20
0.733516279368132
30
0
41
1
10
57.1771092784301
20
0.733758042122474
30
0
41
1
10
57.1728500937093
20
0.733530649900928
30
0
41
1
10
57.170324887655
20
0.731306030378931
30
0
0
SPLINE
5
B8
100
AcDbEntity
8
1
62
256
6
ByLayer
370
18
48
1
60
0
100
AcDbSpline
70
4
71
3
72
22
73
18
40
0
40
0
40
0
40
0
40
0.245263344203748
40
0.245263344203748
40
0.306579180254684
40
0.306579180254684
40
0.36789501630562
40
0.36789501630562
40
0.490526688407492
40
0.490526688407492
40
0.735790032611237
40
0.735790032611237
40
0.858421704713109
40
0.858421704713109
40
0.981053376814982
40
0.981053376814982
40
1
40
1
40
1
40
1
41
1
10
57.2934004175997
20
-2.29959749297544
30
0
41
1
10
56.1456213018139
20
-2.29236291131914
30
0
41
1
10
55.0040565714144
20
-2.19091784860189
30
0
41
1
10
53.5685826973389
20
-1.9604477095761
30
0
41
1
10
53.2812918509291
20
-1.90923324999298
30
0
41
1
10
52.709176631477
20
-1.7979402584759
30
0
41
1
10
52.4239059516448
20
-1.73779773640987
30
0
41
1
10
51.5698858061836
20
-1.5452885292639
30
0
41
1
10
51.0029290057661
20
-1.4008182104115
30
0
41
1
10
49.3046388495871
20
-0.931227441736439
30
0
41
1
10
48.1758856517805
20
-0.569579346064216
30
0
41
1
10
46.4694756321334
20
-0.0098599285213083
30
0
41
1
10
45.8981492917073
20
0.179606864555467
30
0
41
1
10
44.7492983046273
20
0.553396506205388
30
0
41
1
10
44.1768022627208
20
0.736027726365876
30
0
41
1
10
43.5161641972551
20
0.936346596796199
30
0
41
1
10
43.4277611254772
20
0.962936233526705
30
0
41
1
10
43.3393583160134
20
0.989291362626403
30
0
0
SPLINE
5
B9
100
AcDbEntity
8
1
62
256
6
ByLayer
370
18
48
1
60
0
100
AcDbSpline
70
4
71
3
72
20
73
16
40
0
40
0
40
0
40
0
40
0.0700923342487952
40
0.0700923342487952
40
0.163550373886064
40
0.163550373886064
40
0.257008413523333
40
0.257008413523333
40
0.443924492797872
40
0.443924492797872
40
0.817756651346949
40
0.817756651346949
40
0.911214690984217
40
0.911214690984217
40
1
40
1
40
1
40
1
41
1
10
13.4423131015458
20
-2.32967452536093
30
0
41
1
10
13.2285895231895
20
-2.33004130171406
30
0
41
1
10
13.0145295551958
20
-2.32714721749727
30
0
41
1
10
12.5140706923245
20
-2.31263666330574
30
0
41
1
10
12.2267570445443
20
-2.29841367998847
30
0
41
1
10
11.6539504057286
20
-2.25857617009836
30
0
41
1
10
11.3683557394092
20
-2.23299856547428
30
0
41
1
10
10.5133829529781
20
-2.14021636328053
30
0
41
1
10
9.94581837390885
20
-2.05695696138
30
0
41
1
10
8.24577768245334
20
-1.7491874714099
30
0
41
1
10
7.11595742115
20
-1.46649988288596
30
0
41
1
10
5.69203059786773
20
-1.05237890983281
30
0
41
1
10
5.40666870845061
20
-0.966520172105561
30
0
41
1
10
4.84870728209285
20
-0.794319955873021
30
0
41
1
10
4.57592217578198
20
-0.708135229177714
30
0
41
1
10
4.30346984225983
20
-0.620639627941358
30
0
0
SPLINE
5
BA
100
AcDbEntity
8
1
62
256
6
ByLayer
370
13
48
1
60
0
100
AcDbSpline
70
4
71
3
72
15
73
11
40
0
40
0
40
0
40
0
40
0.0243893719942136
40
0.0243893719942136
40
0.5121946859971
40
0.5121946859971
40
0.75609734299855
40
0.878048671499275
40
0.878048671499275
40
1
40
1
40
1
40
1
41
1
10
4.30346984351479
20
-0.620639628344378
30
0
41
1
10
4.28913080011895
20
-0.616034774325385
30
0
41
1
10
4.27479267846027
20
-0.61142628935508
30
0
41
1
10
3.97370492287246
20
-0.514571479289003
30
0
41
1
10
3.68711497143346
20
-0.420850715310763
30
0
41
1
10
3.25716268362686
20
-0.278947530289429
30
0
41
1
10
3.04216994191012
20
-0.207664678092726
30
0
41
1
10
2.82709644758501
20
-0.136046541081413
30
0
41
1
10
2.6836900898428
20
-0.0882441842834396
30
0
41
1
10
2.61167741271117
20
-0.0642137473556659
30
0
41
1
10
2.54024483296576
20
-0.0403654576087433
30
0
0
SPLINE
5
BB
100
AcDbEntity
8
1
62
256
6
ByLayer
370
18
48
1
60
0
100
AcDbSpline
70
4
71
3
72
18
73
14
40
0
40
0
40
0
40
0
40
0.125000000000001
40
0.125000000000001
40
0.250000000000002
40
0.250000000000002
40
0.5
40
0.5
40
0.624999999999999
40
0.624999999999999
40
0.749999999999998
40
0.749999999999998
40
1
40
1
40
1
40
1
41
1
10
13.2311429455181
20
-0.999628379501729
30
0
41
1
10
13.0105554835927
20
-0.926719966988742
30
0
41
1
10
12.7900457672295
20
-0.851949518205913
30
0
41
1
10
12.348530110537
20
-0.700360172382688
30
0
41
1
10
12.1275347858435
20
-0.623679577200249
30
0
41
1
10
11.4652467559981
20
-0.391473936242676
30
0
41
1
10
11.0245532590602
20
-0.2324678322382
30
0
41
1
10
10.362233633346
20
0.0053486668959977
30
0
41
1
10
10.1411566023235
20
0.0846343430985144
30
0
41
1
10
9.69955443230555
20
0.243109301591233
30
0
41
1
10
9.47903593907301
20
0.322419670041569
30
0
41
1
10
8.81727262117977
20
0.557629705617131
30
0
41
1
10
8.37582472526481
20
0.710864668201566
30
0
41
1
10
7.93412258247662
20
0.86055038765727
30
0
0
SPLINE
5
BC
100
AcDbEntity
8
1
62
256
6
ByLayer
370
18
48
1
60
0
100
AcDbSpline
70
4
71
3
72
30
73
26
40
0
40
0
40
0
40
0
40
0.0290875269704488
40
0.0290875269704488
40
0.0943107246141573
40
0.0943107246141573
40
0.159533922257866
40
0.159533922257866
40
0.289980317545282
40
0.289980317545282
40
0.420426712832699
40
0.420426712832699
40
0.550873108120116
40
0.550873108120116
40
0.616096305763822
40
0.616096305763822
40
0.681319503407529
40
0.681319503407529
40
0.811765898694943
40
0.811765898694943
40
0.87698909633865
40
0.87698909633865
40
0.942212293982357
40
0.942212293982357
40
1
40
1
40
1
40
1
41
1
10
18.8769121572364
20
2.31543712365001
30
0
41
1
10
19.0013733095587
20
2.31514144761437
30
0
41
1
10
19.1259546251804
20
2.31378240968945
30
0
41
1
10
19.5303129515388
20
2.30596716662035
30
0
41
1
10
19.8112889141399
20
2.29456654566718
30
0
41
1
10
20.3715495110022
20
2.26100835401505
30
0
41
1
10
20.6510015689744
20
2.23909604623799
30
0
41
1
10
21.4878517102278
20
2.15801892354497
30
0
41
1
10
22.0438259021867
20
2.0819462826768
30
0
41
1
10
23.1545855001688
20
1.89476155546498
30
0
41
1
10
23.7095967755643
20
1.78172413236675
30
0
41
1
10
24.8212580214545
20
1.52540913784858
30
0
41
1
10
25.378274950675
20
1.38093214896435
30
0
41
1
10
26.2171345958409
20
1.1463225548182
30
0
41
1
10
26.497800738508
20
1.06485492530908
30
0
41
1
10
27.0589257682133
20
0.897174462778651
30
0
41
1
10
27.3391647571882
20
0.811177676144354
30
0
41
1
10
28.1795726466323
20
0.548558220342727
30
0
41
1
10
28.7389500408464
20
0.36593442246496
30
0
41
1
10
29.5798824896466
20
0.0902375370373818
30
0
41
1
10
29.8605516007054
20
-0.0026323334062397
30
0
41
1
10
30.4217126256465
20
-0.187235235089304
30
0
41
1
10
30.7019031335174
20
-0.279178404962863
30
0
41
1
10
31.2299221755956
20
-0.450830980067877
30
0
41
1
10
31.4778282815274
20
-0.530563118806555
30
0
41
1
10
31.7256761333706
20
-0.609249709157865
30
0
0
SPLINE
5
BD
100
AcDbEntity
8
1
62
256
6
ByLayer
370
18
48
1
60
0
100
AcDbSpline
70
4
71
3
72
8
73
4
40
0
40
0
40
0
40
0
40
1
40
1
40
1
40
1
41
1
10
58.2384349522881
20
-0.0837006963474494
30
0
41
1
10
58.2405198682661
20
-0.027897546735602
30
0
41
1
10
58.2405227479803
20
0.027820470670946
30
0
41
1
10
58.2384349522881
20
0.0837006963475062
30
0
0
SPLINE
5
BE
100
AcDbEntity
8
1
62
256
6
ByLayer
370
18
48
1
60
0
100
AcDbSpline
70
4
71
3
72
12
73
8
40
0
40
0
40
0
40
0
40
0.519480329547764
40
0.519480329547764
40
0.779220494321643
40
0.779220494321643
40
1
40
1
40
1
40
1
41
1
10
7.93412258247662
20
-2.29446563459078
30
0
41
1
10
8.45023730137279
20
-2.37214126575313
30
0
41
1
10
8.96685856709686
20
-2.42926426035791
30
0
41
1
10
9.74021444125532
20
-2.48658447315071
30
0
41
1
10
9.99818515564709
20
-2.50055691824835
30
0
41
1
10
10.4763026372806
20
-2.51690929001705
30
0
41
1
10
10.6958955137214
20
-2.52076861785824
30
0
41
1
10
10.9151852856169
20
-2.52091764596813
30
0
0
SPLINE
5
BF
100
AcDbEntity
8
1
62
256
6
ByLayer
370
18
48
1
60
0
100
AcDbSpline
70
4
71
3
72
76
73
72
40
0
40
0
40
0
40
0
40
0.0094191463904233
40
0.0094191463904233
40
0.0371230250445176
40
0.0371230250445176
40
0.0648269036986121
40
0.0648269036986121
40
0.0925307823527064
40
0.0925307823527064
40
0.120234661006801
40
0.120234661006801
40
0.147938539660895
40
0.147938539660895
40
0.17564241831499
40
0.17564241831499
40
0.203346296969084
40
0.203346296969084
40
0.231050175623179
40
0.231050175623179
40
0.258754054277273
40
0.258754054277273
40
0.286457932931367
40
0.286457932931367
40
0.314161811585461
40
0.314161811585461
40
0.341865690239556
40
0.341865690239556
40
0.36956956889365
40
0.36956956889365
40
0.397273447547744
40
0.397273447547744
40
0.424977326201839
40
0.424977326201839
40
0.480385083510026
40
0.480385083510026
40
0.535792840818214
40
0.535792840818214
40
0.563496719472307
40
0.563496719472307
40
0.5912005981264
40
0.5912005981264
40
0.618904476780493
40
0.618904476780493
40
0.646608355434586
40
0.646608355434586
40
0.674312234088679
40
0.674312234088679
40
0.702016112742773
40
0.702016112742773
40
0.729719991396866
40
0.729719991396866
40
0.757423870050959
40
0.757423870050959
40
0.785127748705052
40
0.785127748705052
40
0.812831627359145
40
0.812831627359145
40
0.840535506013238
40
0.840535506013238
40
0.868239384667331
40
0.868239384667331
40
0.895943263321424
40
0.895943263321424
40
0.923647141975517
40
0.923647141975517
40
0.951351020629611
40
0.951351020629611
40
0.979054899283704
40
0.979054899283704
40
1
40
1
40
1
40
1
41
1
10
27.02187159457
20
1.68333807516709
30
0
41
1
10
27.109649363462
20
1.70702134755558
30
0
41
1
10
27.1973949270029
20
1.73035168858098
30
0
41
1
10
27.5429422381176
20
1.82091333064639
30
0
41
1
10
27.8005330135584
20
1.88500062334833
30
0
41
1
10
28.3163519108636
20
2.00409698929735
30
0
41
1
10
28.5743116277798
20
2.05964084903988
30
0
41
1
10
29.0900709294845
20
2.16300609868191
30
0
41
1
10
29.3480453706569
20
2.21077766167002
30
0
41
1
10
29.8642556500587
20
2.29595273937127
30
0
41
1
10
30.1222602046419
20
2.33385104964827
30
0
41
1
10
30.6377928612684
20
2.4005103659039
30
0
41
1
10
30.8951780744378
20
2.42930743898688
30
0
41
1
10
31.4111023217146
20
2.47625713910173
30
0
41
1
10
31.66956115156
20
2.49471121767911
30
0
41
1
10
32.185661673902
20
2.52161334715132
30
0
41
1
10
32.4430998872994
20
2.53003764823549
30
0
41
1
10
32.9586483488481
20
2.5363812382968
30
0
41
1
10
33.2166063619302
20
2.53443357800597
30
0
41
1
10
33.732449489261
20
2.52029395436745
30
0
41
1
10
33.9903131687968
20
2.50793578931172
30
0
41
1
10
34.5062971960631
20
2.4732139460896
30
0
41
1
10
34.7643359445787
20
2.45097368437402
30
0
41
1
10
35.2800020547122
20
2.39652884505841
30
0
41
1
10
35.5374557253068
20
2.36409399730275
30
0
41
1
10
36.0529226052968
20
2.28989840831673
30
0
41
1
10
36.3112642309167
20
2.24839138528117
30
0
41
1
10
36.8275615949698
20
2.15619791382804
30
0
41
1
10
37.0852260569801
20
2.10532661007878
30
0
41
1
10
37.6003850011155
20
1.99507801936869
30
0
41
1
10
37.8582618838881
20
1.93637988813779
30
0
41
1
10
38.374088753853
20
1.81111106767653
30
0
41
1
10
38.6321017127468
20
1.74436665981943
30
0
41
1
10
39.4056854964181
20
1.53256117984279
30
0
41
1
10
39.9216721195392
20
1.3808115510792
30
0
41
1
10
40.9518763589923
20
1.05103086255934
30
0
41
1
10
41.4691388164011
20
0.879036619729817
30
0
41
1
10
42.2417744521137
20
0.608227399865712
30
0
41
1
10
42.4993189059396
20
0.516768177852413
30
0
41
1
10
43.0150515966389
20
0.333279953037191
30
0
41
1
10
43.2730493166853
20
0.240735126067079
30
0
41
1
10
43.7890103237248
20
0.0531844623338031
30
0
41
1
10
44.0466009724077
20
-0.0410996117406626
30
0
41
1
10
44.5622746991843
20
-0.227171379915916
30
0
41
1
10
44.8200822602207
20
-0.319730169077019
30
0
41
1
10
45.335376024295
20
-0.504598739459169
30
0
41
1
10
45.5928393149089
20
-0.596960035449342
30
0
41
1
10
46.1091190685724
20
-0.77687103873285
30
0
41
1
10
46.3672169753582
20
-0.865109709357966
30
0
41
1
10
46.8826425813322
20
-1.03873195029448
30
0
41
1
10
47.1398791127272
20
-1.12449202845747
30
0
41
1
10
47.6553374514929
20
-1.28907296679606
30
0
41
1
10
47.9133048261333
20
-1.36856556968675
30
0
41
1
10
48.4293665736893
20
-1.52275810178165
30
0
41
1
10
48.6869628252001
20
-1.59777265521376
30
0
41
1
10
49.2024003158623
20
-1.7392838421006
30
0
41
1
10
49.4602273476079
20
-1.80617711084142
30
0
41
1
10
49.9756442881945
20
-1.93317605189793
30
0
41
1
10
50.2330337634606
20
-1.99358194008735
30
0
41
1
10
50.7488279690406
20
-2.10518273058074
30
0
41
1
10
51.0070709061237
20
-2.15638320240026
30
0
41
1
10
51.5226732846849
20
-2.25028159733318
30
0
41
1
10
51.7800201892802
20
-2.29316695838165
30
0
41
1
10
52.295057439611
20
-2.3690868524109
30
0
41
1
10
52.5529531052923
20
-2.40197484248495
30
0
41
1
10
53.0689590768585
20
-2.45827419702016
30
0
41
1
10
53.3268797365251
20
-2.48169684590317
30
0
41
1
10
53.8419260096696
20
-2.51825148051196
30
0
41
1
10
54.0996513128548
20
-2.53124458790043
30
0
41
1
10
54.552135654682
20
-2.5451948116683
30
0
41
1
10
54.7468872383479
20
-2.54830153742813
30
0
41
1
10
54.9416232438585
20
-2.54843343112862
30
0
0
SPLINE
5
C0
100
AcDbEntity
8
1
62
256
6
ByLayer
370
18
48
1
60
0
100
AcDbSpline
70
4
71
3
72
8
73
4
40
0
40
0
40
0
40
0
40
1
40
1
40
1
40
1
41
1
10
57.2877513606915
20
-2.34968358177281
30
0
41
1
10
57.2749791629772
20
-2.37798256787812
30
0
41
1
10
57.2621744794175
20
-2.40623767342126
30
0
41
1
10
57.2493365979547
20
-2.43444845860151
30
0
0
SPLINE
5
C1
100
AcDbEntity
8
1
62
256
6
ByLayer
370
18
48
1
60
0
100
AcDbSpline
70
4
71
3
72
24
73
20
40
0
40
0
40
0
40
0
40
0.0705319323743159
40
0.0705319323743159
40
0.141063864748632
40
0.141063864748632
40
0.211595797122948
40
0.211595797122948
40
0.282127729497263
40
0.282127729497263
40
0.564255458994525
40
0.564255458994525
40
0.705319323743156
40
0.705319323743156
40
0.775851256117472
40
0.775851256117472
40
0.846383188491787
40
0.846383188491787
40
1
40
1
40
1
40
1
41
1
10
2.540001246748
20
-0.0937565227668529
30
0
41
1
10
2.82660397312449
20
-0.191456914140417
30
0
41
1
10
3.11366543999443
20
-0.288922488897214
30
0
41
1
10
3.68700511629976
20
-0.481535033762839
30
0
41
1
10
3.97363372615502
20
-0.576801965592352
30
0
41
1
10
4.5472317898782
20
-0.76406175551611
30
0
41
1
10
4.83447143544274
20
-0.856133496862128
30
0
41
1
10
5.40670842152753
20
-1.03482343080481
30
0
41
1
10
5.69202284225906
20
-1.12154676496729
30
0
41
1
10
7.1156115822892
20
-1.53908322935632
30
0
41
1
10
8.24491541824179
20
-1.82163280969323
30
0
41
1
10
9.94439050267357
20
-2.12512251307027
30
0
41
1
10
10.5118355615807
20
-2.20631287007879
30
0
41
1
10
11.3667806419012
20
-2.29508291728945
30
0
41
1
10
11.6523924233567
20
-2.31916719816113
30
0
41
1
10
12.2252988470008
20
-2.35568249715959
30
0
41
1
10
12.512638667805
20
-2.36806375871026
30
0
41
1
10
13.4213964313608
20
-2.38817625520036
30
0
41
1
10
14.0405534872909
20
-2.37337468046456
30
0
41
1
10
14.658180910292
20
-2.33167363814692
30
0
0
SPLINE
5
C2
100
AcDbEntity
8
1
62
256
6
ByLayer
370
18
48
1
60
0
100
AcDbSpline
70
4
71
3
72
18
73
14
40
0
40
0
40
0
40
0
40
0.0691831849118049
40
0.0691831849118049
40
0.379455456607864
40
0.379455456607864
40
0.534591592455894
40
0.534591592455894
40
0.61215966037991
40
0.61215966037991
40
0.689727728303926
40
0.689727728303926
40
1
40
1
40
1
40
1
41
1
10
46.2719083232896
20
0.0042422287651505
30
0
41
1
10
46.526579834888
20
-0.0814384759759719
30
0
41
1
10
46.7806730002196
20
-0.166916866514498
30
0
41
1
10
48.1715568325837
20
-0.631970558088028
30
0
41
1
10
49.2996949626129
20
-0.998372310951737
30
0
41
1
10
50.9973233886353
20
-1.47113217675158
30
0
41
1
10
51.564100768649
20
-1.61600417212134
30
0
41
1
10
52.4180088045046
20
-1.80810845220867
30
0
41
1
10
52.70326608417
20
-1.8679485049833
30
0
41
1
10
53.2754243965321
20
-1.97829576272767
30
0
41
1
10
53.5627977755735
20
-2.02887247962258
30
0
41
1
10
54.9984254021253
20
-2.25523361644502
30
0
41
1
10
56.1398914344136
20
-2.350760750706
30
0
41
1
10
57.2877513606868
20
-2.34968358177059
30
0
0
SPLINE
5
C3
100
AcDbEntity
8
1
62
256
6
ByLayer
370
18
48
1
60
0
100
AcDbSpline
70
4
71
3
72
10
73
6
40
0
40
0
40
0
40
0
40
0.5
40
0.5
40
1
40
1
40
1
40
1
41
1
10
57.2934004175999
20
-2.29959749297544
30
0
41
1
10
57.2972936477667
20
-2.29989073160559
30
0
41
1
10
57.299659720007
20
-2.30432149130465
30
0
41
1
10
57.2978803744542
20
-2.32302778025021
30
0
41
1
10
57.2934193262336
20
-2.33712523576759
30
0
41
1
10
57.2877513606917
20
-2.34968358177059
30
0
0
SPLINE
5
C4
100
AcDbEntity
8
1
62
256
6
ByLayer
370
18
48
1
60
0
100
AcDbSpline
70
4
71
3
72
10
73
6
40
0
40
0
40
0
40
0
40
0.5
40
0.5
40
1
40
1
40
1
40
1
41
1
10
57.4492823068334
20
2.38845383022917
30
0
41
1
10
57.4277176522043
20
2.41904078590883
30
0
41
1
10
57.4055201977603
20
2.44566517748979
30
0
41
1
10
57.3605311828755
20
2.48970336696752
30
0
41
1
10
57.337725788593
20
2.50720530647499
30
0
41
1
10
57.3144724437925
20
2.52032805043271
30
0
0
SPLINE
5
C5
100
AcDbEntity
8
1
62
256
6
ByLayer
370
18
48
1
60
0
100
AcDbSpline
70
4
71
3
72
58
73
54
40
0
40
0
40
0
40
0
40
0.0252024066699229
40
0.0252024066699229
40
0.0501524337872639
40
0.0501524337872639
40
0.075102460904605
40
0.075102460904605
40
0.125002515139289
40
0.125002515139289
40
0.174902569373972
40
0.174902569373972
40
0.224802623608656
40
0.224802623608656
40
0.27470267784334
40
0.27470267784334
40
0.324602732078023
40
0.324602732078023
40
0.374502786312707
40
0.374502786312707
40
0.399452813430049
40
0.399452813430049
40
0.424402840547391
40
0.424402840547391
40
0.474302894782074
40
0.474302894782074
40
0.499252921899415
40
0.499252921899415
40
0.524202949016756
40
0.524202949016756
40
0.574103003251438
40
0.574103003251438
40
0.624003057486121
40
0.624003057486121
40
0.673903111720803
40
0.673903111720803
40
0.723803165955485
40
0.723803165955485
40
0.748753193072826
40
0.748753193072826
40
0.773703220190167
40
0.773703220190167
40
0.82360327442485
40
0.82360327442485
40
0.873503328659534
40
0.873503328659534
40
0.923403382894218
40
0.923403382894218
40
0.973303437128901
40
0.973303437128901
40
0.998253464246243
40
0.998253464246243
40
1
40
1
40
1
40
1
41
1
10
22.9763765609752
20
2.36636183979482
30
0
41
1
10
23.1952051353582
20
2.35009010542143
30
0
41
1
10
23.414080914873
20
2.33041199100035
30
0
41
1
10
23.8499013471524
20
2.28432392103724
30
0
41
1
10
24.0667662473696
20
2.25792005577395
30
0
41
1
10
24.5000539859935
20
2.19826271907238
30
0
41
1
10
24.7166317324173
20
2.16502084519595
30
0
41
1
10
25.366382479255
20
2.05585637687224
30
0
41
1
10
25.7991242312542
20
1.97006764534785
30
0
41
1
10
26.6666291234265
20
1.77719544863731
30
0
41
1
10
27.099847592941
20
1.67023183062329
30
0
41
1
10
27.9658922399749
20
1.43797642381091
30
0
41
1
10
28.3997111375499
20
1.31372707611229
30
0
41
1
10
29.2666843477022
20
1.05014952641753
30
0
41
1
10
29.6996869076029
20
0.912063984261607
30
0
41
1
10
30.5661373948842
20
0.626917102474181
30
0
41
1
10
30.9997290035178
20
0.478869628127029
30
0
41
1
10
31.8668009455573
20
0.181413644426641
30
0
41
1
10
32.2995683014449
20
0.0300641931164591
30
0
41
1
10
32.9495412379769
20
-0.195193385992127
30
0
41
1
10
33.1663543750953
20
-0.269956637445176
30
0
41
1
10
33.6001771959797
20
-0.419018274338924
30
0
41
1
10
33.8167665720796
20
-0.493393718369418
30
0
41
1
10
34.4663855272072
20
-0.713334995049138
30
0
41
1
10
34.8995361985811
20
-0.855024509254861
30
0
41
1
10
35.5494633510192
20
-1.06085089999533
30
0
41
1
10
35.766290353036
20
-1.12826046897052
30
0
41
1
10
36.1998824657755
20
-1.25879578814911
30
0
41
1
10
36.4166206894321
20
-1.32207849812769
30
0
41
1
10
37.0665488881127
20
-1.50675456630057
30
0
41
1
10
37.4993490182805
20
-1.62340922378078
30
0
41
1
10
38.3667570829015
20
-1.83579728504355
30
0
41
1
10
38.7999687145174
20
-1.93265896153119
30
0
41
1
10
39.6661331761831
20
-2.10130671290463
30
0
41
1
10
40.0993288229934
20
-2.17378631271038
30
0
41
1
10
40.9664624627949
20
-2.29368378882461
30
0
41
1
10
41.3997199139022
20
-2.33989926319322
30
0
41
1
10
42.0491801265009
20
-2.38990191013025
30
0
41
1
10
42.2656286467529
20
-2.40325273963828
30
0
41
1
10
42.6990229713323
20
-2.42278213767847
30
0
41
1
10
42.9160312090082
20
-2.42904239488536
30
0
41
1
10
43.5662836165618
20
-2.43748394385733
30
0
41
1
10
43.998900673049
20
-2.42906366787741
30
0
41
1
10
44.8653803304879
20
-2.38419110699169
30
0
41
1
10
45.2989989457034
20
-2.34802325306006
30
0
41
1
10
46.1655778340589
20
-2.24955147369138
30
0
41
1
10
46.5985120240247
20
-2.18725548435691
30
0
41
1
10
47.4647328720581
20
-2.03789709295452
30
0
41
1
10
47.898874175361
20
-1.95141628838004
30
0
41
1
10
48.5484206004979
20
-1.80525228708993
30
0
41
1
10
48.7647994851524
20
-1.75377040932435
30
0
41
1
10
48.9964901126957
20
-1.69621192049692
30
0
41
1
10
49.0116482490187
20
-1.69243472298368
30
0
41
1
10
49.0268069044813
20
-1.68864591289579
30
0
0
SPLINE
5
C6
100
AcDbEntity
8
1
62
256
6
ByLayer
370
18
48
1
60
0
100
AcDbSpline
70
4
71
3
72
10
73
6
40
0
40
0
40
0
40
0
40
0.5
40
0.5
40
1
40
1
40
1
40
1
41
1
10
57.4492823068261
20
2.38845383024994
30
0
41
1
10
57.5432419429864
20
2.15357757374804
30
0
41
1
10
57.6381728129087
20
1.91833200481565
30
0
41
1
10
57.8300425755906
20
1.44743147685315
30
0
41
1
10
57.9270455189454
20
1.21157934910158
30
0
41
1
10
58.0247526186323
20
0.976084002247319
30
0
0
SPLINE
5
C7
100
AcDbEntity
8
1
62
256
6
ByLayer
370
18
48
1
60
0
100
AcDbSpline
70
4
71
3
72
10
73
6
40
0
40
0
40
0
40
0
40
0.5
40
0.5
40
1
40
1
40
1
40
1
41
1
10
58.1302334900148
20
-0.673683529665652
30
0
41
1
10
58.1162370299864
20
-0.720268896116295
30
0
41
1
10
58.1001635180211
20
-0.768861387754697
30
0
41
1
10
58.0647533033838
20
-0.869828134112623
30
0
41
1
10
58.0452138812439
20
-0.922703131959793
30
0
41
1
10
58.0247526186328
20
-0.976084002247347
30
0
0
SPLINE
5
C8
100
AcDbEntity
8
1
62
256
6
ByLayer
370
18
48
1
60
0
100
AcDbSpline
70
4
71
3
72
8
73
4
40
0
40
0
40
0
40
0
40
1
40
1
40
1
40
1
41
1
10
13.2314648017239
20
-0.963131034776296
30
0
41
1
10
13.2313576854226
20
-0.975457880991343
30
0
41
1
10
13.2312504002794
20
-0.987623907317726
30
0
41
1
10
13.2311429455236
20
-0.99962837950352
30
0
0
SPLINE
5
C9
100
AcDbEntity
8
1
62
256
6
ByLayer
370
18
48
1
60
0
100
AcDbSpline
70
4
71
1
72
4
73
2
40
0
40
0
40
1
40
1
41
1
10
13.2315096110172
20
-1.2797977279194
30
0
41
1
10
13.2314648017145
20
-0.963131033234987
30
0
0
SPLINE
5
CA
100
AcDbEntity
8
1
62
256
6
ByLayer
370
18
48
1
60
0
100
AcDbSpline
70
4
71
3
72
38
73
34
40
0
40
0
40
0
40
0
40
0.0321166130821492
40
0.0321166130821492
40
0.0935167332094038
40
0.0935167332094038
40
0.154916853336659
40
0.154916853336659
40
0.216316973463913
40
0.216316973463913
40
0.277717093591168
40
0.277717093591168
40
0.339117213718423
40
0.339117213718423
40
0.400517333845677
40
0.400517333845677
40
0.461917453972932
40
0.461917453972932
40
0.523317574100187
40
0.523317574100187
40
0.584717694227441
40
0.584717694227441
40
0.707517934481951
40
0.707517934481951
40
0.768918054609207
40
0.768918054609207
40
0.830318174736462
40
0.830318174736462
40
0.891718294863718
40
0.891718294863718
40
0.953118414990973
40
0.953118414990973
40
1
40
1
40
1
40
1
41
1
10
37.3456662248193
20
-2.31584052064972
30
0
41
1
10
37.1057488573355
20
-2.33927283518545
30
0
41
1
10
36.8657858262811
20
-2.35879230727392
30
0
41
1
10
36.1674889258778
20
-2.40487467557338
30
0
41
1
10
35.7094664455688
20
-2.42139855241874
30
0
41
1
10
34.7924602790558
20
-2.42095886848259
30
0
41
1
10
34.3334434950526
20
-2.40425748379539
30
0
41
1
10
33.4168868899556
20
-2.34043450124054
30
0
41
1
10
32.9587653595779
20
-2.29330734077646
30
0
41
1
10
32.0410298469818
20
-2.17008085929999
30
0
41
1
10
31.5825835617387
20
-2.09425212176436
30
0
41
1
10
30.6659796023937
20
-1.91715651290184
30
0
41
1
10
30.2071640307931
20
-1.81573544168782
30
0
41
1
10
29.2897217688092
20
-1.590591562295
30
0
41
1
10
28.8316383263997
20
-1.46708252471811
30
0
41
1
10
27.9147974857809
20
-1.20307572753882
30
0
41
1
10
27.4556207725988
20
-1.06229085290107
30
0
41
1
10
26.538673619891
20
-0.769329781391036
30
0
41
1
10
26.0805671351933
20
-0.617103812999204
30
0
41
1
10
25.1632418831632
20
-0.306479123127929
30
0
41
1
10
24.7042339571163
20
-0.148144708620833
30
0
41
1
10
23.3292196195735
20
0.326073698830953
30
0
41
1
10
22.4113333559585
20
0.641713681606149
30
0
41
1
10
21.0360891429941
20
1.07844124953129
30
0
41
1
10
20.5770637413499
20
1.21831855522745
30
0
41
1
10
19.6596226228783
20
1.48064480665812
30
0
41
1
10
19.2015079569956
20
1.60308534654243
30
0
41
1
10
18.2844908245151
20
1.82505050764257
30
0
41
1
10
17.8252067246748
20
1.92467454053616
30
0
41
1
10
16.9081434270815
20
2.09770039368024
30
0
41
1
10
16.4498992831953
20
2.17124359488452
30
0
41
1
10
15.6407184829687
20
2.27607017288662
30
0
41
1
10
15.2902497221613
20
2.31317186443235
30
0
41
1
10
14.940018963094
20
2.34144885286912
30
0
0
SPLINE
5
CB
100
AcDbEntity
8
1
62
256
6
ByLayer
370
18
48
1
60
0
100
AcDbSpline
70
4
71
3
72
8
73
4
40
0
40
0
40
0
40
0
40
1
40
1
40
1
40
1
41
1
10
57.4492823068357
20
-2.38845383022587
30
0
41
1
10
57.6377624911399
20
-1.9172991735748
30
0
41
1
10
57.8296216628597
20
-1.44639201731417
30
0
41
1
10
58.0247526186323
20
-0.976084002247262
30
0
0
SPLINE
5
CC
100
AcDbEntity
8
1
62
256
6
ByLayer
370
18
48
1
60
0
100
AcDbSpline
70
4
71
3
72
8
73
4
40
0
40
0
40
0
40
0
40
1
40
1
40
1
40
1
41
1
10
58.1302334900147
20
-0.673683529665681
30
0
41
1
10
58.1811863795833
20
-0.477577053933317
30
0
41
1
10
58.2189606108308
20
-0.28097969525794
30
0
41
1
10
58.238434952288
20
-0.0837006963474494
30
0
0
SPLINE
5
CD
100
AcDbEntity
8
1
62
256
6
ByLayer
370
18
48
1
60
0
100
AcDbSpline
70
4
71
3
72
12
73
8
40
0
40
0
40
0
40
0
40
0.25
40
0.25
40
0.5
40
0.5
40
1
40
1
40
1
40
1
41
1
10
55.9068487610383
20
-1.22593295130722
30
0
41
1
10
55.9216033608614
20
-1.22535483750113
30
0
41
1
10
55.9364147040232
20
-1.22793713591903
30
0
41
1
10
55.9660746188334
20
-1.23517523608646
30
0
41
1
10
55.9809284981847
20
-1.2400932916504
30
0
41
1
10
56.0245876602015
20
-1.25731267255875
30
0
41
1
10
56.0529894145547
20
-1.27178148633621
30
0
41
1
10
56.0802280183452
20
-1.29118662784526
30
0
0
SPLINE
5
CE
100
AcDbEntity
8
1
62
256
6
ByLayer
370
18
48
1
60
0
100
AcDbSpline
70
4
71
3
72
30
73
26
40
0
40
0
40
0
40
0
40
0.0026100021368088
40
0.0026100021368088
40
0.115258041340819
40
0.115258041340819
40
0.227906080544829
40
0.227906080544829
40
0.453202158952849
40
0.453202158952849
40
0.565850198156859
40
0.565850198156859
40
0.622174217758864
40
0.622174217758864
40
0.636255222659366
40
0.636255222659366
40
0.643295725109616
40
0.643295725109616
40
0.650336227559867
40
0.650336227559867
40
0.678498237360869
40
0.678498237360869
40
0.903794315768887
40
0.903794315768887
40
1
40
1
40
1
40
1
41
1
10
7.93412258247662
20
2.29446563459078
30
0
41
1
10
7.93412258247662
20
2.29130800537462
30
0
41
1
10
7.93412258247662
20
2.2881527824363
30
0
41
1
10
7.93412258247662
20
2.14892379690355
30
0
41
1
10
7.93412258247662
20
2.01732565519936
30
0
41
1
10
7.93412258247662
20
1.7628241701033
30
0
41
1
10
7.93412258247659
20
1.63941664131369
30
0
41
1
10
7.93412258247659
20
1.28601976308536
30
0
41
1
10
7.93412258247659
20
1.07490744426227
30
0
41
1
10
7.93412258247659
20
0.793078051440659
30
0
41
1
10
7.93412258247662
20
0.704772481161427
30
0
41
1
10
7.93412258247662
20
0.582266429320015
30
0
41
1
10
7.93412258247662
20
0.543106847557794
30
0
41
1
10
7.93412258247662
20
0.496281960846631
30
0
41
1
10
7.93412258247659
20
0.486640668317847
30
0
41
1
10
7.93412258247659
20
0.473519325338316
30
0
41
1
10
7.93412258247659
20
0.471082309138012
30
0
41
1
10
7.93412258247659
20
0.471105087699101
30
0
41
1
10
7.93412258247659
20
0.473620764164622
30
0
41
1
10
7.93412258247659
20
0.482146598237677
30
0
41
1
10
7.93412258247662
20
0.489237778058367
30
0
41
1
10
7.93412258247662
20
0.555491083160803
30
0
41
1
10
7.93412258247662
20
0.631927842184155
30
0
41
1
10
7.93412258247662
20
0.765032055114773
30
0
41
1
10
7.93412258247662
20
0.807909740048189
30
0
41
1
10
7.93412258247662
20
0.853866682771098
30
0
0
SPLINE
5
CF
100
AcDbEntity
8
1
62
256
6
ByLayer
370
18
48
1
60
0
100
AcDbSpline
70
4
71
3
72
8
73
4
40
0
40
0
40
0
40
0
40
1
40
1
40
1
40
1
41
1
10
38.0377793349255
20
2.1731543709233
30
0
41
1
10
37.174385269
20
2.33423589294654
30
0
41
1
10
36.3109912030744
20
2.44509633981846
30
0
41
1
10
35.4475971371489
20
2.49837833333154
30
0
0
SPLINE
5
D0
100
AcDbEntity
8
1
62
256
6
ByLayer
370
18
48
1
60
0
100
AcDbSpline
70
4
71
3
72
10
73
6
40
0
40
0
40
0
40
0
40
0.5
40
0.5
40
1
40
1
40
1
40
1
41
1
10
57.1182348502965
20
0.658808641137767
30
0
41
1
10
57.1235815456761
20
0.671423845836784
30
0
41
1
10
57.1314792208939
20
0.685244313708552
30
0
41
1
10
57.1496711139655
20
0.710564614679811
30
0
41
1
10
57.1601441147667
20
0.722337120266417
30
0
41
1
10
57.1703248876551
20
0.731306030378931
30
0
0
SPLINE
5
D1
100
AcDbEntity
8
1
62
256
6
ByLayer
370
18
48
1
60
0
100
AcDbSpline
70
4
71
3
72
26
73
22
40
0
40
0
40
0
40
0
40
0.265120269349541
40
0.265120269349541
40
0.397680404024313
40
0.397680404024313
40
0.530240538699086
40
0.530240538699086
40
0.662800673373858
40
0.662800673373858
40
0.79536080804863
40
0.79536080804863
40
0.861640875386018
40
0.861640875386018
40
0.927920942723405
40
0.927920942723405
40
0.9610609763921
40
0.9610609763921
40
0.994201010060795
40
0.994201010060795
40
1
40
1
40
1
40
1
41
1
10
7.93412258247659
20
0.86055038765727
30
0
41
1
10
7.44267266992935
20
1.05940270969734
30
0
41
1
10
6.9573308355844
20
1.25594615492216
30
0
41
1
10
6.23591854607417
20
1.53687558000121
30
0
41
1
10
5.99655568131249
20
1.628213070833
30
0
41
1
10
5.51980051025899
20
1.80443614078789
30
0
41
1
10
5.28208941978576
20
1.88941912477984
30
0
41
1
10
4.81436743317272
20
2.04883153181001
30
0
41
1
10
4.58368964783935
20
2.12353984556171
30
0
41
1
10
4.13019166408364
20
2.25992955888267
30
0
41
1
10
3.90727636271629
20
2.32172659073439
30
0
41
1
10
3.58174895298842
20
2.40032664774273
30
0
41
1
10
3.47530349019695
20
2.42399086697222
30
0
41
1
10
3.27016876344228
20
2.46448620859442
30
0
41
1
10
3.17112997048375
20
2.48142236974294
30
0
41
1
10
3.03012950467945
20
2.50013525761986
30
0
41
1
10
2.98440209954035
20
2.50524813514258
30
0
41
1
10
2.89616675964936
20
2.51272328606944
30
0
41
1
10
2.85344059738875
20
2.51508864738773
30
0
41
1
10
2.80652147540616
20
2.51579320825374
30
0
41
1
10
2.79961863290137
20
2.51584478453384
30
0
41
1
10
2.7928045790342
20
2.51584078485322
30
0
0
SPLINE
5
D2
100
AcDbEntity
8
1
62
256
6
ByLayer
370
18
48
1
60
0
100
AcDbSpline
70
4
71
3
72
10
73
6
40
0
40
0
40
0
40
0
40
0.484567440335582
40
0.484567440335582
40
1
40
1
40
1
40
1
41
1
10
4.90195895279231
20
2.0185201326691
30
0
41
1
10
5.40112390272955
20
2.03873895831964
30
0
41
1
10
5.89543472399649
20
2.07570212288914
30
0
41
1
10
6.90629460987626
20
2.17267893684004
30
0
41
1
10
7.42226252410632
20
2.23406159340371
30
0
41
1
10
7.93412258247662
20
2.29446563459078
30
0
0
SPLINE
5
D3
100
AcDbEntity
8
1
62
256
6
ByLayer
370
18
48
1
60
0
100
AcDbSpline
70
4
71
3
72
10
73
6
40
0
40
0
40
0
40
0
40
0.5
40
0.5
40
1
40
1
40
1
40
1
41
1
10
58.1302334900148
20
0.673683529665482
30
0
41
1
10
58.1162370299864
20
0.720268896116153
30
0
41
1
10
58.1001635180212
20
0.768861387754583
30
0
41
1
10
58.0647533033838
20
0.869828134112566
30
0
41
1
10
58.0452138812439
20
0.922703131959764
30
0
41
1
10
58.0247526186328
20
0.976084002247347
30
0
0
SPLINE
5
D4
100
AcDbEntity
8
1
62
256
6
ByLayer
370
18
48
1
60
0
100
AcDbSpline
70
4
71
3
72
28
73
24
40
0
40
0
40
0
40
0
40
0.0290363882642699
40
0.0290363882642699
40
0.089528795105554
40
0.089528795105554
40
0.150021201946838
40
0.150021201946838
40
0.271006015629407
40
0.271006015629407
40
0.391990829311975
40
0.391990829311975
40
0.512975642994543
40
0.512975642994543
40
0.573468049835827
40
0.573468049835827
40
0.63396045667711
40
0.63396045667711
40
0.875930084042235
40
0.875930084042235
40
0.996914897724799
40
0.996914897724799
40
1
40
1
40
1
40
1
41
1
10
35.4655251507927
20
-2.31470426947638
30
0
41
1
10
35.328883561951
20
-2.31499286391619
30
0
41
1
10
35.1921301356522
20
-2.31396171654268
30
0
41
1
10
34.7700624050715
20
-2.30668229269958
30
0
41
1
10
34.4843028333921
20
-2.29602313609681
30
0
41
1
10
33.9112344939574
20
-2.26311493717668
30
0
41
1
10
33.6237762988434
20
-2.24083429858089
30
0
41
1
10
32.7637284829179
20
-2.1575057693392
30
0
41
1
10
32.1917609979986
20
-2.07975277512307
30
0
41
1
10
31.0472557988883
20
-1.8842974300498
30
0
41
1
10
30.4743901657727
20
-1.76647002341829
30
0
41
1
10
29.3261255447889
20
-1.49710562453083
30
0
41
1
10
28.7535808451547
20
-1.34622335860473
30
0
41
1
10
27.8945946328427
20
-1.10193330937636
30
0
41
1
10
27.608243729994
20
-1.01750359876203
30
0
41
1
10
27.0350640133477
20
-0.843769062994795
30
0
41
1
10
26.7479159151844
20
-0.754373980247948
30
0
41
1
10
25.313728683891
20
-0.299411618257125
30
0
41
1
10
24.1786313395291
20
0.0875725112148302
30
0
41
1
10
22.47515710103
20
0.641614865476583
30
0
41
1
10
21.9071892029332
20
0.821893549874659
30
0
41
1
10
21.3229568038553
20
0.997313706221036
30
0
41
1
10
21.3084282362263
20
1.00166963324796
30
0
41
1
10
21.2938985022472
20
1.00601944111389
30
0
0
SPLINE
5
D5
100
AcDbEntity
8
1
62
256
6
ByLayer
370
18
48
1
60
0
100
AcDbSpline
70
4
71
3
72
70
73
66
40
0
40
0
40
0
40
0
40
0.0619329119158528
40
0.0619329119158528
40
0.0928993678737792
40
0.0928993678737792
40
0.123865823831706
40
0.123865823831706
40
0.154832279789632
40
0.154832279789632
40
0.185798735747558
40
0.185798735747558
40
0.216765191705485
40
0.216765191705485
40
0.247731647663411
40
0.247731647663411
40
0.278698103621338
40
0.278698103621338
40
0.309664559579264
40
0.309664559579264
40
0.34063101553719
40
0.34063101553719
40
0.371597471495117
40
0.371597471495117
40
0.402563927453043
40
0.402563927453043
40
0.433530383410969
40
0.433530383410969
40
0.464496839368896
40
0.464496839368896
40
0.495463295326822
40
0.495463295326822
40
0.526429751284748
40
0.526429751284748
40
0.557396207242673
40
0.557396207242673
40
0.588362663200599
40
0.588362663200599
40
0.619329119158525
40
0.619329119158525
40
0.65029557511645
40
0.65029557511645
40
0.681262031074376
40
0.681262031074376
40
0.712228487032302
40
0.712228487032302
40
0.743194942990227
40
0.743194942990227
40
0.774161398948153
40
0.774161398948153
40
0.805127854906078
40
0.805127854906078
40
0.836094310864004
40
0.836094310864004
40
0.86706076682193
40
0.86706076682193
40
0.898027222779855
40
0.898027222779855
40
0.928993678737781
40
0.928993678737781
40
0.959960134695707
40
0.959960134695707
40
0.990926590653632
40
0.990926590653632
40
1
40
1
40
1
40
1
41
1
10
7.93412258247662
20
2.29446563459078
30
0
41
1
10
8.45023730137279
20
2.37214126575313
30
0
41
1
10
8.96685856709689
20
2.42926426035791
30
0
41
1
10
9.74021444125532
20
2.48658447315071
30
0
41
1
10
9.99818515564709
20
2.50055691824835
30
0
41
1
10
10.5150685262858
20
2.51823514454716
30
0
41
1
10
10.7733954439943
20
2.5220169308094
30
0
41
1
10
11.2891026798205
20
2.51928227561896
30
0
41
1
10
11.5467625355907
20
2.51270158055982
30
0
41
1
10
12.0628815695647
20
2.48957991972932
30
0
41
1
10
12.3210733875624
20
2.47301822806156
30
0
41
1
10
12.8374653835996
20
2.42955142909335
30
0
41
1
10
13.0953760047811
20
2.40256894796522
30
0
41
1
10
13.6115239871135
20
2.33969597863566
30
0
41
1
10
13.8695800892851
20
2.30360130196712
30
0
41
1
10
14.3853831157406
20
2.2217076799775
30
0
41
1
10
14.6429917522485
20
2.17563549949344
30
0
41
1
10
15.1595254188236
20
2.07588196201806
30
0
41
1
10
15.4180093549843
20
2.02192909152515
30
0
41
1
10
15.9340264356958
20
1.90553673327898
30
0
41
1
10
16.1915103448032
20
1.84262799924662
30
0
41
1
10
16.7073211437702
20
1.71092258048455
30
0
41
1
10
16.9654899817927
20
1.64189902002798
30
0
41
1
10
17.4819206814937
20
1.4966006373528
30
0
41
1
10
17.7399004919734
20
1.4198309812503
30
0
41
1
10
18.2557814023225
20
1.26226117768149
30
0
41
1
10
18.513850924073
20
1.18144579459252
30
0
41
1
10
19.0297430498808
20
1.01457570630549
30
0
41
1
10
19.2873915362805
20
0.928041243223532
30
0
41
1
10
19.8034320178066
20
0.752136249130444
30
0
41
1
10
20.0619835432944
20
0.66323104861155
30
0
41
1
10
20.5781516220709
20
0.482637926580594
30
0
41
1
10
20.8358301957554
20
0.390542340310787
30
0
41
1
10
21.3512126908154
20
0.205021920567276
30
0
41
1
10
21.6092819553808
20
0.112618481158591
30
0
41
1
10
22.1256517774387
20
-0.072909804890287
30
0
41
1
10
22.3839592816909
20
-0.166234815864442
30
0
41
1
10
22.8995315191687
20
-0.352560981355282
30
0
41
1
10
23.1574909121005
20
-0.444190099789381
30
0
41
1
10
23.6733978360551
20
-0.625430047969388
30
0
41
1
10
23.931298147515
20
-0.715166275801522
30
0
41
1
10
24.4469232523841
20
-0.892987373592518
30
0
41
1
10
24.705297016419
20
-0.979691322384042
30
0
41
1
10
25.2215572878424
20
-1.1481382043155
30
0
41
1
10
25.4795050384048
20
-1.23019043852119
30
0
41
1
10
25.9947547733003
20
-1.39050004143394
30
0
41
1
10
26.2524805301602
20
-1.46772482256495
30
0
41
1
10
26.7687147103141
20
-1.61511451535637
30
0
41
1
10
27.0271975882733
20
-1.68574607315659
30
0
41
1
10
27.5429422381176
20
-1.82091333064642
30
0
41
1
10
27.8005330135584
20
-1.88500062334833
30
0
41
1
10
28.3163519108635
20
-2.00409698929732
30
0
41
1
10
28.5743116277798
20
-2.05964084903988
30
0
41
1
10
29.0900709294845
20
-2.16300609868193
30
0
41
1
10
29.3480453706569
20
-2.21077766167002
30
0
41
1
10
29.8642556500587
20
-2.29595273937127
30
0
41
1
10
30.1222602046418
20
-2.33385104964827
30
0
41
1
10
30.6377928612684
20
-2.4005103659039
30
0
41
1
10
30.8951780744378
20
-2.42930743898688
30
0
41
1
10
31.4111023217146
20
-2.47625713910173
30
0
41
1
10
31.66956115156
20
-2.49471121767911
30
0
41
1
10
32.185661673902
20
-2.52161334715132
30
0
41
1
10
32.4430998872994
20
-2.53003764823549
30
0
41
1
10
32.7764039468
20
-2.53413880356217
30
0
41
1
10
32.8519495538804
20
-2.53462864070494
30
0
41
1
10
32.9275053992243
20
-2.53467888686939
30
0
0
SPLINE
5
D6
100
AcDbEntity
8
1
62
256
6
ByLayer
370
18
48
1
60
0
100
AcDbSpline
70
4
71
3
72
28
73
24
40
0
40
0
40
0
40
0
40
0.0816419767550708
40
0.0816419767550708
40
0.173477779079564
40
0.173477779079564
40
0.265313581404057
40
0.265313581404057
40
0.35714938372855
40
0.35714938372855
40
0.448985186053043
40
0.448985186053043
40
0.540820988377536
40
0.540820988377536
40
0.632656790702028
40
0.632656790702028
40
0.724492593026521
40
0.724492593026521
40
0.816328395351014
40
0.816328395351014
40
0.908164197675507
40
0.908164197675507
40
1
40
1
40
1
40
1
41
1
10
49.0305060387782
20
1.69194785656614
30
0
41
1
10
49.2596367453339
20
1.75409240739259
30
0
41
1
10
49.4888331323612
20
1.81322558768738
30
0
41
1
10
49.9756442881946
20
1.93317605189793
30
0
41
1
10
50.2330337634606
20
1.99358194008735
30
0
41
1
10
50.7488279690405
20
2.10518273058074
30
0
41
1
10
51.0070709061237
20
2.15638320240029
30
0
41
1
10
51.5226732846849
20
2.25028159733316
30
0
41
1
10
51.7800201892802
20
2.29316695838165
30
0
41
1
10
52.295057439611
20
2.3690868524109
30
0
41
1
10
52.5529531052923
20
2.40197484248495
30
0
41
1
10
53.0689590768586
20
2.45827419702016
30
0
41
1
10
53.3268797365251
20
2.48169684590317
30
0
41
1
10
53.8419260096696
20
2.51825148051196
30
0
41
1
10
54.0996513128548
20
2.53124458790043
30
0
41
1
10
54.6149990739422
20
2.54713290915464
30
0
41
1
10
54.8725699475485
20
2.55000465217438
30
0
41
1
10
55.3877060758798
20
2.54525390476579
30
0
41
1
10
55.6459430145474
20
2.53768286981395
30
0
41
1
10
56.1617122088391
20
2.51244627290444
30
0
41
1
10
56.4193496987266
20
2.49475688998533
30
0
41
1
10
56.9339777500803
20
2.44887241111812
30
0
41
1
10
57.1914864079698
20
2.4210122379389
30
0
41
1
10
57.4492823068358
20
2.38845383022573
30
0
0
SPLINE
5
D7
100
AcDbEntity
8
1
62
256
6
ByLayer
370
18
48
1
60
0
100
AcDbSpline
70
4
71
3
72
36
73
32
40
0
40
0
40
0
40
0
40
0.0676475551682977
40
0.0676475551682977
40
0.135295110336595
40
0.135295110336595
40
0.202942665504893
40
0.202942665504893
40
0.270590220673191
40
0.270590220673191
40
0.338237775841489
40
0.338237775841489
40
0.405885331009787
40
0.405885331009787
40
0.473532886178084
40
0.473532886178084
40
0.541180441346382
40
0.541180441346382
40
0.60882799651468
40
0.60882799651468
40
0.676475551682977
40
0.676475551682977
40
0.744123106851275
40
0.744123106851275
40
0.811770662019573
40
0.811770662019573
40
0.879418217187871
40
0.879418217187871
40
0.947065772356168
40
0.947065772356168
40
1
40
1
40
1
40
1
41
1
10
57.2493365979575
20
-2.43444845860978
30
0
41
1
10
56.7908968351003
20
-2.43315589766399
30
0
41
1
10
56.3322122772083
20
-2.41628121149768
30
0
41
1
10
55.415669681925
20
-2.35217251429455
30
0
41
1
10
54.9579494608955
20
-2.30496967311168
30
0
41
1
10
54.0417643197594
20
-2.18109263608073
30
0
41
1
10
53.582944142281
20
-2.10443206083517
30
0
41
1
10
52.6668136508291
20
-1.92571825333434
30
0
41
1
10
52.2090500126226
20
-1.82356750134582
30
0
41
1
10
51.2922013981829
20
-1.59697436189765
30
0
41
1
10
50.8337122291201
20
-1.47262244164142
30
0
41
1
10
49.9176820345992
20
-1.20725239627572
30
0
41
1
10
49.459500080267
20
-1.06598791464006
30
0
41
1
10
48.5422832897625
20
-0.771232404333688
30
0
41
1
10
48.0843947350628
20
-0.618261595116451
30
0
41
1
10
47.1682424762222
20
-0.306301655075373
30
0
41
1
10
46.709409165438
20
-0.147173433337684
30
0
41
1
10
45.7927875522852
20
0.170516888099144
30
0
41
1
10
45.3349671338199
20
0.32905267960362
30
0
41
1
10
44.4183947718654
20
0.640068942255226
30
0
41
1
10
43.9595013156997
20
0.792715688799433
30
0
41
1
10
43.0432160698824
20
1.08512354542691
30
0
41
1
10
42.5853100715136
20
1.22511252130732
30
0
41
1
10
41.6681108686794
20
1.48813108551118
30
0
41
1
10
41.2096667159466
20
1.61087912232327
30
0
41
1
10
40.2934822305098
20
1.83392635348378
30
0
41
1
10
39.8349990832915
20
1.93437020190757
30
0
41
1
10
38.9177776972408
20
2.1090199024419
30
0
41
1
10
38.4598753023434
20
2.18303163284318
30
0
41
1
10
37.6431203245151
20
2.28782084578208
30
0
41
1
10
37.2840801307133
20
2.32461766257953
30
0
41
1
10
36.925187956315
20
2.35294477487568
30
0
0
SPLINE
5
D8
100
AcDbEntity
8
1
62
256
6
ByLayer
370
18
48
1
60
0
100
AcDbSpline
70
4
71
3
72
10
73
6
40
0
40
0
40
0
40
0
40
0.2247709850201
40
0.2247709850201
40
1
40
1
40
1
40
1
41
1
10
15.0136198965912
20
-2.33537701083927
30
0
41
1
10
14.8806140974113
20
-2.34658313616151
30
0
41
1
10
14.7476389375421
20
-2.35652223305593
30
0
41
1
10
14.1562611288562
20
-2.39497230145938
30
0
41
1
10
13.6979289855458
20
-2.40938391643652
30
0
41
1
10
13.2386999623878
20
-2.40761612461151
30
0
0
SPLINE
5
D9
100
AcDbEntity
8
1
62
256
6
ByLayer
370
18
48
1
60
0
100
AcDbSpline
70
4
71
3
72
10
73
6
40
0
40
0
40
0
40
0
40
0.5
40
0.5
40
1
40
1
40
1
40
1
41
1
10
58.2375264956468
20
0.0565799804500386
30
0
41
1
10
58.2370290908142
20
0.0434613700274724
30
0
41
1
10
58.2344755418032
20
0.0276642280788906
30
0
41
1
10
58.2236685803096
20
-0.0072423909998349
30
0
41
1
10
58.2153441038558
20
-0.0254118470137996
30
0
41
1
10
58.2065841538919
20
-0.038486331401856
30
0
0
SPLINE
5
DA
100
AcDbEntity
8
1
62
256
6
ByLayer
370
18
48
1
60
0
100
AcDbSpline
70
4
71
3
72
22
73
18
40
0
40
0
40
0
40
0
40
0.20157222292384
40
0.20157222292384
40
0.302358334385759
40
0.302358334385759
40
0.403144445847678
40
0.403144445847678
40
0.453537501578637
40
0.453537501578637
40
0.503930557309597
40
0.503930557309597
40
0.604716668771516
40
0.604716668771516
40
0.806288891695354
40
0.806288891695354
40
1
40
1
40
1
40
1
41
1
10
2.54866101364166
20
1.75931466769291
30
0
41
1
10
3.6552826414715
20
1.47281543831682
30
0
41
1
10
4.757516498435
20
1.12707575639587
30
0
41
1
10
6.41889862711923
20
0.556479994363912
30
0
41
1
10
6.97130468346819
20
0.360588748223847
30
0
41
1
10
8.0758387424325
20
-0.0346404639713569
30
0
41
1
10
8.62793055231134
20
-0.234240857449976
30
0
41
1
10
9.45848417776855
20
-0.529097621272996
30
0
41
1
10
9.73492221740327
20
-0.626424923919188
30
0
41
1
10
10.2876612179952
20
-0.816432921691785
30
0
41
1
10
10.5638702087833
20
-0.909525089232403
30
0
41
1
10
11.392372727124
20
-1.18215726189982
30
0
41
1
10
11.9445599857194
20
-1.35499429387431
30
0
41
1
10
13.6051680799307
20
-1.83492622136416
30
0
41
1
10
14.7068602006098
20
-2.09314170873009
30
0
41
1
10
16.8781102071681
20
-2.43737319778617
30
0
41
1
10
17.9366600714383
20
-2.52550141882634
30
0
41
1
10
19.0001769294575
20
-2.52596675349616
30
0
0
SPLINE
5
DB
100
AcDbEntity
8
1
62
256
6
ByLayer
370
18
48
1
60
0
100
AcDbSpline
70
4
71
3
72
32
73
28
40
0
40
0
40
0
40
0
40
0.0494310425615627
40
0.0494310425615627
40
0.144487938305407
40
0.144487938305407
40
0.23954483404925
40
0.23954483404925
40
0.334601729793094
40
0.334601729793094
40
0.429658625536938
40
0.429658625536938
40
0.524715521280781
40
0.524715521280781
40
0.619772417024625
40
0.619772417024625
40
0.667300864896547
40
0.667300864896547
40
0.714829312768469
40
0.714829312768469
40
0.809886208512311
40
0.809886208512311
40
0.857414656384232
40
0.857414656384232
40
0.904943104256154
40
0.904943104256154
40
1
40
1
40
1
40
1
41
1
10
38.1551423488836
20
2.32734881303094
30
0
41
1
10
38.4422035986985
20
2.36891197113499
30
0
41
1
10
38.7294584006458
20
2.40466297008601
30
0
41
1
10
39.5702097967512
20
2.49150745642956
30
0
41
1
10
40.1226486059044
20
2.5256338936305
30
0
41
1
10
41.2258584637012
20
2.54675765655188
30
0
41
1
10
41.7774672228094
20
2.53374178321394
30
0
41
1
10
42.8835722118437
20
2.46064931902092
30
0
41
1
10
43.4360099784351
20
2.40089365766116
30
0
41
1
10
44.5391188463632
20
2.23794609301112
30
0
41
1
10
45.0906650085535
20
2.13510669351226
30
0
41
1
10
46.1966467425796
20
1.89049994464412
30
0
41
1
10
46.7490670754225
20
1.74978381349979
30
0
41
1
10
47.8520780986244
20
1.4382384610185
30
0
41
1
10
48.4035683894565
20
1.26801715933004
30
0
41
1
10
49.2329432847844
20
0.99595029882525
30
0
41
1
10
49.5095001457069
20
0.902642480735778
30
0
41
1
10
50.0616944775245
20
0.712888327090781
30
0
41
1
10
50.3375361226916
20
0.616248596573598
30
0
41
1
10
51.1647272784016
20
0.322203542277407
30
0
41
1
10
51.7161200591502
20
0.121693805983171
30
0
41
1
10
52.5454439579332
20
-0.17933149844643
30
0
41
1
10
52.8219203129199
20
-0.279619900190511
30
0
41
1
10
53.3732206995742
20
-0.477625538242563
30
0
41
1
10
53.6483575571485
20
-0.575523591262453
30
0
41
1
10
54.4726166603568
20
-0.864840204422961
30
0
41
1
10
55.0210598048167
20
-1.05056845994139
30
0
41
1
10
55.5699138999699
20
-1.2253930506775
30
0
0
SPLINE
5
DC
100
AcDbEntity
8
1
62
256
6
ByLayer
370
18
48
1
60
0
100
AcDbSpline
70
4
71
3
72
18
73
14
40
0
40
0
40
0
40
0
40
0.113960103503876
40
0.113960103503876
40
0.227920207007753
40
0.227920207007753
40
0.341880310511629
40
0.341880310511629
40
0.455840414015505
40
0.455840414015505
40
0.911680828031013
40
0.911680828031013
40
1
40
1
40
1
40
1
41
1
10
2.54781208696727
20
1.58402878223168
30
0
41
1
10
2.82788303643724
20
1.51658454645562
30
0
41
1
10
3.10850352343377
20
1.44495840270841
30
0
41
1
10
3.66906604853074
20
1.29508484886864
30
0
41
1
10
3.94936270841566
20
1.21675146903942
30
0
41
1
10
4.51035583845851
20
1.054551838327
30
0
41
1
10
4.79124989341395
20
0.970629021201376
30
0
41
1
10
5.35095196048832
20
0.799256303501323
30
0
41
1
10
5.63009179859372
20
0.711711252427193
30
0
41
1
10
7.02299925414493
20
0.267173406636857
30
0
41
1
10
8.12889805872169
20
-0.107577315269339
30
0
41
1
10
9.45199364359124
20
-0.537620250018676
30
0
41
1
10
9.66680893518958
20
-0.606903970885298
30
0
41
1
10
9.88190768021249
20
-0.674996499007705
30
0
0
SPLINE
5
DD
100
AcDbEntity
8
1
62
256
6
ByLayer
370
18
48
1
60
0
100
AcDbSpline
70
4
71
3
72
30
73
26
40
0
40
0
40
0
40
0
40
0.0087489746802117
40
0.0087489746802117
40
0.07503121920224
40
0.07503121920224
40
0.141313463724269
40
0.141313463724269
40
0.207595708246297
40
0.207595708246297
40
0.273877952768325
40
0.273877952768325
40
0.340160197290354
40
0.340160197290354
40
0.406442441812382
40
0.406442441812382
40
0.539006930856436
40
0.539006930856436
40
0.67157141990049
40
0.67157141990049
40
0.804135908944544
40
0.804135908944544
40
0.936700397988597
40
0.936700397988597
40
1
40
1
40
1
40
1
41
1
10
40.9070663591897
20
2.30519659041064
30
0
41
1
10
40.944030057908
20
2.30514323708232
30
0
41
1
10
40.9810062652342
20
2.30499389553731
30
0
41
1
10
41.2982266007172
20
2.30287955373799
30
0
41
1
10
41.5793530691943
20
2.29492976507424
30
0
41
1
10
42.139992709346
20
2.26865232617811
30
0
41
1
10
42.4199514036148
20
2.25047174901127
30
0
41
1
10
42.9796105911444
20
2.20304806372539
30
0
41
1
10
43.2593254723059
20
2.17365907798794
30
0
41
1
10
43.8187976223884
20
2.10504802971295
30
0
41
1
10
44.0985352386416
20
2.06595187848077
30
0
41
1
10
44.6585366911673
20
1.97777326625501
30
0
41
1
10
44.9388262370739
20
1.9285639667076
30
0
41
1
10
45.5002029704082
20
1.82119087119133
30
0
41
1
10
45.780883954382
20
1.7631854462289
30
0
41
1
10
46.6196122539259
20
1.57751495790708
30
0
41
1
10
47.175767917182
20
1.43786187791346
30
0
41
1
10
48.2850611334531
20
1.13592465433592
30
0
41
1
10
48.838181417329
20
0.973121217725492
30
0
41
1
10
49.9441302734974
20
0.633002371893497
30
0
41
1
10
50.4970707483323
20
0.455516839773367
30
0
41
1
10
51.6053594742746
20
0.0944956102355263
30
0
41
1
10
52.16099531795
20
-0.0886916648054523
30
0
41
1
10
52.9857061928661
20
-0.357251822692007
30
0
41
1
10
53.2528933506559
20
-0.443574160785431
30
0
41
1
10
53.5208435447697
20
-0.52900245770266
30
0
0
SPLINE
5
DE
100
AcDbEntity
8
1
62
256
6
ByLayer
370
18
48
1
60
0
100
AcDbSpline
70
4
71
3
72
8
73
4
40
0
40
0
40
0
40
0
40
1
40
1
40
1
40
1
41
1
10
55.8493299138554
20
-1.22804160530598
30
0
41
1
10
55.9262930022275
20
-1.24929724506603
30
0
41
1
10
56.0032579314321
20
-1.27034710325
30
0
41
1
10
56.0802280183578
20
-1.29118662785416
30
0
0
SPLINE
5
DF
100
AcDbEntity
8
1
62
256
6
ByLayer
370
18
48
1
60
0
100
AcDbSpline
70
4
71
3
72
38
73
34
40
0
40
0
40
0
40
0
40
0.0625
40
0.0625
40
0.125
40
0.125
40
0.1875
40
0.1875
40
0.25
40
0.25
40
0.3125
40
0.3125
40
0.375
40
0.375
40
0.4375
40
0.4375
40
0.5
40
0.5
40
0.5625
40
0.5625
40
0.625
40
0.625
40
0.6875
40
0.6875
40
0.75
40
0.75
40
0.8125
40
0.8125
40
0.875
40
0.875
40
0.9375
40
0.9375
40
1
40
1
40
1
40
1
41
1
10
57.3144724437926
20
-2.52032805043268
30
0
41
1
10
56.9129331817735
20
-2.54238620850336
30
0
41
1
10
56.5117415290281
20
-2.55181851412391
30
0
41
1
10
55.7089836518896
20
-2.54550155456408
30
0
41
1
10
55.3070844438815
20
-2.52967511960051
30
0
41
1
10
54.5041060271963
20
-2.47334112476719
30
0
41
1
10
54.1027234474269
20
-2.43293415615909
30
0
41
1
10
53.2991001038165
20
-2.32862425745648
30
0
41
1
10
52.8972915642931
20
-2.26470265488749
30
0
41
1
10
52.0946864849026
20
-2.11533730899802
30
0
41
1
10
51.693486687479
20
-2.02993062064854
30
0
41
1
10
50.8898990578107
20
-1.83991432077912
30
0
41
1
10
50.4881380007928
20
-1.73530369662007
30
0
41
1
10
49.6856149538179
20
-1.51007976000875
30
0
41
1
10
49.2844923615602
20
-1.3894151041651
30
0
41
1
10
48.4808513018728
20
-1.13580636970403
30
0
41
1
10
48.0790992618642
20
-1.0029000790706
30
0
41
1
10
47.2764948560978
20
-0.728479833560897
30
0
41
1
10
46.8753392559373
20
-0.586876681839811
30
0
41
1
10
46.0715909842234
20
-0.29950979246189
30
0
41
1
10
45.6697700520652
20
-0.154181489885673
30
0
41
1
10
44.8669474540795
20
0.136855908240278
30
0
41
1
10
44.4657059056775
20
0.28266454641556
30
0
41
1
10
43.6619794626842
20
0.570478408538463
30
0
41
1
10
43.260341510624
20
0.711823128408923
30
0
41
1
10
42.4574856916132
20
0.985861824998636
30
0
41
1
10
42.0561529758412
20
1.11880506378037
30
0
41
1
10
41.2523521694457
20
1.37308394465566
30
0
41
1
10
40.850954922332
20
1.49395027054081
30
0
41
1
10
40.0482809896857
20
1.71929749668223
30
0
41
1
10
39.6469609934315
20
1.82397920539663
30
0
41
1
10
38.8427029041115
20
2.01412733339436
30
0
41
1
10
38.4406858057855
20
2.09929307582868
30
0
41
1
10
38.0377793349261
20
2.17315437092321
30
0
0
SPLINE
5
E0
100
AcDbEntity
8
1
62
256
6
ByLayer
370
13
48
1
60
0
100
AcDbSpline
70
4
71
3
72
8
73
4
40
0
40
0
40
0
40
0
40
1
40
1
40
1
40
1
41
1
10
56.9663643714892
20
0.902726907075618
30
0
41
1
10
57.0299871397217
20
0.839307431158716
30
0
41
1
10
57.0984742757927
20
0.782878115433988
30
0
41
1
10
57.1703248876551
20
0.731306030378931
30
0
0
SPLINE
5
E1
100
AcDbEntity
8
1
62
256
6
ByLayer
370
18
48
1
60
0
100
AcDbSpline
70
4
71
3
72
16
73
12
40
0
40
0
40
0
40
0
40
0.125000000000001
40
0.125000000000001
40
0.250000000000001
40
0.250000000000001
40
0.500000000000001
40
0.500000000000001
40
0.75
40
0.75
40
1
40
1
40
1
40
1
41
1
10
13.2386384886051
20
-2.52234337378562
30
0
41
1
10
12.7925965231433
20
-2.52134826276776
30
0
41
1
10
12.3468395747744
20
-2.50496467387237
30
0
41
1
10
11.4537891980136
20
-2.44194999345092
30
0
41
1
10
11.0059592632198
20
-2.39522493033226
30
0
41
1
10
9.66628545021166
20
-2.21269726539916
30
0
41
1
10
8.77575412982424
20
-2.03394702972932
30
0
41
1
10
6.9861302436783
20
-1.5855586302109
30
0
41
1
10
6.09843570832419
20
-1.31886190904166
30
0
41
1
10
4.32287658327519
20
-0.736037448187687
30
0
41
1
10
3.43486618404
20
-0.420379497633093
30
0
41
1
10
2.54000346273284
20
-0.0984489453996957
30
0
0
SPLINE
5
E2
100
AcDbEntity
8
1
62
256
6
ByLayer
370
18
48
1
60
0
100
AcDbSpline
70
4
71
3
72
8
73
4
40
0
40
0
40
0
40
0
40
1
40
1
40
1
40
1
41
1
10
56.0802280183457
20
-1.29118662784566
30
0
41
1
10
56.3169857032322
20
-1.4598559331605
30
0
41
1
10
56.5612112223889
20
-1.60140784646205
30
0
41
1
10
56.8108634818993
20
-1.72325404051492
30
0
0
SPLINE
5
E3
100
AcDbEntity
8
1
62
256
6
ByLayer
370
18
48
1
60
0
100
AcDbSpline
70
4
71
3
72
8
73
4
40
0
40
0
40
0
40
0
40
1
40
1
40
1
40
1
41
1
10
58.1302334900147
20
0.673683529667329
30
0
41
1
10
57.8138063663821
20
0.693668948605477
30
0
41
1
10
57.4973796161939
20
0.713615430927774
30
0
41
1
10
57.180953340068
20
0.733516279367564
30
0
0
SPLINE
5
E4
100
AcDbEntity
8
1
62
256
6
ByLayer
370
18
48
1
60
0
100
AcDbSpline
70
4
71
3
72
26
73
22
40
0
40
0
40
0
40
0
40
0.133753374481328
40
0.133753374481328
40
0.267506748962656
40
0.267506748962656
40
0.401260123443984
40
0.401260123443984
40
0.535013497925312
40
0.535013497925312
40
0.601890185165976
40
0.601890185165976
40
0.668766872406641
40
0.668766872406641
40
0.802520246887965
40
0.802520246887965
40
0.869396934128629
40
0.869396934128629
40
0.936273621369293
40
0.936273621369293
40
1
40
1
40
1
40
1
41
1
10
54.8311124262436
20
-0.150359760011043
30
0
41
1
10
54.3980794143587
20
7.13790791735E-05
30
0
41
1
10
53.9640259934416
20
0.15049733766088
30
0
41
1
10
53.0973752663985
20
0.449834767718869
30
0
41
1
10
52.6643310014872
20
0.597015132185533
30
0
41
1
10
51.7978103784466
20
0.883590563639245
30
0
41
1
10
51.3640865206582
20
1.02346027918836
30
0
41
1
10
50.4972977267513
20
1.28808032664688
30
0
41
1
10
50.0646497401083
20
1.41448395318534
30
0
41
1
10
49.4145474525002
20
1.5900094355834
30
0
41
1
10
49.1975585779334
20
1.64626499082431
30
0
41
1
10
48.7639476555395
20
1.75397786666736
30
0
41
1
10
48.5474270097259
20
1.80548469597988
30
0
41
1
10
47.8978268437106
20
1.95163424908469
30
0
41
1
10
47.4645835303193
20
2.03793129637441
30
0
41
1
10
46.8144459088273
20
2.15001878568413
30
0
41
1
10
46.5975973011798
20
2.18439066711846
30
0
41
1
10
46.1641235925178
20
2.24651874820464
30
0
41
1
10
45.9474442178198
20
2.27435278660005
30
0
41
1
10
45.524478368639
20
2.32238779200904
30
0
41
1
10
45.3181687547525
20
2.34285378348704
30
0
41
1
10
45.1117861526888
20
2.36028672066112
30
0
0
SPLINE
5
E5
100
AcDbEntity
8
1
62
256
6
ByLayer
370
18
48
1
60
0
100
AcDbSpline
70
4
71
3
72
30
73
26
40
0
40
0
40
0
40
0
40
0.0573184209680628
40
0.0573184209680628
40
0.151586578871256
40
0.151586578871256
40
0.245854736774449
40
0.245854736774449
40
0.340122894677642
40
0.340122894677642
40
0.434391052580835
40
0.434391052580835
40
0.481525131532432
40
0.481525131532432
40
0.528659210484028
40
0.528659210484028
40
0.622927368387222
40
0.622927368387222
40
0.717195526290417
40
0.717195526290417
40
0.811463684193611
40
0.811463684193611
40
0.905731842096806
40
0.905731842096806
40
1
40
1
40
1
40
1
41
1
10
27.0207419381171
20
-1.68706359853479
30
0
41
1
10
26.7573578298338
20
-1.75314305393616
30
0
41
1
10
26.4940292317711
20
-1.81559090258543
30
0
41
1
10
25.7974430088536
20
-1.97040607164726
30
0
41
1
10
25.3637762443855
20
-2.05634894216033
30
0
41
1
10
24.49704348209
20
-2.20185876728294
30
0
41
1
10
24.064494607331
20
-2.26167136394463
30
0
41
1
10
23.1977998246012
20
-2.35324285364905
30
0
41
1
10
22.7637952593159
20
-2.38547764130098
30
0
41
1
10
21.8972924176201
20
-2.42366064454726
30
0
41
1
10
21.4638348332363
20
-2.43014642916012
30
0
41
1
10
20.8135963846158
20
-2.42021077541756
30
0
41
1
10
20.5967063615627
20
-2.41355953739742
30
0
41
1
10
20.1631274947447
20
-2.39381745707604
30
0
41
1
10
19.9464177597247
20
-2.3806761204273
30
0
41
1
10
19.2966571142858
20
-2.33065651540463
30
0
41
1
10
18.8639317286776
20
-2.28292981869657
30
0
41
1
10
17.9964019968764
20
-2.16112588248404
30
0
41
1
10
17.5635011044742
20
-2.08621332277858
30
0
41
1
10
16.6974876452954
20
-1.91471371162396
30
0
41
1
10
16.2645359009462
20
-1.81743315815532
30
0
41
1
10
15.3973311899042
20
-1.60197670889878
30
0
41
1
10
14.9640340124708
20
-1.48559096121903
30
0
41
1
10
14.0983607299884
20
-1.23479302853301
30
0
41
1
10
13.6653395641863
20
-1.10194047985982
30
0
41
1
10
13.2314648017149
20
-0.963131035814968
30
0
0
SPLINE
5
E6
100
AcDbEntity
8
1
62
256
6
ByLayer
370
18
48
1
60
0
100
AcDbSpline
70
4
71
3
72
8
73
4
40
0
40
0
40
0
40
0
40
1
40
1
40
1
40
1
41
1
10
14.8342401572881
20
2.35087491970106
30
0
41
1
10
15.3967034351254
20
2.27751228309418
30
0
41
1
10
15.955812881954
20
2.18192257252539
30
0
41
1
10
16.5122479977575
20
2.06747897790672
30
0
0
SPLINE
5
E7
100
AcDbEntity
8
1
62
256
6
ByLayer
370
18
48
1
60
0
100
AcDbSpline
70
4
71
3
72
38
73
34
40
0
40
0
40
0
40
0
40
0.11526382412238
40
0.11526382412238
40
0.182182913046851
40
0.182182913046851
40
0.249102001971322
40
0.249102001971322
40
0.316021090895793
40
0.316021090895793
40
0.382940179820264
40
0.382940179820264
40
0.449859268744734
40
0.449859268744734
40
0.516778357669205
40
0.516778357669205
40
0.583697446593676
40
0.583697446593676
40
0.650616535518147
40
0.650616535518147
40
0.684076079980382
40
0.684076079980382
40
0.717535624442617
40
0.717535624442617
40
0.784454713367087
40
0.784454713367087
40
0.851373802291556
40
0.851373802291556
40
0.918292891216025
40
0.918292891216025
40
0.985211980140495
40
0.985211980140495
40
1
40
1
40
1
40
1
41
1
10
16.2750713186912
20
2.33674745227688
30
0
41
1
10
17.2274229255658
20
2.46692713282994
30
0
41
1
10
18.1765794903031
20
2.5315763283424
30
0
41
1
10
19.6836396825167
20
2.52211036108847
30
0
41
1
10
20.2361327423985
20
2.49504228454771
30
0
41
1
10
21.3399161581361
20
2.39505318361134
30
0
41
1
10
21.8920268612707
20
2.3225519513262
30
0
41
1
10
22.9990202780536
20
2.13450817469661
30
0
41
1
10
23.5514788879594
20
2.02013718928805
30
0
41
1
10
24.6552077416814
20
1.75551659939151
30
0
41
1
10
25.2071957332992
20
1.60603543604276
30
0
41
1
10
26.3140808030891
20
1.27801405402619
30
0
41
1
10
26.8663794205651
20
1.10089625727844
30
0
41
1
10
27.970284504325
20
0.730164549590341
30
0
41
1
10
28.5219055673507
20
0.535625016925422
30
0
41
1
10
29.6289321278169
20
0.14016775197112
30
0
41
1
10
30.1812075602772
20
-0.0607213688033426
30
0
41
1
10
31.2848005309797
20
-0.457487050924129
30
0
41
1
10
31.8365119261007
20
-0.653404084320755
30
0
41
1
10
32.6665428103117
20
-0.936441512326439
30
0
41
1
10
32.9432406727584
20
-1.02857634491005
30
0
41
1
10
33.4955598614822
20
-1.20794120801088
30
0
41
1
10
33.7713631073565
20
-1.2951994375135
30
0
41
1
10
34.5992044054702
20
-1.54613158370012
30
0
41
1
10
35.1508732678003
20
-1.70088314194734
30
0
41
1
10
36.2572918566597
20
-1.97723151137831
30
0
41
1
10
36.8097683398822
20
-2.09756184944413
30
0
41
1
10
37.9130672594451
20
-2.29789825523005
30
0
41
1
10
38.4648102397589
20
-2.37734965316909
30
0
41
1
10
39.5710797534055
20
-2.4915740592968
30
0
41
1
10
40.1235280905198
20
-2.52567607498415
30
0
41
1
10
40.7970439054023
20
-2.53854128445326
30
0
41
1
10
40.9189425557408
20
-2.53971828306427
30
0
41
1
10
41.0408569959678
20
-2.53974434574539
30
0
0
SPLINE
5
E8
100
AcDbEntity
8
1
62
256
6
ByLayer
370
18
48
1
60
0
100
AcDbSpline
70
4
71
3
72
13
73
9
40
0
40
0
40
0
40
0
40
0.205831261327223
40
0.395996226638626
40
0.570495255295644
40
0.729328684514703
40
0.872496831971105
40
1
40
1
40
1
40
1
41
1
10
14.8342401573185
20
-2.35087491969713
30
0
41
1
10
14.7248965506523
20
-2.3646387905886
30
0
41
1
10
14.5145317335313
20
-2.39111893214638
30
0
41
1
10
14.2114253229668
20
-2.42327964670747
30
0
41
1
10
13.9332545648025
20
-2.44909601586886
30
0
41
1
10
13.6800148528344
20
-2.46909568991904
30
0
41
1
10
13.451714092408
20
-2.48454638214332
30
0
41
1
10
13.3077952156573
20
-2.49231050089554
30
0
41
1
10
13.2400003970894
20
-2.49596788784873
30
0
0
SPLINE
5
E9
100
AcDbEntity
8
1
62
256
6
ByLayer
370
18
48
1
60
0
100
AcDbSpline
70
4
71
3
72
9
73
5
40
0
40
0
40
0
40
0
40
0.900673284361567
40
1
40
1
40
1
40
1
41
1
10
35.4475971371459
20
-2.49837833333171
30
0
41
1
10
35.8754620048272
20
-2.47112169140354
30
0
41
1
10
36.3502133262696
20
-2.42437116508768
30
0
41
1
10
36.8247254589631
20
-2.36323601813882
30
0
41
1
10
36.8718550004254
20
-2.35702033402353
30
0
0
SPLINE
5
EA
100
AcDbEntity
8
1
62
256
6
ByLayer
370
18
48
1
60
0
100
AcDbSpline
70
4
71
3
72
8
73
4
40
0
40
0
40
0
40
0
40
1
40
1
40
1
40
1
41
1
10
57.3144724437925
20
-2.52032805043271
30
0
41
1
10
57.2980064853652
20
-2.49206942541505
30
0
41
1
10
57.2761701866506
20
-2.46371147976561
30
0
41
1
10
57.249336597953
20
-2.43444845861205
30
0
0
SPLINE
5
EB
100
AcDbEntity
8
1
62
256
6
ByLayer
370
18
48
1
60
0
100
AcDbSpline
70
4
71
3
72
24
73
20
40
0
40
0
40
0
40
0
40
0.0803878965977533
40
0.0803878965977533
40
0.239708413982543
40
0.239708413982543
40
0.319368672674941
40
0.319368672674941
40
0.399028931367337
40
0.399028931367337
40
0.558349448752131
40
0.558349448752131
40
0.717669966136924
40
0.717669966136924
40
0.876990483521718
40
0.876990483521718
40
0.956650742214115
40
0.956650742214115
40
1
40
1
40
1
40
1
41
1
10
30.0591738167707
20
-0.0161032953552933
30
0
41
1
10
29.7769271442776
20
0.0788727326502965
30
0
41
1
10
29.4946144376999
20
0.173868488612101
30
0
41
1
10
28.6538282058758
20
0.454394900190636
30
0
41
1
10
28.0962169679742
20
0.63897345042929
30
0
41
1
10
27.2582468347613
20
0.903224308015979
30
0
41
1
10
26.9788246011303
20
0.989655333774209
30
0
41
1
10
26.4192018093917
20
1.15764592796492
30
0
41
1
10
26.1396750723901
20
1.23888893888616
30
0
41
1
10
25.3038565387654
20
1.47252976682881
30
0
41
1
10
24.7488230176517
20
1.61555166064917
30
0
41
1
10
23.6411078686989
20
1.86755436625936
30
0
41
1
10
23.0879850640582
20
1.97775918045974
30
0
41
1
10
21.9808905434003
20
2.15796887979025
30
0
41
1
10
21.4266278943435
20
2.23005288638052
30
0
41
1
10
20.5921831774405
20
2.30414015238051
30
0
41
1
10
20.313503660368
20
2.32374866872692
30
0
41
1
10
19.8820536216116
20
2.34574368817644
30
0
41
1
10
19.7298292857114
20
2.35183556468434
30
0
41
1
10
19.5777433028826
20
2.35620071633497
30
0
0
SPLINE
5
EC
100
AcDbEntity
8
1
62
256
6
ByLayer
370
13
48
1
60
0
100
AcDbSpline
70
4
71
3
72
8
73
4
40
0
40
0
40
0
40
0
40
1
40
1
40
1
40
1
41
1
10
19.5777423034104
20
2.35620074502168
30
0
41
1
10
19.5257810576136
20
2.35769212720862
30
0
41
1
10
19.4738359617869
20
2.3589819495977
30
0
41
1
10
19.4219196673456
20
2.36006752295782
30
0
0
SPLINE
5
ED
100
AcDbEntity
8
1
62
256
6
ByLayer
370
18
48
1
60
0
100
AcDbSpline
70
4
71
3
72
10
73
6
40
0
40
0
40
0
40
0
40
0.131216714537147
40
0.131216714537147
40
1
40
1
40
1
40
1
41
1
10
19.4219196673242
20
2.36006752295825
30
0
41
1
10
19.3465534498888
20
2.36164343585375
30
0
41
1
10
19.2712479283655
20
2.3627889152491
30
0
41
1
10
18.6981035567335
20
2.36817556731788
30
0
41
1
10
18.2022669612604
20
2.35585516630763
30
0
41
1
10
17.7078107764133
20
2.32569925037754
30
0
0
SPLINE
5
EE
100
AcDbEntity
8
1
62
256
6
ByLayer
370
18
48
1
60
0
100
AcDbSpline
70
4
71
3
72
8
73
4
40
0
40
0
40
0
40
0
40
1
40
1
40
1
40
1
41
1
10
55.5699138999699
20
-1.2253930506775
30
0
41
1
10
55.6825621958271
20
-1.22997904015435
30
0
41
1
10
55.7948861077574
20
-1.2303198649806
30
0
41
1
10
55.9068487610548
20
-1.22593295131185
30
0
0
SPLINE
5
EF
100
AcDbEntity
8
1
62
256
6
ByLayer
370
18
48
1
60
0
100
AcDbSpline
70
4
71
3
72
24
73
20
40
0
40
0
40
0
40
0
40
0.181030268451625
40
0.181030268451625
40
0.251552080281583
40
0.251552080281583
40
0.322073892111541
40
0.322073892111541
40
0.463117515771453
40
0.463117515771453
40
0.604161139431366
40
0.604161139431366
40
0.745204763091279
40
0.745204763091279
40
0.815726574921236
40
0.815726574921236
40
0.886248386751192
40
0.886248386751192
40
1
40
1
40
1
40
1
41
1
10
24.2603092342639
20
0.0047728093796877
30
0
41
1
10
24.9897766020081
20
-0.242207340837609
30
0
41
1
10
25.7209886930071
20
-0.489678362780921
30
0
41
1
10
26.7443683699573
20
-0.819026449223003
30
0
41
1
10
27.0315408138355
20
-0.909594928072323
30
0
41
1
10
27.604765148735
20
-1.08532544530396
30
0
41
1
10
27.8911317902038
20
-1.17057973823515
30
0
41
1
10
28.7501725744973
20
-1.41684487473648
30
0
41
1
10
29.3227629145063
20
-1.56832848461878
30
0
41
1
10
30.471267022579
20
-1.83752156909389
30
0
41
1
10
31.0441094839105
20
-1.95448837288785
30
0
41
1
10
32.1886491356243
20
-2.14690016454998
30
0
41
1
10
32.7606325239675
20
-2.22241809762426
30
0
41
1
10
33.6208060083098
20
-2.30149780400109
30
0
41
1
10
33.9083301968681
20
-2.3221939595058
30
0
41
1
10
34.4813998584237
20
-2.35162961041797
30
0
41
1
10
34.7671340803477
20
-2.36042614998294
30
0
41
1
10
35.5121947285897
20
-2.36808696500847
30
0
41
1
10
35.9705546755253
20
-2.35746098230931
30
0
41
1
10
36.4282141167815
20
-2.33196417038775
30
0
0
SPLINE
5
F0
100
AcDbEntity
8
1
62
256
6
ByLayer
370
18
48
1
60
0
100
AcDbSpline
70
4
71
3
72
8
73
4
40
0
40
0
40
0
40
0
40
1
40
1
40
1
40
1
41
1
10
58.1302334900147
20
0.67368352966551
30
0
41
1
10
58.1812735709582
20
0.477241473490267
30
0
41
1
10
58.2189976233349
20
0.280604751141425
30
0
41
1
10
58.2384349522881
20
0.0837006963475062
30
0
0
SPLINE
5
F1
100
AcDbEntity
8
1
62
256
6
ByLayer
370
18
48
1
60
0
100
AcDbSpline
70
4
71
3
72
14
73
10
40
0
40
0
40
0
40
0
40
0.25
40
0.25
40
0.5
40
0.5
40
0.75
40
0.75
40
1
40
1
40
1
40
1
41
1
10
56.8108634819098
20
-1.72325404051293
30
0
41
1
10
56.8479376724905
20
-1.81285179832938
30
0
41
1
10
56.8868353032743
20
-1.89246938031951
30
0
41
1
10
56.9669603745947
20
-2.03244052899319
30
0
41
1
10
57.0085581458429
20
-2.09309824161971
30
0
41
1
10
57.090841361495
20
-2.19087019466738
30
0
41
1
10
57.1317385610984
20
-2.22853498932506
30
0
41
1
10
57.2130441942528
20
-2.28143481115836
30
0
41
1
10
57.2536562770276
20
-2.29660395885639
30
0
41
1
10
57.2934004175998
20
-2.29959749297544
30
0
0
SPLINE
5
F2
100
AcDbEntity
8
1
62
256
6
ByLayer
370
18
48
1
60
0
100
AcDbSpline
70
4
71
1
72
4
73
2
40
0
40
0
40
1
40
1
41
1
10
13.2400003970894
20
-2.49596788785362
30
0
41
1
10
13.2386999623878
20
-2.40761612461151
30
0
0
SPLINE
5
F3
100
AcDbEntity
8
1
62
256
6
ByLayer
370
18
48
1
60
0
100
AcDbSpline
70
4
71
3
72
46
73
42
40
0
40
0
40
0
40
0
40
0.0240014769032714
40
0.0240014769032714
40
0.077160443400567
40
0.077160443400567
40
0.130319409897863
40
0.130319409897863
40
0.183478376395158
40
0.183478376395158
40
0.236637342892454
40
0.236637342892454
40
0.289796309389749
40
0.289796309389749
40
0.342955275887045
40
0.342955275887045
40
0.39611424238434
40
0.39611424238434
40
0.449273208881636
40
0.449273208881636
40
0.502432175378931
40
0.502432175378931
40
0.555591141876227
40
0.555591141876227
40
0.608750108373523
40
0.608750108373523
40
0.661909074870818
40
0.661909074870818
40
0.715068041368114
40
0.715068041368114
40
0.768227007865409
40
0.768227007865409
40
0.821385974362705
40
0.821385974362705
40
0.87454494086
40
0.87454494086
40
0.927703907357296
40
0.927703907357296
40
0.980862873854591
40
0.980862873854591
40
1
40
1
40
1
40
1
41
1
10
20.4637105053923
20
2.52685545493199
30
0
41
1
10
20.6592403973532
20
2.5269575081779
30
0
41
1
10
20.8548617150616
20
2.52395656194145
30
0
41
1
10
21.4845456407144
20
2.50445349967643
30
0
41
1
10
21.9196873213514
20
2.47611341281598
30
0
41
1
10
22.7899138862268
20
2.39301669359588
30
0
41
1
10
23.2254648790745
20
2.33831586160969
30
0
41
1
10
24.0974163657592
20
2.20313510704716
30
0
41
1
10
24.5328232138353
20
2.12231733885483
30
0
41
1
10
25.4014730807978
20
1.93499217071454
30
0
41
1
10
25.8354769481446
20
1.82877519170387
30
0
41
1
10
26.704608503602
20
1.59577191204031
30
0
41
1
10
27.138371828729
20
1.46928965773725
30
0
41
1
10
28.0061773267882
20
1.20055932179179
30
0
41
1
10
28.4408101065159
20
1.05838413394045
30
0
41
1
10
29.3098811250101
20
0.764212571991919
30
0
41
1
10
29.7439167945899
20
0.612235649650017
30
0
41
1
10
30.6120422670512
20
0.301251798659251
30
0
41
1
10
31.0467501373139
20
0.142389327171287
30
0
41
1
10
31.9152264384658
20
-0.173586885967126
30
0
41
1
10
32.349274275968
20
-0.330725362473942
30
0
41
1
10
33.2189222129126
20
-0.638042204816912
30
0
41
1
10
33.6546848683921
20
-0.788277252919073
30
0
41
1
10
34.522721778876
20
-1.08246249289365
30
0
41
1
10
34.955657774247
20
-1.22604251860685
30
0
41
1
10
35.8233075060772
20
-1.49611384336825
30
0
41
1
10
36.2572529989946
20
-1.62292400087097
30
0
41
1
10
37.1250636997892
20
-1.85384812593099
30
0
41
1
10
37.559728077664
20
-1.95755415115863
30
0
41
1
10
38.4306042934309
20
-2.14219569574181
30
0
41
1
10
38.8649321670064
20
-2.223257985445
30
0
41
1
10
39.73337867077
20
-2.35931044062701
30
0
41
1
10
40.1679645606046
20
-2.4143173654351
30
0
41
1
10
41.0368776695721
20
-2.49572998392566
30
0
41
1
10
41.4705867474553
20
-2.52212526925848
30
0
41
1
10
42.3386862038672
20
-2.54534949011929
30
0
41
1
10
42.7736191807216
20
-2.54220159201879
30
0
41
1
10
43.6421787980648
20
-2.50655334932407
30
0
41
1
10
44.0757704093216
20
-2.47397696260325
30
0
41
1
10
44.6660441253672
20
-2.41027732697378
30
0
41
1
10
44.8223937838632
20
-2.39157077567867
30
0
41
1
10
44.9787766224566
20
-2.37108579493557
30
0
0
LINE
5
76
100
AcDbEntity
8
81
62
256
6
ByLayer
370
18
48
1
60
0
100
AcDbLine
10
58.24
20
0
30
0
11
63.24
21
0
31
0
39
0
210
0
220
0
230
1
0
LINE
5
77
100
AcDbEntity
8
1
62
256
6
ByLayer
370
18
48
1
60
0
100
AcDbLine
10
2.80185
20
2.515845
30
0
11
0.1
21
2.514157
31
0
39
0
210
0
220
0
230
1
0
LINE
5
79
100
AcDbEntity
8
1
62
256
6
ByLayer
370
18
48
1
60
0
100
AcDbLine
10
13.219491
20
2.522356
30
0
11
10.914314
21
2.520916
31
0
39
0
210
0
220
0
230
1
0
LINE
5
7A
100
AcDbEntity
8
1
62
256
6
ByLayer
370
18
48
1
60
0
100
AcDbLine
10
20.462379
20
2.526883
30
0
11
18.996214
21
2.525967
31
0
39
0
210
0
220
0
230
1
0
LINE
5
7B
100
AcDbEntity
8
1
62
256
6
ByLayer
370
18
48
1
60
0
100
AcDbLine
10
34.234952
20
2.535491
30
0
11
32.927439
21
2.534674
31
0
39
0
210
0
220
0
230
1
0
LINE
5
7C
100
AcDbEntity
8
1
62
256
6
ByLayer
370
18
48
1
60
0
100
AcDbLine
10
42.406382
20
2.540598
30
0
11
41.032032
21
2.539739
31
0
39
0
210
0
220
0
230
1
0
LINE
5
7D
100
AcDbEntity
8
1
62
256
6
ByLayer
370
18
48
1
60
0
100
AcDbLine
10
56.248263
20
2.549249
30
0
11
54.941239
21
2.548433
31
0
39
0
210
0
220
0
230
1
0
LINE
5
7E
100
AcDbEntity
8
1
62
256
6
ByLayer
370
18
48
1
60
0
100
AcDbLine
10
54.941239
20
-2.548433
30
0
11
56.248263
21
-2.549249
31
0
39
0
210
0
220
0
230
1
0
LINE
5
7F
100
AcDbEntity
8
1
62
256
6
ByLayer
370
18
48
1
60
0
100
AcDbLine
10
41.032032
20
-2.539739
30
0
11
42.406382
21
-2.540598
31
0
39
0
210
0
220
0
230
1
0
LINE
5
80
100
AcDbEntity
8
1
62
256
6
ByLayer
370
18
48
1
60
0
100
AcDbLine
10
32.927439
20
-2.534674
30
0
11
34.234952
21
-2.535491
31
0
39
0
210
0
220
0
230
1
0
LINE
5
81
100
AcDbEntity
8
1
62
256
6
ByLayer
370
18
48
1
60
0
100
AcDbLine
10
18.996214
20
-2.525967
30
0
11
20.462379
21
-2.526883
31
0
39
0
210
0
220
0
230
1
0
LINE
5
82
100
AcDbEntity
8
1
62
256
6
ByLayer
370
18
48
1
60
0
100
AcDbLine
10
10.914314
20
-2.520916
30
0
11
13.238679
21
-2.522368
31
0
39
0
210
0
220
0
230
1
0
LINE
5
83
100
AcDbEntity
8
1
62
256
6
ByLayer
370
18
48
1
60
0
100
AcDbLine
10
0.1
20
-2.514157
30
0
11
2.80185
21
-2.515845
31
0
39
0
210
0
220
0
230
1
0
LINE
5
84
100
AcDbEntity
8
1
62
256
6
ByLayer
370
18
48
1
60
0
100
AcDbLine
10
0
20
-2.55
30
0
11
0.1
21
-2.514157
31
0
39
0
210
0
220
0
230
1
0
LINE
5
85
100
AcDbEntity
8
1
62
256
6
ByLayer
370
18
48
1
60
0
100
AcDbLine
10
0.1
20
2.514157
30
0
11
0
21
2.55
31
0
39
0
210
0
220
0
230
1
0
LINE
5
86
100
AcDbEntity
8
SK1
62
256
6
ByLayer
370
18
48
1
60
0
100
AcDbLine
10
-41.000225
20
2.55
30
0
11
-41.76
21
1.790225
31
0
39
0
210
0
220
0
230
1
0
LINE
5
88
100
AcDbEntity
8
SK1
62
256
6
ByLayer
370
18
48
1
60
0
100
AcDbLine
10
-41.76
20
-1.790225
30
0
11
-41.000225
21
-2.55
31
0
39
0
210
0
220
0
230
1
0
LINE
5
89
100
AcDbEntity
8
SK1
62
256
6
ByLayer
370
18
48
1
60
0
100
AcDbLine
10
0
20
2.55
30
0
11
-41.000225
21
2.55
31
0
39
0
210
0
220
0
230
1
0
LINE
5
8A
100
AcDbEntity
8
SK1
62
256
6
ByLayer
370
18
48
1
60
0
100
AcDbLine
10
-41.000225
20
-2.55
30
0
11
0
21
-2.55
31
0
39
0
210
0
220
0
230
1
0
LINE
5
8B
100
AcDbEntity
8
SK4
62
256
6
ByLayer
370
18
48
0.05
60
0
100
AcDbLine
10
63.24
20
0
30
0
11
-46.76
21
0
31
0
39
0
210
0
220
0
230
1
0
LINE
5
8D
100
AcDbEntity
8
4
62
256
6
ByLayer
370
18
48
0.05
60
0
100
AcDbLine
10
58.24
20
0
30
0
11
0
21
0
31
0
39
0
210
0
220
0
230
1
0
LINE
5
8F
100
AcDbEntity
8
80
62
256
6
ByLayer
370
18
48
1
60
0
100
AcDbLine
10
0
20
0
30
0
11
-5
21
0
31
0
39
0
210
0
220
0
230
1
0
LINE
5
90
100
AcDbEntity
8
1
62
256
6
ByLayer
370
13
48
1
60
0
100
AcDbLine
10
57.118235
20
0.658809
30
0
11
58.206584
21
-0.038486
31
0
39
0
210
0
220
0
230
1
0
LINE
5
91
100
AcDbEntity
8
1
62
256
6
ByLayer
370
18
48
1
60
0
100
AcDbLine
10
0
20
-2.55
30
0
11
0
21
2.55
31
0
39
0
210
0
220
0
230
1
0
LINE
5
92
100
AcDbEntity
8
1
62
256
6
ByLayer
370
18
48
1
60
0
100
AcDbLine
10
0.1
20
2.514157
30
0
11
0.1
21
-2.514157
31
0
39
0
210
0
220
0
230
1
0
LINE
5
93
100
AcDbEntity
8
1
62
256
6
ByLayer
370
13
48
1
60
0
100
AcDbLine
10
57.180953
20
0.733516
30
0
11
58.237526
21
0.05658
31
0
39
0
210
0
220
0
230
1
0
LINE
5
94
100
AcDbEntity
8
SK1
62
256
6
ByLayer
370
18
48
1
60
0
100
AcDbLine
10
-41.76
20
1.790225
30
0
11
-41.76
21
-1.790225
31
0
39
0
210
0
220
0
230
1
0
LINE
5
95
100
AcDbEntity
8
SK1
62
256
6
ByLayer
370
18
48
1
60
0
100
AcDbLine
10
0
20
-2.55
30
0
11
0
21
2.55
31
0
39
0
210
0
220
0
230
1
0
LINE
5
96
100
AcDbEntity
8
SK1
62
256
6
ByLayer
370
18
48
1
60
0
100
AcDbLine
10
-41.000225
20
2.55
30
0
11
-41.000225
21
-2.55
31
0
39
0
210
0
220
0
230
1
0
MTEXT
5
F4
100
AcDbEntity
8
SK6
62
256
6
ByLayer
370
13
48
1
60
0
100
AcDbMText
10
10.369169
20
34.932694
30
0
210
0
220
0
230
1
1
\W0.7338;452.1-0510-045A0-CM H10F
40
3.5
41
0
44
1.084337
50
0
71
8
72
5
7
iso_b_vert
0
DIMENSION
5
101
100
AcDbEntity
8
SK2
62
256
6
ByLayer
370
13
48
1
60
0
100
AcDbDimension
2
DimnDraft3D1
10
57.4491
20
-34.263398
30
0
11
27.579159
21
-34.263398
31
0
70
32
71
5
72
1
41
1
210
0
220
0
230
1
3
Standard
100
AcDbAlignedDimension
13
0
23
-1.5875
33
0
14
57.4491
24
-4.1375
34
0
50
0
100
AcDbRotatedDimension
1001
ACAD
1000
DSTYLE
1002
{
1070
   279
1070
     0
1070
   172
1070
     1
1070
   173
1070
     1
1070
   340
1005
F5
1070
   271
1070
     2
1070
   272
1070
     2
1070
    77
1070
     1
1070
    73
1070
     0
1070
   171
1070
     3
1070
   274
1070
     4
1070
   177
1070
    35
1070
   176
1070
    35
1070
   178
1070
    35
1070
    48
1040
-0.005
1070
    41
1041
3.5
1070
   147
1041
1.75
1070
    42
1041
1.5875
1070
    44
1041
2.0
1070
   140
1041
3.5
1070
   343
1005
0
1070
   344
1005
0
1002
}
0
DIMENSION
5
10B
100
AcDbEntity
8
SK2
62
256
6
ByLayer
370
13
48
1
60
0
100
AcDbDimension
2
DimnDraft3D2
10
58.24
20
-51.242985
30
0
11
8.7904
21
-51.242985
31
0
70
32
71
5
72
1
41
1
210
0
220
0
230
1
3
Standard
100
AcDbAlignedDimension
13
-41.76
23
-4.1375
33
0
14
58.24
24
-1.5875
34
0
50
0
100
AcDbRotatedDimension
1001
ACAD
1000
DSTYLE
1002
{
1070
   279
1070
     0
1070
   172
1070
     1
1070
   173
1070
     1
1070
   340
1005
F5
1070
   271
1070
     2
1070
   272
1070
     2
1070
    77
1070
     1
1070
    73
1070
     0
1070
   171
1070
     3
1070
   274
1070
     4
1070
   177
1070
    35
1070
   176
1070
    35
1070
   178
1070
    35
1070
    48
1040
-0.005
1070
    41
1041
3.5
1070
   147
1041
1.75
1070
    42
1041
1.5875
1070
    44
1041
2.0
1070
   140
1041
3.5
1070
   343
1005
0
1070
   344
1005
0
1002
}
0
DIMENSION
5
115
100
AcDbEntity
8
SK2
62
256
6
ByLayer
370
13
48
1
60
0
100
AcDbDimension
2
DimnDraft3D3
10
58.24
20
-23.940881
30
0
11
35.74
21
-23.940881
31
0
70
32
71
5
72
1
41
1
210
0
220
0
230
1
3
Standard
100
AcDbAlignedDimension
13
13.24
23
-4.1375
33
0
14
58.24
24
-1.5875
34
0
50
0
100
AcDbRotatedDimension
1001
ACAD
1000
DSTYLE
1002
{
1070
   279
1070
     0
1070
   172
1070
     1
1070
   173
1070
     1
1070
   340
1005
F5
1070
   271
1070
     2
1070
   272
1070
     2
1070
    77
1070
     1
1070
    73
1070
     0
1070
   171
1070
     3
1070
   274
1070
     4
1070
   177
1070
    35
1070
   176
1070
    35
1070
   178
1070
    35
1070
    48
1040
-0.005
1070
    41
1041
3.5
1070
   147
1041
1.75
1070
    42
1041
1.5875
1070
    44
1041
2.0
1070
   140
1041
3.5
1070
   343
1005
0
1070
   344
1005
0
1002
}
0
DIMENSION
5
11F
100
AcDbEntity
8
SK2
62
256
6
ByLayer
370
13
48
1
60
0
100
AcDbDimension
2
DimnDraft3D4
10
57.4491
20
-11.852503
30
0
11
68.221425
21
-11.852503
31
0
70
32
71
5
72
1
41
1
210
0
220
0
230
1
3
Standard
100
AcDbAlignedDimension
13
58.24
23
-1.5875
33
0
14
57.4491
24
-11.852503
34
0
50
0
100
AcDbRotatedDimension
1001
ACAD
1000
DSTYLE
1002
{
1070
   279
1070
     0
1070
   172
1070
     1
1070
   173
1070
     1
1070
   340
1005
F5
1070
   271
1070
     2
1070
   272
1070
     2
1070
    73
1070
     0
1070
   171
1070
     3
1070
   274
1070
     4
1070
   177
1070
    35
1070
   176
1070
    35
1070
   178
1070
    35
1070
    48
1040
-0.005
1070
    41
1041
3.5
1070
   147
1041
1.75
1070
    42
1041
1.5875
1070
    44
1041
2.0
1070
   140
1041
3.5
1070
   343
1005
0
1070
   344
1005
0
1002
}
0
DIMENSION
5
129
100
AcDbEntity
8
SK2
62
256
6
ByLayer
370
13
48
1
60
0
100
AcDbDimension
2
DimnDraft3D5
10
57.4491
20
-42.893428
30
0
11
5.709777
21
-42.893428
31
0
70
32
71
5
72
1
41
1
210
0
220
0
230
1
3
Standard
100
AcDbAlignedDimension
13
-41.76
23
-4.1375
33
0
14
57.4491
24
-4.1375
34
0
50
0
100
AcDbRotatedDimension
1001
ACAD
1000
DSTYLE
1002
{
1070
   279
1070
     0
1070
   172
1070
     1
1070
   173
1070
     1
1070
   340
1005
F5
1070
   271
1070
     2
1070
   272
1070
     2
1070
    77
1070
     1
1070
    73
1070
     0
1070
   171
1070
     3
1070
   274
1070
     4
1070
   177
1070
    35
1070
   176
1070
    35
1070
   178
1070
    35
1070
    48
1040
-0.005
1070
    41
1041
3.5
1070
   147
1041
1.75
1070
    42
1041
1.5875
1070
    44
1041
2.0
1070
   140
1041
3.5
1070
   343
1005
0
1070
   344
1005
0
1002
}
0
DIMENSION
5
134
100
AcDbEntity
8
SK2
62
256
6
ByLayer
370
13
48
1
60
0
100
AcDbDimension
2
DimnDraft3D6
10
-54.135163
20
2.55
30
0
11
-50.385163
21
21.02418
31
0
70
33
71
5
72
1
41
1
210
0
220
0
230
1
3
Standard
100
AcDbAlignedDimension
13
-43.3475
23
-2.55
33
0
14
-43.3475
24
2.55
34
0
1001
ACAD
1000
DSTYLE
1002
{
1070
   279
1070
     0
1070
    74
1070
     0
1070
   173
1070
     1
1070
   340
1005
F5
1070
   271
1070
     3
1070
   272
1070
     2
1070
    73
1070
     0
1070
   171
1070
     3
1070
   274
1070
     4
1070
   177
1070
    35
1070
   176
1070
    35
1070
   178
1070
    35
1070
    48
1040
-0.005
1070
    41
1041
3.5
1070
   147
1041
1.75
1070
    42
1041
1.5875
1070
    44
1041
2.0
1070
   140
1041
3.5
1070
   343
1005
0
1070
   344
1005
0
1002
}
0
DIMENSION
5
13F
100
AcDbEntity
8
2
62
256
6
ByLayer
370
13
48
1
60
0
100
AcDbDimension
2
DimnDraft3D7
10
70.573343
20
2.55
30
0
11
70.323343
21
19.617266
31
0
70
33
71
5
72
1
41
1
210
0
220
0
230
1
3
Standard
100
AcDbAlignedDimension
13
59.0366
23
-2.55
33
0
14
59.0366
24
2.55
34
0
1001
ACAD
1000
DSTYLE
1002
{
1070
   279
1070
     0
1070
    74
1070
     0
1070
   173
1070
     1
1070
   340
1005
F5
1070
   271
1070
     3
1070
   272
1070
     2
1070
    73
1070
     0
1070
   171
1070
     3
1070
   274
1070
     4
1070
   177
1070
    35
1070
   176
1070
    35
1070
   178
1070
    35
1070
    48
1040
-0.005
1070
    41
1041
3.5
1070
   147
1041
1.75
1070
    42
1041
1.5875
1070
    44
1041
2.0
1070
   140
1041
3.5
1070
   343
1005
0
1070
   344
1005
0
1002
}
0
ENDSEC
0
SECTION
2
OBJECTS
0
DICTIONARY
5
1aa
330
0
100
AcDbDictionary
280
0
281
1
3
ACAD_GROUP
350
1ab
3
ACAD_MLINESTYLE
350
1ac
0
DICTIONARY
5
1ab
330
0
100
AcDbDictionary
280
0
281
1
0
DICTIONARY
5
1ac
330
0
100
AcDbDictionary
280
0
281
1
3
Standard
350
18
0
MLINESTYLE
5
18
330
1ac
100
AcDbMlineStyle
2
Standard
70
0
3

62
256
51
90
52
90
71
2
49
-0.5
62
256
6
ByLayer
49
0.5
62
256
6
ByLayer
0
RASTERVARIABLES
5
198
330

100
AcDbRasterVariables
90
0
70
1
71
1
72
1
0
ENDSEC
0
EOF
