0
SECTION
2
HEADER
9
$ACADVER
1
AC1015
9
$DWGCODEPAGE
3
ANSI_1252
9
$HANDSEED
5
211
9
$ANGBASE
50
0
9
$ANGDIR
70
0
9
$ATTMODE
70
1
9
$AUNITS
70
0
9
$AUPREC
70
0
9
$CECOLOR
62
256
9
$CELTSCALE
40
1
9
$CELTYPE
6
ByLayer
9
$CELWEIGHT
370
18
9
$CLAYER
8
0
9
$CMLJUST
70
0
9
$CMLSCALE
40
1
9
$CMLSTYLE
2
Standard
9
$DIMSTYLE
2
Standard
9
$TEXTSIZE
40
0.2
9
$TEXTSTYLE
7
Standard
9
$LUNITS
70
2
9
$LUPREC
70
4
9
$EXTNAMES
290
1
9
$INSUNITS
70
4
9
$LTSCALE
40
1
9
$LWDISPLAY
290
1
9
$PDMODE
70
0
9
$PDSIZE
40
0
9
$PLINEGEN
70
0
0
ENDSEC
0
SECTION
2
CLASSES
0
CLASS
1
RASTERVARIABLES
2
AcDbRasterVariables
3
ISM
90
0
280
0
281
0
0
ENDSEC
0
SECTION
2
TABLES
0
TABLE
2
VPORT
5
207
100
AcDbSymbolTable
0
VPORT
5
1
100
AcDbSymbolTableRecord
100
AcDbViewportTableRecord
2
*Active
70
0
10
0
20
0
11
1
21
1
12
-1
22
1
13
0
23
0
14
0.5
24
0.5
15
10
25
10
16
0
26
0
36
1
17
0
27
0
37
0
0
ENDTAB
0
TABLE
2
LTYPE
5
208
100
AcDbSymbolTable
0
LTYPE
5
14
100
AcDbSymbolTableRecord
100
AcDbLinetypeTableRecord
70
0
2
ByBlock
3

72
65
73
0
40
0
0
LTYPE
5
15
100
AcDbSymbolTableRecord
100
AcDbLinetypeTableRecord
70
0
2
ByLayer
3

72
65
73
0
40
0
0
LTYPE
5
16
100
AcDbSymbolTableRecord
100
AcDbLinetypeTableRecord
70
0
2
Continuous
3
Solid line
72
65
73
0
40
0
0
LTYPE
5
6E
100
AcDbSymbolTableRecord
100
AcDbLinetypeTableRecord
70
0
2
CENTER
3
____ _ ____ _ ____ _ ____
72
65
73
4
40
47.5
49
22
74
0
49
-8.5
74
0
49
8.5
74
0
49
-8.5
74
0
0
LTYPE
5
6F
100
AcDbSymbolTableRecord
100
AcDbLinetypeTableRecord
70
0
2
DASHED
3
__ __ __ __ __ __ __ __ __
72
65
73
2
40
25.72
49
12.86
74
0
49
-12.86
74
0
0
ENDTAB
0
TABLE
2
LAYER
5
209
100
AcDbSymbolTable
0
LAYER
5
10
100
AcDbSymbolTableRecord
100
AcDbLayerTableRecord
2
0
70
0
62
7
6
Continuous
290
1
370
-3
390
0
0
LAYER
5
71
100
AcDbSymbolTableRecord
100
AcDbLayerTableRecord
2
80
70
0
62
-6
6
Continuous
290
1
370
-3
390
0
0
LAYER
5
73
100
AcDbSymbolTableRecord
100
AcDbLayerTableRecord
2
81
70
0
62
-3
6
Continuous
290
1
370
-3
390
0
0
LAYER
5
75
100
AcDbSymbolTableRecord
100
AcDbLayerTableRecord
2
1
70
0
62
4
6
Continuous
290
1
370
-3
390
0
0
LAYER
5
92
100
AcDbSymbolTableRecord
100
AcDbLayerTableRecord
2
4
70
0
62
-2
6
CENTER
290
1
370
-3
390
0
0
LAYER
5
AD
100
AcDbSymbolTableRecord
100
AcDbLayerTableRecord
2
2
70
0
62
7
6
Continuous
290
1
370
-3
390
0
0
LAYER
5
11C
100
AcDbSymbolTableRecord
100
AcDbLayerTableRecord
2
Defpoints
70
0
62
7
6
Continuous
290
0
370
-3
390
0
0
LAYER
5
1f3
100
AcDbSymbolTableRecord
100
AcDbLayerTableRecord
2
SK1
70
0
62
4
6
Continuous
290
1
370
-3
390
0
0
LAYER
5
1f4
100
AcDbSymbolTableRecord
100
AcDbLayerTableRecord
2
SK4
70
0
62
2
6
CENTER
290
1
370
-3
390
0
0
LAYER
5
1f5
100
AcDbSymbolTableRecord
100
AcDbLayerTableRecord
2
SK2
70
0
62
7
6
Continuous
290
1
370
-3
390
0
0
LAYER
5
1f6
100
AcDbSymbolTableRecord
100
AcDbLayerTableRecord
2
SK6
70
0
62
5
6
Continuous
290
1
370
-3
390
0
0
ENDTAB
0
TABLE
2
STYLE
5
20a
100
AcDbSymbolTable
0
STYLE
5
11
100
AcDbSymbolTableRecord
100
AcDbTextStyleTableRecord
2
Standard
3
txt
70
0
71
0
40
0
41
1
42
0
50
0
0
STYLE
5
101
100
AcDbSymbolTableRecord
100
AcDbTextStyleTableRecord
2
iso_b_vert
3
simplex.shx
70
0
71
0
40
0
41
1
42
0
50
0
0
STYLE
5
102
100
AcDbSymbolTableRecord
100
AcDbTextStyleTableRecord
2
DWGDirectTextStyle
3
simplex
70
0
71
0
40
0
41
1
42
0
50
0
0
ENDTAB
0
TABLE
2
DIMSTYLE
5
20b
100
AcDbSymbolTable
100
AcDbDimStyleTable
0
DIMSTYLE
105
27
100
AcDbSymbolTableRecord
100
AcDbDimStyleTableRecord
2
Standard
70
0
3
<>
41
0.18
42
0.0625
44
0.18
140
0.18
147
0.09
73
0
74
0
77
1
271
2
275
0
278
52
280
0
340
11
0
ENDTAB
0
TABLE
2
VIEW
5
20c
100
AcDbSymbolTable
0
ENDTAB
0
TABLE
2
UCS
5
20d
100
AcDbSymbolTable
0
ENDTAB
0
TABLE
2
APPID
5
20e
100
AcDbSymbolTable
0
APPID
5
12
100
AcDbSymbolTableRecord
100
AcDbRegAppTableRecord
2
ACAD
70
0
0
APPID
5
118
100
AcDbSymbolTableRecord
100
AcDbRegAppTableRecord
2
ACAD_DSTYLE_DIMBREAK
70
0
0
APPID
5
1B2
100
AcDbSymbolTableRecord
100
AcDbRegAppTableRecord
2
ACAD_DSTYLE_DIM_LINETYPE
70
0
0
APPID
5
1B3
100
AcDbSymbolTableRecord
100
AcDbRegAppTableRecord
2
ACAD_DSTYLE_DIM_EXT1_LINETYPE
70
0
0
APPID
5
1B4
100
AcDbSymbolTableRecord
100
AcDbRegAppTableRecord
2
ACAD_DSTYLE_DIM_EXT2_LINETYPE
70
0
0
APPID
5
1EF
100
AcDbSymbolTableRecord
100
AcDbRegAppTableRecord
2
ACAD_MLEADERVER
70
0
0
ENDTAB
0
TABLE
2
BLOCK_RECORD
5
20f
100
AcDbSymbolTable
0
BLOCK_RECORD
5
1F
100
AcDbSymbolTableRecord
100
AcDbBlockTableRecord
2
*Model_Space
340
0
70
0
0
BLOCK_RECORD
5
1B
100
AcDbSymbolTableRecord
100
AcDbBlockTableRecord
2
*Paper_Space
340
0
70
0
0
BLOCK_RECORD
5
23
100
AcDbSymbolTableRecord
100
AcDbBlockTableRecord
2
*Paper_Space0
340
0
70
0
0
BLOCK_RECORD
5
11D
100
AcDbSymbolTableRecord
100
AcDbBlockTableRecord
2
*D1
340
0
70
0
0
BLOCK_RECORD
5
129
100
AcDbSymbolTableRecord
100
AcDbBlockTableRecord
2
_U0
340
0
70
0
0
BLOCK_RECORD
5
135
100
AcDbSymbolTableRecord
100
AcDbBlockTableRecord
2
*D3
340
0
70
0
0
BLOCK_RECORD
5
141
100
AcDbSymbolTableRecord
100
AcDbBlockTableRecord
2
_U1
340
0
70
0
0
BLOCK_RECORD
5
14D
100
AcDbSymbolTableRecord
100
AcDbBlockTableRecord
2
*D5
340
0
70
0
0
BLOCK_RECORD
5
159
100
AcDbSymbolTableRecord
100
AcDbBlockTableRecord
2
_U2
340
0
70
0
0
BLOCK_RECORD
5
165
100
AcDbSymbolTableRecord
100
AcDbBlockTableRecord
2
*D7
340
0
70
0
0
BLOCK_RECORD
5
173
100
AcDbSymbolTableRecord
100
AcDbBlockTableRecord
2
_U3
340
0
70
0
0
BLOCK_RECORD
5
17F
100
AcDbSymbolTableRecord
100
AcDbBlockTableRecord
2
*D9
340
0
70
0
0
BLOCK_RECORD
5
18B
100
AcDbSymbolTableRecord
100
AcDbBlockTableRecord
2
_U4
340
0
70
0
0
ENDTAB
0
ENDSEC
0
SECTION
2
BLOCKS
0
BLOCK
5
20
100
AcDbEntity
8
0
100
AcDbBlockBegin
2
*Model_Space
70
0
10
0
20
0
30
0
3
*Model_Space
0
ENDBLK
5
21
100
AcDbEntity
8
0
100
AcDbBlockEnd
0
BLOCK
5
1C
100
AcDbEntity
8
0
100
AcDbBlockBegin
2
*Paper_Space
70
0
10
0
20
0
30
0
3
*Paper_Space
0
ENDBLK
5
1D
100
AcDbEntity
8
0
100
AcDbBlockEnd
0
BLOCK
5
24
100
AcDbEntity
8
0
100
AcDbBlockBegin
2
*Paper_Space0
70
0
10
0
20
0
30
0
3
*Paper_Space0
0
ENDBLK
5
25
100
AcDbEntity
8
0
100
AcDbBlockEnd
0
BLOCK
5
11E
100
AcDbEntity
8
0
100
AcDbBlockBegin
2
*D1
70
1
10
0
20
0
30
0
3
*D1
0
LINE
5
120
100
AcDbEntity
8
0
62
256
6
ByLayer
370
-2
48
1
60
0
100
AcDbLine
10
0
20
-1.5875
30
0
11
0
21
-14.213398
31
0
39
0
210
0
220
0
230
1
0
LINE
5
121
100
AcDbEntity
8
0
62
256
6
ByLayer
370
-2
48
1
60
0
100
AcDbLine
10
37.3
20
-3.5875
30
0
11
37.3
21
-14.213398
31
0
39
0
210
0
220
0
230
1
0
LINE
5
122
100
AcDbEntity
8
0
62
256
6
ByLayer
370
-2
48
1
60
0
100
AcDbLine
10
3.5
20
-12.213398
30
0
11
33.8
21
-12.213398
31
0
39
0
210
0
220
0
230
1
0
SOLID
5
123
100
AcDbEntity
8
0
62
256
6
ByLayer
370
-1
48
1
60
0
100
AcDbTrace
10
3.5
20
-11.630065
30
0
11
3.5
21
-12.796732
31
0
12
0
22
-12.213398
32
0
13
0
23
-12.213398
33
0
39
0
210
0
220
0
230
1
0
SOLID
5
124
100
AcDbEntity
8
0
62
256
6
ByLayer
370
-1
48
1
60
0
100
AcDbTrace
10
33.8
20
-12.796732
30
0
11
33.8
21
-11.630065
31
0
12
37.3
22
-12.213398
32
0
13
37.3
23
-12.213398
33
0
39
0
210
0
220
0
230
1
0
MTEXT
5
125
100
AcDbEntity
8
0
62
256
6
ByLayer
370
18
48
1
60
0
100
AcDbMText
10
18.65
20
-5.213398
30
0
210
0
220
0
230
1
1
\A1;37.30
40
3.5
41
0
44
1
50
0
71
5
72
5
7
iso_b_vert
0
POINT
5
126
100
AcDbEntity
8
Defpoints
62
0
6
ByLayer
370
-1
48
1
60
0
100
AcDbPoint
10
0
20
0
30
0
39
0
210
0
220
0
230
1
50
360
0
POINT
5
127
100
AcDbEntity
8
Defpoints
62
0
6
ByLayer
370
-1
48
1
60
0
100
AcDbPoint
10
37.3
20
-2
30
0
39
0
210
0
220
0
230
1
50
360
0
POINT
5
128
100
AcDbEntity
8
Defpoints
62
0
6
ByLayer
370
-1
48
1
60
0
100
AcDbPoint
10
37.3
20
-12.213398
30
0
39
0
210
0
220
0
230
1
50
360
0
ENDBLK
5
11F
100
AcDbEntity
8
0
100
AcDbBlockEnd
0
BLOCK
5
130
100
AcDbEntity
8
0
100
AcDbBlockBegin
2
_U0
70
0
10
0
20
0
30
0
3
_U0
0
MTEXT
5
12A
100
AcDbEntity
8
SK2
62
256
6
ByLayer
370
13
48
1
60
0
100
AcDbMText
10
13.512701
20
-11.180765
30
0
210
0
220
0
230
1
1
\W0.7317;37,30
40
3.5
41
0
44
1.084337
50
0
71
7
72
5
7
iso_b_vert
0
LINE
5
12B
100
AcDbEntity
8
SK2
62
256
6
ByLayer
370
13
48
1
60
0
100
AcDbLine
10
0
20
-1.5875
30
0
11
0
21
-14.213398
31
0
39
0
210
0
220
0
230
1
0
LINE
5
12C
100
AcDbEntity
8
SK2
62
256
6
ByLayer
370
13
48
1
60
0
100
AcDbLine
10
37.3
20
-3.5875
30
0
11
37.3
21
-14.213398
31
0
39
0
210
0
220
0
230
1
0
LINE
5
12D
100
AcDbEntity
8
SK2
62
256
6
ByLayer
370
13
48
1
60
0
100
AcDbLine
10
0
20
-12.213398
30
0
11
37.3
21
-12.213398
31
0
39
0
210
0
220
0
230
1
0
SOLID
5
12E
100
AcDbEntity
8
SK2
62
256
6
ByLayer
370
18
48
1
60
0
100
AcDbTrace
10
0
20
-12.213398
30
0
11
3.499998
21
-11.752615
31
0
12
3.500002
22
-12.674182
32
0
13
3.500002
23
-12.674182
33
0
39
0
210
0
220
0
230
1
0
SOLID
5
12F
100
AcDbEntity
8
SK2
62
256
6
ByLayer
370
18
48
1
60
0
100
AcDbTrace
10
37.3
20
-12.213398
30
0
11
33.800002
21
-12.674182
31
0
12
33.799998
22
-11.752615
32
0
13
33.799998
23
-11.752615
33
0
39
0
210
0
220
0
230
1
0
ENDBLK
5
131
100
AcDbEntity
8
0
100
AcDbBlockEnd
0
BLOCK
5
136
100
AcDbEntity
8
0
100
AcDbBlockBegin
2
*D3
70
1
10
0
20
0
30
0
3
*D3
0
LINE
5
138
100
AcDbEntity
8
0
62
256
6
ByLayer
370
-2
48
1
60
0
100
AcDbLine
10
-36
20
-4.5875
30
0
11
-36
21
-33.692985
31
0
39
0
210
0
220
0
230
1
0
LINE
5
139
100
AcDbEntity
8
0
62
256
6
ByLayer
370
-2
48
1
60
0
100
AcDbLine
10
38
20
-1.5875
30
0
11
38
21
-33.692985
31
0
39
0
210
0
220
0
230
1
0
LINE
5
13A
100
AcDbEntity
8
0
62
256
6
ByLayer
370
-2
48
1
60
0
100
AcDbLine
10
-32.5
20
-31.692985
30
0
11
34.5
21
-31.692985
31
0
39
0
210
0
220
0
230
1
0
SOLID
5
13B
100
AcDbEntity
8
0
62
256
6
ByLayer
370
-1
48
1
60
0
100
AcDbTrace
10
-32.5
20
-31.109652
30
0
11
-32.5
21
-32.276319
31
0
12
-36
22
-31.692985
32
0
13
-36
23
-31.692985
33
0
39
0
210
0
220
0
230
1
0
SOLID
5
13C
100
AcDbEntity
8
0
62
256
6
ByLayer
370
-1
48
1
60
0
100
AcDbTrace
10
34.5
20
-32.276319
30
0
11
34.5
21
-31.109652
31
0
12
38
22
-31.692985
32
0
13
38
23
-31.692985
33
0
39
0
210
0
220
0
230
1
0
MTEXT
5
13D
100
AcDbEntity
8
0
62
256
6
ByLayer
370
18
48
1
60
0
100
AcDbMText
10
1
20
-24.692985
30
0
210
0
220
0
230
1
1
\A1;74.00
40
3.5
41
0
44
1
50
0
71
5
72
5
7
iso_b_vert
0
POINT
5
13E
100
AcDbEntity
8
Defpoints
62
0
6
ByLayer
370
-1
48
1
60
0
100
AcDbPoint
10
-36
20
-3
30
0
39
0
210
0
220
0
230
1
50
360
0
POINT
5
13F
100
AcDbEntity
8
Defpoints
62
0
6
ByLayer
370
-1
48
1
60
0
100
AcDbPoint
10
38
20
0
30
0
39
0
210
0
220
0
230
1
50
360
0
POINT
5
140
100
AcDbEntity
8
Defpoints
62
0
6
ByLayer
370
-1
48
1
60
0
100
AcDbPoint
10
38
20
-31.692985
30
0
39
0
210
0
220
0
230
1
50
360
0
ENDBLK
5
137
100
AcDbEntity
8
0
100
AcDbBlockEnd
0
BLOCK
5
148
100
AcDbEntity
8
0
100
AcDbBlockBegin
2
_U1
70
0
10
0
20
0
30
0
3
_U1
0
MTEXT
5
142
100
AcDbEntity
8
SK2
62
256
6
ByLayer
370
13
48
1
60
0
100
AcDbMText
10
-4.321565
20
-30.660352
30
0
210
0
220
0
230
1
1
\W0.7581;74,00
40
3.5
41
0
44
1.084337
50
0
71
7
72
5
7
iso_b_vert
0
LINE
5
143
100
AcDbEntity
8
SK2
62
256
6
ByLayer
370
13
48
1
60
0
100
AcDbLine
10
-36
20
-4.5875
30
0
11
-36
21
-33.692985
31
0
39
0
210
0
220
0
230
1
0
LINE
5
144
100
AcDbEntity
8
SK2
62
256
6
ByLayer
370
13
48
1
60
0
100
AcDbLine
10
38
20
-1.5875
30
0
11
38
21
-33.692985
31
0
39
0
210
0
220
0
230
1
0
LINE
5
145
100
AcDbEntity
8
SK2
62
256
6
ByLayer
370
13
48
1
60
0
100
AcDbLine
10
-36
20
-31.692985
30
0
11
38
21
-31.692985
31
0
39
0
210
0
220
0
230
1
0
SOLID
5
146
100
AcDbEntity
8
SK2
62
256
6
ByLayer
370
18
48
1
60
0
100
AcDbTrace
10
-36
20
-31.692985
30
0
11
-32.500002
21
-31.232202
31
0
12
-32.499998
22
-32.153769
32
0
13
-32.499998
23
-32.153769
33
0
39
0
210
0
220
0
230
1
0
SOLID
5
147
100
AcDbEntity
8
SK2
62
256
6
ByLayer
370
18
48
1
60
0
100
AcDbTrace
10
38
20
-31.692985
30
0
11
34.500002
21
-32.153769
31
0
12
34.499998
22
-31.232202
32
0
13
34.499998
23
-31.232202
33
0
39
0
210
0
220
0
230
1
0
ENDBLK
5
149
100
AcDbEntity
8
0
100
AcDbBlockEnd
0
BLOCK
5
14E
100
AcDbEntity
8
0
100
AcDbBlockBegin
2
*D5
70
1
10
0
20
0
30
0
3
*D5
0
LINE
5
150
100
AcDbEntity
8
0
62
256
6
ByLayer
370
-2
48
1
60
0
100
AcDbLine
10
10.3634
20
3.5875
30
0
11
10.3634
21
15.609119
31
0
39
0
210
0
220
0
230
1
0
LINE
5
151
100
AcDbEntity
8
0
62
256
6
ByLayer
370
-2
48
1
60
0
100
AcDbLine
10
38
20
1.5875
30
0
11
38
21
15.609119
31
0
39
0
210
0
220
0
230
1
0
LINE
5
152
100
AcDbEntity
8
0
62
256
6
ByLayer
370
-2
48
1
60
0
100
AcDbLine
10
13.8634
20
13.609119
30
0
11
34.5
21
13.609119
31
0
39
0
210
0
220
0
230
1
0
SOLID
5
153
100
AcDbEntity
8
0
62
256
6
ByLayer
370
-1
48
1
60
0
100
AcDbTrace
10
13.8634
20
14.192453
30
0
11
13.8634
21
13.025786
31
0
12
10.3634
22
13.609119
32
0
13
10.3634
23
13.609119
33
0
39
0
210
0
220
0
230
1
0
SOLID
5
154
100
AcDbEntity
8
0
62
256
6
ByLayer
370
-1
48
1
60
0
100
AcDbTrace
10
34.5
20
13.025786
30
0
11
34.5
21
14.192453
31
0
12
38
22
13.609119
32
0
13
38
23
13.609119
33
0
39
0
210
0
220
0
230
1
0
MTEXT
5
155
100
AcDbEntity
8
0
62
256
6
ByLayer
370
18
48
1
60
0
100
AcDbMText
10
24.1817
20
20.609119
30
0
210
0
220
0
230
1
1
\A1;27.64
40
3.5
41
0
44
1
50
0
71
5
72
5
7
iso_b_vert
0
POINT
5
156
100
AcDbEntity
8
Defpoints
62
0
6
ByLayer
370
-1
48
1
60
0
100
AcDbPoint
10
10.3634
20
2
30
0
39
0
210
0
220
0
230
1
50
360
0
POINT
5
157
100
AcDbEntity
8
Defpoints
62
0
6
ByLayer
370
-1
48
1
60
0
100
AcDbPoint
10
38
20
0
30
0
39
0
210
0
220
0
230
1
50
360
0
POINT
5
158
100
AcDbEntity
8
Defpoints
62
0
6
ByLayer
370
-1
48
1
60
0
100
AcDbPoint
10
38
20
13.609119
30
0
39
0
210
0
220
0
230
1
50
360
0
ENDBLK
5
14F
100
AcDbEntity
8
0
100
AcDbBlockEnd
0
BLOCK
5
160
100
AcDbEntity
8
0
100
AcDbBlockBegin
2
_U2
70
0
10
0
20
0
30
0
3
_U2
0
MTEXT
5
15A
100
AcDbEntity
8
SK2
62
256
6
ByLayer
370
13
48
1
60
0
100
AcDbMText
10
18.860135
20
14.641753
30
0
210
0
220
0
230
1
1
\W0.7495;27,64
40
3.5
41
0
44
1.084337
50
0
71
7
72
5
7
iso_b_vert
0
LINE
5
15B
100
AcDbEntity
8
SK2
62
256
6
ByLayer
370
13
48
1
60
0
100
AcDbLine
10
10.3634
20
3.5875
30
0
11
10.3634
21
15.609119
31
0
39
0
210
0
220
0
230
1
0
LINE
5
15C
100
AcDbEntity
8
SK2
62
256
6
ByLayer
370
13
48
1
60
0
100
AcDbLine
10
38
20
1.5875
30
0
11
38
21
15.609119
31
0
39
0
210
0
220
0
230
1
0
LINE
5
15D
100
AcDbEntity
8
SK2
62
256
6
ByLayer
370
13
48
1
60
0
100
AcDbLine
10
10.3634
20
13.609119
30
0
11
38
21
13.609119
31
0
39
0
210
0
220
0
230
1
0
SOLID
5
15E
100
AcDbEntity
8
SK2
62
256
6
ByLayer
370
18
48
1
60
0
100
AcDbTrace
10
10.3634
20
13.609119
30
0
11
13.863398
21
14.069903
31
0
12
13.863402
22
13.148335
32
0
13
13.863402
23
13.148335
33
0
39
0
210
0
220
0
230
1
0
SOLID
5
15F
100
AcDbEntity
8
SK2
62
256
6
ByLayer
370
18
48
1
60
0
100
AcDbTrace
10
38
20
13.609119
30
0
11
34.500002
21
13.148335
31
0
12
34.499998
22
14.069903
32
0
13
34.499998
23
14.069903
33
0
39
0
210
0
220
0
230
1
0
ENDBLK
5
161
100
AcDbEntity
8
0
100
AcDbBlockEnd
0
BLOCK
5
166
100
AcDbEntity
8
0
100
AcDbBlockBegin
2
*D7
70
1
10
0
20
0
30
0
3
*D7
0
LINE
5
168
100
AcDbEntity
8
0
62
256
6
ByLayer
370
-2
48
1
60
0
100
AcDbLine
10
38
20
-1.5875
30
0
11
38
21
-16.802503
31
0
39
0
210
0
220
0
230
1
0
LINE
5
169
100
AcDbEntity
8
0
62
256
6
ByLayer
370
-2
48
1
60
0
100
AcDbLine
10
37.3
20
-3.5875
30
0
11
37.3
21
-16.802503
31
0
39
0
210
0
220
0
230
1
0
LINE
5
16A
100
AcDbEntity
8
0
62
256
6
ByLayer
370
-2
48
1
60
0
100
AcDbLine
10
38
20
-14.802503
30
0
11
66.166667
21
-14.802503
31
0
39
0
210
0
220
0
230
1
0
LINE
5
16B
100
AcDbEntity
8
0
62
256
6
ByLayer
370
-2
48
1
60
0
100
AcDbLine
10
41.5
20
-14.802503
30
0
11
45
21
-14.802503
31
0
39
0
210
0
220
0
230
1
0
LINE
5
16C
100
AcDbEntity
8
0
62
256
6
ByLayer
370
-2
48
1
60
0
100
AcDbLine
10
33.8
20
-14.802503
30
0
11
30.3
21
-14.802503
31
0
39
0
210
0
220
0
230
1
0
SOLID
5
16D
100
AcDbEntity
8
0
62
256
6
ByLayer
370
-1
48
1
60
0
100
AcDbTrace
10
41.5
20
-14.21917
30
0
11
41.5
21
-15.385837
31
0
12
38
22
-14.802503
32
0
13
38
23
-14.802503
33
0
39
0
210
0
220
0
230
1
0
SOLID
5
16E
100
AcDbEntity
8
0
62
256
6
ByLayer
370
-1
48
1
60
0
100
AcDbTrace
10
33.8
20
-15.385837
30
0
11
33.8
21
-14.21917
31
0
12
37.3
22
-14.802503
32
0
13
37.3
23
-14.802503
33
0
39
0
210
0
220
0
230
1
0
MTEXT
5
16F
100
AcDbEntity
8
0
62
256
6
ByLayer
370
18
48
1
60
0
100
AcDbMText
10
55.583333
20
-7.802503
30
0
210
0
220
0
230
1
1
\A1;0.70
40
3.5
41
0
44
1
50
0
71
5
72
5
7
iso_b_vert
0
POINT
5
170
100
AcDbEntity
8
Defpoints
62
0
6
ByLayer
370
-1
48
1
60
0
100
AcDbPoint
10
38
20
0
30
0
39
0
210
0
220
0
230
1
50
360
0
POINT
5
171
100
AcDbEntity
8
Defpoints
62
0
6
ByLayer
370
-1
48
1
60
0
100
AcDbPoint
10
37.3
20
-2
30
0
39
0
210
0
220
0
230
1
50
360
0
POINT
5
172
100
AcDbEntity
8
Defpoints
62
0
6
ByLayer
370
-1
48
1
60
0
100
AcDbPoint
10
37.3
20
-14.802503
30
0
39
0
210
0
220
0
230
1
50
360
0
ENDBLK
5
167
100
AcDbEntity
8
0
100
AcDbBlockEnd
0
BLOCK
5
17A
100
AcDbEntity
8
0
100
AcDbBlockBegin
2
_U3
70
0
10
0
20
0
30
0
3
_U3
0
MTEXT
5
174
100
AcDbEntity
8
SK2
62
256
6
ByLayer
370
13
48
1
60
0
100
AcDbMText
10
44.15186
20
-13.76987
30
0
210
0
220
0
230
1
1
\W0.7150;0,70
40
3.5
41
0
44
1.084337
50
0
71
7
72
5
7
iso_b_vert
0
LINE
5
175
100
AcDbEntity
8
SK2
62
256
6
ByLayer
370
13
48
1
60
0
100
AcDbLine
10
38
20
-1.5875
30
0
11
38
21
-16.802503
31
0
39
0
210
0
220
0
230
1
0
LINE
5
176
100
AcDbEntity
8
SK2
62
256
6
ByLayer
370
13
48
1
60
0
100
AcDbLine
10
37.3
20
-3.5875
30
0
11
37.3
21
-16.802503
31
0
39
0
210
0
220
0
230
1
0
LINE
5
177
100
AcDbEntity
8
SK2
62
256
6
ByLayer
370
13
48
1
60
0
100
AcDbLine
10
28.55
20
-14.802503
30
0
11
51.996491
21
-14.802503
31
0
39
0
210
0
220
0
230
1
0
SOLID
5
178
100
AcDbEntity
8
SK2
62
256
6
ByLayer
370
18
48
1
60
0
100
AcDbTrace
10
38
20
-14.802503
30
0
11
41.499998
21
-14.341719
31
0
12
41.500002
22
-15.263287
32
0
13
41.500002
23
-15.263287
33
0
39
0
210
0
220
0
230
1
0
SOLID
5
179
100
AcDbEntity
8
SK2
62
256
6
ByLayer
370
18
48
1
60
0
100
AcDbTrace
10
37.3
20
-14.802503
30
0
11
33.800002
21
-15.263287
31
0
12
33.799998
22
-14.341719
32
0
13
33.799998
23
-14.341719
33
0
39
0
210
0
220
0
230
1
0
ENDBLK
5
17B
100
AcDbEntity
8
0
100
AcDbBlockEnd
0
BLOCK
5
180
100
AcDbEntity
8
0
100
AcDbBlockBegin
2
*D9
70
1
10
0
20
0
30
0
3
*D9
0
LINE
5
182
100
AcDbEntity
8
0
62
256
6
ByLayer
370
-2
48
1
60
0
100
AcDbLine
10
-36
20
-4.5875
30
0
11
-36
21
-23.343428
31
0
39
0
210
0
220
0
230
1
0
LINE
5
183
100
AcDbEntity
8
0
62
256
6
ByLayer
370
-2
48
1
60
0
100
AcDbLine
10
37.3
20
-3.5875
30
0
11
37.3
21
-23.343428
31
0
39
0
210
0
220
0
230
1
0
LINE
5
184
100
AcDbEntity
8
0
62
256
6
ByLayer
370
-2
48
1
60
0
100
AcDbLine
10
-32.5
20
-21.343428
30
0
11
33.8
21
-21.343428
31
0
39
0
210
0
220
0
230
1
0
SOLID
5
185
100
AcDbEntity
8
0
62
256
6
ByLayer
370
-1
48
1
60
0
100
AcDbTrace
10
-32.5
20
-20.760095
30
0
11
-32.5
21
-21.926762
31
0
12
-36
22
-21.343428
32
0
13
-36
23
-21.343428
33
0
39
0
210
0
220
0
230
1
0
SOLID
5
186
100
AcDbEntity
8
0
62
256
6
ByLayer
370
-1
48
1
60
0
100
AcDbTrace
10
33.8
20
-21.926762
30
0
11
33.8
21
-20.760095
31
0
12
37.3
22
-21.343428
32
0
13
37.3
23
-21.343428
33
0
39
0
210
0
220
0
230
1
0
MTEXT
5
187
100
AcDbEntity
8
0
62
256
6
ByLayer
370
18
48
1
60
0
100
AcDbMText
10
0.65
20
-14.343428
30
0
210
0
220
0
230
1
1
\A1;73.30
40
3.5
41
0
44
1
50
0
71
5
72
5
7
iso_b_vert
0
POINT
5
188
100
AcDbEntity
8
Defpoints
62
0
6
ByLayer
370
-1
48
1
60
0
100
AcDbPoint
10
-36
20
-3
30
0
39
0
210
0
220
0
230
1
50
360
0
POINT
5
189
100
AcDbEntity
8
Defpoints
62
0
6
ByLayer
370
-1
48
1
60
0
100
AcDbPoint
10
37.3
20
-2
30
0
39
0
210
0
220
0
230
1
50
360
0
POINT
5
18A
100
AcDbEntity
8
Defpoints
62
0
6
ByLayer
370
-1
48
1
60
0
100
AcDbPoint
10
37.3
20
-21.343428
30
0
39
0
210
0
220
0
230
1
50
360
0
ENDBLK
5
181
100
AcDbEntity
8
0
100
AcDbBlockEnd
0
BLOCK
5
192
100
AcDbEntity
8
0
100
AcDbBlockBegin
2
_U4
70
0
10
0
20
0
30
0
3
_U4
0
MTEXT
5
18C
100
AcDbEntity
8
SK2
62
256
6
ByLayer
370
13
48
1
60
0
100
AcDbMText
10
-4.487299
20
-20.310795
30
0
210
0
220
0
230
1
1
\W0.7317;73,30
40
3.5
41
0
44
1.084337
50
0
71
7
72
5
7
iso_b_vert
0
LINE
5
18D
100
AcDbEntity
8
SK2
62
256
6
ByLayer
370
13
48
1
60
0
100
AcDbLine
10
-36
20
-4.5875
30
0
11
-36
21
-23.343428
31
0
39
0
210
0
220
0
230
1
0
LINE
5
18E
100
AcDbEntity
8
SK2
62
256
6
ByLayer
370
13
48
1
60
0
100
AcDbLine
10
37.3
20
-3.5875
30
0
11
37.3
21
-23.343428
31
0
39
0
210
0
220
0
230
1
0
LINE
5
18F
100
AcDbEntity
8
SK2
62
256
6
ByLayer
370
13
48
1
60
0
100
AcDbLine
10
-36
20
-21.343428
30
0
11
37.3
21
-21.343428
31
0
39
0
210
0
220
0
230
1
0
SOLID
5
190
100
AcDbEntity
8
SK2
62
256
6
ByLayer
370
18
48
1
60
0
100
AcDbTrace
10
-36
20
-21.343428
30
0
11
-32.500002
21
-20.882645
31
0
12
-32.499998
22
-21.804212
32
0
13
-32.499998
23
-21.804212
33
0
39
0
210
0
220
0
230
1
0
SOLID
5
191
100
AcDbEntity
8
SK2
62
256
6
ByLayer
370
18
48
1
60
0
100
AcDbTrace
10
37.3
20
-21.343428
30
0
11
33.800002
21
-21.804212
31
0
12
33.799998
22
-20.882645
32
0
13
33.799998
23
-20.882645
33
0
39
0
210
0
220
0
230
1
0
ENDBLK
5
193
100
AcDbEntity
8
0
100
AcDbBlockEnd
0
ENDSEC
0
SECTION
2
ENTITIES
0
ARC
5
B6
100
AcDbEntity
8
1
62
256
6
ByLayer
370
18
48
1
60
0
100
AcDbCircle
39
0
10
1.499918
20
2.756996
30
0
40
0.799999999999998
210
0
220
0
230
1
100
AcDbArc
50
200.372522
51
270.068755
0
ARC
5
B7
100
AcDbEntity
8
1
62
256
6
ByLayer
370
18
48
1
60
0
100
AcDbCircle
39
0
10
1.499918
20
-2.756996
30
0
40
0.799999999999998
210
0
220
0
230
1
100
AcDbArc
50
89.931245
51
159.627478
0
ARC
5
B8
100
AcDbEntity
8
1
62
256
6
ByLayer
370
18
48
1
60
0
100
AcDbCircle
39
0
10
0
20
-2.2
30
0
40
0.800000000000004
210
0
220
0
230
1
100
AcDbArc
50
270
51
339.627478
0
ARC
5
B9
100
AcDbEntity
8
1
62
256
6
ByLayer
370
18
48
1
60
0
100
AcDbCircle
39
0
10
0
20
2.2
30
0
40
0.800000000000004
210
0
220
0
230
1
100
AcDbArc
50
20.372522
51
90
0
ELLIPSE
5
BA
100
AcDbEntity
8
1
62
256
6
ByLayer
370
18
48
1
60
0
100
AcDbEllipse
10
38.000335
20
-0.000873
30
0
11
0.73249718527184
21
-2.00006304518048
31
0
210
0
220
0
230
1
40
0.073902
41
2.86188695111753
42
2.92905302004429
0
ELLIPSE
5
BB
100
AcDbEntity
8
1
62
256
6
ByLayer
370
18
48
1
60
0
100
AcDbEllipse
10
38.031452
20
0.051115
30
0
11
0.04999422456706
21
0.149068816435912
31
0
210
0
220
0
230
1
40
0.054101
41
2.0809904336212
42
2.37570419351505
0
ELLIPSE
5
BC
100
AcDbEntity
8
1
62
256
6
ByLayer
370
18
48
1
60
0
100
AcDbEllipse
10
37.644502
20
-0.955932
30
0
11
0.292882377392553
21
0.799707144515533
31
0
210
0
220
0
230
1
40
0.073902
41
-1.46806536390473
42
-0.723576254426597
0
ELLIPSE
5
BD
100
AcDbEntity
8
1
62
256
6
ByLayer
370
18
48
1
60
0
100
AcDbEllipse
10
38.031452
20
-0.051115
30
0
11
0.0499942257600753
21
-0.149068819585512
31
0
210
0
220
0
230
1
40
0.054101
41
-2.37570419938462
42
-2.0809904439936
0
ELLIPSE
5
BE
100
AcDbEntity
8
1
62
256
6
ByLayer
370
18
48
1
60
0
100
AcDbEllipse
10
37.978175
20
-0.017737
30
0
11
0.0340861298157262
21
0.0966259032888026
31
0
210
0
220
0
230
1
40
0.0884
41
-2.1604850639314
42
-1.14620188405287
0
ELLIPSE
5
BF
100
AcDbEntity
8
1
62
256
6
ByLayer
370
18
48
1
60
0
100
AcDbEllipse
10
38.000335
20
0.000874
30
0
11
0.732497409735574
21
2.00006369459974
31
0
210
0
220
0
230
1
40
0.073902
41
-2.92905305416095
42
-2.86188699640036
0
ELLIPSE
5
C0
100
AcDbEntity
8
1
62
256
6
ByLayer
370
18
48
1
60
0
100
AcDbEllipse
10
37.644502
20
0.955932
30
0
11
0.292882377351554
21
-0.799707144419673
31
0
210
0
220
0
230
1
40
0.073902
41
0.723576254429025
42
1.46806536400008
0
ELLIPSE
5
C1
100
AcDbEntity
8
1
62
256
6
ByLayer
370
18
48
1
60
0
100
AcDbEllipse
10
28.760503
20
0.955932
30
0
11
9.14397571541353
21
-0.596547346663263
31
0
210
0
220
0
230
1
40
0.058294
41
0.0213999075148469
42
0.304075238326041
0
ELLIPSE
5
C2
100
AcDbEntity
8
1
62
256
6
ByLayer
370
18
48
1
60
0
100
AcDbEllipse
10
4.25
20
-2.13103
30
0
11
-0.25
21
3.06151588455594E-17
31
0
210
0
220
0
230
1
40
1
41
-1.57414998095072
42
-0.798750924830954
0
ELLIPSE
5
C3
100
AcDbEntity
8
1
62
256
6
ByLayer
370
18
48
1
60
0
100
AcDbEllipse
10
4.25
20
2.13103
30
0
11
-0.25
21
3.06151588455594E-17
31
0
210
0
220
0
230
1
40
1
41
0.80620944577097
42
1.57519201485587
0
POINT
5
70
100
AcDbEntity
8
80
62
256
6
ByLayer
370
18
48
1
60
0
100
AcDbPoint
10
0
20
0
30
0
39
0
210
0
220
0
230
1
50
360
0
POINT
5
72
100
AcDbEntity
8
81
62
256
6
ByLayer
370
18
48
1
60
0
100
AcDbPoint
10
38
20
0
30
0
39
0
210
0
220
0
230
1
50
360
0
POINT
5
74
100
AcDbEntity
8
1
62
256
6
ByLayer
370
18
48
1
60
1
100
AcDbPoint
10
37.3
20
-2
30
0
39
0
210
0
220
0
230
1
50
360
0
POINT
5
76
100
AcDbEntity
8
1
62
256
6
ByLayer
370
18
48
1
60
1
100
AcDbPoint
10
-36
20
-3
30
0
39
0
210
0
220
0
230
1
50
360
0
POINT
5
77
100
AcDbEntity
8
1
62
256
6
ByLayer
370
18
48
1
60
1
100
AcDbPoint
10
10.3634
20
2
30
0
39
0
210
0
220
0
230
1
50
360
0
POINT
5
78
100
AcDbEntity
8
1
62
256
6
ByLayer
370
18
48
1
60
1
100
AcDbPoint
10
37.3
20
-2
30
0
39
0
210
0
220
0
230
1
50
360
0
POINT
5
79
100
AcDbEntity
8
1
62
256
6
ByLayer
370
18
48
1
60
1
100
AcDbPoint
10
-36
20
-3
30
0
39
0
210
0
220
0
230
1
50
360
0
POINT
5
7A
100
AcDbEntity
8
1
62
256
6
ByLayer
370
18
48
1
60
1
100
AcDbPoint
10
37.3
20
-2
30
0
39
0
210
0
220
0
230
1
50
360
0
SPLINE
5
C4
100
AcDbEntity
8
SK1
62
256
6
ByLayer
370
18
48
1
60
0
100
AcDbSpline
70
4
71
3
72
8
73
4
40
0
40
0
40
0
40
0
40
1
40
1
40
1
40
1
41
1
10
-35.9999999999999
20
-0.205835935631427
30
0
41
1
10
-35.9170120489731
20
-0.182391733280724
30
0
41
1
10
-35.8336399156528
20
-0.159039612205589
30
0
41
1
10
-35.7499999999999
20
-0.135751673523003
30
0
0
SPLINE
5
C5
100
AcDbEntity
8
SK1
62
256
6
ByLayer
370
18
48
1
60
0
100
AcDbSpline
70
4
71
3
72
12
73
8
40
0
40
0
40
0
40
0
40
0.25
40
0.25
40
0.5
40
0.5
40
1
40
1
40
1
40
1
41
1
10
-35.65
20
1.25027776127504
30
0
41
1
10
-35.65
20
1.26536432382281
30
0
41
1
10
-35.6543359418175
20
1.2778975856418
30
0
41
1
10
-35.6670061648031
20
1.29672303181152
30
0
41
1
10
-35.6754132169202
20
1.30340857008773
30
0
41
1
10
-35.7033957755317
20
1.3169098485792
30
0
41
1
10
-35.7260247133437
20
1.31776106171853
30
0
41
1
10
-35.7500000000001
20
1.31108560059218
30
0
0
SPLINE
5
C6
100
AcDbEntity
8
SK1
62
256
6
ByLayer
370
18
48
1
60
0
100
AcDbSpline
70
4
71
3
72
12
73
8
40
0
40
0
40
0
40
0
40
0.5
40
0.5
40
0.75
40
0.75
40
1
40
1
40
1
40
1
41
1
10
-35.75
20
-0.135751673523089
30
0
41
1
10
-35.7260151107903
20
-0.129073538748997
30
0
41
1
10
-35.7033639221374
20
-0.114129885438075
30
0
41
1
10
-35.6754777620904
20
-0.0812736319749661
30
0
41
1
10
-35.667028628867
20
-0.0682469462217909
30
0
41
1
10
-35.6543320679983
20
-0.0384479092993217
30
0
41
1
10
-35.65
20
-0.0211663377880882
30
0
41
1
10
-35.65
20
-0.0036478762913532
30
0
0
SPLINE
5
C7
100
AcDbEntity
8
SK1
62
256
6
ByLayer
370
18
48
1
60
0
100
AcDbSpline
70
4
71
3
72
8
73
4
40
0
40
0
40
0
40
0
40
1
40
1
40
1
40
1
41
1
10
-35.75
20
1.31108560059204
30
0
41
1
10
-35.8336389303381
20
1.28779793625154
30
0
41
1
10
-35.9170109475853
20
1.2644458519778
30
0
41
1
10
-36
20
1.24100133848361
30
0
0
SPLINE
5
C8
100
AcDbEntity
8
SK1
62
256
6
ByLayer
370
18
48
1
60
0
100
AcDbSpline
70
4
71
3
72
8
73
4
40
0
40
0
40
0
40
0
40
1
40
1
40
1
40
1
41
1
10
-35.9999999999999
20
0.205835935631455
30
0
41
1
10
-35.9170120489731
20
0.182391733280724
30
0
41
1
10
-35.8336399156528
20
0.159039612205618
30
0
41
1
10
-35.7499999999999
20
0.135751673523003
30
0
0
SPLINE
5
C9
100
AcDbEntity
8
SK1
62
256
6
ByLayer
370
18
48
1
60
0
100
AcDbSpline
70
4
71
3
72
12
73
8
40
0
40
0
40
0
40
0
40
0.5
40
0.5
40
0.75
40
0.75
40
1
40
1
40
1
40
1
41
1
10
-35.75
20
0.135751673523117
30
0
41
1
10
-35.7260151107903
20
0.129073538748997
30
0
41
1
10
-35.7033639221374
20
0.114129885438103
30
0
41
1
10
-35.6754777620904
20
0.0812736319749945
30
0
41
1
10
-35.667028628867
20
0.0682469462217909
30
0
41
1
10
-35.6543320679983
20
0.0384479092993217
30
0
41
1
10
-35.65
20
0.0211663377880882
30
0
41
1
10
-35.65
20
0.0036478762913532
30
0
0
SPLINE
5
CA
100
AcDbEntity
8
1
62
256
6
ByLayer
370
18
48
1
60
0
100
AcDbSpline
70
4
71
3
72
72
73
68
40
0
40
0
40
0
40
0
40
0.027461033604781
40
0.027461033604781
40
0.0603871770273276
40
0.0603871770273276
40
0.0933133204498741
40
0.0933133204498741
40
0.126239463872421
40
0.126239463872421
40
0.159165607294967
40
0.159165607294967
40
0.192091750717514
40
0.192091750717514
40
0.22501789414006
40
0.22501789414006
40
0.257944037562607
40
0.257944037562607
40
0.290870180985154
40
0.290870180985154
40
0.3237963244077
40
0.3237963244077
40
0.356722467830247
40
0.356722467830247
40
0.389648611252793
40
0.389648611252793
40
0.42257475467534
40
0.42257475467534
40
0.455500898097887
40
0.455500898097887
40
0.488427041520433
40
0.488427041520433
40
0.52135318494298
40
0.52135318494298
40
0.554279328365526
40
0.554279328365526
40
0.570742400076799
40
0.570742400076799
40
0.587205471788072
40
0.587205471788072
40
0.620131615210616
40
0.620131615210616
40
0.636594686921888
40
0.636594686921888
40
0.653057758633159
40
0.653057758633159
40
0.685983902055702
40
0.685983902055702
40
0.718910045478244
40
0.718910045478244
40
0.751836188900786
40
0.751836188900786
40
0.784762332323328
40
0.784762332323328
40
0.81768847574587
40
0.81768847574587
40
0.850614619168412
40
0.850614619168412
40
0.883540762590954
40
0.883540762590954
40
0.916466906013496
40
0.916466906013496
40
0.949393049436039
40
0.949393049436039
40
0.982319192858581
40
0.982319192858581
40
1
40
1
40
1
40
1
41
1
10
6.94301782277444
20
1.88485698900723
30
0
41
1
10
7.07730480595492
20
1.88506312574654
30
0
41
1
10
7.21175196016145
20
1.88135293605325
30
0
41
1
10
7.50797673366617
20
1.86395065521575
30
0
41
1
10
7.66962309817143
20
1.84849747042367
30
0
41
1
10
7.99172681892668
20
1.80715291418343
30
0
41
1
10
8.15278742344401
20
1.78137788673456
30
0
41
1
10
8.47521801988495
20
1.7184547377158
30
0
41
1
10
8.63669482269404
20
1.68114856905999
30
0
41
1
10
8.95940814708223
20
1.59715350242431
30
0
41
1
10
9.12058327812431
20
1.55081488729013
30
0
41
1
10
9.44288376752954
20
1.44771548070003
30
0
41
1
10
9.60391933570207
20
1.39133710181321
30
0
41
1
10
9.92617623629727
20
1.2706855814215
30
0
41
1
10
10.0878614105349
20
1.20696118928447
30
0
41
1
10
10.4103166934344
20
1.07153389985467
30
0
41
1
10
10.5712287977502
20
1.00010970834194
30
0
41
1
10
10.8929385168187
20
0.851714728104213
30
0
41
1
10
11.0539646135836
20
0.7754540713496
30
0
41
1
10
11.3770007941652
20
0.617355322658938
30
0
41
1
10
11.5381737678972
20
0.535959533187338
30
0
41
1
10
11.8599303406569
20
0.370490271742284
30
0
41
1
10
12.0208526591998
20
0.286936221209061
30
0
41
1
10
12.3431124779081
20
0.118050976993857
30
0
41
1
10
12.5047161267438
20
0.0325212064904292
30
0
41
1
10
12.827014555823
20
-0.138209972676975
30
0
41
1
10
12.9880871611457
20
-0.222994961746139
30
0
41
1
10
13.3101269054587
20
-0.390992103072193
30
0
41
1
10
13.4711462008554
20
-0.473902031556264
30
0
41
1
10
13.7936828481812
20
-0.637244692255081
30
0
41
1
10
13.955276805633
20
-0.717103013881143
30
0
41
1
10
14.2774969532701
20
-0.872389290344188
30
0
41
1
10
14.4383499871206
20
-0.946998501023614
30
0
41
1
10
14.7603107388176
20
-1.09062345832862
30
0
41
1
10
14.921893992441
20
-1.15937419174966
30
0
41
1
10
15.1638795181956
20
-1.25803917234003
30
0
41
1
10
15.2444235431874
20
-1.29000047792007
30
0
41
1
10
15.4053654363713
20
-1.35111346206725
30
0
41
1
10
15.4857453304855
20
-1.38043082874589
30
0
41
1
10
15.7269625290719
20
-1.46539615705677
30
0
41
1
10
15.8880236224427
20
-1.51773164601127
30
0
41
1
10
16.1297299793576
20
-1.59090192128784
30
0
41
1
10
16.2103904592933
20
-1.61443032527859
30
0
41
1
10
16.3715175888205
20
-1.65819362328125
30
0
41
1
10
16.4519225062285
20
-1.67834891551706
30
0
41
1
10
16.6931260639423
20
-1.73480451111288
30
0
41
1
10
16.8540048131118
20
-1.76733455069279
30
0
41
1
10
17.1757215422549
20
-1.82312148177667
30
0
41
1
10
17.336548509074
20
-1.84631554437456
30
0
41
1
10
17.6587771587166
20
-1.87874951490835
30
0
41
1
10
17.819800654069
20
-1.88899917311113
30
0
41
1
10
18.1415079423879
20
-1.8997718050627
30
0
41
1
10
18.3020378662453
20
-1.89997153883971
30
0
41
1
10
18.623805511435
20
-1.88674631211677
30
0
41
1
10
18.7854141028262
20
-1.87399581892842
30
0
41
1
10
19.1075019101615
20
-1.83873874344008
30
0
41
1
10
19.2680342226754
20
-1.81641541618373
30
0
41
1
10
19.5894601852295
20
-1.7582373303631
30
0
41
1
10
19.7506278869273
20
-1.72334399694344
30
0
41
1
10
20.0733524247577
20
-1.64457295007182
30
0
41
1
10
20.2340761037654
20
-1.60069841999669
30
0
41
1
10
20.5554144208635
20
-1.50212735959806
30
0
41
1
10
20.7163273755293
20
-1.44785599521273
30
0
41
1
10
21.0384285328402
20
-1.33137303287555
30
0
41
1
10
21.1995941279444
20
-1.26920969831565
30
0
41
1
10
21.4466833141146
20
-1.16752661783926
30
0
41
1
10
21.5330169106112
20
-1.13098528061065
30
0
41
1
10
21.6193552871267
20
-1.09350110615333
30
0
0
SPLINE
5
CB
100
AcDbEntity
8
1
62
256
6
ByLayer
370
18
48
1
60
0
100
AcDbSpline
70
4
71
3
72
34
73
30
40
0
40
0
40
0
40
0
40
0.0196075108103938
40
0.0196075108103938
40
0.0950223176711326
40
0.0950223176711326
40
0.170437124531871
40
0.170437124531871
40
0.245851931392611
40
0.245851931392611
40
0.32126673825335
40
0.32126673825335
40
0.396681545114088
40
0.396681545114088
40
0.472096351974828
40
0.472096351974828
40
0.547511158835567
40
0.547511158835567
40
0.622925965696305
40
0.622925965696305
40
0.698340772557045
40
0.698340772557045
40
0.773755579417784
40
0.773755579417784
40
0.849170386278522
40
0.849170386278522
40
0.924585193139262
40
0.924585193139262
40
1
40
1
40
1
40
1
41
1
10
29.434428937353
20
1.91097921178366
30
0
41
1
10
29.4762122677916
20
1.91109173912565
30
0
41
1
10
29.5180129270988
20
1.91078515211623
30
0
41
1
10
29.7206873217955
20
1.9070900050954
30
0
41
1
10
29.8816054033273
20
1.89775812545597
30
0
41
1
10
30.2026720550276
20
1.86917830284909
30
0
41
1
10
30.3631424898143
20
1.85087712218103
30
0
41
1
10
30.6842629587147
20
1.80062028559826
30
0
41
1
10
30.8450333668695
20
1.7687808901899
30
0
41
1
10
31.1668330050279
20
1.69476552279508
30
0
41
1
10
31.3276374719408
20
1.6527964589493
30
0
41
1
10
31.6490043155066
20
1.55947566745056
30
0
41
1
10
31.8094206625812
20
1.50793361046811
30
0
41
1
10
32.1308399337416
20
1.39670926820739
30
0
41
1
10
32.292023936872
20
1.33728811755907
30
0
41
1
10
32.6132148370883
20
1.21010283070737
30
0
41
1
10
32.7733692909931
20
1.14185986203952
30
0
41
1
10
33.0942170018445
20
0.999296435987105
30
0
41
1
10
33.2551098815668
20
0.925129719086243
30
0
41
1
10
33.5770012363067
20
0.77104286765271
30
0
41
1
10
33.7373325169655
20
0.691090647501142
30
0
41
1
10
34.0581402378949
20
0.528109088947616
30
0
41
1
10
34.2186976590011
20
0.445304100214372
30
0
41
1
10
34.5400733589092
20
0.276786467200452
30
0
41
1
10
34.7009102551801
20
0.19068386655448
30
0
41
1
10
35.0218884411668
20
0.0188098220276629
30
0
41
1
10
35.1823705972115
20
-0.0669206527801123
30
0
41
1
10
35.5032919810931
20
-0.238022868066111
30
0
41
1
10
35.6636325700082
20
-0.323676951281612
30
0
41
1
10
35.8244760174202
20
-0.407944690882203
30
0
0
SPLINE
5
CC
100
AcDbEntity
8
1
62
256
6
ByLayer
370
18
48
1
60
0
100
AcDbSpline
70
4
71
3
72
80
73
76
40
0
40
0
40
0
40
0
40
0.0012358277302525
40
0.0012358277302525
40
0.0787415275774652
40
0.0787415275774652
40
0.156247227424678
40
0.156247227424678
40
0.233752927271891
40
0.233752927271891
40
0.272505777195497
40
0.272505777195497
40
0.311258627119103
40
0.311258627119103
40
0.388764326966316
40
0.388764326966316
40
0.466270026813529
40
0.466270026813529
40
0.47595823929443
40
0.47595823929443
40
0.478380292414656
40
0.479591318974768
40
0.480196832254825
40
0.480196832254825
40
0.480499588894853
40
0.480499588894853
40
0.480802345534881
40
0.480802345534881
40
0.483224398655107
40
0.483224398655107
40
0.485646451775333
40
0.485646451775333
40
0.505022876737141
40
0.505022876737141
40
0.543775726660756
40
0.543775726660756
40
0.621281426507987
40
0.621281426507987
40
0.660034276431603
40
0.660034276431603
40
0.67941070139341
40
0.67941070139341
40
0.689098913874314
40
0.689098913874314
40
0.693943020114766
40
0.693943020114766
40
0.698787126355218
40
0.698787126355218
40
0.699392639635274
40
0.699392639635274
40
0.699695396275303
40
0.699695396275303
40
0.699998152915331
40
0.699998152915331
40
0.700149531235345
40
0.700149531235345
40
0.700300909555359
40
0.700603666195387
40
0.701209179475444
40
0.70363123259567
40
0.708475338836121
40
0.708475338836121
40
0.718163551317023
40
0.718163551317023
40
0.737539976278829
40
0.737539976278829
40
0.77629282620244
40
0.77629282620244
40
0.853798526049661
40
0.853798526049661
40
0.892551375973272
40
0.892551375973272
40
0.931304225896883
40
0.931304225896883
40
1
40
1
40
1
40
1
41
1
10
9.68530412866545
20
-0.756622172581672
30
0
41
1
10
9.6819049169967
20
-0.755065601442539
30
0
41
1
10
9.67850536976374
20
-0.75351030489162
30
0
41
1
10
9.46187956847612
20
-0.654495276688181
30
0
41
1
10
9.24643262184543
20
-0.561741230250277
30
0
41
1
10
8.81612277663208
20
-0.393033966872281
30
0
41
1
10
8.60136043304931
20
-0.317085938779371
30
0
41
1
10
8.17079248137094
20
-0.186423149141234
30
0
41
1
10
7.95498066373227
20
-0.1317288970275
30
0
41
1
10
7.62862632155287
20
-0.068644113574635
30
0
41
1
10
7.51939777158299
20
-0.0507699837037023
30
0
41
1
10
7.29970414152115
20
-0.0217461685293188
30
0
41
1
10
7.18894782902004
20
-0.0105834106629175
30
0
41
1
10
6.85692513127321
20
0.0121599140573778
30
0
41
1
10
6.63586340009459
20
0.0130577431405925
30
0
41
1
10
6.19145864067244
20
-0.0127278668209101
30
0
41
1
10
5.96808727722328
20
-0.0394962603490399
30
0
41
1
10
5.71661172674393
20
-0.0832599217110328
30
0
41
1
10
5.68865505071477
20
-0.0883123388119884
30
0
41
1
10
5.65370203262938
20
-0.0948576041855631
30
0
41
1
10
5.64321569795146
20
-0.0968383887648656
30
0
41
1
10
5.63098098210466
20
-0.0991792020235209
30
0
41
1
10
5.62573738813973
20
-0.100188794017214
30
0
41
1
10
5.62311556756464
20
-0.100694652559525
30
0
41
1
10
5.62365395431175
20
-0.101543072835284
30
0
41
1
10
5.62482058363642
20
-0.102623753220683
30
0
41
1
10
5.62547468625112
20
-0.103125704348287
30
0
41
1
10
5.63144120683245
20
-0.107530455760042
30
0
41
1
10
5.63740560534177
20
-0.110930539684546
30
0
41
1
10
5.64915329845806
20
-0.117819099689598
30
0
41
1
10
5.65509883252997
20
-0.121198288165118
30
0
41
1
10
5.7088304876952
20
-0.151377893954219
30
0
41
1
10
5.75776331857207
20
-0.177032922884393
30
0
41
1
10
5.90439540615503
20
-0.254243516204127
30
0
41
1
10
6.00276536891084
20
-0.305195957459034
30
0
41
1
10
6.29825511559829
20
-0.458100498834398
30
0
41
1
10
6.49603719916234
20
-0.559746815901775
30
0
41
1
10
6.79188365235771
20
-0.714625177039579
30
0
41
1
10
6.89040512341492
20
-0.766585895896753
30
0
41
1
10
7.03778943253133
20
-0.845533508620775
30
0
41
1
10
7.08685347802955
20
-0.872006267436547
30
0
41
1
10
7.16017698024123
20
-0.912281391689959
30
0
41
1
10
7.18457663521909
20
-0.925796087586576
30
0
41
1
10
7.22099716790407
20
-0.946409571419338
30
0
41
1
10
7.23310832744477
20
-0.953335061763312
30
0
41
1
10
7.25718326812193
20
-0.967455436715483
30
0
41
1
10
7.2692755636098
20
-0.974461953448071
30
0
41
1
10
7.28221013121208
20
-0.983389880458986
30
0
41
1
10
7.28363456270768
20
-0.98440135516077
30
0
41
1
10
7.28571055938159
20
-0.986011203136997
30
0
41
1
10
7.28639196397393
20
-0.986560803754799
30
0
41
1
10
7.28768865084118
20
-0.987740292871678
30
0
41
1
10
7.28861539073265
20
-0.988309724185683
30
0
41
1
10
7.28863553106407
20
-0.989676217151242
30
0
41
1
10
7.28800843220316
20
-0.989804615175302
30
0
41
1
10
7.28721868387103
20
-0.990234563202193
30
0
41
1
10
7.28603405642627
20
-0.99087939017852
30
0
41
1
10
7.28326989329585
20
-0.99238331860613
30
0
41
1
10
7.27458229847707
20
-0.997105749087524
30
0
41
1
10
7.25404603499112
20
-1.0082346072852
30
0
41
1
10
7.23508677012885
20
-1.01843074107592
30
0
41
1
10
7.19716346996702
20
-1.03871577127606
30
0
41
1
10
7.17186870885348
20
-1.05209938606041
30
0
41
1
10
7.09598743088583
20
-1.09176472235149
30
0
41
1
10
7.04541620580116
20
-1.11755481975132
30
0
41
1
10
6.89358115146348
20
-1.19270746812398
30
0
41
1
10
6.79186737838899
20
-1.23998153111592
30
0
41
1
10
6.48792014429748
20
-1.3696580542285
30
0
41
1
10
6.28670496181476
20
-1.4399143420944
30
0
41
1
10
5.98248397644304
20
-1.51756386823069
30
0
41
1
10
5.88068999694246
20
-1.53886267195475
30
0
41
1
10
5.67577196850476
20
-1.57221913415364
30
0
41
1
10
5.57233097765766
20
-1.58426987141567
30
0
41
1
10
5.28785520256304
20
-1.60507670239232
30
0
41
1
10
5.10738829341571
20
-1.60439851858112
30
0
41
1
10
4.92729209594376
20
-1.59286762827492
30
0
0
SPLINE
5
CD
100
AcDbEntity
8
1
62
256
6
ByLayer
370
18
48
1
60
0
100
AcDbSpline
70
4
71
3
72
26
73
22
40
0
40
0
40
0
40
0
40
0.125
40
0.125
40
0.25
40
0.25
40
0.375
40
0.375
40
0.5
40
0.5
40
0.625
40
0.625
40
0.687499999999998
40
0.687499999999998
40
0.749999999999997
40
0.749999999999997
40
0.874999999999993
40
0.874999999999993
40
0.937499999999997
40
0.937499999999997
40
1
40
1
40
1
40
1
41
1
10
37.7762376674326
20
-0.591771116390589
30
0
41
1
10
37.7571869502275
20
-0.579727089456185
30
0
41
1
10
37.7329718996181
20
-0.579999360688305
30
0
41
1
10
37.6806189236833
20
-0.600117712314812
30
0
41
1
10
37.6517376769885
20
-0.62017513434327
30
0
41
1
10
37.5931005885857
20
-0.676682507951824
30
0
41
1
10
37.5626120380599
20
-0.713820964442505
30
0
41
1
10
37.5042275492505
20
-0.80292621129405
30
0
41
1
10
37.4757232000252
20
-0.855910658440934
30
0
41
1
10
37.4286721482474
20
-0.971275814251328
30
0
41
1
10
37.4108801649641
20
-1.03258031681642
30
0
41
1
10
37.3995781569272
20
-1.11448181477331
30
0
41
1
10
37.3984118516192
20
-1.13921549253379
30
0
41
1
10
37.4009480590404
20
-1.18291876604442
30
0
41
1
10
37.4045912507182
20
-1.20116636236679
30
0
41
1
10
37.4214389425551
20
-1.24600547791462
30
0
41
1
10
37.4400806418381
20
-1.26137130362099
30
0
41
1
10
37.4735878567138
20
-1.266972885326
30
0
41
1
10
37.485860170566
20
-1.2659235349025
30
0
41
1
10
37.5115024688136
20
-1.25863590334544
30
0
41
1
10
37.5249222753883
20
-1.25244242753419
30
0
41
1
10
37.5389144235048
20
-1.2438113701794
30
0
0
SPLINE
5
CE
100
AcDbEntity
8
1
62
256
6
ByLayer
370
18
48
1
60
0
100
AcDbSpline
70
4
71
3
72
20
73
16
40
0
40
0
40
0
40
0
40
0.125000000000002
40
0.125000000000002
40
0.250000000000003
40
0.250000000000003
40
0.375000000000005
40
0.375000000000005
40
0.500000000000006
40
0.500000000000006
40
0.749999999999997
40
0.749999999999997
40
0.874999999999998
40
0.874999999999998
40
1
40
1
40
1
40
1
41
1
10
37.3371105169373
20
-1.93640519376783
30
0
41
1
10
37.3534509056326
20
-1.89603517430405
30
0
41
1
10
37.3698895959106
20
-1.85504315851494
30
0
41
1
10
37.4028516611508
20
-1.77252329057592
30
0
41
1
10
37.4194130657731
20
-1.73075480843667
30
0
41
1
10
37.4528123472701
20
-1.64546848549747
30
0
41
1
10
37.4695860980181
20
-1.60220323314635
30
0
41
1
10
37.5029486490154
20
-1.51558664297542
30
0
41
1
10
37.5196071778794
20
-1.47217778246235
30
0
41
1
10
37.5694492439462
20
-1.3413608916787
30
0
41
1
10
37.602417588476
20
-1.25300147042273
30
0
41
1
10
37.6516857778691
20
-1.11964740638629
30
0
41
1
10
37.6680962293187
20
-1.07514176775078
30
0
41
1
10
37.7007980796005
20
-0.985604145481489
30
0
41
1
10
37.7171442157523
20
-0.940478170833813
30
0
41
1
10
37.7333254509653
20
-0.895452124876783
30
0
0
SPLINE
5
CF
100
AcDbEntity
8
1
62
256
6
ByLayer
370
18
48
1
60
0
100
AcDbSpline
70
4
71
3
72
12
73
8
40
0
40
0
40
0
40
0
40
0.499999999999999
40
0.499999999999999
40
0.749999999999999
40
0.749999999999999
40
1
40
1
40
1
40
1
41
1
10
37.3287762913234
20
-1.90293388499617
30
0
41
1
10
37.3319478283669
20
-1.899725793703
30
0
41
1
10
37.3332291871853
20
-1.90194348480009
30
0
41
1
10
37.3301679163613
20
-1.91788644427939
30
0
41
1
10
37.3282823390196
20
-1.92532028799573
30
0
41
1
10
37.3228904990557
20
-1.94357388820711
30
0
41
1
10
37.3193800258459
20
-1.95439357338458
30
0
41
1
10
37.3154989915082
20
-1.96560382129508
30
0
0
SPLINE
5
D0
100
AcDbEntity
8
1
62
256
6
ByLayer
370
18
48
1
60
0
100
AcDbSpline
70
4
71
3
72
34
73
30
40
0
40
0
40
0
40
0
40
0.062500000000004
40
0.062500000000004
40
0.0937500000000061
40
0.0937500000000061
40
0.125000000000008
40
0.125000000000008
40
0.187500000000012
40
0.187500000000012
40
0.250000000000016
40
0.250000000000016
40
0.281250000000017
40
0.281250000000017
40
0.312500000000019
40
0.312500000000019
40
0.34375000000002
40
0.34375000000002
40
0.375000000000022
40
0.375000000000022
40
0.406250000000023
40
0.406250000000023
40
0.437500000000025
40
0.437500000000025
40
0.500000000000017
40
0.500000000000017
40
0.750000000000008
40
0.750000000000008
40
1
40
1
40
1
40
1
41
1
10
37.173411055336
20
0.422768518558911
30
0
41
1
10
37.2006969600636
20
0.367988262135753
30
0
41
1
10
37.2301474306392
20
0.314340134752541
30
0
41
1
10
37.2771568545057
20
0.235692676555175
30
0
41
1
10
37.2935014209201
20
0.209957758792939
30
0
41
1
10
37.3240285454042
20
0.156982997430816
30
0
41
1
10
37.3385670216812
20
0.129976576347445
30
0
41
1
10
37.3788839171231
20
0.0480255975410273
30
0
41
1
10
37.4017217114435
20
-0.0080428523975229
30
0
41
1
10
37.4337344816161
20
-0.125030782606586
30
0
41
1
10
37.4423227041195
20
-0.186346539793732
30
0
41
1
10
37.4346797646045
20
-0.271341238132408
30
0
41
1
10
37.4288951774918
20
-0.297981484946035
30
0
41
1
10
37.4102433772479
20
-0.347561267461685
30
0
41
1
10
37.3976997477247
20
-0.369974239858237
30
0
41
1
10
37.3682366314662
20
-0.409660190042757
30
0
41
1
10
37.3511752737157
20
-0.427155987893826
30
0
41
1
10
37.3146707844463
20
-0.4571667197566
30
0
41
1
10
37.295048506256
20
-0.469885568921711
30
0
41
1
10
37.2535483036254
20
-0.491558707654974
30
0
41
1
10
37.2316821133625
20
-0.500411840274666
30
0
41
1
10
37.1869019352165
20
-0.51486786367704
30
0
41
1
10
37.1638179819456
20
-0.520281408226509
30
0
41
1
10
37.0944911198598
20
-0.53593453007835
30
0
41
1
10
37.047673927651
20
-0.544303261645666
30
0
41
1
10
36.8108796036111
20
-0.576343523501492
30
0
41
1
10
36.6163051023915
20
-0.570201525503279
30
0
41
1
10
36.2203508017636
20
-0.51415298578786
30
0
41
1
10
36.0224085294246
20
-0.464127304739662
30
0
41
1
10
35.8244760174299
20
-0.407944690887291
30
0
0
SPLINE
5
D1
100
AcDbEntity
8
1
62
256
6
ByLayer
370
13
48
1
60
0
100
AcDbSpline
70
4
71
3
72
14
73
10
40
0
40
0
40
0
40
0
40
0.109684465909642
40
0.109684465909642
40
0.287747572727713
40
0.287747572727713
40
0.643873786363857
40
0.643873786363857
40
1
40
1
40
1
40
1
41
1
10
4.2509751553666
20
-1.88101639842623
30
0
41
1
10
4.25099954624193
20
-1.88099917933366
30
0
41
1
10
4.25102309001247
20
-1.87881552875194
30
0
41
1
10
4.25108245141206
20
-1.86746540495739
30
0
41
1
10
4.25111708636535
20
-1.85486379156794
30
0
41
1
10
4.25121711972491
20
-1.80046057079724
30
0
41
1
10
4.251279206318
20
-1.74137618329061
30
0
41
1
10
4.25139595985618
20
-1.58194461634835
30
0
41
1
10
4.25145005888197
20
-1.48315018641054
30
0
41
1
10
4.25149951246959
20
-1.36639278509565
30
0
0
SPLINE
5
D2
100
AcDbEntity
8
1
62
256
6
ByLayer
370
18
48
1
60
0
100
AcDbSpline
70
4
71
3
72
58
73
54
40
0
40
0
40
0
40
0
40
0.062500000000001
40
0.062500000000001
40
0.125000000000002
40
0.125000000000002
40
0.250000000000006
40
0.250000000000006
40
0.375000000000009
40
0.375000000000009
40
0.437500000000011
40
0.437500000000011
40
0.500000000000013
40
0.500000000000013
40
0.562500000000015
40
0.562500000000015
40
0.625000000000017
40
0.625000000000017
40
0.628906250000017
40
0.628906250000017
40
0.632812500000017
40
0.632812500000017
40
0.640625000000016
40
0.640625000000016
40
0.656250000000016
40
0.656250000000016
40
0.687500000000015
40
0.687500000000015
40
0.703125000000015
40
0.703125000000015
40
0.718750000000015
40
0.718750000000015
40
0.734375000000015
40
0.734375000000015
40
0.742187500000014
40
0.742187500000014
40
0.750000000000014
40
0.750000000000014
40
0.765625000000013
40
0.765625000000013
40
0.781250000000013
40
0.781250000000013
40
0.812500000000011
40
0.812500000000011
40
0.843750000000009
40
0.843750000000009
40
0.875000000000008
40
0.875000000000008
40
0.906250000000006
40
0.906250000000006
40
0.937500000000005
40
0.937500000000005
40
1
40
1
40
1
40
1
41
1
10
9.68530432139346
20
-0.756622803549533
30
0
41
1
10
9.4752648509922
20
-0.64952880419213
30
0
41
1
10
9.26235728895813
20
-0.543633033856281
30
0
41
1
10
8.83102989150802
20
-0.335547596064799
30
0
41
1
10
8.61350395177291
20
-0.233838016212331
30
0
41
1
10
7.95987318431509
20
0.0594819826929438
30
0
41
1
10
7.52044435451853
20
0.240253347672478
30
0
41
1
10
6.62834910965316
20
0.559738383378487
30
0
41
1
10
6.17561245914814
20
0.698254588574343
30
0
41
1
10
5.48354307636953
20
0.869089031676054
30
0
41
1
10
5.25030274103483
20
0.920011779721051
30
0
41
1
10
4.78215477883066
20
1.00907398821076
30
0
41
1
10
4.54711401874485
20
1.04728360418468
30
0
41
1
10
4.07494707929033
20
1.11166212002954
30
0
41
1
10
3.83782240552975
20
1.13784197792967
30
0
41
1
10
3.36139335604366
20
1.17874341050242
30
0
41
1
10
3.1219328197472
20
1.19347303355863
30
0
41
1
10
2.86730974005928
20
1.20312488962063
30
0
41
1
10
2.85234417758912
20
1.20387028587268
30
0
41
1
10
2.82200118475552
20
1.19941941512366
30
0
41
1
10
2.80896204980866
20
1.19374048972827
30
0
41
1
10
2.76893223071235
20
1.17839771462673
30
0
41
1
10
2.74243032707338
20
1.16782032158497
30
0
41
1
10
2.66353619018221
20
1.13491663366423
30
0
41
1
10
2.6117494350367
20
1.11143201369922
30
0
41
1
10
2.45945164865682
20
1.03495847518258
30
0
41
1
10
2.36252741763349
20
0.976592682570526
30
0
41
1
10
2.23229674451221
20
0.870587586847108
30
0
41
1
10
2.19101287486666
20
0.831671968782359
30
0
41
1
10
2.11743828831726
20
0.746182895964552
30
0
41
1
10
2.08535077182421
20
0.700006374577299
30
0
41
1
10
2.03416244718556
20
0.597964895076785
30
0
41
1
10
2.01623385762224
20
0.544109938602332
30
0
41
1
10
2.00249084225709
20
0.459288575096195
30
0
41
1
10
2.00010199011481
20
0.430006330263893
30
0
41
1
10
1.99990637276579
20
0.371717523085437
30
0
41
1
10
2.00203640931423
20
0.342683749824545
30
0
41
1
10
2.01446865456012
20
0.255864589907304
30
0
41
1
10
2.03107426287704
20
0.198074961830997
30
0
41
1
10
2.07490540374249
20
0.0886630685081684
30
0
41
1
10
2.10223415004032
20
0.0361226228748137
30
0
41
1
10
2.19578181345608
20
-0.116339021935659
30
0
41
1
10
2.27031444100385
20
-0.207070640553837
30
0
41
1
10
2.43181167046831
20
-0.377238051177159
30
0
41
1
10
2.51915866166374
20
-0.456308179016759
30
0
41
1
10
2.69794608137346
20
-0.603220578600997
30
0
41
1
10
2.79008806452043
20
-0.671646854366031
30
0
41
1
10
2.97818150664753
20
-0.801280184468823
30
0
41
1
10
3.07415629419913
20
-0.862448387960541
30
0
41
1
10
3.26912118453563
20
-0.978926172894489
30
0
41
1
10
3.36822457603023
20
-1.03425651499464
30
0
41
1
10
3.66600974896986
20
-1.19090455386188
30
0
41
1
10
3.8663103979286
20
-1.28374093840696
30
0
41
1
10
4.06812607635632
20
-1.36719834002864
30
0
0
SPLINE
5
D3
100
AcDbEntity
8
1
62
256
6
ByLayer
370
18
48
1
60
0
100
AcDbSpline
70
4
71
3
72
8
73
4
40
0
40
0
40
0
40
0
40
1
40
1
40
1
40
1
41
1
10
4.06727387234818
20
1.88011401120275
30
0
41
1
10
4.0733317120077
20
1.87288520037816
30
0
41
1
10
4.07972357089906
20
1.86600409546082
30
0
41
1
10
4.08646726030491
20
1.85949046904989
30
0
0
SPLINE
5
D4
100
AcDbEntity
8
1
62
256
6
ByLayer
370
18
48
1
60
0
100
AcDbSpline
70
4
71
3
72
10
73
6
40
0
40
0
40
0
40
0
40
0.5
40
0.5
40
1
40
1
40
1
40
1
41
1
10
4.11719856933325
20
1.8509158064162
30
0
41
1
10
4.10297646201616
20
1.85486627443433
30
0
41
1
10
4.09088297772448
20
1.85939759989881
30
0
41
1
10
4.07291689073693
20
1.86942471514774
30
0
41
1
10
4.06726163651106
20
1.87481780499613
30
0
41
1
10
4.06727387234759
20
1.88011401120272
30
0
0
SPLINE
5
D5
100
AcDbEntity
8
1
62
256
6
ByLayer
370
18
48
1
60
0
100
AcDbSpline
70
4
71
3
72
10
73
6
40
0
40
0
40
0
40
0
40
0.777605421409794
40
0.777605421409794
40
1
40
1
40
1
40
1
41
1
10
37.3154989915055
20
1.96560382129181
30
0
41
1
10
37.1421605558107
20
1.98333615861648
30
0
41
1
10
36.9684464785516
20
1.99408736544893
30
0
41
1
10
36.745673349374
20
1.99879686232742
30
0
41
1
10
36.696197932671
20
1.99926897635535
30
0
41
1
10
36.6467829740734
20
1.99917077734671
30
0
0
SPLINE
5
D6
100
AcDbEntity
8
1
62
256
6
ByLayer
370
18
48
1
60
0
100
AcDbSpline
70
4
71
3
72
38
73
34
40
0
40
0
40
0
40
0
40
0.0219599011114239
40
0.0219599011114239
40
0.107741282659093
40
0.107741282659093
40
0.150631973432928
40
0.150631973432928
40
0.193522664206763
40
0.193522664206763
40
0.279304045754433
40
0.279304045754433
40
0.322194736528269
40
0.322194736528269
40
0.365085427302104
40
0.365085427302104
40
0.450866808849776
40
0.450866808849776
40
0.536648190397447
40
0.536648190397447
40
0.579538881171284
40
0.579538881171284
40
0.62242957194512
40
0.62242957194512
40
0.708210953492793
40
0.708210953492793
40
0.751101644266629
40
0.751101644266629
40
0.793992335040464
40
0.793992335040464
40
0.965555098135807
40
0.965555098135807
40
1
40
1
40
1
40
1
41
1
10
26.2103828866689
20
-1.9361083688745
30
0
41
1
10
26.1223361338712
20
-1.94694780592096
30
0
41
1
10
26.0344055579937
20
-1.95601836947262
30
0
41
1
10
25.6033523478128
20
-1.99181809285096
30
0
41
1
10
25.2609142195256
20
-1.99314853264534
30
0
41
1
10
24.7437846722135
20
-1.95383216830186
30
0
41
1
10
24.5707127109215
20
-1.93382199156667
30
0
41
1
10
24.2228051346206
20
-1.88007068659147
30
0
41
1
10
24.0498205418586
20
-1.8466385706889
30
0
41
1
10
23.5327177934707
20
-1.72785981740543
30
0
41
1
10
23.1902092268136
20
-1.62422094160459
30
0
41
1
10
22.6751994984325
20
-1.43699573602885
30
0
41
1
10
22.5032553577825
20
-1.36936644865793
30
0
41
1
10
22.1579711120139
20
-1.22465691488162
30
0
41
1
10
21.9841530796381
20
-1.14734295788801
30
0
41
1
10
21.4629177197798
20
-0.903896135945757
30
0
41
1
10
21.1191156115785
20
-0.728598878993125
30
0
41
1
10
20.4326127647767
20
-0.36323998808308
30
0
41
1
10
20.0896419795539
20
-0.173662772874735
30
0
41
1
10
19.5711462923579
20
0.113032346452798
30
0
41
1
10
19.3969084179334
20
0.209217824090956
30
0
41
1
10
19.04967524914
20
0.398518539391006
30
0
41
1
10
18.8769716829709
20
0.491622924911041
30
0
41
1
10
18.3604419936321
20
0.764338545741253
30
0
41
1
10
18.0177360066483
20
0.936550285161189
30
0
41
1
10
17.501878944903
20
1.17345600677825
30
0
41
1
10
17.3295727395796
20
1.24876236567351
30
0
41
1
10
16.98331725314
20
1.3905622569207
30
0
41
1
10
16.8087661465157
20
1.45734645794897
30
0
41
1
10
15.9417283064756
20
1.76257917860588
30
0
41
1
10
15.2614292922393
20
1.91574223277581
30
0
41
1
10
14.4287327254342
20
1.9680465095737
30
0
41
1
10
14.2886756031511
20
1.97235497941793
30
0
41
1
10
14.1491713567015
20
1.97216848632192
30
0
0
SPLINE
5
D7
100
AcDbEntity
8
1
62
256
6
ByLayer
370
18
48
1
60
0
100
AcDbSpline
70
4
71
3
72
16
73
12
40
0
40
0
40
0
40
0
40
0.125000000000004
40
0.125000000000004
40
0.250000000000008
40
0.250000000000008
40
0.500000000000005
40
0.500000000000005
40
0.750000000000003
40
0.750000000000003
40
1
40
1
40
1
40
1
41
1
10
37.7762376674278
20
-0.591771116389339
30
0
41
1
10
37.7764818673897
20
-0.599814247347638
30
0
41
1
10
37.7743414800686
20
-0.613940014845298
30
0
41
1
10
37.7651475441742
20
-0.654177914608397
30
0
41
1
10
37.7581809155587
20
-0.679833446784215
30
0
41
1
10
37.7314336884856
20
-0.768954362930543
30
0
41
1
10
37.7060383942521
20
-0.843486183857721
30
0
41
1
10
37.6531838899691
20
-0.986882172325522
30
0
41
1
10
37.6254367178882
20
-1.0567484747161
30
0
41
1
10
37.576228361644
20
-1.17155017306243
30
0
41
1
10
37.5545763780775
20
-1.21707780857463
30
0
41
1
10
37.5389144234984
20
-1.24381137017596
30
0
0
SPLINE
5
D8
100
AcDbEntity
8
1
62
256
6
ByLayer
370
18
48
1
60
0
100
AcDbSpline
70
4
71
3
72
8
73
4
40
0
40
0
40
0
40
0
40
1
40
1
40
1
40
1
41
1
10
4.20323606313423
20
1.83195301795362
30
0
41
1
10
4.17319155174135
20
1.83776872506408
30
0
41
1
10
4.14347519804659
20
1.84361695969522
30
0
41
1
10
4.11719856933325
20
1.8509158064162
30
0
0
SPLINE
5
D9
100
AcDbEntity
8
1
62
256
6
ByLayer
370
18
48
1
60
0
100
AcDbSpline
70
4
71
3
72
12
73
8
40
0
40
0
40
0
40
0
40
0.499999999999991
40
0.499999999999991
40
0.749999999999995
40
0.749999999999995
40
1
40
1
40
1
40
1
41
1
10
36.9866934976862
20
-1.40300085668036
30
0
41
1
10
36.7727420481479
20
-1.28433010791099
30
0
41
1
10
36.5663088801422
20
-1.14616173237485
30
0
41
1
10
36.2712812489431
20
-0.900988714396618
30
0
41
1
10
36.1753272504307
20
-0.8127684826284
30
0
41
1
10
35.9902871850069
20
-0.619737923724074
30
0
41
1
10
35.9036596860649
20
-0.517472980893217
30
0
41
1
10
35.8244760174299
20
-0.407944690887206
30
0
0
SPLINE
5
DA
100
AcDbEntity
8
1
62
256
6
ByLayer
370
18
48
1
60
0
100
AcDbSpline
70
4
71
3
72
14
73
10
40
0
40
0
40
0
40
0
40
0.25
40
0.25
40
0.5
40
0.5
40
0.75
40
0.75
40
1
40
1
40
1
40
1
41
1
10
37.224111037187
20
0.53416359714285
30
0
41
1
10
37.2113202517692
20
0.533701714858495
30
0
41
1
10
37.1985262752614
20
0.531196018287176
30
0
41
1
10
37.1762234755447
20
0.519240651227165
30
0
41
1
10
37.1670410661023
20
0.509183486848968
30
0
41
1
10
37.1582827260078
20
0.485127695303163
30
0
41
1
10
37.1583050888044
20
0.471690596709038
30
0
41
1
10
37.1630237410273
20
0.446513676735378
30
0
41
1
10
37.1676423195011
20
0.434350059701956
30
0
41
1
10
37.1734110553413
20
0.422768518546775
30
0
0
SPLINE
5
DB
100
AcDbEntity
8
1
62
256
6
ByLayer
370
18
48
1
60
0
100
AcDbSpline
70
4
71
3
72
68
73
64
40
0
40
0
40
0
40
0
40
0.028680432789247
40
0.028680432789247
40
0.0615331052373385
40
0.0615331052373385
40
0.09438577768543
40
0.09438577768543
40
0.127238450133521
40
0.127238450133521
40
0.160091122581613
40
0.160091122581613
40
0.192943795029704
40
0.192943795029704
40
0.225796467477796
40
0.225796467477796
40
0.258649139925887
40
0.258649139925887
40
0.291501812373979
40
0.291501812373979
40
0.32435448482207
40
0.32435448482207
40
0.357207157270162
40
0.357207157270162
40
0.390059829718253
40
0.390059829718253
40
0.422912502166345
40
0.422912502166345
40
0.455765174614436
40
0.455765174614436
40
0.488617847062527
40
0.488617847062527
40
0.521470519510619
40
0.521470519510619
40
0.55432319195871
40
0.55432319195871
40
0.587175864406802
40
0.587175864406802
40
0.620028536854893
40
0.620028536854893
40
0.652881209302985
40
0.652881209302985
40
0.685733881751076
40
0.685733881751076
40
0.718586554199168
40
0.718586554199168
40
0.751439226647259
40
0.751439226647259
40
0.784291899095351
40
0.784291899095351
40
0.817144571543442
40
0.817144571543442
40
0.849997243991534
40
0.849997243991534
40
0.882849916439625
40
0.882849916439625
40
0.915702588887717
40
0.915702588887717
40
0.948555261335808
40
0.948555261335808
40
0.9814079337839
40
0.9814079337839
40
1
40
1
40
1
40
1
41
1
10
32.8711002520692
20
-1.09828227199847
30
0
41
1
10
32.7310049852959
20
-1.15983880606808
30
0
41
1
10
32.5909069158227
20
-1.21897317916071
30
0
41
1
10
32.2892742374599
20
-1.33833408105204
30
0
41
1
10
32.1282478607982
20
-1.3976440500862
30
0
41
1
10
31.8070153243522
20
-1.508727546644
30
0
41
1
10
31.6465345304892
20
-1.56024536549612
30
0
41
1
10
31.3247274466063
20
-1.65358810341257
30
0
41
1
10
31.1632752845467
20
-1.69565501394496
30
0
41
1
10
30.8415953042623
20
-1.76949889591444
30
0
41
1
10
30.6812078946987
20
-1.80118064245261
30
0
41
1
10
30.3600055742957
20
-1.85128423838029
30
0
41
1
10
30.1992759639876
20
-1.86955542627712
30
0
41
1
10
29.8774441861564
20
-1.89805194101837
30
0
41
1
10
29.716560884698
20
-1.90726837841041
30
0
41
1
10
29.3951168217329
20
-1.91292005045312
30
0
41
1
10
29.2344897664736
20
-1.90902385088341
30
0
41
1
10
28.9132030064899
20
-1.89189657294881
30
0
41
1
10
28.7521594292741
20
-1.8780744374217
30
0
41
1
10
28.4303035755538
20
-1.8379853128161
30
0
41
1
10
28.2697255745511
20
-1.81100855972525
30
0
41
1
10
27.9487665490657
20
-1.74832191865102
30
0
41
1
10
27.7882856232196
20
-1.7125015539024
30
0
41
1
10
27.46630721147
20
-1.62973994704771
30
0
41
1
10
27.3051748789547
20
-1.58236586908967
30
0
41
1
10
26.9840781725686
20
-1.47894279945695
30
0
41
1
10
26.8236131888141
20
-1.42377870996694
30
0
41
1
10
26.5020910154586
20
-1.30455310567004
30
0
41
1
10
26.3408696424941
20
-1.24021087237855
30
0
41
1
10
26.0191486604834
20
-1.10348875880183
30
0
41
1
10
25.8584943270225
20
-1.03253823016868
30
0
41
1
10
25.5369149037825
20
-0.885044969804056
30
0
41
1
10
25.3760933724267
20
-0.808319056551937
30
0
41
1
10
25.0542989613608
20
-0.648771549637388
30
0
41
1
10
24.8930908753511
20
-0.567085593180906
30
0
41
1
10
24.5711596882089
20
-0.401953100772857
30
0
41
1
10
24.4103362149201
20
-0.318059941821758
30
0
41
1
10
24.0889454148219
20
-0.147468077827881
30
0
41
1
10
23.9278717150756
20
-0.0614113721109959
30
0
41
1
10
23.6054208625847
20
0.109609209408774
30
0
41
1
10
23.4445212531021
20
0.194768064908089
30
0
41
1
10
23.1233505515465
20
0.364219022648399
30
0
41
1
10
22.96279276978
20
0.448014951850041
30
0
41
1
10
22.6406281842487
20
0.612126280491111
30
0
41
1
10
22.4791464799083
20
0.692652334244372
30
0
41
1
10
22.1577401956258
20
0.84911655914442
30
0
41
1
10
21.9972683573068
20
0.924643589204749
30
0
41
1
10
21.6755380146025
20
1.07001572705838
30
0
41
1
10
21.5143442105153
20
1.13978436204332
30
0
41
1
10
21.1922786466058
20
1.27211383450918
30
0
41
1
10
21.0316794922455
20
1.33391517579085
30
0
41
1
10
20.7099488553096
20
1.45005701155174
30
0
41
1
10
20.5490597535099
20
1.50420660340964
30
0
41
1
10
20.2273343728651
20
1.60263112336696
30
0
41
1
10
20.0660955683707
20
1.64646629033123
30
0
41
1
10
19.7439451723522
20
1.72484765189353
30
0
41
1
10
19.5829597690113
20
1.75956468566429
30
0
41
1
10
19.2614437401027
20
1.81745125127091
30
0
41
1
10
19.1005589444204
20
1.8396453043926
30
0
41
1
10
18.7777167818769
20
1.87468505230106
30
0
41
1
10
18.6165382491965
20
1.88722902913312
30
0
41
1
10
18.3647590401221
20
1.89728288056705
30
0
41
1
10
18.273801648154
20
1.89873830948002
30
0
41
1
10
18.1827715057571
20
1.89830948488426
30
0
0
SPLINE
5
DC
100
AcDbEntity
8
1
62
256
6
ByLayer
370
18
48
1
60
0
100
AcDbSpline
70
4
71
3
72
28
73
24
40
0
40
0
40
0
40
0
40
0.0256079929031596
40
0.0256079929031596
40
0.114189084457418
40
0.114189084457418
40
0.202770176011676
40
0.202770176011676
40
0.291351267565934
40
0.291351267565934
40
0.379932359120193
40
0.379932359120193
40
0.468513450674451
40
0.468513450674451
40
0.557094542228709
40
0.557094542228709
40
0.645675633782967
40
0.645675633782967
40
0.734256725337225
40
0.734256725337225
40
0.822837816891484
40
0.822837816891484
40
1
40
1
40
1
40
1
41
1
10
10.3813003864349
20
-1.08287870160333
30
0
41
1
10
10.3346420003994
20
-1.1030608023714
30
0
41
1
10
10.2879831782732
20
-1.12294491126667
30
0
41
1
10
10.0800132913477
20
-1.21013205861672
30
0
41
1
10
9.91909249576955
20
-1.27343740228787
30
0
41
1
10
9.5974473718486
20
-1.3936561909002
30
0
41
1
10
9.43645265661058
20
-1.44990288039688
30
0
41
1
10
9.11365966817621
20
-1.55289397859465
30
0
41
1
10
8.95221529524324
20
-1.59914844393839
30
0
41
1
10
8.63042048176879
20
-1.68265359467051
30
0
41
1
10
8.46949494704995
20
-1.71970241566913
30
0
41
1
10
8.14720673414791
20
-1.78233149566412
30
0
41
1
10
7.98566746307085
20
-1.80806311564467
30
0
41
1
10
7.66325843874802
20
-1.84917678639039
30
0
41
1
10
7.50218556113543
20
-1.86442009815738
30
0
41
1
10
7.17995296728927
20
-1.88308740138328
30
0
41
1
10
7.01887341898538
20
-1.88642653285231
30
0
41
1
10
6.69647024939377
20
-1.88197572147882
30
0
41
1
10
6.53487977029801
20
-1.87436636805447
30
0
41
1
10
6.21298741659737
20
-1.84737148573828
30
0
41
1
10
6.05249529789756
20
-1.82745398791954
30
0
41
1
10
5.57147697498584
20
-1.753246535812
30
0
41
1
10
5.25007348428016
20
-1.6839756461622
30
0
41
1
10
4.92729209631702
20
-1.59286762829879
30
0
0
SPLINE
5
DD
100
AcDbEntity
8
1
62
256
6
ByLayer
370
18
48
1
60
0
100
AcDbSpline
70
4
71
3
72
76
73
72
40
0
40
0
40
0
40
0
40
0.012130443456323
40
0.012130443456323
40
0.0413581479053055
40
0.0413581479053055
40
0.0705858523542879
40
0.0705858523542879
40
0.0998135568032704
40
0.0998135568032704
40
0.129041261252253
40
0.129041261252253
40
0.158268965701235
40
0.158268965701235
40
0.187496670150218
40
0.187496670150218
40
0.2167243745992
40
0.2167243745992
40
0.245952079048183
40
0.245952079048183
40
0.275179783497165
40
0.275179783497165
40
0.304407487946148
40
0.304407487946148
40
0.33363519239513
40
0.33363519239513
40
0.362862896844113
40
0.362862896844113
40
0.392090601293095
40
0.392090601293095
40
0.421318305742078
40
0.421318305742078
40
0.45054601019106
40
0.45054601019106
40
0.479773714640043
40
0.479773714640043
40
0.509001419089025
40
0.509001419089025
40
0.538229123538008
40
0.538229123538008
40
0.56745682798699
40
0.56745682798699
40
0.596684532435973
40
0.596684532435973
40
0.625912236884955
40
0.625912236884955
40
0.655139941333937
40
0.655139941333937
40
0.68436764578292
40
0.68436764578292
40
0.713595350231902
40
0.713595350231902
40
0.742823054680885
40
0.742823054680885
40
0.772050759129867
40
0.772050759129867
40
0.80127846357885
40
0.80127846357885
40
0.830506168027832
40
0.830506168027832
40
0.859733872476815
40
0.859733872476815
40
0.888961576925797
40
0.888961576925797
40
0.91818928137478
40
0.91818928137478
40
0.947416985823762
40
0.947416985823762
40
0.976644690272745
40
0.976644690272745
40
1
40
1
40
1
40
1
41
1
10
10.3715600375081
20
1.08828725545538
30
0
41
1
10
10.4314354950598
20
1.11558709849015
30
0
41
1
10
10.4912680552935
20
1.14251680165626
30
0
41
1
10
10.695020225793
20
1.23323584293595
30
0
41
1
10
10.8392445691355
20
1.29474750735511
30
0
41
1
10
11.1285213541281
20
1.40984047296857
30
0
41
1
10
11.2730560835919
20
1.4637868828747
30
0
41
1
10
11.5613149140102
20
1.5652040180743
30
0
41
1
10
11.704775929359
20
1.61287782802845
30
0
41
1
10
11.9933820554847
20
1.69888046840237
30
0
41
1
10
12.1383868502159
20
1.7377178729767
30
0
41
1
10
12.4273704561551
20
1.80703877800471
30
0
41
1
10
12.5710261964737
20
1.83777696934172
30
0
41
1
10
12.8588820732422
20
1.88971128493336
30
0
41
1
10
13.0032764237828
20
1.91089274835119
30
0
41
1
10
13.2923310040042
20
1.94419529477068
30
0
41
1
10
13.4369519399661
20
1.95632650398869
30
0
41
1
10
13.7247568959906
20
1.97093212891417
30
0
41
1
10
13.8689052068895
20
1.97333882617846
30
0
41
1
10
14.1574784564649
20
1.96875967595997
30
0
41
1
10
14.3018754365115
20
1.96179228188046
30
0
41
1
10
14.5901357351943
20
1.93798649090962
30
0
41
1
10
14.7343711893862
20
1.92122077912146
30
0
41
1
10
15.0229871379074
20
1.87897952611328
30
0
41
1
10
15.1673179727612
20
1.85343096618962
30
0
41
1
10
15.4554000591004
20
1.79299011635462
30
0
41
1
10
15.598956543967
20
1.75783753197277
30
0
41
1
10
15.8880515548996
20
1.68001452602081
30
0
41
1
10
16.0326122903704
20
1.63727197316288
30
0
41
1
10
16.320999333391
20
1.54378531941759
30
0
41
1
10
16.4644624502888
20
1.49250654614863
30
0
41
1
10
16.7523835500535
20
1.38361124694822
30
0
41
1
10
16.8970876927834
20
1.32611268599936
30
0
41
1
10
17.1862491910212
20
1.20472242977752
30
0
41
1
10
17.3302332634328
20
1.14067350577008
30
0
41
1
10
17.6176003500713
20
1.00659343987417
30
0
41
1
10
17.7617031644984
20
0.937684130401067
30
0
41
1
10
18.050390395914
20
0.795729915067767
30
0
41
1
10
18.1951844126052
20
0.722534102001191
30
0
41
1
10
18.4830973932626
20
0.571332034501864
30
0
41
1
10
18.6268623652755
20
0.494376661575984
30
0
41
1
10
18.9151456607287
20
0.339826133401402
30
0
41
1
10
19.0594377923243
20
0.261841965208021
30
0
41
1
10
19.3476825873298
20
0.10326041969401
30
0
41
1
10
19.4916419723518
20
0.022337890921591
30
0
41
1
10
19.7800480272522
20
-0.136403201450634
30
0
41
1
10
19.9243081422114
20
-0.215053795486028
30
0
41
1
10
20.2124206826436
20
-0.371867831977909
30
0
41
1
10
20.3558654464123
20
-0.450749816480254
30
0
41
1
10
20.6441643047708
20
-0.604738426751311
30
0
41
1
10
20.7888947685977
20
-0.679810233101193
30
0
41
1
10
21.0773515308375
20
-0.826419306777154
30
0
41
1
10
21.2210813609895
20
-0.898412015799039
30
0
41
1
10
21.5083365655007
20
-1.03832653774359
30
0
41
1
10
21.6525457419817
20
-1.10518209128165
30
0
41
1
10
21.9416674999699
20
-1.23351817098927
30
0
41
1
10
22.0860517469809
20
-1.29480322086766
30
0
41
1
10
22.373347622617
20
-1.41209052450989
30
0
41
1
10
22.5170076156347
20
-1.46719631966164
30
0
41
1
10
22.8052875191387
20
-1.56938548711395
30
0
41
1
10
22.9498505833123
20
-1.61678937005334
30
0
41
1
10
23.2382431954586
20
-1.70444114834032
30
0
41
1
10
23.3816364411863
20
-1.74454393486627
30
0
41
1
10
23.6695871731474
20
-1.81497437244374
30
0
41
1
10
23.8137506457477
20
-1.84572649073519
30
0
41
1
10
24.1019235315953
20
-1.89865697560191
30
0
41
1
10
24.2457600425437
20
-1.92099118471961
30
0
41
1
10
24.5338726285193
20
-1.95560452419019
30
0
41
1
10
24.6780637534996
20
-1.96804907188698
30
0
41
1
10
24.9371968726555
20
-1.98204217064372
30
0
41
1
10
25.0520432762678
20
-1.9852683386683
30
0
41
1
10
25.1668851002919
20
-1.98539443626944
30
0
0
SPLINE
5
DE
100
AcDbEntity
8
1
62
256
6
ByLayer
370
18
48
1
60
0
100
AcDbSpline
70
4
71
3
72
26
73
22
40
0
40
0
40
0
40
0
40
0.0343620549600362
40
0.0343620549600362
40
0.227489643968034
40
0.227489643968034
40
0.32405343847203
40
0.32405343847203
40
0.420617232976026
40
0.420617232976026
40
0.517181027480022
40
0.517181027480022
40
0.613744821984017
40
0.613744821984017
40
0.710308616488013
40
0.710308616488013
40
0.806872410992009
40
0.806872410992009
40
0.903436205496004
40
0.903436205496004
40
1
40
1
40
1
40
1
41
1
10
32.8720292644419
20
1.09018779552494
30
0
41
1
10
32.9232040694462
20
1.11420424355336
30
0
41
1
10
32.9743324187945
20
1.1379123346853
30
0
41
1
10
33.3124196873483
20
1.29240554420372
30
0
41
1
10
33.6007707855787
20
1.40929126840527
30
0
41
1
10
34.0319593374037
20
1.5674766540495
30
0
41
1
10
34.1758601704797
20
1.61618767839835
30
0
41
1
10
34.4636820116352
20
1.70492010530978
30
0
41
1
10
34.6075942128022
20
1.7451906651975
30
0
41
1
10
34.8947353761983
20
1.81798476021873
30
0
41
1
10
35.0380956589819
20
1.85037898345499
30
0
41
1
10
35.3264551632146
20
1.90527379973921
30
0
41
1
10
35.4705426224022
20
1.92802767520038
30
0
41
1
10
35.7579945785252
20
1.96447773712379
30
0
41
1
10
35.900966452388
20
1.97821101121065
30
0
41
1
10
36.1883162283399
20
1.99572101386605
30
0
41
1
10
36.3327741138615
20
1.99964964239874
30
0
41
1
10
36.6208764114798
20
1.99796197492353
30
0
41
1
10
36.7641190572953
20
1.9922952252362
30
0
41
1
10
37.0501978122211
20
1.97127590322378
30
0
41
1
10
37.1936187988096
20
1.95613065228162
30
0
41
1
10
37.337110516925
20
1.9364051937695
30
0
0
SPLINE
5
DF
100
AcDbEntity
8
1
62
256
6
ByLayer
370
18
48
1
60
0
100
AcDbSpline
70
4
71
3
72
24
73
20
40
0
40
0
40
0
40
0
40
0.205275969186411
40
0.205275969186411
40
0.307913953779617
40
0.307913953779617
40
0.410551938372823
40
0.410551938372823
40
0.513189922966028
40
0.513189922966028
40
0.615827907559234
40
0.615827907559234
40
0.71846589215244
40
0.71846589215244
40
0.821103876745646
40
0.821103876745646
40
0.923741861338851
40
0.923741861338851
40
1
40
1
40
1
40
1
41
1
10
9.68530432139258
20
-0.75662280354905
30
0
41
1
10
9.97340255132355
20
-0.905213246779056
30
0
41
1
10
10.2630467075012
20
-1.04090305285285
30
0
41
1
10
10.695020225791
20
-1.23323584293504
30
0
41
1
10
10.8392445691333
20
-1.2947475073542
30
0
41
1
10
11.128521354126
20
-1.40984047296774
30
0
41
1
10
11.2730560835898
20
-1.46378688287393
30
0
41
1
10
11.5613149140081
20
-1.56520401807362
30
0
41
1
10
11.7047759293569
20
-1.61287782802779
30
0
41
1
10
11.9933820554827
20
-1.69888046840177
30
0
41
1
10
12.1383868502138
20
-1.73771787297619
30
0
41
1
10
12.4273704561531
20
-1.80703877800425
30
0
41
1
10
12.5710261964717
20
-1.83777696934132
30
0
41
1
10
12.8588820732403
20
-1.88971128493304
30
0
41
1
10
13.0032764237809
20
-1.9108927483509
30
0
41
1
10
13.2923310040023
20
-1.94419529477048
30
0
41
1
10
13.4369519399643
20
-1.95632650398855
30
0
41
1
10
13.6877713178497
20
-1.96905517207009
30
0
41
1
10
13.7948239228172
20
-1.97177826573011
30
0
41
1
10
13.9019681348209
20
-1.97188056136926
30
0
0
SPLINE
5
E0
100
AcDbEntity
8
1
62
256
6
ByLayer
370
18
48
1
60
0
100
AcDbSpline
70
4
71
3
72
74
73
70
40
0
40
0
40
0
40
0
40
0.0116056900541302
40
0.0116056900541302
40
0.0407653150600158
40
0.0407653150600158
40
0.0699249400659016
40
0.0699249400659016
40
0.0990845650717872
40
0.0990845650717872
40
0.128244190077673
40
0.128244190077673
40
0.157403815083559
40
0.157403815083559
40
0.186563440089444
40
0.186563440089444
40
0.21572306509533
40
0.21572306509533
40
0.244882690101215
40
0.244882690101215
40
0.274042315107101
40
0.274042315107101
40
0.303201940112987
40
0.303201940112987
40
0.332361565118873
40
0.332361565118873
40
0.361521190124758
40
0.361521190124758
40
0.390680815130644
40
0.390680815130644
40
0.41984044013653
40
0.41984044013653
40
0.449000065142415
40
0.449000065142415
40
0.478159690148301
40
0.478159690148301
40
0.507319315154187
40
0.507319315154187
40
0.536478940160072
40
0.536478940160072
40
0.565638565165958
40
0.565638565165958
40
0.594798190171844
40
0.594798190171844
40
0.623957815177729
40
0.623957815177729
40
0.653117440183615
40
0.653117440183615
40
0.682277065189501
40
0.682277065189501
40
0.711436690195386
40
0.711436690195386
40
0.740596315201272
40
0.740596315201272
40
0.769755940207158
40
0.769755940207158
40
0.828075190218927
40
0.828075190218927
40
0.857234815224811
40
0.857234815224811
40
0.886394440230696
40
0.886394440230696
40
0.915554065236581
40
0.915554065236581
40
0.944713690242466
40
0.944713690242466
40
0.97387331524835
40
0.97387331524835
40
1
40
1
40
1
40
1
41
1
10
21.6246801928605
20
1.09142915223302
30
0
41
1
10
21.6820902944102
20
1.11784594569445
30
0
41
1
10
21.7395706013853
20
1.14381090071706
30
0
41
1
10
21.9416674999688
20
1.23351817098879
30
0
41
1
10
22.0860517469799
20
1.29480322086721
30
0
41
1
10
22.3733476226159
20
1.41209052450947
30
0
41
1
10
22.5170076156337
20
1.46719631966124
30
0
41
1
10
22.8052875191378
20
1.56938548711361
30
0
41
1
10
22.9498505833113
20
1.616789370053
30
0
41
1
10
23.2382431954576
20
1.70444114834007
30
0
41
1
10
23.3816364411854
20
1.74454393486602
30
0
41
1
10
23.6695871731466
20
1.81497437244352
30
0
41
1
10
23.8137506457468
20
1.84572649073499
30
0
41
1
10
24.1019235315944
20
1.89865697560177
30
0
41
1
10
24.2457600425428
20
1.9209911847195
30
0
41
1
10
24.5338726285185
20
1.95560452419011
30
0
41
1
10
24.6780637534987
20
1.96804907188692
30
0
41
1
10
24.9661364833826
20
1.98360489960794
30
0
41
1
10
25.1097807754546
20
1.98670172856214
30
0
41
1
10
25.3972485722488
20
1.98309791564611
30
0
41
1
10
25.5418795884756
20
1.97645665536507
30
0
41
1
10
25.8303570860406
20
1.95384942816295
30
0
41
1
10
25.9743685474776
20
1.93788621260853
30
0
41
1
10
26.2613832192362
20
1.89612638837767
30
0
41
1
10
26.4050899872873
20
1.87061815325416
30
0
41
1
10
26.6936859127583
20
1.81105885932385
30
0
41
1
10
26.8383347475996
20
1.77692909655477
30
0
41
1
10
27.1259750005676
20
1.69969881107895
30
0
41
1
10
27.2691724512233
20
1.65643829379292
30
0
41
1
10
27.5569973071732
20
1.56335256832855
30
0
41
1
10
27.7012295524056
20
1.51320322292108
30
0
41
1
10
27.9898021578456
20
1.40500097795334
30
0
41
1
10
28.1333010786904
20
1.34652200008031
30
0
41
1
10
28.4208363573085
20
1.22480223643419
30
0
41
1
10
28.5648682975901
20
1.16143075734235
30
0
41
1
10
28.8528888218083
20
1.02893083574222
30
0
41
1
10
28.9967386494751
20
0.959323410060563
30
0
41
1
10
29.2844887577026
20
0.815249619448565
30
0
41
1
10
29.4285622369961
20
0.742053801017278
30
0
41
1
10
29.7165402577682
20
0.592523753539183
30
0
41
1
10
29.8604221027819
20
0.516149714764879
30
0
41
1
10
30.1474862654924
20
0.359225991700157
30
0
41
1
10
30.2916190618372
20
0.279825185403752
30
0
41
1
10
30.5800642533196
20
0.121355229644053
30
0
41
1
10
30.7241526234893
20
0.0420240088887454
30
0
41
1
10
31.0113772454257
20
-0.118066143876632
30
0
41
1
10
31.1545373107684
20
-0.198778289609493
30
0
41
1
10
31.442554605725
20
-0.356839794574483
30
0
41
1
10
31.5871996425142
20
-0.435001666443696
30
0
41
1
10
31.8751773361042
20
-0.589436867654996
30
0
41
1
10
32.0182721489011
20
-0.666455761921412
30
0
41
1
10
32.3055572438575
20
-0.815122952285293
30
0
41
1
10
32.4495961793311
20
-0.887070409357221
30
0
41
1
10
32.7379016111635
20
-1.02715291907737
30
0
41
1
10
32.8818903372346
20
-1.09566976833301
30
0
41
1
10
33.3124196873483
20
-1.29240554420366
30
0
41
1
10
33.6007707855787
20
-1.40929126840533
30
0
41
1
10
34.0319593374038
20
-1.56747665404947
30
0
41
1
10
34.1758601704797
20
-1.61618767839835
30
0
41
1
10
34.4636820116352
20
-1.70492010530981
30
0
41
1
10
34.6075942128023
20
-1.74519066519753
30
0
41
1
10
34.8947353761985
20
-1.81798476021879
30
0
41
1
10
35.0380956589821
20
-1.85037898345502
30
0
41
1
10
35.3264551632148
20
-1.90527379973923
30
0
41
1
10
35.4705426224024
20
-1.92802767520041
30
0
41
1
10
35.7579945785254
20
-1.96447773712381
30
0
41
1
10
35.9009664523882
20
-1.97821101121068
30
0
41
1
10
36.1733723684251
20
-1.99481039186912
30
0
41
1
10
36.3027319831191
20
-1.99878018252139
30
0
41
1
10
36.4318644144055
20
-1.99891416207228
30
0
0
SPLINE
5
E1
100
AcDbEntity
8
1
62
256
6
ByLayer
370
18
48
1
60
0
100
AcDbSpline
70
4
71
3
72
12
73
8
40
0
40
0
40
0
40
0
40
0.273758330326955
40
0.273758330326955
40
0.704513014664133
40
0.704513014664133
40
1
40
1
40
1
40
1
41
1
10
25.5967016589384
20
-1.90631000752859
30
0
41
1
10
25.3788258436077
20
-1.9058792889912
30
0
41
1
10
25.1614377461223
20
-1.89487238907216
30
0
41
1
10
24.601393269243
20
-1.83965451004767
30
0
41
1
10
24.2579387098353
20
-1.78021772033003
30
0
41
1
10
23.6733328768828
20
-1.63803096888685
30
0
41
1
10
23.436265540659
20
-1.56925555855983
30
0
41
1
10
23.1990511904416
20
-1.49061423810281
30
0
0
SPLINE
5
E2
100
AcDbEntity
8
1
62
256
6
ByLayer
370
13
48
1
60
0
100
AcDbSpline
70
4
71
3
72
26
73
22
40
0
40
0
40
0
40
0
40
0.0523067329258738
40
0.0523067329258738
40
0.135591102867672
40
0.135591102867672
40
0.218875472809469
40
0.218875472809469
40
0.385444212693068
40
0.385444212693068
40
0.468728582634866
40
0.468728582634866
40
0.552012952576665
40
0.552012952576665
40
0.71858169246026
40
0.71858169246026
40
0.801866062402058
40
0.801866062402058
40
0.885150432343856
40
0.885150432343856
40
1
40
1
40
1
40
1
41
1
10
23.1990511913176
20
-1.49061423839325
30
0
41
1
10
23.0904594732297
20
-1.45461390329263
30
0
41
1
10
22.9818369466694
20
-1.41654605329282
30
0
41
1
10
22.6999489368808
20
-1.31276898767189
30
0
41
1
10
22.5264672229823
20
-1.24411408961433
30
0
41
1
10
22.1811872437937
20
-1.09942047651464
30
0
41
1
10
22.0089870506298
20
-1.02322351567551
30
0
41
1
10
21.4928072073328
20
-0.784770651081686
30
0
41
1
10
21.1488667742863
20
-0.613200360359031
30
0
41
1
10
20.6289694693709
20
-0.344176686499537
30
0
41
1
10
20.4559727528505
20
-0.253173263449355
30
0
41
1
10
20.1116626697252
20
-0.0712746538138163
30
0
41
1
10
19.9400955610261
20
0.0198887323466863
30
0
41
1
10
19.426175951543
20
0.292200348364872
30
0
41
1
10
19.0841468026817
20
0.47121928452114
30
0
41
1
10
18.5680919687515
20
0.728646940380116
30
0
41
1
10
18.3954238233333
20
0.812496756001764
30
0
41
1
10
18.048333469715
20
0.974354771984707
30
0
41
1
10
17.8757289861638
20
1.05166164382274
30
0
41
1
10
17.4664991776399
20
1.22602237327692
30
0
41
1
10
17.2302036433276
20
1.31901037916964
30
0
41
1
10
16.9939531795079
20
1.40285458273587
30
0
0
SPLINE
5
E3
100
AcDbEntity
8
1
62
256
6
ByLayer
370
18
48
1
60
0
100
AcDbSpline
70
4
71
3
72
8
73
4
40
0
40
0
40
0
40
0
40
1
40
1
40
1
40
1
41
1
10
16.9939531792957
20
1.40285458281119
30
0
41
1
10
16.9072662131612
20
1.43361938859033
30
0
41
1
10
16.8205853151524
20
1.46315310637308
30
0
41
1
10
16.733867407051
20
1.49140324527127
30
0
0
SPLINE
5
E4
100
AcDbEntity
8
1
62
256
6
ByLayer
370
18
48
1
60
0
100
AcDbSpline
70
4
71
3
72
14
73
10
40
0
40
0
40
0
40
0
40
0.319469906129279
40
0.319469906129279
40
0.65973495306464
40
0.65973495306464
40
0.82986747653232
40
0.82986747653232
40
1
40
1
40
1
40
1
41
1
10
4.06758812126924
20
-1.96007626524582
30
0
41
1
10
4.06766596717407
20
-1.9597525136133
30
0
41
1
10
4.0677320626836
20
-1.93852560360759
30
0
41
1
10
4.06785864765681
20
-1.85061667656168
30
0
41
1
10
4.06791590726493
20
-1.782862866112
30
0
41
1
10
4.06799824656491
20
-1.64908307102846
30
0
41
1
10
4.06802521702306
20
-1.59862353727027
30
0
41
1
10
4.06807701736341
20
-1.489372279398
30
0
41
1
10
4.06810199562389
20
-1.43041730719659
30
0
41
1
10
4.06812607635626
20
-1.36719834002864
30
0
0
SPLINE
5
E5
100
AcDbEntity
8
1
62
256
6
ByLayer
370
18
48
1
60
0
100
AcDbSpline
70
4
71
3
72
12
73
8
40
0
40
0
40
0
40
0
40
0.471275695478353
40
0.471275695478353
40
0.942551390956707
40
0.942551390956707
40
1
40
1
40
1
40
1
41
1
10
4.06727387234824
20
1.88011401120275
30
0
41
1
10
4.06733201479818
20
1.905280611124
30
0
41
1
10
4.06738532628455
20
1.92451539083461
30
0
41
1
10
4.06748444477424
20
1.95119369616393
30
0
41
1
10
4.06753048151432
20
1.95859809806708
30
0
41
1
10
4.06757792318436
20
1.96002942561114
30
0
41
1
10
4.06758302653864
20
1.96009697526961
30
0
41
1
10
4.0675880803683
20
1.96007643342043
30
0
0
SPLINE
5
E6
100
AcDbEntity
8
1
62
256
6
ByLayer
370
18
48
1
60
0
100
AcDbSpline
70
4
71
3
72
10
73
6
40
0
40
0
40
0
40
0
40
0.5
40
0.5
40
1
40
1
40
1
40
1
41
1
10
4.06812607635638
20
-1.36719834002864
30
0
41
1
10
4.09293002660684
20
-1.35275613641434
30
0
41
1
10
4.12301717663814
20
-1.34582430032478
30
0
41
1
10
4.18664757395271
20
-1.3464873959235
30
0
41
1
10
4.21931013127949
20
-1.35375676607984
30
0
41
1
10
4.25149951246968
20
-1.36639278492464
30
0
0
SPLINE
5
E7
100
AcDbEntity
8
1
62
256
6
ByLayer
370
18
48
1
60
0
100
AcDbSpline
70
4
71
3
72
8
73
4
40
0
40
0
40
0
40
0
40
1
40
1
40
1
40
1
41
1
10
37.4954036783323
20
0.546349654594735
30
0
41
1
10
37.4052917997148
20
0.541430708797122
30
0
41
1
10
37.3148344956132
20
0.537439671039436
30
0
41
1
10
37.224111037187
20
0.534163597142879
30
0
0
SPLINE
5
E8
100
AcDbEntity
8
1
62
256
6
ByLayer
370
18
48
1
60
0
100
AcDbSpline
70
4
71
3
72
14
73
10
40
0
40
0
40
0
40
0
40
0.242360206514078
40
0.242360206514078
40
0.669681085542747
40
0.669681085542747
40
0.883341525057088
40
0.883341525057088
40
1
40
1
40
1
40
1
41
1
10
36.8797553660997
20
-1.91947337731364
30
0
41
1
10
36.6835803188884
20
-1.92008520013317
30
0
41
1
10
36.4874783156416
20
-1.9120625253141
30
0
41
1
10
35.9473605182457
20
-1.86635940652044
30
0
41
1
10
35.6039732813708
20
-1.81101081536707
30
0
41
1
10
35.0856590587552
20
-1.69103335747317
30
0
41
1
10
34.9123828145045
20
-1.64484191070571
30
0
41
1
10
34.6463649902348
20
-1.5653878318291
30
0
41
1
10
34.5526156520993
20
-1.53574202870439
30
0
41
1
10
34.4590012437383
20
-1.5046033074965
30
0
0
SPLINE
5
E9
100
AcDbEntity
8
1
62
256
6
ByLayer
370
13
48
1
60
0
100
AcDbSpline
70
4
71
3
72
24
73
20
40
0
40
0
40
0
40
0
40
0.0365159155755048
40
0.0365159155755048
40
0.197378118797069
40
0.197378118797069
40
0.277809220407851
40
0.277809220407851
40
0.358240322018633
40
0.358240322018633
40
0.519102525240197
40
0.519102525240197
40
0.679964728461761
40
0.679964728461761
40
0.840826931683325
40
0.840826931683325
40
0.921258033294107
40
0.921258033294107
40
1
40
1
40
1
40
1
41
1
10
34.4590021926233
20
-1.5046036231216
30
0
41
1
10
34.3811611398015
20
-1.47871156146252
30
0
41
1
10
34.3034133781416
20
-1.45178728978649
30
0
41
1
10
33.883468444026
20
-1.30096151755163
30
0
41
1
10
33.5423367993313
20
-1.15900615173555
30
0
41
1
10
33.0277333856636
20
-0.924210944446969
30
0
41
1
10
32.855697096119
20
-0.842314534565986
30
0
41
1
10
32.5098204158747
20
-0.672366935794543
30
0
41
1
10
32.3368061774669
20
-0.584753287836833
30
0
41
1
10
31.8212082275201
20
-0.317920476099857
30
0
41
1
10
31.4797968007241
20
-0.134632355810993
30
0
41
1
10
30.7952055214201
20
0.230518381115928
30
0
41
1
10
30.4518498031821
20
0.41278935336112
30
0
41
1
10
29.7591069776479
20
0.764743048645897
30
0
41
1
10
29.4143503748333
20
0.931149852158512
30
0
41
1
10
28.8952727677374
20
1.15907385425137
30
0
41
1
10
28.7219493402701
20
1.23136449916521
30
0
41
1
10
28.3811309275622
20
1.36438504335797
30
0
41
1
10
28.2131368758051
20
1.42546721856846
30
0
41
1
10
28.0454836976122
20
1.48170526922425
30
0
0
SPLINE
5
EA
100
AcDbEntity
8
1
62
256
6
ByLayer
370
18
48
1
60
0
100
AcDbSpline
70
4
71
3
72
14
73
10
40
0
40
0
40
0
40
0
40
0.328128183947762
40
0.328128183947762
40
0.545003443540252
40
0.545003443540252
40
0.761878703132742
40
0.761878703132742
40
1
40
1
40
1
40
1
41
1
10
14.3572189520935
20
-1.89231220887245
30
0
41
1
10
14.097853792701
20
-1.89214448669145
30
0
41
1
10
13.8382892896316
20
-1.87711236989156
30
0
41
1
10
13.4045483185469
20
-1.82731627942368
30
0
41
1
10
13.2308053142105
20
-1.80085982806395
30
0
41
1
10
12.8840104334815
20
-1.73565553078032
30
0
41
1
10
12.7109356722692
20
-1.69690489680482
30
0
41
1
10
12.3476851214152
20
-1.60341736986081
30
0
41
1
10
12.1570565688774
20
-1.547270615907
30
0
41
1
10
11.9667590769184
20
-1.48501489817625
30
0
0
SPLINE
5
EB
100
AcDbEntity
8
1
62
256
6
ByLayer
370
13
48
1
60
0
100
AcDbSpline
70
4
71
3
72
28
73
24
40
0
40
0
40
0
40
0
40
0.0605310375581039
40
0.0605310375581039
40
0.194740889335518
40
0.194740889335518
40
0.261845815224225
40
0.261845815224225
40
0.328950741112931
40
0.328950741112931
40
0.463160592890345
40
0.463160592890345
40
0.530265518779052
40
0.530265518779052
40
0.597370444667759
40
0.597370444667759
40
0.731580296445172
40
0.731580296445172
40
0.798685222333879
40
0.798685222333879
40
0.865790148222587
40
0.865790148222587
40
1
40
1
40
1
40
1
41
1
10
11.9667590775801
20
-1.48501489839273
30
0
41
1
10
11.810419636701
20
-1.43386853803295
30
0
41
1
10
11.6543036448391
20
-1.37859893847454
30
0
41
1
10
11.154287389604
20
-1.18950243954001
30
0
41
1
10
10.8119469434751
20
-1.0417146888783
30
0
41
1
10
10.2970930684395
20
-0.801463184572668
30
0
41
1
10
10.1252684924118
20
-0.718243712638241
30
0
41
1
10
9.78047059841384
20
-0.546865009811597
30
0
41
1
10
9.60718800392144
20
-0.458573163293522
30
0
41
1
10
9.08622025156382
20
-0.189338920330528
30
0
41
1
10
8.74064024614103
20
-0.0055094399963309
30
0
41
1
10
8.22002360009049
20
0.267510866679203
30
0
41
1
10
8.04631507290651
20
0.357896642599286
30
0
41
1
10
7.70106371694345
20
0.534354402808674
30
0
41
1
10
7.5290786660193
20
0.620685939171949
30
0
41
1
10
7.01390103991821
20
0.871951764936028
30
0
41
1
10
6.67144543546985
20
1.02907481515024
30
0
41
1
10
6.15468466766544
20
1.2413653703891
30
0
41
1
10
5.9819113282486
20
1.30819688511073
30
0
41
1
10
5.63472204331873
20
1.43309603893795
30
0
41
1
10
5.46117084449187
20
1.49070531277937
30
0
41
1
10
4.94222529860832
20
1.64662634393395
30
0
41
1
10
4.59733932926312
20
1.72847889155329
30
0
41
1
10
4.25064726936395
20
1.78505732848592
30
0
0
SPLINE
5
EC
100
AcDbEntity
8
1
62
256
6
ByLayer
370
18
48
1
60
0
100
AcDbSpline
70
4
71
3
72
8
73
4
40
0
40
0
40
0
40
0
40
1
40
1
40
1
40
1
41
1
10
4.25149951291107
20
-1.3663927850979
30
0
41
1
10
4.47496435510334
20
-1.45411444522691
30
0
41
1
10
4.70007308751247
20
-1.52921887555198
30
0
41
1
10
4.927288115077
20
-1.59286300824724
30
0
0
SPLINE
5
ED
100
AcDbEntity
8
1
62
256
6
ByLayer
370
18
48
1
60
0
100
AcDbSpline
70
4
71
3
72
14
73
10
40
0
40
0
40
0
40
0
40
0.25
40
0.25
40
0.5
40
0.5
40
0.75
40
0.75
40
1
40
1
40
1
40
1
41
1
10
37.73332545096
20
0.895452124887697
30
0
41
1
10
37.7443334490565
20
0.856681079781424
30
0
41
1
10
37.7490739967761
20
0.816057691223108
30
0
41
1
10
37.7342921692163
20
0.738283459376788
30
0
41
1
10
37.7142479446293
20
0.703086111675788
30
0
41
1
10
37.6633765551157
20
0.644606244688703
30
0
41
1
10
37.6322744886727
20
0.620231563580006
30
0
41
1
10
37.5664686889065
20
0.578846800520864
30
0
41
1
10
37.531542533122
20
0.561605491542821
30
0
41
1
10
37.4954036783324
20
0.546349654594508
30
0
0
SPLINE
5
EE
100
AcDbEntity
8
1
62
256
6
ByLayer
370
18
48
1
60
0
100
AcDbSpline
70
4
71
3
72
18
73
14
40
0
40
0
40
0
40
0
40
0.249999999999993
40
0.249999999999993
40
0.374999999999995
40
0.374999999999995
40
0.499999999999996
40
0.499999999999996
40
0.749999999999998
40
0.749999999999998
40
0.874999999999999
40
0.874999999999999
40
1
40
1
40
1
40
1
41
1
10
37.2937578973311
20
-1.91737339007267
30
0
41
1
10
37.2521566243151
20
-1.91178403482221
30
0
41
1
10
37.2136550714109
20
-1.89730248424385
30
0
41
1
10
37.1609972036852
20
-1.86096562987663
30
0
41
1
10
37.1442735501996
20
-1.8463370339085
30
0
41
1
10
37.1133073856223
20
-1.81261169882401
30
0
41
1
10
37.098969949988
20
-1.79346630748674
30
0
41
1
10
37.0594172353149
20
-1.72913682702253
30
0
41
1
10
37.0376301897713
20
-1.67712191433421
30
0
41
1
10
37.0124174982059
20
-1.58421965204101
30
0
41
1
10
37.0052797654199
20
-1.5507038998299
30
0
41
1
10
36.9938893263551
20
-1.47991216014697
30
0
41
1
10
36.9895875901803
20
-1.44248332192851
30
0
41
1
10
36.9866934976862
20
-1.40300085668036
30
0
0
SPLINE
5
EF
100
AcDbEntity
8
1
62
256
6
ByLayer
370
18
48
1
60
0
100
AcDbSpline
70
4
71
3
72
36
73
32
40
0
40
0
40
0
40
0
40
0.0433577324137541
40
0.0433577324137541
40
0.0867154648275081
40
0.0867154648275081
40
0.173430929655016
40
0.173430929655016
40
0.260146394482524
40
0.260146394482524
40
0.346861859310032
40
0.346861859310032
40
0.433577324137541
40
0.433577324137541
40
0.476935056551295
40
0.476935056551295
40
0.520292788965049
40
0.520292788965049
40
0.607008253792557
40
0.607008253792557
40
0.65036598620631
40
0.65036598620631
40
0.693723718620062
40
0.693723718620062
40
0.867154648275079
40
0.867154648275079
40
0.910512380688832
40
0.910512380688832
40
0.953870113102586
40
0.953870113102586
40
1
40
1
40
1
40
1
41
1
10
37.3154989914954
20
-1.96560382129289
30
0
41
1
10
37.1420673751878
20
-1.98334569089471
30
0
41
1
10
36.968860521652
20
-1.99407583019951
30
0
41
1
10
36.6217786689928
20
-2.00141881702575
30
0
41
1
10
36.448287945541
20
-1.998011717916
30
0
41
1
10
35.9310954996181
20
-1.96719993198178
30
0
41
1
10
35.589141599856
20
-1.91916970057039
30
0
41
1
10
34.9038274178349
20
-1.77223427929326
30
0
41
1
10
34.5605566968542
20
-1.67330160846461
30
0
41
1
10
33.8660007311892
20
-1.42896080304897
30
0
41
1
10
33.5220771941163
20
-1.28622502694088
30
0
41
1
10
32.8364597591864
20
-0.970711789165563
30
0
41
1
10
32.4941612361097
20
-0.798236655045429
30
0
41
1
10
31.9773670655412
20
-0.523835593158452
30
0
41
1
10
31.8040239330238
20
-0.429633207817829
30
0
41
1
10
31.4570247126304
20
-0.239079667240759
30
0
41
1
10
31.2844394093029
20
-0.143264152993538
30
0
41
1
10
30.768146209531
20
0.143487732655302
30
0
41
1
10
30.4260059369362
20
0.333932856960047
30
0
41
1
10
29.9114259731966
20
0.610413323814839
30
0
41
1
10
29.7395793616517
20
0.700876764589282
30
0
41
1
10
29.3943814703545
20
0.87685841393386
30
0
41
1
10
29.2203733946335
20
0.962702062407118
30
0
41
1
10
28.35392698216
20
1.37221552075138
30
0
41
1
10
27.6746977064258
20
1.63321754366578
30
0
41
1
10
26.8105281749793
20
1.83750485072594
30
0
41
1
10
26.6362784015582
20
1.87232338642238
30
0
41
1
10
26.2899856793495
20
1.92806749815048
30
0
41
1
10
26.1176407796824
20
1.94912600124184
30
0
41
1
10
25.7629080155095
20
1.97854484861855
30
0
41
1
10
25.5804804251583
20
1.98597717113771
30
0
41
1
10
25.3980253775362
20
1.98567733035287
30
0
0
SPLINE
5
F0
100
AcDbEntity
8
1
62
256
6
ByLayer
370
18
48
1
60
0
100
AcDbSpline
70
4
71
3
72
36
73
32
40
0
40
0
40
0
40
0
40
0.0398925674992128
40
0.0398925674992128
40
0.0878979391242516
40
0.0878979391242516
40
0.13590331074929
40
0.13590331074929
40
0.23191405399937
40
0.23191405399937
40
0.279919425624409
40
0.279919425624409
40
0.327924797249449
40
0.327924797249449
40
0.423935540499528
40
0.423935540499528
40
0.519946283749607
40
0.519946283749607
40
0.567951655374647
40
0.567951655374647
40
0.615957026999686
40
0.615957026999686
40
0.711967770249765
40
0.711967770249765
40
0.759973141874805
40
0.759973141874805
40
0.807978513499845
40
0.807978513499845
40
0.903989256749922
40
0.903989256749922
40
1
40
1
40
1
40
1
41
1
10
14.999890995898
20
-1.91796706000073
30
0
41
1
10
14.8570520637587
20
-1.93629729214499
30
0
41
1
10
14.7140208708252
20
-1.95006958299089
30
0
41
1
10
14.3978849621991
20
-1.97005172766873
30
0
41
1
10
14.2244709133217
20
-1.9741788561731
30
0
41
1
10
13.8762694555683
20
-1.96838568888683
30
0
41
1
10
13.7031273104632
20
-1.95850936736957
30
0
41
1
10
13.1853530738714
20
-1.90880593453232
30
0
41
1
10
12.8425743362313
20
-1.84877591946619
30
0
41
1
10
12.3267070669848
20
-1.72195091097453
30
0
41
1
10
12.1545148770014
20
-1.67352381737481
30
0
41
1
10
11.8088873654189
20
-1.56486839888711
30
0
41
1
10
11.6348929557117
20
-1.50453826478372
30
0
41
1
10
11.1129161925841
20
-1.30832057788371
30
0
41
1
10
10.7688258487971
20
-1.15847858941402
30
0
41
1
10
10.0812505284016
20
-0.832339620101664
30
0
41
1
10
9.73805226777634
20
-0.655582599392091
30
0
41
1
10
9.21882197326372
20
-0.378754177903659
30
0
41
1
10
9.04440111367623
20
-0.284095843623533
30
0
41
1
10
8.69681109104118
20
-0.0939514191192359
30
0
41
1
10
8.52390578285386
20
0.0012456261494549
30
0
41
1
10
8.00659898136922
20
0.284914598607855
30
0
41
1
10
7.66358633878849
20
0.471425430991644
30
0
41
1
10
7.14704837769148
20
0.738573757981612
30
0
41
1
10
6.97454041581358
20
0.825533733744891
30
0
41
1
10
6.62798183762754
20
0.993682662723046
30
0
41
1
10
6.45329139764411
20
1.0751399855815
30
0
41
1
10
5.93183548711855
20
1.30596930743766
30
0
41
1
10
5.58736989572157
20
1.44239619495346
30
0
41
1
10
4.89755813199562
20
1.67160178830716
30
0
41
1
10
4.55216629896697
20
1.76441069626202
30
0
41
1
10
4.20323606312189
20
1.83195301795635
30
0
0
SPLINE
5
F1
100
AcDbEntity
8
1
62
256
6
ByLayer
370
18
48
1
60
0
100
AcDbSpline
70
4
71
3
72
20
73
16
40
0
40
0
40
0
40
0
40
0.125000000000003
40
0.125000000000003
40
0.250000000000006
40
0.250000000000006
40
0.375000000000009
40
0.375000000000009
40
0.500000000000013
40
0.500000000000013
40
0.750000000000006
40
0.750000000000006
40
0.875000000000003
40
0.875000000000003
40
1
40
1
40
1
40
1
41
1
10
37.3371105169373
20
1.93640519376785
30
0
41
1
10
37.3534509174818
20
1.89603514502969
30
0
41
1
10
37.3698896337085
20
1.855043064451
30
0
41
1
10
37.4028517633272
20
1.77252303421741
30
0
41
1
10
37.4194132123159
20
1.7307544377843
30
0
41
1
10
37.4528126239138
20
1.64546777552727
30
0
41
1
10
37.4695862332911
20
1.60220288255977
30
0
41
1
10
37.5029486285326
20
1.51558669554129
30
0
41
1
10
37.5196070888317
20
1.47217801395331
30
0
41
1
10
37.5694490037645
20
1.3413615265188
30
0
41
1
10
37.6024173521076
20
1.25300210777726
30
0
41
1
10
37.6516856175931
20
1.11964784141659
30
0
41
1
10
37.6680960993071
20
1.07514212255265
30
0
41
1
10
37.7007980563702
20
0.985604210255929
30
0
41
1
10
37.7171443461208
20
0.940477808069403
30
0
41
1
10
37.7333254509612
20
0.89545212488801
30
0
0
SPLINE
5
F2
100
AcDbEntity
8
1
62
256
6
ByLayer
370
18
48
1
60
0
100
AcDbSpline
70
4
71
3
72
14
73
10
40
0
40
0
40
0
40
0
40
0.105294346986813
40
0.213717687542391
40
0.377029307647259
40
0.527532260412152
40
0.623088714640037
40
0.762256638816315
40
1
40
1
40
1
40
1
41
1
10
35.0284769173203
20
0.0553662539063282
30
0
41
1
10
35.0286060386387
20
0.0554769559145143
30
0
41
1
10
35.016685373452
20
0.0590860754803089
30
0
41
1
10
34.986478844406
20
0.0698137489525834
30
0
41
1
10
34.9212454552119
20
0.0951585059862623
30
0
41
1
10
34.8311196394543
20
0.134581845452516
30
0
41
1
10
34.7298688752341
20
0.18185659055581
30
0
41
1
10
34.5865139455265
20
0.25262345949858
30
0
41
1
10
34.4636807238741
20
0.316270494879149
30
0
41
1
10
34.3811045126454
20
0.360264318061013
30
0
0
SPLINE
5
F3
100
AcDbEntity
8
1
62
256
6
ByLayer
370
18
48
1
60
0
100
AcDbSpline
70
4
71
1
72
4
73
2
40
0
40
0
40
1
40
1
41
1
10
23.2148696355095
20
0.316800246538179
30
0
41
1
10
23.1054355882978
20
0.373530913271026
30
0
0
SPLINE
5
F4
100
AcDbEntity
8
1
62
256
6
ByLayer
370
18
48
1
60
0
100
AcDbSpline
70
4
71
3
72
17
73
13
40
0
40
0
40
0
40
0
40
0.0177882139886664
40
0.0428196321003528
40
0.113979968245324
40
0.292455273282225
40
0.455647226510635
40
0.580464773058952
40
0.72258254334215
40
0.800464730278541
40
0.910246142222289
40
1
40
1
40
1
40
1
41
1
10
8.58249799054306
20
-0.468914067528345
30
0
41
1
10
8.58248413437505
20
-0.468985782954576
30
0
41
1
10
8.58523887546951
20
-0.469371083277537
30
0
41
1
10
8.61106719218759
20
-0.472642188667635
30
0
41
1
10
8.74431988358401
20
-0.490730168656938
30
0
41
1
10
8.97310489289495
20
-0.537247528587528
30
0
41
1
10
9.16433086165665
20
-0.589608693468392
30
0
41
1
10
9.40546166248234
20
-0.670111494127923
30
0
41
1
10
9.6212391602885
20
-0.752856123472043
30
0
41
1
10
9.81004082098806
20
-0.830623848679494
30
0
41
1
10
9.98149430924755
20
-0.906068901657676
30
0
41
1
10
10.1056777828868
20
-0.964673700111319
30
0
41
1
10
10.1623437051708
20
-0.992152066881005
30
0
0
SPLINE
5
F5
100
AcDbEntity
8
1
62
256
6
ByLayer
370
18
48
1
60
0
100
AcDbSpline
70
4
71
3
72
28
73
24
40
0
40
0
40
0
40
0
40
2.5320000371E-05
40
0.0001750624676672
40
0.0002924114386241
40
0.0005022985641945
40
0.0008781682205158
40
0.0015527896502391
40
0.0027684489177918
40
0.0049745761371284
40
0.0090282595090055
40
0.0166386776842182
40
0.0484197027104265
40
0.144739512379303
40
0.282561654522617
40
0.400775433591293
40
0.489851791302091
40
0.541351982647978
40
0.587295001397472
40
0.648726939515511
40
0.753699549471568
40
0.846637126155738
40
1
40
1
40
1
40
1
41
1
10
31.0839966874978
20
-0.469055999781745
30
0
41
1
10
31.0839908053978
20
-0.469055861347385
30
0
41
1
10
31.0839570793049
20
-0.469055490956805
30
0
41
1
10
31.0840020701785
20
-0.469062887435456
30
0
41
1
10
31.0840038796305
20
-0.469074090098928
30
0
41
1
10
31.0840347385444
20
-0.469087092233991
30
0
41
1
10
31.0840763347676
20
-0.469111415728463
30
0
41
1
10
31.0841680231159
20
-0.469156134926521
30
0
41
1
10
31.0843535625472
20
-0.469236964673513
30
0
41
1
10
31.0847770752159
20
-0.46938651425512
30
0
41
1
10
31.085812640031
20
-0.469668269248473
30
0
41
1
10
31.0904935545391
20
-0.470593990038395
30
0
41
1
10
31.1136037180572
20
-0.473325286425819
30
0
41
1
10
31.2395406547562
20
-0.488538107009163
30
0
41
1
10
31.430381222249
20
-0.528563342226704
30
0
41
1
10
31.613427719667
20
-0.576246802354859
30
0
41
1
10
31.7513966930013
20
-0.617694852684565
30
0
41
1
10
31.8585252942235
20
-0.654390222121521
30
0
41
1
10
31.9543552987818
20
-0.689061246136305
30
0
41
1
10
32.0896854808972
20
-0.740633109545087
30
0
41
1
10
32.2557698678734
20
-0.808640140610038
30
0
41
1
10
32.4848600914817
20
-0.907580372071237
30
0
41
1
10
32.6496881243591
20
-0.984008593808397
30
0
41
1
10
32.7538856467957
20
-1.03421641660782
30
0
0
SPLINE
5
F6
100
AcDbEntity
8
1
62
256
6
ByLayer
370
18
48
1
60
0
100
AcDbSpline
70
4
71
3
72
18
73
14
40
0
40
0
40
0
40
0
40
0.137998993844882
40
0.230498180201044
40
0.29964147727323
40
0.37189588485729
40
0.443057110496553
40
0.512584746659855
40
0.5972855053905
40
0.678924362904152
40
0.75339660363513
40
0.861326047641573
40
1
40
1
40
1
40
1
41
1
10
25.5798623399714
20
-1.9063264097035
30
0
41
1
10
25.7571692519285
20
-1.90645569242491
30
0
41
1
10
26.0533350845701
20
-1.90674341322867
30
0
41
1
10
26.4383823887891
20
-1.90773001346528
30
0
41
1
10
26.7389421986528
20
-1.90796247312852
30
0
41
1
10
27.0120917457915
20
-1.90768653476349
30
0
41
1
10
27.2857320967926
20
-1.90848956391946
30
0
41
1
10
27.5753655370672
20
-1.90937205815979
30
0
41
1
10
27.8784654779568
20
-1.90903331983901
30
0
41
1
10
28.1879205296964
20
-1.90889607537463
30
0
41
1
10
28.5272187927247
20
-1.91122627808971
30
0
41
1
10
28.9398167814638
20
-1.90989239232098
30
0
41
1
10
29.256711962996
20
-1.91065259866633
30
0
41
1
10
29.4349138326848
20
-1.911056057678
30
0
0
SPLINE
5
F7
100
AcDbEntity
8
1
62
256
6
ByLayer
370
18
48
1
60
0
100
AcDbSpline
70
4
71
3
72
16
73
12
40
0
40
0
40
0
40
0
40
0.0344317461868897
40
0.159681512736185
40
0.245666240317198
40
0.323941973630956
40
0.467976679328331
40
0.576417772422924
40
0.685891076698706
40
0.853320585205781
40
1
40
1
40
1
40
1
41
1
10
23.7843138566487
20
0.0536641686714745
30
0
41
1
10
23.7840290619749
20
0.0537960401531166
30
0
41
1
10
23.7775174504527
20
0.0558879139057638
30
0
41
1
10
23.7591919224286
20
0.0619588179409618
30
0
41
1
10
23.7327305003105
20
0.0713753894486899
30
0
41
1
10
23.6940141686476
20
0.0861413688666062
30
0
41
1
10
23.6410588211249
20
0.10795698635377
30
0
41
1
10
23.5752178313315
20
0.137441596900828
30
0
41
1
10
23.4784467910623
20
0.182893516660471
30
0
41
1
10
23.3547602182388
20
0.243737963082538
30
0
41
1
10
23.2604079036187
20
0.292697398630906
30
0
41
1
10
23.2148696355095
20
0.316800246538179
30
0
0
SPLINE
5
F8
100
AcDbEntity
8
1
62
256
6
ByLayer
370
18
48
1
60
0
100
AcDbSpline
70
4
71
3
72
17
73
13
40
0
40
0
40
0
40
0
40
0.140548085083913
40
0.254930698099782
40
0.335684182500735
40
0.418842822579954
40
0.505691461066978
40
0.592644876430991
40
0.727376397356359
40
0.863022311042331
40
0.998132685813426
40
1
40
1
40
1
40
1
41
1
10
29.4338931645247
20
1.91102414999082
30
0
41
1
10
29.2836094792696
20
1.91048876178763
30
0
41
1
10
29.0110174564319
20
1.90977166436127
30
0
41
1
10
28.6519036865088
20
1.9109960853738
30
0
41
1
10
28.3544180777586
20
1.91018696832052
30
0
41
1
10
28.0862097634235
20
1.90865576922278
30
0
41
1
10
27.8113773333908
20
1.90920346326894
30
0
41
1
10
27.4813822829496
20
1.90932847281431
30
0
41
1
10
27.0992005778217
20
1.90749976106014
30
0
41
1
10
26.6655047895496
20
1.90813156844783
30
0
41
1
10
26.3739246339291
20
1.90747451346954
30
0
41
1
10
26.2274232978283
20
1.90721623669043
30
0
41
1
10
26.2254261550706
20
1.90721272898094
30
0
0
SPLINE
5
F9
100
AcDbEntity
8
1
62
256
6
ByLayer
370
18
48
1
60
0
100
AcDbSpline
70
4
71
3
72
29
73
25
40
0
40
0
40
0
40
0
40
3.95589549386E-05
40
0.0001679375976623
40
0.0002686061605477
40
0.0004486540328994
40
0.0007710710607009
40
0.0013497057274958
40
0.0023922568674464
40
0.0042838597898688
40
0.0077588414635731
40
0.0142826678565076
40
0.026988398211944
40
0.0771495977369171
40
0.17976898701305
40
0.294815754949617
40
0.371892940716367
40
0.478423650388371
40
0.563011117982989
40
0.667544426945952
40
0.738227452560655
40
0.794984366178209
40
0.892586117877744
40
1
40
1
40
1
40
1
41
1
10
19.8235358441843
20
-0.467511854211636
30
0
41
1
10
19.8235279819132
20
-0.46751182532094
30
0
41
1
10
19.823506320373
20
-0.46751289326798
30
0
41
1
10
19.8235650433744
20
-0.467523276845839
30
0
41
1
10
19.8236021778515
20
-0.46753420316972
30
0
41
1
10
19.8236758092726
20
-0.467552048452006
30
0
41
1
10
19.8237988886426
20
-0.467583130602094
30
0
41
1
10
19.8240341084288
20
-0.467640071407232
30
0
41
1
10
19.8244776708467
20
-0.467743947361441
30
0
41
1
10
19.825361645323
20
-0.467938058170773
30
0
41
1
10
19.8272300431039
20
-0.468312167221029
30
0
41
1
10
19.8315153692785
20
-0.469071343035182
30
0
41
1
10
19.8481859380747
20
-0.471641396176182
30
0
41
1
10
19.9032506627854
20
-0.478815897915268
30
0
41
1
10
20.0361669741486
20
-0.498389073859954
30
0
41
1
10
20.1830555651438
20
-0.528525109623416
30
0
41
1
10
20.32007976491
20
-0.564613047024665
30
0
41
1
10
20.4619758700903
20
-0.606167398218446
30
0
41
1
10
20.6301150066271
20
-0.661698958227987
30
0
41
1
10
20.7841699265062
20
-0.71771657250892
30
0
41
1
10
20.9194273679499
20
-0.772238161034466
30
0
41
1
10
21.0529448033397
20
-0.828589021574032
30
0
41
1
10
21.2178410996643
20
-0.901004406014835
30
0
41
1
10
21.3502004690616
20
-0.962816125896865
30
0
41
1
10
21.4210283703134
20
-0.996781496905896
30
0
0
SPLINE
5
FA
100
AcDbEntity
8
1
62
256
6
ByLayer
370
18
48
1
60
0
100
AcDbSpline
70
4
71
3
72
18
73
14
40
0
40
0
40
0
40
0
40
0.140217163745643
40
0.226600842535611
40
0.286829078555069
40
0.348448365533651
40
0.411374333798024
40
0.475530213286609
40
0.674094233303114
40
0.724574682856851
40
0.784489839962298
40
0.880308541420287
40
1
40
1
40
1
40
1
41
1
10
14.3283169294183
20
-1.89224226823131
30
0
41
1
10
14.5086770975135
20
-1.89246872394534
30
0
41
1
10
14.8001568654131
20
-1.8929029412308
30
0
41
1
10
15.1691169702655
20
-1.89380891972832
30
0
41
1
10
15.4369809897065
20
-1.89426516082452
30
0
41
1
10
15.6746682058928
20
-1.89422530118756
30
0
41
1
10
15.9174089339867
20
-1.89426932013319
30
0
41
1
10
16.3363060015475
20
-1.89632713721619
30
0
41
1
10
16.7392021296331
20
-1.895258365752
30
0
41
1
10
17.1366369072354
20
-1.89653440178131
30
0
41
1
10
17.4019027378286
20
-1.89798516248251
30
0
41
1
10
17.7562039799761
20
-1.8968493907843
30
0
41
1
10
18.0334290237987
20
-1.89780889879657
30
0
41
1
10
18.1873960717025
20
-1.89842049284806
30
0
0
SPLINE
5
FB
100
AcDbEntity
8
1
62
256
6
ByLayer
370
18
48
1
60
0
100
AcDbSpline
70
4
71
2
72
6
73
3
40
0
40
0
40
0
40
1
40
1
40
1
41
1
10
36.8643178453435
20
-1.91949919349653
30
0
41
1
10
37.0844738746085
20
-1.91804149853561
30
0
41
1
10
37.304423398586
20
-1.92092930225633
30
0
0
SPLINE
5
FC
100
AcDbEntity
8
1
62
256
6
ByLayer
370
18
48
1
60
0
100
AcDbSpline
70
4
71
3
72
15
73
11
40
0
40
0
40
0
40
0
40
0.107780539892148
40
0.249370110439839
40
0.371224394724158
40
0.488569873028623
40
0.583618985854217
40
0.683878192506298
40
0.866599699514196
40
1
40
1
40
1
40
1
41
1
10
12.5255676667951
20
0.0563889097271044
30
0
41
1
10
12.5256504923021
20
0.056514088125482
30
0
41
1
10
12.515410180153
20
0.0596440048127249
30
0
41
1
10
12.4900341312516
20
0.0683593009237313
30
0
41
1
10
12.4454680622457
20
0.0854917201924366
30
0
41
1
10
12.397420551971
20
0.105660831977048
30
0
41
1
10
12.3362712604184
20
0.132664403895859
30
0
41
1
10
12.2460686210727
20
0.174467137061726
30
0
41
1
10
12.1312485673397
20
0.229867542946494
30
0
41
1
10
12.0417834958483
20
0.276256596386077
30
0
41
1
10
12.002915825078
20
0.296838397091335
30
0
0
SPLINE
5
FD
100
AcDbEntity
8
1
62
256
6
ByLayer
370
18
48
1
60
0
100
AcDbSpline
70
4
71
3
72
15
73
11
40
0
40
0
40
0
40
0
40
0.109920155873372
40
0.238005690329281
40
0.333255543643935
40
0.429212849859527
40
0.623818577127409
40
0.684595493927199
40
0.770688180366266
40
1
40
1
40
1
40
1
41
1
10
4.25097318532144
20
-1.88094582744355
30
0
41
1
10
4.3495373724877
20
-1.88139348672087
30
0
41
1
10
4.56295223277823
20
-1.88219375983692
30
0
41
1
10
4.86179552994034
20
-1.88272350544602
30
0
41
1
10
5.14806746179571
20
-1.88290122222099
30
0
41
1
10
5.49403532614878
20
-1.88305636110255
30
0
41
1
10
5.809081927938
20
-1.88264906965804
30
0
41
1
10
6.11528324560439
20
-1.88382510309435
30
0
41
1
10
6.45260593053544
20
-1.8848396904535
30
0
41
1
10
6.73543046816766
20
-1.88506167073794
30
0
41
1
10
6.94105567815456
20
-1.88490465928839
30
0
0
SPLINE
5
FE
100
AcDbEntity
8
1
62
256
6
ByLayer
370
18
48
1
60
0
100
AcDbSpline
70
4
71
3
72
18
73
14
40
0
40
0
40
0
40
0
40
0.142447003957783
40
0.256738797125643
40
0.358343153620229
40
0.448376493331666
40
0.537570261059969
40
0.625263656926652
40
0.701788285182344
40
0.776845885007103
40
0.850344885675552
40
0.922184651705168
40
1
40
1
40
1
40
1
41
1
10
18.1863606738008
20
1.89841801072316
30
0
41
1
10
18.0327387575945
20
1.89780802905693
30
0
41
1
10
17.7558588437396
20
1.89686853466813
30
0
41
1
10
17.369400083215
20
1.89804045477965
30
0
41
1
10
17.0394729040015
20
1.89597379508663
30
0
41
1
10
16.7366086510107
20
1.89562428997473
30
0
41
1
10
16.4487467411809
20
1.89628569287768
30
0
41
1
10
16.1754539818978
20
1.89542495331526
30
0
41
1
10
15.9174089209612
20
1.89429700112342
30
0
41
1
10
15.6746682092787
20
1.89421811592445
30
0
41
1
10
15.436980988845
20
1.89426699714238
30
0
41
1
10
15.1963183314409
20
1.89385478882173
30
0
41
1
10
15.034925288696
20
1.89347619595282
30
0
41
1
10
14.9510072862463
20
1.89329012288405
30
0
0
SPLINE
5
FF
100
AcDbEntity
8
1
62
256
6
ByLayer
370
18
48
1
60
0
100
AcDbSpline
70
4
71
3
72
16
73
12
40
0
40
0
40
0
40
0
40
0.229696597612916
40
0.349287476774328
40
0.425476232734375
40
0.498512724739755
40
0.571001450330171
40
0.666910846356606
40
0.762113142703727
40
0.890134725779089
40
1
40
1
40
1
40
1
41
1
10
6.9423994423058
20
1.88490574428229
30
0
41
1
10
6.73632623505861
20
1.88506031656024
30
0
41
1
10
6.42296195290146
20
1.88493365407854
30
0
41
1
10
6.04124693256426
20
1.88340718234724
30
0
41
1
10
5.8000777695965
20
1.88293173918635
30
0
41
1
10
5.60116605657527
20
1.88299237958208
30
0
41
1
10
5.38456304229442
20
1.8829683851811
30
0
41
1
10
5.14806729996164
20
1.88291263840637
30
0
41
1
10
4.86179559049808
20
1.88271923308636
30
0
41
1
10
4.56295221624396
20
1.88219492606709
30
0
41
1
10
4.34953737248674
20
1.88139348672087
30
0
41
1
10
4.25097318532144
20
1.88094582744355
30
0
0
LINE
5
7B
100
AcDbEntity
8
SK1
62
256
6
ByLayer
370
18
48
1
60
0
100
AcDbLine
10
-36
20
-0.205836
30
0
11
-36
21
-2.1
31
0
39
0
210
0
220
0
230
1
0
LINE
5
7D
100
AcDbEntity
8
SK1
62
256
6
ByLayer
370
13
48
1
60
0
100
AcDbLine
10
-35.75
20
1.311086
30
0
11
-35.75
21
0.135752
31
0
39
0
210
0
220
0
230
1
0
LINE
5
7E
100
AcDbEntity
8
SK1
62
256
6
ByLayer
370
18
48
1
60
0
100
AcDbLine
10
-35.65
20
-0.003648
30
0
11
-35.65
21
1.250278
31
0
39
0
210
0
220
0
230
1
0
LINE
5
7F
100
AcDbEntity
8
SK1
62
256
6
ByLayer
370
18
48
1
60
0
100
AcDbLine
10
-36
20
1.241001
30
0
11
-36
21
0.205836
31
0
39
0
210
0
220
0
230
1
0
LINE
5
80
100
AcDbEntity
8
SK1
62
256
6
ByLayer
370
18
48
1
60
0
100
AcDbLine
10
-35.1
20
3
30
0
11
-35.1
21
-3
31
0
39
0
210
0
220
0
230
1
0
LINE
5
81
100
AcDbEntity
8
SK1
62
256
6
ByLayer
370
18
48
1
60
0
100
AcDbLine
10
-36
20
2.1
30
0
11
-36
21
1.241001
31
0
39
0
210
0
220
0
230
1
0
LINE
5
82
100
AcDbEntity
8
SK1
62
256
6
ByLayer
370
18
48
1
60
0
100
AcDbLine
10
0
20
-3
30
0
11
0
21
3
31
0
39
0
210
0
220
0
230
1
0
LINE
5
83
100
AcDbEntity
8
1
62
256
6
ByLayer
370
18
48
1
60
0
100
AcDbLine
10
37.954312
20
-0.102515
30
0
11
37.966319
21
-0.073975
31
0
39
0
210
0
220
0
230
1
0
LINE
5
84
100
AcDbEntity
8
1
62
256
6
ByLayer
370
18
48
1
60
0
100
AcDbLine
10
0
20
-3
30
0
11
0
21
3
31
0
39
0
210
0
220
0
230
1
0
LINE
5
85
100
AcDbEntity
8
1
62
256
6
ByLayer
370
13
48
1
60
0
100
AcDbLine
10
37.966319
20
-0.073975
30
0
11
37.173411
21
0.422769
31
0
39
0
210
0
220
0
230
1
0
LINE
5
86
100
AcDbEntity
8
1
62
256
6
ByLayer
370
13
48
1
60
0
100
AcDbLine
10
37.989828
20
0.054454
30
0
11
37.224111
21
0.534164
31
0
39
0
210
0
220
0
230
1
0
LINE
5
87
100
AcDbEntity
8
1
62
256
6
ByLayer
370
18
48
1
60
0
100
AcDbLine
10
37.989828
20
-0.054454
30
0
11
37.903129
21
-0.370927
31
0
39
0
210
0
220
0
230
1
0
LINE
5
88
100
AcDbEntity
8
1
62
256
6
ByLayer
370
18
48
1
60
0
100
AcDbLine
10
37.293758
20
-1.917373
30
0
11
37.301998
21
-1.919968
31
0
39
0
210
0
220
0
230
1
0
LINE
5
89
100
AcDbEntity
8
1
62
256
6
ByLayer
370
18
48
1
60
0
100
AcDbLine
10
37.954312
20
-0.102515
30
0
11
36.986693
21
-1.403001
31
0
39
0
210
0
220
0
230
1
0
LINE
5
8A
100
AcDbEntity
8
1
62
256
6
ByLayer
370
13
48
1
60
0
100
AcDbLine
10
0.749959
20
2.478498
30
0
11
0.749959
21
-2.478498
31
0
39
0
210
0
220
0
230
1
0
LINE
5
8B
100
AcDbEntity
8
1
62
256
6
ByLayer
370
18
48
1
60
0
100
AcDbLine
10
37.954312
20
-0.102515
30
0
11
37.776238
21
-0.591771
31
0
39
0
210
0
220
0
230
1
0
LINE
5
8C
100
AcDbEntity
8
1
62
256
6
ByLayer
370
18
48
1
60
0
100
AcDbLine
10
37.989828
20
0.054454
30
0
11
37.903129
21
0.370927
31
0
39
0
210
0
220
0
230
1
0
LINE
5
8D
100
AcDbEntity
8
1
62
256
6
ByLayer
370
13
48
1
60
0
100
AcDbLine
10
1.500878
20
1.956997
30
0
11
1.500878
21
-1.956997
31
0
39
0
210
0
220
0
230
1
0
LINE
5
8E
100
AcDbEntity
8
1
62
256
6
ByLayer
370
18
48
1
60
0
100
AcDbLine
10
37.538914
20
-1.243811
30
0
11
37.293758
21
-1.917373
31
0
39
0
210
0
220
0
230
1
0
LINE
5
8F
100
AcDbEntity
8
1
62
256
6
ByLayer
370
18
48
1
60
0
100
AcDbLine
10
38
20
0.019322
30
0
11
38
21
-0.019322
31
0
39
0
210
0
220
0
230
1
0
LINE
5
90
100
AcDbEntity
8
80
62
256
6
ByLayer
370
18
48
1
60
0
100
AcDbLine
10
0
20
0
30
0
11
-5
21
0
31
0
39
0
210
0
220
0
230
1
0
LINE
5
91
100
AcDbEntity
8
4
62
256
6
ByLayer
370
18
48
0.05
60
0
100
AcDbLine
10
38
20
0
30
0
11
0
21
0
31
0
39
0
210
0
220
0
230
1
0
LINE
5
93
100
AcDbEntity
8
SK4
62
256
6
ByLayer
370
18
48
0.05
60
0
100
AcDbLine
10
43
20
0
30
0
11
-41
21
0
31
0
39
0
210
0
220
0
230
1
0
LINE
5
95
100
AcDbEntity
8
SK1
62
256
6
ByLayer
370
18
48
1
60
0
100
AcDbLine
10
-35.1
20
-3
30
0
11
0
21
-3
31
0
39
0
210
0
220
0
230
1
0
LINE
5
96
100
AcDbEntity
8
SK1
62
256
6
ByLayer
370
18
48
1
60
0
100
AcDbLine
10
0
20
3
30
0
11
-35.1
21
3
31
0
39
0
210
0
220
0
230
1
0
LINE
5
97
100
AcDbEntity
8
SK1
62
256
6
ByLayer
370
18
48
1
60
0
100
AcDbLine
10
-36
20
-2.1
30
0
11
-35.1
21
-3
31
0
39
0
210
0
220
0
230
1
0
LINE
5
98
100
AcDbEntity
8
SK1
62
256
6
ByLayer
370
18
48
1
60
0
100
AcDbLine
10
-35.1
20
3
30
0
11
-36
21
2.1
31
0
39
0
210
0
220
0
230
1
0
LINE
5
99
100
AcDbEntity
8
1
62
256
6
ByLayer
370
18
48
1
60
0
100
AcDbLine
10
1.500878
20
-1.956997
30
0
11
4.067554
21
-1.960077
31
0
39
0
210
0
220
0
230
1
0
LINE
5
9A
100
AcDbEntity
8
1
62
256
6
ByLayer
370
18
48
1
60
0
100
AcDbLine
10
13.901594
20
-1.971877
30
0
11
14.149889
21
-1.972175
31
0
39
0
210
0
220
0
230
1
0
LINE
5
9B
100
AcDbEntity
8
1
62
256
6
ByLayer
370
18
48
1
60
0
100
AcDbLine
10
25.165886
20
-1.985395
30
0
11
25.402112
21
-1.985678
31
0
39
0
210
0
220
0
230
1
0
LINE
5
9C
100
AcDbEntity
8
1
62
256
6
ByLayer
370
18
48
1
60
0
100
AcDbLine
10
36.430142
20
-1.998912
30
0
11
36.652121
21
-1.999178
31
0
39
0
210
0
220
0
230
1
0
LINE
5
9D
100
AcDbEntity
8
1
62
256
6
ByLayer
370
18
48
1
60
0
100
AcDbLine
10
36.652735
20
1.999179
30
0
11
36.430142
21
1.998912
31
0
39
0
210
0
220
0
230
1
0
LINE
5
9E
100
AcDbEntity
8
1
62
256
6
ByLayer
370
18
48
1
60
0
100
AcDbLine
10
25.401367
20
1.985677
30
0
11
25.165886
21
1.985395
31
0
39
0
210
0
220
0
230
1
0
LINE
5
9F
100
AcDbEntity
8
1
62
256
6
ByLayer
370
18
48
1
60
0
100
AcDbLine
10
14.151516
20
1.972177
30
0
11
13.901594
21
1.971877
31
0
39
0
210
0
220
0
230
1
0
LINE
5
A0
100
AcDbEntity
8
1
62
256
6
ByLayer
370
18
48
1
60
0
100
AcDbLine
10
4.067554
20
1.960077
30
0
11
1.500878
21
1.956997
31
0
39
0
210
0
220
0
230
1
0
LINE
5
A1
100
AcDbEntity
8
81
62
256
6
ByLayer
370
18
48
1
60
0
100
AcDbLine
10
38
20
0
30
0
11
43
21
0
31
0
39
0
210
0
220
0
230
1
0
LINE
5
A2
100
AcDbEntity
8
SK2
62
256
6
ByLayer
370
13
48
1
60
0
100
AcDbLine
10
-44.625163
20
32.117107
30
0
11
-44.625163
21
-11.75
31
0
39
0
210
0
220
0
230
1
0
LINE
5
A4
100
AcDbEntity
8
SK2
62
256
6
ByLayer
370
13
48
1
60
0
100
AcDbLine
10
-37.5875
20
3
30
0
11
-46.625163
21
3
31
0
39
0
210
0
220
0
230
1
0
LINE
5
A5
100
AcDbEntity
8
SK2
62
256
6
ByLayer
370
13
48
1
60
0
100
AcDbLine
10
-37.5875
20
-3
30
0
11
-46.625163
21
-3
31
0
39
0
210
0
220
0
230
1
0
LINE
5
A6
100
AcDbEntity
8
1
62
256
6
ByLayer
370
18
48
1
60
1
100
AcDbLine
10
-44.625163
20
3
30
0
11
-45.085946
21
6.499998
31
0
39
0
210
0
220
0
230
1
0
LINE
5
A7
100
AcDbEntity
8
1
62
256
6
ByLayer
370
18
48
1
60
1
100
AcDbLine
10
-45.085946
20
6.499998
30
0
11
-44.164379
21
6.500002
31
0
39
0
210
0
220
0
230
1
0
LINE
5
A8
100
AcDbEntity
8
1
62
256
6
ByLayer
370
18
48
1
60
1
100
AcDbLine
10
-44.164379
20
6.500002
30
0
11
-44.625163
21
3
31
0
39
0
210
0
220
0
230
1
0
LINE
5
A9
100
AcDbEntity
8
1
62
256
6
ByLayer
370
18
48
1
60
1
100
AcDbLine
10
-44.625163
20
-3
30
0
11
-44.164379
21
-6.499998
31
0
39
0
210
0
220
0
230
1
0
LINE
5
AA
100
AcDbEntity
8
1
62
256
6
ByLayer
370
18
48
1
60
1
100
AcDbLine
10
-44.164379
20
-6.499998
30
0
11
-45.085946
21
-6.500002
31
0
39
0
210
0
220
0
230
1
0
LINE
5
AB
100
AcDbEntity
8
1
62
256
6
ByLayer
370
18
48
1
60
1
100
AcDbLine
10
-45.085946
20
-6.500002
30
0
11
-44.625163
21
-3
31
0
39
0
210
0
220
0
230
1
0
LINE
5
AC
100
AcDbEntity
8
2
62
256
6
ByLayer
370
13
48
1
60
0
100
AcDbLine
10
50.083343
20
30.078727
30
0
11
50.083343
21
-10.75
31
0
39
0
210
0
220
0
230
1
0
LINE
5
AE
100
AcDbEntity
8
2
62
256
6
ByLayer
370
13
48
1
60
0
100
AcDbLine
10
38.8875
20
2
30
0
11
52.083343
21
2
31
0
39
0
210
0
220
0
230
1
0
LINE
5
AF
100
AcDbEntity
8
2
62
256
6
ByLayer
370
13
48
1
60
0
100
AcDbLine
10
38.8875
20
-2
30
0
11
52.083343
21
-2
31
0
39
0
210
0
220
0
230
1
0
LINE
5
B0
100
AcDbEntity
8
1
62
256
6
ByLayer
370
18
48
1
60
1
100
AcDbLine
10
50.083343
20
2
30
0
11
49.622559
21
5.499998
31
0
39
0
210
0
220
0
230
1
0
LINE
5
B1
100
AcDbEntity
8
1
62
256
6
ByLayer
370
18
48
1
60
1
100
AcDbLine
10
49.622559
20
5.499998
30
0
11
50.544126
21
5.500002
31
0
39
0
210
0
220
0
230
1
0
LINE
5
B2
100
AcDbEntity
8
1
62
256
6
ByLayer
370
18
48
1
60
1
100
AcDbLine
10
50.544126
20
5.500002
30
0
11
50.083343
21
2
31
0
39
0
210
0
220
0
230
1
0
LINE
5
B3
100
AcDbEntity
8
1
62
256
6
ByLayer
370
18
48
1
60
1
100
AcDbLine
10
50.083343
20
-2
30
0
11
50.544126
21
-5.499998
31
0
39
0
210
0
220
0
230
1
0
LINE
5
B4
100
AcDbEntity
8
1
62
256
6
ByLayer
370
18
48
1
60
1
100
AcDbLine
10
50.544126
20
-5.499998
30
0
11
49.622559
21
-5.500002
31
0
39
0
210
0
220
0
230
1
0
LINE
5
B5
100
AcDbEntity
8
1
62
256
6
ByLayer
370
18
48
1
60
1
100
AcDbLine
10
49.622559
20
-5.500002
30
0
11
50.083343
21
-2
31
0
39
0
210
0
220
0
230
1
0
LINE
5
106
100
AcDbEntity
8
1
62
256
6
ByLayer
370
18
48
1
60
1
100
AcDbLine
10
-44.625163
20
3
30
0
11
-45.085946
21
6.499998
31
0
39
0
210
0
220
0
230
1
0
LINE
5
107
100
AcDbEntity
8
1
62
256
6
ByLayer
370
18
48
1
60
1
100
AcDbLine
10
-45.085946
20
6.499998
30
0
11
-44.164379
21
6.500002
31
0
39
0
210
0
220
0
230
1
0
LINE
5
108
100
AcDbEntity
8
1
62
256
6
ByLayer
370
18
48
1
60
1
100
AcDbLine
10
-44.164379
20
6.500002
30
0
11
-44.625163
21
3
31
0
39
0
210
0
220
0
230
1
0
LINE
5
10A
100
AcDbEntity
8
1
62
256
6
ByLayer
370
18
48
1
60
1
100
AcDbLine
10
-44.625163
20
-3
30
0
11
-44.164379
21
-6.499998
31
0
39
0
210
0
220
0
230
1
0
LINE
5
10B
100
AcDbEntity
8
1
62
256
6
ByLayer
370
18
48
1
60
1
100
AcDbLine
10
-44.164379
20
-6.499998
30
0
11
-45.085946
21
-6.500002
31
0
39
0
210
0
220
0
230
1
0
LINE
5
10C
100
AcDbEntity
8
1
62
256
6
ByLayer
370
18
48
1
60
1
100
AcDbLine
10
-45.085946
20
-6.500002
30
0
11
-44.625163
21
-3
31
0
39
0
210
0
220
0
230
1
0
LINE
5
110
100
AcDbEntity
8
1
62
256
6
ByLayer
370
18
48
1
60
1
100
AcDbLine
10
50.083343
20
2
30
0
11
49.622559
21
5.499998
31
0
39
0
210
0
220
0
230
1
0
LINE
5
111
100
AcDbEntity
8
1
62
256
6
ByLayer
370
18
48
1
60
1
100
AcDbLine
10
49.622559
20
5.499998
30
0
11
50.544126
21
5.500002
31
0
39
0
210
0
220
0
230
1
0
LINE
5
112
100
AcDbEntity
8
1
62
256
6
ByLayer
370
18
48
1
60
1
100
AcDbLine
10
50.544126
20
5.500002
30
0
11
50.083343
21
2
31
0
39
0
210
0
220
0
230
1
0
LINE
5
114
100
AcDbEntity
8
1
62
256
6
ByLayer
370
18
48
1
60
1
100
AcDbLine
10
50.083343
20
-2
30
0
11
50.544126
21
-5.499998
31
0
39
0
210
0
220
0
230
1
0
LINE
5
115
100
AcDbEntity
8
1
62
256
6
ByLayer
370
18
48
1
60
1
100
AcDbLine
10
50.544126
20
-5.499998
30
0
11
49.622559
21
-5.500002
31
0
39
0
210
0
220
0
230
1
0
LINE
5
116
100
AcDbEntity
8
1
62
256
6
ByLayer
370
18
48
1
60
1
100
AcDbLine
10
49.622559
20
-5.500002
30
0
11
50.083343
21
-2
31
0
39
0
210
0
220
0
230
1
0
MTEXT
5
100
100
AcDbEntity
8
SK6
62
256
6
ByLayer
370
13
48
1
60
0
100
AcDbMText
10
-26.095826
20
34.540328
30
0
210
0
220
0
230
1
1
\W0.7228;860.1-0400-020A1-SM 1210
40
3.5
41
0
44
1.084337
50
0
71
7
72
5
7
iso_b_vert
0
MTEXT
5
104
100
AcDbEntity
8
SK2
62
256
6
ByLayer
370
18
48
1
60
0
100
AcDbMText
10
-46.189796
20
16.409024
30
0
210
0
220
0
230
1
1
%%c
40
3.5
41
0
44
1.084337
50
90
71
7
72
5
7
iso_b_vert
0
MTEXT
5
105
100
AcDbEntity
8
SK2
62
256
6
ByLayer
370
18
48
1
60
0
100
AcDbMText
10
-46.189796
20
21.63168
30
0
210
0
220
0
230
1
1
\W0.7317;6,000
40
3.5
41
0
44
1.084337
50
90
71
7
72
5
7
iso_b_vert
0
MTEXT
5
10E
100
AcDbEntity
8
2
62
256
6
ByLayer
370
18
48
1
60
0
100
AcDbMText
10
48.518709
20
14.00211
30
0
210
0
220
0
230
1
1
%%c
40
3.5
41
0
44
1.084337
50
90
71
7
72
5
7
iso_b_vert
0
MTEXT
5
10F
100
AcDbEntity
8
2
62
256
6
ByLayer
370
18
48
1
60
0
100
AcDbMText
10
48.518709
20
19.224766
30
0
210
0
220
0
230
1
1
\W0.7581;4,000
40
3.5
41
0
44
1.084337
50
90
71
7
72
5
7
iso_b_vert
0
HATCH
5
109
100
AcDbEntity
8
SK2
62
256
6
ByLayer
370
13
48
1
60
0
100
AcDbHatch
10
0
20
0
30
0
210
0
220
0
230
1
2
ANSI31
70
0
71
0
91
1
92
5
93
3
72
1
10
-44.6251625675374
20
3
11
-45.0859463090902
21
6.49999830744682
72
1
10
-45.0859463090902
20
6.49999830744682
11
-44.1643788259847
21
6.50000169255318
72
1
10
-44.1643788259847
20
6.50000169255318
11
-44.6251625675374
21
3
97
0
75
0
76
1
52
0
41
0.0062
77
0
78
1
53
45
43
0
44
0
45
-0.0139193969876572
46
0.0139193969876572
79
0
47
0
98
1
10
0
20
0
0
HATCH
5
10D
100
AcDbEntity
8
SK2
62
256
6
ByLayer
370
13
48
1
60
0
100
AcDbHatch
10
0
20
0
30
0
210
0
220
0
230
1
2
ANSI31
70
0
71
0
91
1
92
5
93
3
72
1
10
-44.6251625675374
20
-3
11
-44.1643788259847
21
-6.49999830744682
72
1
10
-44.1643788259847
20
-6.49999830744682
11
-45.0859463090902
21
-6.50000169255318
72
1
10
-45.0859463090902
20
-6.50000169255318
11
-44.6251625675374
21
-3
97
0
75
0
76
1
52
0
41
0.0062
77
0
78
1
53
45
43
0
44
0
45
-0.0139193969876572
46
0.0139193969876572
79
0
47
0
98
1
10
0
20
0
0
HATCH
5
113
100
AcDbEntity
8
2
62
256
6
ByLayer
370
13
48
1
60
0
100
AcDbHatch
10
0
20
0
30
0
210
0
220
0
230
1
2
ANSI31
70
0
71
0
91
1
92
5
93
3
72
1
10
50.083342615295
20
2
11
49.6225588737423
21
5.49999830744682
72
1
10
49.6225588737423
20
5.49999830744682
11
50.5441263568478
21
5.50000169255318
72
1
10
50.5441263568478
20
5.50000169255318
11
50.083342615295
21
2
97
0
75
0
76
1
52
0
41
0.0062
77
0
78
1
53
45
43
0
44
0
45
-0.0139193969876572
46
0.0139193969876572
79
0
47
0
98
1
10
0
20
0
0
HATCH
5
117
100
AcDbEntity
8
2
62
256
6
ByLayer
370
13
48
1
60
0
100
AcDbHatch
10
0
20
0
30
0
210
0
220
0
230
1
2
ANSI31
70
0
71
0
91
1
92
5
93
3
72
1
10
50.083342615295
20
-2
11
50.5441263568478
21
-5.49999830744682
72
1
10
50.5441263568478
20
-5.49999830744682
11
49.6225588737423
21
-5.50000169255318
72
1
10
49.6225588737423
20
-5.50000169255318
11
50.083342615295
21
-2
97
0
75
0
76
1
52
0
41
0.0062
77
0
78
1
53
45
43
0
44
0
45
-0.0139193969876572
46
0.0139193969876572
79
0
47
0
98
1
10
0
20
0
0
DIMENSION
5
119
100
AcDbEntity
8
SK2
62
256
6
ByLayer
370
13
48
1
60
0
100
AcDbDimension
2
_U0
10
37.3
20
-12.213398
30
0
11
18.65
21
-12.213398
31
0
70
32
71
1
72
1
41
1
210
0
220
0
230
1
3
Standard
100
AcDbAlignedDimension
13
0
23
0
33
0
14
37.3
24
-2
34
0
50
0
100
AcDbRotatedDimension
1001
ACAD
1000
DSTYLE
1002
{
1070
   371
1070
    13
1070
   372
1070
    13
1070
   170
1070
     0
1070
   144
1040
1.0
1070
   277
1070
     2
1070
   278
1070
    44
1070
   146
1040
1.0
1070
   345
1005
16
1070
   347
1005
16
1070
   346
1005
16
1070
   344
1005
0
1070
   343
1005
0
1070
   172
1070
     1
1070
    76
1070
     0
1070
    75
1070
     0
1070
   282
1070
     0
1070
   281
1070
     0
1070
    71
1070
     0
1070
    74
1070
     0
1070
   279
1070
     0
1070
   173
1070
     1
1070
   340
1005
101
1070
   271
1070
     2
1070
   272
1070
     2
1070
    77
1070
     1
1070
    73
1070
     1
1070
   171
1070
     3
1070
   274
1070
     4
1070
   177
1070
    35
1070
   176
1070
    35
1070
   178
1070
    35
1070
    48
1040
-0.1
1070
    41
1040
3.5
1070
   147
1040
1.75
1070
    42
1040
1.5875
1070
    44
1040
2.0
1070
   140
1040
3.5
1002
}
1001
ACAD_DSTYLE_DIM_LINETYPE
1070
   380
1005
16
1001
ACAD_DSTYLE_DIM_EXT1_LINETYPE
1070
   381
1005
16
1001
ACAD_DSTYLE_DIM_EXT2_LINETYPE
1070
   382
1005
16
0
DIMENSION
5
132
100
AcDbEntity
8
SK2
62
256
6
ByLayer
370
13
48
1
60
0
100
AcDbDimension
2
_U1
10
38
20
-31.692985
30
0
11
1
21
-31.692985
31
0
70
32
71
1
72
1
41
1
210
0
220
0
230
1
3
Standard
100
AcDbAlignedDimension
13
-36
23
-3
33
0
14
38
24
0
34
0
50
0
100
AcDbRotatedDimension
1001
ACAD
1000
DSTYLE
1002
{
1070
   371
1070
    13
1070
   372
1070
    13
1070
   170
1070
     0
1070
   144
1040
1.0
1070
   277
1070
     2
1070
   278
1070
    44
1070
   146
1040
1.0
1070
   345
1005
16
1070
   347
1005
16
1070
   346
1005
16
1070
   344
1005
0
1070
   343
1005
0
1070
   172
1070
     1
1070
    76
1070
     0
1070
    75
1070
     0
1070
   282
1070
     0
1070
   281
1070
     0
1070
    71
1070
     0
1070
    74
1070
     0
1070
   279
1070
     0
1070
   173
1070
     1
1070
   340
1005
101
1070
   271
1070
     2
1070
   272
1070
     2
1070
    77
1070
     1
1070
    73
1070
     1
1070
   171
1070
     3
1070
   274
1070
     4
1070
   177
1070
    35
1070
   176
1070
    35
1070
   178
1070
    35
1070
    48
1040
-0.1
1070
    41
1040
3.5
1070
   147
1040
1.75
1070
    42
1040
1.5875
1070
    44
1040
2.0
1070
   140
1040
3.5
1002
}
1001
ACAD_DSTYLE_DIM_LINETYPE
1070
   380
1005
16
1001
ACAD_DSTYLE_DIM_EXT1_LINETYPE
1070
   381
1005
16
1001
ACAD_DSTYLE_DIM_EXT2_LINETYPE
1070
   382
1005
16
0
DIMENSION
5
14A
100
AcDbEntity
8
SK2
62
256
6
ByLayer
370
13
48
1
60
0
100
AcDbDimension
2
_U2
10
38
20
13.609119
30
0
11
24.1817
21
13.609119
31
0
70
32
71
1
72
1
41
1
210
0
220
0
230
1
3
Standard
100
AcDbAlignedDimension
13
10.3634
23
2
33
0
14
38
24
0
34
0
50
0
100
AcDbRotatedDimension
1001
ACAD
1000
DSTYLE
1002
{
1070
   371
1070
    13
1070
   372
1070
    13
1070
   170
1070
     0
1070
   144
1040
1.0
1070
   277
1070
     2
1070
   278
1070
    44
1070
   146
1040
1.0
1070
   345
1005
16
1070
   347
1005
16
1070
   346
1005
16
1070
   344
1005
0
1070
   343
1005
0
1070
   172
1070
     1
1070
    76
1070
     0
1070
    75
1070
     0
1070
   282
1070
     0
1070
   281
1070
     0
1070
    71
1070
     0
1070
    74
1070
     0
1070
   279
1070
     0
1070
   173
1070
     1
1070
   340
1005
101
1070
   271
1070
     2
1070
   272
1070
     2
1070
    77
1070
     1
1070
    73
1070
     1
1070
   171
1070
     3
1070
   274
1070
     4
1070
   177
1070
    35
1070
   176
1070
    35
1070
   178
1070
    35
1070
    48
1040
-0.1
1070
    41
1040
3.5
1070
   147
1040
1.75
1070
    42
1040
1.5875
1070
    44
1040
2.0
1070
   140
1040
3.5
1002
}
1001
ACAD_DSTYLE_DIM_LINETYPE
1070
   380
1005
16
1001
ACAD_DSTYLE_DIM_EXT1_LINETYPE
1070
   381
1005
16
1001
ACAD_DSTYLE_DIM_EXT2_LINETYPE
1070
   382
1005
16
0
DIMENSION
5
162
100
AcDbEntity
8
SK2
62
256
6
ByLayer
370
13
48
1
60
0
100
AcDbDimension
2
_U3
10
37.3
20
-14.802503
30
0
11
55.583333
21
-14.802503
31
0
70
32
71
1
72
1
41
1
210
0
220
0
230
1
3
Standard
100
AcDbAlignedDimension
13
38
23
0
33
0
14
37.3
24
-2
34
0
50
0
100
AcDbRotatedDimension
1001
ACAD
1000
DSTYLE
1002
{
1070
   371
1070
    13
1070
   372
1070
    13
1070
   170
1070
     0
1070
   144
1040
1.0
1070
   277
1070
     2
1070
   278
1070
    44
1070
   146
1040
1.0
1070
   345
1005
16
1070
   347
1005
16
1070
   346
1005
16
1070
   344
1005
0
1070
   343
1005
0
1070
   172
1070
     1
1070
    76
1070
     0
1070
    75
1070
     0
1070
   282
1070
     0
1070
   281
1070
     0
1070
    71
1070
     0
1070
    74
1070
     0
1070
   279
1070
     0
1070
   173
1070
     1
1070
   340
1005
101
1070
   271
1070
     2
1070
   272
1070
     2
1070
    77
1070
     1
1070
    73
1070
     1
1070
   171
1070
     3
1070
   274
1070
     4
1070
   177
1070
    35
1070
   176
1070
    35
1070
   178
1070
    35
1070
    48
1040
-0.1
1070
    41
1040
3.5
1070
   147
1040
1.75
1070
    42
1040
1.5875
1070
    44
1040
2.0
1070
   140
1040
3.5
1002
}
1001
ACAD_DSTYLE_DIM_LINETYPE
1070
   380
1005
16
1001
ACAD_DSTYLE_DIM_EXT1_LINETYPE
1070
   381
1005
16
1001
ACAD_DSTYLE_DIM_EXT2_LINETYPE
1070
   382
1005
16
0
DIMENSION
5
17C
100
AcDbEntity
8
SK2
62
256
6
ByLayer
370
13
48
1
60
0
100
AcDbDimension
2
_U4
10
37.3
20
-21.343428
30
0
11
0.65
21
-21.343428
31
0
70
32
71
1
72
1
41
1
210
0
220
0
230
1
3
Standard
100
AcDbAlignedDimension
13
-36
23
-3
33
0
14
37.3
24
-2
34
0
50
0
100
AcDbRotatedDimension
1001
ACAD
1000
DSTYLE
1002
{
1070
   371
1070
    13
1070
   372
1070
    13
1070
   170
1070
     0
1070
   144
1040
1.0
1070
   277
1070
     2
1070
   278
1070
    44
1070
   146
1040
1.0
1070
   345
1005
16
1070
   347
1005
16
1070
   346
1005
16
1070
   344
1005
0
1070
   343
1005
0
1070
   172
1070
     1
1070
    76
1070
     0
1070
    75
1070
     0
1070
   282
1070
     0
1070
   281
1070
     0
1070
    71
1070
     0
1070
    74
1070
     0
1070
   279
1070
     0
1070
   173
1070
     1
1070
   340
1005
101
1070
   271
1070
     2
1070
   272
1070
     2
1070
    77
1070
     1
1070
    73
1070
     1
1070
   171
1070
     3
1070
   274
1070
     4
1070
   177
1070
    35
1070
   176
1070
    35
1070
   178
1070
    35
1070
    48
1040
-0.1
1070
    41
1040
3.5
1070
   147
1040
1.75
1070
    42
1040
1.5875
1070
    44
1040
2.0
1070
   140
1040
3.5
1002
}
1001
ACAD_DSTYLE_DIM_LINETYPE
1070
   380
1005
16
1001
ACAD_DSTYLE_DIM_EXT1_LINETYPE
1070
   381
1005
16
1001
ACAD_DSTYLE_DIM_EXT2_LINETYPE
1070
   382
1005
16
0
ENDSEC
0
SECTION
2
OBJECTS
0
DICTIONARY
5
204
330
0
100
AcDbDictionary
280
0
281
1
3
ACAD_GROUP
350
205
3
ACAD_MLINESTYLE
350
206
0
DICTIONARY
5
205
330
0
100
AcDbDictionary
280
0
281
1
0
DICTIONARY
5
206
330
0
100
AcDbDictionary
280
0
281
1
3
Standard
350
18
0
MLINESTYLE
5
18
330
206
100
AcDbMlineStyle
2
Standard
70
0
3

62
256
51
90
52
90
71
2
49
-0.5
62
256
6
ByLayer
49
0.5
62
256
6
ByLayer
0
RASTERVARIABLES
5
1f2
330

100
AcDbRasterVariables
90
0
70
1
71
1
72
1
0
ENDSEC
0
EOF
