0
SECTION
2
HEADER
9
$ACADVER
1
AC1015
9
$DWGCODEPAGE
3
ANSI_1252
9
$HANDSEED
5
209
9
$ANGBASE
50
0
9
$ANGDIR
70
0
9
$ATTMODE
70
1
9
$AUNITS
70
0
9
$AUPREC
70
0
9
$CECOLOR
62
256
9
$CELTSCALE
40
1
9
$CELTYPE
6
ByLayer
9
$CELWEIGHT
370
18
9
$CLAYER
8
0
9
$CMLJUST
70
0
9
$CMLSCALE
40
1
9
$CMLSTYLE
2
Standard
9
$DIMSTYLE
2
Standard
9
$TEXTSIZE
40
0.2
9
$TEXTSTYLE
7
Standard
9
$LUNITS
70
2
9
$LUPREC
70
4
9
$EXTNAMES
290
1
9
$INSUNITS
70
4
9
$LTSCALE
40
1
9
$LWDISPLAY
290
1
9
$PDMODE
70
0
9
$PDSIZE
40
0
9
$PLINEGEN
70
0
0
ENDSEC
0
SECTION
2
CLASSES
0
CLASS
1
RASTERVARIABLES
2
AcDbRasterVariables
3
ISM
90
0
280
0
281
0
0
ENDSEC
0
SECTION
2
TABLES
0
TABLE
2
VPORT
5
1ff
100
AcDbSymbolTable
0
VPORT
5
1
100
AcDbSymbolTableRecord
100
AcDbViewportTableRecord
2
*Active
70
0
10
0
20
0
11
1
21
1
12
-1
22
1
13
0
23
0
14
0.5
24
0.5
15
10
25
10
16
0
26
0
36
1
17
0
27
0
37
0
0
ENDTAB
0
TABLE
2
LTYPE
5
200
100
AcDbSymbolTable
0
LTYPE
5
14
100
AcDbSymbolTableRecord
100
AcDbLinetypeTableRecord
70
0
2
ByBlock
3

72
65
73
0
40
0
0
LTYPE
5
15
100
AcDbSymbolTableRecord
100
AcDbLinetypeTableRecord
70
0
2
ByLayer
3

72
65
73
0
40
0
0
LTYPE
5
16
100
AcDbSymbolTableRecord
100
AcDbLinetypeTableRecord
70
0
2
Continuous
3
Solid line
72
65
73
0
40
0
0
LTYPE
5
6E
100
AcDbSymbolTableRecord
100
AcDbLinetypeTableRecord
70
0
2
CENTER
3
____ _ ____ _ ____ _ ____
72
65
73
4
40
47.5
49
22
74
0
49
-8.5
74
0
49
8.5
74
0
49
-8.5
74
0
0
LTYPE
5
6F
100
AcDbSymbolTableRecord
100
AcDbLinetypeTableRecord
70
0
2
DASHED
3
__ __ __ __ __ __ __ __ __
72
65
73
2
40
25.72
49
12.86
74
0
49
-12.86
74
0
0
ENDTAB
0
TABLE
2
LAYER
5
201
100
AcDbSymbolTable
0
LAYER
5
10
100
AcDbSymbolTableRecord
100
AcDbLayerTableRecord
2
0
70
0
62
7
6
Continuous
290
1
370
-3
390
0
0
LAYER
5
71
100
AcDbSymbolTableRecord
100
AcDbLayerTableRecord
2
80
70
0
62
-6
6
Continuous
290
1
370
-3
390
0
0
LAYER
5
73
100
AcDbSymbolTableRecord
100
AcDbLayerTableRecord
2
81
70
0
62
-3
6
Continuous
290
1
370
-3
390
0
0
LAYER
5
75
100
AcDbSymbolTableRecord
100
AcDbLayerTableRecord
2
1
70
0
62
4
6
Continuous
290
1
370
-3
390
0
0
LAYER
5
92
100
AcDbSymbolTableRecord
100
AcDbLayerTableRecord
2
4
70
0
62
-2
6
CENTER
290
1
370
-3
390
0
0
LAYER
5
AB
100
AcDbSymbolTableRecord
100
AcDbLayerTableRecord
2
2
70
0
62
7
6
Continuous
290
1
370
-3
390
0
0
LAYER
5
114
100
AcDbSymbolTableRecord
100
AcDbLayerTableRecord
2
Defpoints
70
0
62
7
6
Continuous
290
0
370
-3
390
0
0
LAYER
5
1eb
100
AcDbSymbolTableRecord
100
AcDbLayerTableRecord
2
SK1
70
0
62
4
6
Continuous
290
1
370
-3
390
0
0
LAYER
5
1ec
100
AcDbSymbolTableRecord
100
AcDbLayerTableRecord
2
SK4
70
0
62
2
6
CENTER
290
1
370
-3
390
0
0
LAYER
5
1ed
100
AcDbSymbolTableRecord
100
AcDbLayerTableRecord
2
SK2
70
0
62
7
6
Continuous
290
1
370
-3
390
0
0
LAYER
5
1ee
100
AcDbSymbolTableRecord
100
AcDbLayerTableRecord
2
SK6
70
0
62
5
6
Continuous
290
1
370
-3
390
0
0
ENDTAB
0
TABLE
2
STYLE
5
202
100
AcDbSymbolTable
0
STYLE
5
11
100
AcDbSymbolTableRecord
100
AcDbTextStyleTableRecord
2
Standard
3
txt
70
0
71
0
40
0
41
1
42
0
50
0
0
STYLE
5
F9
100
AcDbSymbolTableRecord
100
AcDbTextStyleTableRecord
2
iso_b_vert
3
simplex.shx
70
0
71
0
40
0
41
1
42
0
50
0
0
STYLE
5
FA
100
AcDbSymbolTableRecord
100
AcDbTextStyleTableRecord
2
DWGDirectTextStyle
3
simplex
70
0
71
0
40
0
41
1
42
0
50
0
0
ENDTAB
0
TABLE
2
DIMSTYLE
5
203
100
AcDbSymbolTable
100
AcDbDimStyleTable
0
DIMSTYLE
105
27
100
AcDbSymbolTableRecord
100
AcDbDimStyleTableRecord
2
Standard
70
0
3
<>
41
0.18
42
0.0625
44
0.18
140
0.18
147
0.09
73
0
74
0
77
1
271
2
275
0
278
52
280
0
340
11
0
ENDTAB
0
TABLE
2
VIEW
5
204
100
AcDbSymbolTable
0
ENDTAB
0
TABLE
2
UCS
5
205
100
AcDbSymbolTable
0
ENDTAB
0
TABLE
2
APPID
5
206
100
AcDbSymbolTable
0
APPID
5
12
100
AcDbSymbolTableRecord
100
AcDbRegAppTableRecord
2
ACAD
70
0
0
APPID
5
110
100
AcDbSymbolTableRecord
100
AcDbRegAppTableRecord
2
ACAD_DSTYLE_DIMBREAK
70
0
0
APPID
5
1AA
100
AcDbSymbolTableRecord
100
AcDbRegAppTableRecord
2
ACAD_DSTYLE_DIM_LINETYPE
70
0
0
APPID
5
1AB
100
AcDbSymbolTableRecord
100
AcDbRegAppTableRecord
2
ACAD_DSTYLE_DIM_EXT1_LINETYPE
70
0
0
APPID
5
1AC
100
AcDbSymbolTableRecord
100
AcDbRegAppTableRecord
2
ACAD_DSTYLE_DIM_EXT2_LINETYPE
70
0
0
APPID
5
1E7
100
AcDbSymbolTableRecord
100
AcDbRegAppTableRecord
2
ACAD_MLEADERVER
70
0
0
ENDTAB
0
TABLE
2
BLOCK_RECORD
5
207
100
AcDbSymbolTable
0
BLOCK_RECORD
5
1F
100
AcDbSymbolTableRecord
100
AcDbBlockTableRecord
2
*Model_Space
340
0
70
0
0
BLOCK_RECORD
5
1B
100
AcDbSymbolTableRecord
100
AcDbBlockTableRecord
2
*Paper_Space
340
0
70
0
0
BLOCK_RECORD
5
23
100
AcDbSymbolTableRecord
100
AcDbBlockTableRecord
2
*Paper_Space0
340
0
70
0
0
BLOCK_RECORD
5
115
100
AcDbSymbolTableRecord
100
AcDbBlockTableRecord
2
*D1
340
0
70
0
0
BLOCK_RECORD
5
121
100
AcDbSymbolTableRecord
100
AcDbBlockTableRecord
2
_U0
340
0
70
0
0
BLOCK_RECORD
5
12D
100
AcDbSymbolTableRecord
100
AcDbBlockTableRecord
2
*D3
340
0
70
0
0
BLOCK_RECORD
5
139
100
AcDbSymbolTableRecord
100
AcDbBlockTableRecord
2
_U1
340
0
70
0
0
BLOCK_RECORD
5
145
100
AcDbSymbolTableRecord
100
AcDbBlockTableRecord
2
*D5
340
0
70
0
0
BLOCK_RECORD
5
151
100
AcDbSymbolTableRecord
100
AcDbBlockTableRecord
2
_U2
340
0
70
0
0
BLOCK_RECORD
5
15D
100
AcDbSymbolTableRecord
100
AcDbBlockTableRecord
2
*D7
340
0
70
0
0
BLOCK_RECORD
5
16B
100
AcDbSymbolTableRecord
100
AcDbBlockTableRecord
2
_U3
340
0
70
0
0
BLOCK_RECORD
5
177
100
AcDbSymbolTableRecord
100
AcDbBlockTableRecord
2
*D9
340
0
70
0
0
BLOCK_RECORD
5
183
100
AcDbSymbolTableRecord
100
AcDbBlockTableRecord
2
_U4
340
0
70
0
0
ENDTAB
0
ENDSEC
0
SECTION
2
BLOCKS
0
BLOCK
5
20
100
AcDbEntity
8
0
100
AcDbBlockBegin
2
*Model_Space
70
0
10
0
20
0
30
0
3
*Model_Space
0
ENDBLK
5
21
100
AcDbEntity
8
0
100
AcDbBlockEnd
0
BLOCK
5
1C
100
AcDbEntity
8
0
100
AcDbBlockBegin
2
*Paper_Space
70
0
10
0
20
0
30
0
3
*Paper_Space
0
ENDBLK
5
1D
100
AcDbEntity
8
0
100
AcDbBlockEnd
0
BLOCK
5
24
100
AcDbEntity
8
0
100
AcDbBlockBegin
2
*Paper_Space0
70
0
10
0
20
0
30
0
3
*Paper_Space0
0
ENDBLK
5
25
100
AcDbEntity
8
0
100
AcDbBlockEnd
0
BLOCK
5
116
100
AcDbEntity
8
0
100
AcDbBlockBegin
2
*D1
70
1
10
0
20
0
30
0
3
*D1
0
LINE
5
118
100
AcDbEntity
8
0
62
256
6
ByLayer
370
-2
48
1
60
0
100
AcDbLine
10
0
20
-1.5875
30
0
11
0
21
-15.013398
31
0
39
0
210
0
220
0
230
1
0
LINE
5
119
100
AcDbEntity
8
0
62
256
6
ByLayer
370
-2
48
1
60
0
100
AcDbLine
10
29
20
-4.3875
30
0
11
29
21
-15.013398
31
0
39
0
210
0
220
0
230
1
0
LINE
5
11A
100
AcDbEntity
8
0
62
256
6
ByLayer
370
-2
48
1
60
0
100
AcDbLine
10
3.5
20
-13.013398
30
0
11
25.5
21
-13.013398
31
0
39
0
210
0
220
0
230
1
0
SOLID
5
11B
100
AcDbEntity
8
0
62
256
6
ByLayer
370
-1
48
1
60
0
100
AcDbTrace
10
3.5
20
-12.430065
30
0
11
3.5
21
-13.596732
31
0
12
0
22
-13.013398
32
0
13
0
23
-13.013398
33
0
39
0
210
0
220
0
230
1
0
SOLID
5
11C
100
AcDbEntity
8
0
62
256
6
ByLayer
370
-1
48
1
60
0
100
AcDbTrace
10
25.5
20
-13.596732
30
0
11
25.5
21
-12.430065
31
0
12
29
22
-13.013398
32
0
13
29
23
-13.013398
33
0
39
0
210
0
220
0
230
1
0
MTEXT
5
11D
100
AcDbEntity
8
0
62
256
6
ByLayer
370
18
48
1
60
0
100
AcDbMText
10
14.5
20
-6.013398
30
0
210
0
220
0
230
1
1
\A1;29.00
40
3.5
41
0
44
1
50
0
71
5
72
5
7
iso_b_vert
0
POINT
5
11E
100
AcDbEntity
8
Defpoints
62
0
6
ByLayer
370
-1
48
1
60
0
100
AcDbPoint
10
0
20
0
30
0
39
0
210
0
220
0
230
1
50
360
0
POINT
5
11F
100
AcDbEntity
8
Defpoints
62
0
6
ByLayer
370
-1
48
1
60
0
100
AcDbPoint
10
29
20
-2.8
30
0
39
0
210
0
220
0
230
1
50
360
0
POINT
5
120
100
AcDbEntity
8
Defpoints
62
0
6
ByLayer
370
-1
48
1
60
0
100
AcDbPoint
10
29
20
-13.013398
30
0
39
0
210
0
220
0
230
1
50
360
0
ENDBLK
5
117
100
AcDbEntity
8
0
100
AcDbBlockEnd
0
BLOCK
5
128
100
AcDbEntity
8
0
100
AcDbBlockBegin
2
_U0
70
0
10
0
20
0
30
0
3
_U0
0
MTEXT
5
122
100
AcDbEntity
8
SK2
62
256
6
ByLayer
370
13
48
1
60
0
100
AcDbMText
10
9.362701
20
-11.980765
30
0
210
0
220
0
230
1
1
\W0.7317;29,00
40
3.5
41
0
44
1.084337
50
0
71
7
72
5
7
iso_b_vert
0
LINE
5
123
100
AcDbEntity
8
SK2
62
256
6
ByLayer
370
13
48
1
60
0
100
AcDbLine
10
0
20
-1.5875
30
0
11
0
21
-15.013398
31
0
39
0
210
0
220
0
230
1
0
LINE
5
124
100
AcDbEntity
8
SK2
62
256
6
ByLayer
370
13
48
1
60
0
100
AcDbLine
10
29
20
-4.3875
30
0
11
29
21
-15.013398
31
0
39
0
210
0
220
0
230
1
0
LINE
5
125
100
AcDbEntity
8
SK2
62
256
6
ByLayer
370
13
48
1
60
0
100
AcDbLine
10
0
20
-13.013398
30
0
11
29
21
-13.013398
31
0
39
0
210
0
220
0
230
1
0
SOLID
5
126
100
AcDbEntity
8
SK2
62
256
6
ByLayer
370
18
48
1
60
0
100
AcDbTrace
10
0
20
-13.013398
30
0
11
3.499998
21
-12.552615
31
0
12
3.500002
22
-13.474182
32
0
13
3.500002
23
-13.474182
33
0
39
0
210
0
220
0
230
1
0
SOLID
5
127
100
AcDbEntity
8
SK2
62
256
6
ByLayer
370
18
48
1
60
0
100
AcDbTrace
10
29
20
-13.013398
30
0
11
25.500002
21
-13.474182
31
0
12
25.499998
22
-12.552615
32
0
13
25.499998
23
-12.552615
33
0
39
0
210
0
220
0
230
1
0
ENDBLK
5
129
100
AcDbEntity
8
0
100
AcDbBlockEnd
0
BLOCK
5
12E
100
AcDbEntity
8
0
100
AcDbBlockBegin
2
*D3
70
1
10
0
20
0
30
0
3
*D3
0
LINE
5
130
100
AcDbEntity
8
0
62
256
6
ByLayer
370
-2
48
1
60
0
100
AcDbLine
10
-36
20
-4.5875
30
0
11
-36
21
-33.692985
31
0
39
0
210
0
220
0
230
1
0
LINE
5
131
100
AcDbEntity
8
0
62
256
6
ByLayer
370
-2
48
1
60
0
100
AcDbLine
10
30
20
-1.5875
30
0
11
30
21
-33.692985
31
0
39
0
210
0
220
0
230
1
0
LINE
5
132
100
AcDbEntity
8
0
62
256
6
ByLayer
370
-2
48
1
60
0
100
AcDbLine
10
-32.5
20
-31.692985
30
0
11
26.5
21
-31.692985
31
0
39
0
210
0
220
0
230
1
0
SOLID
5
133
100
AcDbEntity
8
0
62
256
6
ByLayer
370
-1
48
1
60
0
100
AcDbTrace
10
-32.5
20
-31.109652
30
0
11
-32.5
21
-32.276319
31
0
12
-36
22
-31.692985
32
0
13
-36
23
-31.692985
33
0
39
0
210
0
220
0
230
1
0
SOLID
5
134
100
AcDbEntity
8
0
62
256
6
ByLayer
370
-1
48
1
60
0
100
AcDbTrace
10
26.5
20
-32.276319
30
0
11
26.5
21
-31.109652
31
0
12
30
22
-31.692985
32
0
13
30
23
-31.692985
33
0
39
0
210
0
220
0
230
1
0
MTEXT
5
135
100
AcDbEntity
8
0
62
256
6
ByLayer
370
18
48
1
60
0
100
AcDbMText
10
-3
20
-24.692985
30
0
210
0
220
0
230
1
1
\A1;66.00
40
3.5
41
0
44
1
50
0
71
5
72
5
7
iso_b_vert
0
POINT
5
136
100
AcDbEntity
8
Defpoints
62
0
6
ByLayer
370
-1
48
1
60
0
100
AcDbPoint
10
-36
20
-3
30
0
39
0
210
0
220
0
230
1
50
360
0
POINT
5
137
100
AcDbEntity
8
Defpoints
62
0
6
ByLayer
370
-1
48
1
60
0
100
AcDbPoint
10
30
20
0
30
0
39
0
210
0
220
0
230
1
50
360
0
POINT
5
138
100
AcDbEntity
8
Defpoints
62
0
6
ByLayer
370
-1
48
1
60
0
100
AcDbPoint
10
30
20
-31.692985
30
0
39
0
210
0
220
0
230
1
50
360
0
ENDBLK
5
12F
100
AcDbEntity
8
0
100
AcDbBlockEnd
0
BLOCK
5
140
100
AcDbEntity
8
0
100
AcDbBlockBegin
2
_U1
70
0
10
0
20
0
30
0
3
_U1
0
MTEXT
5
13A
100
AcDbEntity
8
SK2
62
256
6
ByLayer
370
13
48
1
60
0
100
AcDbMText
10
-8.137299
20
-30.660352
30
0
210
0
220
0
230
1
1
\W0.7317;66,00
40
3.5
41
0
44
1.084337
50
0
71
7
72
5
7
iso_b_vert
0
LINE
5
13B
100
AcDbEntity
8
SK2
62
256
6
ByLayer
370
13
48
1
60
0
100
AcDbLine
10
-36
20
-4.5875
30
0
11
-36
21
-33.692985
31
0
39
0
210
0
220
0
230
1
0
LINE
5
13C
100
AcDbEntity
8
SK2
62
256
6
ByLayer
370
13
48
1
60
0
100
AcDbLine
10
30
20
-1.5875
30
0
11
30
21
-33.692985
31
0
39
0
210
0
220
0
230
1
0
LINE
5
13D
100
AcDbEntity
8
SK2
62
256
6
ByLayer
370
13
48
1
60
0
100
AcDbLine
10
-36
20
-31.692985
30
0
11
30
21
-31.692985
31
0
39
0
210
0
220
0
230
1
0
SOLID
5
13E
100
AcDbEntity
8
SK2
62
256
6
ByLayer
370
18
48
1
60
0
100
AcDbTrace
10
-36
20
-31.692985
30
0
11
-32.500002
21
-31.232202
31
0
12
-32.499998
22
-32.153769
32
0
13
-32.499998
23
-32.153769
33
0
39
0
210
0
220
0
230
1
0
SOLID
5
13F
100
AcDbEntity
8
SK2
62
256
6
ByLayer
370
18
48
1
60
0
100
AcDbTrace
10
30
20
-31.692985
30
0
11
26.500002
21
-32.153769
31
0
12
26.499998
22
-31.232202
32
0
13
26.499998
23
-31.232202
33
0
39
0
210
0
220
0
230
1
0
ENDBLK
5
141
100
AcDbEntity
8
0
100
AcDbBlockEnd
0
BLOCK
5
146
100
AcDbEntity
8
0
100
AcDbBlockBegin
2
*D5
70
1
10
0
20
0
30
0
3
*D5
0
LINE
5
148
100
AcDbEntity
8
0
62
256
6
ByLayer
370
-2
48
1
60
0
100
AcDbLine
10
12.3902
20
4.3875
30
0
11
12.3902
21
16.409119
31
0
39
0
210
0
220
0
230
1
0
LINE
5
149
100
AcDbEntity
8
0
62
256
6
ByLayer
370
-2
48
1
60
0
100
AcDbLine
10
30
20
1.5875
30
0
11
30
21
16.409119
31
0
39
0
210
0
220
0
230
1
0
LINE
5
14A
100
AcDbEntity
8
0
62
256
6
ByLayer
370
-2
48
1
60
0
100
AcDbLine
10
15.8902
20
14.409119
30
0
11
26.5
21
14.409119
31
0
39
0
210
0
220
0
230
1
0
SOLID
5
14B
100
AcDbEntity
8
0
62
256
6
ByLayer
370
-1
48
1
60
0
100
AcDbTrace
10
15.8902
20
14.992453
30
0
11
15.8902
21
13.825786
31
0
12
12.3902
22
14.409119
32
0
13
12.3902
23
14.409119
33
0
39
0
210
0
220
0
230
1
0
SOLID
5
14C
100
AcDbEntity
8
0
62
256
6
ByLayer
370
-1
48
1
60
0
100
AcDbTrace
10
26.5
20
13.825786
30
0
11
26.5
21
14.992453
31
0
12
30
22
14.409119
32
0
13
30
23
14.409119
33
0
39
0
210
0
220
0
230
1
0
MTEXT
5
14D
100
AcDbEntity
8
0
62
256
6
ByLayer
370
18
48
1
60
0
100
AcDbMText
10
21.1951
20
21.409119
30
0
210
0
220
0
230
1
1
\A1;17.61
40
3.5
41
0
44
1
50
0
71
5
72
5
7
iso_b_vert
0
POINT
5
14E
100
AcDbEntity
8
Defpoints
62
0
6
ByLayer
370
-1
48
1
60
0
100
AcDbPoint
10
12.3902
20
2.8
30
0
39
0
210
0
220
0
230
1
50
360
0
POINT
5
14F
100
AcDbEntity
8
Defpoints
62
0
6
ByLayer
370
-1
48
1
60
0
100
AcDbPoint
10
30
20
0
30
0
39
0
210
0
220
0
230
1
50
360
0
POINT
5
150
100
AcDbEntity
8
Defpoints
62
0
6
ByLayer
370
-1
48
1
60
0
100
AcDbPoint
10
30
20
14.409119
30
0
39
0
210
0
220
0
230
1
50
360
0
ENDBLK
5
147
100
AcDbEntity
8
0
100
AcDbBlockEnd
0
BLOCK
5
158
100
AcDbEntity
8
0
100
AcDbBlockBegin
2
_U2
70
0
10
0
20
0
30
0
3
_U2
0
MTEXT
5
152
100
AcDbEntity
8
SK2
62
256
6
ByLayer
370
13
48
1
60
0
100
AcDbMText
10
16.932668
20
15.441753
30
0
210
0
220
0
230
1
1
\W0.6563;17,61
40
3.5
41
0
44
1.084337
50
0
71
7
72
5
7
iso_b_vert
0
LINE
5
153
100
AcDbEntity
8
SK2
62
256
6
ByLayer
370
13
48
1
60
0
100
AcDbLine
10
12.3902
20
4.3875
30
0
11
12.3902
21
16.409119
31
0
39
0
210
0
220
0
230
1
0
LINE
5
154
100
AcDbEntity
8
SK2
62
256
6
ByLayer
370
13
48
1
60
0
100
AcDbLine
10
30
20
1.5875
30
0
11
30
21
16.409119
31
0
39
0
210
0
220
0
230
1
0
LINE
5
155
100
AcDbEntity
8
SK2
62
256
6
ByLayer
370
13
48
1
60
0
100
AcDbLine
10
12.3902
20
14.409119
30
0
11
30
21
14.409119
31
0
39
0
210
0
220
0
230
1
0
SOLID
5
156
100
AcDbEntity
8
SK2
62
256
6
ByLayer
370
18
48
1
60
0
100
AcDbTrace
10
12.3902
20
14.409119
30
0
11
15.890198
21
14.869903
31
0
12
15.890202
22
13.948335
32
0
13
15.890202
23
13.948335
33
0
39
0
210
0
220
0
230
1
0
SOLID
5
157
100
AcDbEntity
8
SK2
62
256
6
ByLayer
370
18
48
1
60
0
100
AcDbTrace
10
30
20
14.409119
30
0
11
26.500002
21
13.948335
31
0
12
26.499998
22
14.869903
32
0
13
26.499998
23
14.869903
33
0
39
0
210
0
220
0
230
1
0
ENDBLK
5
159
100
AcDbEntity
8
0
100
AcDbBlockEnd
0
BLOCK
5
15E
100
AcDbEntity
8
0
100
AcDbBlockBegin
2
*D7
70
1
10
0
20
0
30
0
3
*D7
0
LINE
5
160
100
AcDbEntity
8
0
62
256
6
ByLayer
370
-2
48
1
60
0
100
AcDbLine
10
30
20
-1.5875
30
0
11
30
21
-17.602503
31
0
39
0
210
0
220
0
230
1
0
LINE
5
161
100
AcDbEntity
8
0
62
256
6
ByLayer
370
-2
48
1
60
0
100
AcDbLine
10
29
20
-4.3875
30
0
11
29
21
-17.602503
31
0
39
0
210
0
220
0
230
1
0
LINE
5
162
100
AcDbEntity
8
0
62
256
6
ByLayer
370
-2
48
1
60
0
100
AcDbLine
10
30
20
-15.602503
30
0
11
57.666667
21
-15.602503
31
0
39
0
210
0
220
0
230
1
0
LINE
5
163
100
AcDbEntity
8
0
62
256
6
ByLayer
370
-2
48
1
60
0
100
AcDbLine
10
33.5
20
-15.602503
30
0
11
37
21
-15.602503
31
0
39
0
210
0
220
0
230
1
0
LINE
5
164
100
AcDbEntity
8
0
62
256
6
ByLayer
370
-2
48
1
60
0
100
AcDbLine
10
25.5
20
-15.602503
30
0
11
22
21
-15.602503
31
0
39
0
210
0
220
0
230
1
0
SOLID
5
165
100
AcDbEntity
8
0
62
256
6
ByLayer
370
-1
48
1
60
0
100
AcDbTrace
10
33.5
20
-15.01917
30
0
11
33.5
21
-16.185837
31
0
12
30
22
-15.602503
32
0
13
30
23
-15.602503
33
0
39
0
210
0
220
0
230
1
0
SOLID
5
166
100
AcDbEntity
8
0
62
256
6
ByLayer
370
-1
48
1
60
0
100
AcDbTrace
10
25.5
20
-16.185837
30
0
11
25.5
21
-15.01917
31
0
12
29
22
-15.602503
32
0
13
29
23
-15.602503
33
0
39
0
210
0
220
0
230
1
0
MTEXT
5
167
100
AcDbEntity
8
0
62
256
6
ByLayer
370
18
48
1
60
0
100
AcDbMText
10
47.333333
20
-8.602503
30
0
210
0
220
0
230
1
1
\A1;1.00
40
3.5
41
0
44
1
50
0
71
5
72
5
7
iso_b_vert
0
POINT
5
168
100
AcDbEntity
8
Defpoints
62
0
6
ByLayer
370
-1
48
1
60
0
100
AcDbPoint
10
30
20
0
30
0
39
0
210
0
220
0
230
1
50
360
0
POINT
5
169
100
AcDbEntity
8
Defpoints
62
0
6
ByLayer
370
-1
48
1
60
0
100
AcDbPoint
10
29
20
-2.8
30
0
39
0
210
0
220
0
230
1
50
360
0
POINT
5
16A
100
AcDbEntity
8
Defpoints
62
0
6
ByLayer
370
-1
48
1
60
0
100
AcDbPoint
10
29
20
-15.602503
30
0
39
0
210
0
220
0
230
1
50
360
0
ENDBLK
5
15F
100
AcDbEntity
8
0
100
AcDbBlockEnd
0
BLOCK
5
172
100
AcDbEntity
8
0
100
AcDbBlockBegin
2
_U3
70
0
10
0
20
0
30
0
3
_U3
0
MTEXT
5
16C
100
AcDbEntity
8
SK2
62
256
6
ByLayer
370
13
48
1
60
0
100
AcDbMText
10
36.589293
20
-14.56987
30
0
210
0
220
0
230
1
1
\W0.6367;1,00
40
3.5
41
0
44
1.084337
50
0
71
7
72
5
7
iso_b_vert
0
LINE
5
16D
100
AcDbEntity
8
SK2
62
256
6
ByLayer
370
13
48
1
60
0
100
AcDbLine
10
30
20
-1.5875
30
0
11
30
21
-17.602503
31
0
39
0
210
0
220
0
230
1
0
LINE
5
16E
100
AcDbEntity
8
SK2
62
256
6
ByLayer
370
13
48
1
60
0
100
AcDbLine
10
29
20
-4.3875
30
0
11
29
21
-17.602503
31
0
39
0
210
0
220
0
230
1
0
LINE
5
16F
100
AcDbEntity
8
SK2
62
256
6
ByLayer
370
13
48
1
60
0
100
AcDbLine
10
20.25
20
-15.602503
30
0
11
43.559058
21
-15.602503
31
0
39
0
210
0
220
0
230
1
0
SOLID
5
170
100
AcDbEntity
8
SK2
62
256
6
ByLayer
370
18
48
1
60
0
100
AcDbTrace
10
30
20
-15.602503
30
0
11
33.499998
21
-15.141719
31
0
12
33.500002
22
-16.063287
32
0
13
33.500002
23
-16.063287
33
0
39
0
210
0
220
0
230
1
0
SOLID
5
171
100
AcDbEntity
8
SK2
62
256
6
ByLayer
370
18
48
1
60
0
100
AcDbTrace
10
29
20
-15.602503
30
0
11
25.500002
21
-16.063287
31
0
12
25.499998
22
-15.141719
32
0
13
25.499998
23
-15.141719
33
0
39
0
210
0
220
0
230
1
0
ENDBLK
5
173
100
AcDbEntity
8
0
100
AcDbBlockEnd
0
BLOCK
5
178
100
AcDbEntity
8
0
100
AcDbBlockBegin
2
*D9
70
1
10
0
20
0
30
0
3
*D9
0
LINE
5
17A
100
AcDbEntity
8
0
62
256
6
ByLayer
370
-2
48
1
60
0
100
AcDbLine
10
-36
20
-4.5875
30
0
11
-36
21
-23.343428
31
0
39
0
210
0
220
0
230
1
0
LINE
5
17B
100
AcDbEntity
8
0
62
256
6
ByLayer
370
-2
48
1
60
0
100
AcDbLine
10
29
20
-4.3875
30
0
11
29
21
-23.343428
31
0
39
0
210
0
220
0
230
1
0
LINE
5
17C
100
AcDbEntity
8
0
62
256
6
ByLayer
370
-2
48
1
60
0
100
AcDbLine
10
-32.5
20
-21.343428
30
0
11
25.5
21
-21.343428
31
0
39
0
210
0
220
0
230
1
0
SOLID
5
17D
100
AcDbEntity
8
0
62
256
6
ByLayer
370
-1
48
1
60
0
100
AcDbTrace
10
-32.5
20
-20.760095
30
0
11
-32.5
21
-21.926762
31
0
12
-36
22
-21.343428
32
0
13
-36
23
-21.343428
33
0
39
0
210
0
220
0
230
1
0
SOLID
5
17E
100
AcDbEntity
8
0
62
256
6
ByLayer
370
-1
48
1
60
0
100
AcDbTrace
10
25.5
20
-21.926762
30
0
11
25.5
21
-20.760095
31
0
12
29
22
-21.343428
32
0
13
29
23
-21.343428
33
0
39
0
210
0
220
0
230
1
0
MTEXT
5
17F
100
AcDbEntity
8
0
62
256
6
ByLayer
370
18
48
1
60
0
100
AcDbMText
10
-3.5
20
-14.343428
30
0
210
0
220
0
230
1
1
\A1;65.00
40
3.5
41
0
44
1
50
0
71
5
72
5
7
iso_b_vert
0
POINT
5
180
100
AcDbEntity
8
Defpoints
62
0
6
ByLayer
370
-1
48
1
60
0
100
AcDbPoint
10
-36
20
-3
30
0
39
0
210
0
220
0
230
1
50
360
0
POINT
5
181
100
AcDbEntity
8
Defpoints
62
0
6
ByLayer
370
-1
48
1
60
0
100
AcDbPoint
10
29
20
-2.8
30
0
39
0
210
0
220
0
230
1
50
360
0
POINT
5
182
100
AcDbEntity
8
Defpoints
62
0
6
ByLayer
370
-1
48
1
60
0
100
AcDbPoint
10
29
20
-21.343428
30
0
39
0
210
0
220
0
230
1
50
360
0
ENDBLK
5
179
100
AcDbEntity
8
0
100
AcDbBlockEnd
0
BLOCK
5
18A
100
AcDbEntity
8
0
100
AcDbBlockBegin
2
_U4
70
0
10
0
20
0
30
0
3
_U4
0
MTEXT
5
184
100
AcDbEntity
8
SK2
62
256
6
ByLayer
370
13
48
1
60
0
100
AcDbMText
10
-8.637299
20
-20.310795
30
0
210
0
220
0
230
1
1
\W0.7317;65,00
40
3.5
41
0
44
1.084337
50
0
71
7
72
5
7
iso_b_vert
0
LINE
5
185
100
AcDbEntity
8
SK2
62
256
6
ByLayer
370
13
48
1
60
0
100
AcDbLine
10
-36
20
-4.5875
30
0
11
-36
21
-23.343428
31
0
39
0
210
0
220
0
230
1
0
LINE
5
186
100
AcDbEntity
8
SK2
62
256
6
ByLayer
370
13
48
1
60
0
100
AcDbLine
10
29
20
-4.3875
30
0
11
29
21
-23.343428
31
0
39
0
210
0
220
0
230
1
0
LINE
5
187
100
AcDbEntity
8
SK2
62
256
6
ByLayer
370
13
48
1
60
0
100
AcDbLine
10
-36
20
-21.343428
30
0
11
29
21
-21.343428
31
0
39
0
210
0
220
0
230
1
0
SOLID
5
188
100
AcDbEntity
8
SK2
62
256
6
ByLayer
370
18
48
1
60
0
100
AcDbTrace
10
-36
20
-21.343428
30
0
11
-32.500002
21
-20.882645
31
0
12
-32.499998
22
-21.804212
32
0
13
-32.499998
23
-21.804212
33
0
39
0
210
0
220
0
230
1
0
SOLID
5
189
100
AcDbEntity
8
SK2
62
256
6
ByLayer
370
18
48
1
60
0
100
AcDbTrace
10
29
20
-21.343428
30
0
11
25.500002
21
-21.804212
31
0
12
25.499998
22
-20.882645
32
0
13
25.499998
23
-20.882645
33
0
39
0
210
0
220
0
230
1
0
ENDBLK
5
18B
100
AcDbEntity
8
0
100
AcDbBlockEnd
0
ENDSEC
0
SECTION
2
ENTITIES
0
ARC
5
B4
100
AcDbEntity
8
1
62
256
6
ByLayer
370
18
48
1
60
0
100
AcDbCircle
39
0
10
0
20
-2.2
30
0
40
0.799999999999999
210
0
220
0
230
1
100
AcDbArc
50
270
51
301.370258
0
ARC
5
B5
100
AcDbEntity
8
1
62
256
6
ByLayer
370
18
48
1
60
0
100
AcDbCircle
39
0
10
0.832906
20
-3.566114
30
0
40
0.799999999999999
210
0
220
0
230
1
100
AcDbArc
50
89.931245
51
121.370258
0
ARC
5
B6
100
AcDbEntity
8
1
62
256
6
ByLayer
370
18
48
1
60
0
100
AcDbCircle
39
0
10
0.832906
20
3.566114
30
0
40
0.799999999999999
210
0
220
0
230
1
100
AcDbArc
50
238.629742
51
270.068755
0
ARC
5
B7
100
AcDbEntity
8
1
62
256
6
ByLayer
370
18
48
1
60
0
100
AcDbCircle
39
0
10
0
20
2.2
30
0
40
0.799999999999999
210
0
220
0
230
1
100
AcDbArc
50
58.629742
51
90
0
ELLIPSE
5
B8
100
AcDbEntity
8
1
62
256
6
ByLayer
370
13
48
1
60
0
100
AcDbEllipse
10
4.179454
20
-0.225274
30
0
11
-0.042613867739836
21
-0.0904657851137753
31
0
210
0
220
0
230
1
40
0.460384
41
-1.43510472615081
42
-0.16293759641408
0
ELLIPSE
5
B9
100
AcDbEntity
8
1
62
256
6
ByLayer
370
18
48
1
60
0
100
AcDbEllipse
10
30.000469
20
0.001223
30
0
11
1.02549611597556
21
2.80008842753603
31
0
210
0
220
0
230
1
40
0.073902
41
-2.92775138477501
42
-2.86219750196912
0
ELLIPSE
5
BA
100
AcDbEntity
8
1
62
256
6
ByLayer
370
18
48
1
60
0
100
AcDbEllipse
10
30.032377
20
0.052178
30
0
11
0.0499942264774277
21
0.149068821482077
31
0
210
0
220
0
230
1
40
0.054101
41
2.10449775574812
42
2.37570420268906
0
ELLIPSE
5
BB
100
AcDbEntity
8
1
62
256
6
ByLayer
370
18
48
1
60
0
100
AcDbEllipse
10
20.689814
20
1.216252
30
0
11
9.14397571616461
21
-0.596547346703944
31
0
210
0
220
0
230
1
40
0.058294
41
0.0207623327519667
42
0.294872949618687
0
ELLIPSE
5
BC
100
AcDbEntity
8
1
62
256
6
ByLayer
370
18
48
1
60
0
100
AcDbEllipse
10
30.000469
20
-0.001224
30
0
11
1.02549639436592
21
-2.80008923279894
31
0
210
0
220
0
230
1
40
0.073902
41
2.86219754203528
42
2.92775141518637
0
ELLIPSE
5
BD
100
AcDbEntity
8
1
62
256
6
ByLayer
370
18
48
1
60
0
100
AcDbEllipse
10
29.977534
20
-0.01782
30
0
11
0.0340861298196457
21
0.0966259033004429
31
0
210
0
220
0
230
1
40
0.0884
41
-2.16048506387247
42
-1.1226945778941
0
ELLIPSE
5
BE
100
AcDbEntity
8
1
62
256
6
ByLayer
370
18
48
1
60
0
100
AcDbEllipse
10
29.573819
20
1.216252
30
0
11
0.292882377401505
21
-0.799707144536675
31
0
210
0
220
0
230
1
40
0.073902
41
0.722938679666405
42
1.45200321977618
0
ELLIPSE
5
BF
100
AcDbEntity
8
1
62
256
6
ByLayer
370
18
48
1
60
0
100
AcDbEllipse
10
29.573819
20
-1.216252
30
0
11
0.292882377371092
21
0.799707144465444
31
0
210
0
220
0
230
1
40
0.073902
41
-1.45200321983434
42
-0.722938679666784
0
ELLIPSE
5
C0
100
AcDbEntity
8
1
62
256
6
ByLayer
370
18
48
1
60
0
100
AcDbEllipse
10
30.032376
20
-0.052178
30
0
11
0.0499942216206324
21
-0.149068808656898
31
0
210
0
220
0
230
1
40
0.054101
41
-2.3757041801637
42
-2.10449771610976
0
ELLIPSE
5
C1
100
AcDbEntity
8
1
62
256
6
ByLayer
370
13
48
1
60
0
100
AcDbEllipse
10
4.250308
20
-0.260662
30
0
11
0.0466581173895469
21
0.0884478381966641
31
0
210
0
220
0
230
1
40
0.042641
41
1.48575429230839
42
3.02903637360005
0
POINT
5
70
100
AcDbEntity
8
80
62
256
6
ByLayer
370
18
48
1
60
0
100
AcDbPoint
10
0
20
0
30
0
39
0
210
0
220
0
230
1
50
360
0
POINT
5
72
100
AcDbEntity
8
81
62
256
6
ByLayer
370
18
48
1
60
0
100
AcDbPoint
10
30
20
0
30
0
39
0
210
0
220
0
230
1
50
360
0
POINT
5
74
100
AcDbEntity
8
1
62
256
6
ByLayer
370
18
48
1
60
1
100
AcDbPoint
10
29
20
-2.8
30
0
39
0
210
0
220
0
230
1
50
360
0
POINT
5
76
100
AcDbEntity
8
1
62
256
6
ByLayer
370
18
48
1
60
1
100
AcDbPoint
10
-36
20
-3
30
0
39
0
210
0
220
0
230
1
50
360
0
POINT
5
77
100
AcDbEntity
8
1
62
256
6
ByLayer
370
18
48
1
60
1
100
AcDbPoint
10
12.3902
20
2.8
30
0
39
0
210
0
220
0
230
1
50
360
0
POINT
5
78
100
AcDbEntity
8
1
62
256
6
ByLayer
370
18
48
1
60
1
100
AcDbPoint
10
29
20
-2.8
30
0
39
0
210
0
220
0
230
1
50
360
0
POINT
5
79
100
AcDbEntity
8
1
62
256
6
ByLayer
370
18
48
1
60
1
100
AcDbPoint
10
-36
20
-3
30
0
39
0
210
0
220
0
230
1
50
360
0
POINT
5
7A
100
AcDbEntity
8
1
62
256
6
ByLayer
370
18
48
1
60
1
100
AcDbPoint
10
29
20
-2.8
30
0
39
0
210
0
220
0
230
1
50
360
0
SPLINE
5
C2
100
AcDbEntity
8
SK1
62
256
6
ByLayer
370
18
48
1
60
0
100
AcDbSpline
70
4
71
3
72
8
73
4
40
0
40
0
40
0
40
0
40
1
40
1
40
1
40
1
41
1
10
-36
20
-2.03547968346049
30
0
41
1
10
-35.9170130920615
20
-2.12372191429614
30
0
41
1
10
-35.8336408488576
20
-2.21161879399864
30
0
41
1
10
-35.7499999999999
20
-2.29927493978647
30
0
0
SPLINE
5
C3
100
AcDbEntity
8
SK1
62
256
6
ByLayer
370
18
48
1
60
0
100
AcDbSpline
70
4
71
3
72
12
73
8
40
0
40
0
40
0
40
0
40
0.499999999999998
40
0.499999999999998
40
0.749999999999999
40
0.749999999999999
40
1
40
1
40
1
40
1
41
1
10
-35.75
20
2.29927493978653
30
0
41
1
10
-35.7260151107904
20
2.32441125743492
30
0
41
1
10
-35.7033639221375
20
2.3499208980046
30
0
41
1
10
-35.6754777620904
20
2.38367534396582
30
0
41
1
10
-35.667028628867
20
2.39440087483757
30
0
41
1
10
-35.6543320679982
20
2.41206516591217
30
0
41
1
10
-35.65
20
2.41916149976916
30
0
41
1
10
-35.65
20
2.42181129988015
30
0
0
SPLINE
5
C4
100
AcDbEntity
8
SK1
62
256
6
ByLayer
370
18
48
1
60
0
100
AcDbSpline
70
4
71
3
72
12
73
8
40
0
40
0
40
0
40
0
40
0.249999999999999
40
0.249999999999999
40
0.499999999999997
40
0.499999999999997
40
1
40
1
40
1
40
1
41
1
10
-35.65
20
-2.27046967960786
30
0
41
1
10
-35.65
20
-2.26387802733041
30
0
41
1
10
-35.6543359418175
20
-2.25318517129659
30
0
41
1
10
-35.6670061648031
20
-2.22969262957162
30
0
41
1
10
-35.6754132169202
20
-2.21664151144054
30
0
41
1
10
-35.7033957755317
20
-2.17715545366195
30
0
41
1
10
-35.7260247133437
20
-2.1497762474294
30
0
41
1
10
-35.7500000000001
20
-2.12464999331849
30
0
0
SPLINE
5
C5
100
AcDbEntity
8
SK1
62
256
6
ByLayer
370
18
48
1
60
0
100
AcDbSpline
70
4
71
3
72
12
73
8
40
0
40
0
40
0
40
0
40
0.500000000000002
40
0.500000000000002
40
0.750000000000001
40
0.750000000000001
40
1
40
1
40
1
40
1
41
1
10
-35.75
20
-2.29927493978653
30
0
41
1
10
-35.7260151107904
20
-2.32441125743492
30
0
41
1
10
-35.7033639221375
20
-2.3499208980046
30
0
41
1
10
-35.6754777620904
20
-2.38367534396582
30
0
41
1
10
-35.667028628867
20
-2.39440087483757
30
0
41
1
10
-35.6543320679982
20
-2.41206516591217
30
0
41
1
10
-35.65
20
-2.41916149976916
30
0
41
1
10
-35.65
20
-2.42181129988015
30
0
0
SPLINE
5
C6
100
AcDbEntity
8
SK1
62
256
6
ByLayer
370
18
48
1
60
0
100
AcDbSpline
70
4
71
3
72
8
73
4
40
0
40
0
40
0
40
0
40
1
40
1
40
1
40
1
41
1
10
-35.75
20
-2.1246499933184
30
0
41
1
10
-35.8336396431336
20
-2.03699511113709
30
0
41
1
10
-35.9170117443558
20
-1.94909840088007
30
0
41
1
10
-36
20
-1.86085473699245
30
0
0
SPLINE
5
C7
100
AcDbEntity
8
SK1
62
256
6
ByLayer
370
18
48
1
60
0
100
AcDbSpline
70
4
71
3
72
8
73
4
40
0
40
0
40
0
40
0
40
1
40
1
40
1
40
1
41
1
10
-36
20
2.03547968346049
30
0
41
1
10
-35.9170130920615
20
2.12372191429614
30
0
41
1
10
-35.8336408488576
20
2.21161879399864
30
0
41
1
10
-35.7499999999999
20
2.29927493978647
30
0
0
SPLINE
5
C8
100
AcDbEntity
8
1
62
256
6
ByLayer
370
13
48
1
60
0
100
AcDbSpline
70
4
71
3
72
8
73
4
40
0
40
0
40
0
40
0
40
1
40
1
40
1
40
1
41
1
10
4.25051354173453
20
-0.251167045446778
30
0
41
1
10
4.20935979089634
20
-0.238610446838436
30
0
41
1
10
4.16915224923969
20
-0.227454315845193
30
0
41
1
10
4.13242333655904
20
-0.218073122648264
30
0
0
SPLINE
5
C9
100
AcDbEntity
8
1
62
256
6
ByLayer
370
18
48
1
60
0
100
AcDbSpline
70
4
71
3
72
24
73
20
40
0
40
0
40
0
40
0
40
0.206199531394592
40
0.206199531394592
40
0.283887375783844
40
0.283887375783844
40
0.361575220173096
40
0.361575220173096
40
0.516950908951601
40
0.516950908951601
40
0.672326597730106
40
0.672326597730106
40
0.750014442119358
40
0.750014442119358
40
0.82770228650861
40
0.82770228650861
40
0.983077975287115
40
0.983077975287115
40
1
40
1
40
1
40
1
41
1
10
13.0793289336343
20
2.63472921965501
30
0
41
1
10
12.7069661400637
20
2.56297384647314
30
0
41
1
10
12.3326977855213
20
2.47659063160103
30
0
41
1
10
11.8123934671585
20
2.3364236455345
30
0
41
1
10
11.669450580796
20
2.29591828341046
30
0
41
1
10
11.3843734834032
20
2.21149488087136
30
0
41
1
10
11.2419789877458
20
2.16750949097644
30
0
41
1
10
10.8149064966555
20
2.03089831278595
30
0
41
1
10
10.5303505038599
20
1.9335718459341
30
0
41
1
10
9.9595222320273
20
1.73118560373626
30
0
41
1
10
9.67324425001004
20
1.62614026207714
30
0
41
1
10
9.24079517346186
20
1.46732923783171
30
0
41
1
10
9.0961384993756
20
1.4141935913438
30
0
41
1
10
8.80550779156741
20
1.30836817381513
30
0
41
1
10
8.65928086366097
20
1.25559017137701
30
0
41
1
10
8.22045426992912
20
1.10006516367673
30
0
41
1
10
7.92737695803109
20
1.00002629381066
30
0
41
1
10
7.60171258330189
20
0.897172427402438
30
0
41
1
10
7.56972008162728
20
0.887156657995121
30
0
41
1
10
7.53772166728731
20
0.877231724107872
30
0
0
SPLINE
5
CA
100
AcDbEntity
8
1
62
256
6
ByLayer
370
18
48
1
60
0
100
AcDbSpline
70
4
71
3
72
27
73
23
40
0
40
0
40
0
40
0
40
0.0139433457995833
40
0.0139433457995833
40
0.374100095598578
40
0.374100095598578
40
0.464139283048326
40
0.464139283048326
40
0.554178470498076
40
0.554178470498076
40
0.565433368929293
40
0.565433368929293
40
0.571060818144904
40
0.571060818144904
40
0.573874542752709
40
0.573874542752709
40
0.576688267360514
40
0.599198064222951
40
0.644217657947822
40
0.734256845397565
40
0.734256845397565
40
1
40
1
40
1
40
1
41
1
10
8.82593509346242
20
0.268159902494091
30
0
41
1
10
8.83097365551819
20
0.266614562518953
30
0
41
1
10
8.83601189875819
20
0.265069836132511
30
0
41
1
10
8.97117928254039
20
0.223641282790453
30
0
41
1
10
9.10118441511906
20
0.184162683257284
30
0
41
1
10
9.26266966735898
20
0.135356768012059
30
0
41
1
10
9.29491099067434
20
0.125622890813844
30
0
41
1
10
9.35910505014806
20
0.106216831907375
30
0
41
1
10
9.39138116022747
20
0.0965174325733074
30
0
41
1
10
9.42621872114461
20
0.0857273798191613
30
0
41
1
10
9.43006358800801
20
0.0845310129764982
30
0
41
1
10
9.43563741893144
20
0.0827529044409232
30
0
41
1
10
9.43749974708402
20
0.0821572232758569
30
0
41
1
10
9.43995482353677
20
0.0813049406769153
30
0
41
1
10
9.44112595104437
20
0.0808774092779174
30
0
41
1
10
9.43909787245522
20
0.0812341523654823
30
0
41
1
10
9.42997142552838
20
0.0828431541904706
30
0
41
1
10
9.40461824816128
20
0.0874039409551131
30
0
41
1
10
9.34781453736812
20
0.0981640977762765
30
0
41
1
10
9.29910823885371
20
0.108311831450152
30
0
41
1
10
9.17072836129643
20
0.136650189707922
30
0
41
1
10
9.07491497723177
20
0.161308716698557
30
0
41
1
10
8.97892172562763
20
0.189269285396136
30
0
0
SPLINE
5
CB
100
AcDbEntity
8
1
62
256
6
ByLayer
370
13
48
1
60
0
100
AcDbSpline
70
4
71
3
72
8
73
4
40
0
40
0
40
0
40
0
40
1
40
1
40
1
40
1
41
1
10
4.14175874350119
20
-0.317376208160482
30
0
41
1
10
4.16149594627638
20
-0.326796012408579
30
0
41
1
10
4.18227049317687
20
-0.337162725586666
30
0
41
1
10
4.20352178803915
20
-0.348326810298289
30
0
0
SPLINE
5
CC
100
AcDbEntity
8
1
62
256
6
ByLayer
370
18
48
1
60
0
100
AcDbSpline
70
4
71
3
72
12
73
8
40
0
40
0
40
0
40
0
40
0.5
40
0.5
40
0.75
40
0.75
40
1
40
1
40
1
40
1
41
1
10
4.25113501017429
20
2.25262380427947
30
0
41
1
10
4.5829215771889
20
2.14545386535633
30
0
41
1
10
4.91967455714459
20
2.02400271974733
30
0
41
1
10
5.43104764202178
20
1.82631953149109
30
0
41
1
10
5.60283635773891
20
1.75769212216286
30
0
41
1
10
5.9470537791905
20
1.61702036252149
30
0
41
1
10
6.11952251079236
20
1.54518770211317
30
0
41
1
10
6.29250353933719
20
1.47203520012721
30
0
0
SPLINE
5
CD
100
AcDbEntity
8
1
62
256
6
ByLayer
370
18
48
1
60
0
100
AcDbSpline
70
4
71
3
72
8
73
4
40
0
40
0
40
0
40
0
40
1
40
1
40
1
40
1
41
1
10
29.4492338837588
20
0.800363629216264
30
0
41
1
10
29.2484739721587
20
0.787657545400208
30
0
41
1
10
29.0465352857548
20
0.778452566190651
30
0
41
1
10
28.8444525047383
20
0.771528741034643
30
0
0
SPLINE
5
CE
100
AcDbEntity
8
1
62
256
6
ByLayer
370
13
48
1
60
0
100
AcDbSpline
70
4
71
3
72
10
73
6
40
0
40
0
40
0
40
0
40
0.5
40
0.5
40
1
40
1
40
1
40
1
41
1
10
4.04187400701699
20
-0.178082777695835
30
0
41
1
10
4.05284159414259
20
-0.186233022645865
30
0
41
1
10
4.06618732882728
20
-0.193922153585874
30
0
41
1
10
4.09650351389541
20
-0.207389455258181
30
0
41
1
10
4.11344011238273
20
-0.213224482148604
30
0
41
1
10
4.13242333655904
20
-0.218073122648264
30
0
0
SPLINE
5
CF
100
AcDbEntity
8
1
62
256
6
ByLayer
370
18
48
1
60
0
100
AcDbSpline
70
4
71
3
72
18
73
14
40
0
40
0
40
0
40
0
40
0.104300481602855
40
0.104300481602855
40
0.208600963205709
40
0.208600963205709
40
0.417201926411418
40
0.417201926411418
40
0.625802889617127
40
0.625802889617127
40
0.834403852822836
40
0.834403852822836
40
1
40
1
40
1
40
1
41
1
10
13.0791608772078
20
2.63475420810568
30
0
41
1
10
12.7965440627634
20
2.68298917672928
30
0
41
1
10
12.5105521469379
20
2.71708197341641
30
0
41
1
10
11.9322817295029
20
2.76313171014022
30
0
41
1
10
11.6391824287445
20
2.77500658687737
30
0
41
1
10
10.7569928469697
20
2.78356130372825
30
0
41
1
10
10.165219631257
20
2.75352081612599
30
0
41
1
10
8.96880835679767
20
2.65558119539679
30
0
41
1
10
8.36411441852118
20
2.58760067568954
30
0
41
1
10
7.13764487121105
20
2.44546350855305
30
0
41
1
10
6.5158740148625
20
2.37148702965166
30
0
41
1
10
5.38357479607421
20
2.25840843796774
30
0
41
1
10
4.87905775650776
20
2.21563913968225
30
0
41
1
10
4.3724381529484
20
2.18447319804011
30
0
0
SPLINE
5
D0
100
AcDbEntity
8
1
62
256
6
ByLayer
370
18
48
1
60
0
100
AcDbSpline
70
4
71
3
72
16
73
12
40
0
40
0
40
0
40
0
40
0.0872109695929964
40
0.0872109695929964
40
0.188631972971549
40
0.188631972971549
40
0.391473979728662
40
0.391473979728662
40
0.594315986485774
40
0.594315986485774
40
1
40
1
40
1
40
1
41
1
10
2.26220818489187
20
2.76756764977785
30
0
41
1
10
2.30203103918177
20
2.76686438386687
30
0
41
1
10
2.34452926663036
20
2.76456797526717
30
0
41
1
10
2.43962582234209
20
2.75688988048375
30
0
41
1
10
2.49302375823831
20
2.75105840739118
30
0
41
1
10
2.65835579443495
20
2.72939758739983
30
0
41
1
10
2.7755692751818
20
2.70940467132158
30
0
41
1
10
3.01795170678358
20
2.66124571865385
30
0
41
1
10
3.14191333011058
20
2.63331918695894
30
0
41
1
10
3.51945997996881
20
2.54039982172236
30
0
41
1
10
3.77858476749952
20
2.46635718639166
30
0
41
1
10
4.04241170967941
20
2.38305804123613
30
0
0
SPLINE
5
D1
100
AcDbEntity
8
1
62
256
6
ByLayer
370
18
48
1
60
0
100
AcDbSpline
70
4
71
3
72
14
73
10
40
0
40
0
40
0
40
0
40
0.5
40
0.5
40
0.75
40
0.75
40
0.875
40
0.875
40
1
40
1
40
1
40
1
41
1
10
28.5697013163578
20
-1.95798013182096
30
0
41
1
10
28.2913476301292
20
-1.80226270099223
30
0
41
1
10
28.021864138986
20
-1.62394459801618
30
0
41
1
10
27.6350147245816
20
-1.31219499412475
30
0
41
1
10
27.5090043663181
20
-1.200788943552
30
0
41
1
10
27.3256810470477
20
-1.0191764712755
30
0
41
1
10
27.2652863465073
20
-0.955905242411831
30
0
41
1
10
27.1484998848419
20
-0.82551599075461
30
0
41
1
10
27.0920180045354
20
-0.758338625792561
30
0
41
1
10
27.0376829452518
20
-0.688934256418378
30
0
0
SPLINE
5
D2
100
AcDbEntity
8
1
62
256
6
ByLayer
370
18
48
1
60
0
100
AcDbSpline
70
4
71
3
72
10
73
6
40
0
40
0
40
0
40
0
40
0.5
40
0.5
40
1
40
1
40
1
40
1
41
1
10
4.04241170968163
20
2.38305804123542
30
0
41
1
10
4.06651709575627
20
2.35436271495206
30
0
41
1
10
4.10057590281031
20
2.32667839850291
30
0
41
1
10
4.17467164464887
20
2.28182233293299
30
0
41
1
10
4.21398252523519
20
2.2646243791591
30
0
41
1
10
4.25113500991412
20
2.25262380436348
30
0
0
SPLINE
5
D3
100
AcDbEntity
8
1
62
256
6
ByLayer
370
18
48
1
60
0
100
AcDbSpline
70
4
71
3
72
14
73
10
40
0
40
0
40
0
40
0
40
0.249999999999999
40
0.249999999999999
40
0.499999999999998
40
0.499999999999998
40
0.749999999999999
40
0.749999999999999
40
1
40
1
40
1
40
1
41
1
10
29.066618164451
20
-2.65744069939856
30
0
41
1
10
29.068502682221
20
-2.65538166571861
30
0
41
1
10
29.0697344617799
20
-2.65512996243484
30
0
41
1
10
29.0704987280385
20
-2.65933163299638
30
0
41
1
10
29.0699769732689
20
-2.66382242480523
30
0
41
1
10
29.0666886584543
20
-2.67819538748137
30
0
41
1
10
29.0638812470163
20
-2.68815236422478
30
0
41
1
10
29.056484233802
20
-2.71141515383243
30
0
41
1
10
29.0519569767463
20
-2.72454493184401
30
0
41
1
10
29.0471943477601
20
-2.73760237236726
30
0
0
SPLINE
5
D4
100
AcDbEntity
8
1
62
256
6
ByLayer
370
18
48
1
60
0
100
AcDbSpline
70
4
71
3
72
42
73
38
40
0
40
0
40
0
40
0
40
0.0898069154912769
40
0.0898069154912769
40
0.134710373236915
40
0.134710373236915
40
0.179613830982555
40
0.179613830982555
40
0.269420746473833
40
0.269420746473833
40
0.314324204219471
40
0.314324204219471
40
0.35922766196511
40
0.35922766196511
40
0.449034577456387
40
0.449034577456387
40
0.493938035202025
40
0.493938035202025
40
0.538841492947663
40
0.538841492947663
40
0.628648408438938
40
0.628648408438938
40
0.718455323930213
40
0.718455323930213
40
0.740907052803032
40
0.740907052803032
40
0.763358781675851
40
0.763358781675851
40
0.80826223942149
40
0.80826223942149
40
0.898069154912766
40
0.898069154912766
40
0.942972612658404
40
0.942972612658404
40
0.987876070404042
40
0.987876070404042
40
1
40
1
40
1
40
1
41
1
10
29.0422442619716
20
-2.75117061748833
30
0
41
1
10
28.5206077569097
20
-2.80286542037229
30
0
41
1
10
28.001148439703
20
-2.81247069661964
30
0
41
1
10
27.2180138073596
20
-2.76389732074517
30
0
41
1
10
26.9566537951316
20
-2.73713271001071
30
0
41
1
10
26.4376544009026
20
-2.66377466655482
30
0
41
1
10
26.1792008681766
20
-2.61717010800183
30
0
41
1
10
25.4049729563727
20
-2.44939168044419
30
0
41
1
10
24.8904507133896
20
-2.30013672740506
30
0
41
1
10
24.1134740619562
20
-2.02753159621412
30
0
41
1
10
23.853664570087
20
-1.92848798518682
30
0
41
1
10
23.3310552112155
20
-1.71541394702976
30
0
41
1
10
23.0705629100766
20
-1.60244519825412
30
0
41
1
10
22.2930555399694
20
-1.2484650379451
30
0
41
1
10
21.7783254025136
20
-0.992346249345644
30
0
41
1
10
21.004259040546
20
-0.591221905726172
30
0
41
1
10
20.7459120941333
20
-0.454682022551992
30
0
41
1
10
20.2272235886323
20
-0.178389965707169
30
0
41
1
10
19.966340994911
20
-0.0382782389997658
30
0
41
1
10
19.1825040207709
20
0.381277880824058
30
0
41
1
10
18.6658098176048
20
0.656121193772179
30
0
41
1
10
17.6339364381606
20
1.17773980938532
30
0
41
1
10
17.1185670960173
20
1.42419656903158
30
0
41
1
10
16.4692066382506
20
1.70401182110632
30
0
41
1
10
16.3390548999054
20
1.75852591200737
30
0
41
1
10
16.0780329857668
20
1.86438269867224
30
0
41
1
10
15.9470164674673
20
1.91577484489056
30
0
41
1
10
15.5556543478593
20
2.0636866524234
30
0
41
1
10
15.2961175988993
20
2.15437254496683
30
0
41
1
10
14.5197095790114
20
2.40085011431975
30
0
41
1
10
14.0047018002424
20
2.53072427099275
30
0
41
1
10
13.2292884226534
20
2.66804803439447
30
0
41
1
10
12.9702042860084
20
2.70415094791915
30
0
41
1
10
12.4496878277341
20
2.75612960674451
30
0
41
1
10
12.187374249542
20
2.77198213128344
30
0
41
1
10
11.8564877095495
20
2.77863085583678
30
0
41
1
10
11.7862322070069
20
2.77927983250626
30
0
41
1
10
11.7160543762677
20
2.7791702293363
30
0
0
SPLINE
5
D5
100
AcDbEntity
8
1
62
256
6
ByLayer
370
18
48
1
60
0
100
AcDbSpline
70
4
71
3
72
20
73
16
40
0
40
0
40
0
40
0
40
0.125
40
0.125
40
0.25
40
0.25
40
0.375
40
0.375
40
0.5
40
0.5
40
0.625
40
0.625
40
0.75
40
0.75
40
1
40
1
40
1
40
1
41
1
10
4.04187400702708
20
-0.178082777665764
30
0
41
1
10
4.04191122223565
20
-0.0505967282167035
30
0
41
1
10
4.04194520279856
20
0.0770344186506691
30
0
41
1
10
4.04200809976538
20
0.332589489869292
30
0
41
1
10
4.04203646235416
20
0.458225554295069
30
0
41
1
10
4.04208880485635
20
0.705337475938194
30
0
41
1
10
4.04211278149558
20
0.82682164238517
30
0
41
1
10
4.04215787807061
20
1.06558249636711
30
0
41
1
10
4.04217907727843
20
1.18335484199991
30
0
41
1
10
4.04221883151783
20
1.4076309230482
30
0
41
1
10
4.04223755294203
20
1.51499142835954
30
0
41
1
10
4.04227397570969
20
1.72025585075701
30
0
41
1
10
4.04229173863695
20
1.81849806229053
30
0
41
1
10
4.04234450279571
20
2.09619051899614
30
0
41
1
10
4.0423781441385
20
2.25337650942322
30
0
41
1
10
4.04241170968163
20
2.38305804123544
30
0
0
SPLINE
5
D6
100
AcDbEntity
8
1
62
256
6
ByLayer
370
18
48
1
60
0
100
AcDbSpline
70
4
71
3
72
8
73
4
40
0
40
0
40
0
40
0
40
1
40
1
40
1
40
1
41
1
10
4.42721650480968
20
-2.19458553588396
30
0
41
1
10
4.36841139640535
20
-2.21434796072057
30
0
41
1
10
4.30971654065948
20
-2.23370146182185
30
0
41
1
10
4.25113501000635
20
-2.25262380433367
30
0
0
SPLINE
5
D7
100
AcDbEntity
8
1
62
256
6
ByLayer
370
18
48
1
60
0
100
AcDbSpline
70
4
71
3
72
58
73
54
40
0
40
0
40
0
40
0
40
0.0035075686321513
40
0.0035075686321513
40
0.0433672658868662
40
0.0433672658868662
40
0.083226963141581
40
0.083226963141581
40
0.123086660396296
40
0.123086660396296
40
0.162946357651011
40
0.162946357651011
40
0.202806054905726
40
0.202806054905726
40
0.242665752160441
40
0.242665752160441
40
0.282525449415155
40
0.282525449415155
40
0.32238514666987
40
0.32238514666987
40
0.362244843924585
40
0.362244843924585
40
0.4021045411793
40
0.4021045411793
40
0.441964238434015
40
0.441964238434015
40
0.48182393568873
40
0.48182393568873
40
0.521683632943445
40
0.521683632943445
40
0.541613481570801
40
0.541613481570801
40
0.561543330198158
40
0.561543330198158
40
0.601403027452871
40
0.601403027452871
40
0.641262724707584
40
0.641262724707584
40
0.681122421962297
40
0.681122421962297
40
0.760841816471723
40
0.760841816471723
40
0.800701513726436
40
0.800701513726436
40
0.840561210981149
40
0.840561210981149
40
0.880420908235861
40
0.880420908235861
40
0.920280605490574
40
0.920280605490574
40
0.960140302745287
40
0.960140302745287
40
1
40
1
40
1
40
1
41
1
10
22.5578489631087
20
-1.51619623550187
30
0
41
1
10
22.5388634479856
20
-1.52426380090304
30
0
41
1
10
22.5198804424829
20
-1.53229802876061
30
0
41
1
10
22.2852060887991
20
-1.6312088336945
30
0
41
1
10
22.0695238657742
20
-1.71696254416096
30
0
41
1
10
21.6375435413906
20
-1.88089890973325
30
0
41
1
10
21.4212024025686
20
-1.95921198999966
30
0
41
1
10
20.9885944584947
20
-2.10434372799804
30
0
41
1
10
20.772736906882
20
-2.17089675037309
30
0
41
1
10
20.3414697632182
20
-2.29201145414461
30
0
41
1
10
20.1257429383727
20
-2.34736937850366
30
0
41
1
10
19.6936768531922
20
-2.44636044281523
30
0
41
1
10
19.4772319867775
20
-2.49020407313543
30
0
41
1
10
19.0449928651868
20
-2.56284851637369
30
0
41
1
10
18.829133582986
20
-2.59207983644248
30
0
41
1
10
18.3978108176256
20
-2.63797532827601
30
0
41
1
10
18.1822203013728
20
-2.65352781018279
30
0
41
1
10
17.7501057531997
20
-2.67259292945801
30
0
41
1
10
17.5335498691821
20
-2.67580638374102
30
0
41
1
10
17.1015231980695
20
-2.66730587659885
30
0
41
1
10
16.8857179139077
20
-2.65551823114325
30
0
41
1
10
16.4543997189261
20
-2.61842527844692
30
0
41
1
10
16.238814103924
20
-2.59379994295239
30
0
41
1
10
15.8066590899902
20
-2.53126972456411
30
0
41
1
10
15.5900189559459
20
-2.49284649107182
30
0
41
1
10
15.1581846131997
20
-2.40312390224227
30
0
41
1
10
14.9423290454537
20
-2.35237788089214
30
0
41
1
10
14.5107151698518
20
-2.2396231106751
30
0
41
1
10
14.2950848043077
20
-2.17749256887015
30
0
41
1
10
13.9708155673333
20
-2.07509702720537
30
0
41
1
10
13.8625196055722
20
-2.03885506225399
30
0
41
1
10
13.6460377915859
20
-1.96473435131574
30
0
41
1
10
13.5378820225282
20
-1.92670522843866
30
0
41
1
10
13.2137337129024
20
-1.80908138385683
30
0
41
1
10
12.9977682613925
20
-1.72639133877166
30
0
41
1
10
12.5657018772556
20
-1.55189627747009
30
0
41
1
10
12.3498163603131
20
-1.45917192649665
30
0
41
1
10
11.916865481038
20
-1.26790804130269
30
0
41
1
10
11.700151914067
20
-1.16882006817025
30
0
41
1
10
11.0519407178318
20
-0.863484336932004
30
0
41
1
10
10.620373889883
20
-0.651076497331417
30
0
41
1
10
9.97051526030808
20
-0.321367068277368
30
0
41
1
10
9.7539508658397
20
-0.21096124063871
30
0
41
1
10
9.32148131856451
20
0.010214030582631
30
0
41
1
10
9.10559546524743
20
0.121288014095569
30
0
41
1
10
8.67315904778548
20
0.341638232818155
30
0
41
1
10
8.45678468095014
20
0.451314213659231
30
0
41
1
10
8.02320310341219
20
0.668456231114362
30
0
41
1
10
7.80669850436499
20
0.775073052239946
30
0
41
1
10
7.37418933256799
20
0.983801266701335
30
0
41
1
10
7.158345237254
20
1.08618740253988
30
0
41
1
10
6.72588983418842
20
1.28403431715708
30
0
41
1
10
6.5093689444067
20
1.37978307169899
30
0
41
1
10
6.29253963993244
20
1.47199507513409
30
0
0
SPLINE
5
D8
100
AcDbEntity
8
1
62
256
6
ByLayer
370
18
48
1
60
0
100
AcDbSpline
70
4
71
3
72
8
73
4
40
0
40
0
40
0
40
0
40
1
40
1
40
1
40
1
41
1
10
4.14175874352688
20
-0.31737620817276
30
0
41
1
10
4.13803522178884
20
-0.315407737918093
30
0
41
1
10
4.13432841544397
20
-0.313407096583489
30
0
41
1
10
4.13064849490834
20
-0.311358792724832
30
0
0
SPLINE
5
D9
100
AcDbEntity
8
1
62
256
6
ByLayer
370
18
48
1
60
0
100
AcDbSpline
70
4
71
3
72
58
73
54
40
0
40
0
40
0
40
0
40
0.128603618022014
40
0.128603618022014
40
0.273836348351683
40
0.273836348351683
40
0.419069078681352
40
0.419069078681352
40
0.564301809011022
40
0.564301809011022
40
0.600609991593438
40
0.600609991593438
40
0.609687037239043
40
0.614225560061844
40
0.614225560061844
40
0.616494821473245
40
0.616494821473245
40
0.618764082884646
40
0.618764082884646
40
0.623302605707447
40
0.623302605707447
40
0.627841128530249
40
0.636918174175852
40
0.636918174175852
40
0.673226356758265
40
0.673226356758265
40
0.691380448049472
40
0.691380448049472
40
0.709534539340679
40
0.709534539340679
40
0.727688630631887
40
0.727688630631887
40
0.745842721923094
40
0.745842721923094
40
0.763996813214301
40
0.763996813214301
40
0.773073858859905
40
0.773073858859905
40
0.782150904505509
40
0.782150904505509
40
0.800304995796716
40
0.800304995796716
40
0.818459087087923
40
0.818459087087923
40
0.83661317837913
40
0.83661317837913
40
0.854767269670337
40
0.854767269670337
40
0.891075452252753
40
0.891075452252753
40
0.927383634835169
40
0.927383634835169
40
1
40
1
40
1
40
1
41
1
10
11.1429506362634
20
-2.77843660746586
30
0
41
1
10
10.6213927380688
20
-2.7764338795771
30
0
41
1
10
10.0967252312548
20
-2.74791378474683
30
0
41
1
10
8.96880835679721
20
-2.65558119539676
30
0
41
1
10
8.3641144185207
20
-2.58760067568949
30
0
41
1
10
7.13764487121045
20
-2.44546350855296
30
0
41
1
10
6.51587401486185
20
-2.37148702965158
30
0
41
1
10
5.25344466347181
20
-2.24541281641632
30
0
41
1
10
4.61678317732287
20
-2.19391548071786
30
0
41
1
10
3.81747086402012
20
-2.15479067285781
30
0
41
1
10
3.65745416395973
20
-2.14819846582446
30
0
41
1
10
3.4572393582414
20
-2.14159301506251
30
0
41
1
10
3.3971687537925
20
-2.13973413106899
30
0
41
1
10
3.33708887002086
20
-2.13806145946356
30
0
41
1
10
3.30704737852372
20
-2.13725632089694
30
0
41
1
10
3.29703982716893
20
-2.13685975623378
30
0
41
1
10
3.27697131354751
20
-2.13715622831395
30
0
41
1
10
3.26678186487845
20
-2.13777669691049
30
0
41
1
10
3.23718783265184
20
-2.1413923294478
30
0
41
1
10
3.21962317575586
20
-2.14698894718131
30
0
41
1
10
3.18368994840279
20
-2.15692896902178
30
0
41
1
10
3.12992833920018
20
-2.17195957075143
30
0
41
1
10
3.07659241559438
20
-2.18736081148015
30
0
41
1
10
2.89987638607741
20
-2.23955094615059
30
0
41
1
10
2.76304108088391
20
-2.28363317042954
30
0
41
1
10
2.56835795166512
20
-2.35381446269849
30
0
41
1
10
2.50524759422274
20
-2.37788849214715
30
0
41
1
10
2.3838761102586
20
-2.42759149415554
30
0
41
1
10
2.32590652681864
20
-2.45312286625347
30
0
41
1
10
2.21985332685358
20
-2.50453663141104
30
0
41
1
10
2.17099071788664
20
-2.53083141975097
30
0
41
1
10
2.08908007648949
20
-2.58215882413896
30
0
41
1
10
2.05598692394858
20
-2.60715034116322
30
0
41
1
10
2.01063860117858
20
-2.65435927496856
30
0
41
1
10
1.99961550169803
20
-2.67532922658387
30
0
41
1
10
2.00020901917071
20
-2.70239176823816
30
0
41
1
10
2.00333720537512
20
-2.71072488256235
30
0
41
1
10
2.01483903032326
20
-2.72542356461293
30
0
41
1
10
2.0231704003765
20
-2.73185153253624
30
0
41
1
10
2.05491299131239
20
-2.74861541804648
30
0
41
1
10
2.08522563809393
20
-2.75637483022109
30
0
41
1
10
2.1564859508791
20
-2.76598841836614
30
0
41
1
10
2.19770009002014
20
-2.76798666388768
30
0
41
1
10
2.2882208129943
20
-2.76757945365264
30
0
41
1
10
2.33736544785648
20
-2.76514638191023
30
0
41
1
10
2.4396258223434
20
-2.75688988048358
30
0
41
1
10
2.49302375823964
20
-2.75105840739101
30
0
41
1
10
2.6583557944364
20
-2.7293975873996
30
0
41
1
10
2.77556927518333
20
-2.70940467132127
30
0
41
1
10
3.01795170678525
20
-2.66124571865348
30
0
41
1
10
3.14191333011235
20
-2.63331918695852
30
0
41
1
10
3.51945997997075
20
-2.54039982172182
30
0
41
1
10
3.77858476750151
20
-2.46635718639107
30
0
41
1
10
4.04241170968157
20
-2.38305804123544
30
0
0
SPLINE
5
DA
100
AcDbEntity
8
1
62
256
6
ByLayer
370
18
48
1
60
0
100
AcDbSpline
70
4
71
3
72
22
73
18
40
0
40
0
40
0
40
0
40
0.125
40
0.125
40
0.25
40
0.25
40
0.375
40
0.375
40
0.5
40
0.5
40
0.625
40
0.625
40
0.75
40
0.75
40
0.875
40
0.875
40
1
40
1
40
1
40
1
41
1
10
29.0718050867575
20
2.71118457867075
30
0
41
1
10
29.0962657877599
20
2.65095138492649
30
0
41
1
10
29.1208456712824
20
2.59001279696034
30
0
41
1
10
29.1703593760597
20
2.46604080350906
30
0
41
1
10
29.1953612246945
20
2.40274108398671
30
0
41
1
10
29.2454587863416
20
2.27489246917588
30
0
41
1
10
29.2705216732066
20
2.21056365086804
30
0
41
1
10
29.3206979150663
20
2.08045876850264
30
0
41
1
10
29.3458133360628
20
2.01462345889053
30
0
41
1
10
29.3960724801881
20
1.88214123556267
30
0
41
1
10
29.4211937173731
20
1.81551107787684
30
0
41
1
10
29.4711067928836
20
1.68184179745211
30
0
41
1
10
29.4959353045081
20
1.61473461786088
30
0
41
1
10
29.545405907401
20
1.48012341087988
30
0
41
1
10
29.570141480103
20
1.41257966229128
30
0
41
1
10
29.619020125489
20
1.27762421151374
30
0
41
1
10
29.6431830243915
20
1.2102670559926
30
0
41
1
10
29.6672129955036
20
1.14296788059707
30
0
0
SPLINE
5
DB
100
AcDbEntity
8
1
62
256
6
ByLayer
370
18
48
1
60
0
100
AcDbSpline
70
4
71
3
72
16
73
12
40
0
40
0
40
0
40
0
40
0.216205833095136
40
0.216205833095136
40
0.45630107339547
40
0.45630107339547
40
0.696396313695803
40
0.696396313695803
40
0.936491553996135
40
0.936491553996135
40
1
40
1
40
1
40
1
41
1
10
11.9495839131682
20
-2.66764321766948
30
0
41
1
10
11.7174458893865
20
-2.66773028642743
30
0
41
1
10
11.4848191556847
20
-2.659821671743
30
0
41
1
10
10.9919913985193
20
-2.62622235601165
30
0
41
1
10
10.7309823635277
20
-2.59858737511189
30
0
41
1
10
10.210614142607
20
-2.52414050995117
30
0
41
1
10
9.9508316741987
20
-2.47726244851938
30
0
41
1
10
9.43117866894525
20
-2.36548633158904
30
0
41
1
10
9.17087043278838
20
-2.30050613047075
30
0
41
1
10
8.84140255864125
20
-2.20770724716203
30
0
41
1
10
8.77258283467282
20
-2.18773384347242
30
0
41
1
10
8.7038503740537
20
-2.1672171600502
30
0
0
SPLINE
5
DC
100
AcDbEntity
8
1
62
256
6
ByLayer
370
13
48
1
60
0
100
AcDbSpline
70
4
71
3
72
14
73
10
40
0
40
0
40
0
40
0
40
0.302587638802593
40
0.302587638802593
40
0.651293819401296
40
0.651293819401296
40
0.825646909700648
40
0.825646909700648
40
1
40
1
40
1
40
1
41
1
10
8.70385133207239
20
-2.16721744601938
30
0
41
1
10
8.25289395625322
20
-2.03260641583742
30
0
41
1
10
7.80569304542294
20
-1.87460858754019
30
0
41
1
10
6.84405402004509
20
-1.49529560375365
30
0
41
1
10
6.3299217562014
20
-1.26765786115234
30
0
41
1
10
5.55317094250535
20
-0.900458942458044
30
0
41
1
10
5.29272849730285
20
-0.773549444676206
30
0
41
1
10
4.77149691870227
20
-0.515013839666835
30
0
41
1
10
4.51113809013683
20
-0.383645150495624
30
0
41
1
10
4.25051354173445
20
-0.251167045446749
30
0
0
SPLINE
5
DD
100
AcDbEntity
8
1
62
256
6
ByLayer
370
18
48
1
60
0
100
AcDbSpline
70
4
71
3
72
34
73
30
40
0
40
0
40
0
40
0
40
0.0030291942483727
40
0.0030291942483727
40
0.079719256229266
40
0.079719256229266
40
0.15640931821016
40
0.15640931821016
40
0.233099380191053
40
0.233099380191053
40
0.309789442171946
40
0.309789442171946
40
0.38647950415284
40
0.38647950415284
40
0.463169566133734
40
0.463169566133734
40
0.539859628114627
40
0.539859628114627
40
0.616549690095521
40
0.616549690095521
40
0.693239752076416
40
0.693239752076416
40
0.769929814057312
40
0.769929814057312
40
0.846619876038208
40
0.846619876038208
40
0.923309938019104
40
0.923309938019104
40
1
40
1
40
1
40
1
41
1
10
22.558891376649
20
1.51577388406258
30
0
41
1
10
22.5654750944346
20
1.51873976786231
30
0
41
1
10
22.5720587623854
20
1.52170085641472
30
0
41
1
10
22.7453197548179
20
1.59949851315122
30
0
41
1
10
22.9120027048806
20
1.67160016908375
30
0
41
1
10
23.2447493433654
20
1.81128893483034
30
0
41
1
10
23.4108207242817
20
1.8788261911925
30
0
41
1
10
23.7437447860952
20
2.00732484107357
30
0
41
1
10
23.9105851136745
20
2.06834045393492
30
0
41
1
10
24.2444588981889
20
2.18460531036379
30
0
41
1
10
24.4108500983349
20
2.23985486120782
30
0
41
1
10
24.7438071888927
20
2.34243956419016
30
0
41
1
10
24.910393787681
20
2.38992398662023
30
0
41
1
10
25.2431617761046
20
2.47793546792306
30
0
41
1
10
25.4092587717855
20
2.51848933443998
30
0
41
1
10
25.7422259336771
20
2.59148335305161
30
0
41
1
10
25.9093779310762
20
2.62394289493696
30
0
41
1
10
26.2430288676203
20
2.68090790528697
30
0
41
1
10
26.4092176027939
20
2.70546557690042
30
0
41
1
10
26.7417724081503
20
2.74596871997352
30
0
41
1
10
26.9082499299823
20
2.76192866505798
30
0
41
1
10
27.2409914346384
20
2.7855527256682
30
0
41
1
10
27.4071183354821
20
2.79319705129177
30
0
41
1
10
27.740078293266
20
2.79982545353872
30
0
41
1
10
27.9072622204455
20
2.79883437098323
30
0
41
1
10
28.2406783493907
20
2.78833677479076
30
0
41
1
10
28.4068545466346
20
2.77878164278491
30
0
41
1
10
28.7390759224189
20
2.75116928717475
30
0
41
1
10
28.9054557420716
20
2.73325561360693
30
0
41
1
10
29.071805086741
20
2.71118457868121
30
0
0
SPLINE
5
DE
100
AcDbEntity
8
1
62
256
6
ByLayer
370
18
48
1
60
0
100
AcDbSpline
70
4
71
3
72
38
73
34
40
0
40
0
40
0
40
0
40
0.0312499999999942
40
0.0312499999999942
40
0.0624999999999883
40
0.0624999999999883
40
0.0781249999999879
40
0.0781249999999879
40
0.0937499999999876
40
0.0937499999999876
40
0.124999999999992
40
0.124999999999992
40
0.187499999999997
40
0.187499999999997
40
0.21875
40
0.21875
40
0.250000000000004
40
0.250000000000004
40
0.281250000000008
40
0.281250000000008
40
0.312500000000011
40
0.312500000000011
40
0.375000000000019
40
0.375000000000019
40
0.406250000000019
40
0.406250000000019
40
0.43750000000002
40
0.43750000000002
40
0.500000000000021
40
0.500000000000021
40
0.750000000000011
40
0.750000000000011
40
1
40
1
40
1
40
1
41
1
10
28.796043523042
20
0.658698387518342
30
0
41
1
10
28.8153678615004
20
0.62062428624975
30
0
41
1
10
28.8354637670538
20
0.582971026310247
30
0
41
1
10
28.8769838769636
20
0.508389009895808
30
0
41
1
10
28.8985594839238
20
0.471541379527452
30
0
41
1
10
28.9309657944435
20
0.416298207662237
30
0
41
1
10
28.9418167777051
20
0.397919315536257
30
0
41
1
10
28.9639807314085
20
0.361497045444281
30
0
41
1
10
28.9753779123162
20
0.343517604630477
30
0
41
1
10
29.0091599964302
20
0.289268683826947
30
0
41
1
10
29.030915442105
20
0.252540404012905
30
0
41
1
10
29.0926683093192
20
0.140033252116268
30
0
41
1
10
29.128600768779
20
0.0627530147285427
30
0
41
1
10
29.1680187904461
20
-0.0577596299488334
30
0
41
1
10
29.1789202356466
20
-0.099117464775702
30
0
41
1
10
29.1940015561521
20
-0.182073845784004
30
0
41
1
10
29.198182650557
20
-0.22317644246499
30
0
41
1
10
29.1981214520482
20
-0.304439915262435
30
0
41
1
10
29.1936817521351
20
-0.343985542545198
30
0
41
1
10
29.1758141585498
20
-0.417292957247412
30
0
41
1
10
29.1621367094365
20
-0.452035238484427
30
0
41
1
10
29.1098670328622
20
-0.54416219453023
30
0
41
1
10
29.0601643350225
20
-0.591301520884144
30
0
41
1
10
28.977363752848
20
-0.644962787856599
30
0
41
1
10
28.9481994120587
20
-0.659216690212389
30
0
41
1
10
28.8895254806864
20
-0.686922551659052
30
0
41
1
10
28.8598159316231
20
-0.699910048903718
30
0
41
1
10
28.7695880560444
20
-0.736319262348331
30
0
41
1
10
28.7079280620046
20
-0.757205456800136
30
0
41
1
10
28.3930556326505
20
-0.845172278394188
30
0
41
1
10
28.1290151615998
20
-0.861243337944103
30
0
41
1
10
27.5845204968586
20
-0.819981918119225
30
0
41
1
10
27.3111811508394
20
-0.762669226604089
30
0
41
1
10
27.0376829452517
20
-0.688934256418378
30
0
0
SPLINE
5
DF
100
AcDbEntity
8
1
62
256
6
ByLayer
370
18
48
1
60
0
100
AcDbSpline
70
4
71
3
72
22
73
18
40
0
40
0
40
0
40
0
40
0.125
40
0.125
40
0.249999999999999
40
0.249999999999999
40
0.374999999999999
40
0.374999999999999
40
0.499999999999999
40
0.499999999999999
40
0.624999999999999
40
0.624999999999999
40
0.749999999999999
40
0.749999999999999
40
0.875
40
0.875
40
1
40
1
40
1
40
1
41
1
10
29.0718050867575
20
-2.71118457867067
30
0
41
1
10
29.0962657905117
20
-2.65095137815021
30
0
41
1
10
29.1208456745272
20
-2.5900127888402
30
0
41
1
10
29.1703593733272
20
-2.46604081034613
30
0
41
1
10
29.1953612099987
20
-2.40274112137487
30
0
41
1
10
29.2454587836547
20
-2.27489247614815
30
0
41
1
10
29.2705216742921
20
-2.2105636480691
30
0
41
1
10
29.3206979156635
20
-2.0804587669389
30
0
41
1
10
29.3458133320659
20
-2.01462346931711
30
0
41
1
10
29.3960724624725
20
-1.88214128236927
30
0
41
1
10
29.421193709875
20
-1.81551109785431
30
0
41
1
10
29.4711067875093
20
-1.68184181194741
30
0
41
1
10
29.4959352961142
20
-1.61473464053069
30
0
41
1
10
29.5454058871695
20
-1.48012346610091
30
0
41
1
10
29.5701414514289
20
-1.41257974114117
30
0
41
1
10
29.6190201170087
20
-1.27762423524805
30
0
41
1
10
29.6431830212316
20
-1.21026706484236
30
0
41
1
10
29.6672129955035
20
-1.14296788059713
30
0
0
SPLINE
5
E0
100
AcDbEntity
8
1
62
256
6
ByLayer
370
13
48
1
60
0
100
AcDbSpline
70
4
71
3
72
20
73
16
40
0
40
0
40
0
40
0
40
0.125
40
0.125
40
0.25
40
0.25
40
0.5
40
0.5
40
0.625
40
0.625
40
0.75
40
0.75
40
0.875
40
0.875
40
1
40
1
40
1
40
1
41
1
10
4.25051354173453
20
-0.251167045446749
30
0
41
1
10
4.2505585266307
20
-0.128399942094234
30
0
41
1
10
4.25059905531731
20
-0.0058495144122048
30
0
41
1
10
4.25067323770534
20
0.238827155001928
30
0
41
1
10
4.25070707741915
20
0.36173259277524
30
0
41
1
10
4.25079948785339
20
0.723572715218467
30
0
41
1
10
4.25084898563262
20
0.954413737293066
30
0
41
1
10
4.25091693843734
20
1.2850284660959
30
0
41
1
10
4.2509383487191
20
1.39184434004673
30
0
41
1
10
4.25097966914541
20
1.59532483878394
30
0
41
1
10
4.25099971102924
20
1.69258112803143
30
0
41
1
10
4.25103883974572
20
1.87361931617321
30
0
41
1
10
4.25105804612841
20
1.95802027975276
30
0
41
1
10
4.25109647919231
20
2.11465920983821
30
0
41
1
10
4.25111580459159
20
2.18722862077624
30
0
41
1
10
4.25113500991409
20
2.25262380427841
30
0
0
SPLINE
5
E1
100
AcDbEntity
8
1
62
256
6
ByLayer
370
18
48
1
60
0
100
AcDbSpline
70
4
71
3
72
16
73
12
40
0
40
0
40
0
40
0
40
0.124999999999994
40
0.124999999999994
40
0.249999999999988
40
0.249999999999988
40
0.499999999999992
40
0.499999999999992
40
0.749999999999996
40
0.749999999999996
40
1
40
1
40
1
40
1
41
1
10
29.6672129955036
20
1.14296788059707
30
0
41
1
10
29.673120822228
20
1.12448067495149
30
0
41
1
10
29.6770806115386
20
1.10570683091831
30
0
41
1
10
29.6803188346967
20
1.06745982834963
30
0
41
1
10
29.6794785124993
20
1.04821077266422
30
0
41
1
10
29.6693207740944
20
0.992860827823591
30
0
41
1
10
29.6518496801758
20
0.958346954755797
30
0
41
1
10
29.6052173753508
20
0.900136051121791
30
0
41
1
10
29.5769520211429
20
0.876142519879778
30
0
41
1
10
29.5153211263906
20
0.833818000932439
30
0
41
1
10
29.4827725713251
20
0.816132276895758
30
0
41
1
10
29.4492338837588
20
0.800363629216264
30
0
0
SPLINE
5
E2
100
AcDbEntity
8
1
62
256
6
ByLayer
370
18
48
1
60
0
100
AcDbSpline
70
4
71
3
72
14
73
10
40
0
40
0
40
0
40
0
40
0.204939173358809
40
0.204939173358809
40
0.409878346717619
40
0.409878346717619
40
0.819756693435237
40
0.819756693435237
40
1
40
1
40
1
40
1
41
1
10
4.20352178805049
20
-0.348326810304258
30
0
41
1
10
4.46461347867015
20
-0.485487852511994
30
0
41
1
10
4.72541633835081
20
-0.621119471910703
30
0
41
1
10
5.24753874286813
20
-0.887343036426898
30
0
41
1
10
5.50839738943202
20
-1.01764901496159
30
0
41
1
10
6.28610502965063
20
-1.3935421650184
30
0
41
1
10
6.80060987652374
20
-1.62501909092131
30
0
41
1
10
7.54258692235058
20
-1.92007862657417
30
0
41
1
10
7.76932336899714
20
-2.00515186303488
30
0
41
1
10
7.99663787616865
20
-2.08449384328651
30
0
0
SPLINE
5
E3
100
AcDbEntity
8
1
62
256
6
ByLayer
370
13
48
1
60
0
100
AcDbSpline
70
4
71
3
72
18
73
14
40
0
40
0
40
0
40
0
40
0.172770682355863
40
0.172770682355863
40
0.32696103740347
40
0.32696103740347
40
0.481151392451077
40
0.481151392451077
40
0.635341747498683
40
0.635341747498683
40
0.78953210254629
40
0.78953210254629
40
1
40
1
40
1
40
1
41
1
10
7.99663855217682
20
-2.08449407924078
30
0
41
1
10
8.28624340144626
20
-2.18557789967474
30
0
41
1
10
8.57678652758253
20
-2.27735905850443
30
0
41
1
10
9.13022905135466
20
-2.43077222975947
30
0
41
1
10
9.39093807165054
20
-2.49417414657165
30
0
41
1
10
9.9113360381055
20
-2.6018117918731
30
0
41
1
10
10.1714648057394
20
-2.64609033463086
30
0
41
1
10
10.6926707417578
20
-2.71441183164643
30
0
41
1
10
10.9541323470152
20
-2.73853185506718
30
0
41
1
10
11.4734088359749
20
-2.76598101452916
30
0
41
1
10
11.7318682628912
20
-2.76939809805819
30
0
41
1
10
12.3418067709614
20
-2.75329991478242
30
0
41
1
10
12.6928996011817
20
-2.72506956294976
30
0
41
1
10
13.0445112894874
20
-2.67839088574101
30
0
0
SPLINE
5
E4
100
AcDbEntity
8
1
62
256
6
ByLayer
370
18
48
1
60
0
100
AcDbSpline
70
4
71
3
72
24
73
20
40
0
40
0
40
0
40
0
40
0.0086841432818557
40
0.0086841432818557
40
0.100578996776652
40
0.100578996776652
40
0.192473850271448
40
0.192473850271448
40
0.284368703766244
40
0.284368703766244
40
0.468158410755836
40
0.468158410755836
40
0.560053264250632
40
0.560053264250632
40
0.651948117745428
40
0.651948117745428
40
0.83573782473502
40
0.83573782473502
40
1
40
1
40
1
40
1
41
1
10
15.8010585987072
20
1.96169741144971
30
0
41
1
10
15.8256309168324
20
1.95248142313574
30
0
41
1
10
15.850205129797
20
1.94319869630843
30
0
41
1
10
16.1348492729057
20
1.83492060165918
30
0
41
1
10
16.3954215288696
20
1.72846573332879
30
0
41
1
10
16.917152015637
20
1.50286450457355
30
0
41
1
10
17.1783447038101
20
1.38389009841305
30
0
41
1
10
17.699192280001
20
1.13707780240043
30
0
41
1
10
17.9581024255012
20
1.00958953490146
30
0
41
1
10
18.7321448424926
20
0.618395552933976
30
0
41
1
10
19.2448251389241
20
0.346391288985842
30
0
41
1
10
20.0160568863115
20
-0.0646466621095954
30
0
41
1
10
20.2734808176784
20
-0.202201617173159
30
0
41
1
10
20.7903178645374
20
-0.475934165617929
30
0
41
1
10
21.0500032395023
20
-0.612332576135373
30
0
41
1
10
21.8320892049736
20
-1.01467495898726
30
0
41
1
10
22.347169823274
20
-1.26837577991364
30
0
41
1
10
23.3201649461388
20
-1.706612407291
30
0
41
1
10
23.778346347404
20
-1.89558751541008
30
0
41
1
10
24.239061252647
20
-2.0611466520287
30
0
0
SPLINE
5
E5
100
AcDbEntity
8
1
62
256
6
ByLayer
370
13
48
1
60
0
100
AcDbSpline
70
4
71
3
72
18
73
14
40
0
40
0
40
0
40
0
40
0.0342050205387426
40
0.0342050205387426
40
0.195170850448952
40
0.195170850448952
40
0.356136680359162
40
0.356136680359162
40
0.678068340179581
40
0.678068340179581
40
0.83903417008979
40
0.83903417008979
40
1
40
1
40
1
40
1
41
1
10
24.2390612525924
20
-2.06114665200909
30
0
41
1
10
24.2938311648781
20
-2.0808283668562
30
0
41
1
10
24.3486368819557
20
-2.10017915505114
30
0
41
1
10
24.6615918767924
20
-2.20865145658078
30
0
41
1
10
24.9206040398917
20
-2.29066498372816
30
0
41
1
10
25.4416647237555
20
-2.43799733860183
30
0
41
1
10
25.70141691227
20
-2.50261518844468
30
0
41
1
10
26.4761639359494
20
-2.66690178297972
30
0
41
1
10
26.9882950294019
20
-2.73764904528198
30
0
41
1
10
27.7579041199681
20
-2.78345433954442
30
0
41
1
10
28.0146218592199
20
-2.78870906980936
30
0
41
1
10
28.5295048754917
20
-2.77869003461893
30
0
41
1
10
28.7877487083995
20
-2.76284942123169
30
0
41
1
10
29.0471943477623
20
-2.7376023723609
30
0
0
SPLINE
5
E6
100
AcDbEntity
8
1
62
256
6
ByLayer
370
18
48
1
60
0
100
AcDbSpline
70
4
71
3
72
18
73
14
40
0
40
0
40
0
40
0
40
0.249999999999999
40
0.249999999999999
40
0.374999999999999
40
0.374999999999999
40
0.499999999999999
40
0.499999999999999
40
0.749999999999998
40
0.749999999999998
40
0.874999999999999
40
0.874999999999999
40
1
40
1
40
1
40
1
41
1
10
29.0140081716078
20
-2.68597944459674
30
0
41
1
10
28.9536368397514
20
-2.68009032672165
30
0
41
1
10
28.8977377662161
20
-2.66112865425103
30
0
41
1
10
28.8212470913386
20
-2.6111786641649
30
0
41
1
10
28.7970060711897
20
-2.59086921624595
30
0
41
1
10
28.7521346412898
20
-2.54368275566822
30
0
41
1
10
28.7313589888395
20
-2.51672687345723
30
0
41
1
10
28.674058857463
20
-2.42567679933518
30
0
41
1
10
28.642511725827
20
-2.3515004048337
30
0
41
1
10
28.6061454705382
20
-2.21804630153272
30
0
41
1
10
28.5959553274951
20
-2.17007399368848
30
0
41
1
10
28.5797599681872
20
-2.06853227314358
30
0
41
1
10
28.5736992031615
20
-2.01477064657618
30
0
41
1
10
28.5697013163578
20
-1.95798013182096
30
0
0
SPLINE
5
E7
100
AcDbEntity
8
1
62
256
6
ByLayer
370
18
48
1
60
0
100
AcDbSpline
70
4
71
3
72
36
73
32
40
0
40
0
40
0
40
0
40
0.0472945800610069
40
0.0472945800610069
40
0.115344967199507
40
0.115344967199507
40
0.183395354338006
40
0.183395354338006
40
0.251445741476506
40
0.251445741476506
40
0.319496128615005
40
0.319496128615005
40
0.387546515753505
40
0.387546515753505
40
0.455596902892005
40
0.455596902892005
40
0.523647290030504
40
0.523647290030504
40
0.591697677169004
40
0.591697677169004
40
0.659748064307504
40
0.659748064307504
40
0.727798451446003
40
0.727798451446003
40
0.795848838584503
40
0.795848838584503
40
0.863899225723003
40
0.863899225723003
40
0.931949612861502
40
0.931949612861502
40
1
40
1
40
1
40
1
41
1
10
17.5145986998845
20
2.67339559556311
30
0
41
1
10
17.6648790565269
20
2.67327048391823
30
0
41
1
10
17.815236147646
20
2.6697084763625
30
0
41
1
10
18.1813745517612
20
2.65358068951045
30
0
41
1
10
18.3969497476386
20
2.63804893830036
30
0
41
1
10
18.8283147640538
20
2.59218490729935
30
0
41
1
10
19.0442275714743
20
2.56296160089391
30
0
41
1
10
19.4766474653574
20
2.49031779742327
30
0
41
1
10
19.6928827788297
20
2.44652619047281
30
0
41
1
10
20.1247760098017
20
2.34760703002235
30
0
41
1
10
20.340470207075
20
2.29227529598427
30
0
41
1
10
20.7717666822165
20
2.17118601412372
30
0
41
1
10
20.987696696108
20
2.10463183023887
30
0
41
1
10
21.4205765414632
20
1.95943498850926
30
0
41
1
10
21.6365240255652
20
1.88127184821025
30
0
41
1
10
22.0682926157239
20
1.71744369784119
30
0
41
1
10
22.2839315049314
20
1.6317287119285
30
0
41
1
10
22.7154204076434
20
1.4498988657185
30
0
41
1
10
22.931709227953
20
1.35444753367835
30
0
41
1
10
23.3647212098425
20
1.15762585480482
30
0
41
1
10
23.58056679616
20
1.05618368565439
30
0
41
1
10
24.0122036926258
20
0.849092475850711
30
0
41
1
10
24.2280115442653
20
0.743020919368234
30
0
41
1
10
24.6598657937521
20
0.52654942422987
30
0
41
1
10
24.8763880071433
20
0.416395176096103
30
0
41
1
10
25.3093113212521
20
0.195280601838874
30
0
41
1
10
25.5252269136469
20
0.0838654274021167
30
0
41
1
10
25.956917590077
20
-0.138836874118311
30
0
41
1
10
26.1728082486239
20
-0.249910951114771
30
0
41
1
10
26.6048597653969
20
-0.471027095305828
30
0
41
1
10
26.8214161096117
20
-0.581254534365485
30
0
41
1
10
27.0376829452306
20
-0.688934256407862
30
0
0
SPLINE
5
E8
100
AcDbEntity
8
1
62
256
6
ByLayer
370
18
48
1
60
0
100
AcDbSpline
70
4
71
3
72
8
73
4
40
0
40
0
40
0
40
0
40
1
40
1
40
1
40
1
41
1
10
29.0422442619717
20
2.75117061748833
30
0
41
1
10
28.716144599821
20
2.78348748486974
30
0
41
1
10
28.3907789686802
20
2.79936700805527
30
0
41
1
10
28.0649710491439
20
2.7987985885311
30
0
0
SPLINE
5
E9
100
AcDbEntity
8
1
62
256
6
ByLayer
370
18
48
1
60
0
100
AcDbSpline
70
4
71
3
72
26
73
22
40
0
40
0
40
0
40
0
40
0.0498814210441038
40
0.0498814210441038
40
0.13625583731282
40
0.13625583731282
40
0.309004669850255
40
0.309004669850255
40
0.48175350238769
40
0.48175350238769
40
0.524940710522049
40
0.524940710522049
40
0.568127918656408
40
0.568127918656408
40
0.654502334925127
40
0.654502334925127
40
0.827251167462563
40
0.827251167462563
40
0.913625583731282
40
0.913625583731282
40
1
40
1
40
1
40
1
41
1
10
13.1605357507563
20
-2.67497010994882
30
0
41
1
10
13.0108001621675
20
-2.69666714991223
30
0
41
1
10
12.8607566816613
20
-2.71507504199337
30
0
41
1
10
12.4497609783553
20
-2.75613149638241
30
0
41
1
10
12.1874366894021
20
-2.77197171390009
30
0
41
1
10
11.406656057541
20
-2.78768793146173
30
0
41
1
10
10.8908006779749
20
-2.75631057709685
30
0
41
1
10
9.85807280548499
20
-2.61440253804111
30
0
41
1
10
9.34166566552497
20
-2.50355896867157
30
0
41
1
10
8.68903980245176
20
-2.31896491762163
30
0
41
1
10
8.55792230096733
20
-2.2796682648507
30
0
41
1
10
8.29666529706685
20
-2.19706269225929
30
0
41
1
10
8.16642703878992
20
-2.15371214603525
30
0
41
1
10
7.77649428430899
20
-2.01805624505056
30
0
41
1
10
7.51752683540681
20
-1.92022651178627
30
0
41
1
10
6.74188314974683
20
-1.60730684222554
30
0
41
1
10
6.22657576726155
20
-1.37260136366467
30
0
41
1
10
5.44892788375464
20
-0.992998358235866
30
0
41
1
10
5.18889165587314
20
-0.861941858083213
30
0
41
1
10
4.6657925096975
20
-0.593103838470057
30
0
41
1
10
4.40365378757014
20
-0.455829167578997
30
0
41
1
10
4.14175874350096
20
-0.317376208159061
30
0
0
SPLINE
5
EA
100
AcDbEntity
8
1
62
256
6
ByLayer
370
18
48
1
60
0
100
AcDbSpline
70
4
71
3
72
8
73
4
40
0
40
0
40
0
40
0
40
1
40
1
40
1
40
1
41
1
10
29.0471943477623
20
-2.73760237236084
30
0
41
1
10
29.0455446413413
20
-2.74212528261407
30
0
41
1
10
29.0438946112473
20
-2.74664803504726
30
0
41
1
10
29.0422442619712
20
-2.75117061748657
30
0
0
SPLINE
5
EB
100
AcDbEntity
8
1
62
256
6
ByLayer
370
18
48
1
60
0
100
AcDbSpline
70
4
71
3
72
12
73
8
40
0
40
0
40
0
40
0
40
0.250000000000018
40
0.250000000000018
40
0.500000000000036
40
0.500000000000036
40
1
40
1
40
1
40
1
41
1
10
4.25113500991409
20
-2.25262380436348
30
0
41
1
10
4.23254094091098
20
-2.25862984992827
30
0
41
1
10
4.21374794104293
20
-2.26580226897082
30
0
41
1
10
4.17569814668457
20
-2.2829059314351
30
0
41
1
10
4.15633742884802
20
-2.2929357661273
30
0
41
1
10
4.10091293576852
20
-2.32644610204525
30
0
41
1
10
4.06643705821176
20
-2.35445799255706
30
0
41
1
10
4.0424117096816
20
-2.38305804123544
30
0
0
SPLINE
5
EC
100
AcDbEntity
8
1
62
256
6
ByLayer
370
18
48
1
60
0
100
AcDbSpline
70
4
71
3
72
10
73
6
40
0
40
0
40
0
40
0
40
0.5
40
0.5
40
1
40
1
40
1
40
1
41
1
10
4.13064849490831
20
-0.311358792724832
30
0
41
1
10
4.10600807106175
20
-0.29764353046383
30
0
41
1
10
4.08438814492459
20
-0.27913094789011
30
0
41
1
10
4.0522887910156
20
-0.233488418834668
30
0
41
1
10
4.04186572350278
20
-0.206459180094043
30
0
41
1
10
4.04187400702659
20
-0.178082777665964
30
0
0
SPLINE
5
ED
100
AcDbEntity
8
1
62
256
6
ByLayer
370
18
48
1
60
0
100
AcDbSpline
70
4
71
3
72
62
73
58
40
0
40
0
40
0
40
0
40
0.0681108113134195
40
0.0681108113134195
40
0.136221622626839
40
0.136221622626839
40
0.170277028283548
40
0.170277028283548
40
0.204332433940257
40
0.204332433940257
40
0.238387839596967
40
0.238387839596967
40
0.272443245253676
40
0.272443245253676
40
0.306498650910385
40
0.306498650910385
40
0.340554056567094
40
0.340554056567094
40
0.374609462223803
40
0.374609462223803
40
0.408664867880513
40
0.408664867880513
40
0.442720273537222
40
0.442720273537222
40
0.476775679193931
40
0.476775679193931
40
0.51083108485064
40
0.51083108485064
40
0.54488649050735
40
0.54488649050735
40
0.578941896164059
40
0.578941896164059
40
0.612997301820768
40
0.612997301820768
40
0.647052707477477
40
0.647052707477477
40
0.681108113134186
40
0.681108113134186
40
0.715163518790895
40
0.715163518790895
40
0.749218924447605
40
0.749218924447605
40
0.783274330104314
40
0.783274330104314
40
0.817329735761023
40
0.817329735761023
40
0.851385141417732
40
0.851385141417732
40
0.885440547074441
40
0.885440547074441
40
0.91949595273115
40
0.91949595273115
40
0.95355135838786
40
0.95355135838786
40
0.987606764044569
40
0.987606764044569
40
1
40
1
40
1
40
1
41
1
10
13.0794481991553
20
2.6347522019737
30
0
41
1
10
13.4130120028069
20
2.57769812108424
30
0
41
1
10
13.7469453890094
20
2.50568510915704
30
0
41
1
10
14.41234718649
20
2.32983936051807
30
0
41
1
10
14.7467028420772
20
2.22778780688048
30
0
41
1
10
15.2469753646018
20
2.05356109224036
30
0
41
1
10
15.413530890405
20
1.99236714282958
30
0
41
1
10
15.746867879021
20
1.86468812458182
30
0
41
1
10
15.9134687354813
20
1.79797567278049
30
0
41
1
10
16.2462408977057
20
1.65828961190698
30
0
41
1
10
16.4127005722839
20
1.58571855111455
30
0
41
1
10
16.7466541801735
20
1.43654289227473
30
0
41
1
10
16.9139107337637
20
1.35951153203351
30
0
41
1
10
17.2470923539185
20
1.20100968123134
30
0
41
1
10
17.413449107778
20
1.11981497601232
30
0
41
1
10
17.7466115516768
20
0.955165559539097
30
0
41
1
10
17.9132352936121
20
0.871407306328933
30
0
41
1
10
18.2461787054304
20
0.700285640803173
30
0
41
1
10
18.4126305671753
20
0.613142555647073
30
0
41
1
10
18.7468406227277
20
0.438183742060119
30
0
41
1
10
18.9137944008593
20
0.350166249359688
30
0
41
1
10
19.2467368573537
20
0.172412509615299
30
0
41
1
10
19.4129415205468
20
0.0829826236039537
30
0
41
1
10
19.7459771089149
20
-0.0948050236171696
30
0
41
1
10
19.912644464251
20
-0.183469483773251
30
0
41
1
10
20.2458393227172
20
-0.361166089603586
30
0
41
1
10
20.4125524718833
20
-0.450340900008456
30
0
41
1
10
20.7463538281878
20
-0.625380047587356
30
0
41
1
10
20.913147071049
20
-0.711666215521404
30
0
41
1
10
21.24594528285
20
-0.882814158860924
30
0
41
1
10
21.4120528641482
20
-0.967472012395461
30
0
41
1
10
21.7450097346975
20
-1.13262701634093
30
0
41
1
10
21.9117503420004
20
-1.21333175354309
30
0
41
1
10
22.2452561930427
20
-1.37182587547659
30
0
41
1
10
22.4119650077461
20
-1.44981555324159
30
0
41
1
10
22.7453197548176
20
-1.59949851315113
30
0
41
1
10
22.9120027048803
20
-1.67160016908363
30
0
41
1
10
23.2447493433651
20
-1.81128893483026
30
0
41
1
10
23.4108207242815
20
-1.87882619119242
30
0
41
1
10
23.7437447860949
20
-2.00732484107346
30
0
41
1
10
23.9105851136742
20
-2.06834045393481
30
0
41
1
10
24.2444588981887
20
-2.18460531036368
30
0
41
1
10
24.4108500983347
20
-2.23985486120773
30
0
41
1
10
24.7438071888924
20
-2.34243956419007
30
0
41
1
10
24.9103937876807
20
-2.38992398662015
30
0
41
1
10
25.2431617761043
20
-2.477935467923
30
0
41
1
10
25.4092587717852
20
-2.51848933443989
30
0
41
1
10
25.7422259336768
20
-2.59148335305153
30
0
41
1
10
25.9093779310759
20
-2.6239428949369
30
0
41
1
10
26.24302886762
20
-2.68090790528692
30
0
41
1
10
26.4092176027936
20
-2.70546557690037
30
0
41
1
10
26.74177240815
20
-2.74596871997346
30
0
41
1
10
26.908249929982
20
-2.76192866505795
30
0
41
1
10
27.2409914346381
20
-2.78555272566817
30
0
41
1
10
27.4071183354817
20
-2.79319705129174
30
0
41
1
10
27.6341826950462
20
-2.79771733631688
30
0
41
1
10
27.6948603019392
20
-2.79835325713597
30
0
41
1
10
27.7555742748478
20
-2.79842130738723
30
0
0
SPLINE
5
EE
100
AcDbEntity
8
1
62
256
6
ByLayer
370
18
48
1
60
0
100
AcDbSpline
70
4
71
3
72
36
73
32
40
0
40
0
40
0
40
0
40
0.124999999999991
40
0.124999999999991
40
0.187499999999992
40
0.187499999999992
40
0.249999999999992
40
0.249999999999992
40
0.312499999999993
40
0.312499999999993
40
0.374999999999993
40
0.374999999999993
40
0.437499999999994
40
0.437499999999994
40
0.499999999999995
40
0.499999999999995
40
0.562499999999995
40
0.562499999999995
40
0.624999999999996
40
0.624999999999996
40
0.687499999999997
40
0.687499999999997
40
0.749999999999997
40
0.749999999999997
40
0.812499999999998
40
0.812499999999998
40
0.874999999999999
40
0.874999999999999
40
0.937499999999999
40
0.937499999999999
40
1
40
1
40
1
40
1
41
1
10
29.6471895962226
20
-0.946327778049948
30
0
41
1
10
29.6249477267618
20
-0.932489530538135
30
0
41
1
10
29.5974541978912
20
-0.933291705334653
30
0
41
1
10
29.5518422997911
20
-0.951478780980949
30
0
41
1
10
29.5361087502808
20
-0.960327199800275
30
0
41
1
10
29.5036472176142
20
-0.983255605630433
30
0
41
1
10
29.4867793948108
20
-0.997494049497419
30
0
41
1
10
29.4530341251024
20
-1.03047977584509
30
0
41
1
10
29.4360871867451
20
-1.04923779332793
30
0
41
1
10
29.4020364301497
20
-1.09153633683101
30
0
41
1
10
29.3847548779172
20
-1.11536369074722
30
0
41
1
10
29.3512541458852
20
-1.16682413197481
30
0
41
1
10
29.3349646848479
20
-1.19447794314976
30
0
41
1
10
29.3034863881614
20
-1.25437903423273
30
0
41
1
10
29.2885964352745
20
-1.28612145203576
30
0
41
1
10
29.261769848241
20
-1.35181503109848
30
0
41
1
10
29.2496989644413
20
-1.38622591592394
30
0
41
1
10
29.2304629954212
20
-1.45363990568256
30
0
41
1
10
29.2231092375173
20
-1.48742175333251
30
0
41
1
10
29.2144472813572
20
-1.54934358868698
30
0
41
1
10
29.213015723462
20
-1.57836366648692
30
0
41
1
10
29.215853630983
20
-1.62802495424316
30
0
41
1
10
29.2201095956382
20
-1.6492964791947
30
0
41
1
10
29.2329691094162
20
-1.68311956855899
30
0
41
1
10
29.2416914101207
20
-1.69607062284814
30
0
41
1
10
29.262015890399
20
-1.71404196772011
30
0
41
1
10
29.2737421848721
20
-1.71931282662504
30
0
41
1
10
29.2996613937345
20
-1.72314810023698
30
0
41
1
10
29.3135368528866
20
-1.72169615270738
30
0
41
1
10
29.342875145455
20
-1.71295203943552
30
0
41
1
10
29.3584773131447
20
-1.70555595846127
30
0
41
1
10
29.3745283497308
20
-1.69545839594616
30
0
0
SPLINE
5
EF
100
AcDbEntity
8
1
62
256
6
ByLayer
370
18
48
1
60
0
100
AcDbSpline
70
4
71
3
72
14
73
10
40
0
40
0
40
0
40
0
40
0.25
40
0.25
40
0.5
40
0.5
40
0.75
40
0.75
40
1
40
1
40
1
40
1
41
1
10
28.8444525047382
20
0.771528741034643
30
0
41
1
10
28.8315622154667
20
0.771087089803018
30
0
41
1
10
28.8186585123253
20
0.768558091826208
30
0
41
1
10
28.7963777229943
20
0.756190528129537
30
0
41
1
10
28.7874998085028
20
0.745773866845553
30
0
41
1
10
28.7795876036951
20
0.721155487991069
30
0
41
1
10
28.7800686392724
20
0.707734199045973
30
0
41
1
10
28.7853448651504
20
0.682520486454763
30
0
41
1
10
28.7901478375606
20
0.670314460506546
30
0
41
1
10
28.7960435230402
20
0.65869838751766
30
0
0
SPLINE
5
F0
100
AcDbEntity
8
1
62
256
6
ByLayer
370
18
48
1
60
0
100
AcDbSpline
70
4
71
3
72
14
73
10
40
0
40
0
40
0
40
0
40
0.250782895243447
40
0.250782895243447
40
0.729821867509551
40
0.729821867509551
40
0.969341353642601
40
0.969341353642601
40
1
40
1
40
1
40
1
41
1
10
28.3282904277011
20
-2.68703829605653
30
0
41
1
10
28.0588100026539
20
-2.68793233861146
30
0
41
1
10
27.7901426502477
20
-2.67799069416745
30
0
41
1
10
27.008768938959
20
-2.61840117889574
30
0
41
1
10
26.4967351669619
20
-2.54066523654166
30
0
41
1
10
25.7224375529034
20
-2.36892465754479
30
0
41
1
10
25.4628016179341
20
-2.30230326691486
30
0
41
1
10
25.1694888594574
20
-2.2176670176998
30
0
41
1
10
25.1362281688225
20
-2.20793446679519
30
0
41
1
10
25.1029894321217
20
-2.19807536844988
30
0
0
SPLINE
5
F1
100
AcDbEntity
8
1
62
256
6
ByLayer
370
13
48
1
60
0
100
AcDbSpline
70
4
71
3
72
22
73
18
40
0
40
0
40
0
40
0
40
0.075359147099958
40
0.075359147099958
40
0.248201109569132
40
0.248201109569132
40
0.421043072038305
40
0.421043072038305
40
0.593885034507479
40
0.593885034507479
40
0.766726996976653
40
0.766726996976653
40
0.85314797821124
40
0.85314797821124
40
0.939568959445828
40
0.939568959445828
40
1
40
1
40
1
40
1
41
1
10
25.1029903908361
20
-2.19807565281874
30
0
41
1
10
24.8765524631701
20
-2.13091084933353
30
0
41
1
10
24.6511334128409
20
-2.05787300879146
30
0
41
1
10
23.9107848061307
20
-1.79989817317403
30
0
41
1
10
23.3985650959868
20
-1.5921979560587
30
0
41
1
10
22.3717620593917
20
-1.13599931443673
30
0
41
1
10
21.8569715857902
20
-0.887749280703275
30
0
41
1
10
20.8155421563473
20
-0.366051919685248
30
0
41
1
10
20.3002555751658
20
-0.0989101379752526
30
0
41
1
10
19.272873988347
20
0.428481765060042
30
0
41
1
10
18.7604781613244
20
0.688819886522737
30
0
41
1
10
17.9870648269775
20
1.06106270017071
30
0
41
1
10
17.728424529775
20
1.18203895893714
30
0
41
1
10
17.2082505447937
20
1.41538208805929
30
0
41
1
10
16.9475247211798
20
1.52735044424935
30
0
41
1
10
16.5049187996969
20
1.70714295899182
30
0
41
1
10
16.3230554171206
20
1.77794617494772
30
0
41
1
10
16.1413342564482
20
1.84529811008
30
0
0
SPLINE
5
F2
100
AcDbEntity
8
1
62
256
6
ByLayer
370
18
48
1
60
0
100
AcDbSpline
70
4
71
3
72
18
73
14
40
0
40
0
40
0
40
0
40
0.125
40
0.125
40
0.25
40
0.25
40
0.375
40
0.375
40
0.499999999999999
40
0.499999999999999
40
0.75
40
0.75
40
1
40
1
40
1
40
1
41
1
10
29.6471895962226
20
-0.946327778049778
30
0
41
1
10
29.6474502836313
20
-0.955598812753891
30
0
41
1
10
29.6449542445339
20
-0.97190260804939
30
0
41
1
10
29.6343169387256
20
-1.01825680058431
30
0
41
1
10
29.6262690649206
20
-1.04781193986199
30
0
41
1
10
29.6057451478583
20
-1.1160813336048
30
0
41
1
10
29.5933109097815
20
-1.15463685085831
30
0
41
1
10
29.5661084646981
20
-1.23476613947713
30
0
41
1
10
29.5511917758017
20
-1.27678085171223
30
0
41
1
10
29.5057545157452
20
-1.40004916742413
30
0
41
1
10
29.473953854788
20
-1.48016864844044
30
0
41
1
10
29.4174626922328
20
-1.61210215538142
30
0
41
1
10
29.3925588764899
20
-1.66457803739513
30
0
41
1
10
29.3745283497307
20
-1.69545839594633
30
0
0
SPLINE
5
F3
100
AcDbEntity
8
1
62
256
6
ByLayer
370
18
48
1
60
0
100
AcDbSpline
70
4
71
3
72
12
73
8
40
0
40
0
40
0
40
0
40
0.160236768183753
40
0.402190845807723
40
0.505691704073034
40
0.643465900042687
40
1
40
1
40
1
40
1
41
1
10
9.00207447116847
20
0.182705603973915
30
0
41
1
10
9.00180677147384
20
0.18283364823094
30
0
41
1
10
9.00017301255116
20
0.183478259747233
30
0
41
1
10
8.99757667453792
20
0.184767638245518
30
0
41
1
10
8.93295440817968
20
0.213862385651993
30
0
41
1
10
8.82275304530876
20
0.265628536441483
30
0
41
1
10
8.71338515305132
20
0.320482968982731
30
0
41
1
10
8.62126489954176
20
0.367980994525794
30
0
0
SPLINE
5
F4
100
AcDbEntity
8
1
62
256
6
ByLayer
370
18
48
1
60
0
100
AcDbSpline
70
4
71
3
72
21
73
17
40
0
40
0
40
0
40
0
40
0.111941485391298
40
0.193359613990686
40
0.245907057162754
40
0.292147520214864
40
0.339127801552355
40
0.386876957275876
40
0.435495051290897
40
0.48498629733202
40
0.688699278964403
40
0.723247104863406
40
0.757943670727374
40
0.802037981054612
40
0.900350821993658
40
1
40
1
40
1
40
1
41
1
10
11.9021148941724
20
-2.66759504674704
30
0
41
1
10
12.1115531550121
20
-2.66793011918946
30
0
41
1
10
12.4733341127377
20
-2.66841343967053
30
0
41
1
10
12.9334741804637
20
-2.66902786898319
30
0
41
1
10
13.270671797212
20
-2.66911910083033
30
0
41
1
10
13.5434316232847
20
-2.66919091054481
30
0
41
1
10
13.8072127994633
20
-2.66954737437808
30
0
41
1
10
14.0754400674896
20
-2.6706540933784
30
0
41
1
10
14.3483693164883
20
-2.67073474838443
30
0
41
1
10
14.9131354287743
20
-2.67059921285798
30
0
41
1
10
15.4515730175955
20
-2.67165804514579
30
0
41
1
10
15.962326897626
20
-2.67187394897201
30
0
41
1
10
16.1744046720361
20
-2.67179332094918
30
0
41
1
10
16.5057991894029
20
-2.67161344497128
30
0
41
1
10
16.9587297036967
20
-2.67340997037078
30
0
41
1
10
17.3291535570374
20
-2.67328199512033
30
0
41
1
10
17.515615781071
20
-2.67314238614196
30
0
0
SPLINE
5
F5
100
AcDbEntity
8
1
62
256
6
ByLayer
370
18
48
1
60
0
100
AcDbSpline
70
4
71
2
72
6
73
3
40
0
40
0
40
0
40
1
40
1
40
1
41
1
10
28.3015797485779
20
-2.68701429273176
30
0
41
1
10
28.6636031962835
20
-2.68644930108761
30
0
41
1
10
29.0251970030072
20
-2.68861625810706
30
0
0
SPLINE
5
F6
100
AcDbEntity
8
1
62
256
6
ByLayer
370
18
48
1
60
0
100
AcDbSpline
70
4
71
3
72
19
73
15
40
0
40
0
40
0
40
0
40
0.0134339325653412
40
0.0304306004773358
40
0.075806850931164
40
0.137604149237506
40
0.207341644318481
40
0.287838413507606
40
0.39282748785571
40
0.497722275397157
40
0.574805541143897
40
0.673813846563793
40
0.816777142919505
40
1
40
1
40
1
40
1
41
1
10
19.8282461512678
20
-0.641981735571648
30
0
41
1
10
19.829198096129
20
-0.642333100998371
30
0
41
1
10
19.8337511925098
20
-0.643177104005332
30
0
41
1
10
19.8745146377606
20
-0.647971869399839
30
0
41
1
10
19.9718660773472
20
-0.659998965088192
30
0
41
1
10
20.1122210760286
20
-0.681340359391726
30
0
41
1
10
20.2854462838094
20
-0.713262224266373
30
0
41
1
10
20.4996053298886
20
-0.758053890457546
30
0
41
1
10
20.7562409751875
20
-0.822952026622204
30
0
41
1
10
21.0146544909798
20
-0.900551813896385
30
0
41
1
10
21.2780534344016
20
-0.987935589517065
30
0
41
1
10
21.5864947369382
20
-1.09924153952167
30
0
41
1
10
22.0019088021595
20
-1.2662212276602
30
0
41
1
10
22.3217047383826
20
-1.40662423729236
30
0
41
1
10
22.5020161548323
20
-1.49004376186329
30
0
0
SPLINE
5
F7
100
AcDbEntity
8
1
62
256
6
ByLayer
370
18
48
1
60
0
100
AcDbSpline
70
4
71
3
72
20
73
16
40
0
40
0
40
0
40
0
40
0.129268740791118
40
0.256817066829036
40
0.350053204102047
40
0.430669017750797
40
0.51072194187761
40
0.589930318486185
40
0.668151109923536
40
0.732359666260529
40
0.795435419616324
40
0.857383836772158
40
0.918334737836139
40
0.978325819379377
40
1
40
1
40
1
40
1
41
1
10
17.5155581839211
20
2.6731423721109
30
0
41
1
10
17.3291151589768
20
2.67328195725338
30
0
41
1
10
16.9587105483014
20
2.67340009881929
30
0
41
1
10
16.4538344286359
20
2.67143730174115
30
0
41
1
10
16.0191272634513
20
2.67195121387269
30
0
41
1
10
15.6529230580334
20
2.67172523675921
30
0
41
1
10
15.3069512984842
20
2.6709759890949
30
0
41
1
10
14.9644335666814
20
2.67062793692276
30
0
41
1
10
14.6447673175643
20
2.67072030029598
30
0
41
1
10
14.3483693318404
20
2.67072110895512
30
0
41
1
10
14.0754400635104
20
2.67065765035807
30
0
41
1
10
13.8072128005239
20
2.66954644537526
30
0
41
1
10
13.5434316230271
20
2.66919115212491
30
0
41
1
10
13.3377375008303
20
2.66913676152021
30
0
41
1
10
13.2199527925451
20
2.66910517965161
30
0
41
1
10
13.1886924231183
20
2.66909545659396
30
0
0
LINE
5
7B
100
AcDbEntity
8
SK1
62
256
6
ByLayer
370
18
48
1
60
0
100
AcDbLine
10
-36
20
-1.860814
30
0
11
-36
21
-2.03548
31
0
39
0
210
0
220
0
230
1
0
LINE
5
7D
100
AcDbEntity
8
SK1
62
256
6
ByLayer
370
18
48
1
60
0
100
AcDbLine
10
0
20
-3
30
0
11
0
21
3
31
0
39
0
210
0
220
0
230
1
0
LINE
5
7E
100
AcDbEntity
8
SK1
62
256
6
ByLayer
370
18
48
1
60
0
100
AcDbLine
10
-35.1
20
3
30
0
11
-35.1
21
-3
31
0
39
0
210
0
220
0
230
1
0
LINE
5
7F
100
AcDbEntity
8
SK1
62
256
6
ByLayer
370
18
48
1
60
0
100
AcDbLine
10
-35.65
20
2.45
30
0
11
-35.65
21
2.421811
31
0
39
0
210
0
220
0
230
1
0
LINE
5
80
100
AcDbEntity
8
SK1
62
256
6
ByLayer
370
18
48
1
60
0
100
AcDbLine
10
-36
20
2.03548
30
0
11
-36
21
-1.860855
31
0
39
0
210
0
220
0
230
1
0
LINE
5
81
100
AcDbEntity
8
SK1
62
256
6
ByLayer
370
13
48
1
60
0
100
AcDbLine
10
-35.75
20
-2.124599
30
0
11
-35.75
21
-2.299275
31
0
39
0
210
0
220
0
230
1
0
LINE
5
82
100
AcDbEntity
8
SK1
62
256
6
ByLayer
370
18
48
1
60
0
100
AcDbLine
10
-35.65
20
-2.45
30
0
11
-35.65
21
-2.27047
31
0
39
0
210
0
220
0
230
1
0
LINE
5
83
100
AcDbEntity
8
1
62
256
6
ByLayer
370
13
48
1
60
0
100
AcDbLine
10
29.965677
20
-0.074058
30
0
11
28.796044
21
0.658698
31
0
39
0
210
0
220
0
230
1
0
LINE
5
84
100
AcDbEntity
8
1
62
256
6
ByLayer
370
18
48
1
60
0
100
AcDbLine
10
0
20
-3
30
0
11
0
21
3
31
0
39
0
210
0
220
0
230
1
0
LINE
5
85
100
AcDbEntity
8
1
62
256
6
ByLayer
370
13
48
1
60
0
100
AcDbLine
10
0.833866
20
2.766114
30
0
11
0.833866
21
-2.766114
31
0
39
0
210
0
220
0
230
1
0
LINE
5
86
100
AcDbEntity
8
1
62
256
6
ByLayer
370
18
48
1
60
0
100
AcDbLine
10
29.958203
20
-0.091824
30
0
11
29.64719
21
-0.946328
31
0
39
0
210
0
220
0
230
1
0
LINE
5
87
100
AcDbEntity
8
1
62
256
6
ByLayer
370
18
48
1
60
0
100
AcDbLine
10
29.958203
20
-0.091824
30
0
11
29.965677
21
-0.074058
31
0
39
0
210
0
220
0
230
1
0
LINE
5
88
100
AcDbEntity
8
1
62
256
6
ByLayer
370
13
48
1
60
0
100
AcDbLine
10
29.990752
20
0.05339
30
0
11
28.844453
21
0.771529
31
0
39
0
210
0
220
0
230
1
0
LINE
5
89
100
AcDbEntity
8
1
62
256
6
ByLayer
370
18
48
1
60
0
100
AcDbLine
10
29.990752
20
-0.05339
30
0
11
29.832541
21
-0.6309
31
0
39
0
210
0
220
0
230
1
0
LINE
5
8A
100
AcDbEntity
8
1
62
256
6
ByLayer
370
18
48
1
60
0
100
AcDbLine
10
29.014008
20
-2.685979
30
0
11
29.022385
21
-2.687882
31
0
39
0
210
0
220
0
230
1
0
LINE
5
8B
100
AcDbEntity
8
1
62
256
6
ByLayer
370
18
48
1
60
0
100
AcDbLine
10
29.374528
20
-1.695458
30
0
11
29.014008
21
-2.685979
31
0
39
0
210
0
220
0
230
1
0
LINE
5
8C
100
AcDbEntity
8
1
62
256
6
ByLayer
370
18
48
1
60
0
100
AcDbLine
10
30
20
0.021328
30
0
11
30
21
-0.021328
31
0
39
0
210
0
220
0
230
1
0
LINE
5
8D
100
AcDbEntity
8
1
62
256
6
ByLayer
370
18
48
1
60
0
100
AcDbLine
10
29.990752
20
0.05339
30
0
11
29.832541
21
0.6309
31
0
39
0
210
0
220
0
230
1
0
LINE
5
8E
100
AcDbEntity
8
1
62
256
6
ByLayer
370
13
48
1
60
0
100
AcDbLine
10
0.416453
20
2.883057
30
0
11
0.416453
21
-2.883057
31
0
39
0
210
0
220
0
230
1
0
LINE
5
8F
100
AcDbEntity
8
1
62
256
6
ByLayer
370
18
48
1
60
0
100
AcDbLine
10
29.958203
20
-0.091824
30
0
11
28.569701
21
-1.95798
31
0
39
0
210
0
220
0
230
1
0
LINE
5
90
100
AcDbEntity
8
80
62
256
6
ByLayer
370
18
48
1
60
0
100
AcDbLine
10
0
20
0
30
0
11
-5
21
0
31
0
39
0
210
0
220
0
230
1
0
LINE
5
91
100
AcDbEntity
8
4
62
256
6
ByLayer
370
18
48
0.05
60
0
100
AcDbLine
10
30
20
0
30
0
11
0
21
0
31
0
39
0
210
0
220
0
230
1
0
LINE
5
93
100
AcDbEntity
8
SK4
62
256
6
ByLayer
370
18
48
0.05
60
0
100
AcDbLine
10
35
20
0
30
0
11
-41
21
0
31
0
39
0
210
0
220
0
230
1
0
LINE
5
95
100
AcDbEntity
8
SK1
62
256
6
ByLayer
370
18
48
1
60
0
100
AcDbLine
10
-35.65
20
-2.45
30
0
11
-35.1
21
-3
31
0
39
0
210
0
220
0
230
1
0
LINE
5
96
100
AcDbEntity
8
SK1
62
256
6
ByLayer
370
18
48
1
60
0
100
AcDbLine
10
-35.1
20
3
30
0
11
-35.65
21
2.45
31
0
39
0
210
0
220
0
230
1
0
LINE
5
97
100
AcDbEntity
8
SK1
62
256
6
ByLayer
370
18
48
1
60
0
100
AcDbLine
10
-35.1
20
-3
30
0
11
0
21
-3
31
0
39
0
210
0
220
0
230
1
0
LINE
5
98
100
AcDbEntity
8
SK1
62
256
6
ByLayer
370
18
48
1
60
0
100
AcDbLine
10
0
20
3
30
0
11
-35.1
21
3
31
0
39
0
210
0
220
0
230
1
0
LINE
5
99
100
AcDbEntity
8
1
62
256
6
ByLayer
370
18
48
1
60
0
100
AcDbLine
10
0.833866
20
-2.766114
30
0
11
2.244
21
-2.767807
31
0
39
0
210
0
220
0
230
1
0
LINE
5
9A
100
AcDbEntity
8
1
62
256
6
ByLayer
370
18
48
1
60
0
100
AcDbLine
10
11.161767
20
-2.778508
30
0
11
11.719068
21
-2.779177
31
0
39
0
210
0
220
0
230
1
0
LINE
5
9B
100
AcDbEntity
8
1
62
256
6
ByLayer
370
18
48
1
60
0
100
AcDbLine
10
27.755131
20
-2.79842
30
0
11
28.070273
21
-2.798798
31
0
39
0
210
0
220
0
230
1
0
LINE
5
9C
100
AcDbEntity
8
1
62
256
6
ByLayer
370
18
48
1
60
0
100
AcDbLine
10
28.070256
20
2.798798
30
0
11
27.755131
21
2.79842
31
0
39
0
210
0
220
0
230
1
0
LINE
5
9D
100
AcDbEntity
8
1
62
256
6
ByLayer
370
18
48
1
60
0
100
AcDbLine
10
11.719134
20
2.779177
30
0
11
11.161767
21
2.778508
31
0
39
0
210
0
220
0
230
1
0
LINE
5
9E
100
AcDbEntity
8
1
62
256
6
ByLayer
370
18
48
1
60
0
100
AcDbLine
10
2.244
20
2.767807
30
0
11
0.833866
21
2.766114
31
0
39
0
210
0
220
0
230
1
0
LINE
5
9F
100
AcDbEntity
8
81
62
256
6
ByLayer
370
18
48
1
60
0
100
AcDbLine
10
30
20
0
30
0
11
35
21
0
31
0
39
0
210
0
220
0
230
1
0
LINE
5
A0
100
AcDbEntity
8
SK2
62
256
6
ByLayer
370
13
48
1
60
0
100
AcDbLine
10
-44.625163
20
32.117107
30
0
11
-44.625163
21
-11.75
31
0
39
0
210
0
220
0
230
1
0
LINE
5
A2
100
AcDbEntity
8
SK2
62
256
6
ByLayer
370
13
48
1
60
0
100
AcDbLine
10
-37.5875
20
3
30
0
11
-46.625163
21
3
31
0
39
0
210
0
220
0
230
1
0
LINE
5
A3
100
AcDbEntity
8
SK2
62
256
6
ByLayer
370
13
48
1
60
0
100
AcDbLine
10
-37.5875
20
-3
30
0
11
-46.625163
21
-3
31
0
39
0
210
0
220
0
230
1
0
LINE
5
A4
100
AcDbEntity
8
1
62
256
6
ByLayer
370
18
48
1
60
1
100
AcDbLine
10
-44.625163
20
3
30
0
11
-45.085946
21
6.499998
31
0
39
0
210
0
220
0
230
1
0
LINE
5
A5
100
AcDbEntity
8
1
62
256
6
ByLayer
370
18
48
1
60
1
100
AcDbLine
10
-45.085946
20
6.499998
30
0
11
-44.164379
21
6.500002
31
0
39
0
210
0
220
0
230
1
0
LINE
5
A6
100
AcDbEntity
8
1
62
256
6
ByLayer
370
18
48
1
60
1
100
AcDbLine
10
-44.164379
20
6.500002
30
0
11
-44.625163
21
3
31
0
39
0
210
0
220
0
230
1
0
LINE
5
A7
100
AcDbEntity
8
1
62
256
6
ByLayer
370
18
48
1
60
1
100
AcDbLine
10
-44.625163
20
-3
30
0
11
-44.164379
21
-6.499998
31
0
39
0
210
0
220
0
230
1
0
LINE
5
A8
100
AcDbEntity
8
1
62
256
6
ByLayer
370
18
48
1
60
1
100
AcDbLine
10
-44.164379
20
-6.499998
30
0
11
-45.085946
21
-6.500002
31
0
39
0
210
0
220
0
230
1
0
LINE
5
A9
100
AcDbEntity
8
1
62
256
6
ByLayer
370
18
48
1
60
1
100
AcDbLine
10
-45.085946
20
-6.500002
30
0
11
-44.625163
21
-3
31
0
39
0
210
0
220
0
230
1
0
LINE
5
AA
100
AcDbEntity
8
2
62
256
6
ByLayer
370
13
48
1
60
0
100
AcDbLine
10
42.083343
20
30.510193
30
0
11
42.083343
21
-11.55
31
0
39
0
210
0
220
0
230
1
0
LINE
5
AC
100
AcDbEntity
8
2
62
256
6
ByLayer
370
13
48
1
60
0
100
AcDbLine
10
30.5875
20
2.8
30
0
11
44.083343
21
2.8
31
0
39
0
210
0
220
0
230
1
0
LINE
5
AD
100
AcDbEntity
8
2
62
256
6
ByLayer
370
13
48
1
60
0
100
AcDbLine
10
30.5875
20
-2.8
30
0
11
44.083343
21
-2.8
31
0
39
0
210
0
220
0
230
1
0
LINE
5
AE
100
AcDbEntity
8
1
62
256
6
ByLayer
370
18
48
1
60
1
100
AcDbLine
10
42.083343
20
2.8
30
0
11
41.622559
21
6.299998
31
0
39
0
210
0
220
0
230
1
0
LINE
5
AF
100
AcDbEntity
8
1
62
256
6
ByLayer
370
18
48
1
60
1
100
AcDbLine
10
41.622559
20
6.299998
30
0
11
42.544126
21
6.300002
31
0
39
0
210
0
220
0
230
1
0
LINE
5
B0
100
AcDbEntity
8
1
62
256
6
ByLayer
370
18
48
1
60
1
100
AcDbLine
10
42.544126
20
6.300002
30
0
11
42.083343
21
2.8
31
0
39
0
210
0
220
0
230
1
0
LINE
5
B1
100
AcDbEntity
8
1
62
256
6
ByLayer
370
18
48
1
60
1
100
AcDbLine
10
42.083343
20
-2.8
30
0
11
42.544126
21
-6.299998
31
0
39
0
210
0
220
0
230
1
0
LINE
5
B2
100
AcDbEntity
8
1
62
256
6
ByLayer
370
18
48
1
60
1
100
AcDbLine
10
42.544126
20
-6.299998
30
0
11
41.622559
21
-6.300002
31
0
39
0
210
0
220
0
230
1
0
LINE
5
B3
100
AcDbEntity
8
1
62
256
6
ByLayer
370
18
48
1
60
1
100
AcDbLine
10
41.622559
20
-6.300002
30
0
11
42.083343
21
-2.8
31
0
39
0
210
0
220
0
230
1
0
LINE
5
FE
100
AcDbEntity
8
1
62
256
6
ByLayer
370
18
48
1
60
1
100
AcDbLine
10
-44.625163
20
3
30
0
11
-45.085946
21
6.499998
31
0
39
0
210
0
220
0
230
1
0
LINE
5
FF
100
AcDbEntity
8
1
62
256
6
ByLayer
370
18
48
1
60
1
100
AcDbLine
10
-45.085946
20
6.499998
30
0
11
-44.164379
21
6.500002
31
0
39
0
210
0
220
0
230
1
0
LINE
5
100
100
AcDbEntity
8
1
62
256
6
ByLayer
370
18
48
1
60
1
100
AcDbLine
10
-44.164379
20
6.500002
30
0
11
-44.625163
21
3
31
0
39
0
210
0
220
0
230
1
0
LINE
5
102
100
AcDbEntity
8
1
62
256
6
ByLayer
370
18
48
1
60
1
100
AcDbLine
10
-44.625163
20
-3
30
0
11
-44.164379
21
-6.499998
31
0
39
0
210
0
220
0
230
1
0
LINE
5
103
100
AcDbEntity
8
1
62
256
6
ByLayer
370
18
48
1
60
1
100
AcDbLine
10
-44.164379
20
-6.499998
30
0
11
-45.085946
21
-6.500002
31
0
39
0
210
0
220
0
230
1
0
LINE
5
104
100
AcDbEntity
8
1
62
256
6
ByLayer
370
18
48
1
60
1
100
AcDbLine
10
-45.085946
20
-6.500002
30
0
11
-44.625163
21
-3
31
0
39
0
210
0
220
0
230
1
0
LINE
5
108
100
AcDbEntity
8
1
62
256
6
ByLayer
370
18
48
1
60
1
100
AcDbLine
10
42.083343
20
2.8
30
0
11
41.622559
21
6.299998
31
0
39
0
210
0
220
0
230
1
0
LINE
5
109
100
AcDbEntity
8
1
62
256
6
ByLayer
370
18
48
1
60
1
100
AcDbLine
10
41.622559
20
6.299998
30
0
11
42.544126
21
6.300002
31
0
39
0
210
0
220
0
230
1
0
LINE
5
10A
100
AcDbEntity
8
1
62
256
6
ByLayer
370
18
48
1
60
1
100
AcDbLine
10
42.544126
20
6.300002
30
0
11
42.083343
21
2.8
31
0
39
0
210
0
220
0
230
1
0
LINE
5
10C
100
AcDbEntity
8
1
62
256
6
ByLayer
370
18
48
1
60
1
100
AcDbLine
10
42.083343
20
-2.8
30
0
11
42.544126
21
-6.299998
31
0
39
0
210
0
220
0
230
1
0
LINE
5
10D
100
AcDbEntity
8
1
62
256
6
ByLayer
370
18
48
1
60
1
100
AcDbLine
10
42.544126
20
-6.299998
30
0
11
41.622559
21
-6.300002
31
0
39
0
210
0
220
0
230
1
0
LINE
5
10E
100
AcDbEntity
8
1
62
256
6
ByLayer
370
18
48
1
60
1
100
AcDbLine
10
41.622559
20
-6.300002
30
0
11
42.083343
21
-2.8
31
0
39
0
210
0
220
0
230
1
0
MTEXT
5
F8
100
AcDbEntity
8
SK6
62
256
6
ByLayer
370
13
48
1
60
0
100
AcDbMText
10
-29.474126
20
35.340328
30
0
210
0
220
0
230
1
1
\W0.7074;860.1-0560-017A1-SM 1210
40
3.5
41
0
44
1.084337
50
0
71
7
72
5
7
iso_b_vert
0
MTEXT
5
FC
100
AcDbEntity
8
SK2
62
256
6
ByLayer
370
18
48
1
60
0
100
AcDbMText
10
-46.189796
20
16.409024
30
0
210
0
220
0
230
1
1
%%c
40
3.5
41
0
44
1.084337
50
90
71
7
72
5
7
iso_b_vert
0
MTEXT
5
FD
100
AcDbEntity
8
SK2
62
256
6
ByLayer
370
18
48
1
60
0
100
AcDbMText
10
-46.189796
20
21.63168
30
0
210
0
220
0
230
1
1
\W0.7317;6,000
40
3.5
41
0
44
1.084337
50
90
71
7
72
5
7
iso_b_vert
0
MTEXT
5
106
100
AcDbEntity
8
2
62
256
6
ByLayer
370
18
48
1
60
0
100
AcDbMText
10
40.518709
20
14.80211
30
0
210
0
220
0
230
1
1
%%c
40
3.5
41
0
44
1.084337
50
90
71
7
72
5
7
iso_b_vert
0
MTEXT
5
107
100
AcDbEntity
8
2
62
256
6
ByLayer
370
18
48
1
60
0
100
AcDbMText
10
40.518709
20
20.024766
30
0
210
0
220
0
230
1
1
\W0.7317;5,600
40
3.5
41
0
44
1.084337
50
90
71
7
72
5
7
iso_b_vert
0
HATCH
5
101
100
AcDbEntity
8
SK2
62
256
6
ByLayer
370
13
48
1
60
0
100
AcDbHatch
10
0
20
0
30
0
210
0
220
0
230
1
2
ANSI31
70
0
71
0
91
1
92
5
93
3
72
1
10
-44.6251625675374
20
3
11
-45.0859463090902
21
6.49999830744682
72
1
10
-45.0859463090902
20
6.49999830744682
11
-44.1643788259847
21
6.50000169255318
72
1
10
-44.1643788259847
20
6.50000169255318
11
-44.6251625675374
21
3
97
0
75
0
76
1
52
0
41
0.0062
77
0
78
1
53
45
43
0
44
0
45
-0.0139193969876572
46
0.0139193969876572
79
0
47
0
98
1
10
0
20
0
0
HATCH
5
105
100
AcDbEntity
8
SK2
62
256
6
ByLayer
370
13
48
1
60
0
100
AcDbHatch
10
0
20
0
30
0
210
0
220
0
230
1
2
ANSI31
70
0
71
0
91
1
92
5
93
3
72
1
10
-44.6251625675374
20
-3
11
-44.1643788259847
21
-6.49999830744682
72
1
10
-44.1643788259847
20
-6.49999830744682
11
-45.0859463090902
21
-6.50000169255318
72
1
10
-45.0859463090902
20
-6.50000169255318
11
-44.6251625675374
21
-3
97
0
75
0
76
1
52
0
41
0.0062
77
0
78
1
53
45
43
0
44
0
45
-0.0139193969876572
46
0.0139193969876572
79
0
47
0
98
1
10
0
20
0
0
HATCH
5
10B
100
AcDbEntity
8
2
62
256
6
ByLayer
370
13
48
1
60
0
100
AcDbHatch
10
0
20
0
30
0
210
0
220
0
230
1
2
ANSI31
70
0
71
0
91
1
92
5
93
3
72
1
10
42.0833426152951
20
2.80000000000001
11
41.6225588737423
21
6.29999830744683
72
1
10
41.6225588737423
20
6.29999830744683
11
42.5441263568478
21
6.3000016925532
72
1
10
42.5441263568478
20
6.3000016925532
11
42.0833426152951
21
2.80000000000001
97
0
75
0
76
1
52
0
41
0.0062
77
0
78
1
53
45
43
0
44
0
45
-0.0139193969876572
46
0.0139193969876572
79
0
47
0
98
1
10
0
20
0
0
HATCH
5
10F
100
AcDbEntity
8
2
62
256
6
ByLayer
370
13
48
1
60
0
100
AcDbHatch
10
0
20
0
30
0
210
0
220
0
230
1
2
ANSI31
70
0
71
0
91
1
92
5
93
3
72
1
10
42.0833426152951
20
-2.79999999999998
11
42.5441263568478
21
-6.2999983074468
72
1
10
42.5441263568478
20
-6.2999983074468
11
41.6225588737423
21
-6.30000169255317
72
1
10
41.6225588737423
20
-6.30000169255317
11
42.0833426152951
21
-2.79999999999998
97
0
75
0
76
1
52
0
41
0.0062
77
0
78
1
53
45
43
0
44
0
45
-0.0139193969876572
46
0.0139193969876572
79
0
47
0
98
1
10
0
20
0
0
DIMENSION
5
111
100
AcDbEntity
8
SK2
62
256
6
ByLayer
370
13
48
1
60
0
100
AcDbDimension
2
_U0
10
29
20
-13.013398
30
0
11
14.5
21
-13.013398
31
0
70
32
71
1
72
1
41
1
210
0
220
0
230
1
3
Standard
100
AcDbAlignedDimension
13
0
23
0
33
0
14
29
24
-2.8
34
0
50
0
100
AcDbRotatedDimension
1001
ACAD
1000
DSTYLE
1002
{
1070
   371
1070
    13
1070
   372
1070
    13
1070
   170
1070
     0
1070
   144
1040
1.0
1070
   277
1070
     2
1070
   278
1070
    44
1070
   146
1040
1.0
1070
   345
1005
16
1070
   347
1005
16
1070
   346
1005
16
1070
   344
1005
0
1070
   343
1005
0
1070
   172
1070
     1
1070
    76
1070
     0
1070
    75
1070
     0
1070
   282
1070
     0
1070
   281
1070
     0
1070
    71
1070
     0
1070
    74
1070
     0
1070
   279
1070
     0
1070
   173
1070
     1
1070
   340
1005
F9
1070
   271
1070
     2
1070
   272
1070
     2
1070
    77
1070
     1
1070
    73
1070
     1
1070
   171
1070
     3
1070
   274
1070
     4
1070
   177
1070
    35
1070
   176
1070
    35
1070
   178
1070
    35
1070
    48
1040
-0.1
1070
    41
1040
3.5
1070
   147
1040
1.75
1070
    42
1040
1.5875
1070
    44
1040
2.0
1070
   140
1040
3.5
1002
}
1001
ACAD_DSTYLE_DIM_LINETYPE
1070
   380
1005
16
1001
ACAD_DSTYLE_DIM_EXT1_LINETYPE
1070
   381
1005
16
1001
ACAD_DSTYLE_DIM_EXT2_LINETYPE
1070
   382
1005
16
0
DIMENSION
5
12A
100
AcDbEntity
8
SK2
62
256
6
ByLayer
370
13
48
1
60
0
100
AcDbDimension
2
_U1
10
30
20
-31.692985
30
0
11
-3
21
-31.692985
31
0
70
32
71
1
72
1
41
1
210
0
220
0
230
1
3
Standard
100
AcDbAlignedDimension
13
-36
23
-3
33
0
14
30
24
0
34
0
50
0
100
AcDbRotatedDimension
1001
ACAD
1000
DSTYLE
1002
{
1070
   371
1070
    13
1070
   372
1070
    13
1070
   170
1070
     0
1070
   144
1040
1.0
1070
   277
1070
     2
1070
   278
1070
    44
1070
   146
1040
1.0
1070
   345
1005
16
1070
   347
1005
16
1070
   346
1005
16
1070
   344
1005
0
1070
   343
1005
0
1070
   172
1070
     1
1070
    76
1070
     0
1070
    75
1070
     0
1070
   282
1070
     0
1070
   281
1070
     0
1070
    71
1070
     0
1070
    74
1070
     0
1070
   279
1070
     0
1070
   173
1070
     1
1070
   340
1005
F9
1070
   271
1070
     2
1070
   272
1070
     2
1070
    77
1070
     1
1070
    73
1070
     1
1070
   171
1070
     3
1070
   274
1070
     4
1070
   177
1070
    35
1070
   176
1070
    35
1070
   178
1070
    35
1070
    48
1040
-0.1
1070
    41
1040
3.5
1070
   147
1040
1.75
1070
    42
1040
1.5875
1070
    44
1040
2.0
1070
   140
1040
3.5
1002
}
1001
ACAD_DSTYLE_DIM_LINETYPE
1070
   380
1005
16
1001
ACAD_DSTYLE_DIM_EXT1_LINETYPE
1070
   381
1005
16
1001
ACAD_DSTYLE_DIM_EXT2_LINETYPE
1070
   382
1005
16
0
DIMENSION
5
142
100
AcDbEntity
8
SK2
62
256
6
ByLayer
370
13
48
1
60
0
100
AcDbDimension
2
_U2
10
30
20
14.409119
30
0
11
21.1951
21
14.409119
31
0
70
32
71
1
72
1
41
1
210
0
220
0
230
1
3
Standard
100
AcDbAlignedDimension
13
12.3902
23
2.8
33
0
14
30
24
0
34
0
50
0
100
AcDbRotatedDimension
1001
ACAD
1000
DSTYLE
1002
{
1070
   371
1070
    13
1070
   372
1070
    13
1070
   170
1070
     0
1070
   144
1040
1.0
1070
   277
1070
     2
1070
   278
1070
    44
1070
   146
1040
1.0
1070
   345
1005
16
1070
   347
1005
16
1070
   346
1005
16
1070
   344
1005
0
1070
   343
1005
0
1070
   172
1070
     1
1070
    76
1070
     0
1070
    75
1070
     0
1070
   282
1070
     0
1070
   281
1070
     0
1070
    71
1070
     0
1070
    74
1070
     0
1070
   279
1070
     0
1070
   173
1070
     1
1070
   340
1005
F9
1070
   271
1070
     2
1070
   272
1070
     2
1070
    77
1070
     1
1070
    73
1070
     1
1070
   171
1070
     3
1070
   274
1070
     4
1070
   177
1070
    35
1070
   176
1070
    35
1070
   178
1070
    35
1070
    48
1040
-0.1
1070
    41
1040
3.5
1070
   147
1040
1.75
1070
    42
1040
1.5875
1070
    44
1040
2.0
1070
   140
1040
3.5
1002
}
1001
ACAD_DSTYLE_DIM_LINETYPE
1070
   380
1005
16
1001
ACAD_DSTYLE_DIM_EXT1_LINETYPE
1070
   381
1005
16
1001
ACAD_DSTYLE_DIM_EXT2_LINETYPE
1070
   382
1005
16
0
DIMENSION
5
15A
100
AcDbEntity
8
SK2
62
256
6
ByLayer
370
13
48
1
60
0
100
AcDbDimension
2
_U3
10
29
20
-15.602503
30
0
11
47.333333
21
-15.602503
31
0
70
32
71
1
72
1
41
1
210
0
220
0
230
1
3
Standard
100
AcDbAlignedDimension
13
30
23
0
33
0
14
29
24
-2.8
34
0
50
0
100
AcDbRotatedDimension
1001
ACAD
1000
DSTYLE
1002
{
1070
   371
1070
    13
1070
   372
1070
    13
1070
   170
1070
     0
1070
   144
1040
1.0
1070
   277
1070
     2
1070
   278
1070
    44
1070
   146
1040
1.0
1070
   345
1005
16
1070
   347
1005
16
1070
   346
1005
16
1070
   344
1005
0
1070
   343
1005
0
1070
   172
1070
     1
1070
    76
1070
     0
1070
    75
1070
     0
1070
   282
1070
     0
1070
   281
1070
     0
1070
    71
1070
     0
1070
    74
1070
     0
1070
   279
1070
     0
1070
   173
1070
     1
1070
   340
1005
F9
1070
   271
1070
     2
1070
   272
1070
     2
1070
    77
1070
     1
1070
    73
1070
     1
1070
   171
1070
     3
1070
   274
1070
     4
1070
   177
1070
    35
1070
   176
1070
    35
1070
   178
1070
    35
1070
    48
1040
-0.1
1070
    41
1040
3.5
1070
   147
1040
1.75
1070
    42
1040
1.5875
1070
    44
1040
2.0
1070
   140
1040
3.5
1002
}
1001
ACAD_DSTYLE_DIM_LINETYPE
1070
   380
1005
16
1001
ACAD_DSTYLE_DIM_EXT1_LINETYPE
1070
   381
1005
16
1001
ACAD_DSTYLE_DIM_EXT2_LINETYPE
1070
   382
1005
16
0
DIMENSION
5
174
100
AcDbEntity
8
SK2
62
256
6
ByLayer
370
13
48
1
60
0
100
AcDbDimension
2
_U4
10
29
20
-21.343428
30
0
11
-3.5
21
-21.343428
31
0
70
32
71
1
72
1
41
1
210
0
220
0
230
1
3
Standard
100
AcDbAlignedDimension
13
-36
23
-3
33
0
14
29
24
-2.8
34
0
50
0
100
AcDbRotatedDimension
1001
ACAD
1000
DSTYLE
1002
{
1070
   371
1070
    13
1070
   372
1070
    13
1070
   170
1070
     0
1070
   144
1040
1.0
1070
   277
1070
     2
1070
   278
1070
    44
1070
   146
1040
1.0
1070
   345
1005
16
1070
   347
1005
16
1070
   346
1005
16
1070
   344
1005
0
1070
   343
1005
0
1070
   172
1070
     1
1070
    76
1070
     0
1070
    75
1070
     0
1070
   282
1070
     0
1070
   281
1070
     0
1070
    71
1070
     0
1070
    74
1070
     0
1070
   279
1070
     0
1070
   173
1070
     1
1070
   340
1005
F9
1070
   271
1070
     2
1070
   272
1070
     2
1070
    77
1070
     1
1070
    73
1070
     1
1070
   171
1070
     3
1070
   274
1070
     4
1070
   177
1070
    35
1070
   176
1070
    35
1070
   178
1070
    35
1070
    48
1040
-0.1
1070
    41
1040
3.5
1070
   147
1040
1.75
1070
    42
1040
1.5875
1070
    44
1040
2.0
1070
   140
1040
3.5
1002
}
1001
ACAD_DSTYLE_DIM_LINETYPE
1070
   380
1005
16
1001
ACAD_DSTYLE_DIM_EXT1_LINETYPE
1070
   381
1005
16
1001
ACAD_DSTYLE_DIM_EXT2_LINETYPE
1070
   382
1005
16
0
ENDSEC
0
SECTION
2
OBJECTS
0
DICTIONARY
5
1fc
330
0
100
AcDbDictionary
280
0
281
1
3
ACAD_GROUP
350
1fd
3
ACAD_MLINESTYLE
350
1fe
0
DICTIONARY
5
1fd
330
0
100
AcDbDictionary
280
0
281
1
0
DICTIONARY
5
1fe
330
0
100
AcDbDictionary
280
0
281
1
3
Standard
350
18
0
MLINESTYLE
5
18
330
1fe
100
AcDbMlineStyle
2
Standard
70
0
3

62
256
51
90
52
90
71
2
49
-0.5
62
256
6
ByLayer
49
0.5
62
256
6
ByLayer
0
RASTERVARIABLES
5
1ea
330

100
AcDbRasterVariables
90
0
70
1
71
1
72
1
0
ENDSEC
0
EOF
