0
SECTION
2
HEADER
9
$ACADVER
1
AC1015
9
$DWGCODEPAGE
3
ANSI_1252
9
$HANDSEED
5
20b
9
$ANGBASE
50
0
9
$ANGDIR
70
0
9
$ATTMODE
70
1
9
$AUNITS
70
0
9
$AUPREC
70
0
9
$CECOLOR
62
256
9
$CELTSCALE
40
1
9
$CELTYPE
6
ByLayer
9
$CELWEIGHT
370
18
9
$CLAYER
8
0
9
$CMLJUST
70
0
9
$CMLSCALE
40
1
9
$CMLSTYLE
2
Standard
9
$DIMSTYLE
2
Standard
9
$TEXTSIZE
40
0.2
9
$TEXTSTYLE
7
Standard
9
$LUNITS
70
2
9
$LUPREC
70
4
9
$EXTNAMES
290
1
9
$INSUNITS
70
4
9
$LTSCALE
40
1
9
$LWDISPLAY
290
1
9
$PDMODE
70
0
9
$PDSIZE
40
0
9
$PLINEGEN
70
0
0
ENDSEC
0
SECTION
2
CLASSES
0
CLASS
1
RASTERVARIABLES
2
AcDbRasterVariables
3
ISM
90
0
280
0
281
0
0
ENDSEC
0
SECTION
2
TABLES
0
TABLE
2
VPORT
5
201
100
AcDbSymbolTable
0
VPORT
5
1
100
AcDbSymbolTableRecord
100
AcDbViewportTableRecord
2
*Active
70
0
10
0
20
0
11
1
21
1
12
-1
22
1
13
0
23
0
14
0.5
24
0.5
15
10
25
10
16
0
26
0
36
1
17
0
27
0
37
0
0
ENDTAB
0
TABLE
2
LTYPE
5
202
100
AcDbSymbolTable
0
LTYPE
5
14
100
AcDbSymbolTableRecord
100
AcDbLinetypeTableRecord
70
0
2
ByBlock
3

72
65
73
0
40
0
0
LTYPE
5
15
100
AcDbSymbolTableRecord
100
AcDbLinetypeTableRecord
70
0
2
ByLayer
3

72
65
73
0
40
0
0
LTYPE
5
16
100
AcDbSymbolTableRecord
100
AcDbLinetypeTableRecord
70
0
2
Continuous
3
Solid line
72
65
73
0
40
0
0
LTYPE
5
6E
100
AcDbSymbolTableRecord
100
AcDbLinetypeTableRecord
70
0
2
CENTER
3
____ _ ____ _ ____ _ ____
72
65
73
4
40
47.5
49
22
74
0
49
-8.5
74
0
49
8.5
74
0
49
-8.5
74
0
0
LTYPE
5
6F
100
AcDbSymbolTableRecord
100
AcDbLinetypeTableRecord
70
0
2
DASHED
3
__ __ __ __ __ __ __ __ __
72
65
73
2
40
25.72
49
12.86
74
0
49
-12.86
74
0
0
ENDTAB
0
TABLE
2
LAYER
5
203
100
AcDbSymbolTable
0
LAYER
5
10
100
AcDbSymbolTableRecord
100
AcDbLayerTableRecord
2
0
70
0
62
7
6
Continuous
290
1
370
-3
390
0
0
LAYER
5
71
100
AcDbSymbolTableRecord
100
AcDbLayerTableRecord
2
80
70
0
62
-6
6
Continuous
290
1
370
-3
390
0
0
LAYER
5
73
100
AcDbSymbolTableRecord
100
AcDbLayerTableRecord
2
81
70
0
62
-3
6
Continuous
290
1
370
-3
390
0
0
LAYER
5
75
100
AcDbSymbolTableRecord
100
AcDbLayerTableRecord
2
1
70
0
62
4
6
Continuous
290
1
370
-3
390
0
0
LAYER
5
93
100
AcDbSymbolTableRecord
100
AcDbLayerTableRecord
2
4
70
0
62
-2
6
CENTER
290
1
370
-3
390
0
0
LAYER
5
AC
100
AcDbSymbolTableRecord
100
AcDbLayerTableRecord
2
2
70
0
62
7
6
Continuous
290
1
370
-3
390
0
0
LAYER
5
115
100
AcDbSymbolTableRecord
100
AcDbLayerTableRecord
2
Defpoints
70
0
62
7
6
Continuous
290
0
370
-3
390
0
0
LAYER
5
1ed
100
AcDbSymbolTableRecord
100
AcDbLayerTableRecord
2
SK1
70
0
62
4
6
Continuous
290
1
370
-3
390
0
0
LAYER
5
1ee
100
AcDbSymbolTableRecord
100
AcDbLayerTableRecord
2
SK4
70
0
62
2
6
CENTER
290
1
370
-3
390
0
0
LAYER
5
1ef
100
AcDbSymbolTableRecord
100
AcDbLayerTableRecord
2
SK2
70
0
62
7
6
Continuous
290
1
370
-3
390
0
0
LAYER
5
1f0
100
AcDbSymbolTableRecord
100
AcDbLayerTableRecord
2
SK6
70
0
62
5
6
Continuous
290
1
370
-3
390
0
0
ENDTAB
0
TABLE
2
STYLE
5
204
100
AcDbSymbolTable
0
STYLE
5
11
100
AcDbSymbolTableRecord
100
AcDbTextStyleTableRecord
2
Standard
3
txt
70
0
71
0
40
0
41
1
42
0
50
0
0
STYLE
5
FA
100
AcDbSymbolTableRecord
100
AcDbTextStyleTableRecord
2
iso_b_vert
3
simplex.shx
70
0
71
0
40
0
41
1
42
0
50
0
0
STYLE
5
FB
100
AcDbSymbolTableRecord
100
AcDbTextStyleTableRecord
2
DWGDirectTextStyle
3
simplex
70
0
71
0
40
0
41
1
42
0
50
0
0
ENDTAB
0
TABLE
2
DIMSTYLE
5
205
100
AcDbSymbolTable
100
AcDbDimStyleTable
0
DIMSTYLE
105
27
100
AcDbSymbolTableRecord
100
AcDbDimStyleTableRecord
2
Standard
70
0
3
<>
41
0.18
42
0.0625
44
0.18
140
0.18
147
0.09
73
0
74
0
77
1
271
2
275
0
278
52
280
0
340
11
0
ENDTAB
0
TABLE
2
VIEW
5
206
100
AcDbSymbolTable
0
ENDTAB
0
TABLE
2
UCS
5
207
100
AcDbSymbolTable
0
ENDTAB
0
TABLE
2
APPID
5
208
100
AcDbSymbolTable
0
APPID
5
12
100
AcDbSymbolTableRecord
100
AcDbRegAppTableRecord
2
ACAD
70
0
0
APPID
5
111
100
AcDbSymbolTableRecord
100
AcDbRegAppTableRecord
2
ACAD_DSTYLE_DIMBREAK
70
0
0
APPID
5
1AC
100
AcDbSymbolTableRecord
100
AcDbRegAppTableRecord
2
ACAD_DSTYLE_DIM_LINETYPE
70
0
0
APPID
5
1AD
100
AcDbSymbolTableRecord
100
AcDbRegAppTableRecord
2
ACAD_DSTYLE_DIM_EXT1_LINETYPE
70
0
0
APPID
5
1AE
100
AcDbSymbolTableRecord
100
AcDbRegAppTableRecord
2
ACAD_DSTYLE_DIM_EXT2_LINETYPE
70
0
0
APPID
5
1E9
100
AcDbSymbolTableRecord
100
AcDbRegAppTableRecord
2
ACAD_MLEADERVER
70
0
0
ENDTAB
0
TABLE
2
BLOCK_RECORD
5
209
100
AcDbSymbolTable
0
BLOCK_RECORD
5
1F
100
AcDbSymbolTableRecord
100
AcDbBlockTableRecord
2
*Model_Space
340
0
70
0
0
BLOCK_RECORD
5
1B
100
AcDbSymbolTableRecord
100
AcDbBlockTableRecord
2
*Paper_Space
340
0
70
0
0
BLOCK_RECORD
5
23
100
AcDbSymbolTableRecord
100
AcDbBlockTableRecord
2
*Paper_Space0
340
0
70
0
0
BLOCK_RECORD
5
116
100
AcDbSymbolTableRecord
100
AcDbBlockTableRecord
2
*D1
340
0
70
0
0
BLOCK_RECORD
5
122
100
AcDbSymbolTableRecord
100
AcDbBlockTableRecord
2
_U0
340
0
70
0
0
BLOCK_RECORD
5
12E
100
AcDbSymbolTableRecord
100
AcDbBlockTableRecord
2
*D3
340
0
70
0
0
BLOCK_RECORD
5
13A
100
AcDbSymbolTableRecord
100
AcDbBlockTableRecord
2
_U1
340
0
70
0
0
BLOCK_RECORD
5
146
100
AcDbSymbolTableRecord
100
AcDbBlockTableRecord
2
*D5
340
0
70
0
0
BLOCK_RECORD
5
153
100
AcDbSymbolTableRecord
100
AcDbBlockTableRecord
2
_U2
340
0
70
0
0
BLOCK_RECORD
5
15F
100
AcDbSymbolTableRecord
100
AcDbBlockTableRecord
2
*D7
340
0
70
0
0
BLOCK_RECORD
5
16D
100
AcDbSymbolTableRecord
100
AcDbBlockTableRecord
2
_U3
340
0
70
0
0
BLOCK_RECORD
5
179
100
AcDbSymbolTableRecord
100
AcDbBlockTableRecord
2
*D9
340
0
70
0
0
BLOCK_RECORD
5
185
100
AcDbSymbolTableRecord
100
AcDbBlockTableRecord
2
_U4
340
0
70
0
0
ENDTAB
0
ENDSEC
0
SECTION
2
BLOCKS
0
BLOCK
5
20
100
AcDbEntity
8
0
100
AcDbBlockBegin
2
*Model_Space
70
0
10
0
20
0
30
0
3
*Model_Space
0
ENDBLK
5
21
100
AcDbEntity
8
0
100
AcDbBlockEnd
0
BLOCK
5
1C
100
AcDbEntity
8
0
100
AcDbBlockBegin
2
*Paper_Space
70
0
10
0
20
0
30
0
3
*Paper_Space
0
ENDBLK
5
1D
100
AcDbEntity
8
0
100
AcDbBlockEnd
0
BLOCK
5
24
100
AcDbEntity
8
0
100
AcDbBlockBegin
2
*Paper_Space0
70
0
10
0
20
0
30
0
3
*Paper_Space0
0
ENDBLK
5
25
100
AcDbEntity
8
0
100
AcDbBlockEnd
0
BLOCK
5
117
100
AcDbEntity
8
0
100
AcDbBlockBegin
2
*D1
70
1
10
0
20
0
30
0
3
*D1
0
LINE
5
119
100
AcDbEntity
8
0
62
256
6
ByLayer
370
-2
48
1
60
0
100
AcDbLine
10
0
20
-1.5875
30
0
11
0
21
-14.463398
31
0
39
0
210
0
220
0
230
1
0
LINE
5
11A
100
AcDbEntity
8
0
62
256
6
ByLayer
370
-2
48
1
60
0
100
AcDbLine
10
29.2
20
-3.8375
30
0
11
29.2
21
-14.463398
31
0
39
0
210
0
220
0
230
1
0
LINE
5
11B
100
AcDbEntity
8
0
62
256
6
ByLayer
370
-2
48
1
60
0
100
AcDbLine
10
3.5
20
-12.463398
30
0
11
25.7
21
-12.463398
31
0
39
0
210
0
220
0
230
1
0
SOLID
5
11C
100
AcDbEntity
8
0
62
256
6
ByLayer
370
-1
48
1
60
0
100
AcDbTrace
10
3.5
20
-11.880065
30
0
11
3.5
21
-13.046732
31
0
12
0
22
-12.463398
32
0
13
0
23
-12.463398
33
0
39
0
210
0
220
0
230
1
0
SOLID
5
11D
100
AcDbEntity
8
0
62
256
6
ByLayer
370
-1
48
1
60
0
100
AcDbTrace
10
25.7
20
-13.046732
30
0
11
25.7
21
-11.880065
31
0
12
29.2
22
-12.463398
32
0
13
29.2
23
-12.463398
33
0
39
0
210
0
220
0
230
1
0
MTEXT
5
11E
100
AcDbEntity
8
0
62
256
6
ByLayer
370
18
48
1
60
0
100
AcDbMText
10
14.6
20
-5.463398
30
0
210
0
220
0
230
1
1
\A1;29.20
40
3.5
41
0
44
1
50
0
71
5
72
5
7
iso_b_vert
0
POINT
5
11F
100
AcDbEntity
8
Defpoints
62
0
6
ByLayer
370
-1
48
1
60
0
100
AcDbPoint
10
0
20
0
30
0
39
0
210
0
220
0
230
1
50
360
0
POINT
5
120
100
AcDbEntity
8
Defpoints
62
0
6
ByLayer
370
-1
48
1
60
0
100
AcDbPoint
10
29.2
20
-2.25
30
0
39
0
210
0
220
0
230
1
50
360
0
POINT
5
121
100
AcDbEntity
8
Defpoints
62
0
6
ByLayer
370
-1
48
1
60
0
100
AcDbPoint
10
29.2
20
-12.463398
30
0
39
0
210
0
220
0
230
1
50
360
0
ENDBLK
5
118
100
AcDbEntity
8
0
100
AcDbBlockEnd
0
BLOCK
5
129
100
AcDbEntity
8
0
100
AcDbBlockBegin
2
_U0
70
0
10
0
20
0
30
0
3
_U0
0
MTEXT
5
123
100
AcDbEntity
8
SK2
62
256
6
ByLayer
370
13
48
1
60
0
100
AcDbMText
10
9.462701
20
-11.430765
30
0
210
0
220
0
230
1
1
\W0.7317;29,20
40
3.5
41
0
44
1.084337
50
0
71
7
72
5
7
iso_b_vert
0
LINE
5
124
100
AcDbEntity
8
SK2
62
256
6
ByLayer
370
13
48
1
60
0
100
AcDbLine
10
0
20
-1.5875
30
0
11
0
21
-14.463398
31
0
39
0
210
0
220
0
230
1
0
LINE
5
125
100
AcDbEntity
8
SK2
62
256
6
ByLayer
370
13
48
1
60
0
100
AcDbLine
10
29.2
20
-3.8375
30
0
11
29.2
21
-14.463398
31
0
39
0
210
0
220
0
230
1
0
LINE
5
126
100
AcDbEntity
8
SK2
62
256
6
ByLayer
370
13
48
1
60
0
100
AcDbLine
10
0
20
-12.463398
30
0
11
29.2
21
-12.463398
31
0
39
0
210
0
220
0
230
1
0
SOLID
5
127
100
AcDbEntity
8
SK2
62
256
6
ByLayer
370
18
48
1
60
0
100
AcDbTrace
10
0
20
-12.463398
30
0
11
3.499998
21
-12.002615
31
0
12
3.500002
22
-12.924182
32
0
13
3.500002
23
-12.924182
33
0
39
0
210
0
220
0
230
1
0
SOLID
5
128
100
AcDbEntity
8
SK2
62
256
6
ByLayer
370
18
48
1
60
0
100
AcDbTrace
10
29.2
20
-12.463398
30
0
11
25.700002
21
-12.924182
31
0
12
25.699998
22
-12.002615
32
0
13
25.699998
23
-12.002615
33
0
39
0
210
0
220
0
230
1
0
ENDBLK
5
12A
100
AcDbEntity
8
0
100
AcDbBlockEnd
0
BLOCK
5
12F
100
AcDbEntity
8
0
100
AcDbBlockBegin
2
*D3
70
1
10
0
20
0
30
0
3
*D3
0
LINE
5
131
100
AcDbEntity
8
0
62
256
6
ByLayer
370
-2
48
1
60
0
100
AcDbLine
10
-36
20
-4.5875
30
0
11
-36
21
-33.692985
31
0
39
0
210
0
220
0
230
1
0
LINE
5
132
100
AcDbEntity
8
0
62
256
6
ByLayer
370
-2
48
1
60
0
100
AcDbLine
10
30
20
-1.5875
30
0
11
30
21
-33.692985
31
0
39
0
210
0
220
0
230
1
0
LINE
5
133
100
AcDbEntity
8
0
62
256
6
ByLayer
370
-2
48
1
60
0
100
AcDbLine
10
-32.5
20
-31.692985
30
0
11
26.5
21
-31.692985
31
0
39
0
210
0
220
0
230
1
0
SOLID
5
134
100
AcDbEntity
8
0
62
256
6
ByLayer
370
-1
48
1
60
0
100
AcDbTrace
10
-32.5
20
-31.109652
30
0
11
-32.5
21
-32.276319
31
0
12
-36
22
-31.692985
32
0
13
-36
23
-31.692985
33
0
39
0
210
0
220
0
230
1
0
SOLID
5
135
100
AcDbEntity
8
0
62
256
6
ByLayer
370
-1
48
1
60
0
100
AcDbTrace
10
26.5
20
-32.276319
30
0
11
26.5
21
-31.109652
31
0
12
30
22
-31.692985
32
0
13
30
23
-31.692985
33
0
39
0
210
0
220
0
230
1
0
MTEXT
5
136
100
AcDbEntity
8
0
62
256
6
ByLayer
370
18
48
1
60
0
100
AcDbMText
10
-3
20
-24.692985
30
0
210
0
220
0
230
1
1
\A1;66.00
40
3.5
41
0
44
1
50
0
71
5
72
5
7
iso_b_vert
0
POINT
5
137
100
AcDbEntity
8
Defpoints
62
0
6
ByLayer
370
-1
48
1
60
0
100
AcDbPoint
10
-36
20
-3
30
0
39
0
210
0
220
0
230
1
50
360
0
POINT
5
138
100
AcDbEntity
8
Defpoints
62
0
6
ByLayer
370
-1
48
1
60
0
100
AcDbPoint
10
30
20
0
30
0
39
0
210
0
220
0
230
1
50
360
0
POINT
5
139
100
AcDbEntity
8
Defpoints
62
0
6
ByLayer
370
-1
48
1
60
0
100
AcDbPoint
10
30
20
-31.692985
30
0
39
0
210
0
220
0
230
1
50
360
0
ENDBLK
5
130
100
AcDbEntity
8
0
100
AcDbBlockEnd
0
BLOCK
5
141
100
AcDbEntity
8
0
100
AcDbBlockBegin
2
_U1
70
0
10
0
20
0
30
0
3
_U1
0
MTEXT
5
13B
100
AcDbEntity
8
SK2
62
256
6
ByLayer
370
13
48
1
60
0
100
AcDbMText
10
-8.137299
20
-30.660352
30
0
210
0
220
0
230
1
1
\W0.7317;66,00
40
3.5
41
0
44
1.084337
50
0
71
7
72
5
7
iso_b_vert
0
LINE
5
13C
100
AcDbEntity
8
SK2
62
256
6
ByLayer
370
13
48
1
60
0
100
AcDbLine
10
-36
20
-4.5875
30
0
11
-36
21
-33.692985
31
0
39
0
210
0
220
0
230
1
0
LINE
5
13D
100
AcDbEntity
8
SK2
62
256
6
ByLayer
370
13
48
1
60
0
100
AcDbLine
10
30
20
-1.5875
30
0
11
30
21
-33.692985
31
0
39
0
210
0
220
0
230
1
0
LINE
5
13E
100
AcDbEntity
8
SK2
62
256
6
ByLayer
370
13
48
1
60
0
100
AcDbLine
10
-36
20
-31.692985
30
0
11
30
21
-31.692985
31
0
39
0
210
0
220
0
230
1
0
SOLID
5
13F
100
AcDbEntity
8
SK2
62
256
6
ByLayer
370
18
48
1
60
0
100
AcDbTrace
10
-36
20
-31.692985
30
0
11
-32.500002
21
-31.232202
31
0
12
-32.499998
22
-32.153769
32
0
13
-32.499998
23
-32.153769
33
0
39
0
210
0
220
0
230
1
0
SOLID
5
140
100
AcDbEntity
8
SK2
62
256
6
ByLayer
370
18
48
1
60
0
100
AcDbTrace
10
30
20
-31.692985
30
0
11
26.500002
21
-32.153769
31
0
12
26.499998
22
-31.232202
32
0
13
26.499998
23
-31.232202
33
0
39
0
210
0
220
0
230
1
0
ENDBLK
5
142
100
AcDbEntity
8
0
100
AcDbBlockEnd
0
BLOCK
5
147
100
AcDbEntity
8
0
100
AcDbBlockBegin
2
*D5
70
1
10
0
20
0
30
0
3
*D5
0
LINE
5
149
100
AcDbEntity
8
0
62
256
6
ByLayer
370
-2
48
1
60
0
100
AcDbLine
10
14.2918
20
3.8375
30
0
11
14.2918
21
15.859119
31
0
39
0
210
0
220
0
230
1
0
LINE
5
14A
100
AcDbEntity
8
0
62
256
6
ByLayer
370
-2
48
1
60
0
100
AcDbLine
10
30
20
1.5875
30
0
11
30
21
15.859119
31
0
39
0
210
0
220
0
230
1
0
LINE
5
14B
100
AcDbEntity
8
0
62
256
6
ByLayer
370
-2
48
1
60
0
100
AcDbLine
10
10.7918
20
13.859119
30
0
11
7.2918
21
13.859119
31
0
39
0
210
0
220
0
230
1
0
LINE
5
14C
100
AcDbEntity
8
0
62
256
6
ByLayer
370
-2
48
1
60
0
100
AcDbLine
10
33.5
20
13.859119
30
0
11
37
21
13.859119
31
0
39
0
210
0
220
0
230
1
0
SOLID
5
14D
100
AcDbEntity
8
0
62
256
6
ByLayer
370
-1
48
1
60
0
100
AcDbTrace
10
10.7918
20
13.275786
30
0
11
10.7918
21
14.442453
31
0
12
14.2918
22
13.859119
32
0
13
14.2918
23
13.859119
33
0
39
0
210
0
220
0
230
1
0
SOLID
5
14E
100
AcDbEntity
8
0
62
256
6
ByLayer
370
-1
48
1
60
0
100
AcDbTrace
10
33.5
20
14.442453
30
0
11
33.5
21
13.275786
31
0
12
30
22
13.859119
32
0
13
30
23
13.859119
33
0
39
0
210
0
220
0
230
1
0
MTEXT
5
14F
100
AcDbEntity
8
0
62
256
6
ByLayer
370
18
48
1
60
0
100
AcDbMText
10
22.1459
20
20.859119
30
0
210
0
220
0
230
1
1
\A1;15.71
40
3.5
41
0
44
1
50
0
71
5
72
5
7
iso_b_vert
0
POINT
5
150
100
AcDbEntity
8
Defpoints
62
0
6
ByLayer
370
-1
48
1
60
0
100
AcDbPoint
10
14.2918
20
2.25
30
0
39
0
210
0
220
0
230
1
50
360
0
POINT
5
151
100
AcDbEntity
8
Defpoints
62
0
6
ByLayer
370
-1
48
1
60
0
100
AcDbPoint
10
30
20
0
30
0
39
0
210
0
220
0
230
1
50
360
0
POINT
5
152
100
AcDbEntity
8
Defpoints
62
0
6
ByLayer
370
-1
48
1
60
0
100
AcDbPoint
10
30
20
13.859119
30
0
39
0
210
0
220
0
230
1
50
360
0
ENDBLK
5
148
100
AcDbEntity
8
0
100
AcDbBlockEnd
0
BLOCK
5
15A
100
AcDbEntity
8
0
100
AcDbBlockBegin
2
_U2
70
0
10
0
20
0
30
0
3
_U2
0
MTEXT
5
154
100
AcDbEntity
8
SK2
62
256
6
ByLayer
370
13
48
1
60
0
100
AcDbMText
10
17.883468
20
14.891753
30
0
210
0
220
0
230
1
1
\W0.6563;15,71
40
3.5
41
0
44
1.084337
50
0
71
7
72
5
7
iso_b_vert
0
LINE
5
155
100
AcDbEntity
8
SK2
62
256
6
ByLayer
370
13
48
1
60
0
100
AcDbLine
10
14.2918
20
3.8375
30
0
11
14.2918
21
15.859119
31
0
39
0
210
0
220
0
230
1
0
LINE
5
156
100
AcDbEntity
8
SK2
62
256
6
ByLayer
370
13
48
1
60
0
100
AcDbLine
10
30
20
1.5875
30
0
11
30
21
15.859119
31
0
39
0
210
0
220
0
230
1
0
LINE
5
157
100
AcDbEntity
8
SK2
62
256
6
ByLayer
370
13
48
1
60
0
100
AcDbLine
10
14.2918
20
13.859119
30
0
11
30
21
13.859119
31
0
39
0
210
0
220
0
230
1
0
SOLID
5
158
100
AcDbEntity
8
SK2
62
256
6
ByLayer
370
18
48
1
60
0
100
AcDbTrace
10
14.2918
20
13.859119
30
0
11
17.791798
21
14.319903
31
0
12
17.791802
22
13.398335
32
0
13
17.791802
23
13.398335
33
0
39
0
210
0
220
0
230
1
0
SOLID
5
159
100
AcDbEntity
8
SK2
62
256
6
ByLayer
370
18
48
1
60
0
100
AcDbTrace
10
30
20
13.859119
30
0
11
26.500002
21
13.398335
31
0
12
26.499998
22
14.319903
32
0
13
26.499998
23
14.319903
33
0
39
0
210
0
220
0
230
1
0
ENDBLK
5
15B
100
AcDbEntity
8
0
100
AcDbBlockEnd
0
BLOCK
5
160
100
AcDbEntity
8
0
100
AcDbBlockBegin
2
*D7
70
1
10
0
20
0
30
0
3
*D7
0
LINE
5
162
100
AcDbEntity
8
0
62
256
6
ByLayer
370
-2
48
1
60
0
100
AcDbLine
10
30
20
-1.5875
30
0
11
30
21
-17.052503
31
0
39
0
210
0
220
0
230
1
0
LINE
5
163
100
AcDbEntity
8
0
62
256
6
ByLayer
370
-2
48
1
60
0
100
AcDbLine
10
29.2
20
-3.8375
30
0
11
29.2
21
-17.052503
31
0
39
0
210
0
220
0
230
1
0
LINE
5
164
100
AcDbEntity
8
0
62
256
6
ByLayer
370
-2
48
1
60
0
100
AcDbLine
10
30
20
-15.052503
30
0
11
58.166667
21
-15.052503
31
0
39
0
210
0
220
0
230
1
0
LINE
5
165
100
AcDbEntity
8
0
62
256
6
ByLayer
370
-2
48
1
60
0
100
AcDbLine
10
33.5
20
-15.052503
30
0
11
37
21
-15.052503
31
0
39
0
210
0
220
0
230
1
0
LINE
5
166
100
AcDbEntity
8
0
62
256
6
ByLayer
370
-2
48
1
60
0
100
AcDbLine
10
25.7
20
-15.052503
30
0
11
22.2
21
-15.052503
31
0
39
0
210
0
220
0
230
1
0
SOLID
5
167
100
AcDbEntity
8
0
62
256
6
ByLayer
370
-1
48
1
60
0
100
AcDbTrace
10
33.5
20
-14.46917
30
0
11
33.5
21
-15.635837
31
0
12
30
22
-15.052503
32
0
13
30
23
-15.052503
33
0
39
0
210
0
220
0
230
1
0
SOLID
5
168
100
AcDbEntity
8
0
62
256
6
ByLayer
370
-1
48
1
60
0
100
AcDbTrace
10
25.7
20
-15.635837
30
0
11
25.7
21
-14.46917
31
0
12
29.2
22
-15.052503
32
0
13
29.2
23
-15.052503
33
0
39
0
210
0
220
0
230
1
0
MTEXT
5
169
100
AcDbEntity
8
0
62
256
6
ByLayer
370
18
48
1
60
0
100
AcDbMText
10
47.583333
20
-8.052503
30
0
210
0
220
0
230
1
1
\A1;0.80
40
3.5
41
0
44
1
50
0
71
5
72
5
7
iso_b_vert
0
POINT
5
16A
100
AcDbEntity
8
Defpoints
62
0
6
ByLayer
370
-1
48
1
60
0
100
AcDbPoint
10
30
20
0
30
0
39
0
210
0
220
0
230
1
50
360
0
POINT
5
16B
100
AcDbEntity
8
Defpoints
62
0
6
ByLayer
370
-1
48
1
60
0
100
AcDbPoint
10
29.2
20
-2.25
30
0
39
0
210
0
220
0
230
1
50
360
0
POINT
5
16C
100
AcDbEntity
8
Defpoints
62
0
6
ByLayer
370
-1
48
1
60
0
100
AcDbPoint
10
29.2
20
-15.052503
30
0
39
0
210
0
220
0
230
1
50
360
0
ENDBLK
5
161
100
AcDbEntity
8
0
100
AcDbBlockEnd
0
BLOCK
5
174
100
AcDbEntity
8
0
100
AcDbBlockBegin
2
_U3
70
0
10
0
20
0
30
0
3
_U3
0
MTEXT
5
16E
100
AcDbEntity
8
SK2
62
256
6
ByLayer
370
13
48
1
60
0
100
AcDbMText
10
36.15186
20
-14.01987
30
0
210
0
220
0
230
1
1
\W0.7150;0,80
40
3.5
41
0
44
1.084337
50
0
71
7
72
5
7
iso_b_vert
0
LINE
5
16F
100
AcDbEntity
8
SK2
62
256
6
ByLayer
370
13
48
1
60
0
100
AcDbLine
10
30
20
-1.5875
30
0
11
30
21
-17.052503
31
0
39
0
210
0
220
0
230
1
0
LINE
5
170
100
AcDbEntity
8
SK2
62
256
6
ByLayer
370
13
48
1
60
0
100
AcDbLine
10
29.2
20
-3.8375
30
0
11
29.2
21
-17.052503
31
0
39
0
210
0
220
0
230
1
0
LINE
5
171
100
AcDbEntity
8
SK2
62
256
6
ByLayer
370
13
48
1
60
0
100
AcDbLine
10
20.45
20
-15.052503
30
0
11
43.996491
21
-15.052503
31
0
39
0
210
0
220
0
230
1
0
SOLID
5
172
100
AcDbEntity
8
SK2
62
256
6
ByLayer
370
18
48
1
60
0
100
AcDbTrace
10
30
20
-15.052503
30
0
11
33.499998
21
-14.591719
31
0
12
33.500002
22
-15.513287
32
0
13
33.500002
23
-15.513287
33
0
39
0
210
0
220
0
230
1
0
SOLID
5
173
100
AcDbEntity
8
SK2
62
256
6
ByLayer
370
18
48
1
60
0
100
AcDbTrace
10
29.2
20
-15.052503
30
0
11
25.700002
21
-15.513287
31
0
12
25.699998
22
-14.591719
32
0
13
25.699998
23
-14.591719
33
0
39
0
210
0
220
0
230
1
0
ENDBLK
5
175
100
AcDbEntity
8
0
100
AcDbBlockEnd
0
BLOCK
5
17A
100
AcDbEntity
8
0
100
AcDbBlockBegin
2
*D9
70
1
10
0
20
0
30
0
3
*D9
0
LINE
5
17C
100
AcDbEntity
8
0
62
256
6
ByLayer
370
-2
48
1
60
0
100
AcDbLine
10
-36
20
-4.5875
30
0
11
-36
21
-23.343428
31
0
39
0
210
0
220
0
230
1
0
LINE
5
17D
100
AcDbEntity
8
0
62
256
6
ByLayer
370
-2
48
1
60
0
100
AcDbLine
10
29.2
20
-3.8375
30
0
11
29.2
21
-23.343428
31
0
39
0
210
0
220
0
230
1
0
LINE
5
17E
100
AcDbEntity
8
0
62
256
6
ByLayer
370
-2
48
1
60
0
100
AcDbLine
10
-32.5
20
-21.343428
30
0
11
25.7
21
-21.343428
31
0
39
0
210
0
220
0
230
1
0
SOLID
5
17F
100
AcDbEntity
8
0
62
256
6
ByLayer
370
-1
48
1
60
0
100
AcDbTrace
10
-32.5
20
-20.760095
30
0
11
-32.5
21
-21.926762
31
0
12
-36
22
-21.343428
32
0
13
-36
23
-21.343428
33
0
39
0
210
0
220
0
230
1
0
SOLID
5
180
100
AcDbEntity
8
0
62
256
6
ByLayer
370
-1
48
1
60
0
100
AcDbTrace
10
25.7
20
-21.926762
30
0
11
25.7
21
-20.760095
31
0
12
29.2
22
-21.343428
32
0
13
29.2
23
-21.343428
33
0
39
0
210
0
220
0
230
1
0
MTEXT
5
181
100
AcDbEntity
8
0
62
256
6
ByLayer
370
18
48
1
60
0
100
AcDbMText
10
-3.4
20
-14.343428
30
0
210
0
220
0
230
1
1
\A1;65.20
40
3.5
41
0
44
1
50
0
71
5
72
5
7
iso_b_vert
0
POINT
5
182
100
AcDbEntity
8
Defpoints
62
0
6
ByLayer
370
-1
48
1
60
0
100
AcDbPoint
10
-36
20
-3
30
0
39
0
210
0
220
0
230
1
50
360
0
POINT
5
183
100
AcDbEntity
8
Defpoints
62
0
6
ByLayer
370
-1
48
1
60
0
100
AcDbPoint
10
29.2
20
-2.25
30
0
39
0
210
0
220
0
230
1
50
360
0
POINT
5
184
100
AcDbEntity
8
Defpoints
62
0
6
ByLayer
370
-1
48
1
60
0
100
AcDbPoint
10
29.2
20
-21.343428
30
0
39
0
210
0
220
0
230
1
50
360
0
ENDBLK
5
17B
100
AcDbEntity
8
0
100
AcDbBlockEnd
0
BLOCK
5
18C
100
AcDbEntity
8
0
100
AcDbBlockBegin
2
_U4
70
0
10
0
20
0
30
0
3
_U4
0
MTEXT
5
186
100
AcDbEntity
8
SK2
62
256
6
ByLayer
370
13
48
1
60
0
100
AcDbMText
10
-8.537299
20
-20.310795
30
0
210
0
220
0
230
1
1
\W0.7317;65,20
40
3.5
41
0
44
1.084337
50
0
71
7
72
5
7
iso_b_vert
0
LINE
5
187
100
AcDbEntity
8
SK2
62
256
6
ByLayer
370
13
48
1
60
0
100
AcDbLine
10
-36
20
-4.5875
30
0
11
-36
21
-23.343428
31
0
39
0
210
0
220
0
230
1
0
LINE
5
188
100
AcDbEntity
8
SK2
62
256
6
ByLayer
370
13
48
1
60
0
100
AcDbLine
10
29.2
20
-3.8375
30
0
11
29.2
21
-23.343428
31
0
39
0
210
0
220
0
230
1
0
LINE
5
189
100
AcDbEntity
8
SK2
62
256
6
ByLayer
370
13
48
1
60
0
100
AcDbLine
10
-36
20
-21.343428
30
0
11
29.2
21
-21.343428
31
0
39
0
210
0
220
0
230
1
0
SOLID
5
18A
100
AcDbEntity
8
SK2
62
256
6
ByLayer
370
18
48
1
60
0
100
AcDbTrace
10
-36
20
-21.343428
30
0
11
-32.500002
21
-20.882645
31
0
12
-32.499998
22
-21.804212
32
0
13
-32.499998
23
-21.804212
33
0
39
0
210
0
220
0
230
1
0
SOLID
5
18B
100
AcDbEntity
8
SK2
62
256
6
ByLayer
370
18
48
1
60
0
100
AcDbTrace
10
29.2
20
-21.343428
30
0
11
25.700002
21
-21.804212
31
0
12
25.699998
22
-20.882645
32
0
13
25.699998
23
-20.882645
33
0
39
0
210
0
220
0
230
1
0
ENDBLK
5
18D
100
AcDbEntity
8
0
100
AcDbBlockEnd
0
ENDSEC
0
SECTION
2
ENTITIES
0
ARC
5
B5
100
AcDbEntity
8
1
62
256
6
ByLayer
370
18
48
1
60
0
100
AcDbCircle
39
0
10
1.375955
20
-3.016547
30
0
40
0.799999999999998
210
0
220
0
230
1
100
AcDbArc
50
89.931245
51
149.313408
0
ARC
5
B6
100
AcDbEntity
8
1
62
256
6
ByLayer
370
18
48
1
60
0
100
AcDbCircle
39
0
10
1.375955
20
3.016547
30
0
40
0.799999999999998
210
0
220
0
230
1
100
AcDbArc
50
210.686592
51
270.068755
0
ARC
5
B7
100
AcDbEntity
8
1
62
256
6
ByLayer
370
18
48
1
60
0
100
AcDbCircle
39
0
10
0
20
-2.2
30
0
40
0.799999999999998
210
0
220
0
230
1
100
AcDbArc
50
270
51
329.313408
0
ARC
5
B8
100
AcDbEntity
8
1
62
256
6
ByLayer
370
18
48
1
60
0
100
AcDbCircle
39
0
10
0
20
2.2
30
0
40
0.799999999999998
210
0
220
0
230
1
100
AcDbArc
50
30.686592
51
90
0
ELLIPSE
5
B9
100
AcDbEntity
8
1
62
256
6
ByLayer
370
18
48
1
60
0
100
AcDbEllipse
10
29.626256
20
-1.022536
30
0
11
0.29288237734995
21
0.799707144410364
31
0
210
0
220
0
230
1
40
0.073902
41
-1.4875565237876
42
-0.723362278994185
0
ELLIPSE
5
BA
100
AcDbEntity
8
1
62
256
6
ByLayer
370
18
48
1
60
0
100
AcDbEllipse
10
29.978175
20
-0.017737
30
0
11
0.0340861298226663
21
0.0966259033094913
31
0
210
0
220
0
230
1
40
0.0884
41
-2.16048506385825
42
-1.1462018839456
0
ELLIPSE
5
BB
100
AcDbEntity
8
1
62
256
6
ByLayer
370
18
48
1
60
0
100
AcDbEllipse
10
30.000377
20
-0.000983
30
0
11
0.824059477197132
21
-2.25007134255031
31
0
210
0
220
0
230
1
40
0.073902
41
2.86212166903357
42
2.92903354751393
0
ELLIPSE
5
BC
100
AcDbEntity
8
1
62
256
6
ByLayer
370
18
48
1
60
0
100
AcDbEllipse
10
30.000377
20
0.000984
30
0
11
0.82405968941769
21
2.25007195532913
31
0
210
0
220
0
230
1
40
0.073902
41
-2.92903357620872
42
-2.86212170704034
0
ELLIPSE
5
BD
100
AcDbEntity
8
1
62
256
6
ByLayer
370
18
48
1
60
0
100
AcDbEllipse
10
20.742254
20
1.022536
30
0
11
9.14397571712987
21
-0.596547346758875
31
0
210
0
220
0
230
1
40
0.058294
41
0.0211859320795213
42
0.29433870823652
0
ELLIPSE
5
BE
100
AcDbEntity
8
1
62
256
6
ByLayer
370
18
48
1
60
0
100
AcDbEllipse
10
30.031452
20
0.051115
30
0
11
0.0499942253454718
21
0.149068818489031
31
0
210
0
220
0
230
1
40
0.054101
41
2.0809904404751
42
2.3757041971212
0
ELLIPSE
5
BF
100
AcDbEntity
8
1
62
256
6
ByLayer
370
18
48
1
60
0
100
AcDbEllipse
10
30.031452
20
-0.051115
30
0
11
0.0499942260598366
21
-0.1490688203773
31
0
210
0
220
0
230
1
40
0.054101
41
-2.37570420063517
42
-2.08099044668924
0
ELLIPSE
5
C0
100
AcDbEntity
8
1
62
256
6
ByLayer
370
18
48
1
60
0
100
AcDbEllipse
10
29.626256
20
1.022536
30
0
11
0.292882377412317
21
-0.799707144556402
31
0
210
0
220
0
230
1
40
0.073902
41
0.723362278991818
42
1.48755652366128
0
ELLIPSE
5
C1
100
AcDbEntity
8
1
62
256
6
ByLayer
370
18
48
1
60
0
100
AcDbEllipse
10
8.25
20
-2.385125
30
0
11
-0.25
21
3.06151588455594E-17
31
0
210
0
220
0
230
1
40
1
41
-1.56478741197667
42
-0.706528908880608
0
ELLIPSE
5
C2
100
AcDbEntity
8
1
62
256
6
ByLayer
370
18
48
1
60
0
100
AcDbEllipse
10
8.25
20
2.385125
30
0
11
-0.25
21
3.06151588455594E-17
31
0
210
0
220
0
230
1
40
1
41
0.706166310224607
42
1.58115181912622
0
POINT
5
70
100
AcDbEntity
8
80
62
256
6
ByLayer
370
18
48
1
60
0
100
AcDbPoint
10
0
20
0
30
0
39
0
210
0
220
0
230
1
50
360
0
POINT
5
72
100
AcDbEntity
8
81
62
256
6
ByLayer
370
18
48
1
60
0
100
AcDbPoint
10
30
20
0
30
0
39
0
210
0
220
0
230
1
50
360
0
POINT
5
74
100
AcDbEntity
8
1
62
256
6
ByLayer
370
18
48
1
60
1
100
AcDbPoint
10
29.2
20
-2.25
30
0
39
0
210
0
220
0
230
1
50
360
0
POINT
5
76
100
AcDbEntity
8
1
62
256
6
ByLayer
370
18
48
1
60
1
100
AcDbPoint
10
-36
20
-3
30
0
39
0
210
0
220
0
230
1
50
360
0
POINT
5
77
100
AcDbEntity
8
1
62
256
6
ByLayer
370
18
48
1
60
1
100
AcDbPoint
10
14.2918
20
2.25
30
0
39
0
210
0
220
0
230
1
50
360
0
POINT
5
78
100
AcDbEntity
8
1
62
256
6
ByLayer
370
18
48
1
60
1
100
AcDbPoint
10
29.2
20
-2.25
30
0
39
0
210
0
220
0
230
1
50
360
0
POINT
5
79
100
AcDbEntity
8
1
62
256
6
ByLayer
370
18
48
1
60
1
100
AcDbPoint
10
-36
20
-3
30
0
39
0
210
0
220
0
230
1
50
360
0
POINT
5
7A
100
AcDbEntity
8
1
62
256
6
ByLayer
370
18
48
1
60
1
100
AcDbPoint
10
29.2
20
-2.25
30
0
39
0
210
0
220
0
230
1
50
360
0
SPLINE
5
C3
100
AcDbEntity
8
SK1
62
256
6
ByLayer
370
18
48
1
60
0
100
AcDbSpline
70
4
71
3
72
12
73
8
40
0
40
0
40
0
40
0
40
0.25
40
0.25
40
0.5
40
0.5
40
1
40
1
40
1
40
1
41
1
10
-35.65
20
2.43006223322189
30
0
41
1
10
-35.65
20
2.43229572169886
30
0
41
1
10
-35.6543359418175
20
2.42999338203327
30
0
41
1
10
-35.6670061648032
20
2.42061225393096
30
0
41
1
10
-35.6754132169203
20
2.41352828372078
30
0
41
1
10
-35.7033957755318
20
2.38875795695614
30
0
41
1
10
-35.7260247133439
20
2.36735896781508
30
0
41
1
10
-35.7500000000001
20
2.34402029796246
30
0
0
SPLINE
5
C4
100
AcDbEntity
8
SK1
62
256
6
ByLayer
370
18
48
1
60
0
100
AcDbSpline
70
4
71
3
72
12
73
8
40
0
40
0
40
0
40
0
40
0.499999999999999
40
0.499999999999999
40
0.749999999999999
40
0.749999999999999
40
1
40
1
40
1
40
1
41
1
10
-35.75
20
1.76516856127696
30
0
41
1
10
-35.7260151107903
20
1.78851657870609
30
0
41
1
10
-35.7033639221374
20
1.8162641068979
30
0
41
1
10
-35.6754777620904
20
1.85947237900089
30
0
41
1
10
-35.667028628867
20
1.8744855221502
30
0
41
1
10
-35.6543320679983
20
1.90335260477963
30
0
41
1
10
-35.65
20
1.91758484489273
30
0
41
1
10
-35.65
20
1.92839072809454
30
0
0
SPLINE
5
C5
100
AcDbEntity
8
SK1
62
256
6
ByLayer
370
18
48
1
60
0
100
AcDbSpline
70
4
71
3
72
8
73
4
40
0
40
0
40
0
40
0
40
1
40
1
40
1
40
1
41
1
10
-35.75
20
2.34402029796235
30
0
41
1
10
-35.8336401130007
20
2.26260108442997
30
0
41
1
10
-35.9170122695626
20
2.18095764350457
30
0
41
1
10
-36
20
2.09899251272501
30
0
0
SPLINE
5
C6
100
AcDbEntity
8
SK1
62
256
6
ByLayer
370
18
48
1
60
0
100
AcDbSpline
70
4
71
3
72
8
73
4
40
0
40
0
40
0
40
0
40
1
40
1
40
1
40
1
41
1
10
-36
20
1.5201407760396
30
0
41
1
10
-35.9170063724426
20
1.60211173127306
30
0
41
1
10
-35.8336348378893
20
1.68375448278573
30
0
41
1
10
-35.7499999999999
20
1.76516856127696
30
0
0
SPLINE
5
C7
100
AcDbEntity
8
1
62
256
6
ByLayer
370
18
48
1
60
0
100
AcDbSpline
70
4
71
3
72
22
73
18
40
0
40
0
40
0
40
0
40
0.125
40
0.125
40
0.25
40
0.25
40
0.375
40
0.375
40
0.5
40
0.5
40
0.625
40
0.625
40
0.75
40
0.75
40
0.875
40
0.875
40
1
40
1
40
1
40
1
41
1
10
29.2541584507176
20
2.17858783270035
30
0
41
1
10
29.2729610181067
20
2.13201512531109
30
0
41
1
10
29.2918340701019
20
2.08497876513297
30
0
41
1
10
29.3298582156016
20
1.98907706780577
30
0
41
1
10
29.3490045936016
20
1.9402576218541
30
0
41
1
10
29.387436451938
20
1.84164317162998
30
0
41
1
10
29.406649380492
20
1.79215312245529
30
0
41
1
10
29.4450578744814
20
1.69211510872972
30
0
41
1
10
29.4642540665716
20
1.64160532555007
30
0
41
1
10
29.5026395354719
20
1.54016441892941
30
0
41
1
10
29.5218743550174
20
1.48909554572256
30
0
41
1
10
29.5600588257823
20
1.38685464745782
30
0
41
1
10
29.5790009010417
20
1.33572015300939
30
0
41
1
10
29.6166409826964
20
1.23342833498828
30
0
41
1
10
29.6353603918474
20
1.18227301333494
30
0
41
1
10
29.672691013327
20
1.07995224977384
30
0
41
1
10
29.6911868042062
20
1.02877601185318
30
0
41
1
10
29.7095524200438
20
0.977587597933251
30
0
0
SPLINE
5
C8
100
AcDbEntity
8
1
62
256
6
ByLayer
370
18
48
1
60
0
100
AcDbSpline
70
4
71
3
72
18
73
14
40
0
40
0
40
0
40
0
40
0.125000000000011
40
0.125000000000011
40
0.250000000000022
40
0.250000000000022
40
0.375000000000033
40
0.375000000000033
40
0.500000000000045
40
0.500000000000045
40
0.750000000000022
40
0.750000000000022
40
1
40
1
40
1
40
1
41
1
10
29.7079691510103
20
0.97761470914071
30
0
41
1
10
29.7152359174715
20
0.958289405009708
30
0
41
1
10
29.7210416760591
20
0.938689910467872
30
0
41
1
10
29.7282744927044
20
0.898615939592503
30
0
41
1
10
29.7295463332295
20
0.878014343617764
30
0
41
1
10
29.7266271765035
20
0.838212371575338
30
0
41
1
10
29.7224404819831
20
0.818471579524896
30
0
41
1
10
29.7089892908506
20
0.781052639232939
30
0
41
1
10
29.6998975814142
20
0.763608146093929
30
0
41
1
10
29.6665120763092
20
0.714443767208394
30
0
41
1
10
29.6376485252677
20
0.687747790704975
30
0
41
1
10
29.5734348648344
20
0.641633779770331
30
0
41
1
10
29.5389248147213
20
0.622825304997605
30
0
41
1
10
29.5030743379023
20
0.606282018192417
30
0
0
SPLINE
5
C9
100
AcDbEntity
8
1
62
256
6
ByLayer
370
18
48
1
60
0
100
AcDbSpline
70
4
71
3
72
67
73
63
40
0
40
0
40
0
40
0
40
0.0263397657389169
40
0.0263397657389169
40
0.0734689143460103
40
0.0734689143460103
40
0.261985508774384
40
0.261985508774384
40
0.356243805988571
40
0.356243805988571
40
0.368026093140344
40
0.369498879034316
40
0.369498879034316
40
0.369867075507809
40
0.369867075507809
40
0.370235271981302
40
0.370235271981302
40
0.370971664928287
40
0.370971664928287
40
0.373917236716231
40
0.373917236716231
40
0.379808380292117
40
0.379808380292117
40
0.403372954595664
40
0.403372954595664
40
0.450502103202757
40
0.450502103202757
40
0.544760400416943
40
0.544760400416943
40
0.591889549024035
40
0.591889549024035
40
0.615454123327582
40
0.615454123327582
40
0.627236410479355
40
0.627236410479355
40
0.633127554055242
40
0.633127554055242
40
0.639018697631128
40
0.639018697631128
40
0.639755090578114
40
0.639755090578114
40
0.640123287051607
40
0.640123287051607
40
0.6404914835251
40
0.641964269419071
40
0.644909841207015
40
0.650800984782901
40
0.662583271934674
40
0.662583271934674
40
0.686147846238221
40
0.686147846238221
40
0.733276994845313
40
0.733276994845313
40
0.780406143452405
40
0.780406143452405
40
0.827535292059498
40
0.827535292059498
40
0.87466444066659
40
0.87466444066659
40
0.921793589273683
40
0.921793589273683
40
1
40
1
40
1
40
1
41
1
10
12.2293176633352
20
-0.581177627340026
30
0
41
1
10
12.1702127798912
20
-0.557495483164843
30
0
41
1
10
12.1109783125571
20
-0.534645770086769
30
0
41
1
10
11.945281759307
20
-0.473434881156322
30
0
41
1
10
11.8381130315539
20
-0.436967406867524
30
0
41
1
10
11.3022669330113
20
-0.272386738052006
30
0
41
1
10
10.8795378989047
20
-0.199866907410382
30
0
41
1
10
10.2313089776883
20
-0.188429140931561
30
0
41
1
10
10.0121785044335
20
-0.200903954073595
30
0
41
1
10
9.76556864542775
20
-0.232260845202063
30
0
41
1
10
9.73472208126702
20
-0.236449362042606
30
0
41
1
10
9.70386658330125
20
-0.24093430951919
30
0
41
1
10
9.6995809723785
20
-0.241561779376497
30
0
41
1
10
9.69858375182133
20
-0.24177784941989
30
0
41
1
10
9.69933713023519
20
-0.242772726630193
30
0
41
1
10
9.69993568333001
20
-0.243210800903824
30
0
41
1
10
9.70171311055717
20
-0.244510807970954
30
0
41
1
10
9.70300740749695
20
-0.245323613736474
30
0
41
1
10
9.70957588713236
20
-0.249340067327807
30
0
41
1
10
9.71519069326069
20
-0.252363497130489
30
0
41
1
10
9.73205344907123
20
-0.261387013267978
30
0
41
1
10
9.74353717103415
20
-0.26725899360531
30
0
41
1
10
9.80117455425699
20
-0.29646063237729
30
0
41
1
10
9.8481333235531
20
-0.319296794743821
30
0
41
1
10
9.98917279736457
20
-0.387820708690526
30
0
41
1
10
10.08383215001
20
-0.433243709980559
30
0
41
1
10
10.3682636331664
20
-0.569777298768798
30
0
41
1
10
10.5587097521701
20
-0.661026985641001
30
0
41
1
10
10.8434796352031
20
-0.800546856886768
30
0
41
1
10
10.9382919565397
20
-0.847444522809752
30
0
41
1
10
11.08001533031
20
-0.91891777673527
30
0
41
1
10
11.1271822843022
20
-0.942919796287555
30
0
41
1
10
11.1975945420078
20
-0.979553644647154
30
0
41
1
10
11.2210147929812
20
-0.991864068805228
30
0
41
1
10
11.2559148683672
20
-1.01071787513268
30
0
41
1
10
11.2675117949611
20
-1.01706321012372
30
0
41
1
10
11.2905055070182
20
-1.03007768309422
30
0
41
1
10
11.3022707423544
20
-1.03628701788065
30
0
41
1
10
11.3140384350858
20
-1.04523233633773
30
0
41
1
10
11.3154795628396
20
-1.04615725756682
30
0
41
1
10
11.316710333513
20
-1.04831273659082
30
0
41
1
10
11.3157007365425
20
-1.04895770973124
30
0
41
1
10
11.314196175265
20
-1.05001239716884
30
0
41
1
10
11.3104347953951
20
-1.05264895740134
30
0
41
1
10
11.3006554476089
20
-1.05950196241352
30
0
41
1
10
11.2795939596603
20
-1.07425056499454
30
0
41
1
10
11.2374764911496
20
-1.10369563739042
30
0
41
1
10
11.2013909334852
20
-1.12881949496349
30
0
41
1
10
11.1292113549393
20
-1.17887521495231
30
0
41
1
10
11.0811149595669
20
-1.21196563239479
30
0
41
1
10
10.9370597976722
20
-1.30980258669774
30
0
41
1
10
10.8411902411108
20
-1.37322442941542
30
0
41
1
10
10.6484900000224
20
-1.49460223011096
30
0
41
1
10
10.5515036211449
20
-1.55259936255769
30
0
41
1
10
10.3586404732562
20
-1.65933466852476
30
0
41
1
10
10.2623514557423
20
-1.70833884794621
30
0
41
1
10
10.0688825256521
20
-1.79640008007817
30
0
41
1
10
9.97169964700245
20
-1.83545204883154
30
0
41
1
10
9.77543234611062
20
-1.90281309993191
30
0
41
1
10
9.67580635690155
20
-1.931206905675
30
0
41
1
10
9.41265196561824
20
-1.99109814892955
30
0
41
1
10
9.24944931672067
20
-2.0127374187224
30
0
41
1
10
9.08607482906706
20
-2.02192923995301
30
0
0
SPLINE
5
CA
100
AcDbEntity
8
1
62
256
6
ByLayer
370
18
48
1
60
0
100
AcDbSpline
70
4
71
3
72
12
73
8
40
0
40
0
40
0
40
0
40
0.5
40
0.5
40
0.75
40
0.75
40
1
40
1
40
1
40
1
41
1
10
8.25060327974904
20
-1.79791066848534
30
0
41
1
10
8.21657056563816
20
-1.78604570317816
30
0
41
1
10
8.18211459266314
20
-1.78050578190843
30
0
41
1
10
8.13205339766876
20
-1.78447829627069
30
0
41
1
10
8.11599087174778
20
-1.7878407882688
30
0
41
1
10
8.08535829503023
20
-1.79923188121845
30
0
41
1
10
8.07101617435461
20
-1.8072604663389
30
0
41
1
10
8.05842792638362
20
-1.81739970350299
30
0
0
SPLINE
5
CB
100
AcDbEntity
8
1
62
256
6
ByLayer
370
18
48
1
60
0
100
AcDbSpline
70
4
71
3
72
10
73
6
40
0
40
0
40
0
40
0
40
0.917996594506849
40
0.917996594506849
40
1
40
1
40
1
40
1
41
1
10
13.7035079845878
20
1.30915052246638
30
0
41
1
10
13.6775249954762
20
1.2946772794044
30
0
41
1
10
13.6515208269438
20
1.28024253463991
30
0
41
1
10
13.6231688458493
20
1.26456357975508
30
0
41
1
10
13.6208437006122
20
1.26327819031098
30
0
41
1
10
13.6185183673316
20
1.26199314237462
30
0
0
SPLINE
5
CC
100
AcDbEntity
8
1
62
256
6
ByLayer
370
18
48
1
60
0
100
AcDbSpline
70
4
71
3
72
8
73
4
40
0
40
0
40
0
40
0
40
1
40
1
40
1
40
1
41
1
10
8.19778511492137
20
1.84175172540896
30
0
41
1
10
8.16614350552271
20
1.85273065902473
30
0
41
1
10
8.13427678394046
20
1.8633637685937
30
0
41
1
10
8.10653622921512
20
1.87685435752513
30
0
0
SPLINE
5
CD
100
AcDbEntity
8
1
62
256
6
ByLayer
370
18
48
1
60
0
100
AcDbSpline
70
4
71
3
72
8
73
4
40
0
40
0
40
0
40
0
40
1
40
1
40
1
40
1
41
1
10
29.7079691510103
20
0.97761470914071
30
0
41
1
10
29.7084969150013
20
0.977605673295756
30
0
41
1
10
29.709024671353
20
0.977596636227133
30
0
41
1
10
29.709552420044
20
0.977587597932683
30
0
0
SPLINE
5
CE
100
AcDbEntity
8
1
62
256
6
ByLayer
370
18
48
1
60
0
100
AcDbSpline
70
4
71
3
72
36
73
32
40
0
40
0
40
0
40
0
40
0.0551223454390926
40
0.0551223454390926
40
0.110244690878185
40
0.110244690878185
40
0.220489381756371
40
0.220489381756371
40
0.275611727195463
40
0.275611727195463
40
0.330734072634556
40
0.330734072634556
40
0.385856418073649
40
0.385856418073649
40
0.440978763512741
40
0.440978763512741
40
0.551223454390928
40
0.551223454390928
40
0.606345799830021
40
0.606345799830021
40
0.661468145269115
40
0.661468145269115
40
0.771712836147302
40
0.771712836147302
40
0.826835181586395
40
0.826835181586395
40
0.881957527025488
40
0.881957527025488
40
0.992202217903675
40
0.992202217903675
40
1
40
1
40
1
40
1
41
1
10
29.2299429221213
20
-2.21129620727524
30
0
41
1
10
29.0094851292851
20
-2.23670243443738
30
0
41
1
10
28.7894144862241
20
-2.2493507050269
30
0
41
1
10
28.3479600854154
20
-2.24900313555173
30
0
41
1
10
28.1288944292087
20
-2.23604553025101
30
0
41
1
10
27.4741552533213
20
-2.16053573323464
30
0
41
1
10
27.0407556261853
20
-2.06130153292867
30
0
41
1
10
26.3826264860284
20
-1.84542453593579
30
0
41
1
10
26.1612006448624
20
-1.76182343701402
30
0
41
1
10
25.7228144879553
20
-1.57747017187069
30
0
41
1
10
25.5048114796381
20
-1.47649052080746
30
0
41
1
10
25.0691840867648
20
-1.25963977033121
30
0
41
1
10
24.8515466361635
20
-1.14378483045903
30
0
41
1
10
24.4146316303785
20
-0.899851802491355
30
0
41
1
10
24.1950203149711
20
-0.771428316935271
30
0
41
1
10
23.5328953330262
20
-0.373717210859752
30
0
41
1
10
23.098640093381
20
-0.0980556766296274
30
0
41
1
10
22.444778808399
20
0.309752766963129
30
0
41
1
10
22.2263884216851
20
0.444704630504958
30
0
41
1
10
21.7873975200213
20
0.710460582247549
30
0
41
1
10
21.5658602275261
20
0.841052113712607
30
0
41
1
10
20.907811192273
20
1.21183888767189
30
0
41
1
10
20.4741572013362
20
1.43490034257812
30
0
41
1
10
19.8185730737338
20
1.71692662016457
30
0
41
1
10
19.598699760563
20
1.80228958568998
30
0
41
1
10
19.1569954136339
20
1.95204101840423
30
0
41
1
10
18.9378049414027
20
2.01558324507417
30
0
41
1
10
18.2826985705359
20
2.17137992838477
30
0
41
1
10
17.8483539384762
20
2.22834817071148
30
0
41
1
10
17.3779614053556
20
2.2354902940121
30
0
41
1
10
17.3468472016491
20
2.23570526378739
30
0
41
1
10
17.3157044153698
20
2.23566481624829
30
0
0
SPLINE
5
CF
100
AcDbEntity
8
1
62
256
6
ByLayer
370
18
48
1
60
0
100
AcDbSpline
70
4
71
3
72
26
73
22
40
0
40
0
40
0
40
0
40
0.125000000000001
40
0.125000000000001
40
0.250000000000002
40
0.250000000000002
40
0.375000000000004
40
0.375000000000004
40
0.500000000000005
40
0.500000000000005
40
0.625000000000006
40
0.625000000000006
40
0.687500000000006
40
0.687500000000006
40
0.750000000000007
40
0.750000000000007
40
0.875000000000009
40
0.875000000000009
40
0.937500000000004
40
0.937500000000004
40
1
40
1
40
1
40
1
41
1
10
29.7762561572391
20
-0.591720316088811
30
0
41
1
10
29.7572059234062
20
-0.579667584029266
30
0
41
1
10
29.7329871016031
20
-0.57993147336586
30
0
41
1
10
29.680620994568
20
-0.600051383024805
30
0
41
1
10
29.6517358599256
20
-0.620114013565768
30
0
41
1
10
29.5930782327006
20
-0.676654493757042
30
0
41
1
10
29.5625904956892
20
-0.713801738882864
30
0
41
1
10
29.5041860896293
20
-0.802953323546745
30
0
41
1
10
29.4756701481305
20
-0.855971726108123
30
0
41
1
10
29.4286256507112
20
-0.971314775410974
30
0
41
1
10
29.4108196054197
20
-1.03262796777358
30
0
41
1
10
29.399503601109
20
-1.11458757776009
30
0
41
1
10
29.398336635286
20
-1.13930841891391
30
0
41
1
10
29.40087280513
20
-1.18303741743068
30
0
41
1
10
29.4045150460191
20
-1.20127732962908
30
0
41
1
10
29.4213733029101
20
-1.24613482039214
30
0
41
1
10
29.4400151475214
20
-1.26148784085547
30
0
41
1
10
29.4735340505744
20
-1.26708509623103
30
0
41
1
10
29.4858104881025
20
-1.26603320205885
30
0
41
1
10
29.5114557250511
20
-1.25874229880833
30
0
41
1
10
29.5248793533233
20
-1.25254690950234
30
0
41
1
10
29.5388782773346
20
-1.2439106809818
30
0
0
SPLINE
5
D0
100
AcDbEntity
8
1
62
256
6
ByLayer
370
18
48
1
60
0
100
AcDbSpline
70
4
71
3
72
8
73
4
40
0
40
0
40
0
40
0
40
1
40
1
40
1
40
1
41
1
10
29.5030743379023
20
0.606282018192417
30
0
41
1
10
29.3839938966615
20
0.597223850509522
30
0
41
1
10
29.2639128246572
20
0.590215903800981
30
0
41
1
10
29.1435253003577
20
0.58464927127261
30
0
0
SPLINE
5
D1
100
AcDbEntity
8
1
62
256
6
ByLayer
370
18
48
1
60
0
100
AcDbSpline
70
4
71
3
72
18
73
14
40
0
40
0
40
0
40
0
40
0.250000000000006
40
0.250000000000006
40
0.500000000000013
40
0.500000000000013
40
0.62500000000001
40
0.62500000000001
40
0.750000000000006
40
0.750000000000006
40
0.875000000000003
40
0.875000000000003
40
1
40
1
40
1
40
1
41
1
10
28.8568490388326
20
-1.57751264528827
30
0
41
1
10
28.7113641541066
20
-1.49650711254145
30
0
41
1
10
28.5689884902989
20
-1.40751440067862
30
0
41
1
10
28.291213301271
20
-1.21160819554277
30
0
41
1
10
28.1558094527374
20
-1.1047058082921
30
0
41
1
10
27.9595012888058
20
-0.926890065344423
30
0
41
1
10
27.8952073627774
20
-0.864684173011568
30
0
41
1
10
27.769380028574
20
-0.7331809814861
30
0
41
1
10
27.7086433615874
20
-0.664681500892328
30
0
41
1
10
27.5928922779109
20
-0.521887711151578
30
0
41
1
10
27.5377851589352
20
-0.447502267659047
30
0
41
1
10
27.4342792344418
20
-0.291489668718384
30
0
41
1
10
27.385930690766
20
-0.209806760851762
30
0
41
1
10
27.342998035598
20
-0.126514343196902
30
0
0
SPLINE
5
D2
100
AcDbEntity
8
1
62
256
6
ByLayer
370
18
48
1
60
0
100
AcDbSpline
70
4
71
3
72
8
73
4
40
0
40
0
40
0
40
0
40
1
40
1
40
1
40
1
41
1
10
29.7079691510103
20
-0.97761470914071
30
0
41
1
10
29.7084969150013
20
-0.977605673295756
30
0
41
1
10
29.7090246713528
20
-0.977596636227133
30
0
41
1
10
29.7095524200439
20
-0.977587597932683
30
0
0
SPLINE
5
D3
100
AcDbEntity
8
1
62
256
6
ByLayer
370
18
48
1
60
0
100
AcDbSpline
70
4
71
3
72
16
73
12
40
0
40
0
40
0
40
0
40
0.125
40
0.125
40
0.25
40
0.25
40
0.500000000000001
40
0.500000000000001
40
0.75
40
0.75
40
1
40
1
40
1
40
1
41
1
10
29.7762561572336
20
-0.591720316084292
30
0
41
1
10
29.7764993225587
20
-0.599767872790579
30
0
41
1
10
29.7743574596677
20
-0.613899026969563
30
0
41
1
10
29.7651599059233
20
-0.654149189934969
30
0
41
1
10
29.758191248666
20
-0.679811168795453
30
0
41
1
10
29.7314374481257
20
-0.768952414858944
30
0
41
1
10
29.7060376029163
20
-0.843497762004432
30
0
41
1
10
29.6531727816875
20
-0.986922491586199
30
0
41
1
10
29.6254204347724
20
-1.05680212190089
30
0
41
1
10
29.5762016355551
20
-1.17162856695057
30
0
41
1
10
29.5545452823092
20
-1.21716578260512
30
0
41
1
10
29.538878277326
20
-1.24391068098171
30
0
0
SPLINE
5
D4
100
AcDbEntity
8
1
62
256
6
ByLayer
370
18
48
1
60
0
100
AcDbSpline
70
4
71
3
72
18
73
14
40
0
40
0
40
0
40
0
40
0.250000000000005
40
0.250000000000005
40
0.375000000000003
40
0.375000000000003
40
0.500000000000002
40
0.500000000000002
40
0.749999999999999
40
0.749999999999999
40
0.874999999999999
40
0.874999999999999
40
1
40
1
40
1
40
1
41
1
10
29.2063198296739
20
-2.15760750656838
30
0
41
1
10
29.1589375565252
20
-2.15190791825861
30
0
41
1
10
29.1150808507426
20
-2.13602701843874
30
0
41
1
10
29.0550883705661
20
-2.09547756794842
30
0
41
1
10
29.0360462214937
20
-2.07909049342564
30
0
41
1
10
29.0007935061902
20
-2.04120672235874
30
0
41
1
10
28.9844714282223
20
-2.01965166670487
30
0
41
1
10
28.9394457215713
20
-1.94709151509809
30
0
41
1
10
28.9146459944856
20
-1.88826481528653
30
0
41
1
10
28.8859722725645
20
-1.7829428883966
30
0
41
1
10
28.8778755540953
20
-1.74497220223404
30
0
41
1
10
28.864970100084
20
-1.6647398182287
30
0
41
1
10
28.8601065668324
20
-1.62230022272547
30
0
41
1
10
28.8568490388326
20
-1.57751264528829
30
0
0
SPLINE
5
D5
100
AcDbEntity
8
1
62
256
6
ByLayer
370
18
48
1
60
0
100
AcDbSpline
70
4
71
3
72
10
73
6
40
0
40
0
40
0
40
0
40
0.988630989009893
40
0.988630989009893
40
1
40
1
40
1
40
1
41
1
10
29.2299429221351
20
2.21129620727362
30
0
41
1
10
29.0096471206618
20
2.23668376606921
30
0
41
1
10
28.7886471496564
20
2.24934157645919
30
0
41
1
10
28.5663814833901
20
2.24917519855839
30
0
41
1
10
28.563854716478
20
2.24917163134032
30
0
41
1
10
28.5613281222069
20
2.24916638914757
30
0
0
SPLINE
5
D6
100
AcDbEntity
8
1
62
256
6
ByLayer
370
18
48
1
60
0
100
AcDbSpline
70
4
71
3
72
34
73
30
40
0
40
0
40
0
40
0
40
0.0786787965141995
40
0.0786787965141995
40
0.111583125210122
40
0.111583125210122
40
0.144487453906045
40
0.144487453906045
40
0.210296111297888
40
0.210296111297888
40
0.276104768689731
40
0.276104768689731
40
0.341913426081574
40
0.341913426081574
40
0.473530740865259
40
0.473530740865259
40
0.5393393982571
40
0.5393393982571
40
0.572243726953021
40
0.572243726953021
40
0.605148055648942
40
0.605148055648942
40
0.736765370432629
40
0.736765370432629
40
0.802574027824471
40
0.802574027824471
40
0.868382685216314
40
0.868382685216314
40
1
40
1
40
1
40
1
41
1
10
18.1932337764107
20
-2.16984903764407
30
0
41
1
10
17.9323005459481
20
-2.20910742832368
30
0
41
1
10
17.670682361504
20
-2.23114910049043
30
0
41
1
10
17.2964229441158
20
-2.23668449785362
30
0
41
1
10
17.1859313093997
20
-2.23510573332325
30
0
41
1
10
16.9660578454264
20
-2.22566568038479
30
0
41
1
10
16.8564357552558
20
-2.21781056682681
30
0
41
1
10
16.5281301559242
20
-2.18508825450425
30
0
41
1
10
16.3101771556073
20
-2.151023869298
30
0
41
1
10
15.8741298600142
20
-2.05929178984095
30
0
41
1
10
15.6558415715794
20
-2.00173733844204
30
0
41
1
10
15.2168975877466
20
-1.86418391647831
30
0
41
1
10
14.9950902432466
20
-1.7836485157911
30
0
41
1
10
14.3351528666694
20
-1.51517744133531
30
0
41
1
10
13.9007378227497
20
-1.30014833790429
30
0
41
1
10
13.2449375866749
20
-0.940295150869048
30
0
41
1
10
13.0256983500218
20
-0.814040354520927
30
0
41
1
10
12.6942275785116
20
-0.617388301104171
30
0
41
1
10
12.5836266107601
20
-0.550806189832713
30
0
41
1
10
12.3635986468411
20
-0.417000958198514
30
0
41
1
10
12.2539268403987
20
-0.349632320605195
30
0
41
1
10
11.7066176001207
20
-0.0115381722359871
30
0
41
1
10
11.2720101877704
20
0.262748653094064
30
0
41
1
10
10.6134886782294
20
0.661149067632749
30
0
41
1
10
10.3916107551876
20
0.7921914958402
30
0
41
1
10
9.95119477011258
20
1.04137226861573
30
0
41
1
10
9.73223190700585
20
1.15988704607986
30
0
41
1
10
9.0766835119851
20
1.4942166851028
30
0
41
1
10
8.64089123678866
20
1.68800377171217
30
0
41
1
10
8.19778511492106
20
1.84175172540907
30
0
0
SPLINE
5
D7
100
AcDbEntity
8
1
62
256
6
ByLayer
370
18
48
1
60
0
100
AcDbSpline
70
4
71
3
72
18
73
14
40
0
40
0
40
0
40
0
40
0.0263950691764365
40
0.0263950691764365
40
0.168299346084153
40
0.168299346084153
40
0.310203622991869
40
0.310203622991869
40
0.594012176807307
40
0.594012176807307
40
0.877820730622747
40
0.877820730622747
40
1
40
1
40
1
40
1
41
1
10
17.5023792299092
20
-2.14594287293042
30
0
41
1
10
17.4820324634274
20
-2.14591773810162
30
0
41
1
10
17.4616812758231
20
-2.14578892257202
30
0
41
1
10
17.3318859302258
20
-2.14430579983872
30
0
41
1
10
17.222284196634
20
-2.14007775654767
30
0
41
1
10
17.0024353526636
20
-2.1255379602928
30
0
41
1
10
16.8919898828808
20
-2.11520426558539
30
0
41
1
10
16.5619274076622
20
-2.07531388100665
30
0
41
1
10
16.3431025149366
20
-2.03685558851271
30
0
41
1
10
15.9060699026876
20
-1.9380411753601
30
0
41
1
10
15.6876811607776
20
-1.87757911940267
30
0
41
1
10
15.374227518383
20
-1.77631988216825
30
0
41
1
10
15.2797589477003
20
-1.74393040324188
30
0
41
1
10
15.1850714200363
20
-1.70967920737976
30
0
0
SPLINE
5
D8
100
AcDbEntity
8
1
62
256
6
ByLayer
370
13
48
1
60
0
100
AcDbSpline
70
4
71
3
72
28
73
24
40
0
40
0
40
0
40
0
40
0.0065754936578033
40
0.0065754936578033
40
0.0538814225312423
40
0.0538814225312423
40
0.243105138024998
40
0.243105138024998
40
0.337716995771877
40
0.337716995771877
40
0.385022924645315
40
0.385022924645315
40
0.432328853518754
40
0.432328853518754
40
0.621552569012507
40
0.621552569012507
40
0.668858497885944
40
0.668858497885944
40
0.71616442675938
40
0.71616442675938
40
0.810776284506254
40
0.810776284506254
40
1
40
1
40
1
40
1
41
1
10
15.1850704798239
20
-1.70967886727794
30
0
41
1
10
15.1697841391637
20
-1.70414935730696
30
0
41
1
10
15.1544920918587
20
-1.69857132573665
30
0
41
1
10
15.0291352128637
20
-1.65246766381827
30
0
41
1
10
14.9186793796941
20
-1.6094434248557
30
0
41
1
10
14.3694083378054
20
-1.38437373957663
30
0
41
1
10
13.9354838257374
20
-1.17127939770896
30
0
41
1
10
13.2813326095454
20
-0.819217710385317
30
0
41
1
10
13.0627373837727
20
-0.696374376145315
30
0
41
1
10
12.7325667471262
20
-0.506014533174863
30
0
41
1
10
12.6220737624914
20
-0.441510457309192
30
0
41
1
10
12.4023251115591
20
-0.31218629674666
30
0
41
1
10
12.2927942362023
20
-0.247199267527037
30
0
41
1
10
11.746234168364
20
0.0783085672506161
30
0
41
1
10
11.3123142234021
20
0.340224809755284
30
0
41
1
10
10.7651628702073
20
0.654409348477344
30
0
41
1
10
10.6554755670824
20
0.716553383110835
30
0
41
1
10
10.4353089043764
20
0.838982677284662
30
0
41
1
10
10.3247873193757
20
0.899286334374835
30
0
41
1
10
9.99512514313471
20
1.07491519267609
30
0
41
1
10
9.776731743417
20
1.18555507744151
30
0
41
1
10
9.12341079193686
20
1.49613226649126
30
0
41
1
10
8.68990720901382
20
1.67380128311947
30
0
41
1
10
8.25048673853439
20
1.81160435398414
30
0
0
SPLINE
5
D9
100
AcDbEntity
8
1
62
256
6
ByLayer
370
18
48
1
60
0
100
AcDbSpline
70
4
71
3
72
12
73
8
40
0
40
0
40
0
40
0
40
0.074799192571986
40
0.074799192571986
40
0.537399596285993
40
0.537399596285993
40
1
40
1
40
1
40
1
41
1
10
8.05837527571938
20
-2.22454569183131
30
0
41
1
10
8.05837427740641
20
-2.22452983864525
30
0
41
1
10
8.05837325782329
20
-2.22372588368648
30
0
41
1
10
8.05836621094949
20
-2.21224681023509
30
0
41
1
10
8.05836192309761
20
-2.17309460169363
30
0
41
1
10
8.05837668983597
20
-2.03491243855746
30
0
41
1
10
8.0583955255546
20
-1.9391637385539
30
0
41
1
10
8.05842792638356
20
-1.81739970350301
30
0
0
SPLINE
5
DA
100
AcDbEntity
8
1
62
256
6
ByLayer
370
18
48
1
60
0
100
AcDbSpline
70
4
71
3
72
22
73
18
40
0
40
0
40
0
40
0
40
0.126159153901813
40
0.126159153901813
40
0.252318307803626
40
0.252318307803626
40
0.37847746170544
40
0.37847746170544
40
0.504636615607253
40
0.504636615607253
40
0.630795769509066
40
0.630795769509066
40
0.756954923410879
40
0.756954923410879
40
0.883114077312693
40
0.883114077312693
40
1
40
1
40
1
40
1
41
1
10
9.08608479119366
20
-2.02192867944561
30
0
41
1
10
9.27661223645566
20
-2.05881102938827
30
0
41
1
10
9.46682074769058
20
-2.08674236511479
30
0
41
1
10
9.84672771082145
20
-2.12517880642255
30
0
41
1
10
10.0364749382766
20
-2.13621676075906
30
0
41
1
10
10.4177464844415
20
-2.13842791553162
30
0
41
1
10
10.607825917193
20
-2.13001306579602
30
0
41
1
10
10.9877641884349
20
-2.09662855953749
30
0
41
1
10
11.1778252487369
20
-2.0720859546974
30
0
41
1
10
11.5584348434605
20
-2.00385097952375
30
0
41
1
10
11.7488414269892
20
-1.9604234940258
30
0
41
1
10
12.128776439112
20
-1.85757626232626
30
0
41
1
10
12.3184902606066
20
-1.79776342956575
30
0
41
1
10
12.6993346746432
20
-1.66501293435198
30
0
41
1
10
12.8895632363706
20
-1.59114414527915
30
0
41
1
10
13.2552425148738
20
-1.4370904437649
30
0
41
1
10
13.4311871294345
20
-1.35755404416094
30
0
41
1
10
13.6074546017198
20
-1.27255416142199
30
0
0
SPLINE
5
DB
100
AcDbEntity
8
1
62
256
6
ByLayer
370
18
48
1
60
0
100
AcDbSpline
70
4
71
3
72
30
73
26
40
0
40
0
40
0
40
0
40
0.022766338575204
40
0.022766338575204
40
0.120489704717684
40
0.120489704717684
40
0.218213070860163
40
0.218213070860163
40
0.315936437002643
40
0.315936437002643
40
0.364798120073883
40
0.364798120073883
40
0.413659803145123
40
0.413659803145123
40
0.511383169287602
40
0.511383169287602
40
0.609106535430082
40
0.609106535430082
40
0.706829901572562
40
0.706829901572562
40
0.804553267715041
40
0.804553267715041
40
0.902276633857521
40
0.902276633857521
40
1
40
1
40
1
40
1
41
1
10
21.5032696939298
20
2.14972157412501
30
0
41
1
10
21.5476048033536
20
2.1496357872204
30
0
41
1
10
21.5919601365141
20
2.1490865195089
30
0
41
1
10
21.8268454396884
20
2.14386556294349
30
0
41
1
10
22.0171152919835
20
2.13135969457971
30
0
41
1
10
22.3968007071407
20
2.0902080182872
30
0
41
1
10
22.5867057995354
20
2.0580521452238
30
0
41
1
10
22.968163026839
20
1.97784178031111
30
0
41
1
10
23.1580990119074
20
1.92921516564249
30
0
41
1
10
23.4431515852309
20
1.84614371813504
30
0
41
1
10
23.5381813870575
20
1.81696433194225
30
0
41
1
10
23.7283841941195
20
1.75355775963283
30
0
41
1
10
23.8235702420777
20
1.71955064089116
30
0
41
1
10
24.1093464428513
20
1.6121294657757
30
0
41
1
10
24.2995813589695
20
1.53375296647243
30
0
41
1
10
24.6797005445292
20
1.3647994772667
30
0
41
1
10
24.8696132754768
20
1.27449306647733
30
0
41
1
10
25.2510532325128
20
1.08263720842231
30
0
41
1
10
25.4409636617912
20
0.981598831592351
30
0
41
1
10
25.8211065465538
20
0.772880924310044
30
0
41
1
10
26.0114192423678
20
0.665271575217787
30
0
41
1
10
26.3923580855365
20
0.443394555624394
30
0
41
1
10
26.5823771764075
20
0.330540242849764
30
0
41
1
10
26.9625328388192
20
0.103162070569311
30
0
41
1
10
27.1525294951717
20
-0.0119966747618037
30
0
41
1
10
27.342998035598
20
-0.126514343196902
30
0
0
SPLINE
5
DC
100
AcDbEntity
8
1
62
256
6
ByLayer
370
18
48
1
60
0
100
AcDbSpline
70
4
71
3
72
10
73
6
40
0
40
0
40
0
40
0
40
0.5
40
0.5
40
1
40
1
40
1
40
1
41
1
10
8.1065362292151
20
1.87685435752513
30
0
41
1
10
8.09261876040628
20
1.88362260179866
30
0
41
1
10
8.08087945394303
20
1.89137984954584
30
0
41
1
10
8.0636329849747
20
1.90866328320027
30
0
41
1
10
8.05830926586395
20
1.91803599264259
30
0
41
1
10
8.05831322006722
20
1.92746107780218
30
0
0
SPLINE
5
DD
100
AcDbEntity
8
1
62
256
6
ByLayer
370
13
48
1
60
0
100
AcDbSpline
70
4
71
3
72
12
73
8
40
0
40
0
40
0
40
0
40
0.252144353356089
40
0.252144353356089
40
0.504288706712179
40
0.504288706712179
40
1
40
1
40
1
40
1
41
1
10
8.25048673853439
20
1.81160435398414
30
0
41
1
10
8.25050564691156
20
1.86509658036286
30
0
41
1
10
8.25051923708708
20
1.91203755358538
30
0
41
1
10
8.25053868017642
20
1.99314142790715
30
0
41
1
10
8.25054453859704
20
2.02744651068477
30
0
41
1
10
8.25055427698734
20
2.10857288069443
30
0
41
1
10
8.25055105686897
20
2.1353166233425
30
0
41
1
10
8.25054861980811
20
2.13512632626626
30
0
0
SPLINE
5
DE
100
AcDbEntity
8
1
62
256
6
ByLayer
370
18
48
1
60
0
100
AcDbSpline
70
4
71
3
72
14
73
10
40
0
40
0
40
0
40
0
40
0.27205667193844
40
0.27205667193844
40
0.54411334387688
40
0.54411334387688
40
0.81617001581532
40
0.81617001581532
40
1
40
1
40
1
40
1
41
1
10
8.05831322006736
20
1.92746107780221
30
0
41
1
10
8.05833540969468
20
1.98035141071386
30
0
41
1
10
8.0583510571339
20
2.02647095024761
30
0
41
1
10
8.05837254372449
20
2.10513639205072
30
0
41
1
10
8.05837829060835
20
2.13743325268467
30
0
41
1
10
8.05838334042829
20
2.18686778453036
30
0
41
1
10
8.05838271228808
20
2.20427522756947
30
0
41
1
10
8.05837936192916
20
2.22115284096935
30
0
41
1
10
8.05837736983548
20
2.22456966928792
30
0
41
1
10
8.05837528414179
20
2.22454580688725
30
0
0
SPLINE
5
DF
100
AcDbEntity
8
1
62
256
6
ByLayer
370
18
48
1
60
0
100
AcDbSpline
70
4
71
3
72
8
73
4
40
0
40
0
40
0
40
0
40
1
40
1
40
1
40
1
41
1
10
8.05831322006736
20
1.92746107780218
30
0
41
1
10
8.07475693695025
20
1.90500576473752
30
0
41
1
10
8.09411744952448
20
1.88538301754815
30
0
41
1
10
8.11684282438398
20
1.86902514394865
30
0
0
SPLINE
5
E0
100
AcDbEntity
8
1
62
256
6
ByLayer
370
18
48
1
60
0
100
AcDbSpline
70
4
71
3
72
61
73
57
40
0
40
0
40
0
40
0
40
0.0624999999999893
40
0.0624999999999893
40
0.124999999999979
40
0.124999999999979
40
0.249999999999956
40
0.249999999999956
40
0.312499999999945
40
0.312499999999945
40
0.374999999999934
40
0.374999999999934
40
0.437499999999924
40
0.437499999999924
40
0.499999999999913
40
0.499999999999913
40
0.562499999999902
40
0.562499999999902
40
0.624999999999892
40
0.624999999999892
40
0.628906249999891
40
0.628906249999891
40
0.630859374999891
40
0.630859374999891
40
0.632812499999891
40
0.640624999999893
40
0.640624999999893
40
0.656249999999897
40
0.656249999999897
40
0.687499999999906
40
0.687499999999906
40
0.70312499999991
40
0.70312499999991
40
0.718749999999914
40
0.718749999999914
40
0.734374999999919
40
0.734374999999919
40
0.742187499999921
40
0.742187499999921
40
0.749999999999923
40
0.749999999999923
40
0.765624999999928
40
0.765624999999928
40
0.781249999999933
40
0.781249999999933
40
0.812499999999942
40
0.812499999999942
40
0.843749999999952
40
0.843749999999952
40
0.874999999999961
40
0.874999999999961
40
0.937499999999981
40
0.937499999999981
40
0.968749999999991
40
0.968749999999991
40
1
40
1
40
1
40
1
41
1
10
13.7035064973577
20
-1.30915316176276
30
0
41
1
10
13.4974313524521
20
-1.20455989537052
30
0
41
1
10
13.2885074674784
20
-1.09766738259074
30
0
41
1
10
12.8648488945136
20
-0.881835448902507
30
0
41
1
10
12.650203814937
20
-0.772966664696753
30
0
41
1
10
12.0048523721856
20
-0.452008621364968
30
0
41
1
10
11.5697441631806
20
-0.244113904523857
30
0
41
1
10
10.9030570807801
20
0.0411123972290568
30
0
41
1
10
10.6784930285674
20
0.131753568192664
30
0
41
1
10
10.2237792150124
20
0.301636374676462
30
0
41
1
10
9.99341478517783
20
0.380910277061787
30
0
41
1
10
9.52989407169997
20
0.525119056042655
30
0
41
1
10
9.29632959784033
20
0.59022548757261
30
0
41
1
10
8.82510631617009
20
0.705679845471678
30
0
41
1
10
8.58721363838555
20
0.756062314732475
30
0
41
1
10
8.10953534791219
20
0.841424185835024
30
0
41
1
10
7.86950195351912
20
0.876494309899641
30
0
41
1
10
7.38692767936902
20
0.931631939178118
30
0
41
1
10
7.14414786263814
20
0.951717244468483
30
0
41
1
10
6.88587224133897
20
0.965021681143469
30
0
41
1
10
6.87009423412863
20
0.964150676942808
30
0
41
1
10
6.847675410383
20
0.957089309132414
30
0
41
1
10
6.84089179963561
20
0.953642042636886
30
0
41
1
10
6.82696659767549
20
0.947306917938249
30
0
41
1
10
6.79222208350487
20
0.931344295175251
30
0
41
1
10
6.75782672864648
20
0.914744005061777
30
0
41
1
10
6.6760139775439
20
0.873545867477844
30
0
41
1
10
6.62244688930252
20
0.844284079335637
30
0
41
1
10
6.46538830962655
20
0.749656423791976
30
0
41
1
10
6.36638881628431
20
0.678241471131429
30
0
41
1
10
6.23528134488132
20
0.552600196659881
30
0
41
1
10
6.19438419641097
20
0.507513926721458
30
0
41
1
10
6.1204699984616
20
0.40821067571585
30
0
41
1
10
6.08827076982803
20
0.354850136986158
30
0
41
1
10
6.03761132942614
20
0.241672398888738
30
0
41
1
10
6.01899419203914
20
0.18081698601398
30
0
41
1
10
6.00407950599677
20
0.0888431359298067
30
0
41
1
10
6.00115759103747
20
0.0578860881525145
30
0
41
1
10
5.99939518900575
20
-0.0046269043015172
30
0
41
1
10
6.00059336651617
20
-0.0363882644090836
30
0
41
1
10
6.00995645530529
20
-0.130043231696362
30
0
41
1
10
6.02372761638514
20
-0.190938133839296
30
0
41
1
10
6.06318892660244
20
-0.310042566759933
30
0
41
1
10
6.08822874024179
20
-0.366447705436457
30
0
41
1
10
6.17459264872815
20
-0.528897604252307
30
0
41
1
10
6.24762454597149
20
-0.628799289660265
30
0
41
1
10
6.40501949634373
20
-0.810655313778057
30
0
41
1
10
6.49022920327886
20
-0.893769651604401
30
0
41
1
10
6.66888320648491
20
-1.04964860287541
30
0
41
1
10
6.76246440816928
20
-1.12228590237916
30
0
41
1
10
7.04701999420843
20
-1.32463324201768
30
0
41
1
10
7.24363470109091
20
-1.44087240805121
30
0
41
1
10
7.54482073274988
20
-1.59618815220574
30
0
41
1
10
7.64631803384299
20
-1.64466845505996
30
0
41
1
10
7.8512947642879
20
-1.73562393559269
30
0
41
1
10
7.95492342634989
20
-1.77813408677591
30
0
41
1
10
8.05842792638364
20
-1.8173997035033
30
0
0
SPLINE
5
E1
100
AcDbEntity
8
1
62
256
6
ByLayer
370
18
48
1
60
0
100
AcDbSpline
70
4
71
3
72
20
73
16
40
0
40
0
40
0
40
0
40
0.143833423582512
40
0.143833423582512
40
0.287666847165023
40
0.287666847165023
40
0.431500270747535
40
0.431500270747535
40
0.575333694330046
40
0.575333694330046
40
0.719167117912558
40
0.719167117912558
40
0.86300054149507
40
0.86300054149507
40
1
40
1
40
1
40
1
41
1
10
13.7049117174383
20
-1.30986636741812
30
0
41
1
10
13.8670010664858
20
-1.39250741601362
30
0
41
1
10
14.0293618316687
20
-1.46985425103964
30
0
41
1
10
14.3536894706409
20
-1.6155112358685
30
0
41
1
10
14.5151846750083
20
-1.68427037919778
30
0
41
1
10
14.8397690121075
20
-1.81033882128597
30
0
41
1
10
15.0027517647641
20
-1.86778360381473
30
0
41
1
10
15.3265815342919
20
-1.97150472736803
30
0
41
1
10
15.4882465936363
20
-2.01741489263776
30
0
41
1
10
15.812749493463
20
-2.09629704488404
30
0
41
1
10
15.9753317871274
20
-2.12970416585551
30
0
41
1
10
16.2992366744385
20
-2.18318121347045
30
0
41
1
10
16.4615374686063
20
-2.20298678252291
30
0
41
1
10
16.7778332320055
20
-2.22875965825418
30
0
41
1
10
16.931837173694
20
-2.23522239139018
30
0
41
1
10
17.0865660744804
20
-2.23539831707578
30
0
0
SPLINE
5
E2
100
AcDbEntity
8
1
62
256
6
ByLayer
370
18
48
1
60
0
100
AcDbSpline
70
4
71
3
72
26
73
22
40
0
40
0
40
0
40
0
40
0.003487711909484
40
0.003487711909484
40
0.114211299475099
40
0.114211299475099
40
0.224934887040714
40
0.224934887040714
40
0.335658474606329
40
0.335658474606329
40
0.446382062171941
40
0.446382062171941
40
0.557105649737553
40
0.557105649737553
40
0.667829237303164
40
0.667829237303164
40
0.778552824868776
40
0.778552824868776
40
0.889276412434388
40
0.889276412434388
40
1
40
1
40
1
40
1
41
1
10
24.870432426904
20
1.2689605814364
30
0
41
1
10
24.8755361585679
20
1.27160534996662
30
0
41
1
10
24.880640518466
20
1.27424614195402
30
0
41
1
10
25.0478135990437
20
1.36059160058102
30
0
41
1
10
25.2103560125287
20
1.43978078410808
30
0
41
1
10
25.5338285814999
20
1.58967358778398
30
0
41
1
10
25.695047655901
20
1.66034543824628
30
0
41
1
10
26.0192014532738
20
1.79015381063528
30
0
41
1
10
26.1816079477367
20
1.85016725067746
30
0
41
1
10
26.5049471914684
20
1.95843757367891
30
0
41
1
10
26.6667674068655
20
2.00631504878874
30
0
41
1
10
26.9904880605192
20
2.08992032814024
30
0
41
1
10
27.1521632143878
20
2.12591839096928
30
0
41
1
10
27.4763747286495
20
2.18399020833587
30
0
41
1
10
27.6383649177181
20
2.20629999280743
30
0
41
1
10
27.9613436586175
20
2.23767161483784
30
0
41
1
10
28.1229121542987
20
2.2465187542158
30
0
41
1
10
28.4475012353148
20
2.25046418391449
30
0
41
1
10
28.6091742293932
20
2.24554709361405
30
0
41
1
10
28.9314943411128
20
2.22204154864122
30
0
41
1
10
29.0929848146384
20
2.20367822550358
30
0
41
1
10
29.2541584507051
20
2.17858783270216
30
0
0
SPLINE
5
E3
100
AcDbEntity
8
1
62
256
6
ByLayer
370
18
48
1
60
0
100
AcDbSpline
70
4
71
3
72
38
73
34
40
0
40
0
40
0
40
0
40
0.0625000000000083
40
0.0625000000000083
40
0.125000000000017
40
0.125000000000017
40
0.156250000000021
40
0.156250000000021
40
0.187500000000025
40
0.187500000000025
40
0.218750000000029
40
0.218750000000029
40
0.250000000000033
40
0.250000000000033
40
0.281250000000037
40
0.281250000000037
40
0.312500000000042
40
0.312500000000042
40
0.343750000000046
40
0.343750000000046
40
0.37500000000005
40
0.37500000000005
40
0.406250000000054
40
0.406250000000054
40
0.437500000000058
40
0.437500000000058
40
0.500000000000057
40
0.500000000000057
40
0.625000000000045
40
0.625000000000045
40
0.750000000000033
40
0.750000000000033
40
1
40
1
40
1
40
1
41
1
10
29.090291103079
20
0.474841838086746
30
0
41
1
10
29.1208089601587
20
0.409130156608057
30
0
41
1
10
29.153787638539
20
0.344667882934431
30
0
41
1
10
29.2246958314064
20
0.218756003281101
30
0
41
1
10
29.2575580922788
20
0.153546558398318
30
0
41
1
10
29.2968913762082
20
0.0531932202482892
30
0
41
1
10
29.3083961926828
20
0.0193966652971085
30
0
41
1
10
29.327143399788
20
-0.0491131114295911
30
0
41
1
10
29.3344429598941
20
-0.0840899324183795
30
0
41
1
10
29.342398133716
20
-0.15426078893293
30
0
41
1
10
29.3429821976341
20
-0.188568490436751
30
0
41
1
10
29.3356818796129
20
-0.255243097133956
30
0
41
1
10
29.327742666779
20
-0.286410353237272
30
0
41
1
10
29.3035150032624
20
-0.3427061938593
30
0
41
1
10
29.2873261292548
20
-0.368015176110703
30
0
41
1
10
29.2503991963605
20
-0.411656563861584
30
0
41
1
10
29.2291584100989
20
-0.430554786115494
30
0
41
1
10
29.1837046288375
20
-0.462380719082432
30
0
41
1
10
29.1591856964685
20
-0.474463447114488
30
0
41
1
10
29.107947072058
20
-0.493925087335128
30
0
41
1
10
29.0811641018677
20
-0.50149419886182
30
0
41
1
10
29.0270678162223
20
-0.513025569146748
30
0
41
1
10
28.9997169498708
20
-0.517284468322032
30
0
41
1
10
28.9448345889127
20
-0.524903201702529
30
0
41
1
10
28.9172433595501
20
-0.527965710185271
30
0
41
1
10
28.8340389561022
20
-0.535009378949781
30
0
41
1
10
28.7779960505214
20
-0.53685157966774
30
0
41
1
10
28.6082821577174
20
-0.534488074781848
30
0
41
1
10
28.4925963814824
20
-0.522270082853538
30
0
41
1
10
28.2616730761228
20
-0.480654824898863
30
0
41
1
10
28.1459140893604
20
-0.451208415659579
30
0
41
1
10
27.7987017956866
20
-0.34176330188825
30
0
41
1
10
27.5693574618581
20
-0.240640985077079
30
0
41
1
10
27.3429980355979
20
-0.126514343196874
30
0
0
SPLINE
5
E4
100
AcDbEntity
8
1
62
256
6
ByLayer
370
18
48
1
60
0
100
AcDbSpline
70
4
71
3
72
8
73
4
40
0
40
0
40
0
40
0
40
1
40
1
40
1
40
1
41
1
10
9.0860728625351
20
-2.02191976290089
30
0
41
1
10
8.80561207838809
20
-1.96788948794136
30
0
41
1
10
8.52760071950047
20
-1.89448142689051
30
0
41
1
10
8.25060327996079
20
-1.79791066855643
30
0
0
SPLINE
5
E5
100
AcDbEntity
8
1
62
256
6
ByLayer
370
13
48
1
60
0
100
AcDbSpline
70
4
71
3
72
14
73
10
40
0
40
0
40
0
40
0
40
0.0087457555752061
40
0.0087457555752061
40
0.504372877787603
40
0.504372877787603
40
0.752186438893801
40
0.752186438893801
40
1
40
1
40
1
40
1
41
1
10
8.25054862454618
20
-2.13512666223895
30
0
41
1
10
8.25054858077996
20
-2.13512387272374
30
0
41
1
10
8.25054853726391
20
-2.13511240384449
30
0
41
1
10
8.25054604558181
20
-2.13395047491042
30
0
41
1
10
8.25054490163936
20
-2.10370850335428
30
0
41
1
10
8.2505563552219
20
-2.01837248234256
30
0
41
1
10
8.25056224554669
20
-1.98340127991574
30
0
41
1
10
8.25057898245632
20
-1.9004848945022
30
0
41
1
10
8.25058992074054
20
-1.8521748281938
30
0
41
1
10
8.25060327974734
20
-1.79791066848364
30
0
0
SPLINE
5
E6
100
AcDbEntity
8
1
62
256
6
ByLayer
370
18
48
1
60
0
100
AcDbSpline
70
4
71
3
72
16
73
12
40
0
40
0
40
0
40
0
40
0.317566514053002
40
0.317566514053002
40
0.447926261766532
40
0.447926261766532
40
0.578286009480062
40
0.578286009480062
40
0.839005504907121
40
0.839005504907121
40
1
40
1
40
1
40
1
41
1
10
28.7338690495219
20
-2.15955510913113
30
0
41
1
10
28.4684246002234
20
-2.15845461782067
30
0
41
1
10
28.2035339506334
20
-2.13946662205055
30
0
41
1
10
27.8285380447497
20
-2.08800066560116
30
0
41
1
10
27.7192466847181
20
-2.07006655509497
30
0
41
1
10
27.5000492388967
20
-2.02835861835638
30
0
41
1
10
27.3898725184473
20
-2.00452135155896
30
0
41
1
10
27.0601465658872
20
-1.92479521966672
30
0
41
1
10
26.8418735760466
20
-1.86084446914043
30
0
41
1
10
26.4897910319659
20
-1.74170995207689
30
0
41
1
10
26.3556007064408
20
-1.69254643495211
30
0
41
1
10
26.2214065413196
20
-1.63994159821721
30
0
0
SPLINE
5
E7
100
AcDbEntity
8
1
62
256
6
ByLayer
370
13
48
1
60
0
100
AcDbSpline
70
4
71
3
72
28
73
24
40
0
40
0
40
0
40
0
40
0.142746443430328
40
0.142746443430328
40
0.194372673185805
40
0.194372673185805
40
0.245998902941283
40
0.245998902941283
40
0.349251362452238
40
0.349251362452238
40
0.452503821963194
40
0.452503821963194
40
0.50413005171867
40
0.50413005171867
40
0.555756281474146
40
0.555756281474146
40
0.762261200496054
40
0.762261200496054
40
0.865513660007008
40
0.865513660007008
40
0.968766119517963
40
0.968766119517963
40
1
40
1
40
1
40
1
41
1
10
26.2214065413348
20
-1.63994159822315
30
0
41
1
10
25.9209642923367
20
-1.52216661566368
30
0
41
1
10
25.6205027973475
20
-1.38714200436075
30
0
41
1
10
25.2079054667646
20
-1.18348042262454
30
0
41
1
10
25.0977136383152
20
-1.12733585958929
30
0
41
1
10
24.8778017751949
20
-1.01232131831711
30
0
41
1
10
24.768216092374
20
-0.953547277899361
30
0
41
1
10
24.4402854400721
20
-0.77391322148091
30
0
41
1
10
24.2228004964504
20
-0.649694606001475
30
0
41
1
10
23.7879126183784
20
-0.39589646022921
30
0
41
1
10
23.5705236499917
20
-0.266288773907178
30
0
41
1
10
23.2433796837711
20
-0.0697065628084772
30
0
41
1
10
23.1341312853641
20
-0.003864351835233
30
0
41
1
10
22.9149230413996
20
0.127942339836352
30
0
41
1
10
22.8047084111934
20
0.1940797232634
30
0
41
1
10
22.2546983054153
20
0.522080225047915
30
0
41
1
10
21.8210775626752
20
0.774765944122123
30
0
41
1
10
21.168058330022
20
1.12083598800689
30
0
41
1
10
20.9500294202929
20
1.23077289661663
30
0
41
1
10
20.5114672781328
20
1.43708816351276
30
0
41
1
10
20.290657208729
20
1.53330713484297
30
0
41
1
10
20.0050150614692
20
1.64582244564582
30
0
41
1
10
19.9387283566286
20
1.67110034127583
30
0
41
1
10
19.872466117094
20
1.69549502586014
30
0
0
SPLINE
5
E8
100
AcDbEntity
8
1
62
256
6
ByLayer
370
18
48
1
60
0
100
AcDbSpline
70
4
71
3
72
8
73
4
40
0
40
0
40
0
40
0
40
1
40
1
40
1
40
1
41
1
10
19.8724661170739
20
1.69549502586761
30
0
41
1
10
19.7827658088121
20
1.72851852073461
30
0
41
1
10
19.6931103344279
20
1.75992348787835
30
0
41
1
10
19.6034302236778
20
1.78963574217866
30
0
0
SPLINE
5
E9
100
AcDbEntity
8
1
62
256
6
ByLayer
370
18
48
1
60
0
100
AcDbSpline
70
4
71
3
72
14
73
10
40
0
40
0
40
0
40
0
40
0.25
40
0.25
40
0.5
40
0.5
40
0.75
40
0.75
40
1
40
1
40
1
40
1
41
1
10
29.246189974172
20
-2.13945540954808
30
0
41
1
10
29.2479427273503
20
-2.13764368928167
30
0
41
1
10
29.2491459952338
20
-2.137340951993
30
0
41
1
10
29.2501550354088
20
-2.14057324512299
30
0
41
1
10
29.2499350369366
20
-2.14417338408376
30
0
41
1
10
29.2474456803777
20
-2.15642417475937
30
0
41
1
10
29.2451275168422
20
-2.16517406862107
30
0
41
1
10
29.2386278560699
20
-2.18633542239039
30
0
41
1
10
29.2344522299427
20
-2.1987329982272
30
0
41
1
10
29.2299429221337
20
-2.21129620727768
30
0
0
SPLINE
5
EA
100
AcDbEntity
8
1
62
256
6
ByLayer
370
18
48
1
60
0
100
AcDbSpline
70
4
71
3
72
68
73
64
40
0
40
0
40
0
40
0
40
0.0331866477928061
40
0.0331866477928061
40
0.0663732955856123
40
0.0663732955856123
40
0.0995599433784184
40
0.0995599433784184
40
0.132746591171225
40
0.132746591171225
40
0.165933238964031
40
0.165933238964031
40
0.199119886756837
40
0.199119886756837
40
0.232306534549643
40
0.232306534549643
40
0.265493182342449
40
0.265493182342449
40
0.298679830135255
40
0.298679830135255
40
0.331866477928061
40
0.331866477928061
40
0.365053125720867
40
0.365053125720867
40
0.398239773513674
40
0.398239773513674
40
0.43142642130648
40
0.43142642130648
40
0.464613069099286
40
0.464613069099286
40
0.497799716892092
40
0.497799716892092
40
0.530986364684898
40
0.530986364684898
40
0.564173012477704
40
0.564173012477704
40
0.59735966027051
40
0.59735966027051
40
0.630546308063316
40
0.630546308063316
40
0.663732955856122
40
0.663732955856122
40
0.696919603648929
40
0.696919603648929
40
0.730106251441735
40
0.730106251441735
40
0.763292899234541
40
0.763292899234541
40
0.796479547027347
40
0.796479547027347
40
0.829666194820153
40
0.829666194820153
40
0.862852842612959
40
0.862852842612959
40
0.896039490405765
40
0.896039490405765
40
0.929226138198571
40
0.929226138198571
40
0.962412785991378
40
0.962412785991378
40
0.995599433784184
40
0.995599433784184
40
1
40
1
40
1
40
1
41
1
10
13.7049117174412
20
1.30986636741963
30
0
41
1
10
13.8670010664887
20
1.39250741601504
30
0
41
1
10
14.0293618316715
20
1.469854251041
30
0
41
1
10
14.3536894706437
20
1.61551123586969
30
0
41
1
10
14.515184675011
20
1.68427037919892
30
0
41
1
10
14.8397690121102
20
1.81033882128696
30
0
41
1
10
15.0027517647668
20
1.86778360381564
30
0
41
1
10
15.3265815342945
20
1.9715047273688
30
0
41
1
10
15.4882465936389
20
2.01741489263847
30
0
41
1
10
15.8127494934656
20
2.09629704488458
30
0
41
1
10
15.9753317871299
20
2.129704165856
30
0
41
1
10
16.2992366744409
20
2.18318121347076
30
0
41
1
10
16.4615374686088
20
2.2029867825232
30
0
41
1
10
16.7855301732819
20
2.22938683172271
30
0
41
1
10
16.947200843131
20
2.23585195042992
30
0
41
1
10
17.2722525762344
20
2.23490343235318
30
0
41
1
10
17.4345579803571
20
2.22763142592331
30
0
41
1
10
17.7579482268023
20
2.19931157231852
30
0
41
1
10
17.9197963018831
20
2.17838172604894
30
0
41
1
10
18.244602731137
20
2.12341984331809
30
0
41
1
10
18.4067504120889
20
2.08903611059358
30
0
41
1
10
18.7304765723446
20
2.00803239291798
30
0
41
1
10
18.8926491836052
20
1.96165340377024
30
0
41
1
10
19.21665916417
20
1.85646157963376
30
0
41
1
10
19.3787718506455
20
1.79737229782413
30
0
41
1
10
19.7032879293691
20
1.66999903016966
30
0
41
1
10
19.8651138197533
20
1.60101649787563
30
0
41
1
10
20.1884774359256
20
1.45295491956995
30
0
41
1
10
20.3508215060696
20
1.37456182008967
30
0
41
1
10
20.6756859800534
20
1.20951319211392
30
0
41
1
10
20.837063039136
20
1.12239423704503
30
0
41
1
10
21.1608014378031
20
0.943249887476924
30
0
41
1
10
21.3229652162707
20
0.851008619058632
30
0
41
1
10
21.6470058104846
20
0.659786927814139
30
0
41
1
10
21.8091641213345
20
0.561770303186336
30
0
41
1
10
22.1332441769681
20
0.364416576841506
30
0
41
1
10
22.2948346009777
20
0.263947134953327
30
0
41
1
10
22.6183261988006
20
0.0613015061487374
30
0
41
1
10
22.7812465062019
20
-0.0398257779380913
30
0
41
1
10
23.1052378143926
20
-0.242009681972604
30
0
41
1
10
23.2664823813195
20
-0.343239443171228
30
0
41
1
10
23.5903247075359
20
-0.54144200255439
30
0
41
1
10
23.7527989678589
20
-0.63912704187689
30
0
41
1
10
24.0766587464902
20
-0.831766085733136
30
0
41
1
10
24.238463131036
20
-0.925123796335328
30
0
41
1
10
24.5622798042439
20
-1.10540447723506
30
0
41
1
10
24.7236774879762
20
-1.19317420855253
30
0
41
1
10
25.0478135990446
20
-1.36059160058141
30
0
41
1
10
25.2103560125295
20
-1.43978078410845
30
0
41
1
10
25.5338285815006
20
-1.58967358778432
30
0
41
1
10
25.6950476559017
20
-1.66034543824657
30
0
41
1
10
26.0192014532745
20
-1.79015381063553
30
0
41
1
10
26.1816079477374
20
-1.85016725067769
30
0
41
1
10
26.504947191469
20
-1.95843757367911
30
0
41
1
10
26.6667674068661
20
-2.00631504878891
30
0
41
1
10
26.9904880605197
20
-2.08992032814035
30
0
41
1
10
27.1521632143882
20
-2.12591839096939
30
0
41
1
10
27.4763747286499
20
-2.18399020833593
30
0
41
1
10
27.6383649177185
20
-2.20629999280749
30
0
41
1
10
27.9613436586178
20
-2.23767161483786
30
0
41
1
10
28.122912154299
20
-2.24651875421583
30
0
41
1
10
28.3067270326377
20
-2.24875305204796
30
0
41
1
10
28.3282364418837
20
-2.24889349231989
30
0
41
1
10
28.349735175765
20
-2.24891291606869
30
0
0
SPLINE
5
EB
100
AcDbEntity
8
1
62
256
6
ByLayer
370
18
48
1
60
0
100
AcDbSpline
70
4
71
3
72
8
73
4
40
0
40
0
40
0
40
0
40
1
40
1
40
1
40
1
41
1
10
13.7035064973577
20
1.30915316176279
30
0
41
1
10
13.6751708851577
20
1.29477144563404
30
0
41
1
10
13.6467814129022
20
1.28034625851984
30
0
41
1
10
13.6183379332891
20
1.26588091708013
30
0
0
SPLINE
5
EC
100
AcDbEntity
8
1
62
256
6
ByLayer
370
18
48
1
60
0
100
AcDbSpline
70
4
71
3
72
22
73
18
40
0
40
0
40
0
40
0
40
0.125
40
0.125
40
0.25
40
0.25
40
0.375
40
0.375
40
0.5
40
0.5
40
0.625
40
0.625
40
0.75
40
0.75
40
0.875
40
0.875
40
1
40
1
40
1
40
1
41
1
10
29.2541584507176
20
-2.17858783270035
30
0
41
1
10
29.2729610255709
20
-2.13201510682291
30
0
41
1
10
29.291834079754
20
-2.08497874080902
30
0
41
1
10
29.3298582080334
20
-1.98907708687381
30
0
41
1
10
29.3490045309096
20
-1.94025778217889
30
0
41
1
10
29.3874364169593
20
-1.84164326192393
30
0
41
1
10
29.4066493547778
20
-1.79215318892429
30
0
41
1
10
29.4450578408
20
-1.69211519696171
30
0
41
1
10
29.4642540166174
20
-1.64160545703299
30
0
41
1
10
29.5026394424323
20
-1.54016466533494
30
0
41
1
10
29.521874235712
20
-1.48909586407061
30
0
41
1
10
29.560058790502
20
-1.38685474302127
30
0
41
1
10
29.5790008933704
20
-1.33572017395849
30
0
41
1
10
29.616641007831
20
-1.2334282665804
30
0
41
1
10
29.6353604243106
20
-1.18227292494976
30
0
41
1
10
29.6726910502589
20
-1.07995214795184
30
0
41
1
10
29.6911868282153
20
-1.02877594493532
30
0
41
1
10
29.7095524200438
20
-0.977587597933251
30
0
0
SPLINE
5
ED
100
AcDbEntity
8
1
62
256
6
ByLayer
370
18
48
1
60
0
100
AcDbSpline
70
4
71
3
72
64
73
60
40
0
40
0
40
0
40
0
40
0.0256037489620202
40
0.0256037489620202
40
0.0646679143423119
40
0.0646679143423119
40
0.0841999970324577
40
0.0841999970324577
40
0.103732079722604
40
0.103732079722604
40
0.142796245102896
40
0.142796245102896
40
0.181860410483189
40
0.181860410483189
40
0.220924575863482
40
0.220924575863482
40
0.259988741243774
40
0.259988741243774
40
0.299052906624067
40
0.299052906624067
40
0.33811707200436
40
0.33811707200436
40
0.377181237384652
40
0.377181237384652
40
0.416245402764945
40
0.416245402764945
40
0.455309568145238
40
0.455309568145238
40
0.494373733525531
40
0.494373733525531
40
0.533437898905823
40
0.533437898905823
40
0.572502064286116
40
0.572502064286116
40
0.592034146976262
40
0.592034146976262
40
0.611566229666409
40
0.611566229666409
40
0.650630395046701
40
0.650630395046701
40
0.689694560426994
40
0.689694560426994
40
0.70922664311714
40
0.70922664311714
40
0.728758725807286
40
0.728758725807286
40
0.767822891187577
40
0.767822891187577
40
0.806887056567867
40
0.806887056567867
40
0.845951221948158
40
0.845951221948158
40
0.885015387328449
40
0.885015387328449
40
0.924079552708739
40
0.924079552708739
40
0.96314371808903
40
0.96314371808903
40
1
40
1
40
1
40
1
41
1
10
24.8634115871193
20
-1.27572702611195
30
0
41
1
10
24.7387443342051
20
-1.33602376917844
30
0
41
1
10
24.6143095025812
20
-1.39386262570846
30
0
41
1
10
24.2997170958955
20
-1.53369497863528
30
0
41
1
10
24.1094241163496
20
-1.61209852013897
30
0
41
1
10
23.8236395982123
20
-1.71952544430255
30
0
41
1
10
23.7284956018117
20
-1.75351860455183
30
0
41
1
10
23.538324067564
20
-1.81691878073565
30
0
41
1
10
23.4433062718522
20
-1.84609679926305
30
0
41
1
10
23.1582832977469
20
-1.92916513401136
30
0
41
1
10
22.9683619320343
20
-1.97779421182256
30
0
41
1
10
22.5868954220657
20
-2.05801801076123
30
0
41
1
10
22.3969869086619
20
-2.09018004752198
30
0
41
1
10
22.0173423856311
20
-2.13134286244755
30
0
41
1
10
21.827154303297
20
-2.14384956569896
30
0
41
1
10
21.4461353325186
20
-2.1523369847252
30
0
41
1
10
21.256040236365
20
-2.14852085726889
30
0
41
1
10
20.876062890025
20
-2.12063240617746
30
0
41
1
10
20.6864003212839
20
-2.09609041096235
30
0
41
1
10
20.305119433804
20
-2.03116036943962
30
0
41
1
10
20.1151116557786
20
-1.98945734560024
30
0
41
1
10
19.7351494644
20
-1.89129739969911
30
0
41
1
10
19.5448961744979
20
-1.83523002318242
30
0
41
1
10
19.1636276860436
20
-1.70619616517072
30
0
41
1
10
18.9738426443092
20
-1.63344965701594
30
0
41
1
10
18.5937422682274
20
-1.47526816801295
30
0
41
1
10
18.4038607807914
20
-1.39016688408896
30
0
41
1
10
18.0226218122897
20
-1.20879067527872
30
0
41
1
10
17.8325736053098
20
-1.1128657749675
30
0
41
1
10
17.4530855928649
20
-0.910325521117784
30
0
41
1
10
17.2628551416064
20
-0.806004429752335
30
0
41
1
10
16.8817635672492
20
-0.590399413540013
30
0
41
1
10
16.6919591398755
20
-0.479993067812274
30
0
41
1
10
16.4070792824416
20
-0.311829728933645
30
0
41
1
10
16.312106313808
20
-0.255284120908414
30
0
41
1
10
16.122070339477
20
-0.141816356235381
30
0
41
1
10
16.027026650703
20
-0.0847193136089288
30
0
41
1
10
15.7412654964666
20
0.0864262947067402
30
0
41
1
10
15.5511225205461
20
0.199900986835559
30
0
41
1
10
15.1713357392047
20
0.425122554977975
30
0
41
1
10
14.9812548127996
20
0.536237528096962
30
0
41
1
10
14.6953308539098
20
0.699251600824994
30
0
41
1
10
14.600228195035
20
0.752961064219789
30
0
41
1
10
14.4103665827177
20
0.858201343718122
30
0
41
1
10
14.315448037049
20
0.909618818177506
30
0
41
1
10
14.0304143865651
20
1.0614333297373
30
0
41
1
10
13.8403178938705
20
1.15924251710021
30
0
41
1
10
13.4594057044222
20
1.3447618758652
30
0
41
1
10
13.2694324137427
20
1.43110734015983
30
0
41
1
10
12.8898308360776
20
1.59103657376065
30
0
41
1
10
12.6998899177443
20
1.66480905572271
30
0
41
1
10
12.3187927034803
20
1.79766832235075
30
0
41
1
10
12.1290021460081
20
1.85750917613001
30
0
41
1
10
11.7490251871398
20
1.9603797323108
30
0
41
1
10
11.5587728340398
20
2.00378148761149
30
0
41
1
10
11.178016954462
20
2.07206047127886
30
0
41
1
10
10.9879025678573
20
2.09661346931966
30
0
41
1
10
10.6186275752522
20
2.12906670703436
30
0
41
1
10
10.4392789849781
20
2.1374490822613
30
0
41
1
10
10.2594682754157
20
2.13741879363314
30
0
0
SPLINE
5
EE
100
AcDbEntity
8
1
62
256
6
ByLayer
370
18
48
1
60
0
100
AcDbSpline
70
4
71
3
72
14
73
10
40
0
40
0
40
0
40
0
40
0.25
40
0.25
40
0.5
40
0.5
40
0.75
40
0.75
40
1
40
1
40
1
40
1
41
1
10
29.1435253003576
20
0.58464927127261
30
0
41
1
10
29.1309569367275
20
0.584068119178824
30
0
41
1
10
29.1184174495933
20
0.581475486819073
30
0
41
1
10
29.0964450525276
20
0.569757984312901
30
0
41
1
10
29.0872115768353
20
0.560068614131694
30
0
41
1
10
29.0776897327418
20
0.536761913654431
30
0
41
1
10
29.0770768999342
20
0.523529312290123
30
0
41
1
10
29.0807791792258
20
0.498467477677991
30
0
41
1
10
29.0849205259648
20
0.486405875881445
30
0
41
1
10
29.0902911030837
20
0.474841838076742
30
0
0
SPLINE
5
EF
100
AcDbEntity
8
1
62
256
6
ByLayer
370
18
48
1
60
0
100
AcDbSpline
70
4
71
3
72
18
73
14
40
0
40
0
40
0
40
0
40
0.117809463927382
40
0.200098551153971
40
0.252665333580822
40
0.304150690606117
40
0.35852671529445
40
0.419362646167838
40
0.503846692327899
40
0.58753324656091
40
0.674173125717147
40
0.814059195002557
40
1
40
1
40
1
40
1
41
1
10
17.4835520692866
20
-2.14592883034061
30
0
41
1
10
17.6416539039976
20
-2.14626579736026
30
0
41
1
10
17.9101970706118
20
-2.14669733635736
30
0
41
1
10
18.2493066937295
20
-2.14707603019085
30
0
41
1
10
18.4994082261525
20
-2.14704115283809
30
0
41
1
10
18.7120451366297
20
-2.14711347826977
30
0
41
1
10
18.9357796048417
20
-2.14766940261825
30
0
41
1
10
19.2038039576027
20
-2.14835031349927
30
0
41
1
10
19.5111698336853
20
-2.14824941941569
30
0
41
1
10
19.8531642698478
20
-2.1474109085845
30
0
41
1
10
20.2695209611522
20
-2.14849464612541
30
0
41
1
10
20.8231157887857
20
-2.1507175266986
30
0
41
1
10
21.2604284209682
20
-2.15025446012876
30
0
41
1
10
21.5099912273141
20
-2.14957150879044
30
0
0
SPLINE
5
F0
100
AcDbEntity
8
1
62
256
6
ByLayer
370
18
48
1
60
0
100
AcDbSpline
70
4
71
3
72
12
73
8
40
0
40
0
40
0
40
0
40
0.217237040563034
40
0.402944681889781
40
0.528478483780179
40
0.735489264743892
40
1
40
1
40
1
40
1
41
1
10
10.2608094647423
20
2.13732372515881
30
0
41
1
10
10.1152308934776
20
2.13704738519795
30
0
41
1
10
9.8452180327713
20
2.13660441570846
30
0
41
1
10
9.49104451301224
20
2.13632190160848
30
0
41
1
10
9.14388023873639
20
2.13596087615622
30
0
41
1
10
8.74371849404079
20
2.13590816029995
30
0
41
1
10
8.42777966147253
20
2.13537743300114
30
0
41
1
10
8.25054309556367
20
2.13501180057781
30
0
0
SPLINE
5
F1
100
AcDbEntity
8
1
62
256
6
ByLayer
370
18
48
1
60
0
100
AcDbSpline
70
4
71
2
72
6
73
3
40
0
40
0
40
0
40
1
40
1
40
1
41
1
10
28.7134663323253
20
-2.15952474467804
30
0
41
1
10
28.9649929802502
20
-2.15893384376761
30
0
41
1
10
29.2167892200754
20
-2.16067826816646
30
0
0
SPLINE
5
F2
100
AcDbEntity
8
1
62
256
6
ByLayer
370
18
48
1
60
0
100
AcDbSpline
70
4
71
3
72
16
73
12
40
0
40
0
40
0
40
0
40
0.164389627979651
40
0.289151771282787
40
0.365199748460396
40
0.437480820894437
40
0.512246308772745
40
0.592173469815912
40
0.723229392880178
40
0.849100775202773
40
1
40
1
40
1
40
1
41
1
10
21.5100306495486
20
2.14966806657975
30
0
41
1
10
21.3352020487309
20
2.1506558713902
30
0
41
1
10
21.0276892264057
20
2.15161476476354
30
0
41
1
10
20.6393021915281
20
2.14946659963076
30
0
41
1
10
20.3488704076279
20
2.14892328921184
30
0
41
1
10
20.1116122194546
20
2.1480184973378
30
0
41
1
10
19.8702250817152
20
2.14754091438482
30
0
41
1
10
19.5663316665574
20
2.14807276042455
30
0
41
1
10
19.2080877885825
20
2.14854805560302
30
0
41
1
10
18.7743544603189
20
2.14701905925693
30
0
41
1
10
18.4800385055455
20
2.14708383371641
30
0
41
1
10
18.3195718107734
20
2.14702878264416
30
0
0
SPLINE
5
F3
100
AcDbEntity
8
1
62
256
6
ByLayer
370
18
48
1
60
0
100
AcDbSpline
70
4
71
3
72
21
73
17
40
0
40
0
40
0
40
0
40
0.0006642628285925
40
0.0012786535132079
40
0.0023778369092691
40
0.0043473497731648
40
0.0418765008768221
40
0.0705104857150694
40
0.120944770501079
40
0.285957911589897
40
0.407904364088304
40
0.511056398814951
40
0.587112740900749
40
0.670512463545849
40
0.819889596991108
40
1
40
1
40
1
40
1
41
1
10
23.1224170381021
20
-0.526041063873379
30
0
41
1
10
23.1223440207758
20
-0.526037597808283
30
0
41
1
10
23.1224707881547
20
-0.526056325123591
30
0
41
1
10
23.122431338546
20
-0.526063164061924
30
0
41
1
10
23.1224961814214
20
-0.526085425633056
30
0
41
1
10
23.1231209271503
20
-0.526295458274006
30
0
41
1
10
23.1293357324859
20
-0.527606959723073
30
0
41
1
10
23.1599232405688
20
-0.532575781957377
30
0
41
1
10
23.2379295320963
20
-0.545633084744082
30
0
41
1
10
23.3495838232848
20
-0.567710386966354
30
0
41
1
10
23.4897242114019
20
-0.60672852482071
30
0
41
1
10
23.6120990525828
20
-0.647834436078739
30
0
41
1
10
23.7325965470046
20
-0.692100977123033
30
0
41
1
10
23.8817822386332
20
-0.755177604790788
30
0
41
1
10
24.1105026376669
20
-0.862488494268206
30
0
41
1
10
24.2964959595548
20
-0.959690196538986
30
0
41
1
10
24.4013481371592
20
-1.01732326332618
30
0
0
SPLINE
5
F4
100
AcDbEntity
8
1
62
256
6
ByLayer
370
18
48
1
60
0
100
AcDbSpline
70
4
71
3
72
8
73
4
40
0
40
0
40
0
40
0
40
1
40
1
40
1
40
1
41
1
10
12.1717047449789
20
-0.547781465945974
30
0
41
1
10
12.1482253727603
20
-0.546430858793428
30
0
41
1
10
12.1247880033146
20
-0.544997728929076
30
0
41
1
10
12.1014099824557
20
-0.543486464784934
30
0
0
SPLINE
5
F5
100
AcDbEntity
8
1
62
256
6
ByLayer
370
18
48
1
60
0
100
AcDbSpline
70
4
71
3
72
16
73
12
40
0
40
0
40
0
40
0
40
0.0077280085330687
40
0.0259511779265402
40
0.0744610135697195
40
0.261521751323759
40
0.41277913567511
40
0.603106077181191
40
0.779620018553412
40
0.936322049073414
40
1
40
1
40
1
40
1
41
1
10
11.870839614469
20
-0.526488191706846
30
0
41
1
10
11.870832009443
20
-0.526556893263489
30
0
41
1
10
11.8709687048978
20
-0.52679533236801
30
0
41
1
10
11.8726087077651
20
-0.527524808074389
30
0
41
1
10
11.8967957386022
20
-0.531468954782696
30
0
41
1
10
11.9693294388259
20
-0.541924870140264
30
0
41
1
10
12.0665362879193
20
-0.560749059030883
30
0
41
1
10
12.1662420503173
20
-0.586485276129793
30
0
41
1
10
12.2805197961934
20
-0.619708276841891
30
0
41
1
10
12.3866978165211
20
-0.655891059036492
30
0
41
1
10
12.4470880232423
20
-0.67913943277884
30
0
41
1
10
12.4646424171364
20
-0.686083601842739
30
0
0
SPLINE
5
F6
100
AcDbEntity
8
1
62
256
6
ByLayer
370
18
48
1
60
0
100
AcDbSpline
70
4
71
1
72
4
73
2
40
0
40
0
40
1
40
1
41
1
10
24.4639149665842
20
-1.05203509923121
30
0
41
1
10
24.5215444033913
20
-1.08245454893534
30
0
0
SPLINE
5
F7
100
AcDbEntity
8
1
62
256
6
ByLayer
370
18
48
1
60
0
100
AcDbSpline
70
4
71
3
72
12
73
8
40
0
40
0
40
0
40
0
40
0.318139307571209
40
0.444266759710044
40
0.576024592510075
40
0.796632766907078
40
1
40
1
40
1
40
1
41
1
10
15.7653581168253
20
0.0809996944019247
30
0
41
1
10
15.7664291949367
20
0.080519449175199
30
0
41
1
10
15.7614370123145
20
0.0826239878412309
30
0
41
1
10
15.7360466382993
20
0.0957701274282101
30
0
41
1
10
15.6983165222283
20
0.115845083191545
30
0
41
1
10
15.6193193722486
20
0.159656118955269
30
0
41
1
10
15.551990076097
20
0.199418929482732
30
0
41
1
10
15.5160830385923
20
0.220932659598532
30
0
0
SPLINE
5
F8
100
AcDbEntity
8
1
62
256
6
ByLayer
370
18
48
1
60
0
100
AcDbSpline
70
4
71
3
72
12
73
8
40
0
40
0
40
0
40
0
40
0.264510390777301
40
0.471520902145213
40
0.597054540549291
40
0.782761940023425
40
1
40
1
40
1
40
1
41
1
10
8.2505430955637
20
-2.13501180057781
30
0
41
1
10
8.42777966147398
20
-2.13537743300117
30
0
41
1
10
8.74371849404497
20
-2.13590816029421
30
0
41
1
10
9.1438802387413
20
-2.13596087616926
30
0
41
1
10
9.49104451302267
20
-2.13632190157514
30
0
41
1
10
9.84521890555078
20
-2.13660441661531
30
0
41
1
10
10.1152326389135
20
-2.13704738753478
30
0
41
1
10
10.2608120829247
20
-2.13732372928234
30
0
0
LINE
5
7B
100
AcDbEntity
8
SK1
62
256
6
ByLayer
370
18
48
1
60
0
100
AcDbLine
10
0
20
-3
30
0
11
0
21
3
31
0
39
0
210
0
220
0
230
1
0
LINE
5
7D
100
AcDbEntity
8
SK1
62
256
6
ByLayer
370
18
48
1
60
0
100
AcDbLine
10
-35.1
20
3
30
0
11
-35.1
21
-3
31
0
39
0
210
0
220
0
230
1
0
LINE
5
7E
100
AcDbEntity
8
SK1
62
256
6
ByLayer
370
18
48
1
60
0
100
AcDbLine
10
-36
20
2.1
30
0
11
-36
21
2.098993
31
0
39
0
210
0
220
0
230
1
0
LINE
5
7F
100
AcDbEntity
8
SK1
62
256
6
ByLayer
370
18
48
1
60
0
100
AcDbLine
10
-35.65
20
1.928391
30
0
11
-35.65
21
2.430062
31
0
39
0
210
0
220
0
230
1
0
LINE
5
80
100
AcDbEntity
8
SK1
62
256
6
ByLayer
370
13
48
1
60
0
100
AcDbLine
10
-35.75
20
2.34402
30
0
11
-35.75
21
1.765138
31
0
39
0
210
0
220
0
230
1
0
LINE
5
81
100
AcDbEntity
8
SK1
62
256
6
ByLayer
370
18
48
1
60
0
100
AcDbLine
10
-36
20
2.098993
30
0
11
-36
21
1.520101
31
0
39
0
210
0
220
0
230
1
0
LINE
5
82
100
AcDbEntity
8
SK1
62
256
6
ByLayer
370
18
48
1
60
0
100
AcDbLine
10
-36
20
1.520141
30
0
11
-36
21
-2.1
31
0
39
0
210
0
220
0
230
1
0
LINE
5
83
100
AcDbEntity
8
1
62
256
6
ByLayer
370
13
48
1
60
0
100
AcDbLine
10
1.376915
20
2.216547
30
0
11
1.376915
21
-2.216547
31
0
39
0
210
0
220
0
230
1
0
LINE
5
84
100
AcDbEntity
8
1
62
256
6
ByLayer
370
18
48
1
60
0
100
AcDbLine
10
29.709552
20
-0.977588
30
0
11
29.709502
21
-0.977615
31
0
39
0
210
0
220
0
230
1
0
LINE
5
85
100
AcDbEntity
8
1
62
256
6
ByLayer
370
13
48
1
60
0
100
AcDbLine
10
0.687977
20
2.608273
30
0
11
0.687977
21
-2.608273
31
0
39
0
210
0
220
0
230
1
0
LINE
5
86
100
AcDbEntity
8
1
62
256
6
ByLayer
370
18
48
1
60
0
100
AcDbLine
10
29.954312
20
-0.102515
30
0
11
29.966319
21
-0.073975
31
0
39
0
210
0
220
0
230
1
0
LINE
5
87
100
AcDbEntity
8
1
62
256
6
ByLayer
370
18
48
1
60
0
100
AcDbLine
10
0
20
-3
30
0
11
0
21
3
31
0
39
0
210
0
220
0
230
1
0
LINE
5
88
100
AcDbEntity
8
1
62
256
6
ByLayer
370
18
48
1
60
0
100
AcDbLine
10
29.989828
20
0.054454
30
0
11
29.884914
21
0.437414
31
0
39
0
210
0
220
0
230
1
0
LINE
5
89
100
AcDbEntity
8
1
62
256
6
ByLayer
370
13
48
1
60
0
100
AcDbLine
10
29.966319
20
-0.073975
30
0
11
29.090291
21
0.474842
31
0
39
0
210
0
220
0
230
1
0
LINE
5
8A
100
AcDbEntity
8
1
62
256
6
ByLayer
370
18
48
1
60
0
100
AcDbLine
10
29.538878
20
-1.243911
30
0
11
29.20632
21
-2.157608
31
0
39
0
210
0
220
0
230
1
0
LINE
5
8B
100
AcDbEntity
8
1
62
256
6
ByLayer
370
13
48
1
60
0
100
AcDbLine
10
29.989828
20
0.054454
30
0
11
29.143525
21
0.584649
31
0
39
0
210
0
220
0
230
1
0
LINE
5
8C
100
AcDbEntity
8
1
62
256
6
ByLayer
370
18
48
1
60
0
100
AcDbLine
10
30
20
0.019322
30
0
11
30
21
-0.019322
31
0
39
0
210
0
220
0
230
1
0
LINE
5
8D
100
AcDbEntity
8
1
62
256
6
ByLayer
370
18
48
1
60
0
100
AcDbLine
10
29.989828
20
-0.054454
30
0
11
29.884914
21
-0.437414
31
0
39
0
210
0
220
0
230
1
0
LINE
5
8E
100
AcDbEntity
8
1
62
256
6
ByLayer
370
18
48
1
60
0
100
AcDbLine
10
29.954312
20
-0.102515
30
0
11
29.776256
21
-0.59172
31
0
39
0
210
0
220
0
230
1
0
LINE
5
8F
100
AcDbEntity
8
1
62
256
6
ByLayer
370
18
48
1
60
0
100
AcDbLine
10
29.954312
20
-0.102515
30
0
11
28.856849
21
-1.577513
31
0
39
0
210
0
220
0
230
1
0
LINE
5
90
100
AcDbEntity
8
1
62
256
6
ByLayer
370
18
48
1
60
0
100
AcDbLine
10
29.20632
20
-2.157608
30
0
11
29.2143
21
-2.159952
31
0
39
0
210
0
220
0
230
1
0
LINE
5
91
100
AcDbEntity
8
80
62
256
6
ByLayer
370
18
48
1
60
0
100
AcDbLine
10
0
20
0
30
0
11
-5
21
0
31
0
39
0
210
0
220
0
230
1
0
LINE
5
92
100
AcDbEntity
8
4
62
256
6
ByLayer
370
18
48
0.05
60
0
100
AcDbLine
10
30
20
0
30
0
11
0
21
0
31
0
39
0
210
0
220
0
230
1
0
LINE
5
94
100
AcDbEntity
8
SK4
62
256
6
ByLayer
370
18
48
0.05
60
0
100
AcDbLine
10
35
20
0
30
0
11
-41
21
0
31
0
39
0
210
0
220
0
230
1
0
LINE
5
96
100
AcDbEntity
8
SK1
62
256
6
ByLayer
370
18
48
1
60
0
100
AcDbLine
10
-35.1
20
-3
30
0
11
0
21
-3
31
0
39
0
210
0
220
0
230
1
0
LINE
5
97
100
AcDbEntity
8
SK1
62
256
6
ByLayer
370
18
48
1
60
0
100
AcDbLine
10
0
20
3
30
0
11
-35.1
21
3
31
0
39
0
210
0
220
0
230
1
0
LINE
5
98
100
AcDbEntity
8
SK1
62
256
6
ByLayer
370
18
48
1
60
0
100
AcDbLine
10
-36
20
-2.1
30
0
11
-35.1
21
-3
31
0
39
0
210
0
220
0
230
1
0
LINE
5
99
100
AcDbEntity
8
SK1
62
256
6
ByLayer
370
18
48
1
60
0
100
AcDbLine
10
-35.1
20
3
30
0
11
-36
21
2.1
31
0
39
0
210
0
220
0
230
1
0
LINE
5
9A
100
AcDbEntity
8
1
62
256
6
ByLayer
370
18
48
1
60
0
100
AcDbLine
10
1.376915
20
-2.216547
30
0
11
8.058373
21
-2.224565
31
0
39
0
210
0
220
0
230
1
0
LINE
5
9B
100
AcDbEntity
8
1
62
256
6
ByLayer
370
18
48
1
60
0
100
AcDbLine
10
17.085943
20
-2.235398
30
0
11
17.315513
21
-2.235674
31
0
39
0
210
0
220
0
230
1
0
LINE
5
9C
100
AcDbEntity
8
1
62
256
6
ByLayer
370
18
48
1
60
0
100
AcDbLine
10
28.348184
20
-2.248913
30
0
11
28.566386
21
-2.249175
31
0
39
0
210
0
220
0
230
1
0
LINE
5
9D
100
AcDbEntity
8
1
62
256
6
ByLayer
370
18
48
1
60
0
100
AcDbLine
10
28.566877
20
2.249175
30
0
11
28.348184
21
2.248913
31
0
39
0
210
0
220
0
230
1
0
LINE
5
9E
100
AcDbEntity
8
1
62
256
6
ByLayer
370
18
48
1
60
0
100
AcDbLine
10
17.314442
20
2.235672
30
0
11
17.085943
21
2.235398
31
0
39
0
210
0
220
0
230
1
0
LINE
5
9F
100
AcDbEntity
8
1
62
256
6
ByLayer
370
18
48
1
60
0
100
AcDbLine
10
8.058373
20
2.224565
30
0
11
1.376915
21
2.216547
31
0
39
0
210
0
220
0
230
1
0
LINE
5
A0
100
AcDbEntity
8
81
62
256
6
ByLayer
370
18
48
1
60
0
100
AcDbLine
10
30
20
0
30
0
11
35
21
0
31
0
39
0
210
0
220
0
230
1
0
LINE
5
A1
100
AcDbEntity
8
SK2
62
256
6
ByLayer
370
13
48
1
60
0
100
AcDbLine
10
-44.625163
20
32.117107
30
0
11
-44.625163
21
-11.75
31
0
39
0
210
0
220
0
230
1
0
LINE
5
A3
100
AcDbEntity
8
SK2
62
256
6
ByLayer
370
13
48
1
60
0
100
AcDbLine
10
-37.5875
20
3
30
0
11
-46.625163
21
3
31
0
39
0
210
0
220
0
230
1
0
LINE
5
A4
100
AcDbEntity
8
SK2
62
256
6
ByLayer
370
13
48
1
60
0
100
AcDbLine
10
-37.5875
20
-3
30
0
11
-46.625163
21
-3
31
0
39
0
210
0
220
0
230
1
0
LINE
5
A5
100
AcDbEntity
8
1
62
256
6
ByLayer
370
18
48
1
60
1
100
AcDbLine
10
-44.625163
20
3
30
0
11
-45.085946
21
6.499998
31
0
39
0
210
0
220
0
230
1
0
LINE
5
A6
100
AcDbEntity
8
1
62
256
6
ByLayer
370
18
48
1
60
1
100
AcDbLine
10
-45.085946
20
6.499998
30
0
11
-44.164379
21
6.500002
31
0
39
0
210
0
220
0
230
1
0
LINE
5
A7
100
AcDbEntity
8
1
62
256
6
ByLayer
370
18
48
1
60
1
100
AcDbLine
10
-44.164379
20
6.500002
30
0
11
-44.625163
21
3
31
0
39
0
210
0
220
0
230
1
0
LINE
5
A8
100
AcDbEntity
8
1
62
256
6
ByLayer
370
18
48
1
60
1
100
AcDbLine
10
-44.625163
20
-3
30
0
11
-44.164379
21
-6.499998
31
0
39
0
210
0
220
0
230
1
0
LINE
5
A9
100
AcDbEntity
8
1
62
256
6
ByLayer
370
18
48
1
60
1
100
AcDbLine
10
-44.164379
20
-6.499998
30
0
11
-45.085946
21
-6.500002
31
0
39
0
210
0
220
0
230
1
0
LINE
5
AA
100
AcDbEntity
8
1
62
256
6
ByLayer
370
18
48
1
60
1
100
AcDbLine
10
-45.085946
20
-6.500002
30
0
11
-44.625163
21
-3
31
0
39
0
210
0
220
0
230
1
0
LINE
5
AB
100
AcDbEntity
8
2
62
256
6
ByLayer
370
13
48
1
60
0
100
AcDbLine
10
42.083343
20
30.328727
30
0
11
42.083343
21
-11
31
0
39
0
210
0
220
0
230
1
0
LINE
5
AD
100
AcDbEntity
8
2
62
256
6
ByLayer
370
13
48
1
60
0
100
AcDbLine
10
30.7875
20
2.25
30
0
11
44.083343
21
2.25
31
0
39
0
210
0
220
0
230
1
0
LINE
5
AE
100
AcDbEntity
8
2
62
256
6
ByLayer
370
13
48
1
60
0
100
AcDbLine
10
30.7875
20
-2.25
30
0
11
44.083343
21
-2.25
31
0
39
0
210
0
220
0
230
1
0
LINE
5
AF
100
AcDbEntity
8
1
62
256
6
ByLayer
370
18
48
1
60
1
100
AcDbLine
10
42.083343
20
2.25
30
0
11
41.622559
21
5.749998
31
0
39
0
210
0
220
0
230
1
0
LINE
5
B0
100
AcDbEntity
8
1
62
256
6
ByLayer
370
18
48
1
60
1
100
AcDbLine
10
41.622559
20
5.749998
30
0
11
42.544126
21
5.750002
31
0
39
0
210
0
220
0
230
1
0
LINE
5
B1
100
AcDbEntity
8
1
62
256
6
ByLayer
370
18
48
1
60
1
100
AcDbLine
10
42.544126
20
5.750002
30
0
11
42.083343
21
2.25
31
0
39
0
210
0
220
0
230
1
0
LINE
5
B2
100
AcDbEntity
8
1
62
256
6
ByLayer
370
18
48
1
60
1
100
AcDbLine
10
42.083343
20
-2.25
30
0
11
42.544126
21
-5.749998
31
0
39
0
210
0
220
0
230
1
0
LINE
5
B3
100
AcDbEntity
8
1
62
256
6
ByLayer
370
18
48
1
60
1
100
AcDbLine
10
42.544126
20
-5.749998
30
0
11
41.622559
21
-5.750002
31
0
39
0
210
0
220
0
230
1
0
LINE
5
B4
100
AcDbEntity
8
1
62
256
6
ByLayer
370
18
48
1
60
1
100
AcDbLine
10
41.622559
20
-5.750002
30
0
11
42.083343
21
-2.25
31
0
39
0
210
0
220
0
230
1
0
LINE
5
FF
100
AcDbEntity
8
1
62
256
6
ByLayer
370
18
48
1
60
1
100
AcDbLine
10
-44.625163
20
3
30
0
11
-45.085946
21
6.499998
31
0
39
0
210
0
220
0
230
1
0
LINE
5
100
100
AcDbEntity
8
1
62
256
6
ByLayer
370
18
48
1
60
1
100
AcDbLine
10
-45.085946
20
6.499998
30
0
11
-44.164379
21
6.500002
31
0
39
0
210
0
220
0
230
1
0
LINE
5
101
100
AcDbEntity
8
1
62
256
6
ByLayer
370
18
48
1
60
1
100
AcDbLine
10
-44.164379
20
6.500002
30
0
11
-44.625163
21
3
31
0
39
0
210
0
220
0
230
1
0
LINE
5
103
100
AcDbEntity
8
1
62
256
6
ByLayer
370
18
48
1
60
1
100
AcDbLine
10
-44.625163
20
-3
30
0
11
-44.164379
21
-6.499998
31
0
39
0
210
0
220
0
230
1
0
LINE
5
104
100
AcDbEntity
8
1
62
256
6
ByLayer
370
18
48
1
60
1
100
AcDbLine
10
-44.164379
20
-6.499998
30
0
11
-45.085946
21
-6.500002
31
0
39
0
210
0
220
0
230
1
0
LINE
5
105
100
AcDbEntity
8
1
62
256
6
ByLayer
370
18
48
1
60
1
100
AcDbLine
10
-45.085946
20
-6.500002
30
0
11
-44.625163
21
-3
31
0
39
0
210
0
220
0
230
1
0
LINE
5
109
100
AcDbEntity
8
1
62
256
6
ByLayer
370
18
48
1
60
1
100
AcDbLine
10
42.083343
20
2.25
30
0
11
41.622559
21
5.749998
31
0
39
0
210
0
220
0
230
1
0
LINE
5
10A
100
AcDbEntity
8
1
62
256
6
ByLayer
370
18
48
1
60
1
100
AcDbLine
10
41.622559
20
5.749998
30
0
11
42.544126
21
5.750002
31
0
39
0
210
0
220
0
230
1
0
LINE
5
10B
100
AcDbEntity
8
1
62
256
6
ByLayer
370
18
48
1
60
1
100
AcDbLine
10
42.544126
20
5.750002
30
0
11
42.083343
21
2.25
31
0
39
0
210
0
220
0
230
1
0
LINE
5
10D
100
AcDbEntity
8
1
62
256
6
ByLayer
370
18
48
1
60
1
100
AcDbLine
10
42.083343
20
-2.25
30
0
11
42.544126
21
-5.749998
31
0
39
0
210
0
220
0
230
1
0
LINE
5
10E
100
AcDbEntity
8
1
62
256
6
ByLayer
370
18
48
1
60
1
100
AcDbLine
10
42.544126
20
-5.749998
30
0
11
41.622559
21
-5.750002
31
0
39
0
210
0
220
0
230
1
0
LINE
5
10F
100
AcDbEntity
8
1
62
256
6
ByLayer
370
18
48
1
60
1
100
AcDbLine
10
41.622559
20
-5.750002
30
0
11
42.083343
21
-2.25
31
0
39
0
210
0
220
0
230
1
0
MTEXT
5
F9
100
AcDbEntity
8
SK6
62
256
6
ByLayer
370
13
48
1
60
0
100
AcDbMText
10
-29.84266
20
34.790328
30
0
210
0
220
0
230
1
1
\W0.7168;860.1-0450-014A1-SM 1210
40
3.5
41
0
44
1.084337
50
0
71
7
72
5
7
iso_b_vert
0
MTEXT
5
FD
100
AcDbEntity
8
SK2
62
256
6
ByLayer
370
18
48
1
60
0
100
AcDbMText
10
-46.189796
20
16.409024
30
0
210
0
220
0
230
1
1
%%c
40
3.5
41
0
44
1.084337
50
90
71
7
72
5
7
iso_b_vert
0
MTEXT
5
FE
100
AcDbEntity
8
SK2
62
256
6
ByLayer
370
18
48
1
60
0
100
AcDbMText
10
-46.189796
20
21.63168
30
0
210
0
220
0
230
1
1
\W0.7317;6,000
40
3.5
41
0
44
1.084337
50
90
71
7
72
5
7
iso_b_vert
0
MTEXT
5
107
100
AcDbEntity
8
2
62
256
6
ByLayer
370
18
48
1
60
0
100
AcDbMText
10
40.518709
20
14.25211
30
0
210
0
220
0
230
1
1
%%c
40
3.5
41
0
44
1.084337
50
90
71
7
72
5
7
iso_b_vert
0
MTEXT
5
108
100
AcDbEntity
8
2
62
256
6
ByLayer
370
18
48
1
60
0
100
AcDbMText
10
40.518709
20
19.474766
30
0
210
0
220
0
230
1
1
\W0.7581;4,500
40
3.5
41
0
44
1.084337
50
90
71
7
72
5
7
iso_b_vert
0
HATCH
5
102
100
AcDbEntity
8
SK2
62
256
6
ByLayer
370
13
48
1
60
0
100
AcDbHatch
10
0
20
0
30
0
210
0
220
0
230
1
2
ANSI31
70
0
71
0
91
1
92
5
93
3
72
1
10
-44.6251625675374
20
3
11
-45.0859463090902
21
6.49999830744682
72
1
10
-45.0859463090902
20
6.49999830744682
11
-44.1643788259847
21
6.50000169255318
72
1
10
-44.1643788259847
20
6.50000169255318
11
-44.6251625675374
21
3
97
0
75
0
76
1
52
0
41
0.0062
77
0
78
1
53
45
43
0
44
0
45
-0.0139193969876572
46
0.0139193969876572
79
0
47
0
98
1
10
0
20
0
0
HATCH
5
106
100
AcDbEntity
8
SK2
62
256
6
ByLayer
370
13
48
1
60
0
100
AcDbHatch
10
0
20
0
30
0
210
0
220
0
230
1
2
ANSI31
70
0
71
0
91
1
92
5
93
3
72
1
10
-44.6251625675374
20
-3
11
-44.1643788259847
21
-6.49999830744682
72
1
10
-44.1643788259847
20
-6.49999830744682
11
-45.0859463090902
21
-6.50000169255318
72
1
10
-45.0859463090902
20
-6.50000169255318
11
-44.6251625675374
21
-3
97
0
75
0
76
1
52
0
41
0.0062
77
0
78
1
53
45
43
0
44
0
45
-0.0139193969876572
46
0.0139193969876572
79
0
47
0
98
1
10
0
20
0
0
HATCH
5
10C
100
AcDbEntity
8
2
62
256
6
ByLayer
370
13
48
1
60
0
100
AcDbHatch
10
0
20
0
30
0
210
0
220
0
230
1
2
ANSI31
70
0
71
0
91
1
92
5
93
3
72
1
10
42.083342615295
20
2.25
11
41.6225588737423
21
5.74999830744682
72
1
10
41.6225588737423
20
5.74999830744682
11
42.5441263568478
21
5.75000169255318
72
1
10
42.5441263568478
20
5.75000169255318
11
42.083342615295
21
2.25
97
0
75
0
76
1
52
0
41
0.0062
77
0
78
1
53
45
43
0
44
0
45
-0.0139193969876572
46
0.0139193969876572
79
0
47
0
98
1
10
0
20
0
0
HATCH
5
110
100
AcDbEntity
8
2
62
256
6
ByLayer
370
13
48
1
60
0
100
AcDbHatch
10
0
20
0
30
0
210
0
220
0
230
1
2
ANSI31
70
0
71
0
91
1
92
5
93
3
72
1
10
42.083342615295
20
-2.25
11
42.5441263568478
21
-5.74999830744682
72
1
10
42.5441263568478
20
-5.74999830744682
11
41.6225588737423
21
-5.75000169255318
72
1
10
41.6225588737423
20
-5.75000169255318
11
42.083342615295
21
-2.25
97
0
75
0
76
1
52
0
41
0.0062
77
0
78
1
53
45
43
0
44
0
45
-0.0139193969876572
46
0.0139193969876572
79
0
47
0
98
1
10
0
20
0
0
DIMENSION
5
112
100
AcDbEntity
8
SK2
62
256
6
ByLayer
370
13
48
1
60
0
100
AcDbDimension
2
_U0
10
29.2
20
-12.463398
30
0
11
14.6
21
-12.463398
31
0
70
32
71
1
72
1
41
1
210
0
220
0
230
1
3
Standard
100
AcDbAlignedDimension
13
0
23
0
33
0
14
29.2
24
-2.25
34
0
50
0
100
AcDbRotatedDimension
1001
ACAD
1000
DSTYLE
1002
{
1070
   371
1070
    13
1070
   372
1070
    13
1070
   170
1070
     0
1070
   144
1040
1.0
1070
   277
1070
     2
1070
   278
1070
    44
1070
   146
1040
1.0
1070
   345
1005
16
1070
   347
1005
16
1070
   346
1005
16
1070
   344
1005
0
1070
   343
1005
0
1070
   172
1070
     1
1070
    76
1070
     0
1070
    75
1070
     0
1070
   282
1070
     0
1070
   281
1070
     0
1070
    71
1070
     0
1070
    74
1070
     0
1070
   279
1070
     0
1070
   173
1070
     1
1070
   340
1005
FA
1070
   271
1070
     2
1070
   272
1070
     2
1070
    77
1070
     1
1070
    73
1070
     1
1070
   171
1070
     3
1070
   274
1070
     4
1070
   177
1070
    35
1070
   176
1070
    35
1070
   178
1070
    35
1070
    48
1040
-0.1
1070
    41
1040
3.5
1070
   147
1040
1.75
1070
    42
1040
1.5875
1070
    44
1040
2.0
1070
   140
1040
3.5
1002
}
1001
ACAD_DSTYLE_DIM_LINETYPE
1070
   380
1005
16
1001
ACAD_DSTYLE_DIM_EXT1_LINETYPE
1070
   381
1005
16
1001
ACAD_DSTYLE_DIM_EXT2_LINETYPE
1070
   382
1005
16
0
DIMENSION
5
12B
100
AcDbEntity
8
SK2
62
256
6
ByLayer
370
13
48
1
60
0
100
AcDbDimension
2
_U1
10
30
20
-31.692985
30
0
11
-3
21
-31.692985
31
0
70
32
71
1
72
1
41
1
210
0
220
0
230
1
3
Standard
100
AcDbAlignedDimension
13
-36
23
-3
33
0
14
30
24
0
34
0
50
0
100
AcDbRotatedDimension
1001
ACAD
1000
DSTYLE
1002
{
1070
   371
1070
    13
1070
   372
1070
    13
1070
   170
1070
     0
1070
   144
1040
1.0
1070
   277
1070
     2
1070
   278
1070
    44
1070
   146
1040
1.0
1070
   345
1005
16
1070
   347
1005
16
1070
   346
1005
16
1070
   344
1005
0
1070
   343
1005
0
1070
   172
1070
     1
1070
    76
1070
     0
1070
    75
1070
     0
1070
   282
1070
     0
1070
   281
1070
     0
1070
    71
1070
     0
1070
    74
1070
     0
1070
   279
1070
     0
1070
   173
1070
     1
1070
   340
1005
FA
1070
   271
1070
     2
1070
   272
1070
     2
1070
    77
1070
     1
1070
    73
1070
     1
1070
   171
1070
     3
1070
   274
1070
     4
1070
   177
1070
    35
1070
   176
1070
    35
1070
   178
1070
    35
1070
    48
1040
-0.1
1070
    41
1040
3.5
1070
   147
1040
1.75
1070
    42
1040
1.5875
1070
    44
1040
2.0
1070
   140
1040
3.5
1002
}
1001
ACAD_DSTYLE_DIM_LINETYPE
1070
   380
1005
16
1001
ACAD_DSTYLE_DIM_EXT1_LINETYPE
1070
   381
1005
16
1001
ACAD_DSTYLE_DIM_EXT2_LINETYPE
1070
   382
1005
16
0
DIMENSION
5
143
100
AcDbEntity
8
SK2
62
256
6
ByLayer
370
13
48
1
60
0
100
AcDbDimension
2
_U2
10
30
20
13.859119
30
0
11
22.1459
21
13.859119
31
0
70
32
71
1
72
1
41
1
210
0
220
0
230
1
3
Standard
100
AcDbAlignedDimension
13
14.2918
23
2.25
33
0
14
30
24
0
34
0
50
0
100
AcDbRotatedDimension
1001
ACAD
1000
DSTYLE
1002
{
1070
   371
1070
    13
1070
   372
1070
    13
1070
   170
1070
     0
1070
   144
1040
1.0
1070
   277
1070
     2
1070
   278
1070
    44
1070
   146
1040
1.0
1070
   345
1005
16
1070
   347
1005
16
1070
   346
1005
16
1070
   344
1005
0
1070
   343
1005
0
1070
   172
1070
     1
1070
    76
1070
     0
1070
    75
1070
     0
1070
   282
1070
     0
1070
   281
1070
     0
1070
    71
1070
     0
1070
    74
1070
     0
1070
   279
1070
     0
1070
   173
1070
     1
1070
   340
1005
FA
1070
   271
1070
     2
1070
   272
1070
     2
1070
    77
1070
     1
1070
    73
1070
     1
1070
   171
1070
     3
1070
   274
1070
     4
1070
   177
1070
    35
1070
   176
1070
    35
1070
   178
1070
    35
1070
    48
1040
-0.1
1070
    41
1040
3.5
1070
   147
1040
1.75
1070
    42
1040
1.5875
1070
    44
1040
2.0
1070
   140
1040
3.5
1002
}
1001
ACAD_DSTYLE_DIM_LINETYPE
1070
   380
1005
16
1001
ACAD_DSTYLE_DIM_EXT1_LINETYPE
1070
   381
1005
16
1001
ACAD_DSTYLE_DIM_EXT2_LINETYPE
1070
   382
1005
16
0
DIMENSION
5
15C
100
AcDbEntity
8
SK2
62
256
6
ByLayer
370
13
48
1
60
0
100
AcDbDimension
2
_U3
10
29.2
20
-15.052503
30
0
11
47.583333
21
-15.052503
31
0
70
32
71
1
72
1
41
1
210
0
220
0
230
1
3
Standard
100
AcDbAlignedDimension
13
30
23
0
33
0
14
29.2
24
-2.25
34
0
50
0
100
AcDbRotatedDimension
1001
ACAD
1000
DSTYLE
1002
{
1070
   371
1070
    13
1070
   372
1070
    13
1070
   170
1070
     0
1070
   144
1040
1.0
1070
   277
1070
     2
1070
   278
1070
    44
1070
   146
1040
1.0
1070
   345
1005
16
1070
   347
1005
16
1070
   346
1005
16
1070
   344
1005
0
1070
   343
1005
0
1070
   172
1070
     1
1070
    76
1070
     0
1070
    75
1070
     0
1070
   282
1070
     0
1070
   281
1070
     0
1070
    71
1070
     0
1070
    74
1070
     0
1070
   279
1070
     0
1070
   173
1070
     1
1070
   340
1005
FA
1070
   271
1070
     2
1070
   272
1070
     2
1070
    77
1070
     1
1070
    73
1070
     1
1070
   171
1070
     3
1070
   274
1070
     4
1070
   177
1070
    35
1070
   176
1070
    35
1070
   178
1070
    35
1070
    48
1040
-0.1
1070
    41
1040
3.5
1070
   147
1040
1.75
1070
    42
1040
1.5875
1070
    44
1040
2.0
1070
   140
1040
3.5
1002
}
1001
ACAD_DSTYLE_DIM_LINETYPE
1070
   380
1005
16
1001
ACAD_DSTYLE_DIM_EXT1_LINETYPE
1070
   381
1005
16
1001
ACAD_DSTYLE_DIM_EXT2_LINETYPE
1070
   382
1005
16
0
DIMENSION
5
176
100
AcDbEntity
8
SK2
62
256
6
ByLayer
370
13
48
1
60
0
100
AcDbDimension
2
_U4
10
29.2
20
-21.343428
30
0
11
-3.4
21
-21.343428
31
0
70
32
71
1
72
1
41
1
210
0
220
0
230
1
3
Standard
100
AcDbAlignedDimension
13
-36
23
-3
33
0
14
29.2
24
-2.25
34
0
50
0
100
AcDbRotatedDimension
1001
ACAD
1000
DSTYLE
1002
{
1070
   371
1070
    13
1070
   372
1070
    13
1070
   170
1070
     0
1070
   144
1040
1.0
1070
   277
1070
     2
1070
   278
1070
    44
1070
   146
1040
1.0
1070
   345
1005
16
1070
   347
1005
16
1070
   346
1005
16
1070
   344
1005
0
1070
   343
1005
0
1070
   172
1070
     1
1070
    76
1070
     0
1070
    75
1070
     0
1070
   282
1070
     0
1070
   281
1070
     0
1070
    71
1070
     0
1070
    74
1070
     0
1070
   279
1070
     0
1070
   173
1070
     1
1070
   340
1005
FA
1070
   271
1070
     2
1070
   272
1070
     2
1070
    77
1070
     1
1070
    73
1070
     1
1070
   171
1070
     3
1070
   274
1070
     4
1070
   177
1070
    35
1070
   176
1070
    35
1070
   178
1070
    35
1070
    48
1040
-0.1
1070
    41
1040
3.5
1070
   147
1040
1.75
1070
    42
1040
1.5875
1070
    44
1040
2.0
1070
   140
1040
3.5
1002
}
1001
ACAD_DSTYLE_DIM_LINETYPE
1070
   380
1005
16
1001
ACAD_DSTYLE_DIM_EXT1_LINETYPE
1070
   381
1005
16
1001
ACAD_DSTYLE_DIM_EXT2_LINETYPE
1070
   382
1005
16
0
ENDSEC
0
SECTION
2
OBJECTS
0
DICTIONARY
5
1fe
330
0
100
AcDbDictionary
280
0
281
1
3
ACAD_GROUP
350
1ff
3
ACAD_MLINESTYLE
350
200
0
DICTIONARY
5
1ff
330
0
100
AcDbDictionary
280
0
281
1
0
DICTIONARY
5
200
330
0
100
AcDbDictionary
280
0
281
1
3
Standard
350
18
0
MLINESTYLE
5
18
330
200
100
AcDbMlineStyle
2
Standard
70
0
3

62
256
51
90
52
90
71
2
49
-0.5
62
256
6
ByLayer
49
0.5
62
256
6
ByLayer
0
RASTERVARIABLES
5
1ec
330

100
AcDbRasterVariables
90
0
70
1
71
1
72
1
0
ENDSEC
0
EOF
