0
SECTION
2
HEADER
9
$ACADVER
1
AC1015
9
$DWGCODEPAGE
3
ANSI_1252
9
$HANDSEED
5
359
9
$ANGBASE
50
0
9
$ANGDIR
70
0
9
$ATTMODE
70
1
9
$AUNITS
70
0
9
$AUPREC
70
0
9
$CECOLOR
62
256
9
$CELTSCALE
40
1
9
$CELTYPE
6
ByLayer
9
$CELWEIGHT
370
18
9
$CLAYER
8
0
9
$CMLJUST
70
0
9
$CMLSCALE
40
1
9
$CMLSTYLE
2
Standard
9
$DIMSTYLE
2
Standard
9
$TEXTSIZE
40
0.2
9
$TEXTSTYLE
7
Standard
9
$LUNITS
70
2
9
$LUPREC
70
4
9
$EXTNAMES
290
1
9
$INSUNITS
70
4
9
$LTSCALE
40
1
9
$LWDISPLAY
290
1
9
$PDMODE
70
0
9
$PDSIZE
40
0
9
$PLINEGEN
70
0
0
ENDSEC
0
SECTION
2
CLASSES
0
CLASS
1
RASTERVARIABLES
2
AcDbRasterVariables
3
ISM
90
0
280
0
281
0
0
ENDSEC
0
SECTION
2
TABLES
0
TABLE
2
VPORT
5
34f
100
AcDbSymbolTable
0
VPORT
5
1
100
AcDbSymbolTableRecord
100
AcDbViewportTableRecord
2
*Active
70
0
10
0
20
0
11
1
21
1
12
-1
22
1
13
0
23
0
14
0.5
24
0.5
15
10
25
10
16
0
26
0
36
1
17
0
27
0
37
0
0
ENDTAB
0
TABLE
2
LTYPE
5
350
100
AcDbSymbolTable
0
LTYPE
5
14
100
AcDbSymbolTableRecord
100
AcDbLinetypeTableRecord
70
0
2
ByBlock
3

72
65
73
0
40
0
0
LTYPE
5
15
100
AcDbSymbolTableRecord
100
AcDbLinetypeTableRecord
70
0
2
ByLayer
3

72
65
73
0
40
0
0
LTYPE
5
16
100
AcDbSymbolTableRecord
100
AcDbLinetypeTableRecord
70
0
2
CONTINUOUS
3
Solid line
72
65
73
0
40
0
0
LTYPE
5
6A
100
AcDbSymbolTableRecord
100
AcDbLinetypeTableRecord
70
0
2
CENTER
3
____ _ ____ _ ____ _ ____
72
65
73
4
40
47.5
49
22
74
0
49
-8.5
74
0
49
8.5
74
0
49
-8.5
74
0
0
LTYPE
5
6B
100
AcDbSymbolTableRecord
100
AcDbLinetypeTableRecord
70
0
2
DASHED
3
__ __ __ __ __ __ __ __ __
72
65
73
2
40
25.72
49
12.86
74
0
49
-12.86
74
0
0
ENDTAB
0
TABLE
2
LAYER
5
351
100
AcDbSymbolTable
0
LAYER
5
10
100
AcDbSymbolTableRecord
100
AcDbLayerTableRecord
2
0
70
0
62
7
6
CONTINUOUS
290
1
370
-3
390
0
0
LAYER
5
6D
100
AcDbSymbolTableRecord
100
AcDbLayerTableRecord
2
80
70
0
62
-6
6
CONTINUOUS
290
1
370
-3
390
0
0
LAYER
5
71
100
AcDbSymbolTableRecord
100
AcDbLayerTableRecord
2
81
70
0
62
-3
6
CONTINUOUS
290
1
370
-3
390
0
0
LAYER
5
73
100
AcDbSymbolTableRecord
100
AcDbLayerTableRecord
2
2
70
0
62
7
6
CONTINUOUS
290
1
370
-3
390
0
0
LAYER
5
75
100
AcDbSymbolTableRecord
100
AcDbLayerTableRecord
2
3
70
0
62
1
6
DASHED
290
1
370
-3
390
0
0
LAYER
5
7F
100
AcDbSymbolTableRecord
100
AcDbLayerTableRecord
2
5
70
0
62
-7
6
CONTINUOUS
290
1
370
-3
390
0
0
LAYER
5
86
100
AcDbSymbolTableRecord
100
AcDbLayerTableRecord
2
4
70
0
62
-2
6
CENTER
290
1
370
-3
390
0
0
LAYER
5
8A
100
AcDbSymbolTableRecord
100
AcDbLayerTableRecord
2
1
70
0
62
4
6
CONTINUOUS
290
1
370
-3
390
0
0
LAYER
5
33a
100
AcDbSymbolTableRecord
100
AcDbLayerTableRecord
2
2L
70
0
62
7
6
CONTINUOUS
290
1
370
-3
390
0
0
LAYER
5
33b
100
AcDbSymbolTableRecord
100
AcDbLayerTableRecord
2
SK4
70
0
62
2
6
CENTER
290
1
370
-3
390
0
0
LAYER
5
33c
100
AcDbSymbolTableRecord
100
AcDbLayerTableRecord
2
SK1
70
0
62
4
6
CONTINUOUS
290
1
370
-3
390
0
0
LAYER
5
33d
100
AcDbSymbolTableRecord
100
AcDbLayerTableRecord
2
SK6
70
0
62
5
6
CONTINUOUS
290
1
370
-3
390
0
0
LAYER
5
33e
100
AcDbSymbolTableRecord
100
AcDbLayerTableRecord
2
SK2
70
0
62
7
6
CONTINUOUS
290
1
370
-3
390
0
0
ENDTAB
0
TABLE
2
STYLE
5
352
100
AcDbSymbolTable
0
STYLE
5
11
100
AcDbSymbolTableRecord
100
AcDbTextStyleTableRecord
2
Standard
3
txt
70
0
71
0
40
0
41
1
42
0
50
0
0
STYLE
5
290
100
AcDbSymbolTableRecord
100
AcDbTextStyleTableRecord
2
iso_b_vert
3
simplex.shx
70
0
71
0
40
0
41
1
42
0
50
0
0
STYLE
5
291
100
AcDbSymbolTableRecord
100
AcDbTextStyleTableRecord
2
DWGDirectTextStyle
3
simplex
70
0
71
0
40
0
41
1
42
0
50
0
0
ENDTAB
0
TABLE
2
DIMSTYLE
5
353
100
AcDbSymbolTable
100
AcDbDimStyleTable
0
DIMSTYLE
105
27
100
AcDbSymbolTableRecord
100
AcDbDimStyleTableRecord
2
Standard
70
0
3
<>
41
0.18
42
0.0625
44
0.18
140
0.18
147
0.09
73
0
74
0
77
1
271
2
275
0
278
52
280
0
340
11
0
ENDTAB
0
TABLE
2
VIEW
5
354
100
AcDbSymbolTable
0
ENDTAB
0
TABLE
2
UCS
5
355
100
AcDbSymbolTable
0
ENDTAB
0
TABLE
2
APPID
5
356
100
AcDbSymbolTable
0
APPID
5
12
100
AcDbSymbolTableRecord
100
AcDbRegAppTableRecord
2
ACAD
70
0
0
ENDTAB
0
TABLE
2
BLOCK_RECORD
5
357
100
AcDbSymbolTable
0
BLOCK_RECORD
5
1F
100
AcDbSymbolTableRecord
100
AcDbBlockTableRecord
2
*Model_Space
340
0
70
0
0
BLOCK_RECORD
5
1B
100
AcDbSymbolTableRecord
100
AcDbBlockTableRecord
2
*Paper_Space
340
0
70
0
0
BLOCK_RECORD
5
23
100
AcDbSymbolTableRecord
100
AcDbBlockTableRecord
2
*Paper_Space0
340
0
70
0
0
BLOCK_RECORD
5
293
100
AcDbSymbolTableRecord
100
AcDbBlockTableRecord
2
DimnDraft3D1
340
0
70
0
0
BLOCK_RECORD
5
2A1
100
AcDbSymbolTableRecord
100
AcDbBlockTableRecord
2
_CLOSED
340
0
70
0
0
BLOCK_RECORD
5
2A8
100
AcDbSymbolTableRecord
100
AcDbBlockTableRecord
2
DimnDraft3D2
340
0
70
0
0
BLOCK_RECORD
5
2B7
100
AcDbSymbolTableRecord
100
AcDbBlockTableRecord
2
DimnDraft3D3
340
0
70
0
0
BLOCK_RECORD
5
2C5
100
AcDbSymbolTableRecord
100
AcDbBlockTableRecord
2
DimnDraft3D4
340
0
70
0
0
BLOCK_RECORD
5
2D3
100
AcDbSymbolTableRecord
100
AcDbBlockTableRecord
2
DimnDraft3D5
340
0
70
0
0
ENDTAB
0
ENDSEC
0
SECTION
2
BLOCKS
0
BLOCK
5
20
100
AcDbEntity
8
0
100
AcDbBlockBegin
2
*Model_Space
70
0
10
0
20
0
30
0
3
*Model_Space
0
ENDBLK
5
21
100
AcDbEntity
8
0
100
AcDbBlockEnd
0
BLOCK
5
1C
100
AcDbEntity
8
0
100
AcDbBlockBegin
2
*Paper_Space
70
0
10
0
20
0
30
0
3
*Paper_Space
0
ENDBLK
5
1D
100
AcDbEntity
8
0
100
AcDbBlockEnd
0
BLOCK
5
24
100
AcDbEntity
8
0
100
AcDbBlockBegin
2
*Paper_Space0
70
0
10
0
20
0
30
0
3
*Paper_Space0
0
ENDBLK
5
25
100
AcDbEntity
8
0
100
AcDbBlockEnd
0
BLOCK
5
29E
100
AcDbEntity
8
0
100
AcDbBlockBegin
2
DimnDraft3D1
70
0
10
0
20
0
30
0
3
DimnDraft3D1
0
MTEXT
5
294
100
AcDbEntity
8
2
62
256
6
ByLayer
370
18
48
1
60
0
100
AcDbMText
10
104.457895
20
59.14597
30
0
210
0
220
0
230
1
1
\W0.6927;89
40
3
41
0
44
1.084337
50
0
71
7
72
5
7
iso_b_vert
0
LINE
5
295
100
AcDbEntity
8
2
62
256
6
ByLayer
370
13
48
1
60
0
100
AcDbLine
10
61
20
17.5875
30
0
11
61
21
60.39597
31
0
39
0
210
0
220
0
230
1
0
LINE
5
296
100
AcDbEntity
8
2
62
256
6
ByLayer
370
13
48
1
60
0
100
AcDbLine
10
150
20
41.5875
30
0
11
150
21
60.39597
31
0
39
0
210
0
220
0
230
1
0
LINE
5
297
100
AcDbEntity
8
2
62
256
6
ByLayer
370
13
48
1
60
0
100
AcDbLine
10
61
20
58.39597
30
0
11
150
21
58.39597
31
0
39
0
210
0
220
0
230
1
0
LINE
5
298
100
AcDbEntity
8
2
62
256
6
ByLayer
370
13
48
1
60
0
100
AcDbLine
10
61
20
58.39597
30
0
11
64.499998
21
58.856754
31
0
39
0
210
0
220
0
230
1
0
LINE
5
299
100
AcDbEntity
8
2
62
256
6
ByLayer
370
13
48
1
60
0
100
AcDbLine
10
61
20
58.39597
30
0
11
64.500002
21
57.935187
31
0
39
0
210
0
220
0
230
1
0
LINE
5
29A
100
AcDbEntity
8
2
62
256
6
ByLayer
370
13
48
1
60
0
100
AcDbLine
10
64.499998
20
58.856754
30
0
11
64.500002
21
57.935187
31
0
39
0
210
0
220
0
230
1
0
LINE
5
29B
100
AcDbEntity
8
2
62
256
6
ByLayer
370
13
48
1
60
0
100
AcDbLine
10
150
20
58.39597
30
0
11
146.500002
21
57.935187
31
0
39
0
210
0
220
0
230
1
0
LINE
5
29C
100
AcDbEntity
8
2
62
256
6
ByLayer
370
13
48
1
60
0
100
AcDbLine
10
150
20
58.39597
30
0
11
146.499998
21
58.856754
31
0
39
0
210
0
220
0
230
1
0
LINE
5
29D
100
AcDbEntity
8
2
62
256
6
ByLayer
370
13
48
1
60
0
100
AcDbLine
10
146.500002
20
57.935187
30
0
11
146.499998
21
58.856754
31
0
39
0
210
0
220
0
230
1
0
ENDBLK
5
29F
100
AcDbEntity
8
0
100
AcDbBlockEnd
0
BLOCK
5
2A2
100
AcDbEntity
8
0
100
AcDbBlockBegin
2
_CLOSED
70
0
10
0
20
0
30
0
3
_CLOSED
0
LINE
5
2A4
100
AcDbEntity
8
0
62
256
6
ByLayer
370
-2
48
1
60
0
100
AcDbLine
10
-1
20
0.166667
30
0
11
0
21
0
31
0
39
0
210
0
220
0
230
1
0
LINE
5
2A5
100
AcDbEntity
8
0
62
256
6
ByLayer
370
-2
48
1
60
0
100
AcDbLine
10
0
20
0
30
0
11
-1
21
-0.166667
31
0
39
0
210
0
220
0
230
1
0
LINE
5
2A6
100
AcDbEntity
8
0
62
256
6
ByLayer
370
-2
48
1
60
0
100
AcDbLine
10
-1
20
0.166667
30
0
11
-1
21
-0.166667
31
0
39
0
210
0
220
0
230
1
0
LINE
5
2A7
100
AcDbEntity
8
0
62
256
6
ByLayer
370
-2
48
1
60
0
100
AcDbLine
10
0
20
0
30
0
11
-1
21
0
31
0
39
0
210
0
220
0
230
1
0
ENDBLK
5
2A3
100
AcDbEntity
8
0
100
AcDbBlockEnd
0
BLOCK
5
2B4
100
AcDbEntity
8
0
100
AcDbBlockBegin
2
DimnDraft3D2
70
0
10
0
20
0
30
0
3
DimnDraft3D2
0
MTEXT
5
2A9
100
AcDbEntity
8
SK2
62
256
6
ByLayer
370
18
48
1
60
0
100
AcDbMText
10
73.211842
20
69.14597
30
0
210
0
220
0
230
1
1
\W0.6217;150
40
3
41
0
44
1.084337
50
0
71
7
72
5
7
iso_b_vert
0
LINE
5
2AB
100
AcDbEntity
8
SK2
62
256
6
ByLayer
370
13
48
1
60
0
100
AcDbLine
10
150
20
40.476956
30
0
11
150
21
69.349882
31
0
39
0
210
0
220
0
230
1
0
LINE
5
2AC
100
AcDbEntity
8
SK2
62
256
6
ByLayer
370
13
48
1
60
0
100
AcDbLine
10
0
20
0.476956
30
0
11
0
21
69.349882
31
0
39
0
210
0
220
0
230
1
0
LINE
5
2AD
100
AcDbEntity
8
SK2
62
256
6
ByLayer
370
13
48
1
60
0
100
AcDbLine
10
150
20
68.39597
30
0
11
0
21
68.39597
31
0
39
0
210
0
220
0
230
1
0
LINE
5
2AE
100
AcDbEntity
8
SK2
62
256
6
ByLayer
370
13
48
1
60
0
100
AcDbLine
10
150
20
68.39597
30
0
11
149.046088
21
68.270386
31
0
39
0
210
0
220
0
230
1
0
LINE
5
2AF
100
AcDbEntity
8
SK2
62
256
6
ByLayer
370
13
48
1
60
0
100
AcDbLine
10
150
20
68.39597
30
0
11
149.046087
21
68.521555
31
0
39
0
210
0
220
0
230
1
0
LINE
5
2B0
100
AcDbEntity
8
SK2
62
256
6
ByLayer
370
13
48
1
60
0
100
AcDbLine
10
149.046088
20
68.270386
30
0
11
149.046087
21
68.521555
31
0
39
0
210
0
220
0
230
1
0
LINE
5
2B1
100
AcDbEntity
8
SK2
62
256
6
ByLayer
370
13
48
1
60
0
100
AcDbLine
10
0
20
68.39597
30
0
11
0.953912
21
68.521555
31
0
39
0
210
0
220
0
230
1
0
LINE
5
2B2
100
AcDbEntity
8
SK2
62
256
6
ByLayer
370
13
48
1
60
0
100
AcDbLine
10
0
20
68.39597
30
0
11
0.953913
21
68.270386
31
0
39
0
210
0
220
0
230
1
0
LINE
5
2B3
100
AcDbEntity
8
SK2
62
256
6
ByLayer
370
13
48
1
60
0
100
AcDbLine
10
0.953912
20
68.521555
30
0
11
0.953913
21
68.270386
31
0
39
0
210
0
220
0
230
1
0
ENDBLK
5
2B5
100
AcDbEntity
8
0
100
AcDbBlockEnd
0
BLOCK
5
2C2
100
AcDbEntity
8
0
100
AcDbBlockBegin
2
DimnDraft3D3
70
0
10
0
20
0
30
0
3
DimnDraft3D3
0
MTEXT
5
2B8
100
AcDbEntity
8
SK2
62
256
6
ByLayer
370
18
48
1
60
0
100
AcDbMText
10
144.332895
20
49.14597
30
0
210
0
220
0
230
1
1
\W0.5321;10
40
3
41
0
44
1.084337
50
0
71
7
72
5
7
iso_b_vert
0
LINE
5
2B9
100
AcDbEntity
8
SK2
62
256
6
ByLayer
370
13
48
1
60
0
100
AcDbLine
10
140
20
40.476956
30
0
11
140
21
49.349882
31
0
39
0
210
0
220
0
230
1
0
LINE
5
2BA
100
AcDbEntity
8
SK2
62
256
6
ByLayer
370
13
48
1
60
0
100
AcDbLine
10
150
20
40.476956
30
0
11
150
21
49.349882
31
0
39
0
210
0
220
0
230
1
0
LINE
5
2BB
100
AcDbEntity
8
SK2
62
256
6
ByLayer
370
13
48
1
60
0
100
AcDbLine
10
140
20
48.39597
30
0
11
150
21
48.39597
31
0
39
0
210
0
220
0
230
1
0
LINE
5
2BC
100
AcDbEntity
8
SK2
62
256
6
ByLayer
370
13
48
1
60
0
100
AcDbLine
10
140
20
48.39597
30
0
11
140.953912
21
48.521555
31
0
39
0
210
0
220
0
230
1
0
LINE
5
2BD
100
AcDbEntity
8
SK2
62
256
6
ByLayer
370
13
48
1
60
0
100
AcDbLine
10
140
20
48.39597
30
0
11
140.953913
21
48.270386
31
0
39
0
210
0
220
0
230
1
0
LINE
5
2BE
100
AcDbEntity
8
SK2
62
256
6
ByLayer
370
13
48
1
60
0
100
AcDbLine
10
140.953912
20
48.521555
30
0
11
140.953913
21
48.270386
31
0
39
0
210
0
220
0
230
1
0
LINE
5
2BF
100
AcDbEntity
8
SK2
62
256
6
ByLayer
370
13
48
1
60
0
100
AcDbLine
10
150
20
48.39597
30
0
11
149.046088
21
48.270386
31
0
39
0
210
0
220
0
230
1
0
LINE
5
2C0
100
AcDbEntity
8
SK2
62
256
6
ByLayer
370
13
48
1
60
0
100
AcDbLine
10
150
20
48.39597
30
0
11
149.046087
21
48.521555
31
0
39
0
210
0
220
0
230
1
0
LINE
5
2C1
100
AcDbEntity
8
SK2
62
256
6
ByLayer
370
13
48
1
60
0
100
AcDbLine
10
149.046088
20
48.270386
30
0
11
149.046087
21
48.521555
31
0
39
0
210
0
220
0
230
1
0
ENDBLK
5
2C3
100
AcDbEntity
8
0
100
AcDbBlockEnd
0
BLOCK
5
2D0
100
AcDbEntity
8
0
100
AcDbBlockBegin
2
DimnDraft3D4
70
0
10
0
20
0
30
0
3
DimnDraft3D4
0
MTEXT
5
2C6
100
AcDbEntity
8
SK2
62
256
6
ByLayer
370
18
48
1
60
0
100
AcDbMText
10
-19.1
20
-1.042105
30
0
210
0
220
0
230
1
1
\W0.6740;32
40
3
41
0
44
1.084337
50
90
71
7
72
5
7
iso_b_vert
0
LINE
5
2C7
100
AcDbEntity
8
SK2
62
256
6
ByLayer
370
13
48
1
60
0
100
AcDbLine
10
59.4125
20
16
30
0
11
-20.35
21
16
31
0
39
0
210
0
220
0
230
1
0
LINE
5
2C8
100
AcDbEntity
8
SK2
62
256
6
ByLayer
370
13
48
1
60
0
100
AcDbLine
10
59.4125
20
-16
30
0
11
-20.35
21
-16
31
0
39
0
210
0
220
0
230
1
0
LINE
5
2C9
100
AcDbEntity
8
SK2
62
256
6
ByLayer
370
13
48
1
60
0
100
AcDbLine
10
-18.35
20
16
30
0
11
-18.35
21
-16
31
0
39
0
210
0
220
0
230
1
0
LINE
5
2CA
100
AcDbEntity
8
SK2
62
256
6
ByLayer
370
13
48
1
60
0
100
AcDbLine
10
-18.35
20
16
30
0
11
-17.889216
21
12.500002
31
0
39
0
210
0
220
0
230
1
0
LINE
5
2CB
100
AcDbEntity
8
SK2
62
256
6
ByLayer
370
13
48
1
60
0
100
AcDbLine
10
-18.35
20
16
30
0
11
-18.810784
21
12.499998
31
0
39
0
210
0
220
0
230
1
0
LINE
5
2CC
100
AcDbEntity
8
SK2
62
256
6
ByLayer
370
13
48
1
60
0
100
AcDbLine
10
-17.889216
20
12.500002
30
0
11
-18.810784
21
12.499998
31
0
39
0
210
0
220
0
230
1
0
LINE
5
2CD
100
AcDbEntity
8
SK2
62
256
6
ByLayer
370
13
48
1
60
0
100
AcDbLine
10
-18.35
20
-16
30
0
11
-18.810784
21
-12.500002
31
0
39
0
210
0
220
0
230
1
0
LINE
5
2CE
100
AcDbEntity
8
SK2
62
256
6
ByLayer
370
13
48
1
60
0
100
AcDbLine
10
-18.35
20
-16
30
0
11
-17.889216
21
-12.499998
31
0
39
0
210
0
220
0
230
1
0
LINE
5
2CF
100
AcDbEntity
8
SK2
62
256
6
ByLayer
370
13
48
1
60
0
100
AcDbLine
10
-18.810784
20
-12.500002
30
0
11
-17.889216
21
-12.499998
31
0
39
0
210
0
220
0
230
1
0
ENDBLK
5
2D1
100
AcDbEntity
8
0
100
AcDbBlockEnd
0
BLOCK
5
2DE
100
AcDbEntity
8
0
100
AcDbBlockBegin
2
DimnDraft3D5
70
0
10
0
20
0
30
0
3
DimnDraft3D5
0
MTEXT
5
2D4
100
AcDbEntity
8
2
62
256
6
ByLayer
370
18
48
1
60
0
100
AcDbMText
10
173.6
20
-1.042105
30
0
210
0
220
0
230
1
1
\W0.6740;80
40
3
41
0
44
1.084337
50
90
71
7
72
5
7
iso_b_vert
0
LINE
5
2D5
100
AcDbEntity
8
2
62
256
6
ByLayer
370
13
48
1
60
0
100
AcDbLine
10
151.5875
20
40
30
0
11
176.35
21
40
31
0
39
0
210
0
220
0
230
1
0
LINE
5
2D6
100
AcDbEntity
8
2
62
256
6
ByLayer
370
13
48
1
60
0
100
AcDbLine
10
151.5875
20
-40
30
0
11
176.35
21
-40
31
0
39
0
210
0
220
0
230
1
0
LINE
5
2D7
100
AcDbEntity
8
2
62
256
6
ByLayer
370
13
48
1
60
0
100
AcDbLine
10
174.35
20
40
30
0
11
174.35
21
-40
31
0
39
0
210
0
220
0
230
1
0
LINE
5
2D8
100
AcDbEntity
8
2
62
256
6
ByLayer
370
13
48
1
60
0
100
AcDbLine
10
174.35
20
40
30
0
11
174.810784
21
36.500002
31
0
39
0
210
0
220
0
230
1
0
LINE
5
2D9
100
AcDbEntity
8
2
62
256
6
ByLayer
370
13
48
1
60
0
100
AcDbLine
10
174.35
20
40
30
0
11
173.889216
21
36.499998
31
0
39
0
210
0
220
0
230
1
0
LINE
5
2DA
100
AcDbEntity
8
2
62
256
6
ByLayer
370
13
48
1
60
0
100
AcDbLine
10
174.810784
20
36.500002
30
0
11
173.889216
21
36.499998
31
0
39
0
210
0
220
0
230
1
0
LINE
5
2DB
100
AcDbEntity
8
2
62
256
6
ByLayer
370
13
48
1
60
0
100
AcDbLine
10
174.35
20
-40
30
0
11
173.889216
21
-36.500002
31
0
39
0
210
0
220
0
230
1
0
LINE
5
2DC
100
AcDbEntity
8
2
62
256
6
ByLayer
370
13
48
1
60
0
100
AcDbLine
10
174.35
20
-40
30
0
11
174.810784
21
-36.499998
31
0
39
0
210
0
220
0
230
1
0
LINE
5
2DD
100
AcDbEntity
8
2
62
256
6
ByLayer
370
13
48
1
60
0
100
AcDbLine
10
173.889216
20
-36.500002
30
0
11
174.810784
21
-36.499998
31
0
39
0
210
0
220
0
230
1
0
ENDBLK
5
2DF
100
AcDbEntity
8
0
100
AcDbBlockEnd
0
ENDSEC
0
SECTION
2
ENTITIES
0
ARC
5
172
100
AcDbEntity
8
1
62
256
6
ByLayer
370
18
48
1
60
0
100
AcDbCircle
39
0
10
-115.784033
20
16.55
30
0
40
0.8
210
0
220
0
230
-1
100
AcDbArc
50
270
51
309.093859
0
ARC
5
173
100
AcDbEntity
8
1
62
256
6
ByLayer
370
18
48
1
60
0
100
AcDbCircle
39
0
10
-115.784033
20
-16.55
30
0
40
0.8
210
0
220
0
230
-1
100
AcDbArc
50
50.906141
51
90
0
ARC
5
174
100
AcDbEntity
8
1
62
256
6
ByLayer
370
18
48
1
60
0
100
AcDbCircle
39
0
10
-139.7
20
16.55
30
0
40
0.8
210
0
220
0
230
-1
100
AcDbArc
50
180
51
270
0
ARC
5
175
100
AcDbEntity
8
1
62
256
6
ByLayer
370
18
48
1
60
0
100
AcDbCircle
39
0
10
-139.7
20
-16.55
30
0
40
0.8
210
0
220
0
230
-1
100
AcDbArc
50
90
51
180
0
ELLIPSE
5
176
100
AcDbEntity
8
1
62
256
6
ByLayer
370
18
48
1
60
0
100
AcDbEllipse
10
145.704139
20
35.273152
30
0
11
2.19950474360003
21
0.71543216035158
31
0
210
0
220
0
230
1
40
0.96225
41
-0.90451576275656
42
-0.325971901371586
0
ELLIPSE
5
177
100
AcDbEntity
8
1
62
256
6
ByLayer
370
18
48
1
60
0
100
AcDbEllipse
10
145.704139
20
35.273152
30
0
11
2.19950474360003
21
0.71543216035158
31
0
210
0
220
0
230
1
40
0.96225
41
-0.325971901371586
42
0
0
ELLIPSE
5
178
100
AcDbEntity
8
1
62
256
6
ByLayer
370
18
48
1
60
0
100
AcDbEllipse
10
145.704139
20
35.273152
30
0
11
2.19950474360003
21
0.71543216035158
31
0
210
0
220
0
230
1
40
0.96225
41
0
42
-2.92141833079562
0
ELLIPSE
5
179
100
AcDbEntity
8
1
62
256
6
ByLayer
370
18
48
1
60
0
100
AcDbEllipse
10
144.240568
20
24.619152
30
0
11
0.980732625868251
21
0.164301176373043
31
0
210
0
220
0
230
1
40
0.86046
41
-1.6913221880473
42
-0.644124636850674
0
ELLIPSE
5
17A
100
AcDbEntity
8
1
62
256
6
ByLayer
370
18
48
1
60
0
100
AcDbEllipse
10
144.240568
20
24.619152
30
0
11
0.980732625868251
21
0.164301176373043
31
0
210
0
220
0
230
1
40
0.86046
41
-2.73851973924387
42
-1.69132218804728
0
ELLIPSE
5
17B
100
AcDbEntity
8
1
62
256
6
ByLayer
370
18
48
1
60
0
100
AcDbEllipse
10
144.240568
20
24.619152
30
0
11
0.980732625868251
21
0.164301176373043
31
0
210
0
220
0
230
1
40
0.86046
41
-2.92272853120879
42
-2.73851973924388
0
ELLIPSE
5
17C
100
AcDbEntity
8
1
62
256
6
ByLayer
370
18
48
1
60
0
100
AcDbEllipse
10
144.341655
20
24.015752
30
0
11
2.07113688085612
21
0.346975533370265
31
0
210
0
220
0
230
1
40
0.86046
41
0
42
6.28318530717959
0
ELLIPSE
5
17D
100
AcDbEntity
8
1
62
256
6
ByLayer
370
18
48
1
60
0
100
AcDbEllipse
10
145.704139
20
-1.127614
30
0
11
-2.30418710324635
21
0.200962898112011
31
0
210
0
220
0
230
1
40
0.247381
41
2.70924315601164
42
3.14052537722192
0
ELLIPSE
5
17E
100
AcDbEntity
8
1
62
256
6
ByLayer
370
18
48
1
60
0
100
AcDbEllipse
10
145.704139
20
-1.127614
30
0
11
-2.30418710324635
21
0.200962898112011
31
0
210
0
220
0
230
1
40
0.247381
41
3.14052537722197
42
-1.16421147241489E-15
0
ELLIPSE
5
17F
100
AcDbEntity
8
1
62
256
6
ByLayer
370
18
48
1
60
0
100
AcDbEllipse
10
145.704139
20
-1.127614
30
0
11
-2.30418710324635
21
0.200962898112011
31
0
210
0
220
0
230
1
40
0.247381
41
0
42
0.432472556252778
0
ELLIPSE
5
180
100
AcDbEntity
8
1
62
256
6
ByLayer
370
18
48
1
60
0
100
AcDbEllipse
10
144.227779
20
24.695489
30
0
11
-2.22537146913645
21
-0.372814302901814
31
0
210
0
220
0
230
1
40
0.86046
41
3.00467161216531
42
-3.12810999787766
0
ELLIPSE
5
181
100
AcDbEntity
8
1
62
256
6
ByLayer
370
13
48
1
60
0
100
AcDbEllipse
10
144.227779
20
24.695489
30
0
11
-2.22537146913645
21
-0.372814302901814
31
0
210
0
220
0
230
1
40
0.86046
41
2.76699055734219
42
3.00467161216531
0
ELLIPSE
5
182
100
AcDbEntity
8
1
62
256
6
ByLayer
370
13
48
1
60
0
100
AcDbEllipse
10
144.227779
20
24.695489
30
0
11
-2.22537146913645
21
-0.372814302901814
31
0
210
0
220
0
230
1
40
0.86046
41
-0.013515505598576
42
0
0
ELLIPSE
5
183
100
AcDbEntity
8
1
62
256
6
ByLayer
370
13
48
1
60
0
100
AcDbEllipse
10
144.227779
20
24.695489
30
0
11
-2.22537146913645
21
-0.372814302901814
31
0
210
0
220
0
230
1
40
0.86046
41
0
42
0.37476580296114
0
ELLIPSE
5
184
100
AcDbEntity
8
1
62
256
6
ByLayer
370
13
48
1
60
0
100
AcDbEllipse
10
145.772221
20
35.063843
30
0
11
2.14572789111159
21
0.697940181821111
31
0
210
0
220
0
230
1
40
0.96225
41
2.64175323845436
42
2.81562074988625
0
ELLIPSE
5
185
100
AcDbEntity
8
1
62
256
6
ByLayer
370
13
48
1
60
0
100
AcDbEllipse
10
145.772221
20
35.063843
30
0
11
2.14572789111159
21
0.697940181821111
31
0
210
0
220
0
230
1
40
0.96225
41
-0.00533297904067873
42
0
0
ELLIPSE
5
186
100
AcDbEntity
8
1
62
256
6
ByLayer
370
13
48
1
60
0
100
AcDbEllipse
10
145.772221
20
35.063843
30
0
11
2.14572789111159
21
0.697940181821111
31
0
210
0
220
0
230
1
40
0.96225
41
0
42
0.499972434443628
0
ELLIPSE
5
187
100
AcDbEntity
8
1
62
256
6
ByLayer
370
18
48
1
60
0
100
AcDbEllipse
10
145.772221
20
35.063843
30
0
11
2.14572789111159
21
0.697940181821111
31
0
210
0
220
0
230
1
40
0.96225
41
-0.200897238226141
42
-0.00533297904067546
0
ELLIPSE
5
188
100
AcDbEntity
8
1
62
256
6
ByLayer
370
18
48
1
60
0
100
AcDbEllipse
10
145.772221
20
35.063843
30
0
11
2.14572789111159
21
0.697940181821111
31
0
210
0
220
0
230
1
40
0.96225
41
2.81562074988625
42
-3.01586247433229
0
ELLIPSE
5
189
100
AcDbEntity
8
1
62
256
6
ByLayer
370
13
48
1
60
0
100
AcDbEllipse
10
144.3458
20
23.991007
30
0
11
1.38075792057075
21
0.231317022246843
31
0
210
0
220
0
230
1
40
0.86046
41
0
42
6.28318530717959
0
ELLIPSE
5
18A
100
AcDbEntity
8
1
62
256
6
ByLayer
370
18
48
1
60
0
100
AcDbEllipse
10
145.658345
20
35.413939
30
0
11
-1.99701318777461
21
-0.649567800813974
31
0
210
0
220
0
230
1
40
0.96225
41
-1.89676799707958
42
0
0
ELLIPSE
5
18B
100
AcDbEntity
8
1
62
256
6
ByLayer
370
18
48
1
60
0
100
AcDbEllipse
10
145.658345
20
35.413939
30
0
11
-1.99701318777461
21
-0.649567800813974
31
0
210
0
220
0
230
1
40
0.96225
41
0
42
0.373818024947719
0
ELLIPSE
5
18C
100
AcDbEntity
8
1
62
256
6
ByLayer
370
18
48
1
60
0
100
AcDbEllipse
10
145.658345
20
35.413939
30
0
11
-1.99701318777461
21
-0.649567800813974
31
0
210
0
220
0
230
1
40
0.96225
41
2.08362979567685
42
-1.89676799707958
0
ELLIPSE
5
18D
100
AcDbEntity
8
1
62
256
6
ByLayer
370
18
48
1
60
0
100
AcDbEllipse
10
145.738386
20
35.167865
30
0
11
-1.99701318777461
21
-0.649567800813974
31
0
210
0
220
0
230
1
40
0.96225
41
6.65347633489521E-05
42
0.223217826681961
0
ELLIPSE
5
18E
100
AcDbEntity
8
1
62
256
6
ByLayer
370
18
48
1
60
0
100
AcDbEllipse
10
145.738386
20
35.167865
30
0
11
-1.99701318777461
21
-0.649567800813974
31
0
210
0
220
0
230
1
40
0.96225
41
2.23108805164297
42
3.14156109276646
0
ELLIPSE
5
18F
100
AcDbEntity
8
1
62
256
6
ByLayer
370
13
48
1
60
0
100
AcDbEllipse
10
144.21443
20
24.775173
30
0
11
2.16728803255562
21
0.363083641652952
31
0
210
0
220
0
230
1
40
0.86046
41
-0.120525682018698
42
0
0
ELLIPSE
5
190
100
AcDbEntity
8
1
62
256
6
ByLayer
370
13
48
1
60
0
100
AcDbEllipse
10
144.21443
20
24.775173
30
0
11
2.16728803255562
21
0.363083641652952
31
0
210
0
220
0
230
1
40
0.86046
41
0
42
0.0766090531004681
0
ELLIPSE
5
191
100
AcDbEntity
8
1
62
256
6
ByLayer
370
13
48
1
60
0
100
AcDbEllipse
10
144.21443
20
24.775173
30
0
11
2.16728803255562
21
0.363083641652952
31
0
210
0
220
0
230
1
40
0.86046
41
3.06495103285406
42
-2.842715965655
0
ELLIPSE
5
192
100
AcDbEntity
8
1
62
256
6
ByLayer
370
13
48
1
60
0
100
AcDbEllipse
10
144.21443
20
24.775173
30
0
11
2.16728803255562
21
0.363083641652952
31
0
210
0
220
0
230
1
40
0.86046
41
-0.299105740792896
42
-0.120525682018687
0
ELLIPSE
5
193
100
AcDbEntity
8
1
62
256
6
ByLayer
370
18
48
1
60
0
100
AcDbEllipse
10
144.261614
20
24.493523
30
0
11
2.07113688085612
21
0.346975533370265
31
0
210
0
220
0
230
1
40
0.86046
41
2.08349788745336
42
3.14152748351855
0
ELLIPSE
5
194
100
AcDbEntity
8
1
62
256
6
ByLayer
370
18
48
1
60
0
100
AcDbEllipse
10
144.261614
20
24.493523
30
0
11
2.07113688085612
21
0.346975533370265
31
0
210
0
220
0
230
1
40
0.86046
41
0
42
1.05806242535407
0
ELLIPSE
5
195
100
AcDbEntity
8
1
62
256
6
ByLayer
370
18
48
1
60
0
100
AcDbEllipse
10
144.295861
20
24.289102
30
0
11
-2.28114437199308
21
-0.382157882698573
31
0
210
0
220
0
230
1
40
0.86046
41
2.36594639849202
42
3.02106670620005
0
ELLIPSE
5
196
100
AcDbEntity
8
1
62
256
6
ByLayer
370
18
48
1
60
0
100
AcDbEllipse
10
144.295861
20
24.289102
30
0
11
-2.28114437199308
21
-0.382157882698573
31
0
210
0
220
0
230
1
40
0.86046
41
3.02106670620006
42
0
0
ELLIPSE
5
197
100
AcDbEntity
8
1
62
256
6
ByLayer
370
18
48
1
60
0
100
AcDbEllipse
10
144.295861
20
24.289102
30
0
11
-2.28114437199308
21
-0.382157882698573
31
0
210
0
220
0
230
1
40
0.86046
41
0
42
0.775809653394394
0
ELLIPSE
5
198
100
AcDbEntity
8
1
62
256
6
ByLayer
370
18
48
1
60
0
100
AcDbEllipse
10
145.759432
20
35.103161
30
0
11
-0.945633292344319
21
-0.307585819585436
31
0
210
0
220
0
230
1
40
0.96225
41
-2.94396567383484
42
-1.89676812263822
0
ELLIPSE
5
199
100
AcDbEntity
8
1
62
256
6
ByLayer
370
13
48
1
60
0
100
AcDbEllipse
10
145.78557
20
35.022802
30
0
11
-2.08972319633968
21
-0.679723553788328
31
0
210
0
220
0
230
1
40
0.96225
41
2.81562104913397
42
-2.81558581469891
0
ELLIPSE
5
19A
100
AcDbEntity
8
1
62
256
6
ByLayer
370
13
48
1
60
0
100
AcDbEllipse
10
145.78557
20
35.022802
30
0
11
-2.08972319633968
21
-0.679723553788328
31
0
210
0
220
0
230
1
40
0.96225
41
-0.325971795090252
42
0
0
ELLIPSE
5
19B
100
AcDbEntity
8
1
62
256
6
ByLayer
370
13
48
1
60
0
100
AcDbEllipse
10
145.78557
20
35.022802
30
0
11
-2.08972319633968
21
-0.679723553788328
31
0
210
0
220
0
230
1
40
0.96225
41
0
42
0.117876418781389
0
ELLIPSE
5
19C
100
AcDbEntity
8
1
62
256
6
ByLayer
370
13
48
1
60
0
100
AcDbEllipse
10
145.78557
20
35.022802
30
0
11
-2.08972319633968
21
-0.679723553788328
31
0
210
0
220
0
230
1
40
0.96225
41
2.7618210822762
42
2.81562104913397
0
ELLIPSE
5
19D
100
AcDbEntity
8
1
62
256
6
ByLayer
370
13
48
1
60
0
100
AcDbEllipse
10
145.6542
20
35.426684
30
0
11
-1.33134212518307
21
-0.433045200542649
31
0
210
0
220
0
230
1
40
0.96225
41
-1.89676799707959
42
0
0
ELLIPSE
5
19E
100
AcDbEntity
8
1
62
256
6
ByLayer
370
13
48
1
60
0
100
AcDbEllipse
10
145.6542
20
35.426684
30
0
11
-1.33134212518307
21
-0.433045200542649
31
0
210
0
220
0
230
1
40
0.96225
41
0
42
1.1168043926687
0
ELLIPSE
5
19F
100
AcDbEntity
8
1
62
256
6
ByLayer
370
13
48
1
60
0
100
AcDbEllipse
10
145.6542
20
35.426684
30
0
11
-1.33134212518307
21
-0.433045200542649
31
0
210
0
220
0
230
1
40
0.96225
41
1.3406431901305
42
-1.89676799707957
0
ELLIPSE
5
1A0
100
AcDbEntity
8
1
62
256
6
ByLayer
370
18
48
1
60
0
100
AcDbEllipse
10
145.6542
20
35.426684
30
0
11
1.22583326176231
21
0.398726368399646
31
0
210
0
220
0
230
1
40
0.96225
41
2.81562085774647
42
-2.42036689823655
0
ELLIPSE
5
1A1
100
AcDbEntity
8
1
62
256
6
ByLayer
370
18
48
1
60
0
100
AcDbEllipse
10
145.6542
20
35.426684
30
0
11
1.22583326176231
21
0.398726368399646
31
0
210
0
220
0
230
1
40
0.96225
41
-2.42036689823653
42
-1.37316934703992
0
ELLIPSE
5
1A2
100
AcDbEntity
8
1
62
256
6
ByLayer
370
18
48
1
60
0
100
AcDbEllipse
10
145.6542
20
35.426684
30
0
11
1.22583326176231
21
0.398726368399646
31
0
210
0
220
0
230
1
40
0.96225
41
-1.37316934703992
42
-0.325971795843334
0
ELLIPSE
5
1A3
100
AcDbEntity
8
1
62
256
6
ByLayer
370
18
48
1
60
0
100
AcDbEllipse
10
145.6542
20
35.426684
30
0
11
1.22583326176231
21
0.398726368399646
31
0
210
0
220
0
230
1
40
0.96225
41
-0.325971795843334
42
0.721225755353275
0
ELLIPSE
5
1A4
100
AcDbEntity
8
1
62
256
6
ByLayer
370
18
48
1
60
0
100
AcDbEllipse
10
145.6542
20
35.426684
30
0
11
1.22583326176231
21
0.398726368399646
31
0
210
0
220
0
230
1
40
0.96225
41
0.721225755353275
42
1.76842330654986
0
ELLIPSE
5
1A5
100
AcDbEntity
8
1
62
256
6
ByLayer
370
18
48
1
60
0
100
AcDbEllipse
10
145.6542
20
35.426684
30
0
11
1.22583326176231
21
0.398726368399646
31
0
210
0
220
0
230
1
40
0.96225
41
1.76842330654986
42
2.81562085774647
0
ELLIPSE
5
1A6
100
AcDbEntity
8
1
62
256
6
ByLayer
370
18
48
1
60
0
100
AcDbEllipse
10
145.759432
20
35.103161
30
0
11
-0.945633292344319
21
-0.307585819585436
31
0
210
0
220
0
230
1
40
0.96225
41
2.83527230091246
42
-2.94396567383484
0
ELLIPSE
5
1A7
100
AcDbEntity
8
1
62
256
6
ByLayer
370
18
48
1
60
0
100
AcDbEllipse
10
145.759432
20
35.103161
30
0
11
0.945633292344318
21
0.307585819585437
31
0
210
0
220
0
230
1
40
0.96225
41
1.24482453095157
42
2.29202208214814
0
ELLIPSE
5
1A8
100
AcDbEntity
8
1
62
256
6
ByLayer
370
18
48
1
60
0
100
AcDbEllipse
10
145.912002
20
33.976707
30
0
11
-1.52153385735198
21
-0.494908800620137
31
0
210
0
220
0
230
1
40
0.96225
41
2.86221509618349
42
2.90590262002982
0
ELLIPSE
5
1A9
100
AcDbEntity
8
1
62
256
6
ByLayer
370
18
48
1
60
0
100
AcDbEllipse
10
145.6542
20
-1.700208
30
0
11
-1.28417508564226
21
0.112001124618011
31
0
210
0
220
0
230
1
40
0.247381
41
-0.00106754209621923
42
1.04613000910036
0
ELLIPSE
5
1AA
100
AcDbEntity
8
1
62
256
6
ByLayer
370
18
48
1
60
0
100
AcDbEllipse
10
145.6542
20
-1.700208
30
0
11
-1.28417508564226
21
0.112001124618011
31
0
210
0
220
0
230
1
40
0.247381
41
1.04613000910039
42
2.09332756029699
0
ELLIPSE
5
1AB
100
AcDbEntity
8
1
62
256
6
ByLayer
370
18
48
1
60
0
100
AcDbEllipse
10
145.6542
20
-1.700208
30
0
11
-1.28417508564226
21
0.112001124618011
31
0
210
0
220
0
230
1
40
0.247381
41
2.09332756029699
42
3.14052511149357
0
ELLIPSE
5
1AC
100
AcDbEntity
8
1
62
256
6
ByLayer
370
18
48
1
60
0
100
AcDbEllipse
10
145.6542
20
-1.700208
30
0
11
-1.28417508564226
21
0.112001124618011
31
0
210
0
220
0
230
1
40
0.247381
41
3.14052511149357
42
-2.09546264448941
0
ELLIPSE
5
1AD
100
AcDbEntity
8
1
62
256
6
ByLayer
370
18
48
1
60
0
100
AcDbEllipse
10
145.6542
20
-1.700208
30
0
11
-1.28417508564226
21
0.112001124618011
31
0
210
0
220
0
230
1
40
0.247381
41
-2.09546264448941
42
-1.04826509329283
0
ELLIPSE
5
1AE
100
AcDbEntity
8
1
62
256
6
ByLayer
370
18
48
1
60
0
100
AcDbEllipse
10
145.6542
20
-1.700208
30
0
11
-1.28417508564226
21
0.112001124618011
31
0
210
0
220
0
230
1
40
0.247381
41
-1.04826509329283
42
-0.00106754209621923
0
ELLIPSE
5
1AF
100
AcDbEntity
8
1
62
256
6
ByLayer
370
18
48
1
60
0
100
AcDbEllipse
10
145.658345
20
-1.652676
30
0
11
2.09205824432624
21
-0.182461783249543
31
0
210
0
220
0
230
1
40
0.247381
41
0
42
6.28318530717959
0
ELLIPSE
5
1B0
100
AcDbEntity
8
1
62
256
6
ByLayer
370
18
48
1
60
0
100
AcDbEllipse
10
144.012231
20
26.499373
30
0
11
-1.57800905208118
21
-0.264362311139313
31
0
210
0
220
0
230
1
40
0.86046
41
2.59581209920589
42
2.61662510436828
0
ELLIPSE
5
1B1
100
AcDbEntity
8
1
62
256
6
ByLayer
370
18
48
1
60
0
100
AcDbEllipse
10
145
20
14.620702
30
0
11
1
21
0
31
0
210
0
220
0
230
1
40
0.885757
41
0.140979215585965
42
3.02653201637661
0
ELLIPSE
5
1B2
100
AcDbEntity
8
1
62
256
6
ByLayer
370
13
48
1
60
0
100
AcDbEllipse
10
143.6
20
-8.170596
30
0
11
0.1
21
0
31
0
210
0
220
0
230
1
40
0.258563
41
1.5707963267949
42
3.14159265358979
0
ELLIPSE
5
1B3
100
AcDbEntity
8
1
62
256
6
ByLayer
370
18
48
1
60
0
100
AcDbEllipse
10
145
20
-8.170596
30
0
11
-1.5
21
1.83690953073357E-16
31
0
210
0
220
0
230
1
40
0.965994
41
0
42
3.14159265358979
0
ELLIPSE
5
1B4
100
AcDbEntity
8
1
62
256
6
ByLayer
370
13
48
1
60
0
100
AcDbEllipse
10
146.4
20
-8.170596
30
0
11
-0.1
21
1.22460635382238E-17
31
0
210
0
220
0
230
1
40
0.258563
41
3.14159265358979
42
-1.5707963267949
0
ELLIPSE
5
1B5
100
AcDbEntity
8
1
62
256
6
ByLayer
370
13
48
1
60
0
100
AcDbEllipse
10
145
20
-8.144739
30
0
11
1.4
21
0
31
0
210
0
220
0
230
1
40
0.965994
41
-3.14159265358979
42
-1.31349295529508E-15
0
ELLIPSE
5
1B6
100
AcDbEntity
8
1
62
256
6
ByLayer
370
18
48
1
60
0
100
AcDbEllipse
10
143.962139
20
26.281126
30
0
11
-1.77526018359096
21
-0.297407600031664
31
0
210
0
220
0
230
1
40
0.86046
41
2.6962067787165
42
2.73655646464544
0
ELLIPSE
5
1B7
100
AcDbEntity
8
1
62
256
6
ByLayer
370
18
48
1
60
0
100
AcDbEllipse
10
143.962139
20
26.281126
30
0
11
-1.77526018359096
21
-0.297407600031664
31
0
210
0
220
0
230
1
40
0.86046
41
0.414232190984254
42
0.445549633902223
0
ELLIPSE
5
1B8
100
AcDbEntity
8
1
62
256
6
ByLayer
370
18
48
1
60
0
100
AcDbEllipse
10
145.759432
20
35.103161
30
0
11
-0.945633292344319
21
-0.307585819585436
31
0
210
0
220
0
230
1
40
0.96225
41
0.250690515686113
42
0.735837225978035
0
ELLIPSE
5
1B9
100
AcDbEntity
8
1
62
256
6
ByLayer
370
18
48
1
60
0
100
AcDbEllipse
10
145
20
-8.144739
30
0
11
-1
21
1.22460635382238E-16
31
0
210
0
220
0
230
1
40
0.965994
41
0
42
6.28318530717959
0
ELLIPSE
5
1BA
100
AcDbEntity
8
1
62
256
6
ByLayer
370
18
48
1
60
0
100
AcDbEllipse
10
143.958545
20
26.30258
30
0
11
1.4793834863258
21
0.247839666693046
31
0
210
0
220
0
230
1
40
0.86046
41
-2.77841178814989
42
-2.75966048085512
0
ELLIPSE
5
1BB
100
AcDbEntity
8
1
62
256
6
ByLayer
370
18
48
1
60
0
100
AcDbEllipse
10
143.958545
20
26.30258
30
0
11
1.4793834863258
21
0.247839666693046
31
0
210
0
220
0
230
1
40
0.86046
41
-0.382161713911746
42
-0.363410137986319
0
ELLIPSE
5
1BC
100
AcDbEntity
8
1
62
256
6
ByLayer
370
18
48
1
60
0
100
AcDbEllipse
10
144.087998
20
26.047109
30
0
11
1.57800905208118
21
0.264362311139305
31
0
210
0
220
0
230
1
40
0.86046
41
-0.298969389857593
42
-0.26225210331231
0
ELLIPSE
5
1BD
100
AcDbEntity
8
1
62
256
6
ByLayer
370
18
48
1
60
0
100
AcDbEllipse
10
144.087998
20
26.047109
30
0
11
1.57800905208118
21
0.264362311139305
31
0
210
0
220
0
230
1
40
0.86046
41
-2.96254880426576
42
-2.93692547794843
0
ELLIPSE
5
1BE
100
AcDbEntity
8
1
62
256
6
ByLayer
370
13
48
1
60
0
100
AcDbEllipse
10
145
20
-28.489519
30
0
11
-1.5
21
1.83690953073357E-16
31
0
210
0
220
0
230
1
40
0.432639
41
1.19498339189202
42
2.22228400225841
0
ELLIPSE
5
1BF
100
AcDbEntity
8
1
62
256
6
ByLayer
370
18
48
1
60
0
100
AcDbEllipse
10
145.759432
20
35.103161
30
0
11
-0.945633292344319
21
-0.307585819585436
31
0
210
0
220
0
230
1
40
0.96225
41
-0.849570571441613
42
-0.118168387111938
0
ELLIPSE
5
1C0
100
AcDbEntity
8
1
62
256
6
ByLayer
370
18
48
1
60
0
100
AcDbEllipse
10
144.3458
20
23.991007
30
0
11
-1.27133285536551
21
-0.212985148233787
31
0
210
0
220
0
230
1
40
0.86046
41
-0.120525861252379
42
0.926671689944225
0
ELLIPSE
5
1C1
100
AcDbEntity
8
1
62
256
6
ByLayer
370
18
48
1
60
0
100
AcDbEllipse
10
144.3458
20
23.991007
30
0
11
-1.27133285536551
21
-0.212985148233787
31
0
210
0
220
0
230
1
40
0.86046
41
0.926671689944225
42
1.97386924114082
0
ELLIPSE
5
1C2
100
AcDbEntity
8
1
62
256
6
ByLayer
370
18
48
1
60
0
100
AcDbEllipse
10
144.3458
20
23.991007
30
0
11
-1.27133285536551
21
-0.212985148233787
31
0
210
0
220
0
230
1
40
0.86046
41
1.97386924114082
42
3.02106679233742
0
ELLIPSE
5
1C3
100
AcDbEntity
8
1
62
256
6
ByLayer
370
18
48
1
60
0
100
AcDbEllipse
10
144.3458
20
23.991007
30
0
11
-1.27133285536551
21
-0.212985148233787
31
0
210
0
220
0
230
1
40
0.86046
41
3.02106679233742
42
-2.21492096364557
0
ELLIPSE
5
1C4
100
AcDbEntity
8
1
62
256
6
ByLayer
370
18
48
1
60
0
100
AcDbEllipse
10
144.3458
20
23.991007
30
0
11
-1.27133285536551
21
-0.212985148233787
31
0
210
0
220
0
230
1
40
0.86046
41
-2.21492096364557
42
-1.16772341244897
0
ELLIPSE
5
1C5
100
AcDbEntity
8
1
62
256
6
ByLayer
370
18
48
1
60
0
100
AcDbEllipse
10
144.3458
20
23.991007
30
0
11
-1.27133285536551
21
-0.212985148233787
31
0
210
0
220
0
230
1
40
0.86046
41
-1.16772341244897
42
-0.120525861252379
0
ELLIPSE
5
1C6
100
AcDbEntity
8
1
62
256
6
ByLayer
370
18
48
1
60
0
100
AcDbEllipse
10
144.240568
20
24.619152
30
0
11
0.980732625868251
21
0.164301176373043
31
0
210
0
220
0
230
1
40
0.86046
41
-0.644124636850681
42
-0.307745270923216
0
ELLIPSE
5
1C7
100
AcDbEntity
8
1
62
256
6
ByLayer
370
13
48
1
60
0
100
AcDbEllipse
10
145.6542
20
-1.700208
30
0
11
1.39470549621749
21
-0.121641188833028
31
0
210
0
220
0
230
1
40
0.247381
41
0
42
6.28318530717959
0
ELLIPSE
5
1C8
100
AcDbEntity
8
1
62
256
6
ByLayer
370
18
48
1
60
0
100
AcDbEllipse
10
146.896837
20
35.103161
30
0
11
0.00912071397207537
21
0.292060082768702
31
0
210
0
220
0
230
-1
40
0.502001
41
-0.176548722369445
42
0.214648401708213
0
ELLIPSE
5
1C9
100
AcDbEntity
8
1
62
256
6
ByLayer
370
18
48
1
60
0
100
AcDbEllipse
10
50.360317
20
-0.922601
30
0
11
464.902562603652
21
10.4452303543679
31
0
210
0
220
0
230
-1
40
0.082437
41
-1.37162618872374
42
-1.37155514038656
0
ELLIPSE
5
1CA
100
AcDbEntity
8
1
62
256
6
ByLayer
370
18
48
1
60
0
100
AcDbEllipse
10
144.266322
20
23.634615
30
0
11
0.301137092708729
21
0.0210814026760515
31
0
210
0
220
0
230
-1
40
0.420594
41
-1.55239010270646
42
-0.265505442141634
0
ELLIPSE
5
1CB
100
AcDbEntity
8
1
62
256
6
ByLayer
370
18
48
1
60
0
100
AcDbEllipse
10
144.266322
20
23.634615
30
0
11
0.301137092708692
21
0.0210814026771025
31
0
210
0
220
0
230
-1
40
0.420594
41
-2.83927476326285
42
-1.55239010269799
0
ELLIPSE
5
1CC
100
AcDbEntity
8
1
62
256
6
ByLayer
370
18
48
1
60
0
100
AcDbEllipse
10
145.213034
20
36.058253
30
0
11
0.264919987875769
21
0.144940353534811
31
0
210
0
220
0
230
-1
40
0.470028
41
-2.75131951032929
42
0.151931188684937
0
ELLIPSE
5
1CD
100
AcDbEntity
8
1
62
256
6
ByLayer
370
18
48
1
60
0
100
AcDbEllipse
10
144.761576
20
34.551762
30
0
11
0.146001645565611
21
-0.2522359649028
31
0
210
0
220
0
230
-1
40
0.504618
41
-1.16856477223653
42
-0.513278983727324
0
ELLIPSE
5
1CE
100
AcDbEntity
8
1
62
256
6
ByLayer
370
18
48
1
60
0
100
AcDbEllipse
10
144.622027
20
35.103161
30
0
11
0.00912071397207724
21
0.292060082768712
31
0
210
0
220
0
230
-1
40
0.502001
41
-1.48089472041753
42
0.145197401225349
0
ELLIPSE
5
1CF
100
AcDbEntity
8
1
62
256
6
ByLayer
370
18
48
1
60
0
100
AcDbEllipse
10
146.757288
20
35.654559
30
0
11
0.146001645567017
21
-0.252235964900656
31
0
210
0
220
0
230
-1
40
0.504618
41
0.293945937775101
42
1.58083059834476
0
ELLIPSE
5
1D0
100
AcDbEntity
8
1
62
256
6
ByLayer
370
18
48
1
60
0
100
AcDbEllipse
10
146.757288
20
35.654559
30
0
11
0.146001645565611
21
-0.2522359649028
31
0
210
0
220
0
230
-1
40
0.504618
41
1.58083059832746
42
1.97303056174607
0
ELLIPSE
5
1D1
100
AcDbEntity
8
1
62
256
6
ByLayer
370
18
48
1
60
0
100
AcDbEllipse
10
146.350439
20
36.058253
30
0
11
0.259272027218839
21
-0.142980872167998
31
0
210
0
220
0
230
-1
40
0.488927
41
3.00525684613436
42
-1.40864663240562
0
ELLIPSE
5
1D2
100
AcDbEntity
8
1
62
256
6
ByLayer
370
18
48
1
60
0
100
AcDbEllipse
10
144.78733
20
35.654559
30
0
11
0.159514962994798
21
0.251170963745699
31
0
210
0
220
0
230
-1
40
0.484142
41
0.25976258806944
42
1.54664724863497
0
ELLIPSE
5
1D3
100
AcDbEntity
8
1
62
256
6
ByLayer
370
18
48
1
60
0
100
AcDbEllipse
10
144.78733
20
35.654559
30
0
11
0.159514962996034
21
0.251170963744985
31
0
210
0
220
0
230
-1
40
0.484142
41
1.54664724862484
42
2.83353190918994
0
ELLIPSE
5
1D4
100
AcDbEntity
8
1
62
256
6
ByLayer
370
18
48
1
60
0
100
AcDbEllipse
10
145.785186
20
36.205958
30
0
11
0.301266091113971
21
0.00201962290555571
31
0
210
0
220
0
230
-1
40
0.472229
41
0.298106762687043
42
1.58499142324976
0
ELLIPSE
5
1D5
100
AcDbEntity
8
1
62
256
6
ByLayer
370
18
48
1
60
0
100
AcDbEllipse
10
145.785186
20
36.205958
30
0
11
0.301266091113506
21
0.00201962290473256
31
0
210
0
220
0
230
-1
40
0.472229
41
1.58499142324346
42
2.87187608380797
0
ELLIPSE
5
1D6
100
AcDbEntity
8
1
62
256
6
ByLayer
370
18
48
1
60
0
100
AcDbEllipse
10
47.376204
20
2.221002
30
0
11
472.727842664805
21
-9.03519665439227
31
0
210
0
220
0
230
-1
40
0.084645
41
1.36750813655122
42
1.36873138408713
0
ELLIPSE
5
1D7
100
AcDbEntity
8
1
62
256
6
ByLayer
370
18
48
1
60
0
100
AcDbEllipse
10
143.122979
20
-5E-06
30
0
11
1.33357816377148
21
38.7990076216193
31
0
210
0
220
0
230
-1
40
0.254219
41
3.10065080439108
42
3.11353693250349
0
ELLIPSE
5
1D8
100
AcDbEntity
8
1
62
256
6
ByLayer
370
18
48
1
60
0
100
AcDbEllipse
10
148.152487
20
4.1E-05
30
0
11
45.7747987829381
21
38.4490100367046
31
0
210
0
220
0
230
-1
40
0.113789
41
-1.6028435383221
42
-1.59927966022954
0
ELLIPSE
5
1D9
100
AcDbEntity
8
1
62
256
6
ByLayer
370
18
48
1
60
0
100
AcDbEllipse
10
143.122921
20
0.000141
30
0
11
9.8394733208104
21
38.7974874310921
31
0
210
0
220
0
230
-1
40
0.038617
41
-1.5260181081783
42
-1.5131316019061
0
ELLIPSE
5
1DA
100
AcDbEntity
8
1
62
256
6
ByLayer
370
18
48
1
60
0
100
AcDbEllipse
10
76.244516
20
8E-06
30
0
11
459.252871975739
21
-37.6021002743189
31
0
210
0
220
0
230
-1
40
0.020835
41
-1.4277830618627
42
-1.42726533490566
0
ELLIPSE
5
1DB
100
AcDbEntity
8
1
62
256
6
ByLayer
370
18
48
1
60
0
100
AcDbEllipse
10
141.925234
20
6E-05
30
0
11
3.39433754089388
21
38.8001473900601
31
0
210
0
220
0
230
-1
40
0.00103
41
1.46810413955037
42
1.50324727511783
0
ELLIPSE
5
1DC
100
AcDbEntity
8
1
62
256
6
ByLayer
370
18
48
1
60
0
100
AcDbEllipse
10
-1103.053703
20
0.000483
30
0
11
1719.5690178972
21
33.4714871337518
31
0
210
0
220
0
230
-1
40
0.011412
41
0.75586643321235
42
0.761784072947769
0
ELLIPSE
5
1DD
100
AcDbEntity
8
1
62
256
6
ByLayer
370
18
48
1
60
0
100
AcDbEllipse
10
146.4
20
16.977381
30
0
11
0.0940887102184999
21
0.0359384220055245
31
0
210
0
220
0
230
-1
40
0.942502
41
-1.22523983192211
42
0.345556494868366
0
ELLIPSE
5
1DE
100
AcDbEntity
8
1
62
256
6
ByLayer
370
18
48
1
60
0
100
AcDbEllipse
10
143.6
20
16.871633
30
0
11
0.0940887102198464
21
0.0359384220013536
31
0
210
0
220
0
230
-1
40
0.942502
41
-2.79603615876016
42
-1.22523983196958
0
ELLIPSE
5
1DF
100
AcDbEntity
8
1
62
256
6
ByLayer
370
18
48
1
60
0
100
AcDbEllipse
10
145
20
15.404852
30
0
11
1.49990226649323
21
0.0287226749814238
31
0
210
0
220
0
230
-1
40
0.596143
41
0.0114154613337728
42
-3.13017719225598
0
ELLIPSE
5
1E0
100
AcDbEntity
8
1
62
256
6
ByLayer
370
18
48
1
60
0
100
AcDbEllipse
10
146.4
20
-7.065276
30
0
11
0.00301338058986487
21
-0.198389237897505
31
0
210
0
220
0
230
-1
40
0.503831
41
-3.11145428534455
42
-1.54065795855032
0
ELLIPSE
5
1E1
100
AcDbEntity
8
1
62
256
6
ByLayer
370
18
48
1
60
0
100
AcDbEllipse
10
143.6
20
-6.940377
30
0
11
0.00301338058955296
21
-0.198389237896788
31
0
210
0
220
0
230
-1
40
0.503831
41
1.60093469503586
42
-3.11145428534486
0
ELLIPSE
5
1E2
100
AcDbEntity
8
1
62
256
6
ByLayer
370
18
48
1
60
0
100
AcDbEllipse
10
145
20
-8.345646
30
0
11
0.0475751529278765
21
1.66567754165263
31
0
210
0
220
0
230
-1
40
0.900081
41
1.53907423816912
42
-1.60251841542067
0
ELLIPSE
5
1E3
100
AcDbEntity
8
1
62
256
6
ByLayer
370
18
48
1
60
0
100
AcDbEllipse
10
1393.079488
20
-0.000458
30
0
11
1719.59617215194
21
-9.56588037528477
31
0
210
0
220
0
230
-1
40
0.021867
41
2.3799142511401
42
2.38583182971519
0
ELLIPSE
5
1E4
100
AcDbEntity
8
1
62
256
6
ByLayer
370
18
48
1
60
0
100
AcDbEllipse
10
146.877023
20
-5.4E-05
30
0
11
8.15139980029936
21
-38.7818601819662
31
0
210
0
220
0
230
-1
40
0.14727
41
0.853288865969696
42
0.866175006515098
0
ELLIPSE
5
1E5
100
AcDbEntity
8
1
62
256
6
ByLayer
370
18
48
1
60
0
100
AcDbEllipse
10
148.074772
20
-1E-06
30
0
11
2.33793636153008
21
-38.8002090881041
31
0
210
0
220
0
230
-1
40
0.063432
41
0.839052321349328
42
0.87419514655608
0
ELLIPSE
5
1E6
100
AcDbEntity
8
1
62
256
6
ByLayer
370
18
48
1
60
0
100
AcDbEllipse
10
141.854818
20
-0.032062
30
0
11
44.7193953189775
21
-36.5390166277018
31
0
210
0
220
0
230
-1
40
0.289534
41
1.21123816838424
42
1.21480431184681
0
ELLIPSE
5
1E7
100
AcDbEntity
8
1
62
256
6
ByLayer
370
18
48
1
60
0
100
AcDbEllipse
10
213.755656
20
7E-06
30
0
11
459.25180499953
21
33.0993949099882
31
0
210
0
220
0
230
-1
40
0.044085
41
1.71869300220544
42
1.73196269591338
0
ELLIPSE
5
1E8
100
AcDbEntity
8
1
62
256
6
ByLayer
370
18
48
1
60
0
100
AcDbEllipse
10
146.877018
20
-9.7E-05
30
0
11
6.02579898011598
21
-38.7810647030679
31
0
210
0
220
0
230
-1
40
0.204271
41
-2.39786023029678
42
-2.38497412427286
0
ELLIPSE
5
1E9
100
AcDbEntity
8
1
62
256
6
ByLayer
370
18
48
1
60
0
100
AcDbEllipse
10
148.074772
20
1E-06
30
0
11
2.42366102021509
21
-38.8002084307433
31
0
210
0
220
0
230
-1
40
0.061258
41
-2.46090483547223
42
-2.42576201030664
0
ELLIPSE
5
1EA
100
AcDbEntity
8
1
62
256
6
ByLayer
370
18
48
1
60
0
100
AcDbEllipse
10
141.8463
20
-0.005824
30
0
11
42.7645994752276
21
-31.0176379565929
31
0
210
0
220
0
230
-1
40
0.545325
41
-1.8236580216082
42
-1.82009451187258
0
ELLIPSE
5
1EB
100
AcDbEntity
8
1
62
256
6
ByLayer
370
18
48
1
60
0
100
AcDbEllipse
10
235.616701
20
0.617376
30
0
11
454.165625845697
21
19.5868164408382
31
0
210
0
220
0
230
-1
40
0.072101
41
-1.76197045413705
42
-1.76069910103897
0
ELLIPSE
5
1EC
100
AcDbEntity
8
1
62
256
6
ByLayer
370
18
48
1
60
0
100
AcDbEllipse
10
213.755654
20
-8E-06
30
0
11
459.251880659131
21
19.6717433713092
31
0
210
0
220
0
230
-1
40
0.072823
41
-1.71290746944361
42
-1.71239637948272
0
ELLIPSE
5
1ED
100
AcDbEntity
8
1
62
256
6
ByLayer
370
18
48
1
60
0
100
AcDbEllipse
10
1393.030848
20
0.002153
30
0
11
1719.54500928403
21
-37.4870834497695
31
0
210
0
220
0
230
-1
40
0.005816
41
-2.38607060180437
42
-2.38015290789643
0
ELLIPSE
5
1EE
100
AcDbEntity
8
1
62
256
6
ByLayer
370
18
48
1
60
0
100
AcDbEllipse
10
145
20
-30.144398
30
0
11
0.848282325741287
21
-1.26954553930034
31
0
210
0
220
0
230
-1
40
0.974443
41
-0.969730823540069
42
2.17186183004973
0
ELLIPSE
5
1EF
100
AcDbEntity
8
1
62
256
6
ByLayer
370
18
48
1
60
0
100
AcDbEllipse
10
-1103.048404
20
-0.001842
30
0
11
1719.56344123533
21
-20.4201474675858
31
0
210
0
220
0
230
-1
40
0.019185
41
0.755417530365011
42
0.761335182670176
0
ELLIPSE
5
1F0
100
AcDbEntity
8
1
62
256
6
ByLayer
370
18
48
1
60
0
100
AcDbEllipse
10
76.244255
20
6.1E-05
30
0
11
459.253907344167
21
-8.35879352348767
31
0
210
0
220
0
230
-1
40
0.082502
41
1.41130557589168
42
1.42457526106916
0
ELLIPSE
5
1F1
100
AcDbEntity
8
1
62
256
6
ByLayer
370
18
48
1
60
0
100
AcDbEllipse
10
148.147522
20
-0.034038
30
0
11
43.4195724408178
21
19.5609724462869
31
0
210
0
220
0
230
-1
40
0.770839
41
2.02875558310233
42
2.03232100349019
0
ELLIPSE
5
1F2
100
AcDbEntity
8
1
62
256
6
ByLayer
370
18
48
1
60
0
100
AcDbEllipse
10
141.925228
20
2E-06
30
0
11
0.16113836100789
21
-38.8004932216569
31
0
210
0
220
0
230
-1
40
0.08739
41
-0.0669840904961773
42
-0.0318412669224769
0
ELLIPSE
5
1F3
100
AcDbEntity
8
1
62
256
6
ByLayer
370
18
48
1
60
0
100
AcDbEllipse
10
145.238424
20
24.188179
30
0
11
0.156490723644124
21
0.228728020200541
31
0
210
0
220
0
230
-1
40
0.499023
41
-1.66766959673164
42
-0.380784936167915
0
ELLIPSE
5
1F4
100
AcDbEntity
8
1
62
256
6
ByLayer
370
18
48
1
60
0
100
AcDbEllipse
10
143.268466
20
24.065589
30
0
11
0.166260832377802
21
-0.209899373217843
31
0
210
0
220
0
230
-1
40
0.534556
41
-1.48895827166437
42
-0.719562606108019
0
ELLIPSE
5
1F5
100
AcDbEntity
8
1
62
256
6
ByLayer
370
18
48
1
60
0
100
AcDbEllipse
10
143.268466
20
24.065589
30
0
11
0.166260832375906
21
-0.209899373215849
31
0
210
0
220
0
230
-1
40
0.534556
41
-2.1366211142064
42
-1.48895827166608
0
ELLIPSE
5
1F6
100
AcDbEntity
8
1
62
256
6
ByLayer
370
18
48
1
60
0
100
AcDbEllipse
10
145.238424
20
24.188179
30
0
11
0.156490723643113
21
0.22872802020092
31
0
210
0
220
0
230
-1
40
0.499023
41
-2.67930373002963
42
-1.66766959672328
0
ELLIPSE
5
1F7
100
AcDbEntity
8
1
62
256
6
ByLayer
370
18
48
1
60
0
100
AcDbEllipse
10
143.69417
20
23.731091
30
0
11
0.269324851157033
21
-0.104027149150364
31
0
210
0
220
0
230
-1
40
0.459801
41
-0.0759941831636443
42
2.10385329714153
0
ELLIPSE
5
1F8
100
AcDbEntity
8
1
62
256
6
ByLayer
370
18
48
1
60
0
100
AcDbEllipse
10
144.831575
20
23.801871
30
0
11
0.261503052157526
21
0.140193204680085
31
0
210
0
220
0
230
-1
40
0.435356
41
0.651221630085628
42
-3.03933030183979
0
POINT
5
6C
100
AcDbEntity
8
80
62
256
6
ByLayer
370
18
48
1
60
0
100
AcDbPoint
10
0
20
0
30
0
39
0
210
0
220
0
230
1
50
360
0
POINT
5
6E
100
AcDbEntity
8
2L
62
256
6
ByLayer
370
18
48
1
60
0
100
AcDbPoint
10
61
20
0
30
0
39
0
210
0
220
0
230
1
50
360
0
POINT
5
70
100
AcDbEntity
8
81
62
256
6
ByLayer
370
18
48
1
60
0
100
AcDbPoint
10
150
20
0
30
0
39
0
210
0
220
0
230
1
50
360
0
POINT
5
72
100
AcDbEntity
8
2
62
256
6
ByLayer
370
18
48
1
60
0
100
AcDbPoint
10
0
20
0
30
0
39
0
210
0
220
0
230
1
50
360
0
POINT
5
74
100
AcDbEntity
8
3
62
256
6
ByLayer
370
18
48
1
60
0
100
AcDbPoint
10
150
20
0
30
0
39
0
210
0
220
0
230
1
50
360
0
POINT
5
76
100
AcDbEntity
8
2
62
256
6
ByLayer
370
18
48
1
60
0
100
AcDbPoint
10
144.340976
20
26.328051
30
0
39
0
210
0
220
0
230
1
50
360
0
POINT
5
77
100
AcDbEntity
8
2
62
256
6
ByLayer
370
18
48
1
60
0
100
AcDbPoint
10
144.340976
20
26.328051
30
0
39
0
210
0
220
0
230
1
50
360
0
POINT
5
78
100
AcDbEntity
8
2
62
256
6
ByLayer
370
18
48
1
60
0
100
AcDbPoint
10
145.659024
20
35.411852
30
0
39
0
210
0
220
0
230
1
50
360
0
POINT
5
79
100
AcDbEntity
8
2
62
256
6
ByLayer
370
18
48
1
60
0
100
AcDbPoint
10
145.659024
20
35.411852
30
0
39
0
210
0
220
0
230
1
50
360
0
POINT
5
7A
100
AcDbEntity
8
2
62
256
6
ByLayer
370
18
48
1
60
0
100
AcDbPoint
10
143.955404
20
22.414328
30
0
39
0
210
0
220
0
230
1
50
360
0
POINT
5
7B
100
AcDbEntity
8
2
62
256
6
ByLayer
370
18
48
1
60
0
100
AcDbPoint
10
144.087998
20
22.330982
30
0
39
0
210
0
220
0
230
1
50
360
0
POINT
5
7C
100
AcDbEntity
8
2
62
256
6
ByLayer
370
18
48
1
60
0
100
AcDbPoint
10
146.044596
20
34.226461
30
0
39
0
210
0
220
0
230
1
50
360
0
POINT
5
7D
100
AcDbEntity
8
2
62
256
6
ByLayer
370
18
48
1
60
0
100
AcDbPoint
10
145.912002
20
33.976707
30
0
39
0
210
0
220
0
230
1
50
360
0
POINT
5
7E
100
AcDbEntity
8
5
62
256
6
ByLayer
370
18
48
1
60
0
100
AcDbPoint
10
145
20
30.331502
30
0
39
0
210
0
220
0
230
1
50
360
0
POINT
5
80
100
AcDbEntity
8
5
62
256
6
ByLayer
370
18
48
1
60
0
100
AcDbPoint
10
145
20
27.725862
30
0
39
0
210
0
220
0
230
1
50
360
0
POINT
5
81
100
AcDbEntity
8
2
62
256
6
ByLayer
370
18
48
1
60
0
100
AcDbPoint
10
0
20
0
30
0
39
0
210
0
220
0
230
1
50
360
0
POINT
5
82
100
AcDbEntity
8
2
62
256
6
ByLayer
370
18
48
1
60
0
100
AcDbPoint
10
144.340976
20
26.328051
30
0
39
0
210
0
220
0
230
1
50
360
0
POINT
5
83
100
AcDbEntity
8
2
62
256
6
ByLayer
370
18
48
1
60
0
100
AcDbPoint
10
0
20
0
30
0
39
0
210
0
220
0
230
1
50
360
0
POINT
5
84
100
AcDbEntity
8
2
62
256
6
ByLayer
370
18
48
1
60
0
100
AcDbPoint
10
145.659024
20
35.411852
30
0
39
0
210
0
220
0
230
1
50
360
0
SPLINE
5
1F9
100
AcDbEntity
8
1
62
256
6
ByLayer
370
18
48
1
60
0
100
AcDbSpline
70
4
71
2
72
6
73
3
40
0
40
0
40
0
40
1
40
1
40
1
41
0.500000051959725
10
141.5
20
2.16516446145065
30
0
41
0.499999948040275
10
141.783342896755
20
2.14080128568789
30
0
41
0.500000051959725
10
142.066615160284
20
2.11643641654583
30
0
0
SPLINE
5
1FA
100
AcDbEntity
8
1
62
256
6
ByLayer
370
18
48
1
60
0
100
AcDbSpline
70
4
71
2
72
6
73
3
40
0
40
0
40
0
40
1
40
1
40
1
41
0.500000045888135
10
148.5
20
-26.3681680692941
30
0
41
0.499999954111865
10
148.216657103241
20
-26.386068746748
30
0
41
0.500000045888135
10
147.933384839713
20
-26.4039485527687
30
0
0
SPLINE
5
1FB
100
AcDbEntity
8
1
62
256
6
ByLayer
370
18
48
1
60
0
100
AcDbSpline
70
4
71
1
72
4
73
2
40
0
40
0
40
1
40
1
41
1
10
149.500006277569
20
30.3906676058797
30
0
41
1
10
149.779080446691
20
31.3060968115846
30
0
0
SPLINE
5
1FC
100
AcDbEntity
8
1
62
256
6
ByLayer
370
18
48
1
60
0
100
AcDbSpline
70
4
71
3
72
20
73
16
40
0
40
0
40
0
40
0
40
0.0506084020767485
40
0.0506084020767485
40
0.156096357401598
40
0.156096357401598
40
0.367072268051205
40
0.367072268051205
40
0.578048178700811
40
0.578048178700811
40
0.683536134025602
40
0.683536134025602
40
0.789024089350394
40
0.789024089350394
40
1
40
1
40
1
40
1
41
1
10
149.48703288122
20
30.9572859894043
30
0
41
1
10
149.497051533087
20
30.963664028073
30
0
41
1
10
149.50691209961
20
30.9702478760391
30
0
41
1
10
149.536671906216
20
30.9910883178264
30
0
41
1
10
149.555885281233
20
31.0059181725012
30
0
41
1
10
149.610906357948
20
31.0525840723417
30
0
41
1
10
149.644119607848
20
31.0865760144767
30
0
41
1
10
149.703407435413
20
31.16049188093
30
0
41
1
10
149.728563514898
20
31.199285856322
30
0
41
1
10
149.75977705033
20
31.2599018127874
30
0
41
1
10
149.769095137961
20
31.2805248158967
30
0
41
1
10
149.785526007854
20
31.3226186690409
30
0
41
1
10
149.792644276057
20
31.3441484224738
30
0
41
1
10
149.81028262092
20
31.4088623802557
30
0
41
1
10
149.817282141795
20
31.4525147929185
30
0
41
1
10
149.819506803581
20
31.4966786381398
30
0
0
SPLINE
5
1FD
100
AcDbEntity
8
1
62
256
6
ByLayer
370
18
48
1
60
0
100
AcDbSpline
70
4
71
3
72
38
73
34
40
0
40
0
40
0
40
0
40
0.0625000000000058
40
0.0625000000000058
40
0.0937500000000086
40
0.0937500000000086
40
0.125000000000011
40
0.125000000000011
40
0.250000000000053
40
0.250000000000053
40
0.281250000000065
40
0.281250000000065
40
0.312500000000078
40
0.312500000000078
40
0.375000000000103
40
0.375000000000103
40
0.500000000000142
40
0.500000000000142
40
0.531250000000143
40
0.531250000000143
40
0.562500000000144
40
0.625000000000125
40
0.687500000000106
40
0.687500000000106
40
0.718750000000099
40
0.718750000000099
40
0.750000000000093
40
0.750000000000093
40
0.875000000000034
40
0.875000000000034
40
0.937500000000017
40
0.937500000000017
40
1
40
1
40
1
40
1
41
1
10
140.5
20
37.7212791867285
30
0
41
1
10
140.5
20
37.7529296284527
30
0
41
1
10
140.501545128034
20
37.7846845811049
30
0
41
1
10
140.506257800683
20
37.8324790041959
30
0
41
1
10
140.508235952318
20
37.848479244087
30
0
41
1
10
140.51296417449
20
37.8802301889843
30
0
41
1
10
140.515713890511
20
37.8960004122349
30
0
41
1
10
140.531361060538
20
37.9743333165864
30
0
41
1
10
140.549901088591
20
38.0353558815227
30
0
41
1
10
140.580675582038
20
38.1095598484191
30
0
41
1
10
140.587213798885
20
38.1242960167666
30
0
41
1
10
140.601072582497
20
38.153554814437
30
0
41
1
10
140.608415828392
20
38.168118407595
30
0
41
1
10
140.63145871168
20
38.2111271829137
30
0
41
1
10
140.648144912416
20
38.2388721027169
30
0
41
1
10
140.702076123997
20
38.3193942748462
30
0
41
1
10
140.743156241345
20
38.3694852089529
30
0
41
1
10
140.801145802515
20
38.4274482677744
30
0
41
1
10
140.813115157618
20
38.4388380574685
30
0
41
1
10
140.837517735915
20
38.4609363653552
30
0
41
1
10
140.874821688338
20
38.4930769778726
30
0
41
1
10
140.940425020827
20
38.5417115897899
30
0
41
1
10
140.996518636474
20
38.5754260780776
30
0
41
1
10
141.039964942115
20
38.5987328713985
30
0
41
1
10
141.054676806422
20
38.6061713624188
30
0
41
1
10
141.084568968653
20
38.6203746518628
30
0
41
1
10
141.099776159192
20
38.6271483295819
30
0
41
1
10
141.17613635023
20
38.6589441090802
30
0
41
1
10
141.238852745608
20
38.6781192641009
30
0
41
1
10
141.335303497324
20
38.6977443882807
30
0
41
1
10
141.367852661963
20
38.7027520571413
30
0
41
1
10
141.433773360309
20
38.7096049433681
30
0
41
1
10
141.466885519792
20
38.71141813696
30
0
41
1
10
141.5
20
38.7116110545992
30
0
0
SPLINE
5
1FE
100
AcDbEntity
8
1
62
256
6
ByLayer
370
13
48
1
60
0
100
AcDbSpline
70
4
71
3
72
8
73
4
40
0
40
0
40
0
40
0
40
1
40
1
40
1
40
1
41
1
10
140.499996655744
20
-21.1841842481663
30
0
41
1
10
140.393495502636
20
-20.6380969045615
30
0
41
1
10
140.286994349527
20
-20.0920095609567
30
0
41
1
10
140.180493196419
20
-19.5459222173519
30
0
0
SPLINE
5
1FF
100
AcDbEntity
8
1
62
256
6
ByLayer
370
18
48
1
60
0
100
AcDbSpline
70
4
71
3
72
32
73
28
40
0
40
0
40
0
40
0
40
0.124999999999911
40
0.124999999999911
40
0.187499999999868
40
0.187499999999868
40
0.218749999999849
40
0.218749999999849
40
0.24999999999983
40
0.24999999999983
40
0.374999999999867
40
0.374999999999867
40
0.406249999999865
40
0.406249999999865
40
0.437499999999862
40
0.437499999999862
40
0.49999999999991
40
0.49999999999991
40
0.624999999999956
40
0.624999999999956
40
0.750000000000003
40
0.750000000000003
40
0.812500000000006
40
0.812500000000006
40
0.875000000000008
40
0.875000000000008
40
1
40
1
40
1
40
1
41
1
10
142.296585503872
20
40
30
0
41
1
10
142.245768002179
20
40
30
0
41
1
10
142.195756888518
20
39.994988024028
30
0
41
1
10
142.121917142369
20
39.9801550748949
30
0
41
1
10
142.097501438619
20
39.9739829493499
30
0
41
1
10
142.061182940887
20
39.9628287224348
30
0
41
1
10
142.049105311535
20
39.958784389176
30
0
41
1
10
142.025307216182
20
39.9501440470099
30
0
41
1
10
142.013558892089
20
39.9455407568644
30
0
41
1
10
141.955558078147
20
39.9211327757285
30
0
41
1
10
141.91150721139
20
39.8971925576145
30
0
41
1
10
141.859389479141
20
39.8617338003429
30
0
41
1
10
141.849114527498
20
39.8543629285175
30
0
41
1
10
141.82886741273
20
39.8390524271472
30
0
41
1
10
141.818902855358
20
39.831115687582
30
0
41
1
10
141.789798926234
20
39.8067219889382
30
0
41
1
10
141.771331780481
20
39.7895979477611
30
0
41
1
10
141.718658903452
20
39.7357128080913
30
0
41
1
10
141.687156107397
20
39.6964622942074
30
0
41
1
10
141.631587681257
20
39.611111603419
30
0
41
1
10
141.608383691009
20
39.5663161791481
30
0
41
1
10
141.580220313624
20
39.496322901583
30
0
41
1
10
141.571939962962
20
39.4725095087898
30
0
41
1
10
141.557627230146
20
39.4239037139017
30
0
41
1
10
141.551592326035
20
39.3990432960216
30
0
41
1
10
141.537210348152
20
39.3243180541301
30
0
41
1
10
141.532407390122
20
39.2739125897269
30
0
41
1
10
141.532405026155
20
39.2229165738729
30
0
0
SPLINE
5
200
100
AcDbEntity
8
1
62
256
6
ByLayer
370
13
48
1
60
0
100
AcDbSpline
70
4
71
3
72
8
73
4
40
0
40
0
40
0
40
0
40
1
40
1
40
1
40
1
41
1
10
140.000059959935
20
-26.2967194266474
30
0
41
1
10
140.017497522013
20
-26.4086027148757
30
0
41
1
10
140.034935084091
20
-26.520486003104
30
0
41
1
10
140.052372646169
20
-26.6323692913323
30
0
0
SPLINE
5
201
100
AcDbEntity
8
1
62
256
6
ByLayer
370
18
48
1
60
0
100
AcDbSpline
70
4
71
3
72
20
73
16
40
0
40
0
40
0
40
0
40
0.217633931550103
40
0.217633931550103
40
0.326450897325161
40
0.326450897325161
40
0.43526786310022
40
0.43526786310022
40
0.652901794650332
40
0.652901794650332
40
0.761718760425392
40
0.761718760425392
40
0.870535726200452
40
0.870535726200452
40
1
40
1
40
1
40
1
41
1
10
140.180493196419
20
-19.5459222173519
30
0
41
1
10
140.182718068857
20
-19.4973160538441
30
0
41
1
10
140.189711560301
20
-19.4497368059604
30
0
41
1
10
140.207196363782
20
-19.3798742044889
30
0
41
1
10
140.214198395694
20
-19.3568394391666
30
0
41
1
10
140.230622895555
20
-19.3112911461332
30
0
41
1
10
140.240036446377
20
-19.2888466190158
30
0
41
1
10
140.271329473763
20
-19.223700511257
30
0
41
1
10
140.296390353761
20
-19.1827022380763
30
0
41
1
10
140.340348668888
20
-19.1248933267218
30
0
41
1
10
140.356153651035
20
-19.106155399208
30
0
41
1
10
140.389596515454
20
-19.0704055653078
30
0
41
1
10
140.407135394115
20
-19.0534791911341
30
0
41
1
10
140.447285349402
20
-19.0184388245478
30
0
41
1
10
140.470219368983
20
-19.0006995664155
30
0
41
1
10
140.494295649836
20
-18.9842857573996
30
0
0
SPLINE
5
202
100
AcDbEntity
8
1
62
256
6
ByLayer
370
18
48
1
60
0
100
AcDbSpline
70
4
71
1
72
4
73
2
40
0
40
0
40
1
40
1
41
1
10
140.416107764609
20
29.8459129861551
30
0
41
1
10
140.020949071536
20
27.4353636567604
30
0
0
SPLINE
5
203
100
AcDbEntity
8
1
62
256
6
ByLayer
370
18
48
1
60
0
100
AcDbSpline
70
4
71
3
72
28
73
24
40
0
40
0
40
0
40
0
40
0.124999999999916
40
0.124999999999916
40
0.187499999999873
40
0.187499999999873
40
0.249999999999831
40
0.249999999999831
40
0.37499999999981
40
0.37499999999981
40
0.437499999999826
40
0.437499999999826
40
0.499999999999842
40
0.499999999999842
40
0.624999999999873
40
0.624999999999873
40
0.749999999999905
40
0.749999999999905
40
0.812499999999933
40
0.812499999999933
40
0.874999999999962
40
0.874999999999962
40
1
40
1
40
1
40
1
41
1
10
140.764240437652
20
27.9000201348322
30
0
41
1
10
140.713422935958
20
27.8968577696691
30
0
41
1
10
140.663411822298
20
27.8902226765171
30
0
41
1
10
140.589572076149
20
27.8752015859645
30
0
41
1
10
140.565156372398
20
27.869343823997
30
0
41
1
10
140.516731708756
20
27.8558766485918
30
0
41
1
10
140.492813988657
20
27.8482812657468
30
0
41
1
10
140.423213011927
20
27.823362413747
30
0
41
1
10
140.379162145169
20
27.8037935966061
30
0
41
1
10
140.316620866471
20
27.7699929823994
30
0
41
1
10
140.296259098846
20
27.7579046631973
30
0
41
1
10
140.257453860014
20
27.732628100199
30
0
41
1
10
140.238986714261
20
27.7194424331852
30
0
41
1
10
140.186313837232
20
27.6782888352479
30
0
41
1
10
140.154811041177
20
27.6487393017136
30
0
41
1
10
140.099242615037
20
27.5852884318259
30
0
41
1
10
140.076038624789
20
27.5523578235922
30
0
41
1
10
140.047875247404
20
27.5014070652357
30
0
41
1
10
140.039594896742
20
27.4841533870056
30
0
41
1
10
140.025282163926
20
27.4490977772996
30
0
41
1
10
140.019247259815
20
27.4312478807029
30
0
41
1
10
140.004865281932
20
27.377828646997
30
0
41
1
10
140.000062323902
20
27.3420998444426
30
0
41
1
10
140.000059959935
20
27.3062546844933
30
0
0
SPLINE
5
204
100
AcDbEntity
8
1
62
256
6
ByLayer
370
18
48
1
60
0
100
AcDbSpline
70
4
71
3
72
20
73
16
40
0
40
0
40
0
40
0
40
0.116607448905892
40
0.116607448905892
40
0.26383954075491
40
0.26383954075491
40
0.411071632603928
40
0.411071632603928
40
0.558303724452946
40
0.558303724452946
40
0.705535816301964
40
0.705535816301964
40
0.852767908150982
40
0.852767908150982
40
1
40
1
40
1
40
1
41
1
10
140.416143837212
20
29.8457758652749
30
0
41
1
10
140.422601632598
20
29.867309682204
30
0
41
1
10
140.430967153623
20
29.8886450370598
30
0
41
1
10
140.453869379214
20
29.9353914337925
30
0
41
1
10
140.469296438283
20
29.960245184533
30
0
41
1
10
140.505336823982
20
30.0075377578516
30
0
41
1
10
140.526183480188
20
30.0301346489
30
0
41
1
10
140.571567139888
20
30.0711197091722
30
0
41
1
10
140.596204847867
20
30.089715971936
30
0
41
1
10
140.64940823875
20
30.1230806674595
30
0
41
1
10
140.677942137996
20
30.1377460536435
30
0
41
1
10
140.736604553626
20
30.1619715218835
30
0
41
1
10
140.767011094207
20
30.1717218645011
30
0
41
1
10
140.830058628149
20
30.1863136950759
30
0
41
1
10
140.862151032369
20
30.1910092379487
30
0
41
1
10
140.894483252653
20
30.1930212669478
30
0
0
SPLINE
5
205
100
AcDbEntity
8
1
62
256
6
ByLayer
370
18
48
1
60
0
100
AcDbSpline
70
4
71
3
72
29
73
25
40
0
40
0
40
0
40
0
40
0.125000000000025
40
0.125000000000025
40
0.187500000000038
40
0.187500000000038
40
0.25000000000005
40
0.25000000000005
40
0.37500000000007
40
0.37500000000007
40
0.437500000000061
40
0.437500000000061
40
0.500000000000052
40
0.500000000000052
40
0.625000000000034
40
0.625000000000034
40
0.687500000000029
40
0.687500000000029
40
0.750000000000024
40
0.812500000000018
40
0.812500000000018
40
0.875000000000013
40
0.875000000000013
40
1
40
1
40
1
40
1
41
1
10
148.467594973845
20
27.8331880608381
30
0
41
1
10
148.467592609654
20
27.8690363206856
30
0
41
1
10
148.462788800689
20
27.9040563173541
30
0
41
1
10
148.448540372392
20
27.9553714235759
30
0
41
1
10
148.442609052362
20
27.9722725874701
30
0
41
1
10
148.428309314697
20
28.0056545088382
30
0
41
1
10
148.419946642252
20
28.0220844614208
30
0
41
1
10
148.391715478071
20
28.0697145970759
30
0
41
1
10
148.368597262951
20
28.0996105695703
30
0
41
1
10
148.327403466311
20
28.1416379594511
30
0
41
1
10
148.31249913017
20
28.1552376211918
30
0
41
1
10
148.280784245572
20
28.181135817215
30
0
41
1
10
148.264068510776
20
28.1933726690818
30
0
41
1
10
148.211412149701
20
28.2280010240505
30
0
41
1
10
148.172986188049
20
28.2483300944211
30
0
41
1
10
148.110194559562
20
28.2745477908192
30
0
41
1
10
148.08845083207
20
28.2825334280124
30
0
41
1
10
148.044208084775
20
28.296711568796
30
0
41
1
10
147.998982288373
20
28.3091961211383
30
0
41
1
10
147.951817821971
20
28.3183407496872
30
0
41
1
10
147.903670061073
20
28.3257913670411
30
0
41
1
10
147.878983337007
20
28.3286764844486
30
0
41
1
10
147.804487756564
20
28.3346092335403
30
0
41
1
10
147.754242263996
20
28.3350068525677
30
0
41
1
10
147.703414496128
20
28.3318438485422
30
0
0
SPLINE
5
206
100
AcDbEntity
8
1
62
256
6
ByLayer
370
18
48
1
60
0
100
AcDbSpline
70
4
71
1
72
4
73
2
40
0
40
0
40
1
40
1
41
1
10
149.771734639479
20
-31.1328704426308
30
0
41
1
10
149.500003286802
20
-30.3765077583176
30
0
0
SPLINE
5
207
100
AcDbEntity
8
1
62
256
6
ByLayer
370
13
48
1
60
0
100
AcDbSpline
70
4
71
3
72
8
73
4
40
0
40
0
40
0
40
0
40
1
40
1
40
1
40
1
41
1
10
140.894483252653
20
30.1930212669478
30
0
41
1
10
140.851068980986
20
29.4286875562426
30
0
41
1
10
140.807654709319
20
28.6643538455373
30
0
41
1
10
140.764240437652
20
27.9000201348321
30
0
0
SPLINE
5
208
100
AcDbEntity
8
1
62
256
6
ByLayer
370
13
48
1
60
0
100
AcDbSpline
70
4
71
3
72
8
73
4
40
0
40
0
40
0
40
0
40
1
40
1
40
1
40
1
41
1
10
147.703414496128
20
28.3318438485422
30
0
41
1
10
147.407442275973
20
29.0750575910716
30
0
41
1
10
147.111470055818
20
29.818271333601
30
0
41
1
10
146.815497835663
20
30.5614850761304
30
0
0
SPLINE
5
209
100
AcDbEntity
8
1
62
256
6
ByLayer
370
18
48
1
60
0
100
AcDbSpline
70
4
71
3
72
12
73
8
40
0
40
0
40
0
40
0
40
0.0632323006795129
40
0.0632323006795129
40
0.375488200453007
40
0.375488200453007
40
1
40
1
40
1
40
1
41
1
10
149.772184143956
20
-31.1340249542275
30
0
41
1
10
149.773938080105
20
-31.1383557614601
30
0
41
1
10
149.775646934676
20
-31.1427045403887
30
0
41
1
10
149.785526007854
20
-31.168635646616
30
0
41
1
10
149.792644276057
20
-31.1906999426552
30
0
41
1
10
149.81028262092
20
-31.2570361107412
30
0
41
1
10
149.817282141794
20
-31.3018029629957
30
0
41
1
10
149.819506803581
20
-31.3471143211111
30
0
0
SPLINE
5
20A
100
AcDbEntity
8
1
62
256
6
ByLayer
370
18
48
1
60
0
100
AcDbSpline
70
4
71
3
72
18
73
14
40
0
40
0
40
0
40
0
40
0.064464485224553
40
0.064464485224553
40
0.298348363918434
40
0.298348363918434
40
0.532232242612315
40
0.532232242612315
40
0.649174181959237
40
0.649174181959237
40
0.766116121306158
40
0.766116121306158
40
1
40
1
40
1
40
1
41
1
10
140.251298619961
20
28.8769545359104
30
0
41
1
10
140.24106282721
20
28.8708219665584
30
0
41
1
10
140.231107765946
20
28.8644863186976
30
0
41
1
10
140.186313837232
20
28.8342389661971
30
0
41
1
10
140.154811041177
20
28.807913978988
30
0
41
1
10
140.099242615037
20
28.7498840288821
30
0
41
1
10
140.076038624789
20
28.7190654281937
30
0
41
1
10
140.047875247404
20
28.6704193049645
30
0
41
1
10
140.039594896742
20
28.6537896419908
30
0
41
1
10
140.025282163926
20
28.6196893620119
30
0
41
1
10
140.019247259815
20
28.6021699635434
30
0
41
1
10
140.004865281932
20
28.5492819669067
30
0
41
1
10
140.000062323901
20
28.5133090452912
30
0
41
1
10
140.000059959935
20
28.4766195428353
30
0
0
SPLINE
5
20B
100
AcDbEntity
8
1
62
256
6
ByLayer
370
18
48
1
60
0
100
AcDbSpline
70
4
71
3
72
29
73
25
40
0
40
0
40
0
40
0
40
0.124999999999925
40
0.124999999999925
40
0.1874999999999
40
0.1874999999999
40
0.249999999999875
40
0.249999999999875
40
0.374999999999825
40
0.374999999999825
40
0.437499999999818
40
0.437499999999818
40
0.499999999999811
40
0.499999999999811
40
0.624999999999842
40
0.624999999999842
40
0.687499999999857
40
0.687499999999857
40
0.749999999999872
40
0.812499999999888
40
0.812499999999888
40
0.874999999999903
40
0.874999999999903
40
1
40
1
40
1
40
1
41
1
10
141.35197178967
20
-2.06563684210468
30
0
41
1
10
141.349751645614
20
-2.09051446096518
30
0
41
1
10
141.352365772101
20
-2.11544469044966
30
0
41
1
10
141.363377825214
20
-2.15291720345209
30
0
41
1
10
141.368238433361
20
-2.16542099087664
30
0
41
1
10
141.38041340883
20
-2.19045526961082
30
0
41
1
10
141.387725202899
20
-2.20294975357436
30
0
41
1
10
141.412894503874
20
-2.23969212983241
30
0
41
1
10
141.434070054118
20
-2.2634595838783
30
0
41
1
10
141.472499332269
20
-2.29800766687194
30
0
41
1
10
141.486503022404
20
-2.3093928217171
30
0
41
1
10
141.516489927182
20
-2.33150927934037
30
0
41
1
10
141.532382518112
20
-2.34218538782559
30
0
41
1
10
141.58268885808
20
-2.37309661185387
30
0
41
1
10
141.619706219325
20
-2.39222523145554
30
0
41
1
10
141.680630162957
20
-2.41862413397575
30
0
41
1
10
141.701794912424
20
-2.42700705922081
30
0
41
1
10
141.744987959316
20
-2.44262723638192
30
0
41
1
10
141.789265260714
20
-2.45720058115441
30
0
41
1
10
141.835680819163
20
-2.46970946899211
30
0
41
1
10
141.883180902771
20
-2.48117126313088
30
0
41
1
10
141.907593513467
20
-2.48639917867192
30
0
41
1
10
141.981433868285
20
-2.50025043746874
30
0
41
1
10
142.031460857929
20
-2.50709182834072
30
0
41
1
10
142.082288625797
20
-2.51153836864415
30
0
0
SPLINE
5
20C
100
AcDbEntity
8
1
62
256
6
ByLayer
370
18
48
1
60
0
100
AcDbSpline
70
4
71
1
72
4
73
2
40
0
40
0
40
1
40
1
41
1
10
148.422217531065
20
28.0169641691091
30
0
41
1
10
147.291478270656
20
30.3180757464497
30
0
0
SPLINE
5
20D
100
AcDbEntity
8
1
62
256
6
ByLayer
370
18
48
1
60
0
100
AcDbSpline
70
4
71
3
72
20
73
16
40
0
40
0
40
0
40
0
40
0.160439624737925
40
0.160439624737925
40
0.32087924947585
40
0.32087924947585
40
0.481318874213775
40
0.481318874213775
40
0.6417584989517
40
0.6417584989517
40
0.802198123689625
40
0.802198123689625
40
0.96263774842755
40
0.96263774842755
40
1
40
1
40
1
40
1
41
1
10
146.815497835663
20
30.5614850761304
30
0
41
1
10
146.847834347116
20
30.5634973721683
30
0
41
1
10
146.879712700513
20
30.5628010888285
30
0
41
1
10
146.942596314573
20
30.5562468952407
30
0
41
1
10
146.973891519929
20
30.5502987965982
30
0
41
1
10
147.034098273222
20
30.5333536609097
30
0
41
1
10
147.062785320017
20
30.5224820413954
30
0
41
1
10
147.117380976804
20
30.4960325445386
30
0
41
1
10
147.143498646849
20
30.480256682266
30
0
41
1
10
147.190923626931
20
30.4450498603737
30
0
41
1
10
147.212438737847
20
30.4255761050649
30
0
41
1
10
147.251033053225
20
30.3828528815848
30
0
41
1
10
147.268047513398
20
30.3595487973408
30
0
41
1
10
147.285340912371
20
30.3296661316777
30
0
41
1
10
147.288457968535
20
30.3239587634636
30
0
41
1
10
147.291424281601
20
30.3181879355297
30
0
0
SPLINE
5
20E
100
AcDbEntity
8
1
62
256
6
ByLayer
370
18
48
1
60
0
100
AcDbSpline
70
4
71
3
72
32
73
28
40
0
40
0
40
0
40
0
40
0.124999999999895
40
0.124999999999895
40
0.187499999999808
40
0.187499999999808
40
0.218749999999766
40
0.218749999999766
40
0.249999999999724
40
0.249999999999724
40
0.374999999999684
40
0.374999999999684
40
0.406249999999691
40
0.406249999999691
40
0.437499999999697
40
0.437499999999697
40
0.49999999999971
40
0.49999999999971
40
0.624999999999782
40
0.624999999999782
40
0.749999999999855
40
0.749999999999855
40
0.812499999999891
40
0.812499999999891
40
0.874999999999927
40
0.874999999999927
40
1
40
1
40
1
40
1
41
1
10
147.917711374203
20
20.1395893900875
30
0
41
1
10
147.968528875896
20
20.1427517552505
30
0
41
1
10
148.018321578313
20
20.1506905702485
30
0
41
1
10
148.091514936112
20
20.1695700272306
30
0
41
1
10
148.115661671769
20
20.1770332906935
30
0
41
1
10
148.151494092036
20
20.1900351245675
30
0
41
1
10
148.163395477953
20
20.1946814858588
30
0
41
1
10
148.186817045586
20
20.2044832566999
30
0
41
1
10
148.198364768094
20
20.2096474118297
30
0
41
1
10
148.255301934173
20
20.2367621583012
30
0
41
1
10
148.298309537185
20
20.2625583367751
30
0
41
1
10
148.34888205227
20
20.2999490943184
30
0
41
1
10
148.358835797009
20
20.3076867971914
30
0
41
1
10
148.378415712717
20
20.323691085303
30
0
41
1
10
148.388034403873
20
20.3319544141294
30
0
41
1
10
148.416075307535
20
20.3572571576689
30
0
41
1
10
148.433796224024
20
20.3748971530178
30
0
41
1
10
148.484120901368
20
20.430067425056
30
0
41
1
10
148.513913243578
20
20.4698268543941
30
0
41
1
10
148.565762268293
20
20.5554792593321
30
0
41
1
10
148.587014169304
20
20.6000621128241
30
0
41
1
10
148.612127388642
20
20.6692196155056
30
0
41
1
10
148.619370002336
20
20.692667665098
30
0
41
1
10
148.631564598074
20
20.7403666787282
30
0
41
1
10
148.636516138092
20
20.7646833002434
30
0
41
1
10
148.647641748996
20
20.8375401631198
30
0
41
1
10
148.650248144182
20
20.8863805020231
30
0
41
1
10
148.64802821033
20
20.935490813349
30
0
0
SPLINE
5
20F
100
AcDbEntity
8
1
62
256
6
ByLayer
370
18
48
1
60
0
100
AcDbSpline
70
4
71
3
72
36
73
32
40
0
40
0
40
0
40
0
40
0.124999999999989
40
0.124999999999989
40
0.187499999999992
40
0.187499999999992
40
0.218750000000008
40
0.218750000000008
40
0.250000000000024
40
0.250000000000024
40
0.375000000000106
40
0.375000000000106
40
0.406250000000127
40
0.406250000000127
40
0.437500000000148
40
0.437500000000148
40
0.500000000000148
40
0.500000000000148
40
0.625000000000095
40
0.625000000000095
40
0.656250000000081
40
0.656250000000081
40
0.687500000000068
40
0.75000000000004
40
0.812500000000013
40
0.812500000000013
40
0.843749999999999
40
0.843749999999999
40
0.874999999999986
40
0.874999999999986
40
1
40
1
40
1
40
1
41
1
10
140.180493196419
20
20.4085574370042
30
0
41
1
10
140.182718068857
20
20.3594427697153
30
0
41
1
10
140.189711560301
20
20.3113523063915
30
0
41
1
10
140.207196363782
20
20.2407189043234
30
0
41
1
10
140.214198395694
20
20.2174265380119
30
0
41
1
10
140.22651677059
20
20.1828778844736
30
0
41
1
10
140.230936955665
20
20.1714034366182
30
0
41
1
10
140.240301168512
20
20.1488131028469
30
0
41
1
10
140.245251950941
20
20.1376744418663
30
0
41
1
10
140.271329473763
20
20.0827521506844
30
0
41
1
10
140.296390353761
20
20.0412601880192
30
0
41
1
10
140.333022283034
20
19.9924859223407
30
0
41
1
10
140.340616269774
20
19.982886948844
30
0
41
1
10
140.356350498615
20
19.9640071999331
30
0
41
1
10
140.364514367139
20
19.9547021712328
30
0
41
1
10
140.389596515454
20
19.9275426414411
30
0
41
1
10
140.407135394115
20
19.9103923491325
30
0
41
1
10
140.462141776298
20
19.8617364477849
30
0
41
1
10
140.501976338357
20
19.8329992795138
30
0
41
1
10
140.555859099475
20
19.8018608443586
30
0
41
1
10
140.566868223864
20
19.7958624214811
30
0
41
1
10
140.589068780188
20
19.7844792471686
30
0
41
1
10
140.622707232192
20
19.7682841677939
30
0
41
1
10
140.680425096319
20
19.7456013822679
30
0
41
1
10
140.728338470674
20
19.731986435981
30
0
41
1
10
140.764935049315
20
19.7234989277659
30
0
41
1
10
140.777244359508
20
19.7209575439481
30
0
41
1
10
140.802087887101
20
19.7164607851326
30
0
41
1
10
140.814619880645
20
19.7145077823316
30
0
41
1
10
140.877245552367
20
19.7063045604713
30
0
41
1
10
140.927709547859
20
19.7046026723519
30
0
41
1
10
140.978537315727
20
19.7077656763774
30
0
0
SPLINE
5
210
100
AcDbEntity
8
1
62
256
6
ByLayer
370
18
48
1
60
0
100
AcDbSpline
70
4
71
1
72
4
73
2
40
0
40
0
40
1
40
1
41
1
10
140.020153650433
20
-26.4188879083909
30
0
41
1
10
140.052594208978
20
-26.6272334456535
30
0
0
SPLINE
5
211
100
AcDbEntity
8
1
62
256
6
ByLayer
370
18
48
1
60
0
100
AcDbSpline
70
4
71
3
72
8
73
4
40
0
40
0
40
0
40
0
40
1
40
1
40
1
40
1
41
1
10
145.925903451176
20
-1.91247167511523
30
0
41
1
10
145.928876960974
20
-1.91774942328101
30
0
41
1
10
145.931849755936
20
-1.92302881862878
30
0
41
1
10
145.934821871023
20
-1.92830977755651
30
0
0
SPLINE
5
212
100
AcDbEntity
8
1
62
256
6
ByLayer
370
18
48
1
60
0
100
AcDbSpline
70
4
71
3
72
8
73
4
40
0
40
0
40
0
40
0
40
1
40
1
40
1
40
1
41
1
10
145.335963056505
20
-1.87592011012592
30
0
41
1
10
145.339816522063
20
-1.8712362700706
30
0
41
1
10
145.34367038845
20
-1.86655408813775
30
0
41
1
10
145.347524675726
20
-1.86187365274307
30
0
0
SPLINE
5
213
100
AcDbEntity
8
1
62
256
6
ByLayer
370
18
48
1
60
0
100
AcDbSpline
70
4
71
3
72
38
73
34
40
0
40
0
40
0
40
0
40
0.0625000000000015
40
0.0625000000000015
40
0.0937500000000023
40
0.0937500000000023
40
0.125000000000003
40
0.125000000000003
40
0.187500000000003
40
0.187500000000003
40
0.250000000000003
40
0.250000000000003
40
0.375000000000003
40
0.375000000000003
40
0.500000000000003
40
0.500000000000003
40
0.562500000000003
40
0.562500000000003
40
0.625000000000003
40
0.625000000000003
40
0.687500000000003
40
0.687500000000003
40
0.750000000000003
40
0.750000000000003
40
0.812500000000003
40
0.812500000000003
40
0.875000000000003
40
0.875000000000003
40
0.906250000000003
40
0.906250000000003
40
0.937500000000002
40
0.937500000000002
40
1
40
1
40
1
40
1
41
1
10
145.347524675726
20
-1.86187365274307
30
0
41
1
10
145.354623042394
20
-1.85325378498996
30
0
41
1
10
145.363423114346
20
-1.84554300458089
30
0
41
1
10
145.378319426654
20
-1.83492214751391
30
0
41
1
10
145.383592142606
20
-1.83153787759383
30
0
41
1
10
145.394488057148
20
-1.82515752643982
30
0
41
1
10
145.400128328089
20
-1.82214809535355
30
0
41
1
10
145.417549981367
20
-1.81360335185707
30
0
41
1
10
145.429785080756
20
-1.8085734897299
30
0
41
1
10
145.454950880626
20
-1.79975815000779
30
0
41
1
10
145.467965105956
20
-1.79594739923147
30
0
41
1
10
145.507613231061
20
-1.78628806880278
30
0
41
1
10
145.535007734669
20
-1.78215114494387
30
0
41
1
10
145.59041079087
20
-1.77827535983951
30
0
41
1
10
145.618251147855
20
-1.77854089002213
30
0
41
1
10
145.659984865523
20
-1.782190586019
30
0
41
1
10
145.673797588999
20
-1.7839437619281
30
0
41
1
10
145.701226024958
20
-1.78851764819802
30
0
41
1
10
145.71487590551
20
-1.79134731324268
30
0
41
1
10
145.741783166493
20
-1.79805758900935
30
0
41
1
10
145.755031363891
20
-1.80193187848735
30
0
41
1
10
145.781096598978
20
-1.81074825324691
30
0
41
1
10
145.793925376479
20
-1.81569843633321
30
0
41
1
10
145.818810366406
20
-1.82661851531805
30
0
41
1
10
145.830935313566
20
-1.83261506428539
30
0
41
1
10
145.854224070966
20
-1.84568926546117
30
0
41
1
10
145.86535681629
20
-1.85274238109037
30
0
41
1
10
145.881046170425
20
-1.86420036338078
30
0
41
1
10
145.886078055817
20
-1.86814662877612
30
0
41
1
10
145.895690060415
20
-1.87632029402556
30
0
41
1
10
145.900287418556
20
-1.88056545795985
30
0
41
1
10
145.913114779508
20
-1.89362924751066
30
0
41
1
10
145.920430099623
20
-1.90275690264807
30
0
41
1
10
145.925903451176
20
-1.91247167511523
30
0
0
SPLINE
5
214
100
AcDbEntity
8
1
62
256
6
ByLayer
370
18
48
1
60
0
100
AcDbSpline
70
4
71
3
72
8
73
4
40
0
40
0
40
0
40
0
40
1
40
1
40
1
40
1
41
1
10
146.74877336265
20
35.1154900962537
30
0
41
1
10
146.755106828405
20
35.1165510763363
30
0
41
1
10
146.761439020433
20
35.1176125569996
30
0
41
1
10
146.767770000775
20
35.1186745129729
30
0
0
SPLINE
5
215
100
AcDbEntity
8
1
62
256
6
ByLayer
370
18
48
1
60
0
100
AcDbSpline
70
4
71
3
72
22
73
18
40
0
40
0
40
0
40
0
40
0.0624999999999993
40
0.0624999999999993
40
0.124999999999999
40
0.124999999999999
40
0.187499999999998
40
0.187499999999998
40
0.249999999999997
40
0.249999999999997
40
0.374999999999998
40
0.374999999999998
40
0.499999999999999
40
0.499999999999999
40
0.749999999999999
40
0.749999999999999
40
1
40
1
40
1
40
1
41
1
10
146.767770000775
20
35.1186745129729
30
0
41
1
10
146.77427199685
20
35.1175331337573
30
0
41
1
10
146.780948300487
20
35.1173308209061
30
0
41
1
10
146.794680184542
20
35.1189854053738
30
0
41
1
10
146.801814117259
20
35.1209035599046
30
0
41
1
10
146.815581273983
20
35.1266508916949
30
0
41
1
10
146.822391300664
20
35.1305298081616
30
0
41
1
10
146.835329259144
20
35.1397564301083
30
0
41
1
10
146.841405064967
20
35.1450349609812
30
0
41
1
10
146.858680791574
20
35.1624528793932
30
0
41
1
10
146.868699575101
20
35.1759435749807
30
0
41
1
10
146.886059541844
20
35.2042410291138
30
0
41
1
10
146.893556418267
20
35.2193171677109
30
0
41
1
10
146.912904922103
20
35.2653205418857
30
0
41
1
10
146.921912068002
20
35.297417371584
30
0
41
1
10
146.93426274427
20
35.3618812135681
30
0
41
1
10
146.937590073863
20
35.3943816777588
30
0
41
1
10
146.938344449131
20
35.4266843894364
30
0
0
SPLINE
5
216
100
AcDbEntity
8
1
62
256
6
ByLayer
370
18
48
1
60
0
100
AcDbSpline
70
4
71
3
72
18
73
14
40
0
40
0
40
0
40
0
40
0.25
40
0.25
40
0.5
40
0.5
40
0.625
40
0.625
40
0.75
40
0.75
40
0.875
40
0.875
40
1
40
1
40
1
40
1
41
1
10
146.271089921359
20
34.3483730481032
30
0
41
1
10
146.300304839546
20
34.3645167341048
30
0
41
1
10
146.328297068042
20
34.3826578303598
30
0
41
1
10
146.380750967576
20
34.4229047739315
30
0
41
1
10
146.405248062848
20
34.4449791961367
30
0
41
1
10
146.436858585024
20
34.4812824339823
30
0
41
1
10
146.446456878131
20
34.4938527110062
30
0
41
1
10
146.462717518495
20
34.5198352199119
30
0
41
1
10
146.469517471688
20
34.5335161410638
30
0
41
1
10
146.477724131648
20
34.5606891221972
30
0
41
1
10
146.479096145166
20
34.5743616743947
30
0
41
1
10
146.473509621836
20
34.5985819577127
30
0
41
1
10
146.466568679679
20
34.6086120058989
30
0
41
1
10
146.456596943745
20
34.615805783656
30
0
0
SPLINE
5
217
100
AcDbEntity
8
1
62
256
6
ByLayer
370
18
48
1
60
0
100
AcDbSpline
70
4
71
3
72
8
73
4
40
0
40
0
40
0
40
0
40
1
40
1
40
1
40
1
41
1
10
146.456596943745
20
34.615805783656
30
0
41
1
10
146.453812603687
20
34.6204753473379
30
0
41
1
10
146.451027613486
20
34.6251462938082
30
0
41
1
10
146.448241939692
20
34.6298186945418
30
0
0
SPLINE
5
218
100
AcDbEntity
8
1
62
256
6
ByLayer
370
18
48
1
60
0
100
AcDbSpline
70
4
71
3
72
8
73
4
40
0
40
0
40
0
40
0
40
1
40
1
40
1
40
1
41
1
10
146.448241939692
20
34.6298186945418
30
0
41
1
10
146.44537281408
20
34.6346310687123
30
0
41
1
10
146.443117991568
20
34.6397527523595
30
0
41
1
10
146.441358983799
20
34.6451291685853
30
0
0
SPLINE
5
219
100
AcDbEntity
8
1
62
256
6
ByLayer
370
18
48
1
60
0
100
AcDbSpline
70
4
71
3
72
22
73
18
40
0
40
0
40
0
40
0
40
0.0582863309710094
40
0.0582863309710094
40
0.192816855118008
40
0.192816855118008
40
0.327347379265007
40
0.327347379265007
40
0.461877903412006
40
0.461877903412006
40
0.596408427559004
40
0.596408427559004
40
0.730938951706003
40
0.730938951706003
40
0.865469475853002
40
0.865469475853002
40
1
40
1
40
1
40
1
41
1
10
146.437384125648
20
34.6624348958529
30
0
41
1
10
146.436060080325
20
34.6714758354416
30
0
41
1
10
146.435706640421
20
34.680955390409
30
0
41
1
10
146.43698216852
20
34.7129506360392
30
0
41
1
10
146.441715619613
20
34.7363737136285
30
0
41
1
10
146.455852761475
20
34.7836570936618
30
0
41
1
10
146.465324423115
20
34.8076064261642
30
0
41
1
10
146.487803003743
20
34.8553608922722
30
0
41
1
10
146.500739427217
20
34.8790201585399
30
0
41
1
10
146.529651897866
20
34.9257461045762
30
0
41
1
10
146.545489483446
20
34.9485777896923
30
0
41
1
10
146.579754326543
20
34.9925359867227
30
0
41
1
10
146.598152034347
20
35.0136298415064
30
0
41
1
10
146.637330580429
20
35.0525328491304
30
0
41
1
10
146.658158606688
20
35.0704529001134
30
0
41
1
10
146.702293531708
20
35.0999408772762
30
0
41
1
10
146.725457290411
20
35.1115841955663
30
0
41
1
10
146.74877336265
20
35.1154900962537
30
0
0
SPLINE
5
21A
100
AcDbEntity
8
1
62
256
6
ByLayer
370
18
48
1
60
0
100
AcDbSpline
70
4
71
3
72
8
73
4
40
0
40
0
40
0
40
0
40
1
40
1
40
1
40
1
41
1
10
145.925903451176
20
34.3411829882486
30
0
41
1
10
145.928876960974
20
34.3366143826191
30
0
41
1
10
145.931849755936
20
34.3320472139879
30
0
41
1
10
145.934821871023
20
34.3274814117163
30
0
0
SPLINE
5
21B
100
AcDbEntity
8
1
62
256
6
ByLayer
370
18
48
1
60
0
100
AcDbSpline
70
4
71
3
72
22
73
18
40
0
40
0
40
0
40
0
40
0.0624999999999994
40
0.0624999999999994
40
0.124999999999999
40
0.124999999999999
40
0.187499999999998
40
0.187499999999998
40
0.249999999999998
40
0.249999999999998
40
0.374999999999999
40
0.374999999999999
40
0.5
40
0.5
40
0.75
40
0.75
40
1
40
1
40
1
40
1
41
1
10
145.934821871023
20
34.3274814117163
30
0
41
1
10
145.935766816993
20
34.3216545093401
30
0
41
1
10
145.937652840708
20
34.3161656428942
30
0
41
1
10
145.943485919414
20
34.3059318698311
30
0
41
1
10
145.94751508154
20
34.3011550034491
30
0
41
1
10
145.957213495447
20
34.2929809869038
30
0
41
1
10
145.962984432955
20
34.2894666204195
30
0
41
1
10
145.975683280234
20
34.2837402810761
30
0
41
1
10
145.982529954591
20
34.2815350388008
30
0
41
1
10
146.004231731868
20
34.2765006793251
30
0
41
1
10
146.019958794642
20
34.275320318039
30
0
41
1
10
146.051709479496
20
34.2758125067064
30
0
41
1
10
146.068033314338
20
34.2774972768501
30
0
41
1
10
146.116586237271
20
34.2855150494119
30
0
41
1
10
146.148854947594
20
34.2947739372045
30
0
41
1
10
146.211432295694
20
34.3180866352426
30
0
41
1
10
146.241861123215
20
34.3322216922644
30
0
41
1
10
146.271089921359
20
34.3483730481032
30
0
0
SPLINE
5
21C
100
AcDbEntity
8
1
62
256
6
ByLayer
370
18
48
1
60
0
100
AcDbSpline
70
4
71
3
72
22
73
18
40
0
40
0
40
0
40
0
40
0.0624999999999994
40
0.0624999999999994
40
0.124999999999999
40
0.124999999999999
40
0.187499999999998
40
0.187499999999998
40
0.249999999999998
40
0.249999999999998
40
0.374999999999999
40
0.374999999999999
40
0.5
40
0.5
40
0.75
40
0.75
40
1
40
1
40
1
40
1
41
1
10
145.934821871023
20
-1.92830977755651
30
0
41
1
10
145.935766816993
20
-1.93426799098046
30
0
41
1
10
145.937652840708
20
-1.94015296773801
30
0
41
1
10
145.943485919414
20
-1.95176583416529
30
0
41
1
10
145.94751508154
20
-1.95754793918286
30
0
41
1
10
145.957213495447
20
-1.96824767162403
30
0
41
1
10
145.962984432955
20
-1.97330897635663
30
0
41
1
10
145.975683280234
20
-1.98254771359618
30
0
41
1
10
145.982529954591
20
-1.98669506986835
30
0
41
1
10
146.004231731868
20
-1.99805790580246
30
0
41
1
10
146.019958794642
20
-2.00404994497714
30
0
41
1
10
146.051709479496
20
-2.01378953623703
30
0
41
1
10
146.068033314338
20
-2.01761803583386
30
0
41
1
10
146.116586237271
20
-2.02679997190273
30
0
41
1
10
146.148854947594
20
-2.03004103829164
30
0
41
1
10
146.211432295694
20
-2.03315716340214
30
0
41
1
10
146.241861123215
20
-2.03298891376099
30
0
41
1
10
146.271089921359
20
-2.03139363772758
30
0
0
SPLINE
5
21D
100
AcDbEntity
8
1
62
256
6
ByLayer
370
18
48
1
60
0
100
AcDbSpline
70
4
71
3
72
18
73
14
40
0
40
0
40
0
40
0
40
0.25
40
0.25
40
0.5
40
0.5
40
0.625
40
0.625
40
0.75
40
0.75
40
0.875
40
0.875
40
1
40
1
40
1
40
1
41
1
10
144.986945145783
20
34.3483730481032
30
0
41
1
10
145.015406046934
20
34.3322293621015
30
0
41
1
10
145.045276696764
20
34.3181088721217
30
0
41
1
10
145.107402193709
20
34.2947878804345
30
0
41
1
10
145.139633856859
20
34.2855436675297
30
0
41
1
10
145.18911419143
20
34.2775019436135
30
0
41
1
10
145.205700932252
20
34.2758289216071
30
0
41
1
10
145.238599794691
20
34.2753109369497
30
0
41
1
10
145.255239015599
20
34.2764859645776
30
0
41
1
10
145.286337086117
20
34.2831536781264
30
0
41
1
10
145.300971496872
20
34.2887632482224
30
0
41
1
10
145.324068109211
20
34.3052326231366
30
0
41
1
10
145.33200661886
20
34.3158222217239
30
0
41
1
10
145.335963056505
20
34.3274814117163
30
0
0
SPLINE
5
21E
100
AcDbEntity
8
1
62
256
6
ByLayer
370
18
48
1
60
0
100
AcDbSpline
70
4
71
3
72
8
73
4
40
0
40
0
40
0
40
0
40
1
40
1
40
1
40
1
41
1
10
145.335963056505
20
34.3274814117163
30
0
41
1
10
145.339816522063
20
34.3320472139879
30
0
41
1
10
145.34367038845
20
34.3366143826191
30
0
41
1
10
145.347524675726
20
34.3411829882486
30
0
0
SPLINE
5
21F
100
AcDbEntity
8
1
62
256
6
ByLayer
370
18
48
1
60
0
100
AcDbSpline
70
4
71
3
72
24
73
20
40
0
40
0
40
0
40
0
40
0.0624999999999993
40
0.0624999999999993
40
0.124999999999999
40
0.124999999999999
40
0.249999999999999
40
0.249999999999999
40
0.374999999999999
40
0.374999999999999
40
0.499999999999999
40
0.499999999999999
40
0.624999999999999
40
0.624999999999999
40
0.749999999999999
40
0.749999999999999
40
0.875
40
0.875
40
1
40
1
40
1
40
1
41
1
10
145.347524675726
20
34.3411829882486
30
0
41
1
10
145.354623042394
20
34.3495969012761
30
0
41
1
10
145.363423114346
20
34.3568998805459
30
0
41
1
10
145.38328486409
20
34.3700843743472
30
0
41
1
10
145.394321110329
20
34.3759016482213
30
0
41
1
10
145.429164416886
20
34.3913453588561
30
0
41
1
10
145.454749064255
20
34.3990774160018
30
0
41
1
10
145.507613231061
20
34.4110302790278
30
0
41
1
10
145.535007734669
20
34.4152397291454
30
0
41
1
10
145.59041079087
20
34.4208014461789
30
0
41
1
10
145.618251147855
20
34.4221378911393
30
0
41
1
10
145.673896104746
20
34.42213894981
30
0
41
1
10
145.701422275018
20
34.4207980997936
30
0
41
1
10
145.755236796985
20
34.4152426638144
30
0
41
1
10
145.781482881515
20
34.4110357053588
30
0
41
1
10
145.83125286137
20
34.3990956092558
30
0
41
1
10
145.854897246866
20
34.3913807206445
30
0
41
1
10
145.89673552456
20
34.3707569766402
30
0
41
1
10
145.914956748069
20
34.3580018900938
30
0
41
1
10
145.925903451176
20
34.3411829882486
30
0
0
SPLINE
5
220
100
AcDbEntity
8
1
62
256
6
ByLayer
370
18
48
1
60
0
100
AcDbSpline
70
4
71
3
72
22
73
18
40
0
40
0
40
0
40
0
40
0.0625000000000005
40
0.0625000000000005
40
0.125000000000001
40
0.125000000000001
40
0.187500000000002
40
0.187500000000002
40
0.250000000000002
40
0.250000000000002
40
0.375000000000002
40
0.375000000000002
40
0.500000000000002
40
0.500000000000002
40
0.750000000000001
40
0.750000000000001
40
1
40
1
40
1
40
1
41
1
10
144.82765464117
20
34.615805783656
30
0
41
1
10
144.821742950972
20
34.6122105561372
30
0
41
1
10
144.816603593377
20
34.6079971972332
30
0
41
1
10
144.808018471193
20
34.5982188331014
30
0
41
1
10
144.80457331681
20
34.5925702786531
30
0
41
1
10
144.799876728704
20
34.5805791604235
30
0
41
1
10
144.798541700196
20
34.5740957051297
30
0
41
1
10
144.797763390299
20
34.5608004413241
30
0
41
1
10
144.798292720136
20
34.5540592480308
30
0
41
1
10
144.802056885144
20
34.5336418530207
30
0
41
1
10
144.807415773257
20
34.5200449545338
30
0
41
1
10
144.821232226148
20
34.4940051940975
30
0
41
1
10
144.829829625799
20
34.4813195747364
30
0
41
1
10
144.858467300676
20
34.4450763557983
30
0
41
1
10
144.881502152555
20
34.4229354126348
30
0
41
1
10
144.931434334301
20
34.3826896408272
30
0
41
1
10
144.958470722908
20
34.364524403942
30
0
41
1
10
144.986945145783
20
34.3483730481032
30
0
0
SPLINE
5
221
100
AcDbEntity
8
1
62
256
6
ByLayer
370
18
48
1
60
0
100
AcDbSpline
70
4
71
3
72
8
73
4
40
0
40
0
40
0
40
0
40
1
40
1
40
1
40
1
41
1
10
144.838667385973
20
34.6298186945418
30
0
41
1
10
144.834996086783
20
34.6251462938082
30
0
41
1
10
144.831325178044
20
34.6204753473379
30
0
41
1
10
144.82765464117
20
34.615805783656
30
0
0
SPLINE
5
222
100
AcDbEntity
8
1
62
256
6
ByLayer
370
18
48
1
60
0
100
AcDbSpline
70
4
71
3
72
22
73
18
40
0
40
0
40
0
40
0
40
0.0625000000000009
40
0.0625000000000009
40
0.125000000000002
40
0.125000000000002
40
0.187500000000003
40
0.187500000000003
40
0.250000000000004
40
0.250000000000004
40
0.375000000000003
40
0.375000000000003
40
0.500000000000002
40
0.500000000000002
40
0.750000000000001
40
0.750000000000001
40
1
40
1
40
1
40
1
41
1
10
144.539968883681
20
35.1186745129729
30
0
41
1
10
144.532653373427
20
35.1175331337573
30
0
41
1
10
144.525219339797
20
35.1173308209061
30
0
41
1
10
144.510093551458
20
35.1189854053738
30
0
41
1
10
144.502319564763
20
35.1209035599046
30
0
41
1
10
144.487475001383
20
35.1266508916949
30
0
41
1
10
144.480211772143
20
35.1305298081616
30
0
41
1
10
144.466548935161
20
35.1397564301083
30
0
41
1
10
144.460201910893
20
35.1450349609812
30
0
41
1
10
144.442320902584
20
35.1624528793932
30
0
41
1
10
144.432183271297
20
35.1759435749806
30
0
41
1
10
144.414913991825
20
35.2042410291138
30
0
41
1
10
144.407629190214
20
35.2193171677108
30
0
41
1
10
144.389214479326
20
35.2653205418857
30
0
41
1
10
144.381220488367
20
35.2974173715839
30
0
41
1
10
144.371249433335
20
35.3618812135681
30
0
41
1
10
144.369300522713
20
35.3943816777588
30
0
41
1
10
144.370054897981
20
35.4266843894364
30
0
0
SPLINE
5
223
100
AcDbEntity
8
1
62
256
6
ByLayer
370
18
48
1
60
0
100
AcDbSpline
70
4
71
3
72
8
73
4
40
0
40
0
40
0
40
0
40
1
40
1
40
1
40
1
41
1
10
144.560820033479
20
35.1154900962537
30
0
41
1
10
144.553868729177
20
35.1165510763363
30
0
41
1
10
144.546918360917
20
35.1176125569996
30
0
41
1
10
144.539968883681
20
35.1186745129729
30
0
0
SPLINE
5
224
100
AcDbEntity
8
1
62
256
6
ByLayer
370
18
48
1
60
0
100
AcDbSpline
70
4
71
3
72
24
73
20
40
0
40
0
40
0
40
0
40
0.0624999999999998
40
0.0624999999999998
40
0.125
40
0.125
40
0.25
40
0.25
40
0.374999999999999
40
0.374999999999999
40
0.499999999999999
40
0.499999999999999
40
0.624999999999999
40
0.624999999999999
40
0.749999999999999
40
0.749999999999999
40
0.875
40
0.875
40
1
40
1
40
1
40
1
41
1
10
144.838667385973
20
34.6298186945418
30
0
41
1
10
144.845467956697
20
34.6384736665281
30
0
41
1
10
144.850245495903
20
34.6481288070872
30
0
41
1
10
144.857144296985
20
34.6688062863699
30
0
41
1
10
144.859187833851
20
34.6797587185199
30
0
41
1
10
144.862163757577
20
34.7130852775103
30
0
41
1
10
144.860062748687
20
34.7366272635505
30
0
41
1
10
144.850676149921
20
34.7836406702598
30
0
41
1
10
144.84339077962
20
34.807253700104
30
0
41
1
10
144.824505051569
20
34.854890574917
30
0
41
1
10
144.812953056158
20
34.878685096594
30
0
41
1
10
144.786227166684
20
34.9254671835974
30
0
41
1
10
144.771133398433
20
34.948330311825
30
0
41
1
10
144.737640312908
20
34.9923502100723
30
0
41
1
10
144.719270857319
20
35.0134732992089
30
0
41
1
10
144.679375890797
20
35.0524337618884
30
0
41
1
10
144.657809420612
20
35.0703805340032
30
0
41
1
10
144.611257041031
20
35.0999163543987
30
0
41
1
10
144.586438641939
20
35.1115799188055
30
0
41
1
10
144.560820033479
20
35.1154900962537
30
0
0
SPLINE
5
225
100
AcDbEntity
8
1
62
256
6
ByLayer
370
18
48
1
60
0
100
AcDbSpline
70
4
71
3
72
18
73
14
40
0
40
0
40
0
40
0
40
0.25
40
0.25
40
0.5
40
0.5
40
0.625
40
0.625
40
0.75
40
0.75
40
0.875
40
0.875
40
1
40
1
40
1
40
1
41
1
10
146.938344449131
20
35.4266843894364
30
0
41
1
10
146.939098466167
20
35.4589717614397
30
0
41
1
10
146.937284994808
20
35.4910336672789
30
0
41
1
10
146.927907749331
20
35.5536966551347
30
0
41
1
10
146.920398873745
20
35.5843214281423
30
0
41
1
10
146.903096442121
20
35.6269220502313
30
0
41
1
10
146.89633534661
20
35.6404663839684
30
0
41
1
10
146.880269183732
20
35.6652081546391
30
0
41
1
10
146.870781016838
20
35.6766346335603
30
0
41
1
10
146.848769117971
20
35.6944359548529
30
0
41
1
10
146.836044600929
20
35.7008452930393
30
0
41
1
10
146.808627652235
20
35.7047034714067
30
0
41
1
10
146.794455223796
20
35.7019702680257
30
0
41
1
10
146.781236658162
20
35.6953232568523
30
0
0
SPLINE
5
226
100
AcDbEntity
8
1
62
256
6
ByLayer
370
18
48
1
60
0
100
AcDbSpline
70
4
71
3
72
8
73
4
40
0
40
0
40
0
40
0
40
1
40
1
40
1
40
1
41
1
10
146.484407208919
20
36.178432910552
30
0
41
1
10
146.487455821644
20
36.1850196812424
30
0
41
1
10
146.490503707039
20
36.1916060333614
30
0
41
1
10
146.493550900673
20
36.1981919861692
30
0
0
SPLINE
5
227
100
AcDbEntity
8
1
62
256
6
ByLayer
370
18
48
1
60
0
100
AcDbSpline
70
4
71
3
72
22
73
18
40
0
40
0
40
0
40
0
40
0.0624999999999992
40
0.0624999999999992
40
0.124999999999998
40
0.124999999999998
40
0.187499999999998
40
0.187499999999998
40
0.249999999999997
40
0.249999999999997
40
0.374999999999997
40
0.374999999999997
40
0.499999999999998
40
0.499999999999998
40
0.749999999999999
40
0.749999999999999
40
1
40
1
40
1
40
1
41
1
10
146.493550900673
20
36.1981919861692
30
0
41
1
10
146.498753310685
20
36.2039678049717
30
0
41
1
10
146.503194512935
20
36.2103275532571
30
0
41
1
10
146.510407001448
20
36.2243259041868
30
0
41
1
10
146.513171388249
20
36.2320673915641
30
0
41
1
10
146.516612285774
20
36.2479189700056
30
0
41
1
10
146.517355435616
20
36.256222080614
30
0
41
1
10
146.517055348119
20
36.2728327393884
30
0
41
1
10
146.516042940887
20
36.2810590923917
30
0
41
1
10
146.510955004555
20
36.305546253157
30
0
41
1
10
146.504897334175
20
36.3212914684172
30
0
41
1
10
146.489932350843
20
36.3508622389122
30
0
41
1
10
146.480875833658
20
36.3649593564578
30
0
41
1
10
146.45110467034
20
36.4046873407458
30
0
41
1
10
146.427616393372
20
36.4282222813937
30
0
41
1
10
146.377095231452
20
36.4702787974782
30
0
41
1
10
146.349928624204
20
36.4888443749308
30
0
41
1
10
146.321454201328
20
36.5049957307696
30
0
0
SPLINE
5
228
100
AcDbEntity
8
1
62
256
6
ByLayer
370
18
48
1
60
0
100
AcDbSpline
70
4
71
3
72
8
73
4
40
0
40
0
40
0
40
0
40
1
40
1
40
1
40
1
41
1
10
146.781236658162
20
35.6953232568523
30
0
41
1
10
146.774910524166
20
35.6944688236997
30
0
41
1
10
146.76858317925
20
35.6936148987144
30
0
41
1
10
146.762254561413
20
35.6927615088401
30
0
0
SPLINE
5
229
100
AcDbEntity
8
1
62
256
6
ByLayer
370
18
48
1
60
0
100
AcDbSpline
70
4
71
3
72
24
73
20
40
0
40
0
40
0
40
0
40
0.062499999999999
40
0.062499999999999
40
0.124999999999998
40
0.124999999999998
40
0.249999999999998
40
0.249999999999998
40
0.374999999999998
40
0.374999999999998
40
0.499999999999998
40
0.499999999999998
40
0.624999999999999
40
0.624999999999999
40
0.749999999999999
40
0.749999999999999
40
0.875
40
0.875
40
1
40
1
40
1
40
1
41
1
10
146.762254561413
20
35.6927615088401
30
0
41
1
10
146.750599267788
20
35.6911898371391
30
0
41
1
10
146.739167960371
20
35.6918362796096
30
0
41
1
10
146.716560697222
20
35.6960781447989
30
0
41
1
10
146.705459554131
20
35.6997081650152
30
0
41
1
10
146.673260946527
20
35.7137228972074
30
0
41
1
10
146.653138070307
20
35.7271747907232
30
0
41
1
10
146.615580144535
20
35.7589110617376
30
0
41
1
10
146.598098930325
20
35.7772932160188
30
0
41
1
10
146.565765266848
20
35.8176695888103
30
0
41
1
10
146.551009299391
20
35.8395375073962
30
0
41
1
10
146.52427692872
20
35.8862620394555
30
0
41
1
10
146.512439906525
20
35.9108909267211
30
0
41
1
10
146.49230008358
20
35.9622188822634
30
0
41
1
10
146.484010340462
20
35.9888766200694
30
0
41
1
10
146.472250970794
20
36.0433103934443
30
0
41
1
10
146.468707650418
20
36.0711802821519
30
0
41
1
10
146.469255015438
20
36.1266699482067
30
0
41
1
10
146.473184021291
20
36.1541843194709
30
0
41
1
10
146.484407208919
20
36.178432910552
30
0
0
SPLINE
5
22A
100
AcDbEntity
8
1
62
256
6
ByLayer
370
18
48
1
60
0
100
AcDbSpline
70
4
71
3
72
20
73
16
40
0
40
0
40
0
40
0
40
0.250000000000001
40
0.250000000000001
40
0.500000000000002
40
0.500000000000002
40
0.625000000000002
40
0.625000000000002
40
0.750000000000003
40
0.750000000000003
40
0.812500000000002
40
0.812500000000002
40
0.875000000000001
40
0.875000000000001
40
1
40
1
40
1
40
1
41
1
10
144.370054897981
20
35.4266843894364
30
0
41
1
10
144.370809182097
20
35.4589831979225
30
0
41
1
10
144.374261502507
20
35.4910563509899
30
0
41
1
10
144.387205469821
20
35.5537405583177
30
0
41
1
10
144.396635067958
20
35.5843749529392
30
0
41
1
10
144.417160193214
20
35.6269858198698
30
0
41
1
10
144.42510860608
20
35.6406413018482
30
0
41
1
10
144.443702204713
20
35.6655013315772
30
0
41
1
10
144.45421587962
20
35.6766486870817
30
0
41
1
10
144.472959407631
20
35.6901059778586
30
0
41
1
10
144.479536249974
20
35.693897501099
30
0
41
1
10
144.493479942493
20
35.6997760306114
30
0
41
1
10
144.500926831364
20
35.7018480187104
30
0
41
1
10
144.523354227893
20
35.7046697507933
30
0
41
1
10
144.539018272485
20
35.7019647637345
30
0
41
1
10
144.553435541068
20
35.6953232568523
30
0
0
SPLINE
5
22B
100
AcDbEntity
8
1
62
256
6
ByLayer
370
18
48
1
60
0
100
AcDbSpline
70
4
71
3
72
24
73
20
40
0
40
0
40
0
40
0
40
0.0625000000000005
40
0.0625000000000005
40
0.125000000000001
40
0.125000000000001
40
0.250000000000001
40
0.250000000000001
40
0.5
40
0.5
40
0.625
40
0.625
40
0.75
40
0.75
40
0.875
40
0.875
40
0.9375
40
0.9375
40
1
40
1
40
1
40
1
41
1
10
144.574301232243
20
35.6927615088401
30
0
41
1
10
144.587125535325
20
35.6911882065248
30
0
41
1
10
144.599746620821
20
35.6918375034941
30
0
41
1
10
144.624749749528
20
35.696090133654
30
0
41
1
10
144.637048683419
20
35.6997279114721
30
0
41
1
10
144.672742608887
20
35.7137706882576
30
0
41
1
10
144.695097060227
20
35.7272579299138
30
0
41
1
10
144.757568287491
20
35.7750457146028
30
0
41
1
10
144.79322251377
20
35.8165593906885
30
0
41
1
10
144.836573141415
20
35.8867817163658
30
0
41
1
10
144.849081183429
20
35.9111859090499
30
0
41
1
10
144.870137700167
20
35.9620062926499
30
0
41
1
10
144.878767209157
20
35.9887083744814
30
0
41
1
10
144.890581650036
20
36.0430929526161
30
0
41
1
10
144.89387753166
20
36.0708084249149
30
0
41
1
10
144.892651038028
20
36.1124619445635
30
0
41
1
10
144.891204256725
20
36.1261560473364
30
0
41
1
10
144.885459488569
20
36.153041511852
30
0
41
1
10
144.881134125569
20
36.1662551073935
30
0
41
1
10
144.8748326552
20
36.178432910552
30
0
0
SPLINE
5
22C
100
AcDbEntity
8
1
62
256
6
ByLayer
370
18
48
1
60
0
100
AcDbSpline
70
4
71
3
72
8
73
4
40
0
40
0
40
0
40
0
40
1
40
1
40
1
40
1
41
1
10
144.553435541068
20
35.6953232568523
30
0
41
1
10
144.560389864649
20
35.6944688236997
30
0
41
1
10
144.567345080022
20
35.6936148987144
30
0
41
1
10
144.574301232243
20
35.6927615088401
30
0
0
SPLINE
5
22D
100
AcDbEntity
8
1
62
256
6
ByLayer
370
18
48
1
60
0
100
AcDbSpline
70
4
71
3
72
18
73
14
40
0
40
0
40
0
40
0
40
0.25
40
0.25
40
0.5
40
0.5
40
0.625
40
0.625
40
0.75
40
0.75
40
0.875
40
0.875
40
1
40
1
40
1
40
1
41
1
10
145.037309425753
20
36.5049957307696
30
0
41
1
10
145.008094507567
20
36.488852044768
30
0
41
1
10
144.980232179019
20
36.4703115877218
30
0
41
1
10
144.928366983354
20
36.4282547493439
30
0
41
1
10
144.904321272661
20
36.404792602934
30
0
41
1
10
144.87384551203
20
36.3650006857428
30
0
41
1
10
144.86470192333
20
36.3510324781326
30
0
41
1
10
144.849585401361
20
36.3215325234421
30
0
41
1
10
144.84348764981
20
36.3056927730846
30
0
41
1
10
144.837040013233
20
36.2731118993669
30
0
41
1
10
144.836743760103
20
36.2561320593391
30
0
41
1
10
144.844862657385
20
36.2241263159486
30
0
41
1
10
144.853217646273
20
36.2097489618026
30
0
41
1
10
144.864608598097
20
36.1981919861692
30
0
0
SPLINE
5
22E
100
AcDbEntity
8
1
62
256
6
ByLayer
370
18
48
1
60
0
100
AcDbSpline
70
4
71
3
72
8
73
4
40
0
40
0
40
0
40
0
40
1
40
1
40
1
40
1
41
1
10
144.864608598097
20
36.1981919861692
30
0
41
1
10
144.868016281395
20
36.1916060333614
30
0
41
1
10
144.871424294941
20
36.1850196812424
30
0
41
1
10
144.8748326552
20
36.178432910552
30
0
0
SPLINE
5
22F
100
AcDbEntity
8
1
62
256
6
ByLayer
370
18
48
1
60
0
100
AcDbSpline
70
4
71
3
72
18
73
14
40
0
40
0
40
0
40
0
40
0.25
40
0.25
40
0.500000000000001
40
0.500000000000001
40
0.625000000000001
40
0.625000000000001
40
0.75
40
0.75
40
0.875
40
0.875
40
1
40
1
40
1
40
1
41
1
10
146.321454201328
20
36.5049957307696
30
0
41
1
10
146.292993300178
20
36.5211394167712
30
0
41
1
10
146.263252550297
20
36.5348605459599
30
0
41
1
10
146.20171575722
20
36.5563716428409
30
0
41
1
10
146.169935478651
20
36.5642281315409
30
0
41
1
10
146.121589905624
20
36.5687811761115
30
0
41
1
10
146.105457869209
20
36.5690562675316
30
0
41
1
10
146.073703125165
20
36.5660568064042
30
0
41
1
10
146.057766105899
20
36.5627229495707
30
0
41
1
10
146.028427058763
20
36.5506473434377
30
0
41
1
10
146.014868408397
20
36.5417304855114
30
0
41
1
10
145.99430417001
20
36.5174756505246
30
0
41
1
10
145.987779707093
20
36.5025387459776
30
0
41
1
10
145.985242485338
20
36.4865163581089
30
0
0
SPLINE
5
230
100
AcDbEntity
8
1
62
256
6
ByLayer
370
18
48
1
60
0
100
AcDbSpline
70
4
71
3
72
8
73
4
40
0
40
0
40
0
40
0
40
1
40
1
40
1
40
1
41
1
10
145.397171143716
20
36.4670686168452
30
0
41
1
10
145.393574947452
20
36.4735515924315
30
0
41
1
10
145.389979129147
20
36.4800341667115
30
0
41
1
10
145.38638367082
20
36.4865163581089
30
0
0
SPLINE
5
231
100
AcDbEntity
8
1
62
256
6
ByLayer
370
18
48
1
60
0
100
AcDbSpline
70
4
71
3
72
22
73
18
40
0
40
0
40
0
40
0
40
0.0624999999999993
40
0.0624999999999993
40
0.124999999999999
40
0.124999999999999
40
0.187499999999998
40
0.187499999999998
40
0.249999999999997
40
0.249999999999997
40
0.374999999999998
40
0.374999999999998
40
0.499999999999999
40
0.499999999999999
40
0.749999999999999
40
0.749999999999999
40
1
40
1
40
1
40
1
41
1
10
145.38638367082
20
36.4865163581089
30
0
41
1
10
145.384729444664
20
36.494523851769
30
0
41
1
10
145.382145265605
20
36.5021591075961
30
0
41
1
10
145.374939553227
20
36.516612867457
30
0
41
1
10
145.370229623519
20
36.5234826667681
30
0
41
1
10
145.359275519031
20
36.5355171435253
30
0
41
1
10
145.352912702858
20
36.5408511653242
30
0
41
1
10
145.339135458184
20
36.5498928996363
30
0
41
1
10
145.331805706432
20
36.5535833016217
30
0
41
1
10
145.308780157831
20
36.5626874268526
30
0
41
1
10
145.292354312791
20
36.5660161049121
30
0
41
1
10
145.259455097495
20
36.5690549263033
30
0
41
1
10
145.242672145118
20
36.5687816543441
30
0
41
1
10
145.192985733745
20
36.5642486471322
30
0
41
1
10
145.160263598334
20
36.5563837568239
30
0
41
1
10
145.097097270058
20
36.5348818030627
30
0
41
1
10
145.066538223897
20
36.5211470866084
30
0
41
1
10
145.037309425753
20
36.5049957307696
30
0
0
SPLINE
5
232
100
AcDbEntity
8
1
62
256
6
ByLayer
370
18
48
1
60
0
100
AcDbSpline
70
4
71
3
72
8
73
4
40
0
40
0
40
0
40
0
40
1
40
1
40
1
40
1
41
1
10
145.985242485338
20
36.4865163581089
30
0
41
1
10
145.982012363019
20
36.4800341667115
30
0
41
1
10
145.978781519977
20
36.4735515924315
30
0
41
1
10
145.975549919166
20
36.4670686168452
30
0
0
SPLINE
5
233
100
AcDbEntity
8
1
62
256
6
ByLayer
370
18
48
1
60
0
100
AcDbSpline
70
4
71
3
72
24
73
20
40
0
40
0
40
0
40
0
40
0.0624999999999993
40
0.0624999999999993
40
0.124999999999999
40
0.124999999999999
40
0.249999999999999
40
0.249999999999999
40
0.374999999999999
40
0.374999999999999
40
0.499999999999999
40
0.499999999999999
40
0.624999999999999
40
0.624999999999999
40
0.75
40
0.75
40
0.875
40
0.875
40
1
40
1
40
1
40
1
41
1
10
145.975549919166
20
36.4670686168452
30
0
41
1
10
145.969598342172
20
36.4551290455259
30
0
41
1
10
145.961868159664
20
36.4445368278931
30
0
41
1
10
145.944033234881
20
36.4251211197843
30
0
41
1
10
145.933945733161
20
36.416387052135
30
0
41
1
10
145.901721972901
20
36.3928898811925
30
0
41
1
10
145.877593965642
20
36.3806795701911
30
0
41
1
10
145.827067997181
20
36.3615382151794
30
0
41
1
10
145.80055674909
20
36.3546133088546
30
0
41
1
10
145.746335317081
20
36.3454188392551
30
0
41
1
10
145.718790892204
20
36.3431725888518
30
0
41
1
10
145.663146166454
20
36.3431708195686
30
0
41
1
10
145.635323121175
20
36.3454243738511
30
0
41
1
10
145.58032831106
20
36.3546084548958
30
0
41
1
10
145.553199493746
20
36.3615292624847
30
0
41
1
10
145.501093642099
20
36.3806506978834
30
0
41
1
10
145.475995334326
20
36.3928354847215
30
0
41
1
10
145.430658492021
20
36.4242151185013
30
0
41
1
10
145.41041020983
20
36.4432021379029
30
0
41
1
10
145.397171143716
20
36.4670686168452
30
0
0
SPLINE
5
234
100
AcDbEntity
8
1
62
256
6
ByLayer
370
18
48
1
60
0
100
AcDbSpline
70
4
71
3
72
20
73
16
40
0
40
0
40
0
40
0
40
0.250000000000001
40
0.250000000000001
40
0.500000000000002
40
0.500000000000002
40
0.625000000000002
40
0.625000000000002
40
0.750000000000003
40
0.750000000000003
40
0.812500000000002
40
0.812500000000002
40
0.875000000000001
40
0.875000000000001
40
1
40
1
40
1
40
1
41
1
10
144.370054897981
20
-1.58786779111961
30
0
41
1
10
144.370809182097
20
-1.57963021238623
30
0
41
1
10
144.374261502507
20
-1.57088442633153
30
0
41
1
10
144.387205469821
20
-1.55226542421511
30
0
41
1
10
144.396635067958
20
-1.5424267335537
30
0
41
1
10
144.417160193214
20
-1.52625739702961
30
0
41
1
10
144.42510860608
20
-1.52061166974954
30
0
41
1
10
144.443702204713
20
-1.508724562738
30
0
41
1
10
144.45421587962
20
-1.50255063960077
30
0
41
1
10
144.472959407631
20
-1.49249801474923
30
0
41
1
10
144.479536249974
20
-1.48910753875413
30
0
41
1
10
144.493479942493
20
-1.48219466916814
30
0
41
1
10
144.500926831364
20
-1.47863826090975
30
0
41
1
10
144.523354227893
20
-1.4683058809739
30
0
41
1
10
144.539018272485
20
-1.46159307727717
30
0
41
1
10
144.553435541068
20
-1.45580991423509
30
0
0
SPLINE
5
235
100
AcDbEntity
8
1
62
256
6
ByLayer
370
18
48
1
60
0
100
AcDbSpline
70
4
71
3
72
18
73
14
40
0
40
0
40
0
40
0
40
0.25
40
0.25
40
0.5
40
0.5
40
0.625
40
0.625
40
0.75
40
0.75
40
0.875
40
0.875
40
1
40
1
40
1
40
1
41
1
10
146.938344449131
20
-1.81254818687935
30
0
41
1
10
146.939098466167
20
-1.80431352493866
30
0
41
1
10
146.937284994808
20
-1.79511050073828
30
0
41
1
10
146.927907749331
20
-1.77454703003193
30
0
41
1
10
146.920398873745
20
-1.76323108622395
30
0
41
1
10
146.903096442121
20
-1.74376189291027
30
0
41
1
10
146.89633534661
20
-1.73688201607402
30
0
41
1
10
146.880269183732
20
-1.72205448337795
30
0
41
1
10
146.870781016838
20
-1.7139530032662
30
0
41
1
10
146.848769117971
20
-1.69659454506609
30
0
41
1
10
146.836044600929
20
-1.68719424792607
30
0
41
1
10
146.808627652235
20
-1.66817456400761
30
0
41
1
10
146.794455223796
20
-1.65891018306573
30
0
41
1
10
146.781236658162
20
-1.65070352988619
30
0
0
SPLINE
5
236
100
AcDbEntity
8
1
62
256
6
ByLayer
370
18
48
1
60
0
100
AcDbSpline
70
4
71
3
72
8
73
4
40
0
40
0
40
0
40
0
40
1
40
1
40
1
40
1
41
1
10
146.781236658162
20
-1.65070352988619
30
0
41
1
10
146.774910524166
20
-1.64652261861599
30
0
41
1
10
146.76858317925
20
-1.64234344509759
30
0
41
1
10
146.762254561413
20
-1.638166101801
30
0
0
SPLINE
5
237
100
AcDbEntity
8
1
62
256
6
ByLayer
370
18
48
1
60
0
100
AcDbSpline
70
4
71
3
72
22
73
18
40
0
40
0
40
0
40
0
40
0.0625000000000009
40
0.0625000000000009
40
0.125000000000002
40
0.125000000000002
40
0.187500000000003
40
0.187500000000003
40
0.250000000000004
40
0.250000000000004
40
0.375000000000003
40
0.375000000000003
40
0.500000000000002
40
0.500000000000002
40
0.750000000000001
40
0.750000000000001
40
1
40
1
40
1
40
1
41
1
10
144.539968883681
20
-1.60288002771137
30
0
41
1
10
144.532653373427
20
-1.60691101423254
30
0
41
1
10
144.525219339797
20
-1.61062155113319
30
0
41
1
10
144.510093551458
20
-1.61734455538755
30
0
41
1
10
144.502319564763
20
-1.62037289652952
30
0
41
1
10
144.487475001383
20
-1.62534656677534
30
0
41
1
10
144.480211772143
20
-1.62736690184138
30
0
41
1
10
144.466548935161
20
-1.63045525879534
30
0
41
1
10
144.460201910893
20
-1.63152442540726
30
0
41
1
10
144.442320902584
20
-1.63365229813854
30
0
41
1
10
144.432183271297
20
-1.63360990859951
30
0
41
1
10
144.414913991825
20
-1.63191277149244
30
0
41
1
10
144.407629190214
20
-1.63023319767595
30
0
41
1
10
144.389214479326
20
-1.62379107836438
30
0
41
1
10
144.381220488367
20
-1.61763855207718
30
0
41
1
10
144.371249433335
20
-1.60382858612476
30
0
41
1
10
144.369300522713
20
-1.59610636533387
30
0
41
1
10
144.370054897981
20
-1.58786779111961
30
0
0
SPLINE
5
238
100
AcDbEntity
8
1
62
256
6
ByLayer
370
18
48
1
60
0
100
AcDbSpline
70
4
71
3
72
22
73
18
40
0
40
0
40
0
40
0
40
0.0624999999999993
40
0.0624999999999993
40
0.124999999999999
40
0.124999999999999
40
0.187499999999998
40
0.187499999999998
40
0.249999999999997
40
0.249999999999997
40
0.374999999999998
40
0.374999999999998
40
0.499999999999999
40
0.499999999999999
40
0.749999999999999
40
0.749999999999999
40
1
40
1
40
1
40
1
41
1
10
146.767770000775
20
-1.79777364336249
30
0
41
1
10
146.77427199685
20
-1.80301341990855
30
0
41
1
10
146.780948300487
20
-1.8079583644172
30
0
41
1
10
146.794680184542
20
-1.81720591005404
30
0
41
1
10
146.801814117259
20
-1.8215384332857
30
0
41
1
10
146.815581273983
20
-1.82901512839226
30
0
41
1
10
146.822391300664
20
-1.83226662709737
30
0
41
1
10
146.835329259144
20
-1.83768208819313
30
0
41
1
10
146.841405064967
20
-1.83983803506314
30
0
41
1
10
146.858680791574
20
-1.84504150692655
30
0
41
1
10
146.868699575101
20
-1.8467624509866
30
0
41
1
10
146.886059541844
20
-1.8480947669803
30
0
41
1
10
146.893556418267
20
-1.84770833134183
30
0
41
1
10
146.912904922103
20
-1.84456983253725
30
0
41
1
10
146.921912068002
20
-1.83990460823901
30
0
41
1
10
146.93426274427
20
-1.82804740318937
30
0
41
1
10
146.937590073863
20
-1.82078676109364
30
0
41
1
10
146.938344449131
20
-1.81254818687935
30
0
0
SPLINE
5
239
100
AcDbEntity
8
1
62
256
6
ByLayer
370
18
48
1
60
0
100
AcDbSpline
70
4
71
3
72
8
73
4
40
0
40
0
40
0
40
0
40
1
40
1
40
1
40
1
41
1
10
144.838667385973
20
-1.7431533990576
30
0
41
1
10
144.834996086783
20
-1.74787652695648
30
0
41
1
10
144.831325178044
20
-1.75260139429204
30
0
41
1
10
144.82765464117
20
-1.75732791299279
30
0
0
SPLINE
5
23A
100
AcDbEntity
8
1
62
256
6
ByLayer
370
18
48
1
60
0
100
AcDbSpline
70
4
71
3
72
22
73
18
40
0
40
0
40
0
40
0
40
0.0625000000000005
40
0.0625000000000005
40
0.125000000000001
40
0.125000000000001
40
0.187500000000002
40
0.187500000000002
40
0.250000000000002
40
0.250000000000002
40
0.375000000000002
40
0.375000000000002
40
0.500000000000002
40
0.500000000000002
40
0.750000000000001
40
0.750000000000001
40
1
40
1
40
1
40
1
41
1
10
144.82765464117
20
-1.75732791299279
30
0
41
1
10
144.821742950972
20
-1.76211255878749
30
0
41
1
10
144.816603593377
20
-1.76705502271906
30
0
41
1
10
144.808018471193
20
-1.77728946968355
30
0
41
1
10
144.80457331681
20
-1.78264180142631
30
0
41
1
10
144.799876728704
20
-1.79306354575988
30
0
41
1
10
144.798541700196
20
-1.79826651341295
30
0
41
1
10
144.797763390299
20
-1.80827209831173
30
0
41
1
10
144.798292720136
20
-1.81303292612844
30
0
41
1
10
144.802056885144
20
-1.82678129503759
30
0
41
1
10
144.807415773257
20
-1.83505841589607
30
0
41
1
10
144.821232226148
20
-1.85005006334268
30
0
41
1
10
144.829829625799
20
-1.85689705830717
30
0
41
1
10
144.858467300676
20
-1.87571563157266
30
0
41
1
10
144.881502152555
20
-1.88622134794903
30
0
41
1
10
144.931434334301
20
-1.90457122307629
30
0
41
1
10
144.958470722908
20
-1.91241014166684
30
0
41
1
10
144.986945145783
20
-1.91905343984769
30
0
0
SPLINE
5
23B
100
AcDbEntity
8
1
62
256
6
ByLayer
370
18
48
1
60
0
100
AcDbSpline
70
4
71
3
72
8
73
4
40
0
40
0
40
0
40
0
40
1
40
1
40
1
40
1
41
1
10
144.560820033479
20
-1.59398739098637
30
0
41
1
10
144.553868729177
20
-1.59694960497083
30
0
41
1
10
144.546918360917
20
-1.59991385129996
30
0
41
1
10
144.539968883681
20
-1.60288002771139
30
0
0
SPLINE
5
23C
100
AcDbEntity
8
1
62
256
6
ByLayer
370
18
48
1
60
0
100
AcDbSpline
70
4
71
3
72
24
73
20
40
0
40
0
40
0
40
0
40
0.0624999999999998
40
0.0624999999999998
40
0.125
40
0.125
40
0.25
40
0.25
40
0.374999999999999
40
0.374999999999999
40
0.499999999999999
40
0.499999999999999
40
0.624999999999999
40
0.624999999999999
40
0.749999999999999
40
0.749999999999999
40
0.875
40
0.875
40
1
40
1
40
1
40
1
41
1
10
144.838667385973
20
-1.7431533990576
30
0
41
1
10
144.845467956697
20
-1.73440446205859
30
0
41
1
10
144.850245495903
20
-1.72570139839419
30
0
41
1
10
144.857144296985
20
-1.70841577069982
30
0
41
1
10
144.859187833851
20
-1.69991425890501
30
0
41
1
10
144.862163757577
20
-1.67554142893707
30
0
41
1
10
144.860062748687
20
-1.66027968229227
30
0
41
1
10
144.850676149921
20
-1.63303595515748
30
0
41
1
10
144.84339077962
20
-1.62094017770306
30
0
41
1
10
144.824505051569
20
-1.59972525482792
30
0
41
1
10
144.812953056158
20
-1.59073580921898
30
0
41
1
10
144.786227166684
20
-1.57633711433522
30
0
41
1
10
144.771133398433
20
-1.57095906333501
30
0
41
1
10
144.737640312908
20
-1.56398107549637
30
0
41
1
10
144.719270857319
20
-1.56238775775546
30
0
41
1
10
144.679375890797
20
-1.56329836042155
30
0
41
1
10
144.657809420612
20
-1.56577465912099
30
0
41
1
10
144.611257041031
20
-1.57571763629963
30
0
41
1
10
144.586438641939
20
-1.58307033183601
30
0
41
1
10
144.560820033479
20
-1.59398739098637
30
0
0
SPLINE
5
23D
100
AcDbEntity
8
1
62
256
6
ByLayer
370
18
48
1
60
0
100
AcDbSpline
70
4
71
3
72
10
73
6
40
0
40
0
40
0
40
0
40
0.153441973116378
40
0.153441973116378
40
1
40
1
40
1
40
1
41
1
10
140.020150368848
20
-26.4187663484762
30
0
41
1
10
140.018092057894
20
-26.4125423774535
30
0
41
1
10
140.016191127239
20
-26.4063078207187
30
0
41
1
10
140.004865281932
20
-26.3657170093941
30
0
41
1
10
140.000062323902
20
-26.3312637545375
30
0
41
1
10
140.000059959935
20
-26.2967194266474
30
0
0
SPLINE
5
23E
100
AcDbEntity
8
1
62
256
6
ByLayer
370
18
48
1
60
0
100
AcDbSpline
70
4
71
3
72
8
73
4
40
0
40
0
40
0
40
0
40
1
40
1
40
1
40
1
41
1
10
146.74877336265
20
-1.7853950224513
30
0
41
1
10
146.755106828405
20
-1.78951942135876
30
0
41
1
10
146.761439020433
20
-1.7936456592947
30
0
41
1
10
146.767770000775
20
-1.79777364336249
30
0
0
SPLINE
5
23F
100
AcDbEntity
8
1
62
256
6
ByLayer
370
18
48
1
60
0
100
AcDbSpline
70
4
71
3
72
18
73
14
40
0
40
0
40
0
40
0
40
0.25
40
0.25
40
0.5
40
0.5
40
0.625
40
0.625
40
0.75
40
0.75
40
0.875
40
0.875
40
1
40
1
40
1
40
1
41
1
10
146.271089921359
20
-2.03139363772758
30
0
41
1
10
146.300304839546
20
-2.02979911924712
30
0
41
1
10
146.328297068042
20
-2.02678241487428
30
0
41
1
10
146.380750967576
20
-2.017390934373
30
0
41
1
10
146.405248062848
20
-2.01107312685022
30
0
41
1
10
146.436858585024
20
-1.99750192925393
30
0
41
1
10
146.446456878131
20
-1.99230362882571
30
0
41
1
10
146.462717518495
20
-1.9799851495622
30
0
41
1
10
146.469517471688
20
-1.97272900983765
30
0
41
1
10
146.477724131648
20
-1.95560482599342
30
0
41
1
10
146.479096145166
20
-1.94557045934687
30
0
41
1
10
146.473509621836
20
-1.92322574738054
30
0
41
1
10
146.466568679679
20
-1.91131274406325
30
0
41
1
10
146.456596943745
20
-1.89983186121333
30
0
0
SPLINE
5
240
100
AcDbEntity
8
1
62
256
6
ByLayer
370
18
48
1
60
0
100
AcDbSpline
70
4
71
3
72
8
73
4
40
0
40
0
40
0
40
0
40
1
40
1
40
1
40
1
41
1
10
146.456596943745
20
-1.89983186121333
30
0
41
1
10
146.453812603687
20
-1.8945406537286
30
0
41
1
10
146.451027613486
20
-1.88925100820114
30
0
41
1
10
146.448241939692
20
-1.8839630081504
30
0
0
SPLINE
5
241
100
AcDbEntity
8
1
62
256
6
ByLayer
370
18
48
1
60
0
100
AcDbSpline
70
4
71
3
72
24
73
20
40
0
40
0
40
0
40
0
40
0.0624999999999994
40
0.0624999999999994
40
0.124999999999999
40
0.124999999999999
40
0.249999999999999
40
0.249999999999999
40
0.374999999999999
40
0.374999999999999
40
0.5
40
0.5
40
0.625
40
0.625
40
0.75
40
0.75
40
0.875
40
0.875
40
1
40
1
40
1
40
1
41
1
10
146.448241939692
20
-1.8839630081504
30
0
41
1
10
146.443111617899
20
-1.87422420026778
30
0
41
1
10
146.439945437712
20
-1.86487758273779
30
0
41
1
10
146.436186511827
20
-1.84675854243025
30
0
41
1
10
146.435647242715
20
-1.83805220890514
30
0
41
1
10
146.43698216852
20
-1.81339312093584
30
0
41
1
10
146.441715619613
20
-1.79879538723821
30
0
41
1
10
146.455852761475
20
-1.77344536832246
30
0
41
1
10
146.465324423115
20
-1.76266566572065
30
0
41
1
10
146.487803003743
20
-1.74506240797496
30
0
41
1
10
146.500739427217
20
-1.73828522413049
30
0
41
1
10
146.529651897866
20
-1.72880055508619
30
0
41
1
10
146.545489483446
20
-1.72614861664658
30
0
41
1
10
146.579754326543
20
-1.72512966082911
30
0
41
1
10
146.598152034347
20
-1.72676425503769
30
0
41
1
10
146.637330580429
20
-1.73460680729283
30
0
41
1
10
146.658158606688
20
-1.74079521730764
30
0
41
1
10
146.702293531708
20
-1.75866774069357
30
0
41
1
10
146.725457290411
20
-1.77021142683776
30
0
41
1
10
146.74877336265
20
-1.7853950224513
30
0
0
SPLINE
5
242
100
AcDbEntity
8
1
62
256
6
ByLayer
370
13
48
1
60
0
100
AcDbSpline
70
4
71
3
72
8
73
4
40
0
40
0
40
0
40
0
40
1
40
1
40
1
40
1
41
1
10
143.184502164337
20
-39.0083801824975
30
0
41
1
10
142.888529944182
20
-39.3288848348498
30
0
41
1
10
142.592557724027
20
-39.6493894872019
30
0
41
1
10
142.296585503872
20
-39.9698941395542
30
0
0
SPLINE
5
243
100
AcDbEntity
8
1
62
256
6
ByLayer
370
13
48
1
60
0
100
AcDbSpline
70
4
71
3
72
8
73
4
40
0
40
0
40
0
40
0
40
1
40
1
40
1
40
1
41
1
10
141.532405026155
20
-39.1968227752321
30
0
41
1
10
141.813392399962
20
-39.0341722617393
30
0
41
1
10
142.09437977377
20
-38.8715217482464
30
0
41
1
10
142.375367147578
20
-38.7088712347536
30
0
0
SPLINE
5
244
100
AcDbEntity
8
1
62
256
6
ByLayer
370
18
48
1
60
0
100
AcDbSpline
70
4
71
3
72
18
73
14
40
0
40
0
40
0
40
0
40
0.25
40
0.25
40
0.5
40
0.5
40
0.625
40
0.625
40
0.75
40
0.75
40
0.875
40
0.875
40
1
40
1
40
1
40
1
41
1
10
144.986945145783
20
-1.91905343984769
30
0
41
1
10
145.015406046934
20
-1.92569358330795
30
0
41
1
10
145.045276696764
20
-1.93113520401545
30
0
41
1
10
145.107402193709
20
-1.93893223328496
30
0
41
1
10
145.139633856859
20
-1.94134264183887
30
0
41
1
10
145.18911419143
20
-1.94073520062815
30
0
41
1
10
145.205700932252
20
-1.93981001718282
30
0
41
1
10
145.238599794691
20
-1.93575999211188
30
0
41
1
10
145.255239015599
20
-1.93257970393176
30
0
41
1
10
145.286337086117
20
-1.92272973131736
30
0
41
1
10
145.300971496872
20
-1.91592847066127
30
0
41
1
10
145.324068109211
20
-1.89808567974615
30
0
41
1
10
145.33200661886
20
-1.8873305156319
30
0
41
1
10
145.335963056505
20
-1.87592011012592
30
0
0
SPLINE
5
245
100
AcDbEntity
8
1
62
256
6
ByLayer
370
18
48
1
60
0
100
AcDbSpline
70
4
71
3
72
30
73
26
40
0
40
0
40
0
40
0
40
0.124999999999926
40
0.124999999999926
40
0.187499999999944
40
0.187499999999944
40
0.249999999999962
40
0.249999999999962
40
0.375000000000008
40
0.375000000000008
40
0.437500000000031
40
0.437500000000031
40
0.500000000000055
40
0.500000000000055
40
0.625000000000083
40
0.625000000000083
40
0.687500000000077
40
0.687500000000077
40
0.750000000000071
40
0.750000000000071
40
0.875000000000036
40
0.875000000000036
40
0.937500000000018
40
0.937500000000018
40
1
40
1
40
1
40
1
41
1
10
149.105516747347
20
-38.9839780210535
30
0
41
1
10
149.137853258801
20
-38.9838447532222
30
0
41
1
10
149.169591627076
20
-38.9806821880837
30
0
41
1
10
149.216344287078
20
-38.9716087360954
30
0
41
1
10
149.231784994739
20
-38.9678574335791
30
0
41
1
10
149.262374384739
20
-38.958875865718
30
0
41
1
10
149.277592805645
20
-38.9536125840617
30
0
41
1
10
149.321937291521
20
-38.9358745105866
30
0
41
1
10
149.349963248786
20
-38.9214412975932
30
0
41
1
10
149.389740767648
20
-38.8959546109078
30
0
41
1
10
149.402620492187
20
-38.8868152518236
30
0
41
1
10
149.427596620066
20
-38.8672074999734
30
0
41
1
10
149.439566692206
20
-38.8568323557631
30
0
41
1
10
149.473640625182
20
-38.8243178812741
30
0
41
1
10
149.494068652017
20
-38.8006898990255
30
0
41
1
10
149.521246666671
20
-38.7622930165429
30
0
41
1
10
149.529765484909
20
-38.7489216565883
30
0
41
1
10
149.545341151027
20
-38.7215906002528
30
0
41
1
10
149.552405592014
20
-38.7076398814459
30
0
41
1
10
149.57147853492
20
-38.6649517847813
30
0
41
1
10
149.581386425397
20
-38.6353862602738
30
0
41
1
10
149.59188024381
20
-38.5893159230558
30
0
41
1
10
149.594628737796
20
-38.5737098858218
30
0
41
1
10
149.598546954465
20
-38.5424186646587
30
0
41
1
10
149.599731158243
20
-38.5266749074967
30
0
41
1
10
149.600129307911
20
-38.5108315915926
30
0
0
SPLINE
5
246
100
AcDbEntity
8
1
62
256
6
ByLayer
370
13
48
1
60
0
100
AcDbSpline
70
4
71
3
72
8
73
4
40
0
40
0
40
0
40
0
40
1
40
1
40
1
40
1
41
1
10
149.235759562348
20
-39.9412958574035
30
0
41
1
10
149.192345290681
20
-39.6221899119535
30
0
41
1
10
149.148931019014
20
-39.3030839665035
30
0
41
1
10
149.105516747347
20
-38.9839780210535
30
0
0
SPLINE
5
247
100
AcDbEntity
8
1
62
256
6
ByLayer
370
13
48
1
60
0
100
AcDbSpline
70
4
71
3
72
8
73
4
40
0
40
0
40
0
40
0
40
1
40
1
40
1
40
1
41
1
10
149.600129307911
20
-38.5108315915926
30
0
41
1
10
149.733399551962
20
-38.7278629573974
30
0
41
1
10
149.866669796014
20
-38.9448943232023
30
0
41
1
10
149.999940040065
20
-39.1619256890071
30
0
0
SPLINE
5
248
100
AcDbEntity
8
1
62
256
6
ByLayer
370
18
48
1
60
0
100
AcDbSpline
70
4
71
3
72
26
73
22
40
0
40
0
40
0
40
0
40
0.0311449582080625
40
0.0311449582080625
40
0.192620798506699
40
0.192620798506699
40
0.273358718656017
40
0.273358718656017
40
0.354096638805335
40
0.354096638805335
40
0.51557247910405
40
0.51557247910405
40
0.596310399253399
40
0.596310399253399
40
0.677048319402748
40
0.677048319402748
40
0.838524159701445
40
0.838524159701445
40
0.919262079850723
40
0.919262079850723
40
1
40
1
40
1
40
1
41
1
10
142.709894550154
20
-38.704568311795
30
0
41
1
10
142.712417183488
20
-38.7101917076778
30
0
41
1
10
142.715042875696
20
-38.7157670473916
30
0
41
1
10
142.731863953606
20
-38.7498255695175
30
0
41
1
10
142.748539028012
20
-38.7767860480179
30
0
41
1
10
142.777334095012
20
-38.8148884860077
30
0
41
1
10
142.787567142901
20
-38.8271969376717
30
0
41
1
10
142.809342927078
20
-38.8510042034585
30
0
41
1
10
142.820735844799
20
-38.8623367831122
30
0
41
1
10
142.856268500222
20
-38.8945667405367
30
0
41
1
10
142.881797444755
20
-38.9137637049173
30
0
41
1
10
142.922877315982
20
-38.9390926773276
30
0
41
1
10
142.937113806206
20
-38.9469869211061
30
0
41
1
10
142.966016538959
20
-38.9613036502323
30
0
41
1
10
142.980712031586
20
-38.9677536587344
30
0
41
1
10
143.025514843862
20
-38.9850251703211
30
0
41
1
10
143.056331830648
20
-38.9937875051813
30
0
41
1
10
143.104035404098
20
-39.0026421760795
30
0
41
1
10
143.120094420795
20
-39.0048522425382
30
0
41
1
10
143.15222158843
20
-39.0077500365644
30
0
41
1
10
143.168336054195
20
-39.0084468075707
30
0
41
1
10
143.184502164337
20
-39.0083801824975
30
0
0
SPLINE
5
249
100
AcDbEntity
8
1
62
256
6
ByLayer
370
18
48
1
60
0
100
AcDbSpline
70
4
71
3
72
32
73
28
40
0
40
0
40
0
40
0
40
0.125000000000021
40
0.125000000000021
40
0.18750000000003
40
0.18750000000003
40
0.218750000000035
40
0.218750000000035
40
0.250000000000039
40
0.250000000000039
40
0.374999999999994
40
0.374999999999994
40
0.406249999999966
40
0.406249999999966
40
0.437499999999938
40
0.437499999999938
40
0.499999999999924
40
0.499999999999924
40
0.624999999999931
40
0.624999999999931
40
0.749999999999938
40
0.749999999999938
40
0.812499999999955
40
0.812499999999955
40
0.874999999999971
40
0.874999999999971
40
1
40
1
40
1
40
1
41
1
10
142.296585503872
20
-39.9698941395541
30
0
41
1
10
142.245768002178
20
-39.9701035727286
30
0
41
1
10
142.195756888518
20
-39.9653032704999
30
0
41
1
10
142.121917142369
20
-39.9507911020948
30
0
41
1
10
142.097501438619
20
-39.9447264523426
30
0
41
1
10
142.061182940887
20
-39.9337342867275
30
0
41
1
10
142.049105311535
20
-39.9297442184817
30
0
41
1
10
142.025307216182
20
-39.9212115468001
30
0
41
1
10
142.013558892089
20
-39.9166617850202
30
0
41
1
10
141.955558078147
20
-39.8925199374139
30
0
41
1
10
141.91150721139
20
-39.8687878419099
30
0
41
1
10
141.859389479141
20
-39.8335832400819
30
0
41
1
10
141.849114527498
20
-39.8262628968028
30
0
41
1
10
141.82886741273
20
-39.8110528360409
30
0
41
1
10
141.818902855358
20
-39.8031659739843
30
0
41
1
10
141.789798926234
20
-39.7789193008492
30
0
41
1
10
141.771331780481
20
-39.7618903777851
30
0
41
1
10
141.718658903452
20
-39.7082821370546
30
0
41
1
10
141.687156107397
20
-39.6692050280054
30
0
41
1
10
141.631587681257
20
-39.5841781002222
30
0
41
1
10
141.608383691009
20
-39.539528034624
30
0
41
1
10
141.580220313624
20
-39.4697285275245
30
0
41
1
10
141.571939962962
20
-39.4459756962218
30
0
41
1
10
141.557627230146
20
-39.3974828466291
30
0
41
1
10
141.551592326035
20
-39.3726748984534
30
0
41
1
10
141.537210348152
20
-39.2980918830878
30
0
41
1
10
141.532407390122
20
-39.2477621693895
30
0
41
1
10
141.532405026155
20
-39.1968227752321
30
0
0
SPLINE
5
24A
100
AcDbEntity
8
1
62
256
6
ByLayer
370
13
48
1
60
0
100
AcDbSpline
70
4
71
3
72
8
73
4
40
0
40
0
40
0
40
0
40
1
40
1
40
1
40
1
41
1
10
149.819506803581
20
-31.347114321111
30
0
41
1
10
149.71300571676
20
-31.0431541977561
30
0
41
1
10
149.606504629939
20
-30.7391940744012
30
0
41
1
10
149.500003543118
20
-30.4352339510463
30
0
0
SPLINE
5
24B
100
AcDbEntity
8
1
62
256
6
ByLayer
370
18
48
1
60
0
100
AcDbSpline
70
4
71
3
72
36
73
32
40
0
40
0
40
0
40
0
40
0.125000000000019
40
0.125000000000019
40
0.187500000000022
40
0.187500000000022
40
0.218750000000024
40
0.218750000000024
40
0.250000000000025
40
0.250000000000025
40
0.375000000000063
40
0.375000000000063
40
0.406250000000067
40
0.406250000000067
40
0.437500000000071
40
0.437500000000071
40
0.500000000000092
40
0.500000000000092
40
0.625000000000121
40
0.625000000000121
40
0.656250000000095
40
0.656250000000095
40
0.68750000000007
40
0.75000000000007
40
0.812500000000071
40
0.812500000000071
40
0.843750000000039
40
0.843750000000039
40
0.875000000000007
40
0.875000000000007
40
1
40
1
40
1
40
1
41
1
10
149.999940040065
20
-39.1619256890072
30
0
41
1
10
149.999937675874
20
-39.2128699260552
30
0
41
1
10
149.995133866909
20
-39.2630815205242
30
0
41
1
10
149.980885438612
20
-39.3373242788583
30
0
41
1
10
149.974954118583
20
-39.3618915298354
30
0
41
1
10
149.964229315334
20
-39.3984635025197
30
0
41
1
10
149.960339317873
20
-39.4106324693322
30
0
41
1
10
149.952020771419
20
-39.4346354672347
30
0
41
1
10
149.947586514442
20
-39.4464935136694
30
0
41
1
10
149.924060544292
20
-39.5050770385872
30
0
41
1
10
149.900942329171
20
-39.5497019862621
30
0
41
1
10
149.866614165305
20
-39.602650262272
30
0
41
1
10
149.859474649143
20
-39.6130970389897
30
0
41
1
10
149.844636536945
20
-39.633698933681
30
0
41
1
10
149.836915475241
20
-39.6438807510151
30
0
41
1
10
149.813129311792
20
-39.6736852833137
30
0
41
1
10
149.796413576997
20
-39.6926222376996
30
0
41
1
10
149.743757215921
20
-39.746706320306
30
0
41
1
10
149.705331254269
20
-39.7791525553592
30
0
41
1
10
149.653004897197
20
-39.815044025739
30
0
41
1
10
149.642297361332
20
-39.8220011521711
30
0
41
1
10
149.620672802549
20
-39.8352932610302
30
0
41
1
10
149.587859599952
20
-39.8543448206916
30
0
41
1
10
149.531327354593
20
-39.8817545024251
30
0
41
1
10
149.484162888191
20
-39.8991153125485
30
0
41
1
10
149.448052067518
20
-39.9103986561764
30
0
41
1
10
149.435892000703
20
-39.9138697207712
30
0
41
1
10
149.411321148237
20
-39.9202212302938
30
0
41
1
10
149.398912473153
20
-39.9230990697354
30
0
41
1
10
149.336832822784
20
-39.9358707926304
30
0
41
1
10
149.286587330216
20
-39.9410863819191
30
0
41
1
10
149.235759562348
20
-39.9412958574035
30
0
0
SPLINE
5
24C
100
AcDbEntity
8
1
62
256
6
ByLayer
370
13
48
1
60
0
100
AcDbSpline
70
4
71
3
72
8
73
4
40
0
40
0
40
0
40
0
40
1
40
1
40
1
40
1
41
1
10
143.184502164337
20
4.12791750123296
30
0
41
1
10
142.888529944182
20
2.69488158156699
30
0
41
1
10
142.592557724027
20
1.26184566190105
30
0
41
1
10
142.296585503872
20
-0.17119025776492
30
0
0
SPLINE
5
24D
100
AcDbEntity
8
1
62
256
6
ByLayer
370
13
48
1
60
0
100
AcDbSpline
70
4
71
3
72
8
73
4
40
0
40
0
40
0
40
0
40
1
40
1
40
1
40
1
41
1
10
141.532405026155
20
-0.0951154423550804
30
0
41
1
10
141.910982418636
20
1.28770948421163
30
0
41
1
10
142.289559811117
20
2.67053441077832
30
0
41
1
10
142.668137203598
20
4.05335933734503
30
0
0
SPLINE
5
24E
100
AcDbEntity
8
1
62
256
6
ByLayer
370
13
48
1
60
0
100
AcDbSpline
70
4
71
3
72
8
73
4
40
0
40
0
40
0
40
0
40
1
40
1
40
1
40
1
41
1
10
149.235759562348
20
-0.778246566118384
30
0
41
1
10
149.192345290681
20
0.684479732992486
30
0
41
1
10
149.148931019014
20
2.14720603210333
30
0
41
1
10
149.105516747347
20
3.6099323312142
30
0
0
SPLINE
5
24F
100
AcDbEntity
8
1
62
256
6
ByLayer
370
13
48
1
60
0
100
AcDbSpline
70
4
71
3
72
8
73
4
40
0
40
0
40
0
40
0
40
1
40
1
40
1
40
1
41
1
10
149.600129307911
20
3.44693132431073
30
0
41
1
10
149.733399551962
20
2.01932868586442
30
0
41
1
10
149.866669796014
20
0.591726047418121
30
0
41
1
10
149.999940040065
20
-0.835876591028182
30
0
0
SPLINE
5
250
100
AcDbEntity
8
1
62
256
6
ByLayer
370
18
48
1
60
0
100
AcDbSpline
70
4
71
3
72
22
73
18
40
0
40
0
40
0
40
0
40
0.125
40
0.125
40
0.25
40
0.25
40
0.375
40
0.375
40
0.5
40
0.5
40
0.625
40
0.625
40
0.75
40
0.75
40
0.875
40
0.875
40
1
40
1
40
1
40
1
41
1
10
142.668137203598
20
4.053359337345
30
0
41
1
10
142.670396292948
20
4.06121353041178
30
0
41
1
10
142.675739153727
20
4.06862781696171
30
0
41
1
10
142.692294982616
20
4.08261900683522
30
0
41
1
10
142.703661415653
20
4.08925528216642
30
0
41
1
10
142.731863953606
20
4.10133023705009
30
0
41
1
10
142.748539028012
20
4.10674087198862
30
0
41
1
10
142.786932450679
20
4.11633386782071
30
0
41
1
10
142.808891626325
20
4.12053643049225
30
0
41
1
10
142.856268500222
20
4.12736297019612
30
0
41
1
10
142.881797444755
20
4.13003524001527
30
0
41
1
10
142.936570606392
20
4.13388398734074
30
0
41
1
10
142.965777760827
20
4.13503465008108
30
0
41
1
10
143.025514843862
20
4.13572395910685
30
0
41
1
10
143.056331830648
20
4.13528721833302
30
0
41
1
10
143.119936595248
20
4.13279006183953
30
0
41
1
10
143.152169944053
20
4.13074600475818
30
0
41
1
10
143.184502164337
20
4.12791750123296
30
0
0
SPLINE
5
251
100
AcDbEntity
8
1
62
256
6
ByLayer
370
18
48
1
60
0
100
AcDbSpline
70
4
71
3
72
28
73
24
40
0
40
0
40
0
40
0
40
0.125000000000052
40
0.125000000000052
40
0.187500000000077
40
0.187500000000077
40
0.250000000000103
40
0.250000000000103
40
0.375000000000161
40
0.375000000000161
40
0.437500000000157
40
0.437500000000157
40
0.500000000000153
40
0.500000000000153
40
0.62500000000011
40
0.62500000000011
40
0.750000000000066
40
0.750000000000066
40
0.812500000000057
40
0.812500000000057
40
0.875000000000048
40
0.875000000000048
40
1
40
1
40
1
40
1
41
1
10
142.296585503872
20
-0.171190257764891
30
0
41
1
10
142.245768002179
20
-0.166744615572043
30
0
41
1
10
142.195756888518
20
-0.162310036290762
30
0
41
1
10
142.121917142369
20
-0.155674313700189
30
0
41
1
10
142.097501438619
20
-0.153465116306734
30
0
41
1
10
142.049076774976
20
-0.149052301677187
30
0
41
1
10
142.025159054877
20
-0.146856807356329
30
0
41
1
10
141.955558078147
20
-0.140420332230036
30
0
41
1
10
141.91150721139
20
-0.136282530633309
30
0
41
1
10
141.848965932691
20
-0.130306275347067
30
0
41
1
10
141.828604165066
20
-0.1283422681974
30
0
41
1
10
141.789798926234
20
-0.124561484218219
30
0
41
1
10
141.771331780481
20
-0.122742704662357
30
0
41
1
10
141.718658903452
20
-0.117495242894734
30
0
41
1
10
141.687156107397
20
-0.114273475935789
30
0
41
1
10
141.631587681257
20
-0.108399272375891
30
0
41
1
10
141.608383691009
20
-0.10583769893617
30
0
41
1
10
141.580220313624
20
-0.102543218778834
30
0
41
1
10
141.571939962962
20
-0.101536216585316
30
0
41
1
10
141.557627230146
20
-0.0997072512643342
30
0
41
1
10
141.551592326035
20
-0.0988842603010767
30
0
41
1
10
141.537210348152
20
-0.096739252688252
30
0
41
1
10
141.532407390122
20
-0.0957208678524637
30
0
41
1
10
141.532405026155
20
-0.0951154423551941
30
0
0
SPLINE
5
252
100
AcDbEntity
8
1
62
256
6
ByLayer
370
18
48
1
60
0
100
AcDbSpline
70
4
71
3
72
22
73
18
40
0
40
0
40
0
40
0
40
0.125
40
0.125
40
0.25
40
0.25
40
0.375
40
0.375
40
0.5
40
0.5
40
0.625
40
0.625
40
0.75
40
0.75
40
0.875
40
0.875
40
1
40
1
40
1
40
1
41
1
10
149.105516747347
20
3.6099323312142
30
0
41
1
10
149.137853258801
20
3.60710345228674
30
0
41
1
10
149.169591627076
20
3.60355638465353
30
0
41
1
10
149.231928507079
20
3.59509362708326
30
0
41
1
10
149.262811310353
20
3.59012195017922
30
0
41
1
10
149.321937291521
20
3.57900060087843
30
0
41
1
10
149.349963248786
20
3.57291000539306
30
0
41
1
10
149.402999940602
20
3.5596892602897
30
0
41
1
10
149.428208714547
20
3.55248112501647
30
0
41
1
10
149.473640625182
20
3.5375362373737
30
0
41
1
10
149.494068652017
20
3.52976553923915
30
0
41
1
10
149.53030600489
20
3.51362204922242
30
0
41
1
10
149.546047944379
20
3.50524060878126
30
0
41
1
10
149.57147853492
20
3.48857706532166
30
0
41
1
10
149.581386425397
20
3.48020666275778
30
0
41
1
10
149.595378183281
20
3.46338571711365
30
0
41
1
10
149.599333008576
20
3.45505324046266
30
0
41
1
10
149.600129307911
20
3.44693132431075
30
0
0
SPLINE
5
253
100
AcDbEntity
8
1
62
256
6
ByLayer
370
18
48
1
60
0
100
AcDbSpline
70
4
71
3
72
36
73
32
40
0
40
0
40
0
40
0
40
0.12500000000003
40
0.12500000000003
40
0.187500000000047
40
0.187500000000047
40
0.218750000000063
40
0.218750000000063
40
0.25000000000008
40
0.25000000000008
40
0.375000000000115
40
0.375000000000115
40
0.406250000000107
40
0.406250000000107
40
0.437500000000099
40
0.437500000000099
40
0.500000000000096
40
0.500000000000096
40
0.625000000000079
40
0.625000000000079
40
0.656250000000098
40
0.656250000000098
40
0.687500000000117
40
0.750000000000103
40
0.812500000000089
40
0.812500000000089
40
0.843750000000052
40
0.843750000000052
40
0.875000000000015
40
0.875000000000015
40
1
40
1
40
1
40
1
41
1
10
149.999940040065
20
-0.83587659102821
30
0
41
1
10
149.999937675874
20
-0.836481660202026
30
0
41
1
10
149.995133866909
20
-0.836657747232437
30
0
41
1
10
149.980885438612
20
-0.836292650731366
30
0
41
1
10
149.974954118583
20
-0.836065360774938
30
0
41
1
10
149.964229315334
20
-0.83556112009569
30
0
41
1
10
149.960339317873
20
-0.8353652042276
30
0
41
1
10
149.952020771419
20
-0.834922252863834
30
0
41
1
10
149.947586514442
20
-0.834675003069975
30
0
41
1
10
149.924060544292
20
-0.833311780016402
30
0
41
1
10
149.900942329171
20
-0.83181840441091
30
0
41
1
10
149.866614165305
20
-0.829442696251988
30
0
41
1
10
149.859474649143
20
-0.828941883644603
30
0
41
1
10
149.844636536945
20
-0.827887856106685
30
0
41
1
10
149.836915475241
20
-0.82733299194237
30
0
41
1
10
149.813129311792
20
-0.825605066263392
30
0
41
1
10
149.796413576997
20
-0.824366906258774
30
0
41
1
10
149.743757215921
20
-0.820400398789218
30
0
41
1
10
149.705331254269
20
-0.817422416555388
30
0
41
1
10
149.653004897197
20
-0.813268645668302
30
0
41
1
10
149.642297361332
20
-0.812414058002105
30
0
41
1
10
149.620672802549
20
-0.810679154174323
30
0
41
1
10
149.587859599952
20
-0.808033320831811
30
0
41
1
10
149.531327354594
20
-0.803410628968777
30
0
41
1
10
149.484162888191
20
-0.799488520395812
30
0
41
1
10
149.448052067518
20
-0.796461746364884
30
0
41
1
10
149.435892000703
20
-0.795438598109882
30
0
41
1
10
149.411321148237
20
-0.793363338571368
30
0
41
1
10
149.398912473153
20
-0.79231138107275
30
0
41
1
10
149.336832822784
20
-0.787029200925474
30
0
41
1
10
149.286587330216
20
-0.782693106421846
30
0
41
1
10
149.235759562348
20
-0.778246566118384
30
0
0
SPLINE
5
254
100
AcDbEntity
8
1
62
256
6
ByLayer
370
18
48
1
60
0
100
AcDbSpline
70
4
71
3
72
28
73
24
40
0
40
0
40
0
40
0
40
0.125000000000029
40
0.125000000000029
40
0.187500000000044
40
0.187500000000044
40
0.250000000000059
40
0.250000000000059
40
0.375000000000088
40
0.375000000000088
40
0.437500000000073
40
0.437500000000073
40
0.500000000000059
40
0.500000000000059
40
0.625000000000035
40
0.625000000000035
40
0.750000000000012
40
0.750000000000012
40
0.8125
40
0.8125
40
0.874999999999995
40
0.874999999999995
40
1
40
1
40
1
40
1
41
1
10
149.021462684273
20
-3.11859467699767
30
0
41
1
10
149.072280185967
20
-3.12304031919052
30
0
41
1
10
149.122509710871
20
-3.1249706532771
30
0
41
1
10
149.19699584537
20
-3.12419505909028
30
0
41
1
10
149.221680517213
20
-3.12332033991305
30
0
41
1
10
149.270753284143
20
-3.12030217473918
30
0
41
1
10
149.295049621588
20
-3.11815654334563
30
0
41
1
10
149.365926975753
20
-3.10995841451245
30
0
41
1
10
149.411021106256
20
-3.10213443166759
30
0
41
1
10
149.475416645551
20
-3.08685022847195
30
0
41
1
10
149.496449300103
20
-3.08112202468197
30
0
41
1
10
149.536671906216
20
-3.0686516526346
30
0
41
1
10
149.555885281233
20
-3.06191436606133
30
0
41
1
10
149.610906357948
20
-3.04023799521113
30
0
41
1
10
149.644119607848
20
-3.0238481536181
30
0
41
1
10
149.703407435414
20
-2.98707669036369
30
0
41
1
10
149.728563514898
20
-2.9672561281626
30
0
41
1
10
149.75977705033
20
-2.93557830795879
30
0
41
1
10
149.76909513796
20
-2.92468689427079
30
0
41
1
10
149.785526007854
20
-2.90222986360399
30
0
41
1
10
149.792644276057
20
-2.89063129021915
30
0
41
1
10
149.81028262092
20
-2.85543966073058
30
0
41
1
10
149.817282141794
20
-2.83127284061132
30
0
41
1
10
149.819506803581
20
-2.80639799077772
30
0
0
SPLINE
5
255
100
AcDbEntity
8
1
62
256
6
ByLayer
370
18
48
1
60
0
100
AcDbSpline
70
4
71
3
72
29
73
25
40
0
40
0
40
0
40
0
40
0.0624999999999921
40
0.0624999999999921
40
0.124999999999984
40
0.124999999999984
40
0.249999999999986
40
0.249999999999986
40
0.312499999999987
40
0.312499999999987
40
0.374999999999987
40
0.374999999999987
40
0.5
40
0.5
40
0.562500000000006
40
0.562500000000006
40
0.625000000000012
40
0.687500000000018
40
0.687500000000018
40
0.750000000000024
40
0.750000000000024
40
0.875000000000012
40
0.875000000000012
40
1
40
1
40
1
40
1
41
1
10
140.5
20
1.99804669138129
30
0
41
1
10
140.5
20
2.00618357088103
30
0
41
1
10
140.501545128034
20
2.01421214699124
30
0
41
1
10
140.507828691565
20
2.03004546920249
30
0
41
1
10
140.512584456506
20
2.03783646405316
30
0
41
1
10
140.531361060538
20
2.06035977370669
30
0
41
1
10
140.549901088591
20
2.07442588130144
30
0
41
1
10
140.586830480728
20
2.09408735014924
30
0
41
1
10
140.600734867296
20
2.10042452829006
30
0
41
1
10
140.63145871168
20
2.11247932406059
30
0
41
1
10
140.648144912416
20
2.11815239869841
30
0
41
1
10
140.702076123996
20
2.13413546935195
30
0
41
1
10
140.743156241345
20
2.14341934635564
30
0
41
1
10
140.812743714749
20
2.15521343610283
30
0
41
1
10
140.837288700505
20
2.15877988073436
30
0
41
1
10
140.887942354836
20
2.16502743885653
30
0
41
1
10
140.940425035618
20
2.17043873210506
30
0
41
1
10
140.996518636474
20
2.1741990456116
30
0
41
1
10
141.054447043996
20
2.1771204514227
30
0
41
1
10
141.084504120985
20
2.17816406354064
30
0
41
1
10
141.17613635023
20
2.17995693939903
30
0
41
1
10
141.238852745608
20
2.17940001250781
30
0
41
1
10
141.367453747896
20
2.17487679637443
30
0
41
1
10
141.433771039583
20
2.17085914383617
30
0
41
1
10
141.5
20
2.16516446145064
30
0
0
SPLINE
5
256
100
AcDbEntity
8
1
62
256
6
ByLayer
370
18
48
1
60
0
100
AcDbSpline
70
4
71
3
72
30
73
26
40
0
40
0
40
0
40
0
40
0.12499999999999
40
0.12499999999999
40
0.249999999999981
40
0.249999999999981
40
0.374999999999972
40
0.374999999999972
40
0.437499999999967
40
0.437499999999967
40
0.499999999999963
40
0.499999999999963
40
0.624999999999972
40
0.624999999999972
40
0.687499999999977
40
0.687499999999977
40
0.749999999999982
40
0.749999999999982
40
0.812499999999986
40
0.812499999999986
40
0.874999999999991
40
0.874999999999991
40
0.937499999999995
40
0.937499999999995
40
1
40
1
40
1
40
1
41
1
10
140.5
20
11.3886207602813
30
0
41
1
10
140.5
20
11.3476952347027
30
0
41
1
10
140.504457496965
20
11.3064777404602
30
0
41
1
10
140.522378320616
20
11.2257065711327
30
0
41
1
10
140.53579810547
20
11.1859638499041
30
0
41
1
10
140.572130932424
20
11.1078469558786
30
0
41
1
10
140.595028653534
20
11.069470574407
30
0
41
1
10
140.637637695725
20
11.0130971189157
30
0
41
1
10
140.65322631765
20
10.9945057163827
30
0
41
1
10
140.68752129722
20
10.9577723642516
30
0
41
1
10
140.706178262191
20
10.9397029739386
30
0
41
1
10
140.76625225217
20
10.8872597478439
30
0
41
1
10
140.811958781377
20
10.8543240689418
30
0
41
1
10
140.891208349806
20
10.8087497447714
30
0
41
1
10
140.919492173916
20
10.7941950058774
30
0
41
1
10
140.978796880279
20
10.7672430788504
30
0
41
1
10
141.009956453226
20
10.7547558172432
30
0
41
1
10
141.07565055712
20
10.7319951897618
30
0
41
1
10
141.110369005017
20
10.7216743074125
30
0
41
1
10
141.182929866764
20
10.7038316795327
30
0
41
1
10
141.220253125375
20
10.6964227725107
30
0
41
1
10
141.297114763195
20
10.6848175348059
30
0
41
1
10
141.336797785173
20
10.6806109492554
30
0
41
1
10
141.418000813575
20
10.6758080272927
30
0
41
1
10
141.458866291581
20
10.6752390284692
30
0
41
1
10
141.5
20
10.6765321110004
30
0
0
SPLINE
5
257
100
AcDbEntity
8
1
62
256
6
ByLayer
370
18
48
1
60
0
100
AcDbSpline
70
4
71
3
72
28
73
24
40
0
40
0
40
0
40
0
40
0.124999999999999
40
0.124999999999999
40
0.187499999999997
40
0.187499999999997
40
0.249999999999994
40
0.249999999999994
40
0.312499999999992
40
0.312499999999992
40
0.37499999999999
40
0.37499999999999
40
0.437499999999988
40
0.437499999999988
40
0.499999999999986
40
0.499999999999986
40
0.624999999999989
40
0.624999999999989
40
0.749999999999993
40
0.749999999999993
40
0.874999999999996
40
0.874999999999996
40
1
40
1
40
1
40
1
41
1
10
148.5
20
10.8970827663938
30
0
41
1
10
148.583953774085
20
10.8997339291137
30
0
41
1
10
148.66464357372
20
10.9099449254874
30
0
41
1
10
148.781392842644
20
10.9351870926948
30
0
41
1
10
148.819060625131
20
10.945186211876
30
0
41
1
10
148.890769312268
20
10.9675841089509
30
0
41
1
10
148.92505903139
20
10.9800382006738
30
0
41
1
10
148.990821436381
20
11.0072062108156
30
0
41
1
10
149.022182376753
20
11.0218984342236
30
0
41
1
10
149.08090431119
20
11.0525615643897
30
0
41
1
10
149.108484816584
20
11.0686216487954
30
0
41
1
10
149.160520387146
20
11.1020206676025
30
0
41
1
10
149.184973109306
20
11.119360560703
30
0
41
1
10
149.23102461007
20
11.1552081074238
30
0
41
1
10
149.252648006518
20
11.1737570775516
30
0
41
1
10
149.312496450194
20
11.2300231969155
30
0
41
1
10
149.346196654169
20
11.2686679732291
30
0
41
1
10
149.403323454037
20
11.3478370281055
30
0
41
1
10
149.42673805746
20
11.3883946389036
30
0
41
1
10
149.464033333668
20
11.4711277647407
30
0
41
1
10
149.477580991461
20
11.512545164381
30
0
41
1
10
149.495568680209
20
11.5954707486967
30
0
41
1
10
149.5
20
11.6369790202052
30
0
41
1
10
149.5
20
11.6785314632119
30
0
0
SPLINE
5
258
100
AcDbEntity
8
1
62
256
6
ByLayer
370
18
48
1
60
0
100
AcDbSpline
70
4
71
3
72
30
73
26
40
0
40
0
40
0
40
0
40
0.125000000000012
40
0.125000000000012
40
0.187500000000009
40
0.187500000000009
40
0.250000000000006
40
0.250000000000006
40
0.312500000000004
40
0.312500000000004
40
0.375000000000001
40
0.375000000000001
40
0.437499999999998
40
0.437499999999998
40
0.499999999999995
40
0.499999999999995
40
0.624999999999994
40
0.624999999999994
40
0.687499999999995
40
0.687499999999995
40
0.749999999999996
40
0.749999999999996
40
0.874999999999998
40
0.874999999999998
40
1
40
1
40
1
40
1
41
1
10
148.5
20
-19.0285206404232
30
0
41
1
10
148.582258760937
20
-19.0308646986829
30
0
41
1
10
148.662149582385
20
-19.0191115395174
30
0
41
1
10
148.778707544185
20
-18.98196504772
30
0
41
1
10
148.816358616232
20
-18.9664632464004
30
0
41
1
10
148.888293778789
20
-18.93042495359
30
0
41
1
10
148.92279321146
20
-18.9098165391213
30
0
41
1
10
148.989108966972
20
-18.8638677024265
30
0
41
1
10
149.020707675132
20
-18.8386361226632
30
0
41
1
10
149.079928668717
20
-18.7852809396052
30
0
41
1
10
149.107765871296
20
-18.7570082520858
30
0
41
1
10
149.16031148491
20
-18.6976484975695
30
0
41
1
10
149.185017662132
20
-18.6665594212343
30
0
41
1
10
149.231558714288
20
-18.6017985032615
30
0
41
1
10
149.253219789659
20
-18.5683463711011
30
0
41
1
10
149.313234933553
20
-18.4662779450569
30
0
41
1
10
149.347016303372
20
-18.3954925258895
30
0
41
1
10
149.389927254344
20
-18.2859005552532
30
0
41
1
10
149.402923451027
20
-18.2487947946084
30
0
41
1
10
149.426434728103
20
-18.1734919158289
30
0
41
1
10
149.436942284163
20
-18.135276910868
30
0
41
1
10
149.464533551629
20
-18.0206464320075
30
0
41
1
10
149.477895878468
20
-17.9437121689254
30
0
41
1
10
149.495633392681
20
-17.7889257132455
30
0
41
1
10
149.5
20
-17.7110726442971
30
0
41
1
10
149.5
20
-17.6327735782929
30
0
0
SPLINE
5
259
100
AcDbEntity
8
1
62
256
6
ByLayer
370
18
48
1
60
0
100
AcDbSpline
70
4
71
3
72
30
73
26
40
0
40
0
40
0
40
0
40
0.125000000000004
40
0.125000000000004
40
0.250000000000008
40
0.250000000000008
40
0.375000000000012
40
0.375000000000012
40
0.437500000000016
40
0.437500000000016
40
0.500000000000019
40
0.500000000000019
40
0.625000000000026
40
0.625000000000026
40
0.687500000000021
40
0.687500000000021
40
0.750000000000017
40
0.750000000000017
40
0.812500000000013
40
0.812500000000013
40
0.875000000000009
40
0.875000000000009
40
0.937500000000004
40
0.937500000000004
40
1
40
1
40
1
40
1
41
1
10
140.5
20
-17.3629263383967
30
0
41
1
10
140.5
20
-17.44273069131
30
0
41
1
10
140.504538338286
20
-17.5234783233912
30
0
41
1
10
140.522745654804
20
-17.6823796743037
30
0
41
1
10
140.53635597017
20
-17.7607805805362
30
0
41
1
10
140.573042659548
20
-17.9153773934197
30
0
41
1
10
140.596106076501
20
-17.9915763182551
30
0
41
1
10
140.638824784865
20
-18.1039824187982
30
0
41
1
10
140.654426357202
20
-18.141133857498
30
0
41
1
10
140.688667422704
20
-18.2147290893608
30
0
41
1
10
140.707242063576
20
-18.2510024724498
30
0
41
1
10
140.767004447272
20
-18.3568122254605
30
0
41
1
10
140.812382873942
20
-18.4238889610808
30
0
41
1
10
140.890807413353
20
-18.5180261833793
30
0
41
1
10
140.918832434414
20
-18.5484259546353
30
0
41
1
10
140.977669679146
20
-18.6054409258528
30
0
41
1
10
141.00857475734
20
-18.6321975972029
30
0
41
1
10
141.073708257399
20
-18.6817965568619
30
0
41
1
10
141.107932791689
20
-18.70464342413
30
0
41
1
10
141.180272912933
20
-18.7457541025427
30
0
41
1
10
141.217724914918
20
-18.7636139960106
30
0
41
1
10
141.294756137489
20
-18.793226803695
30
0
41
1
10
141.334427802578
20
-18.8050384829941
30
0
41
1
10
141.416364268564
20
-18.821944396931
30
0
41
1
10
141.458055244163
20
-18.8268867113109
30
0
41
1
10
141.5
20
-18.8280934457117
30
0
0
SPLINE
5
25A
100
AcDbEntity
8
1
62
256
6
ByLayer
370
18
48
1
60
0
100
AcDbSpline
70
4
71
3
72
29
73
25
40
0
40
0
40
0
40
0
40
0.125000000000007
40
0.125000000000007
40
0.187500000000011
40
0.187500000000011
40
0.250000000000015
40
0.250000000000015
40
0.375000000000022
40
0.375000000000022
40
0.437500000000026
40
0.437500000000026
40
0.50000000000003
40
0.50000000000003
40
0.625000000000025
40
0.625000000000025
40
0.687500000000022
40
0.687500000000022
40
0.750000000000019
40
0.812500000000017
40
0.812500000000017
40
0.875000000000014
40
0.875000000000014
40
1
40
1
40
1
40
1
41
1
10
141.5
20
-25.2952721487904
30
0
41
1
10
141.433297335054
20
-25.2995992645927
30
0
41
1
10
141.367825815729
20
-25.3003369821493
30
0
41
1
10
141.271373917576
20
-25.2963257553766
30
0
41
1
10
141.239518103003
20
-25.294129139116
30
0
41
1
10
141.176407256108
20
-25.2879843292693
30
0
41
1
10
141.145087122377
20
-25.2840150980247
30
0
41
1
10
141.054072974503
20
-25.2697300232579
30
0
41
1
10
140.996612919256
20
-25.2570124684312
30
0
41
1
10
140.915172982752
20
-25.2332182946473
30
0
41
1
10
140.888715520263
20
-25.2244534485959
30
0
41
1
10
140.837965332798
20
-25.2054779473198
30
0
41
1
10
140.813822742926
20
-25.1953341668476
30
0
41
1
10
140.744973740937
20
-25.1629979402539
30
0
41
1
10
140.703812544042
20
-25.1389184680317
30
0
41
1
10
140.649330904825
20
-25.0989348669179
30
0
41
1
10
140.632445723073
20
-25.0849799579678
30
0
41
1
10
140.601827713411
20
-25.0563685909063
30
0
41
1
10
140.574163086122
20
-25.0269164401129
30
0
41
1
10
140.55232191152
20
-24.9958064395524
30
0
41
1
10
140.533434547084
20
-24.9638555334738
30
0
41
1
10
140.525437926901
20
-24.9473745748774
30
0
41
1
10
140.506304536417
20
-24.8972625777753
30
0
41
1
10
140.5
20
-24.8632332897019
30
0
41
1
10
140.5
20
-24.8285968227867
30
0
0
SPLINE
5
25B
100
AcDbEntity
8
1
62
256
6
ByLayer
370
18
48
1
60
0
100
AcDbSpline
70
4
71
3
72
29
73
25
40
0
40
0
40
0
40
0
40
0.0624999999999964
40
0.0624999999999964
40
0.124999999999993
40
0.124999999999993
40
0.249999999999989
40
0.249999999999989
40
0.312499999999986
40
0.312499999999986
40
0.374999999999984
40
0.374999999999984
40
0.49999999999998
40
0.49999999999998
40
0.562499999999976
40
0.562499999999976
40
0.624999999999972
40
0.687499999999968
40
0.687499999999968
40
0.749999999999964
40
0.749999999999964
40
0.874999999999982
40
0.874999999999982
40
1
40
1
40
1
40
1
41
1
10
149.5
20
-25.7702544337784
30
0
41
1
10
149.5
20
-25.787445449132
30
0
41
1
10
149.498454871966
20
-25.8047859567617
30
0
41
1
10
149.492171308435
20
-25.8397759268714
30
0
41
1
10
149.487415543494
20
-25.8574005796233
30
0
41
1
10
149.468638939462
20
-25.9095834613512
30
0
41
1
10
149.450098911409
20
-25.9438406501264
30
0
41
1
10
149.413169519272
20
-25.9944217539624
30
0
41
1
10
149.399265132704
20
-26.0112148282347
30
0
41
1
10
149.36854128832
20
-26.0442057374792
30
0
41
1
10
149.351855087584
20
-26.0602768386564
30
0
41
1
10
149.297923876004
20
-26.1072491984769
30
0
41
1
10
149.256843758655
20
-26.1369215308756
30
0
41
1
10
149.187256285251
20
-26.1788769789015
30
0
41
1
10
149.162711299495
20
-26.1924214819316
30
0
41
1
10
149.112057645164
20
-26.2180228747094
30
0
41
1
10
149.059574964382
20
-26.2423052844167
30
0
41
1
10
149.003481363526
20
-26.2639837173243
30
0
41
1
10
148.945552956004
20
-26.2843389988203
30
0
41
1
10
148.915495879015
20
-26.2939030182748
30
0
41
1
10
148.82386364977
20
-26.3201260393213
30
0
41
1
10
148.761147254392
20
-26.3343048360903
30
0
41
1
10
148.632546252104
20
-26.3562350757754
30
0
41
1
10
148.566228960417
20
-26.363983940198
30
0
41
1
10
148.5
20
-26.3681680692942
30
0
0
SPLINE
5
25C
100
AcDbEntity
8
1
62
256
6
ByLayer
370
18
48
1
60
0
100
AcDbSpline
70
4
71
3
72
9
73
5
40
0
40
0
40
0
40
0
40
0.809387765225213
40
1
40
1
40
1
40
1
41
1
10
142.342997320683
20
25.0810305813054
30
0
41
1
10
142.334384236894
20
25.1177810095553
30
0
41
1
10
142.32788449059
20
25.1646482680154
30
0
41
1
10
142.326828782398
20
25.2130541241602
30
0
41
1
10
142.326820055645
20
25.222341110595
30
0
0
SPLINE
5
25D
100
AcDbEntity
8
1
62
256
6
ByLayer
370
18
48
1
60
0
100
AcDbSpline
70
4
71
3
72
9
73
5
40
0
40
0
40
0
40
0
40
0.174654186947915
40
1
40
1
40
1
40
1
41
1
10
145.846368453572
20
25.8312843301522
30
0
41
1
10
145.849816201398
20
25.8220920913234
30
0
41
1
10
145.868391314874
20
25.769457895696
30
0
41
1
10
145.880354803476
20
25.7166230763057
30
0
41
1
10
145.885645131308
20
25.6731208331434
30
0
0
SPLINE
5
25E
100
AcDbEntity
8
1
62
256
6
ByLayer
370
18
48
1
60
0
100
AcDbSpline
70
4
71
3
72
20
73
16
40
0
40
0
40
0
40
0
40
0.0281310081100454
40
0.0281310081100454
40
0.136116451653418
40
0.136116451653418
40
0.352087338740077
40
0.352087338740077
40
0.568058225826735
40
0.568058225826735
40
0.676043669370058
40
0.676043669370058
40
0.784029112913381
40
0.784029112913381
40
1
40
1
40
1
40
1
41
1
10
149.500664234718
20
3.80216057840531
30
0
41
1
10
149.506019789557
20
3.80069146707356
30
0
41
1
10
149.511321459708
20
3.79918704928608
30
0
41
1
10
149.536671906216
20
3.79174706111445
30
0
41
1
10
149.555885281233
20
3.78536031170552
30
0
41
1
10
149.610906357948
20
3.76478725714219
30
0
41
1
10
149.644119607848
20
3.749201413885
30
0
41
1
10
149.703407435414
20
3.71417887772023
30
0
41
1
10
149.728563514898
20
3.69527650908023
30
0
41
1
10
149.75977705033
20
3.66503376520046
30
0
41
1
10
149.76909513796
20
3.65463066165773
30
0
41
1
10
149.785526007854
20
3.63317045132072
30
0
41
1
10
149.792644276057
20
3.62208178384981
30
0
41
1
10
149.81028262092
20
3.58842300655104
30
0
41
1
10
149.817282141794
20
3.56529039882153
30
0
41
1
10
149.819506803581
20
3.54146211235795
30
0
0
SPLINE
5
25F
100
AcDbEntity
8
1
62
256
6
ByLayer
370
18
48
1
60
0
100
AcDbSpline
70
4
71
3
72
30
73
26
40
0
40
0
40
0
40
0
40
0.125000000000011
40
0.125000000000011
40
0.187500000000008
40
0.187500000000008
40
0.250000000000005
40
0.250000000000005
40
0.312500000000002
40
0.312500000000002
40
0.374999999999999
40
0.374999999999999
40
0.437499999999996
40
0.437499999999996
40
0.499999999999993
40
0.499999999999993
40
0.624999999999995
40
0.624999999999995
40
0.6875
40
0.6875
40
0.750000000000005
40
0.750000000000005
40
0.875000000000003
40
0.875000000000003
40
1
40
1
40
1
40
1
41
1
10
148.5
20
34.0375531774226
30
0
41
1
10
148.582258760937
20
34.0362619961592
30
0
41
1
10
148.662149582385
20
34.0312745950923
30
0
41
1
10
148.778707544185
20
34.0186762985915
30
0
41
1
10
148.816358616232
20
34.0136746866515
30
0
41
1
10
148.888293778789
20
34.0024100868339
30
0
41
1
10
148.92279321146
20
33.9961229467997
30
0
41
1
10
148.989108966972
20
33.98235191596
30
0
41
1
10
149.020707675132
20
33.974902054685
30
0
41
1
10
149.079928668717
20
33.9593253186861
30
0
41
1
10
149.107765871296
20
33.9511537686822
30
0
41
1
10
149.16031148491
20
33.9341345842406
30
0
41
1
10
149.185017662132
20
33.9252864671097
30
0
41
1
10
149.231558714288
20
33.9069697879393
30
0
41
1
10
149.253219789659
20
33.8975637377352
30
0
41
1
10
149.313234933553
20
33.8690056617271
30
0
41
1
10
149.347016303372
20
33.8493828705763
30
0
41
1
10
149.389927254344
20
33.8192209174692
30
0
41
1
10
149.402923451027
20
33.8090443318783
30
0
41
1
10
149.426434728103
20
33.7884585039662
30
0
41
1
10
149.436942284163
20
33.7780446770288
30
0
41
1
10
149.464533551629
20
33.7468985856007
30
0
41
1
10
149.477895878468
20
33.7261149007432
30
0
41
1
10
149.495633392681
20
33.6845124817472
30
0
41
1
10
149.5
20
33.6636937141472
30
0
41
1
10
149.5
20
33.6428579170521
30
0
0
SPLINE
5
260
100
AcDbEntity
8
1
62
256
6
ByLayer
370
18
48
1
60
0
100
AcDbSpline
70
4
71
3
72
29
73
25
40
0
40
0
40
0
40
0
40
0.0624999999999924
40
0.0624999999999924
40
0.124999999999985
40
0.124999999999985
40
0.249999999999975
40
0.249999999999975
40
0.312499999999972
40
0.312499999999972
40
0.37499999999997
40
0.37499999999997
40
0.499999999999961
40
0.499999999999961
40
0.562499999999961
40
0.562499999999961
40
0.62499999999996
40
0.687499999999959
40
0.687499999999959
40
0.749999999999958
40
0.749999999999958
40
0.874999999999979
40
0.874999999999979
40
1
40
1
40
1
40
1
41
1
10
149.5
20
28.2539635462584
30
0
41
1
10
149.5
20
28.2822658776452
30
0
41
1
10
149.498454871966
20
28.3105655113008
30
0
41
1
10
149.492171308435
20
28.3671592032256
30
0
41
1
10
149.487415543494
20
28.3954096255609
30
0
41
1
10
149.468638939462
20
28.4782970040833
30
0
41
1
10
149.450098911409
20
28.5317106149522
30
0
41
1
10
149.413169519272
20
28.6090377539962
30
0
41
1
10
149.399265132704
20
28.6344459001735
30
0
41
1
10
149.36854128832
20
28.6838128068436
30
0
41
1
10
149.351855087584
20
28.7075843783859
30
0
41
1
10
149.297923876004
20
28.7762324621922
30
0
41
1
10
149.256843758655
20
28.8184681676477
30
0
41
1
10
149.187256285251
20
28.8763355435946
30
0
41
1
10
149.162711299495
20
28.894681956555
30
0
41
1
10
149.112057645164
20
28.9286738573256
30
0
41
1
10
149.059574979173
20
28.9601997477413
30
0
41
1
10
149.003481363526
20
28.9868570856823
30
0
41
1
10
148.945552956004
20
29.0110406199496
30
0
41
1
10
148.915495879015
20
29.0219461686607
30
0
41
1
10
148.82386364977
20
29.0503626631011
30
0
41
1
10
148.761147254392
20
29.0636065620656
30
0
41
1
10
148.632546252104
20
29.0790025419056
30
0
41
1
10
148.566228960417
20
29.081080702034
30
0
41
1
10
148.5
20
29.07730430429
30
0
0
SPLINE
5
261
100
AcDbEntity
8
1
62
256
6
ByLayer
370
18
48
1
60
0
100
AcDbSpline
70
4
71
3
72
28
73
24
40
0
40
0
40
0
40
0
40
0.125000000000001
40
0.125000000000001
40
0.187500000000004
40
0.187500000000004
40
0.250000000000006
40
0.250000000000006
40
0.312500000000009
40
0.312500000000009
40
0.375000000000011
40
0.375000000000011
40
0.437500000000014
40
0.437500000000014
40
0.500000000000016
40
0.500000000000016
40
0.625000000000012
40
0.625000000000012
40
0.750000000000008
40
0.750000000000008
40
0.875000000000004
40
0.875000000000004
40
1
40
1
40
1
40
1
41
1
10
148.5
20
-37.4852453015647
30
0
41
1
10
148.583953774085
20
-37.4845321765849
30
0
41
1
10
148.66464357372
20
-37.4709669695185
30
0
41
1
10
148.781392842644
20
-37.4337450363571
30
0
41
1
10
148.819060625131
20
-37.4186178831394
30
0
41
1
10
148.890769312268
20
-37.3841685334246
30
0
41
1
10
148.92505903139
20
-37.364764458487
30
0
41
1
10
148.990821436381
20
-37.3220324005347
30
0
41
1
10
149.022182376753
20
-37.2987359004809
30
0
41
1
10
149.08090431119
20
-37.2498153589944
30
0
41
1
10
149.108484816584
20
-37.224051214405
30
0
41
1
10
149.160520387146
20
-37.1702340922319
30
0
41
1
10
149.184973109306
20
-37.1421793988081
30
0
41
1
10
149.23102461007
20
-37.08398000233
30
0
41
1
10
149.252648006518
20
-37.053766952068
30
0
41
1
10
149.312496450194
20
-36.9618631486205
30
0
41
1
10
149.346196654169
20
-36.8984115074764
30
0
41
1
10
149.403323454037
20
-36.7678911264669
30
0
41
1
10
149.42673805746
20
-36.7007658271391
30
0
41
1
10
149.464033333668
20
-36.5633708008635
30
0
41
1
10
149.477580991461
20
-36.4943604667747
30
0
41
1
10
149.495568680209
20
-36.355781157913
30
0
41
1
10
149.5
20
-36.2862116488175
30
0
41
1
10
149.5
20
-36.2163703328548
30
0
0
SPLINE
5
262
100
AcDbEntity
8
1
62
256
6
ByLayer
370
18
48
1
60
0
100
AcDbSpline
70
4
71
3
72
30
73
26
40
0
40
0
40
0
40
0
40
0.124999999999992
40
0.124999999999992
40
0.249999999999983
40
0.249999999999983
40
0.374999999999975
40
0.374999999999975
40
0.43749999999997
40
0.43749999999997
40
0.499999999999965
40
0.499999999999965
40
0.624999999999974
40
0.624999999999974
40
0.687499999999978
40
0.687499999999978
40
0.749999999999982
40
0.749999999999982
40
0.812499999999987
40
0.812499999999987
40
0.874999999999991
40
0.874999999999991
40
0.937499999999996
40
0.937499999999996
40
1
40
1
40
1
40
1
41
1
10
140.5
20
-36.302401142046
30
0
41
1
10
140.5
20
-36.3711887356519
30
0
41
1
10
140.504457496965
20
-36.440665800489
30
0
41
1
10
140.522378320616
20
-36.5772248949326
30
0
41
1
10
140.53579810547
20
-36.6446227319152
30
0
41
1
10
140.572130932424
20
-36.7775413926629
30
0
41
1
10
140.595028653534
20
-36.8430652457044
30
0
41
1
10
140.637637695725
20
-36.9397173660052
30
0
41
1
10
140.65322631765
20
-36.9716607761192
30
0
41
1
10
140.68752129722
20
-37.0349311555403
30
0
41
1
10
140.706178262191
20
-37.0661339651587
30
0
41
1
10
140.76625225217
20
-37.156958806065
30
0
41
1
10
140.811958781377
20
-37.2143548251356
30
0
41
1
10
140.891208349806
20
-37.2944893337875
30
0
41
1
10
140.919492173916
20
-37.3202139182801
30
0
41
1
10
140.97879688028
20
-37.3681587049628
30
0
41
1
10
141.009956453226
20
-37.3905364858897
30
0
41
1
10
141.07565055712
20
-37.4317214006178
30
0
41
1
10
141.110369005017
20
-37.4506165997247
30
0
41
1
10
141.182929866764
20
-37.4838414879345
30
0
41
1
10
141.220253125375
20
-37.4979583724325
30
0
41
1
10
141.297114763195
20
-37.5208912031343
30
0
41
1
10
141.336797785173
20
-37.5297308343836
30
0
41
1
10
141.418000813575
20
-37.5414238918294
30
0
41
1
10
141.458866291581
20
-37.5442021879035
30
0
41
1
10
141.5
20
-37.5438626576241
30
0
0
SPLINE
5
263
100
AcDbEntity
8
1
62
256
6
ByLayer
370
18
48
1
60
0
100
AcDbSpline
70
4
71
3
72
30
73
26
40
0
40
0
40
0
40
0
40
0.124999999999998
40
0.124999999999998
40
0.249999999999997
40
0.249999999999997
40
0.374999999999995
40
0.374999999999995
40
0.437499999999994
40
0.437499999999994
40
0.499999999999993
40
0.499999999999993
40
0.624999999999995
40
0.624999999999995
40
0.687499999999996
40
0.687499999999996
40
0.749999999999997
40
0.749999999999997
40
0.812499999999997
40
0.812499999999997
40
0.874999999999998
40
0.874999999999998
40
0.937499999999999
40
0.937499999999999
40
1
40
1
40
1
40
1
41
1
10
140.5
20
33.780566157519
30
0
41
1
10
140.5
20
33.801802519451
30
0
41
1
10
140.504538338286
20
33.8231842424666
30
0
41
1
10
140.522745654804
20
33.8650448771494
30
0
41
1
10
140.53635597017
20
33.8855909323416
30
0
41
1
10
140.573042659548
20
33.9258759149701
30
0
41
1
10
140.596106076501
20
33.9456159471957
30
0
41
1
10
140.638824784865
20
33.9745333345746
30
0
41
1
10
140.654426357202
20
33.9840563319113
30
0
41
1
10
140.688667422704
20
34.0028432968964
30
0
41
1
10
140.707242063576
20
34.0120634272523
30
0
41
1
10
140.767004447272
20
34.0388287223066
30
0
41
1
10
140.812382873942
20
34.0556218079927
30
0
41
1
10
140.890807413353
20
34.0788465339244
30
0
41
1
10
140.918832434414
20
34.0862836643176
30
0
41
1
10
140.977669679146
20
34.100085945748
30
0
41
1
10
141.00857475734
20
34.1064865814602
30
0
41
1
10
141.073708257399
20
34.1181688488067
30
0
41
1
10
141.107932791689
20
34.1234517894273
30
0
41
1
10
141.180272912933
20
34.1327075131192
30
0
41
1
10
141.217724914918
20
34.1365882595175
30
0
41
1
10
141.294756137489
20
34.1426751320088
30
0
41
1
10
141.334427802578
20
34.1448947437351
30
0
41
1
10
141.416364268564
20
34.1474860524494
30
0
41
1
10
141.458055244163
20
34.1478306810498
30
0
41
1
10
141.5
20
34.1471753440966
30
0
0
SPLINE
5
264
100
AcDbEntity
8
1
62
256
6
ByLayer
370
18
48
1
60
0
100
AcDbSpline
70
4
71
3
72
9
73
5
40
0
40
0
40
0
40
0
40
0.715444981135333
40
1
40
1
40
1
40
1
41
1
10
147.608871167183
20
34.3508231725398
30
0
41
1
10
147.58731956694
20
34.2765913411205
30
0
41
1
10
147.549519685427
20
34.1737406185949
30
0
41
1
10
147.501046100947
20
34.0735230407775
30
0
41
1
10
147.486400545248
20
34.0452704334012
30
0
0
SPLINE
5
265
100
AcDbEntity
8
1
62
256
6
ByLayer
370
18
48
1
60
0
100
AcDbSpline
70
4
71
3
72
36
73
32
40
0
40
0
40
0
40
0
40
0.125000000000022
40
0.125000000000022
40
0.187500000000033
40
0.187500000000033
40
0.218750000000038
40
0.218750000000038
40
0.250000000000043
40
0.250000000000043
40
0.37500000000007
40
0.37500000000007
40
0.406250000000078
40
0.406250000000078
40
0.437500000000086
40
0.437500000000086
40
0.500000000000095
40
0.500000000000095
40
0.625000000000086
40
0.625000000000086
40
0.656250000000081
40
0.656250000000081
40
0.687500000000076
40
0.750000000000066
40
0.812500000000056
40
0.812500000000056
40
0.843750000000048
40
0.843750000000048
40
0.875000000000039
40
0.875000000000039
40
1
40
1
40
1
40
1
41
1
10
148.5
20
-38.73605378494
30
0
41
1
10
148.566702664946
20
-38.7363825325395
30
0
41
1
10
148.632174184271
20
-38.7301691052035
30
0
41
1
10
148.728626082424
20
-38.7115210599319
30
0
41
1
10
148.760481896997
20
-38.7037384130438
30
0
41
1
10
148.807815032168
20
-38.6896700736928
30
0
41
1
10
148.823551622778
20
-38.6845686153867
30
0
41
1
10
148.854710063243
20
-38.6736071171764
30
0
41
1
10
148.870081902268
20
-38.6677668035181
30
0
41
1
10
148.945927025497
20
-38.6368070030591
30
0
41
1
10
149.003387080744
20
-38.6064630779448
30
0
41
1
10
149.071253694497
20
-38.5616698678112
30
0
41
1
10
149.084627300902
20
-38.5523649508268
30
0
41
1
10
149.110969345444
20
-38.5330526224085
30
0
41
1
10
149.123972026603
20
-38.5230163305348
30
0
41
1
10
149.162034667202
20
-38.4921005402086
30
0
41
1
10
149.186177257074
20
-38.4704110637453
30
0
41
1
10
149.255026259063
20
-38.4022097355857
30
0
41
1
10
149.296187455958
20
-38.3525943573251
30
0
41
1
10
149.341588821972
20
-38.285278773537
30
0
41
1
10
149.350382729615
20
-38.2715146127292
30
0
41
1
10
149.367184454876
20
-38.2437162079386
30
0
41
1
10
149.39125612923
20
-38.2015500564086
30
0
41
1
10
149.425836913878
20
-38.1289784315021
30
0
41
1
10
149.44767808848
20
-38.0685084395942
30
0
41
1
10
149.461843611807
20
-38.0222381095486
30
0
41
1
10
149.466195576739
20
-38.0066614242545
30
0
41
1
10
149.474146257034
20
-37.9751959777961
30
0
41
1
10
149.477750971513
20
-37.9592698175207
30
0
41
1
10
149.493695463583
20
-37.8796487597707
30
0
41
1
10
149.5
20
-37.8155424291007
30
0
41
1
10
149.5
20
-37.7510359144518
30
0
0
SPLINE
5
266
100
AcDbEntity
8
1
62
256
6
ByLayer
370
18
48
1
60
0
100
AcDbSpline
70
4
71
3
72
38
73
34
40
0
40
0
40
0
40
0
40
0.0625000000000088
40
0.0625000000000088
40
0.0937500000000067
40
0.0937500000000067
40
0.125000000000005
40
0.125000000000005
40
0.250000000000014
40
0.250000000000014
40
0.281250000000012
40
0.281250000000012
40
0.312500000000009
40
0.312500000000009
40
0.374999999999993
40
0.374999999999993
40
0.499999999999949
40
0.499999999999949
40
0.531249999999929
40
0.531249999999929
40
0.562499999999909
40
0.624999999999897
40
0.687499999999885
40
0.687499999999885
40
0.718749999999879
40
0.718749999999879
40
0.749999999999873
40
0.749999999999873
40
0.874999999999922
40
0.874999999999922
40
0.937499999999961
40
0.937499999999961
40
1
40
1
40
1
40
1
41
1
10
140.5
20
-37.7946212161433
30
0
41
1
10
140.5
20
-37.8266375440917
30
0
41
1
10
140.501545128034
20
-37.8587532232322
30
0
41
1
10
140.506257800683
20
-37.9070807383573
30
0
41
1
10
140.508235952318
20
-37.9232577921024
30
0
41
1
10
140.51296417449
20
-37.9553562987339
30
0
41
1
10
140.515713890511
20
-37.9712974969611
30
0
41
1
10
140.531361060538
20
-38.0504714609282
30
0
41
1
10
140.549901088591
20
-38.1121230517842
30
0
41
1
10
140.580675582038
20
-38.187058002909
30
0
41
1
10
140.587213798885
20
-38.2019375788515
30
0
41
1
10
140.601072582497
20
-38.2314774988697
30
0
41
1
10
140.608415828392
20
-38.2461791868643
30
0
41
1
10
140.63145871168
20
-38.2895901871145
30
0
41
1
10
140.648144912416
20
-38.3175870759181
30
0
41
1
10
140.702076123996
20
-38.39881783682
30
0
41
1
10
140.743156241345
20
-38.4493185307071
30
0
41
1
10
140.801145802515
20
-38.5077126642814
30
0
41
1
10
140.813115157618
20
-38.5191847934371
30
0
41
1
10
140.837517735915
20
-38.5414379928648
30
0
41
1
10
140.874821688338
20
-38.5737964180425
30
0
41
1
10
140.940425035618
20
-38.6227228657021
30
0
41
1
10
140.996518636474
20
-38.6565959451167
30
0
41
1
10
141.039964942115
20
-38.6799931158014
30
0
41
1
10
141.054676806422
20
-38.6874569657324
30
0
41
1
10
141.084568968653
20
-38.7017012544139
30
0
41
1
10
141.099776159192
20
-38.7084905642742
30
0
41
1
10
141.17613635023
20
-38.7403392083744
30
0
41
1
10
141.238852745608
20
-38.7594775606475
30
0
41
1
10
141.335303497324
20
-38.7789320550822
30
0
41
1
10
141.367852661963
20
-38.7838634694863
30
0
41
1
10
141.433773360309
20
-38.790523898936
30
0
41
1
10
141.466885519792
20
-38.7922215889591
30
0
41
1
10
141.5
20
-38.7922802627108
30
0
0
SPLINE
5
267
100
AcDbEntity
8
1
62
256
6
ByLayer
370
13
48
1
60
0
100
AcDbSpline
70
4
71
3
72
8
73
4
40
0
40
0
40
0
40
0
40
1
40
1
40
1
40
1
41
1
10
147.703414496128
20
-28.8979035536239
30
0
41
1
10
147.407442275973
20
-27.635514978717
30
0
41
1
10
147.111470055818
20
-26.3731264038102
30
0
41
1
10
146.815497835663
20
-25.1107378289033
30
0
0
SPLINE
5
268
100
AcDbEntity
8
1
62
256
6
ByLayer
370
13
48
1
60
0
100
AcDbSpline
70
4
71
3
72
8
73
4
40
0
40
0
40
0
40
0
40
1
40
1
40
1
40
1
41
1
10
147.360291599157
20
-24.9133935892768
30
0
41
1
10
147.729392724053
20
-26.0377944235589
30
0
41
1
10
148.098493848949
20
-27.162195257841
30
0
41
1
10
148.467594973845
20
-28.286596092123
30
0
0
SPLINE
5
269
100
AcDbEntity
8
1
62
256
6
ByLayer
370
18
48
1
60
0
100
AcDbSpline
70
4
71
3
72
22
73
18
40
0
40
0
40
0
40
0
40
0.125
40
0.125
40
0.25
40
0.25
40
0.375
40
0.375
40
0.5
40
0.5
40
0.625
40
0.625
40
0.75
40
0.75
40
0.875
40
0.875
40
1
40
1
40
1
40
1
41
1
10
140.399870692089
20
-25.2427960866316
30
0
41
1
10
140.400666948897
20
-25.2597596172043
30
0
41
1
10
140.404577885958
20
-25.2761767887402
30
0
41
1
10
140.418328703841
20
-25.3079711110822
30
0
41
1
10
140.428308823946
20
-25.3234936471301
30
0
41
1
10
140.453869379214
20
-25.3526833778881
30
0
41
1
10
140.469296438283
20
-25.366270763675
30
0
41
1
10
140.505336823982
20
-25.391471417305
30
0
41
1
10
140.526183480188
20
-25.4031578746819
30
0
41
1
10
140.571567139888
20
-25.4236134276822
30
0
41
1
10
140.596204847867
20
-25.4324990706089
30
0
41
1
10
140.64940823875
20
-25.4475611081584
30
0
41
1
10
140.677942137996
20
-25.4536780204374
30
0
41
1
10
140.736604553626
20
-25.4626548794448
30
0
41
1
10
140.767011094207
20
-25.4656031977507
30
0
41
1
10
140.830058628149
20
-25.4682996103429
30
0
41
1
10
140.862151032369
20
-25.4680127148467
30
0
41
1
10
140.894483252653
20
-25.4660723793185
30
0
0
SPLINE
5
26A
100
AcDbEntity
8
1
62
256
6
ByLayer
370
13
48
1
60
0
100
AcDbSpline
70
4
71
3
72
8
73
4
40
0
40
0
40
0
40
0
40
1
40
1
40
1
40
1
41
1
10
140.894483252653
20
-25.4660723793185
30
0
41
1
10
140.851068980986
20
-26.7488283667352
30
0
41
1
10
140.807654709319
20
-28.0315843541518
30
0
41
1
10
140.764240437652
20
-29.3143403415684
30
0
0
SPLINE
5
26B
100
AcDbEntity
8
1
62
256
6
ByLayer
370
18
48
1
60
0
100
AcDbSpline
70
4
71
3
72
20
73
16
40
0
40
0
40
0
40
0
40
0.162094110374065
40
0.162094110374065
40
0.32418822074813
40
0.32418822074813
40
0.486282331122195
40
0.486282331122195
40
0.64837644149626
40
0.64837644149626
40
0.810470551870325
40
0.810470551870325
40
0.97256466224439
40
0.97256466224439
40
1
40
1
40
1
40
1
41
1
10
146.815497835663
20
-25.1107378289033
30
0
41
1
10
146.847834347116
20
-25.1087972358515
30
0
41
1
10
146.879712700513
20
-25.1052562475387
30
0
41
1
10
146.942596314573
20
-25.0951244643214
30
0
41
1
10
146.973891519929
20
-25.0884505285639
30
0
41
1
10
147.034098273222
20
-25.0722690483792
30
0
41
1
10
147.062785320017
20
-25.0628596420914
30
0
41
1
10
147.117380976804
20
-25.041453981061
30
0
41
1
10
147.14349864685
20
-25.0293170205941
30
0
41
1
10
147.190923626931
20
-25.0032934776762
30
0
41
1
10
147.212438737847
20
-24.9893605755903
30
0
41
1
10
147.251033053225
20
-24.9596352610384
30
0
41
1
10
147.268047513398
20
-24.9438160071436
30
0
41
1
10
147.284448540812
20
-24.9249975031063
30
0
41
1
10
147.286743726028
20
-24.9222609652325
30
0
41
1
10
147.288959467638
20
-24.9195118836716
30
0
0
SPLINE
5
26C
100
AcDbEntity
8
1
62
256
6
ByLayer
370
13
48
1
60
0
100
AcDbSpline
70
4
71
3
72
8
73
4
40
0
40
0
40
0
40
0
40
1
40
1
40
1
40
1
41
1
10
140.000059959935
20
-28.7947535548536
30
0
41
1
10
140.133330203986
20
-27.610767732113
30
0
41
1
10
140.266600448038
20
-26.4267819093723
30
0
41
1
10
140.399870692089
20
-25.2427960866317
30
0
0
SPLINE
5
26D
100
AcDbEntity
8
1
62
256
6
ByLayer
370
18
48
1
60
0
100
AcDbSpline
70
4
71
3
72
29
73
25
40
0
40
0
40
0
40
0
40
0.124999999999981
40
0.124999999999981
40
0.187499999999968
40
0.187499999999968
40
0.249999999999955
40
0.249999999999955
40
0.374999999999929
40
0.374999999999929
40
0.437499999999937
40
0.437499999999937
40
0.499999999999946
40
0.499999999999946
40
0.624999999999958
40
0.624999999999958
40
0.687499999999965
40
0.687499999999965
40
0.749999999999971
40
0.812499999999978
40
0.812499999999978
40
0.874999999999985
40
0.874999999999985
40
1
40
1
40
1
40
1
41
1
10
148.467594973845
20
-28.286596092123
30
0
41
1
10
148.467592609654
20
-28.3237071540767
30
0
41
1
10
148.462788800689
20
-28.3605582455057
30
0
41
1
10
148.448540372392
20
-28.4154535602827
30
0
41
1
10
148.442609052362
20
-28.4336880085128
30
0
41
1
10
148.428309314697
20
-28.4700249502032
30
0
41
1
10
148.419946642252
20
-28.4880741346232
30
0
41
1
10
148.391715478071
20
-28.5408946275486
30
0
41
1
10
148.368597262951
20
-28.5747201694122
30
0
41
1
10
148.327403466311
20
-28.6233535894108
30
0
41
1
10
148.31249913017
20
-28.6392868102475
30
0
41
1
10
148.280784245572
20
-28.6700434986543
30
0
41
1
10
148.264068510776
20
-28.6847913134364
30
0
41
1
10
148.211412149701
20
-28.7271914501438
30
0
41
1
10
148.172986188049
20
-28.7530179643395
30
0
41
1
10
148.110194559562
20
-28.7879724058752
30
0
41
1
10
148.08845083207
20
-28.7989449390009
30
0
41
1
10
148.044208084775
20
-28.8191277048456
30
0
41
1
10
147.998982288951
20
-28.8376795628634
30
0
41
1
10
147.951817821971
20
-28.8530151056464
30
0
41
1
10
147.903670061073
20
-28.8667193334948
30
0
41
1
10
147.878983337007
20
-28.8727779247256
30
0
41
1
10
147.804487756564
20
-28.8881893899008
30
0
41
1
10
147.754242263996
20
-28.8948532550998
30
0
41
1
10
147.703414496128
20
-28.8979035536239
30
0
0
SPLINE
5
26E
100
AcDbEntity
8
1
62
256
6
ByLayer
370
18
48
1
60
0
100
AcDbSpline
70
4
71
3
72
28
73
24
40
0
40
0
40
0
40
0
40
0.125000000000018
40
0.125000000000018
40
0.187500000000028
40
0.187500000000028
40
0.250000000000038
40
0.250000000000038
40
0.375000000000058
40
0.375000000000058
40
0.437500000000039
40
0.437500000000039
40
0.500000000000019
40
0.500000000000019
40
0.625000000000032
40
0.625000000000032
40
0.750000000000044
40
0.750000000000044
40
0.812500000000035
40
0.812500000000035
40
0.875000000000026
40
0.875000000000026
40
1
40
1
40
1
40
1
41
1
10
140.764240437652
20
-29.3143403415684
30
0
41
1
10
140.713422935958
20
-29.3173900239944
30
0
41
1
10
140.663411822298
20
-29.3167443335088
30
0
41
1
10
140.589572076149
20
-29.3103823964111
30
0
41
1
10
140.565156372399
20
-29.3073564764716
30
0
41
1
10
140.516731708756
20
-29.2994406825462
30
0
41
1
10
140.492813988657
20
-29.2945539799591
30
0
41
1
10
140.423213011927
20
-29.2774182543477
30
0
41
1
10
140.379162145169
20
-29.262641681783
30
0
41
1
10
140.316620866471
20
-29.235432929311
30
0
41
1
10
140.296259098846
20
-29.2254525765972
30
0
41
1
10
140.257453860014
20
-29.2041145081996
30
0
41
1
10
140.238986714261
20
-29.1927624059639
30
0
41
1
10
140.186313837232
20
-29.1567137478367
30
0
41
1
10
140.154811041177
20
-29.1300435515004
30
0
41
1
10
140.099242615037
20
-29.0712726581491
30
0
41
1
10
140.076038624789
20
-29.040069659254
30
0
41
1
10
140.047875247404
20
-28.9908289905271
30
0
41
1
10
140.039594896742
20
-28.9739980267341
30
0
41
1
10
140.025282163926
20
-28.9394888139626
30
0
41
1
10
140.019247259815
20
-28.9217612244396
30
0
41
1
10
140.004865281932
20
-28.8682502719918
30
0
41
1
10
140.000062323902
20
-28.8318608193934
30
0
41
1
10
140.000059959935
20
-28.7947535548536
30
0
0
SPLINE
5
26F
100
AcDbEntity
8
1
62
256
6
ByLayer
370
13
48
1
60
0
100
AcDbSpline
70
4
71
3
72
8
73
4
40
0
40
0
40
0
40
0
40
1
40
1
40
1
40
1
41
1
10
149.819506803581
20
3.54146211235798
30
0
41
1
10
149.780741089904
20
3.14805311197554
30
0
41
1
10
149.741975376227
20
2.75464411159311
30
0
41
1
10
149.70320966255
20
2.3612351112107
30
0
0
SPLINE
5
270
100
AcDbEntity
8
1
62
256
6
ByLayer
370
18
48
1
60
0
100
AcDbSpline
70
4
71
3
72
8
73
4
40
0
40
0
40
0
40
0
40
1
40
1
40
1
40
1
41
1
10
144.065178128977
20
23.0468416581302
30
0
41
1
10
144.068150244065
20
23.0538460577725
30
0
41
1
10
144.071123039026
20
23.0608503171241
30
0
41
1
10
144.074096548824
20
23.0678544269634
30
0
0
SPLINE
5
271
100
AcDbEntity
8
1
62
256
6
ByLayer
370
18
48
1
60
0
100
AcDbSpline
70
4
71
3
72
8
73
4
40
0
40
0
40
0
40
0
40
1
40
1
40
1
40
1
41
1
10
144.024450080834
20
24.9657658776359
30
0
41
1
10
144.021218480023
20
24.9686282075783
30
0
41
1
10
144.017987636981
20
24.9714887468387
30
0
41
1
10
144.014757514662
20
24.9743475841501
30
0
0
SPLINE
5
272
100
AcDbEntity
8
1
62
256
6
ByLayer
370
18
48
1
60
0
100
AcDbSpline
70
4
71
3
72
22
73
18
40
0
40
0
40
0
40
0
40
0.0624999999999993
40
0.0624999999999993
40
0.124999999999999
40
0.124999999999999
40
0.187499999999998
40
0.187499999999998
40
0.249999999999997
40
0.249999999999997
40
0.374999999999998
40
0.374999999999998
40
0.499999999999999
40
0.499999999999999
40
0.749999999999999
40
0.749999999999999
40
1
40
1
40
1
40
1
41
1
10
144.014757514662
20
24.9743475841501
30
0
41
1
10
144.013489489741
20
24.9783151875832
30
0
41
1
10
144.011296974319
20
24.9819412399129
30
0
41
1
10
144.004887359981
20
24.988440950537
30
0
41
1
10
144.00058620965
20
24.9913276359854
30
0
41
1
10
143.990415860517
20
24.9959433642825
30
0
41
1
10
143.984438283847
20
24.9977426536246
30
0
41
1
10
143.971394553152
20
25.0002817748686
30
0
41
1
10
143.964410195982
20
25.0010263259414
30
0
41
1
10
143.942378238276
20
25.0019846495733
30
0
41
1
10
143.926545874504
20
25.0009081331907
30
0
41
1
10
143.894735717345
20
24.9966036203502
30
0
41
1
10
143.878457609269
20
24.9933306318477
30
0
41
1
10
143.830197788598
20
24.9812976468685
30
0
41
1
10
143.798328975189
20
24.9702908958842
30
0
41
1
10
143.736798197584
20
24.9446486846222
30
0
41
1
10
143.707020221547
20
24.9299421104011
30
0
41
1
10
143.678545798672
20
24.9137273507222
30
0
0
SPLINE
5
273
100
AcDbEntity
8
1
62
256
6
ByLayer
370
18
48
1
60
0
100
AcDbSpline
70
4
71
3
72
18
73
14
40
0
40
0
40
0
40
0
40
0.25
40
0.25
40
0.500000000000001
40
0.500000000000001
40
0.625000000000001
40
0.625000000000001
40
0.75
40
0.75
40
0.875
40
0.875
40
1
40
1
40
1
40
1
41
1
10
144.962690574247
20
24.9936394787734
30
0
41
1
10
144.93347565606
20
25.0062573813116
30
0
41
1
10
144.902954812243
20
25.0171980203417
30
0
41
1
10
144.839782337595
20
25.0350869306348
30
0
41
1
10
144.807151316445
20
25.0420633958388
30
0
41
1
10
144.757376852329
20
25.0480192296161
30
0
41
1
10
144.740744616609
20
25.0492264648448
30
0
41
1
10
144.707903704862
20
25.0495235783979
30
0
41
1
10
144.691369781334
20
25.0485963267621
30
0
41
1
10
144.660709429387
20
25.0436126880492
30
0
41
1
10
144.646414258822
20
25.039472360615
30
0
41
1
10
144.624268691617
20
25.0275229357657
30
0
41
1
10
144.616926310332
20
25.0199172185431
30
0
41
1
10
144.613616329181
20
25.0116144742864
30
0
0
SPLINE
5
274
100
AcDbEntity
8
1
62
256
6
ByLayer
370
18
48
1
60
0
100
AcDbSpline
70
4
71
3
72
8
73
4
40
0
40
0
40
0
40
0
40
1
40
1
40
1
40
1
41
1
10
144.613616329181
20
25.0116144742864
30
0
41
1
10
144.610020870853
20
25.0083308821615
30
0
41
1
10
144.606425052548
20
25.0050455208357
30
0
41
1
10
144.602828856284
20
25.0017582981518
30
0
0
SPLINE
5
275
100
AcDbEntity
8
1
62
256
6
ByLayer
370
18
48
1
60
0
100
AcDbSpline
70
4
71
3
72
24
73
20
40
0
40
0
40
0
40
0
40
0.0624999999999993
40
0.0624999999999993
40
0.124999999999999
40
0.124999999999999
40
0.249999999999999
40
0.249999999999999
40
0.374999999999999
40
0.374999999999999
40
0.499999999999999
40
0.499999999999999
40
0.624999999999999
40
0.624999999999999
40
0.75
40
0.75
40
0.875
40
0.875
40
1
40
1
40
1
40
1
41
1
10
144.602828856284
20
25.0017582981518
30
0
41
1
10
144.596205810863
20
24.9957042834245
30
0
41
1
10
144.587823651008
20
24.9904080133593
30
0
41
1
10
144.568723223914
20
24.9807558258986
30
0
41
1
10
144.558026799677
20
24.9764452706028
30
0
41
1
10
144.524092891634
20
24.9648224827516
30
0
41
1
10
144.498973964588
20
24.9587356929738
30
0
41
1
10
144.446835950723
20
24.9486399192442
30
0
41
1
10
144.419701471202
20
24.9446366943303
30
0
41
1
10
144.364643020815
20
24.9381761980278
30
0
41
1
10
144.336886331629
20
24.9357394861563
30
0
41
1
10
144.28124144078
20
24.9322761459668
30
0
41
1
10
144.253631329267
20
24.9312697821947
30
0
41
1
10
144.199472590776
20
24.9309302859161
30
0
41
1
10
144.172966636067
20
24.9315941047879
30
0
41
1
10
144.12247126661
20
24.9352954208749
30
0
41
1
10
144.098362157807
20
24.9383078655461
30
0
41
1
10
144.055309429064
20
24.9483293022979
30
0
41
1
10
144.036346922287
20
24.9552284729539
30
0
41
1
10
144.024450080834
20
24.9657658776359
30
0
0
SPLINE
5
276
100
AcDbEntity
8
1
62
256
6
ByLayer
370
18
48
1
60
0
100
AcDbSpline
70
4
71
3
72
18
73
14
40
0
40
0
40
0
40
0
40
0.25
40
0.25
40
0.5
40
0.5
40
0.625
40
0.625
40
0.75
40
0.75
40
0.875
40
0.875
40
1
40
1
40
1
40
1
41
1
10
143.678545798672
20
24.9137273507222
30
0
41
1
10
143.650084897521
20
24.8975202909893
30
0
41
1
10
143.622949304743
20
24.8798227670744
30
0
41
1
10
143.572417471016
20
24.8416548376947
30
0
41
1
10
143.548983805387
20
24.8211980282871
30
0
41
1
10
143.519150357023
20
24.7887408140355
30
0
41
1
10
143.510171825398
20
24.7776877521888
30
0
41
1
10
143.495206884255
20
24.7554001192463
30
0
41
1
10
143.489096336482
20
24.74393854257
30
0
41
1
10
143.482285126871
20
24.7221028938934
30
0
41
1
10
143.481628948198
20
24.7116012711859
30
0
41
1
10
143.488528535409
20
24.6945283354355
30
0
41
1
10
143.49603947122
20
24.6883472967282
30
0
41
1
10
143.506449099327
20
24.6848913646706
30
0
0
SPLINE
5
277
100
AcDbEntity
8
1
62
256
6
ByLayer
370
18
48
1
60
0
100
AcDbSpline
70
4
71
3
72
24
73
20
40
0
40
0
40
0
40
0
40
0.0625000000000005
40
0.0625000000000005
40
0.125000000000001
40
0.125000000000001
40
0.250000000000001
40
0.250000000000001
40
0.5
40
0.5
40
0.625
40
0.625
40
0.75
40
0.75
40
0.875
40
0.875
40
0.9375
40
0.9375
40
1
40
1
40
1
40
1
41
1
10
143.237745438588
20
24.2244115664432
30
0
41
1
10
143.249412824616
20
24.2287706695066
30
0
41
1
10
143.260855770847
20
24.2347649965041
30
0
41
1
10
143.28348593602
20
24.2488824680795
30
0
41
1
10
143.294597316073
20
24.2569953234518
30
0
41
1
10
143.326825738839
20
24.2830667835056
30
0
41
1
10
143.346986533533
20
24.3027871099289
30
0
41
1
10
143.403461439866
20
24.3644533647313
30
0
41
1
10
143.435905798297
20
24.4088003901012
30
0
41
1
10
143.475989172043
20
24.474037113511
30
0
41
1
10
143.487678167017
20
24.4952731294202
30
0
41
1
10
143.507614167966
20
24.5368251145137
30
0
41
1
10
143.515941148083
20
24.5573513551449
30
0
41
1
10
143.527714134554
20
24.59648061756
30
0
41
1
10
143.531262818509
20
24.6151470916824
30
0
41
1
10
143.530901425777
20
24.640859200486
30
0
41
1
10
143.529820474647
20
24.6489189964541
30
0
41
1
10
143.524996881827
20
24.6637432926513
30
0
41
1
10
143.521229150294
20
24.6705124945856
30
0
41
1
10
143.515592791081
20
24.6759971016272
30
0
0
SPLINE
5
278
100
AcDbEntity
8
1
62
256
6
ByLayer
370
18
48
1
60
0
100
AcDbSpline
70
4
71
3
72
8
73
4
40
0
40
0
40
0
40
0
40
1
40
1
40
1
40
1
41
1
10
143.218763341838
20
24.21731546159
30
0
41
1
10
143.225089475835
20
24.2196817200648
30
0
41
1
10
143.23141682075
20
24.2220471038864
30
0
41
1
10
143.237745438588
20
24.2244115664432
30
0
0
SPLINE
5
279
100
AcDbEntity
8
1
62
256
6
ByLayer
370
18
48
1
60
0
100
AcDbSpline
70
4
71
3
72
20
73
16
40
0
40
0
40
0
40
0
40
0.250000000000001
40
0.250000000000001
40
0.500000000000002
40
0.500000000000002
40
0.625000000000002
40
0.625000000000002
40
0.750000000000003
40
0.750000000000003
40
0.812500000000002
40
0.812500000000002
40
0.875000000000001
40
0.875000000000001
40
1
40
1
40
1
40
1
41
1
10
143.061655550869
20
23.9110951132577
30
0
41
1
10
143.060901266753
20
23.9399302855945
30
0
41
1
10
143.062716239282
20
23.9692942313454
30
0
41
1
10
143.072100983316
20
24.028518005968
30
0
41
1
10
143.079615596306
20
24.0583625846781
30
0
41
1
10
143.096933104436
20
24.1025302627927
30
0
41
1
10
143.10375217987
20
24.1171789723493
30
0
41
1
10
143.119947743713
20
24.1454836216333
30
0
41
1
10
143.129206551621
20
24.159035386458
30
0
41
1
10
143.145891844986
20
24.1779636706584
30
0
41
1
10
143.151772164561
20
24.1838477245322
30
0
41
1
10
143.164291413688
20
24.1945935489624
30
0
41
1
10
143.171003289918
20
24.1994783527494
30
0
41
1
10
143.191289823009
20
24.2114934859888
30
0
41
1
10
143.205555722302
20
24.2162069438356
30
0
41
1
10
143.218763341838
20
24.21731546159
30
0
0
SPLINE
5
27A
100
AcDbEntity
8
1
62
256
6
ByLayer
370
18
48
1
60
0
100
AcDbSpline
70
4
71
3
72
8
73
4
40
0
40
0
40
0
40
0
40
1
40
1
40
1
40
1
41
1
10
143.506449099327
20
24.6848913646706
30
0
41
1
10
143.509496292961
20
24.6819283586225
30
0
41
1
10
143.512544178356
20
24.6789636341323
30
0
41
1
10
143.515592791081
20
24.6759971016272
30
0
0
SPLINE
5
27B
100
AcDbEntity
8
1
62
256
6
ByLayer
370
18
48
1
60
0
100
AcDbSpline
70
4
71
3
72
22
73
18
40
0
40
0
40
0
40
0
40
0.0624999999999992
40
0.0624999999999992
40
0.124999999999998
40
0.124999999999998
40
0.187499999999998
40
0.187499999999998
40
0.249999999999997
40
0.249999999999997
40
0.374999999999997
40
0.374999999999997
40
0.499999999999998
40
0.499999999999998
40
0.749999999999999
40
0.749999999999999
40
1
40
1
40
1
40
1
41
1
10
145.135391401903
20
24.7862601887684
30
0
41
1
10
145.141084247143
20
24.7886653666966
30
0
41
1
10
145.145976687678
20
24.7915917354731
30
0
41
1
10
145.154006544844
20
24.7985827781922
30
0
41
1
10
145.157138997417
20
24.8027115329995
30
0
41
1
10
145.161185366373
20
24.8116252788329
30
0
41
1
10
145.162175079609
20
24.8165131482515
30
0
41
1
10
145.1622549872
20
24.826637204803
30
0
41
1
10
145.1613761156
20
24.8318178192596
30
0
41
1
10
145.156563280541
20
24.8476034426927
30
0
41
1
10
145.150519156924
20
24.8582391131859
30
0
41
1
10
145.135404014016
20
24.8786988218562
30
0
41
1
10
145.126181148783
20
24.8887151122265
30
0
41
1
10
145.095769294779
20
24.9173716901759
30
0
41
1
10
145.071667759785
20
24.934926526938
30
0
41
1
10
145.019813547124
20
24.9667214874469
30
0
41
1
10
144.991919372391
20
24.9810155814916
30
0
41
1
10
144.962690574247
20
24.9936394787734
30
0
0
SPLINE
5
27C
100
AcDbEntity
8
1
62
256
6
ByLayer
370
18
48
1
60
0
100
AcDbSpline
70
4
71
3
72
8
73
4
40
0
40
0
40
0
40
0
40
1
40
1
40
1
40
1
41
1
10
145.1251673448
20
24.7761606737503
30
0
41
1
10
145.12857570506
20
24.7795290226718
30
0
41
1
10
145.131983718605
20
24.7828954967409
30
0
41
1
10
145.135391401903
20
24.7862601887684
30
0
0
SPLINE
5
27D
100
AcDbEntity
8
1
62
256
6
ByLayer
370
18
48
1
60
0
100
AcDbSpline
70
4
71
3
72
18
73
14
40
0
40
0
40
0
40
0
40
0.25
40
0.25
40
0.5
40
0.5
40
0.625
40
0.625
40
0.75
40
0.75
40
0.875
40
0.875
40
1
40
1
40
1
40
1
41
1
10
145.629945102019
20
24.07091936936
30
0
41
1
10
145.629191084983
20
24.0997443316312
30
0
41
1
10
145.62574088397
20
24.1287701884464
30
0
41
1
10
145.612805891115
20
24.1865840486819
30
0
41
1
10
145.603382843304
20
24.2153645065414
30
0
41
1
10
145.582874446779
20
24.2571643156826
30
0
41
1
10
145.574993390481
20
24.2707817042183
30
0
41
1
10
145.556545360678
20
24.2967811378831
30
0
41
1
10
145.545770884104
20
24.3094112241209
30
0
41
1
10
145.521042230076
20
24.3315131405647
30
0
41
1
10
145.506865357991
20
24.3410851046047
30
0
41
1
10
145.476554016598
20
24.3537666312487
30
0
41
1
10
145.460993676136
20
24.356562256553
30
0
41
1
10
145.446564458932
20
24.355951175824
30
0
0
SPLINE
5
27E
100
AcDbEntity
8
1
62
256
6
ByLayer
370
18
48
1
60
0
100
AcDbSpline
70
4
71
3
72
8
73
4
40
0
40
0
40
0
40
0
40
1
40
1
40
1
40
1
41
1
10
145.446564458932
20
24.355951175824
30
0
41
1
10
145.439610135351
20
24.3574909935059
30
0
41
1
10
145.432654919979
20
24.3590298056832
30
0
41
1
10
145.425698767758
20
24.3605675590822
30
0
0
SPLINE
5
27F
100
AcDbEntity
8
1
62
256
6
ByLayer
370
18
48
1
60
0
100
AcDbSpline
70
4
71
3
72
24
73
20
40
0
40
0
40
0
40
0
40
0.062499999999999
40
0.062499999999999
40
0.124999999999998
40
0.124999999999998
40
0.249999999999998
40
0.249999999999998
40
0.374999999999998
40
0.374999999999998
40
0.499999999999998
40
0.499999999999998
40
0.624999999999999
40
0.624999999999999
40
0.749999999999999
40
0.749999999999999
40
0.875
40
0.875
40
1
40
1
40
1
40
1
41
1
10
145.425698767758
20
24.3605675590822
30
0
41
1
10
145.41288775614
20
24.3633996099105
30
0
41
1
10
145.400279551529
20
24.367890143422
30
0
41
1
10
145.375301820743
20
24.379027192831
30
0
41
1
10
145.363014270358
20
24.3856737871953
30
0
41
1
10
145.3273534607
20
24.4074872784891
30
0
41
1
10
145.305041069813
20
24.4245226928829
30
0
41
1
10
145.263494776601
20
24.4605816274875
30
0
41
1
10
145.244208323654
20
24.4796967625357
30
0
41
1
10
145.208722355212
20
24.5187812990999
30
0
41
1
10
145.192627832076
20
24.5386335977225
30
0
41
1
10
145.163712868622
20
24.5786170629906
30
0
41
1
10
145.151043703978
20
24.5985488527514
30
0
41
1
10
145.129771554651
20
24.637941610625
30
0
41
1
10
145.121182828804
20
24.6573694946245
30
0
41
1
10
145.109384621312
20
24.695055786638
30
0
41
1
10
145.106097901786
20
24.7133898743778
30
0
41
1
10
145.10780328221
20
24.747756177859
30
0
41
1
10
145.112619779678
20
24.7637604066914
30
0
41
1
10
145.1251673448
20
24.7761606737503
30
0
0
SPLINE
5
280
100
AcDbEntity
8
1
62
256
6
ByLayer
370
18
48
1
60
0
100
AcDbSpline
70
4
71
3
72
22
73
18
40
0
40
0
40
0
40
0
40
0.0625000000000009
40
0.0625000000000009
40
0.125000000000002
40
0.125000000000002
40
0.187500000000003
40
0.187500000000003
40
0.250000000000004
40
0.250000000000004
40
0.375000000000003
40
0.375000000000003
40
0.500000000000002
40
0.500000000000002
40
0.750000000000001
40
0.750000000000001
40
1
40
1
40
1
40
1
41
1
10
143.232229999226
20
23.7025049565925
30
0
41
1
10
143.22572800315
20
23.6979657823169
30
0
41
1
10
143.219051699513
20
23.6943043298981
30
0
41
1
10
143.205319815459
20
23.6889031494063
30
0
41
1
10
143.198185882741
20
23.6871857112637
30
0
41
1
10
143.184418726017
20
23.6859555451665
30
0
41
1
10
143.177608699336
20
23.6864018528058
30
0
41
1
10
143.164670740856
20
23.6891128857191
30
0
41
1
10
143.158594935034
20
23.6913341060606
30
0
41
1
10
143.141319208426
20
23.7000227360887
30
0
41
1
10
143.131300424899
20
23.7083950365558
30
0
41
1
10
143.113940458156
20
23.7275764303274
30
0
41
1
10
143.106443581733
20
23.738575584999
30
0
41
1
10
143.087095077897
20
23.7735321875359
30
0
41
1
10
143.078087931998
20
23.7996825239411
30
0
41
1
10
143.06573725573
20
23.8539727726559
30
0
41
1
10
143.062409926137
20
23.882256456297
30
0
41
1
10
143.061655550869
20
23.9110951132577
30
0
0
SPLINE
5
281
100
AcDbEntity
8
1
62
256
6
ByLayer
370
18
48
1
60
0
100
AcDbSpline
70
4
71
3
72
22
73
18
40
0
40
0
40
0
40
0
40
0.0624999999999993
40
0.0624999999999993
40
0.124999999999999
40
0.124999999999999
40
0.187499999999998
40
0.187499999999998
40
0.249999999999997
40
0.249999999999997
40
0.374999999999998
40
0.374999999999998
40
0.499999999999999
40
0.499999999999999
40
0.749999999999999
40
0.749999999999999
40
1
40
1
40
1
40
1
41
1
10
145.460031116319
20
23.8411406708265
30
0
41
1
10
145.467346626574
20
23.8374613578034
30
0
41
1
10
145.474780660203
20
23.8346779894605
30
0
41
1
10
145.489906448542
20
23.8310726173973
30
0
41
1
10
145.497680435238
20
23.8302828967425
30
0
41
1
10
145.512524998617
20
23.8308332335015
30
0
41
1
10
145.519788227857
20
23.8321553176502
30
0
41
1
10
145.533451064839
20
23.8365217138946
30
0
41
1
10
145.539798089107
20
23.8395160050049
30
0
41
1
10
145.557679097416
20
23.8503924331348
30
0
41
1
10
145.567816728703
20
23.8600190641357
30
0
41
1
10
145.585086008176
20
23.88135543047
30
0
41
1
10
145.592370809787
20
23.8932744466481
30
0
41
1
10
145.610785520674
20
23.9305810481165
30
0
41
1
10
145.618779511633
20
23.957789362603
30
0
41
1
10
145.628750566665
20
24.0134686891568
30
0
41
1
10
145.630699477288
20
24.0420807123993
30
0
41
1
10
145.629945102019
20
24.07091936936
30
0
0
SPLINE
5
282
100
AcDbEntity
8
1
62
256
6
ByLayer
370
18
48
1
60
0
100
AcDbSpline
70
4
71
3
72
8
73
4
40
0
40
0
40
0
40
0
40
1
40
1
40
1
40
1
41
1
10
143.551758060308
20
23.293452051365
30
0
41
1
10
143.548972386514
20
23.2863668152879
30
0
41
1
10
143.546187396313
20
23.2792814431931
30
0
41
1
10
143.543403056255
20
23.2721959436481
30
0
0
SPLINE
5
283
100
AcDbEntity
8
1
62
256
6
ByLayer
370
18
48
1
60
0
100
AcDbSpline
70
4
71
3
72
22
73
18
40
0
40
0
40
0
40
0
40
0.0625000000000005
40
0.0625000000000005
40
0.125000000000001
40
0.125000000000001
40
0.187500000000002
40
0.187500000000002
40
0.250000000000002
40
0.250000000000002
40
0.375000000000002
40
0.375000000000002
40
0.500000000000002
40
0.500000000000002
40
0.750000000000001
40
0.750000000000001
40
1
40
1
40
1
40
1
41
1
10
143.543403056255
20
23.2721959436481
30
0
41
1
10
143.5384194912
20
23.2655569906833
30
0
41
1
10
143.534225206009
20
23.2584632523274
30
0
41
1
10
143.527567982516
20
23.2432788012918
30
0
41
1
10
143.525116297525
20
23.2350864664572
30
0
41
1
10
143.52232561915
20
23.2186773590693
30
0
41
1
10
143.521927784579
20
23.2102564977953
30
0
41
1
10
143.522926274383
20
23.1936953631175
30
0
41
1
10
143.524288223377
20
23.1856312041138
30
0
41
1
10
143.53042482976
20
23.1619438373382
30
0
41
1
10
143.537167735644
20
23.1471370550952
30
0
41
1
10
143.553431408994
20
23.1198216360718
30
0
41
1
10
143.563113391761
20
23.1070648203118
30
0
41
1
10
143.594658734206
20
23.0716423194423
30
0
41
1
10
143.619213694288
20
23.0513809361604
30
0
41
1
10
143.671656887124
20
23.0160702852174
30
0
41
1
10
143.699681280498
20
23.0009989011261
30
0
41
1
10
143.728910078642
20
22.9883750038443
30
0
0
SPLINE
5
284
100
AcDbEntity
8
1
62
256
6
ByLayer
370
18
48
1
60
0
100
AcDbSpline
70
4
71
3
72
8
73
4
40
0
40
0
40
0
40
0
40
1
40
1
40
1
40
1
41
1
10
143.251226637351
20
23.709045166033
30
0
41
1
10
143.244893171595
20
23.7068660322765
30
0
41
1
10
143.238560979567
20
23.7046859464281
30
0
41
1
10
143.232229999226
20
23.7025049565925
30
0
0
SPLINE
5
285
100
AcDbEntity
8
1
62
256
6
ByLayer
370
18
48
1
60
0
100
AcDbSpline
70
4
71
3
72
24
73
20
40
0
40
0
40
0
40
0
40
0.0624999999999998
40
0.0624999999999998
40
0.125
40
0.125
40
0.25
40
0.25
40
0.374999999999999
40
0.374999999999999
40
0.499999999999999
40
0.499999999999999
40
0.624999999999999
40
0.624999999999999
40
0.749999999999999
40
0.749999999999999
40
0.875
40
0.875
40
1
40
1
40
1
40
1
41
1
10
143.551758060308
20
23.293452051365
30
0
41
1
10
143.556918133261
20
23.3065764649715
30
0
41
1
10
143.56009181413
20
23.3201302015896
30
0
41
1
10
143.563841361586
20
23.3477975406348
30
0
41
1
10
143.564354903623
20
23.3617950446911
30
0
41
1
10
143.562984334918
20
23.4029388555734
30
0
41
1
10
143.558216364014
20
23.4301140651007
30
0
41
1
10
143.544144317617
20
23.4814763410468
30
0
41
1
10
143.53482040448
20
23.5058438673571
30
0
41
1
10
143.512439221559
20
23.5522529034056
30
0
41
1
10
143.499452575738
20
23.5740464299832
30
0
41
1
10
143.47053581171
20
23.6141041619184
30
0
41
1
10
143.454690276394
20
23.6322679073348
30
0
41
1
10
143.4204035011
20
23.664326836977
30
0
41
1
10
143.401992888031
20
23.6781971183917
30
0
41
1
10
143.362781854012
20
23.7003407693105
30
0
41
1
10
143.341936073806
20
23.7087062352959
30
0
41
1
10
143.297756757775
20
23.7169971982123
30
0
41
1
10
143.274568239492
20
23.7170762307167
30
0
41
1
10
143.251226637351
20
23.709045166033
30
0
0
SPLINE
5
286
100
AcDbEntity
8
1
62
256
6
ByLayer
370
18
48
1
60
0
100
AcDbSpline
70
4
71
3
72
8
73
4
40
0
40
0
40
0
40
0
40
1
40
1
40
1
40
1
41
1
10
145.439179966521
20
23.845201158672
30
0
41
1
10
145.446131270823
20
23.8438487340734
30
0
41
1
10
145.453081639083
20
23.8424952198692
30
0
41
1
10
145.460031116319
20
23.8411406708265
30
0
0
SPLINE
5
287
100
AcDbEntity
8
1
62
256
6
ByLayer
370
18
48
1
60
0
100
AcDbSpline
70
4
71
3
72
18
73
14
40
0
40
0
40
0
40
0
40
0.25
40
0.25
40
0.5
40
0.5
40
0.625
40
0.625
40
0.75
40
0.75
40
0.875
40
0.875
40
1
40
1
40
1
40
1
41
1
10
145.013054854217
20
23.0682871318955
30
0
41
1
10
145.041515755368
20
23.0844941916284
30
0
41
1
10
145.068521448197
20
23.1029671032837
30
0
41
1
10
145.118464578056
20
23.1446490737889
30
0
41
1
10
145.141446859104
20
23.1678002496923
30
0
41
1
10
145.170145545923
20
23.2070309861686
30
0
41
1
10
145.178669373141
20
23.2207982309358
30
0
41
1
10
145.192490195889
20
23.2499152382167
30
0
41
1
10
145.197898542021
20
23.2655683372874
30
0
41
1
10
145.202950728249
20
23.2979037989246
30
0
41
1
10
145.202531146534
20
23.3148267591652
30
0
41
1
10
145.19309918537
20
23.3470157264014
30
0
41
1
10
145.184174202828
20
23.361637372748
30
0
41
1
10
145.17234535883
20
23.3735647677459
30
0
0
SPLINE
5
288
100
AcDbEntity
8
1
62
256
6
ByLayer
370
18
48
1
60
0
100
AcDbSpline
70
4
71
3
72
8
73
4
40
0
40
0
40
0
40
0
40
1
40
1
40
1
40
1
41
1
10
145.17234535883
20
23.3735647677459
30
0
41
1
10
145.168674821957
20
23.3802485813115
30
0
41
1
10
145.165003913218
20
23.3869322038274
30
0
41
1
10
145.161332614028
20
23.393615623488
30
0
0
SPLINE
5
289
100
AcDbEntity
8
1
62
256
6
ByLayer
370
18
48
1
60
0
100
AcDbSpline
70
4
71
3
72
24
73
20
40
0
40
0
40
0
40
0
40
0.0624999999999994
40
0.0624999999999994
40
0.124999999999999
40
0.124999999999999
40
0.249999999999999
40
0.249999999999999
40
0.374999999999999
40
0.374999999999999
40
0.5
40
0.5
40
0.625
40
0.625
40
0.75
40
0.75
40
0.875
40
0.875
40
1
40
1
40
1
40
1
41
1
10
145.161332614028
20
23.393615623488
30
0
41
1
10
145.154571252994
20
23.4059243487998
30
0
41
1
10
145.149810263516
20
23.4189042989726
30
0
41
1
10
145.142919547343
20
23.4457427115357
30
0
41
1
10
145.140854048936
20
23.4595314437955
30
0
41
1
10
145.137817374173
20
23.500785909563
30
0
41
1
10
145.139895590276
20
23.5282555399402
30
0
41
1
10
145.149318211758
20
23.5813887357485
30
0
41
1
10
145.156724610572
20
23.6071432226153
30
0
41
1
10
145.175706280422
20
23.6562148808615
30
0
41
1
10
145.187220480418
20
23.6793871177543
30
0
41
1
10
145.213950292243
20
23.7228346130645
30
0
41
1
10
145.229039676615
20
23.7428867260618
30
0
41
1
10
145.262516409852
20
23.7790963423384
30
0
41
1
10
145.280875005107
20
23.7952258406863
30
0
41
1
10
145.320740102968
20
23.8222392728702
30
0
41
1
10
145.342289453383
20
23.833221601261
30
0
41
1
10
145.388796844856
20
23.8471248006393
30
0
41
1
10
145.413589378442
20
23.8501799855662
30
0
41
1
10
145.439179966521
20
23.845201158672
30
0
0
SPLINE
5
28A
100
AcDbEntity
8
1
62
256
6
ByLayer
370
18
48
1
60
0
100
AcDbSpline
70
4
71
3
72
18
73
14
40
0
40
0
40
0
40
0
40
0.25
40
0.25
40
0.5
40
0.5
40
0.625
40
0.625
40
0.75
40
0.75
40
0.875
40
0.875
40
1
40
1
40
1
40
1
41
1
10
143.728910078642
20
22.9883750038443
30
0
41
1
10
143.758124996829
20
22.9757571013061
30
0
41
1
10
143.788515940697
20
22.9655918500164
30
0
41
1
10
143.851099711476
20
22.9512169808488
30
0
41
1
10
143.883279348046
20
22.9469348821405
30
0
41
1
10
143.931919050617
20
22.9477525705879
30
0
41
1
10
143.94809658193
20
22.9492595182798
30
0
41
1
10
143.979793375283
20
22.9557917790652
30
0
41
1
10
143.995625097168
20
22.9609105530952
30
0
41
1
10
144.024526425733
20
22.9763940047688
30
0
41
1
10
144.037745835909
20
22.9869556697361
30
0
41
1
10
144.057359029163
20
23.0140211260711
30
0
41
1
10
144.063287363715
20
23.0300674509332
30
0
41
1
10
144.065178128977
20
23.0468416581302
30
0
0
SPLINE
5
28B
100
AcDbEntity
8
1
62
256
6
ByLayer
370
18
48
1
60
0
100
AcDbSpline
70
4
71
3
72
22
73
18
40
0
40
0
40
0
40
0
40
0.0624999999999994
40
0.0624999999999994
40
0.124999999999999
40
0.124999999999999
40
0.187499999999998
40
0.187499999999998
40
0.249999999999998
40
0.249999999999998
40
0.374999999999999
40
0.374999999999999
40
0.5
40
0.5
40
0.75
40
0.75
40
1
40
1
40
1
40
1
41
1
10
144.664036943495
20
23.0841085482664
30
0
41
1
10
144.666014248602
20
23.0759071697968
30
0
41
1
10
144.668904919369
20
23.0681137478876
30
0
41
1
10
144.676687167378
20
23.0534206289471
30
0
41
1
10
144.681669085291
20
23.0464703634713
30
0
41
1
10
144.693095125006
20
23.0343592736197
30
0
41
1
10
144.699664580342
20
23.0290269924221
30
0
41
1
10
144.71378670843
20
23.0200507930519
30
0
41
1
10
144.721254142995
20
23.016422697432
30
0
41
1
10
144.744609872025
20
23.0075626304576
30
0
41
1
10
144.761141018064
20
23.0044680350904
30
0
41
1
10
144.794099705665
20
23.0019168375777
30
0
41
1
10
144.810836931275
20
23.0024493006907
30
0
41
1
10
144.860230240387
20
23.0077163627497
30
0
41
1
10
144.892552478884
20
23.0160165672142
30
0
41
1
10
144.954672236665
20
23.0381430880421
30
0
41
1
10
144.984580431341
20
23.0520723722166
30
0
41
1
10
145.013054854217
20
23.0682871318955
30
0
0
SPLINE
5
28C
100
AcDbEntity
8
1
62
256
6
ByLayer
370
18
48
1
60
0
100
AcDbSpline
70
4
71
3
72
8
73
4
40
0
40
0
40
0
40
0
40
1
40
1
40
1
40
1
41
1
10
144.652475324275
20
23.1038468474794
30
0
41
1
10
144.65632961155
20
23.0972676303815
30
0
41
1
10
144.660183477937
20
23.0906881930953
30
0
41
1
10
144.664036943495
20
23.0841085482664
30
0
0
SPLINE
5
28D
100
AcDbEntity
8
1
62
256
6
ByLayer
370
18
48
1
60
0
100
AcDbSpline
70
4
71
3
72
38
73
34
40
0
40
0
40
0
40
0
40
0.0625000000000015
40
0.0625000000000015
40
0.0937500000000023
40
0.0937500000000023
40
0.125000000000003
40
0.125000000000003
40
0.187500000000003
40
0.187500000000003
40
0.250000000000003
40
0.250000000000003
40
0.375000000000003
40
0.375000000000003
40
0.500000000000003
40
0.500000000000003
40
0.562500000000003
40
0.562500000000003
40
0.625000000000003
40
0.625000000000003
40
0.687500000000003
40
0.687500000000003
40
0.750000000000003
40
0.750000000000003
40
0.812500000000003
40
0.812500000000003
40
0.875000000000003
40
0.875000000000003
40
0.906250000000003
40
0.906250000000003
40
0.937500000000002
40
0.937500000000002
40
1
40
1
40
1
40
1
41
1
10
144.074096548824
20
23.0678544269634
30
0
41
1
10
144.079572804571
20
23.0807537612031
30
0
41
1
10
144.086885074982
20
23.0924363244605
30
0
41
1
10
144.099690276582
20
23.1087492285962
30
0
41
1
10
144.104288747706
20
23.1139890280133
30
0
41
1
10
144.113899083522
20
23.1239561319479
30
0
41
1
10
144.118925417124
20
23.1287037773192
30
0
41
1
10
144.134582597998
20
23.1423333578674
30
0
41
1
10
144.145749059094
20
23.1505676624132
30
0
41
1
10
144.168985329241
20
23.1654863463214
30
0
41
1
10
144.181132959396
20
23.1722145742578
30
0
41
1
10
144.218482821036
20
23.1902541357662
30
0
41
1
10
144.244734045039
20
23.1995296144896
30
0
41
1
10
144.298610871234
20
23.2130433615511
30
0
41
1
10
144.326071628313
20
23.2172465262197
30
0
41
1
10
144.367805123094
20
23.2198450661409
30
0
41
1
10
144.381713155275
20
23.220082188693
30
0
41
1
10
144.409522003486
20
23.2192965410501
30
0
41
1
10
144.4234580312
20
23.2182690839474
30
0
41
1
10
144.451127544519
20
23.2149161942112
30
0
41
1
10
144.46485088119
20
23.2125966987635
30
0
41
1
10
144.492060019728
20
23.2065902289596
30
0
41
1
10
144.505558798985
20
23.2028956960185
30
0
41
1
10
144.531974419609
20
23.1940734942324
30
0
41
1
10
144.544963607582
20
23.1889261453422
30
0
41
1
10
144.570185384829
20
23.1769991156583
30
0
41
1
10
144.58238308434
20
23.170245126449
30
0
41
1
10
144.599839819348
20
23.1586558371538
30
0
41
1
10
144.605486203986
20
23.1545683756944
30
0
41
1
10
144.616383651615
20
23.1458786992692
30
0
41
1
10
144.62165480432
20
23.1412565887728
30
0
41
1
10
144.636576360799
20
23.126646570415
30
0
41
1
10
144.645380722045
20
23.1159572390914
30
0
41
1
10
144.652475324275
20
23.1038468474794
30
0
0
SPLINE
5
28E
100
AcDbEntity
8
1
62
256
6
ByLayer
370
18
48
1
60
0
100
AcDbSpline
70
4
71
3
72
36
73
32
40
0
40
0
40
0
40
0
40
0.125000000000051
40
0.125000000000051
40
0.187500000000061
40
0.187500000000061
40
0.218750000000066
40
0.218750000000066
40
0.250000000000071
40
0.250000000000071
40
0.375000000000108
40
0.375000000000108
40
0.406250000000111
40
0.406250000000111
40
0.437500000000115
40
0.437500000000115
40
0.500000000000135
40
0.500000000000135
40
0.625000000000175
40
0.625000000000175
40
0.656250000000214
40
0.656250000000214
40
0.687500000000252
40
0.750000000000268
40
0.812500000000284
40
0.812500000000284
40
0.843750000000259
40
0.843750000000259
40
0.875000000000235
40
0.875000000000235
40
1
40
1
40
1
40
1
41
1
10
149.999940040065
20
39.2229165738729
30
0
41
1
10
149.999937675874
20
39.2739174184919
30
0
41
1
10
149.995133866909
20
39.3241649962113
30
0
41
1
10
149.980885438612
20
39.3984314778577
30
0
41
1
10
149.974954118582
20
39.4230015600651
30
0
41
1
10
149.964229315334
20
39.459569928289
30
0
41
1
10
149.960339317873
20
39.4717363696022
30
0
41
1
10
149.952020771419
20
39.495731722284
30
0
41
1
10
149.947586514442
20
39.5075846521364
30
0
41
1
10
149.924060544292
20
39.5661362194951
30
0
41
1
10
149.900942329171
20
39.6107153789639
30
0
41
1
10
149.866614165305
20
39.6635808662854
30
0
41
1
10
149.859474649143
20
39.6740097964715
30
0
41
1
10
149.844636536945
20
39.6945733672764
30
0
41
1
10
149.836915475241
20
39.7047346442381
30
0
41
1
10
149.813129311792
20
39.7344741616701
30
0
41
1
10
149.796413576997
20
39.7533631950143
30
0
41
1
10
149.743757215921
20
39.8072901316337
30
0
41
1
10
149.705331254269
20
39.8396138859326
30
0
41
1
10
149.653004897197
20
39.8753293533564
30
0
41
1
10
149.642297361332
20
39.8822500338514
30
0
41
1
10
149.620672802549
20
39.8954676950966
30
0
41
1
10
149.587859599952
20
39.9144050451751
30
0
41
1
10
149.531327355171
20
39.9416119460984
30
0
41
1
10
149.484162888191
20
39.9587974549302
30
0
41
1
10
149.448052067518
20
39.9699443501876
30
0
41
1
10
149.435892000703
20
39.9733691016395
30
0
41
1
10
149.411321148237
20
39.9796262940549
30
0
41
1
10
149.398912473153
20
39.9824561353446
30
0
41
1
10
149.336832822784
20
39.9949859202202
30
0
41
1
10
149.286587330216
20
40
30
0
41
1
10
149.235759562348
20
40
30
0
0
LINE
5
85
100
AcDbEntity
8
4
62
256
6
ByLayer
370
18
48
0.05
60
0
100
AcDbLine
10
160
20
0
30
0
11
61
21
0
31
0
39
0
210
0
220
0
230
1
0
LINE
5
87
100
AcDbEntity
8
SK4
62
256
6
ByLayer
370
18
48
0.05
60
0
100
AcDbLine
10
160
20
0
30
0
11
-10
21
0
31
0
39
0
210
0
220
0
230
1
0
LINE
5
89
100
AcDbEntity
8
1
62
256
6
ByLayer
370
18
48
1
60
0
100
AcDbLine
10
149.499917
20
32.616856
30
0
11
149.875933
21
32.616856
31
0
39
0
210
0
220
0
230
1
0
LINE
5
8B
100
AcDbEntity
8
1
62
256
6
ByLayer
370
18
48
1
60
0
100
AcDbLine
10
149.875933
20
32.616856
30
0
11
149.819507
21
31.496679
31
0
39
0
210
0
220
0
230
1
0
LINE
5
8C
100
AcDbEntity
8
1
62
256
6
ByLayer
370
18
48
1
60
0
100
AcDbLine
10
141.44401
20
34.146882
30
0
11
141.532345
21
37.929448
31
0
39
0
210
0
220
0
230
1
0
LINE
5
8D
100
AcDbEntity
8
1
62
256
6
ByLayer
370
18
48
1
60
0
100
AcDbLine
10
141.532345
20
37.929448
30
0
11
150
21
37.929448
31
0
39
0
210
0
220
0
230
1
0
LINE
5
8E
100
AcDbEntity
8
1
62
256
6
ByLayer
370
18
48
1
60
0
100
AcDbLine
10
150
20
37.929448
30
0
11
149.875933
21
32.616856
31
0
39
0
210
0
220
0
230
1
0
LINE
5
8F
100
AcDbEntity
8
1
62
256
6
ByLayer
370
18
48
1
60
0
100
AcDbLine
10
149.99994
20
39.222917
30
0
11
150
21
37.929448
31
0
39
0
210
0
220
0
230
1
0
LINE
5
90
100
AcDbEntity
8
1
62
256
6
ByLayer
370
18
48
1
60
0
100
AcDbLine
10
141.532345
20
37.929448
30
0
11
141.532405
21
39.222917
31
0
39
0
210
0
220
0
230
1
0
LINE
5
91
100
AcDbEntity
8
1
62
256
6
ByLayer
370
18
48
1
60
0
100
AcDbLine
10
142.296586
20
40
30
0
11
149.23576
21
40
31
0
39
0
210
0
220
0
230
1
0
LINE
5
92
100
AcDbEntity
8
1
62
256
6
ByLayer
370
18
48
1
60
0
100
AcDbLine
10
140.124067
20
-20.778658
30
0
11
140.396756
21
-22.399943
31
0
39
0
210
0
220
0
230
1
0
LINE
5
93
100
AcDbEntity
8
1
62
256
6
ByLayer
370
18
48
1
60
0
100
AcDbLine
10
140.180493
20
-19.545922
30
0
11
140.124067
21
-20.778658
31
0
39
0
210
0
220
0
230
1
0
LINE
5
94
100
AcDbEntity
8
1
62
256
6
ByLayer
370
18
48
1
60
0
100
AcDbLine
10
140
20
-25.420533
30
0
11
140.083142
21
-25.914858
31
0
39
0
210
0
220
0
230
1
0
LINE
5
95
100
AcDbEntity
8
1
62
256
6
ByLayer
370
18
48
1
60
0
100
AcDbLine
10
140.124067
20
-20.778658
30
0
11
140
21
-25.420533
31
0
39
0
210
0
220
0
230
1
0
LINE
5
96
100
AcDbEntity
8
1
62
256
6
ByLayer
370
18
48
1
60
0
100
AcDbLine
10
140
20
-25.420533
30
0
11
140.00006
21
-26.296719
31
0
39
0
210
0
220
0
230
1
0
LINE
5
97
100
AcDbEntity
8
1
62
256
6
ByLayer
370
18
48
1
60
0
100
AcDbLine
10
148.467595
20
27.833188
30
0
11
148.467655
21
26.924015
31
0
39
0
210
0
220
0
230
1
0
LINE
5
98
100
AcDbEntity
8
1
62
256
6
ByLayer
370
18
48
1
60
0
100
AcDbLine
10
140
20
26.397074
30
0
11
148.467655
21
26.924015
31
0
39
0
210
0
220
0
230
1
0
LINE
5
99
100
AcDbEntity
8
1
62
256
6
ByLayer
370
18
48
1
60
0
100
AcDbLine
10
140
20
26.397074
30
0
11
140.00006
21
27.306255
31
0
39
0
210
0
220
0
230
1
0
LINE
5
9A
100
AcDbEntity
8
1
62
256
6
ByLayer
370
18
48
1
60
0
100
AcDbLine
10
140.76424
20
27.90002
30
0
11
147.703414
21
28.331844
31
0
39
0
210
0
220
0
230
1
0
LINE
5
9B
100
AcDbEntity
8
1
62
256
6
ByLayer
370
18
48
1
60
0
100
AcDbLine
10
140.894483
20
30.193021
30
0
11
146.815498
21
30.561485
31
0
39
0
210
0
220
0
230
1
0
LINE
5
9C
100
AcDbEntity
8
1
62
256
6
ByLayer
370
18
48
1
60
0
100
AcDbLine
10
148.467655
20
26.924015
30
0
11
148.591722
21
22.181131
31
0
39
0
210
0
220
0
230
1
0
LINE
5
9D
100
AcDbEntity
8
1
62
256
6
ByLayer
370
18
48
1
60
0
100
AcDbLine
10
140.124067
20
21.65419
30
0
11
148.591722
21
22.181131
31
0
39
0
210
0
220
0
230
1
0
LINE
5
9E
100
AcDbEntity
8
1
62
256
6
ByLayer
370
18
48
1
60
0
100
AcDbLine
10
140.124067
20
21.65419
30
0
11
140
21
26.397074
31
0
39
0
210
0
220
0
230
1
0
LINE
5
9F
100
AcDbEntity
8
1
62
256
6
ByLayer
370
18
48
1
60
0
100
AcDbLine
10
148.591722
20
22.181131
30
0
11
148.648028
21
20.935491
31
0
39
0
210
0
220
0
230
1
0
LINE
5
A0
100
AcDbEntity
8
1
62
256
6
ByLayer
370
18
48
1
60
0
100
AcDbLine
10
147.917711
20
20.139589
30
0
11
140.978537
21
19.707766
31
0
39
0
210
0
220
0
230
1
0
LINE
5
A1
100
AcDbEntity
8
1
62
256
6
ByLayer
370
18
48
1
60
0
100
AcDbLine
10
140.180493
20
20.408557
30
0
11
140.124067
21
21.65419
31
0
39
0
210
0
220
0
230
1
0
LINE
5
A2
100
AcDbEntity
8
1
62
256
6
ByLayer
370
18
48
1
60
0
100
AcDbLine
10
140
20
27.546023
30
0
11
140.038766
21
27.543667
31
0
39
0
210
0
220
0
230
1
0
LINE
5
A3
100
AcDbEntity
8
1
62
256
6
ByLayer
370
18
48
1
60
0
100
AcDbLine
10
140
20
27.546023
30
0
11
140.00006
21
28.47662
31
0
39
0
210
0
220
0
230
1
0
LINE
5
A4
100
AcDbEntity
8
1
62
256
6
ByLayer
370
18
48
1
60
0
100
AcDbLine
10
143.661332
20
34.764372
30
0
11
143.741372
21
34.518298
31
0
39
0
210
0
220
0
230
1
0
LINE
5
A5
100
AcDbEntity
8
1
62
256
6
ByLayer
370
18
48
1
60
0
100
AcDbLine
10
147.735399
20
35.817433
30
0
11
147.655358
21
36.063507
31
0
39
0
210
0
220
0
230
1
0
LINE
5
A6
100
AcDbEntity
8
1
62
256
6
ByLayer
370
18
48
1
60
0
100
AcDbLine
10
146.475524
20
34.557616
30
0
11
146.456597
21
34.615806
31
0
39
0
210
0
220
0
230
1
0
LINE
5
A7
100
AcDbEntity
8
1
62
256
6
ByLayer
370
18
48
1
60
0
100
AcDbLine
10
144.893333
20
34.413886
30
0
11
144.827655
21
34.615806
31
0
39
0
210
0
220
0
230
1
0
LINE
5
A8
100
AcDbEntity
8
1
62
256
6
ByLayer
370
18
48
1
60
0
100
AcDbLine
10
146.441263
20
34.64546
30
0
11
146.472776
21
34.548579
31
0
39
0
210
0
220
0
230
1
0
LINE
5
A9
100
AcDbEntity
8
1
62
256
6
ByLayer
370
13
48
1
60
0
100
AcDbLine
10
146.473688
20
34.551587
30
0
11
146.448242
21
34.629819
31
0
39
0
210
0
220
0
230
1
0
LINE
5
AA
100
AcDbEntity
8
1
62
256
6
ByLayer
370
18
48
1
60
0
100
AcDbLine
10
146.880066
20
35.391485
30
0
11
146.781237
21
35.695323
31
0
39
0
210
0
220
0
230
1
0
LINE
5
AB
100
AcDbEntity
8
1
62
256
6
ByLayer
370
18
48
1
60
0
100
AcDbLine
10
144.935673
20
34.52138
30
0
11
144.84366
21
34.80426
31
0
39
0
210
0
220
0
230
1
0
LINE
5
AC
100
AcDbEntity
8
1
62
256
6
ByLayer
370
13
48
1
60
0
100
AcDbLine
10
144.914238
20
34.397488
30
0
11
144.838667
21
34.629819
31
0
39
0
210
0
220
0
230
1
0
LINE
5
AD
100
AcDbEntity
8
1
62
256
6
ByLayer
370
18
48
1
60
0
100
AcDbLine
10
144.652265
20
35.391485
30
0
11
144.553436
21
35.695323
31
0
39
0
210
0
220
0
230
1
0
LINE
5
AE
100
AcDbEntity
8
1
62
256
6
ByLayer
370
18
48
1
60
0
100
AcDbLine
10
146.860149
20
35.391796
30
0
11
146.880066
21
35.391485
31
0
39
0
210
0
220
0
230
1
0
LINE
5
AF
100
AcDbEntity
8
1
62
256
6
ByLayer
370
13
48
1
60
0
100
AcDbLine
10
146.860149
20
35.391796
30
0
11
146.762255
21
35.692762
31
0
39
0
210
0
220
0
230
1
0
LINE
5
B0
100
AcDbEntity
8
1
62
256
6
ByLayer
370
18
48
1
60
0
100
AcDbLine
10
146.491352
20
35.967292
30
0
11
146.583192
21
35.684941
31
0
39
0
210
0
220
0
230
1
0
LINE
5
B1
100
AcDbEntity
8
1
62
256
6
ByLayer
370
18
48
1
60
0
100
AcDbLine
10
146.084072
20
36.182678
30
0
11
145.985242
21
36.486516
31
0
39
0
210
0
220
0
230
1
0
LINE
5
B2
100
AcDbEntity
8
1
62
256
6
ByLayer
370
18
48
1
60
0
100
AcDbLine
10
144.972728
20
35.877468
30
0
11
144.874833
21
36.178433
31
0
39
0
210
0
220
0
230
1
0
LINE
5
B3
100
AcDbEntity
8
1
62
256
6
ByLayer
370
13
48
1
60
0
100
AcDbLine
10
144.672196
20
35.391796
30
0
11
144.574301
21
35.692762
31
0
39
0
210
0
220
0
230
1
0
LINE
5
B4
100
AcDbEntity
8
1
62
256
6
ByLayer
370
18
48
1
60
0
100
AcDbLine
10
145.485213
20
36.182678
30
0
11
145.386384
21
36.486516
31
0
39
0
210
0
220
0
230
1
0
LINE
5
B5
100
AcDbEntity
8
1
62
256
6
ByLayer
370
18
48
1
60
0
100
AcDbLine
10
144.652265
20
35.391485
30
0
11
144.672196
21
35.391796
31
0
39
0
210
0
220
0
230
1
0
LINE
5
B6
100
AcDbEntity
8
1
62
256
6
ByLayer
370
13
48
1
60
0
100
AcDbLine
10
146.073445
20
36.166103
30
0
11
145.97555
21
36.467069
31
0
39
0
210
0
220
0
230
1
0
LINE
5
B7
100
AcDbEntity
8
1
62
256
6
ByLayer
370
13
48
1
60
0
100
AcDbLine
10
145.495066
20
36.166103
30
0
11
145.397171
21
36.467069
31
0
39
0
210
0
220
0
230
1
0
LINE
5
B8
100
AcDbEntity
8
1
62
256
6
ByLayer
370
18
48
1
60
0
100
AcDbLine
10
146.073445
20
36.166103
30
0
11
146.084072
21
36.182678
31
0
39
0
210
0
220
0
230
1
0
LINE
5
B9
100
AcDbEntity
8
1
62
256
6
ByLayer
370
18
48
1
60
0
100
AcDbLine
10
145.485213
20
36.182678
30
0
11
145.495066
21
36.166103
31
0
39
0
210
0
220
0
230
1
0
LINE
5
BA
100
AcDbEntity
8
1
62
256
6
ByLayer
370
18
48
1
60
0
100
AcDbLine
10
147.750403
20
-1.835138
30
0
11
147.817032
21
-1.071192
31
0
39
0
210
0
220
0
230
1
0
LINE
5
BB
100
AcDbEntity
8
1
62
256
6
ByLayer
370
18
48
1
60
0
100
AcDbLine
10
143.632916
20
-0.706268
30
0
11
143.566287
21
-1.470215
31
0
39
0
210
0
220
0
230
1
0
LINE
5
BC
100
AcDbEntity
8
1
62
256
6
ByLayer
370
18
48
1
60
0
100
AcDbLine
10
144.552772
20
-1.456084
30
0
11
144.539969
21
-1.60288
31
0
39
0
210
0
220
0
230
1
0
LINE
5
BD
100
AcDbEntity
8
1
62
256
6
ByLayer
370
18
48
1
60
0
100
AcDbLine
10
146.780633
20
-1.650287
30
0
11
146.76777
21
-1.797774
31
0
39
0
210
0
220
0
230
1
0
LINE
5
BE
100
AcDbEntity
8
1
62
256
6
ByLayer
370
18
48
1
60
0
100
AcDbLine
10
144.860416
20
-1.689764
30
0
11
144.887372
21
-1.3807
31
0
39
0
210
0
220
0
230
1
0
LINE
5
BF
100
AcDbEntity
8
1
62
256
6
ByLayer
370
13
48
1
60
0
100
AcDbLine
10
144.573637
20
-1.447036
30
0
11
144.56082
21
-1.593987
31
0
39
0
210
0
220
0
230
1
0
LINE
5
C0
100
AcDbEntity
8
1
62
256
6
ByLayer
370
18
48
1
60
0
100
AcDbLine
10
146.463247
20
-1.517854
30
0
11
146.436315
21
-1.826657
31
0
39
0
210
0
220
0
230
1
0
LINE
5
C1
100
AcDbEntity
8
1
62
256
6
ByLayer
370
13
48
1
60
0
100
AcDbLine
10
146.761651
20
-1.637742
30
0
11
146.748773
21
-1.785395
31
0
39
0
210
0
220
0
230
1
0
LINE
5
C2
100
AcDbEntity
8
1
62
256
6
ByLayer
370
18
48
1
60
0
100
AcDbLine
10
145.979397
20
-1.417223
30
0
11
145.934822
21
-1.92831
31
0
39
0
210
0
220
0
230
1
0
LINE
5
C3
100
AcDbEntity
8
1
62
256
6
ByLayer
370
18
48
1
60
0
100
AcDbLine
10
145.380512
20
-1.365134
30
0
11
145.335963
21
-1.87592
31
0
39
0
210
0
220
0
230
1
0
LINE
5
C4
100
AcDbEntity
8
1
62
256
6
ByLayer
370
13
48
1
60
0
100
AcDbLine
10
145.390823
20
-1.365424
30
0
11
145.347525
21
-1.861874
31
0
39
0
210
0
220
0
230
1
0
LINE
5
C5
100
AcDbEntity
8
1
62
256
6
ByLayer
370
13
48
1
60
0
100
AcDbLine
10
145.969227
20
-1.415741
30
0
11
145.925903
21
-1.912472
31
0
39
0
210
0
220
0
230
1
0
LINE
5
C6
100
AcDbEntity
8
1
62
256
6
ByLayer
370
18
48
1
60
0
100
AcDbLine
10
149.499999
20
-31.467108
30
0
11
149.513337
21
-31.654106
31
0
39
0
210
0
220
0
230
1
0
LINE
5
C7
100
AcDbEntity
8
1
62
256
6
ByLayer
370
18
48
1
60
0
100
AcDbLine
10
149.513337
20
-31.654106
30
0
11
149.637404
21
-37.027602
31
0
39
0
210
0
220
0
230
1
0
LINE
5
C8
100
AcDbEntity
8
1
62
256
6
ByLayer
370
18
48
1
60
0
100
AcDbLine
10
149.637404
20
-37.027602
30
0
11
149.600129
21
-38.510832
31
0
39
0
210
0
220
0
230
1
0
LINE
5
C9
100
AcDbEntity
8
1
62
256
6
ByLayer
370
18
48
1
60
0
100
AcDbLine
10
143.184502
20
-39.00838
30
0
11
149.105517
21
-38.983978
31
0
39
0
210
0
220
0
230
1
0
LINE
5
CA
100
AcDbEntity
8
1
62
256
6
ByLayer
370
18
48
1
60
0
100
AcDbLine
10
142.296586
20
-39.969894
30
0
11
149.23576
21
-39.941296
31
0
39
0
210
0
220
0
230
1
0
LINE
5
CB
100
AcDbEntity
8
1
62
256
6
ByLayer
370
18
48
1
60
0
100
AcDbLine
10
141.532386
20
-38.792336
30
0
11
141.532405
21
-39.196823
31
0
39
0
210
0
220
0
230
1
0
LINE
5
CC
100
AcDbEntity
8
1
62
256
6
ByLayer
370
18
48
1
60
0
100
AcDbLine
10
150
20
-37.869892
30
0
11
149.637404
21
-37.027602
31
0
39
0
210
0
220
0
230
1
0
LINE
5
CD
100
AcDbEntity
8
1
62
256
6
ByLayer
370
18
48
1
60
0
100
AcDbLine
10
149.99994
20
-39.161926
30
0
11
150
21
-37.869892
31
0
39
0
210
0
220
0
230
1
0
LINE
5
CE
100
AcDbEntity
8
1
62
256
6
ByLayer
370
18
48
1
60
0
100
AcDbLine
10
149.875933
20
-32.496397
30
0
11
149.513337
21
-31.654106
31
0
39
0
210
0
220
0
230
1
0
LINE
5
CF
100
AcDbEntity
8
1
62
256
6
ByLayer
370
18
48
1
60
0
100
AcDbLine
10
150
20
-37.869892
30
0
11
149.875933
21
-32.496397
31
0
39
0
210
0
220
0
230
1
0
LINE
5
D0
100
AcDbEntity
8
1
62
256
6
ByLayer
370
18
48
1
60
0
100
AcDbLine
10
149.875933
20
-32.496397
30
0
11
149.819507
21
-31.347114
31
0
39
0
210
0
220
0
230
1
0
LINE
5
D1
100
AcDbEntity
8
1
62
256
6
ByLayer
370
18
48
1
60
0
100
AcDbLine
10
143.184502
20
4.127918
30
0
11
149.105517
21
3.609932
31
0
39
0
210
0
220
0
230
1
0
LINE
5
D2
100
AcDbEntity
8
1
62
256
6
ByLayer
370
18
48
1
60
0
100
AcDbLine
10
142.296586
20
-0.17119
30
0
11
149.23576
21
-0.778247
31
0
39
0
210
0
220
0
230
1
0
LINE
5
D3
100
AcDbEntity
8
1
62
256
6
ByLayer
370
18
48
1
60
0
100
AcDbLine
10
141.532345
20
-0.079759
30
0
11
142.562385
21
3.68569
31
0
39
0
210
0
220
0
230
1
0
LINE
5
D4
100
AcDbEntity
8
1
62
256
6
ByLayer
370
18
48
1
60
0
100
AcDbLine
10
142.668137
20
4.053359
30
0
11
142.562385
21
3.68569
31
0
39
0
210
0
220
0
230
1
0
LINE
5
D5
100
AcDbEntity
8
1
62
256
6
ByLayer
370
18
48
1
60
0
100
AcDbLine
10
141.532345
20
-0.079759
30
0
11
141.532405
21
-0.095115
31
0
39
0
210
0
220
0
230
1
0
LINE
5
D6
100
AcDbEntity
8
1
62
256
6
ByLayer
370
18
48
1
60
0
100
AcDbLine
10
150
20
-0.820531
30
0
11
149.637404
21
3.06675
31
0
39
0
210
0
220
0
230
1
0
LINE
5
D7
100
AcDbEntity
8
1
62
256
6
ByLayer
370
18
48
1
60
0
100
AcDbLine
10
149.637404
20
3.06675
30
0
11
149.600129
21
3.446931
31
0
39
0
210
0
220
0
230
1
0
LINE
5
D8
100
AcDbEntity
8
1
62
256
6
ByLayer
370
18
48
1
60
0
100
AcDbLine
10
149.99994
20
-0.835877
30
0
11
150
21
-0.820531
31
0
39
0
210
0
220
0
230
1
0
LINE
5
D9
100
AcDbEntity
8
1
62
256
6
ByLayer
370
18
48
1
60
0
100
AcDbLine
10
150
20
-0.820531
30
0
11
149.875933
21
-2.175469
31
0
39
0
210
0
220
0
230
1
0
LINE
5
DA
100
AcDbEntity
8
1
62
256
6
ByLayer
370
18
48
1
60
0
100
AcDbLine
10
141.408278
20
-1.434698
30
0
11
143.645459
21
-1.630412
31
0
39
0
210
0
220
0
230
1
0
LINE
5
DB
100
AcDbEntity
8
1
62
256
6
ByLayer
370
18
48
1
60
0
100
AcDbLine
10
147.643251
20
-1.980149
30
0
11
149.875933
21
-2.175469
31
0
39
0
210
0
220
0
230
1
0
LINE
5
DC
100
AcDbEntity
8
1
62
256
6
ByLayer
370
18
48
1
60
0
100
AcDbLine
10
141.408278
20
-1.434698
30
0
11
141.532345
21
-0.079759
31
0
39
0
210
0
220
0
230
1
0
LINE
5
DD
100
AcDbEntity
8
1
62
256
6
ByLayer
370
18
48
1
60
0
100
AcDbLine
10
149.875933
20
-2.175469
30
0
11
149.819507
21
-2.806398
31
0
39
0
210
0
220
0
230
1
0
LINE
5
DE
100
AcDbEntity
8
1
62
256
6
ByLayer
370
18
48
1
60
0
100
AcDbLine
10
149.021463
20
-3.118595
30
0
11
142.082289
21
-2.511538
31
0
39
0
210
0
220
0
230
1
0
LINE
5
DF
100
AcDbEntity
8
1
62
256
6
ByLayer
370
18
48
1
60
0
100
AcDbLine
10
141.351972
20
-2.065637
30
0
11
141.408278
21
-1.434698
31
0
39
0
210
0
220
0
230
1
0
LINE
5
E0
100
AcDbEntity
8
1
62
256
6
ByLayer
370
18
48
1
60
0
100
AcDbLine
10
140.5
20
1.175898
30
0
11
140.5
21
1.998047
31
0
39
0
210
0
220
0
230
1
0
LINE
5
E1
100
AcDbEntity
8
1
62
256
6
ByLayer
370
18
48
1
60
0
100
AcDbLine
10
142.033155
20
1.751013
30
0
11
142.066615
21
2.116436
31
0
39
0
210
0
220
0
230
1
0
LINE
5
E2
100
AcDbEntity
8
1
62
256
6
ByLayer
370
18
48
1
60
0
100
AcDbLine
10
140.5
20
1.175898
30
0
11
141.843657
21
1.058351
31
0
39
0
210
0
220
0
230
1
0
LINE
5
E3
100
AcDbEntity
8
1
62
256
6
ByLayer
370
18
48
1
60
0
100
AcDbLine
10
142.156295
20
2.201169
30
0
11
142.194233
21
2.615491
31
0
39
0
210
0
220
0
230
1
0
LINE
5
E4
100
AcDbEntity
8
1
62
256
6
ByLayer
370
18
48
1
60
0
100
AcDbLine
10
142.475552
20
4.11158
30
0
11
142.373244
21
2.994266
31
0
39
0
210
0
220
0
230
1
0
LINE
5
E5
100
AcDbEntity
8
1
62
256
6
ByLayer
370
18
48
1
60
0
100
AcDbLine
10
142.361291
20
2.95057
30
0
11
142.212988
21
2.830034
31
0
39
0
210
0
220
0
230
1
0
LINE
5
E6
100
AcDbEntity
8
1
62
256
6
ByLayer
370
18
48
1
60
0
100
AcDbLine
10
146.4
20
17.07299
30
0
11
143.6
21
16.967243
31
0
39
0
210
0
220
0
230
1
0
LINE
5
E7
100
AcDbEntity
8
1
62
256
6
ByLayer
370
18
48
1
60
0
100
AcDbLine
10
143.5
20
16.867857
30
0
11
143.5
21
15.386338
31
0
39
0
210
0
220
0
230
1
0
LINE
5
E8
100
AcDbEntity
8
1
62
256
6
ByLayer
370
18
48
1
60
0
100
AcDbLine
10
146.5
20
15.423366
30
0
11
146.5
21
16.981157
31
0
39
0
210
0
220
0
230
1
0
LINE
5
E9
100
AcDbEntity
8
1
62
256
6
ByLayer
370
13
48
1
60
0
100
AcDbLine
10
149.5
20
18.46035
30
0
11
140.5
21
17.900282
31
0
39
0
210
0
220
0
230
1
0
LINE
5
EA
100
AcDbEntity
8
1
62
256
6
ByLayer
370
18
48
1
60
0
100
AcDbLine
10
149.5
20
11.678531
30
0
11
149.5
21
18.46035
31
0
39
0
210
0
220
0
230
1
0
LINE
5
EB
100
AcDbEntity
8
1
62
256
6
ByLayer
370
18
48
1
60
0
100
AcDbLine
10
140.5
20
17.900282
30
0
11
140.5
21
11.388621
31
0
39
0
210
0
220
0
230
1
0
LINE
5
EC
100
AcDbEntity
8
1
62
256
6
ByLayer
370
18
48
1
60
0
100
AcDbLine
10
146.4
20
-6.866931
30
0
11
143.6
21
-6.742032
31
0
39
0
210
0
220
0
230
1
0
LINE
5
ED
100
AcDbEntity
8
1
62
256
6
ByLayer
370
18
48
1
60
0
100
AcDbLine
10
143.5
20
-6.935916
30
0
11
143.5
21
-8.355676
31
0
39
0
210
0
220
0
230
1
0
LINE
5
EE
100
AcDbEntity
8
1
62
256
6
ByLayer
370
18
48
1
60
0
100
AcDbLine
10
146.5
20
-8.335616
30
0
11
146.5
21
-7.069736
31
0
39
0
210
0
220
0
230
1
0
LINE
5
EF
100
AcDbEntity
8
1
62
256
6
ByLayer
370
13
48
1
60
0
100
AcDbLine
10
149.5
20
-5.159498
30
0
11
140.5
21
-4.372156
31
0
39
0
210
0
220
0
230
1
0
LINE
5
F0
100
AcDbEntity
8
1
62
256
6
ByLayer
370
18
48
1
60
0
100
AcDbLine
10
149.5
20
-17.632774
30
0
11
149.5
21
-5.159498
31
0
39
0
210
0
220
0
230
1
0
LINE
5
F1
100
AcDbEntity
8
1
62
256
6
ByLayer
370
18
48
1
60
0
100
AcDbLine
10
140.5
20
-4.372156
30
0
11
140.5
21
-17.362926
31
0
39
0
210
0
220
0
230
1
0
LINE
5
F2
100
AcDbEntity
8
1
62
256
6
ByLayer
370
18
48
1
60
0
100
AcDbLine
10
149.5
20
-4.170326
30
0
11
140.5
21
-3.382984
31
0
39
0
210
0
220
0
230
1
0
LINE
5
F3
100
AcDbEntity
8
1
62
256
6
ByLayer
370
13
48
1
60
0
100
AcDbLine
10
140.5
20
-3.3954
30
0
11
149.5
21
-4.182742
31
0
39
0
210
0
220
0
230
1
0
LINE
5
F4
100
AcDbEntity
8
1
62
256
6
ByLayer
370
18
48
1
60
0
100
AcDbLine
10
149.5
20
-4.182742
30
0
11
149.5
21
-4.170326
31
0
39
0
210
0
220
0
230
1
0
LINE
5
F5
100
AcDbEntity
8
1
62
256
6
ByLayer
370
18
48
1
60
0
100
AcDbLine
10
140.5
20
-3.382984
30
0
11
140.5
21
-3.3954
31
0
39
0
210
0
220
0
230
1
0
LINE
5
F6
100
AcDbEntity
8
1
62
256
6
ByLayer
370
18
48
1
60
0
100
AcDbLine
10
141.445
20
-1.034107
30
0
11
140.5
21
-0.951436
31
0
39
0
210
0
220
0
230
1
0
LINE
5
F7
100
AcDbEntity
8
1
62
256
6
ByLayer
370
18
48
1
60
0
100
AcDbLine
10
149.5
20
-3.079131
30
0
11
149.5
21
-4.170326
31
0
39
0
210
0
220
0
230
1
0
LINE
5
F8
100
AcDbEntity
8
1
62
256
6
ByLayer
370
18
48
1
60
0
100
AcDbLine
10
140.5
20
-3.382984
30
0
11
140.5
21
-0.951436
31
0
39
0
210
0
220
0
230
1
0
LINE
5
F9
100
AcDbEntity
8
1
62
256
6
ByLayer
370
13
48
1
60
0
100
AcDbLine
10
143.6
20
-6.742032
30
0
11
143.6
21
-8.144739
31
0
39
0
210
0
220
0
230
1
0
LINE
5
FA
100
AcDbEntity
8
1
62
256
6
ByLayer
370
13
48
1
60
0
100
AcDbLine
10
146.4
20
-8.144739
30
0
11
146.4
21
-6.866931
31
0
39
0
210
0
220
0
230
1
0
LINE
5
FB
100
AcDbEntity
8
1
62
256
6
ByLayer
370
18
48
1
60
0
100
AcDbLine
10
141.448375
20
-0.997154
30
0
11
140.5
21
-0.914187
31
0
39
0
210
0
220
0
230
1
0
LINE
5
FC
100
AcDbEntity
8
1
62
256
6
ByLayer
370
18
48
1
60
0
100
AcDbLine
10
140.5
20
-0.951436
30
0
11
140.5
21
-0.914187
31
0
39
0
210
0
220
0
230
1
0
LINE
5
FD
100
AcDbEntity
8
1
62
256
6
ByLayer
370
18
48
1
60
0
100
AcDbLine
10
140.5
20
-0.914187
30
0
11
140.5
21
1.175873
31
0
39
0
210
0
220
0
230
1
0
LINE
5
FE
100
AcDbEntity
8
1
62
256
6
ByLayer
370
13
48
1
60
0
100
AcDbLine
10
146.4
20
15.101044
30
0
11
146.4
21
17.07299
31
0
39
0
210
0
220
0
230
1
0
LINE
5
FF
100
AcDbEntity
8
1
62
256
6
ByLayer
370
13
48
1
60
0
100
AcDbLine
10
143.6
20
16.967243
30
0
11
143.6
21
15.066472
31
0
39
0
210
0
220
0
230
1
0
LINE
5
100
100
AcDbEntity
8
1
62
256
6
ByLayer
370
18
48
1
60
0
100
AcDbLine
10
149.5
20
25.3943
30
0
11
148.509297
21
25.332649
31
0
39
0
210
0
220
0
230
1
0
LINE
5
101
100
AcDbEntity
8
1
62
256
6
ByLayer
370
18
48
1
60
0
100
AcDbLine
10
147.934303
20
29.009887
30
0
11
147.933385
21
29.044969
31
0
39
0
210
0
220
0
230
1
0
LINE
5
102
100
AcDbEntity
8
1
62
256
6
ByLayer
370
18
48
1
60
0
100
AcDbLine
10
149.5
20
25.3943
30
0
11
149.5
21
28.253964
31
0
39
0
210
0
220
0
230
1
0
LINE
5
103
100
AcDbEntity
8
1
62
256
6
ByLayer
370
18
48
1
60
0
100
AcDbLine
10
147.808603
20
29.265649
30
0
11
147.805767
21
29.374067
31
0
39
0
210
0
220
0
230
1
0
LINE
5
104
100
AcDbEntity
8
1
62
256
6
ByLayer
370
18
48
1
60
0
100
AcDbLine
10
147.687037
20
30.246631
30
0
11
147.707305
21
29.471793
31
0
39
0
210
0
220
0
230
1
0
LINE
5
105
100
AcDbEntity
8
1
62
256
6
ByLayer
370
13
48
1
60
0
100
AcDbLine
10
140.5
20
18.997482
30
0
11
149.5
21
19.557551
31
0
39
0
210
0
220
0
230
1
0
LINE
5
106
100
AcDbEntity
8
1
62
256
6
ByLayer
370
18
48
1
60
0
100
AcDbLine
10
140.5
20
19.04067
30
0
11
149.5
21
19.600738
31
0
39
0
210
0
220
0
230
1
0
LINE
5
107
100
AcDbEntity
8
1
62
256
6
ByLayer
370
18
48
1
60
0
100
AcDbLine
10
149.5
20
19.557551
30
0
11
149.5
21
19.600738
31
0
39
0
210
0
220
0
230
1
0
LINE
5
108
100
AcDbEntity
8
1
62
256
6
ByLayer
370
18
48
1
60
0
100
AcDbLine
10
140.5
20
19.04067
30
0
11
140.5
21
18.997482
31
0
39
0
210
0
220
0
230
1
0
LINE
5
109
100
AcDbEntity
8
1
62
256
6
ByLayer
370
18
48
1
60
0
100
AcDbLine
10
148.638391
20
20.816507
30
0
11
149.5
21
20.870125
31
0
39
0
210
0
220
0
230
1
0
LINE
5
10A
100
AcDbEntity
8
1
62
256
6
ByLayer
370
18
48
1
60
0
100
AcDbLine
10
149.5
20
19.600738
30
0
11
149.5
21
20.870125
31
0
39
0
210
0
220
0
230
1
0
LINE
5
10B
100
AcDbEntity
8
1
62
256
6
ByLayer
370
18
48
1
60
0
100
AcDbLine
10
140.5
20
19.847821
30
0
11
140.5
21
19.04067
31
0
39
0
210
0
220
0
230
1
0
LINE
5
10C
100
AcDbEntity
8
1
62
256
6
ByLayer
370
18
48
1
60
0
100
AcDbLine
10
147.537962
20
29.816423
30
0
11
147.524448
21
30.33305
31
0
39
0
210
0
220
0
230
1
0
LINE
5
10D
100
AcDbEntity
8
1
62
256
6
ByLayer
370
18
48
1
60
0
100
AcDbLine
10
148.557109
20
23.500771
30
0
11
149.5
21
23.559447
31
0
39
0
210
0
220
0
230
1
0
LINE
5
10E
100
AcDbEntity
8
1
62
256
6
ByLayer
370
18
48
1
60
0
100
AcDbLine
10
149.5
20
23.559447
30
0
11
149.5
21
25.394279
31
0
39
0
210
0
220
0
230
1
0
LINE
5
10F
100
AcDbEntity
8
1
62
256
6
ByLayer
370
18
48
1
60
0
100
AcDbLine
10
148.647391
20
20.946629
30
0
11
149.5
21
20.999687
31
0
39
0
210
0
220
0
230
1
0
LINE
5
110
100
AcDbEntity
8
1
62
256
6
ByLayer
370
18
48
1
60
0
100
AcDbLine
10
149.5
20
20.870125
30
0
11
149.5
21
20.999687
31
0
39
0
210
0
220
0
230
1
0
LINE
5
111
100
AcDbEntity
8
1
62
256
6
ByLayer
370
13
48
1
60
0
100
AcDbLine
10
149.5
20
22.624502
30
0
11
148.581578
21
22.567349
31
0
39
0
210
0
220
0
230
1
0
LINE
5
112
100
AcDbEntity
8
1
62
256
6
ByLayer
370
18
48
1
60
0
100
AcDbLine
10
149.5
20
20.999687
30
0
11
149.5
21
22.624502
31
0
39
0
210
0
220
0
230
1
0
LINE
5
113
100
AcDbEntity
8
1
62
256
6
ByLayer
370
18
48
1
60
0
100
AcDbLine
10
148.560906
20
23.35861
30
0
11
149.5
21
23.41705
31
0
39
0
210
0
220
0
230
1
0
LINE
5
114
100
AcDbEntity
8
1
62
256
6
ByLayer
370
18
48
1
60
0
100
AcDbLine
10
149.5
20
23.41705
30
0
11
149.5
21
23.559447
31
0
39
0
210
0
220
0
230
1
0
LINE
5
115
100
AcDbEntity
8
1
62
256
6
ByLayer
370
13
48
1
60
0
100
AcDbLine
10
148.574406
20
22.841203
30
0
11
149.5
21
22.898802
31
0
39
0
210
0
220
0
230
1
0
LINE
5
116
100
AcDbEntity
8
1
62
256
6
ByLayer
370
18
48
1
60
0
100
AcDbLine
10
149.5
20
22.898802
30
0
11
149.5
21
23.41705
31
0
39
0
210
0
220
0
230
1
0
LINE
5
117
100
AcDbEntity
8
1
62
256
6
ByLayer
370
18
48
1
60
0
100
AcDbLine
10
143.5
20
-29.150154
30
0
11
143.5
21
-30.10817
31
0
39
0
210
0
220
0
230
1
0
LINE
5
118
100
AcDbEntity
8
1
62
256
6
ByLayer
370
18
48
1
60
0
100
AcDbLine
10
146.5
20
-30.180626
30
0
11
146.5
21
-28.970095
31
0
39
0
210
0
220
0
230
1
0
LINE
5
119
100
AcDbEntity
8
1
62
256
6
ByLayer
370
18
48
1
60
0
100
AcDbLine
10
149.5
20
-36.21637
30
0
11
149.5
21
-25.770369
31
0
39
0
210
0
220
0
230
1
0
LINE
5
11A
100
AcDbEntity
8
1
62
256
6
ByLayer
370
18
48
1
60
0
100
AcDbLine
10
140.5
20
-29.292773
30
0
11
140.5
21
-36.302401
31
0
39
0
210
0
220
0
230
1
0
LINE
5
11B
100
AcDbEntity
8
1
62
256
6
ByLayer
370
18
48
1
60
0
100
AcDbLine
10
115.2
20
-15.99375
30
0
11
115.279558
21
-15.929109
31
0
39
0
210
0
220
0
230
1
0
LINE
5
11C
100
AcDbEntity
8
1
62
256
6
ByLayer
370
18
48
1
60
0
100
AcDbLine
10
115.279558
20
15.929109
30
0
11
115.2
21
15.99375
31
0
39
0
210
0
220
0
230
1
0
LINE
5
11D
100
AcDbEntity
8
1
62
256
6
ByLayer
370
18
48
1
60
0
100
AcDbLine
10
139.7
20
15.75
30
0
11
115.784033
21
15.75
31
0
39
0
210
0
220
0
230
1
0
LINE
5
11E
100
AcDbEntity
8
1
62
256
6
ByLayer
370
18
48
1
60
0
100
AcDbLine
10
115.784033
20
-15.75
30
0
11
139.7
21
-15.75
31
0
39
0
210
0
220
0
230
1
0
LINE
5
11F
100
AcDbEntity
8
1
62
256
6
ByLayer
370
18
48
1
60
0
100
AcDbLine
10
140.5
20
34.523323
30
0
11
141.452792
21
34.523323
31
0
39
0
210
0
220
0
230
1
0
LINE
5
120
100
AcDbEntity
8
1
62
256
6
ByLayer
370
18
48
1
60
0
100
AcDbLine
10
140.5
20
34.523323
30
0
11
140.5
21
37.721279
31
0
39
0
210
0
220
0
230
1
0
LINE
5
121
100
AcDbEntity
8
1
62
256
6
ByLayer
370
18
48
1
60
0
100
AcDbLine
10
140.5
20
34.005685
30
0
11
140.700019
21
34.005685
31
0
39
0
210
0
220
0
230
1
0
LINE
5
122
100
AcDbEntity
8
1
62
256
6
ByLayer
370
18
48
1
60
0
100
AcDbLine
10
140.5
20
34.005685
30
0
11
140.5
21
34.523323
31
0
39
0
210
0
220
0
230
1
0
LINE
5
123
100
AcDbEntity
8
1
62
256
6
ByLayer
370
18
48
1
60
0
100
AcDbLine
10
140.5
20
33.780564
30
0
11
140.5
21
34.005685
31
0
39
0
210
0
220
0
230
1
0
LINE
5
124
100
AcDbEntity
8
1
62
256
6
ByLayer
370
18
48
1
60
0
100
AcDbLine
10
140.362596
20
-24.448702
30
0
11
140.486663
21
-21.555709
31
0
39
0
210
0
220
0
230
1
0
LINE
5
125
100
AcDbEntity
8
1
62
256
6
ByLayer
370
18
48
1
60
0
100
AcDbLine
10
140.486663
20
-21.555709
30
0
11
140.500001
21
-21.454472
31
0
39
0
210
0
220
0
230
1
0
LINE
5
126
100
AcDbEntity
8
1
62
256
6
ByLayer
370
18
48
1
60
0
100
AcDbLine
10
140.894483
20
-25.466072
30
0
11
146.815498
21
-25.110738
31
0
39
0
210
0
220
0
230
1
0
LINE
5
127
100
AcDbEntity
8
1
62
256
6
ByLayer
370
18
48
1
60
0
100
AcDbLine
10
140.399871
20
-25.242796
30
0
11
140.362596
21
-24.448702
31
0
39
0
210
0
220
0
230
1
0
LINE
5
128
100
AcDbEntity
8
1
62
256
6
ByLayer
370
18
48
1
60
0
100
AcDbLine
10
140.76424
20
-29.31434
30
0
11
147.703414
21
-28.897904
31
0
39
0
210
0
220
0
230
1
0
LINE
5
129
100
AcDbEntity
8
1
62
256
6
ByLayer
370
18
48
1
60
0
100
AcDbLine
10
148.467655
20
-27.345396
30
0
11
148.171019
21
-26.388918
31
0
39
0
210
0
220
0
230
1
0
LINE
5
12A
100
AcDbEntity
8
1
62
256
6
ByLayer
370
18
48
1
60
0
100
AcDbLine
10
148.467595
20
-28.286596
30
0
11
148.467655
21
-27.345396
31
0
39
0
210
0
220
0
230
1
0
LINE
5
12B
100
AcDbEntity
8
1
62
256
6
ByLayer
370
18
48
1
60
0
100
AcDbLine
10
140
20
-27.853561
30
0
11
140.362596
21
-24.448702
31
0
39
0
210
0
220
0
230
1
0
LINE
5
12C
100
AcDbEntity
8
1
62
256
6
ByLayer
370
18
48
1
60
0
100
AcDbLine
10
140
20
-27.853561
30
0
11
140.00006
21
-28.794754
31
0
39
0
210
0
220
0
230
1
0
LINE
5
12D
100
AcDbEntity
8
1
62
256
6
ByLayer
370
18
48
1
60
0
100
AcDbLine
10
148.467655
20
-27.345396
30
0
11
148.509601
21
-26.367293
31
0
39
0
210
0
220
0
230
1
0
LINE
5
12E
100
AcDbEntity
8
1
62
256
6
ByLayer
370
18
48
1
60
0
100
AcDbLine
10
140.124067
20
-24.960568
30
0
11
140.486663
21
-21.555709
31
0
39
0
210
0
220
0
230
1
0
LINE
5
12F
100
AcDbEntity
8
1
62
256
6
ByLayer
370
18
48
1
60
0
100
AcDbLine
10
140.124067
20
-24.960568
30
0
11
140
21
-27.853561
31
0
39
0
210
0
220
0
230
1
0
LINE
5
130
100
AcDbEntity
8
1
62
256
6
ByLayer
370
18
48
1
60
0
100
AcDbLine
10
149.875933
20
2.937079
30
0
11
149.76303
21
1.719872
31
0
39
0
210
0
220
0
230
1
0
LINE
5
131
100
AcDbEntity
8
1
62
256
6
ByLayer
370
18
48
1
60
0
100
AcDbLine
10
149.875933
20
2.937079
30
0
11
149.819507
21
3.541462
31
0
39
0
210
0
220
0
230
1
0
LINE
5
132
100
AcDbEntity
8
1
62
256
6
ByLayer
370
18
48
1
60
0
100
AcDbLine
10
150
20
1.707132
30
0
11
149.882439
21
0.439718
31
0
39
0
210
0
220
0
230
1
0
LINE
5
133
100
AcDbEntity
8
1
62
256
6
ByLayer
370
18
48
1
60
0
100
AcDbLine
10
150
20
1.707132
30
0
11
149.875933
21
2.937079
31
0
39
0
210
0
220
0
230
1
0
LINE
5
134
100
AcDbEntity
8
1
62
256
6
ByLayer
370
18
48
1
60
0
100
AcDbLine
10
149.99994
20
1.752719
30
0
11
150
21
1.707132
31
0
39
0
210
0
220
0
230
1
0
LINE
5
135
100
AcDbEntity
8
1
62
256
6
ByLayer
370
18
48
1
60
0
100
AcDbLine
10
146.412792
20
24.362728
30
0
11
146.332751
21
24.840499
31
0
39
0
210
0
220
0
230
1
0
LINE
5
136
100
AcDbEntity
8
1
62
256
6
ByLayer
370
18
48
1
60
0
100
AcDbLine
10
142.190477
20
24.146548
30
0
11
142.270518
21
23.668777
31
0
39
0
210
0
220
0
230
1
0
LINE
5
137
100
AcDbEntity
8
1
62
256
6
ByLayer
370
18
48
1
60
0
100
AcDbLine
10
143.49513
20
24.752456
30
0
11
143.506449
21
24.684891
31
0
39
0
210
0
220
0
230
1
0
LINE
5
138
100
AcDbEntity
8
1
62
256
6
ByLayer
370
18
48
1
60
0
100
AcDbLine
10
145.116984
20
24.896134
30
0
11
145.135391
21
24.78626
31
0
39
0
210
0
220
0
230
1
0
LINE
5
139
100
AcDbEntity
8
1
62
256
6
ByLayer
370
18
48
1
60
0
100
AcDbLine
10
143.529886
20
24.64594
30
0
11
143.508776
21
24.771947
31
0
39
0
210
0
220
0
230
1
0
LINE
5
13A
100
AcDbEntity
8
1
62
256
6
ByLayer
370
13
48
1
60
0
100
AcDbLine
10
143.501306
20
24.761275
30
0
11
143.515593
21
24.675997
31
0
39
0
210
0
220
0
230
1
0
LINE
5
13B
100
AcDbEntity
8
1
62
256
6
ByLayer
370
13
48
1
60
0
100
AcDbLine
10
145.10283
20
24.909492
30
0
11
145.125167
21
24.776161
31
0
39
0
210
0
220
0
230
1
0
LINE
5
13C
100
AcDbEntity
8
1
62
256
6
ByLayer
370
18
48
1
60
0
100
AcDbLine
10
145.070008
20
24.934386
30
0
11
145.108823
21
24.702693
31
0
39
0
210
0
220
0
230
1
0
LINE
5
13D
100
AcDbEntity
8
1
62
256
6
ByLayer
370
18
48
1
60
0
100
AcDbLine
10
143.151845
20
24.182334
30
0
11
143.23223
21
23.702505
31
0
39
0
210
0
220
0
230
1
0
LINE
5
13E
100
AcDbEntity
8
1
62
256
6
ByLayer
370
18
48
1
60
0
100
AcDbLine
10
145.369236
20
24.383106
30
0
11
145.460031
21
23.841141
31
0
39
0
210
0
220
0
230
1
0
LINE
5
13F
100
AcDbEntity
8
1
62
256
6
ByLayer
370
18
48
1
60
0
100
AcDbLine
10
143.559588
20
23.417741
30
0
11
143.465939
21
23.976746
31
0
39
0
210
0
220
0
230
1
0
LINE
5
140
100
AcDbEntity
8
1
62
256
6
ByLayer
370
13
48
1
60
0
100
AcDbLine
10
143.169382
20
24.197586
30
0
11
143.251227
21
23.709045
31
0
39
0
210
0
220
0
230
1
0
LINE
5
141
100
AcDbEntity
8
1
62
256
6
ByLayer
370
18
48
1
60
0
100
AcDbLine
10
145.046952
20
24.021104
30
0
11
145.1426
21
23.450168
31
0
39
0
210
0
220
0
230
1
0
LINE
5
142
100
AcDbEntity
8
1
62
256
6
ByLayer
370
13
48
1
60
0
100
AcDbLine
10
145.346942
20
24.395783
30
0
11
145.43918
21
23.845201
31
0
39
0
210
0
220
0
230
1
0
LINE
5
143
100
AcDbEntity
8
1
62
256
6
ByLayer
370
18
48
1
60
0
100
AcDbLine
10
143.966349
20
23.636766
30
0
11
144.065178
21
23.046842
31
0
39
0
210
0
220
0
230
1
0
LINE
5
144
100
AcDbEntity
8
1
62
256
6
ByLayer
370
18
48
1
60
0
100
AcDbLine
10
144.565208
20
23.674032
30
0
11
144.664037
21
23.084109
31
0
39
0
210
0
220
0
230
1
0
LINE
5
145
100
AcDbEntity
8
1
62
256
6
ByLayer
370
13
48
1
60
0
100
AcDbLine
10
143.976202
20
23.6522
30
0
11
144.074097
21
23.067854
31
0
39
0
210
0
220
0
230
1
0
LINE
5
146
100
AcDbEntity
8
1
62
256
6
ByLayer
370
13
48
1
60
0
100
AcDbLine
10
144.55458
20
23.688192
30
0
11
144.652475
21
23.103847
31
0
39
0
210
0
220
0
230
1
0
LINE
5
147
100
AcDbEntity
8
1
62
256
6
ByLayer
370
18
48
1
60
0
100
AcDbLine
10
143.976202
20
23.6522
30
0
11
143.966349
21
23.636766
31
0
39
0
210
0
220
0
230
1
0
LINE
5
148
100
AcDbEntity
8
1
62
256
6
ByLayer
370
18
48
1
60
0
100
AcDbLine
10
144.565208
20
23.674032
30
0
11
144.55458
21
23.688192
31
0
39
0
210
0
220
0
230
1
0
LINE
5
149
100
AcDbEntity
8
1
62
256
6
ByLayer
370
18
48
1
60
0
100
AcDbLine
10
145.364369
20
26.081661
30
0
11
145.3603
21
26.10595
31
0
39
0
210
0
220
0
230
1
0
LINE
5
14A
100
AcDbEntity
8
1
62
256
6
ByLayer
370
18
48
1
60
0
100
AcDbLine
10
142.697409
20
25.659838
30
0
11
142.701478
21
25.635549
31
0
39
0
210
0
220
0
230
1
0
LINE
5
14B
100
AcDbEntity
8
1
62
256
6
ByLayer
370
18
48
1
60
0
100
AcDbLine
10
115.2
20
15.99375
30
0
11
61
21
15.99375
31
0
39
0
210
0
220
0
230
1
0
LINE
5
14C
100
AcDbEntity
8
1
62
256
6
ByLayer
370
18
48
1
60
0
100
AcDbLine
10
61
20
-15.99375
30
0
11
115.2
21
-15.99375
31
0
39
0
210
0
220
0
230
1
0
LINE
5
14D
100
AcDbEntity
8
SK1
62
256
6
ByLayer
370
18
48
1
60
0
100
AcDbLine
10
1
20
15.99375
30
0
11
0
21
14.99375
31
0
39
0
210
0
220
0
230
1
0
LINE
5
14F
100
AcDbEntity
8
SK1
62
256
6
ByLayer
370
18
48
1
60
0
100
AcDbLine
10
0
20
-14.99375
30
0
11
1
21
-15.99375
31
0
39
0
210
0
220
0
230
1
0
LINE
5
150
100
AcDbEntity
8
SK1
62
256
6
ByLayer
370
18
48
1
60
0
100
AcDbLine
10
61
20
15.99375
30
0
11
1
21
15.99375
31
0
39
0
210
0
220
0
230
1
0
LINE
5
151
100
AcDbEntity
8
SK1
62
256
6
ByLayer
370
18
48
1
60
0
100
AcDbLine
10
1
20
-15.99375
30
0
11
61
21
-15.99375
31
0
39
0
210
0
220
0
230
1
0
LINE
5
152
100
AcDbEntity
8
80
62
256
6
ByLayer
370
18
48
1
60
0
100
AcDbLine
10
0
20
0
30
0
11
-10
21
0
31
0
39
0
210
0
220
0
230
1
0
LINE
5
153
100
AcDbEntity
8
81
62
256
6
ByLayer
370
18
48
1
60
0
100
AcDbLine
10
150
20
0
30
0
11
160
21
0
31
0
39
0
210
0
220
0
230
1
0
LINE
5
154
100
AcDbEntity
8
SK1
62
256
6
ByLayer
370
18
48
1
60
0
100
AcDbLine
10
61
20
-15.99375
30
0
11
61
21
15.99375
31
0
39
0
210
0
220
0
230
1
0
LINE
5
155
100
AcDbEntity
8
SK1
62
256
6
ByLayer
370
18
48
1
60
0
100
AcDbLine
10
1
20
15.99375
30
0
11
1
21
-15.99375
31
0
39
0
210
0
220
0
230
1
0
LINE
5
156
100
AcDbEntity
8
1
62
256
6
ByLayer
370
18
48
1
60
0
100
AcDbLine
10
146.332771
20
24.840382
30
0
11
146.332751
21
24.840499
31
0
39
0
210
0
220
0
230
1
0
LINE
5
157
100
AcDbEntity
8
1
62
256
6
ByLayer
370
18
48
1
60
0
100
AcDbLine
10
140.5
20
30.014302
30
0
11
140.5
21
33.780566
31
0
39
0
210
0
220
0
230
1
0
LINE
5
158
100
AcDbEntity
8
1
62
256
6
ByLayer
370
18
48
1
60
0
100
AcDbLine
10
61
20
-15.99375
30
0
11
61
21
15.99375
31
0
39
0
210
0
220
0
230
1
0
LINE
5
159
100
AcDbEntity
8
1
62
256
6
ByLayer
370
13
48
1
60
0
100
AcDbLine
10
115.279558
20
-15.929109
30
0
11
115.279558
21
15.929109
31
0
39
0
210
0
220
0
230
1
0
LINE
5
15A
100
AcDbEntity
8
1
62
256
6
ByLayer
370
13
48
1
60
0
100
AcDbLine
10
115.784033
20
15.75
30
0
11
115.784033
21
-15.75
31
0
39
0
210
0
220
0
230
1
0
LINE
5
15B
100
AcDbEntity
8
1
62
256
6
ByLayer
370
13
48
1
60
0
100
AcDbLine
10
141.5
20
10.676532
30
0
11
141.5
21
2.165164
31
0
39
0
210
0
220
0
230
1
0
LINE
5
15C
100
AcDbEntity
8
1
62
256
6
ByLayer
370
18
48
1
60
0
100
AcDbLine
10
140.5
20
1.998047
30
0
11
140.5
21
11.388621
31
0
39
0
210
0
220
0
230
1
0
LINE
5
15D
100
AcDbEntity
8
1
62
256
6
ByLayer
370
13
48
1
60
0
100
AcDbLine
10
148.5
20
3.662928
30
0
11
148.5
21
10.897083
31
0
39
0
210
0
220
0
230
1
0
LINE
5
15E
100
AcDbEntity
8
1
62
256
6
ByLayer
370
18
48
1
60
0
100
AcDbLine
10
149.5
20
11.678531
30
0
11
149.5
21
3.525388
31
0
39
0
210
0
220
0
230
1
0
LINE
5
15F
100
AcDbEntity
8
1
62
256
6
ByLayer
370
13
48
1
60
0
100
AcDbLine
10
141.5
20
-18.828093
30
0
11
141.5
21
-25.295272
31
0
39
0
210
0
220
0
230
1
0
LINE
5
160
100
AcDbEntity
8
1
62
256
6
ByLayer
370
13
48
1
60
0
100
AcDbLine
10
148.5
20
-26.368168
30
0
11
148.5
21
-19.028521
31
0
39
0
210
0
220
0
230
1
0
LINE
5
161
100
AcDbEntity
8
1
62
256
6
ByLayer
370
18
48
1
60
0
100
AcDbLine
10
140.5
20
-24.828597
30
0
11
140.5
21
-17.362926
31
0
39
0
210
0
220
0
230
1
0
LINE
5
162
100
AcDbEntity
8
1
62
256
6
ByLayer
370
18
48
1
60
0
100
AcDbLine
10
149.5
20
-17.632774
30
0
11
149.5
21
-25.770254
31
0
39
0
210
0
220
0
230
1
0
LINE
5
163
100
AcDbEntity
8
1
62
256
6
ByLayer
370
13
48
1
60
0
100
AcDbLine
10
148.5
20
29.077304
30
0
11
148.5
21
34.037553
31
0
39
0
210
0
220
0
230
1
0
LINE
5
164
100
AcDbEntity
8
1
62
256
6
ByLayer
370
18
48
1
60
0
100
AcDbLine
10
149.5
20
33.642858
30
0
11
149.5
21
28.253964
31
0
39
0
210
0
220
0
230
1
0
LINE
5
165
100
AcDbEntity
8
1
62
256
6
ByLayer
370
13
48
1
60
0
100
AcDbLine
10
141.5
20
34.147175
30
0
11
141.5
21
30.230752
31
0
39
0
210
0
220
0
230
1
0
LINE
5
166
100
AcDbEntity
8
SK1
62
256
6
ByLayer
370
18
48
1
60
0
100
AcDbLine
10
0
20
14.99375
30
0
11
0
21
-14.99375
31
0
39
0
210
0
220
0
230
1
0
LINE
5
167
100
AcDbEntity
8
1
62
256
6
ByLayer
370
13
48
1
60
0
100
AcDbLine
10
139.7
20
-15.75
30
0
11
139.7
21
15.75
31
0
39
0
210
0
220
0
230
1
0
LINE
5
168
100
AcDbEntity
8
1
62
256
6
ByLayer
370
18
48
1
60
0
100
AcDbLine
10
115.2
20
15.99375
30
0
11
115.2
21
-15.99375
31
0
39
0
210
0
220
0
230
1
0
LINE
5
169
100
AcDbEntity
8
1
62
256
6
ByLayer
370
13
48
1
60
0
100
AcDbLine
10
148.5
20
-38.736054
30
0
11
148.5
21
-37.485245
31
0
39
0
210
0
220
0
230
1
0
LINE
5
16A
100
AcDbEntity
8
1
62
256
6
ByLayer
370
13
48
1
60
0
100
AcDbLine
10
141.5
20
-37.543863
30
0
11
141.5
21
-38.79228
31
0
39
0
210
0
220
0
230
1
0
LINE
5
16B
100
AcDbEntity
8
1
62
256
6
ByLayer
370
18
48
1
60
0
100
AcDbLine
10
149.5
20
-36.21637
30
0
11
149.5
21
-37.751036
31
0
39
0
210
0
220
0
230
1
0
LINE
5
16C
100
AcDbEntity
8
1
62
256
6
ByLayer
370
18
48
1
60
0
100
AcDbLine
10
140.5
20
-37.794621
30
0
11
140.5
21
-36.302401
31
0
39
0
210
0
220
0
230
1
0
LINE
5
16D
100
AcDbEntity
8
1
62
256
6
ByLayer
370
18
48
1
60
0
100
AcDbLine
10
140.5
20
18.997482
30
0
11
140.5
21
17.900282
31
0
39
0
210
0
220
0
230
1
0
LINE
5
16E
100
AcDbEntity
8
1
62
256
6
ByLayer
370
18
48
1
60
0
100
AcDbLine
10
149.5
20
-5.159498
30
0
11
149.5
21
-4.182742
31
0
39
0
210
0
220
0
230
1
0
LINE
5
16F
100
AcDbEntity
8
1
62
256
6
ByLayer
370
18
48
1
60
0
100
AcDbLine
10
140.5
20
-3.3954
30
0
11
140.5
21
-4.372156
31
0
39
0
210
0
220
0
230
1
0
LINE
5
170
100
AcDbEntity
8
1
62
256
6
ByLayer
370
18
48
1
60
0
100
AcDbLine
10
149.5
20
18.46035
30
0
11
149.5
21
19.557551
31
0
39
0
210
0
220
0
230
1
0
LINE
5
171
100
AcDbEntity
8
1
62
256
6
ByLayer
370
18
48
1
60
0
100
AcDbLine
10
149.5
20
22.624502
30
0
11
149.5
21
22.898802
31
0
39
0
210
0
220
0
230
1
0
MTEXT
5
28F
100
AcDbEntity
8
SK6
62
256
6
ByLayer
370
18
48
1
60
0
100
AcDbMText
10
85.622368
20
-64.375
30
0
210
0
220
0
230
1
1
\W0.7607;R331.35C-080A32EM100
40
3.5
41
0
44
1.084337
50
0
71
7
72
5
7
iso_b_vert
0
DIMENSION
5
2A0
100
AcDbEntity
8
2
62
256
6
ByLayer
370
13
48
1
60
0
100
AcDbDimension
2
DimnDraft3D1
10
150
20
58.39597
30
0
11
107.292105
21
58.39597
31
0
70
32
71
5
72
1
41
1
210
0
220
0
230
1
3
Standard
100
AcDbAlignedDimension
13
61
23
17.5875
33
0
14
150
24
41.5875
34
0
50
0
100
AcDbRotatedDimension
1001
ACAD
1000
DSTYLE
1002
{
1070
   279
1070
     0
1070
   172
1070
     1
1070
   173
1070
     1
1070
   340
1005
290
1070
   271
1070
     2
1070
   272
1070
     3
1070
    77
1070
     1
1070
    73
1070
     0
1070
   171
1070
     3
1070
   274
1070
     4
1070
   177
1070
     2
1070
   176
1070
     2
1070
   178
1070
     7
1070
    78
1070
     8
1070
    48
1040
-0.005
1070
    41
1041
3.5
1070
   147
1041
1.5
1070
    42
1041
1.5875
1070
    44
1041
2.0
1070
   140
1041
3.0
1070
   343
1005
2A1
1070
   344
1005
2A1
1002
}
0
DIMENSION
5
2B6
100
AcDbEntity
8
SK2
62
256
6
ByLayer
370
13
48
1
60
0
100
AcDbDimension
2
DimnDraft3D2
10
0
20
68.39597
30
0
11
77.538158
21
68.39597
31
0
70
32
71
5
72
1
41
1
210
0
220
0
230
1
3
Standard
100
AcDbAlignedDimension
13
150
23
40.476956
33
0
14
0
24
0.476956
34
0
50
0
100
AcDbRotatedDimension
1001
ACAD
1000
DSTYLE
1002
{
1070
   279
1070
     0
1070
   172
1070
     1
1070
   173
1070
     1
1070
   340
1005
290
1070
   271
1070
     3
1070
   272
1070
     3
1070
    77
1070
     1
1070
    73
1070
     0
1070
   171
1070
     3
1070
   274
1070
     4
1070
   177
1070
     2
1070
   176
1070
     2
1070
   178
1070
     7
1070
    78
1070
     8
1070
    48
1040
-0.005
1070
    41
1041
0.953912
1070
   147
1041
1.5
1070
    42
1041
0.476956
1070
    44
1041
0.953912
1070
   140
1041
3.0
1070
   343
1005
2A1
1070
   344
1005
2A1
1002
}
0
DIMENSION
5
2C4
100
AcDbEntity
8
SK2
62
256
6
ByLayer
370
13
48
1
60
0
100
AcDbDimension
2
DimnDraft3D3
10
150
20
48.39597
30
0
11
146.417105
21
48.39597
31
0
70
32
71
5
72
1
41
1
210
0
220
0
230
1
3
Standard
100
AcDbAlignedDimension
13
140
23
40.476956
33
0
14
150
24
40.476956
34
0
50
0
100
AcDbRotatedDimension
1001
ACAD
1000
DSTYLE
1002
{
1070
   279
1070
     0
1070
   172
1070
     1
1070
   173
1070
     1
1070
   340
1005
290
1070
   271
1070
     3
1070
   272
1070
     3
1070
    77
1070
     1
1070
    73
1070
     0
1070
   171
1070
     3
1070
   274
1070
     4
1070
   177
1070
     2
1070
   176
1070
     2
1070
   178
1070
     7
1070
    78
1070
     8
1070
    48
1040
-0.005
1070
    41
1041
0.953912
1070
   147
1041
1.5
1070
    42
1041
0.476956
1070
    44
1041
0.953912
1070
   140
1041
3.0
1070
   343
1005
2A1
1070
   344
1005
2A1
1002
}
0
DIMENSION
5
2D2
100
AcDbEntity
8
SK2
62
256
6
ByLayer
370
13
48
1
60
0
100
AcDbDimension
2
DimnDraft3D4
10
-18.35
20
-16
30
0
11
-18.35
21
1.792105
31
0
70
32
71
5
72
1
41
1
210
0
220
0
230
1
3
Standard
100
AcDbAlignedDimension
13
59.4125
23
16
33
0
14
59.4125
24
-16
34
0
50
90
100
AcDbRotatedDimension
1001
ACAD
1000
DSTYLE
1002
{
1070
    74
1070
     0
1070
   279
1070
     0
1070
   172
1070
     1
1070
   173
1070
     1
1070
   340
1005
290
1070
   271
1070
     0
1070
   272
1070
     3
1070
    77
1070
     1
1070
    73
1070
     0
1070
   171
1070
     3
1070
   274
1070
     4
1070
   177
1070
     2
1070
   176
1070
     2
1070
   178
1070
     7
1070
    78
1070
     8
1070
    48
1040
-0.005
1070
    41
1041
3.5
1070
   147
1041
1.5
1070
    42
1041
1.5875
1070
    44
1041
2.0
1070
   140
1041
3.0
1070
   343
1005
2A1
1070
   344
1005
2A1
1002
}
0
DIMENSION
5
2E0
100
AcDbEntity
8
2
62
256
6
ByLayer
370
13
48
1
60
0
100
AcDbDimension
2
DimnDraft3D5
10
174.35
20
-40
30
0
11
174.35
21
1.792105
31
0
70
32
71
5
72
1
41
1
210
0
220
0
230
1
3
Standard
100
AcDbAlignedDimension
13
151.5875
23
40
33
0
14
151.5875
24
-40
34
0
50
90
100
AcDbRotatedDimension
1001
ACAD
1000
DSTYLE
1002
{
1070
    74
1070
     0
1070
   279
1070
     0
1070
   172
1070
     1
1070
   173
1070
     1
1070
   340
1005
290
1070
   271
1070
     2
1070
   272
1070
     3
1070
    77
1070
     1
1070
    73
1070
     0
1070
   171
1070
     3
1070
   274
1070
     4
1070
   177
1070
     2
1070
   176
1070
     2
1070
   178
1070
     7
1070
    78
1070
     8
1070
    48
1040
-0.005
1070
    41
1041
3.5
1070
   147
1041
1.5
1070
    42
1041
1.5875
1070
    44
1041
2.0
1070
   140
1041
3.0
1070
   343
1005
2A1
1070
   344
1005
2A1
1002
}
0
ENDSEC
0
SECTION
2
OBJECTS
0
DICTIONARY
5
34c
330
0
100
AcDbDictionary
280
0
281
1
3
ACAD_GROUP
350
34d
3
ACAD_MLINESTYLE
350
34e
0
DICTIONARY
5
34d
330
0
100
AcDbDictionary
280
0
281
1
0
DICTIONARY
5
34e
330
0
100
AcDbDictionary
280
0
281
1
3
Standard
350
18
0
MLINESTYLE
5
18
330
34e
100
AcDbMlineStyle
2
Standard
70
0
3

62
256
51
90
52
90
71
2
49
-0.5
62
256
6
ByLayer
49
0.5
62
256
6
ByLayer
0
RASTERVARIABLES
5
339
330

100
AcDbRasterVariables
90
0
70
1
71
1
72
1
0
ENDSEC
0
EOF
