0
SECTION
2
HEADER
9
$ACADVER
1
AC1015
9
$DWGCODEPAGE
3
ANSI_1252
9
$HANDSEED
5
255
9
$ANGBASE
50
0
9
$ANGDIR
70
0
9
$ATTMODE
70
1
9
$AUNITS
70
0
9
$AUPREC
70
0
9
$CECOLOR
62
256
9
$CELTSCALE
40
1
9
$CELTYPE
6
ByLayer
9
$CELWEIGHT
370
18
9
$CLAYER
8
0
9
$CMLJUST
70
0
9
$CMLSCALE
40
1
9
$CMLSTYLE
2
Standard
9
$DIMSTYLE
2
Standard
9
$TEXTSIZE
40
0.2
9
$TEXTSTYLE
7
Standard
9
$LUNITS
70
2
9
$LUPREC
70
4
9
$EXTNAMES
290
1
9
$INSUNITS
70
4
9
$LTSCALE
40
1
9
$LWDISPLAY
290
1
9
$PDMODE
70
0
9
$PDSIZE
40
0
9
$PLINEGEN
70
0
0
ENDSEC
0
SECTION
2
CLASSES
0
CLASS
1
RASTERVARIABLES
2
AcDbRasterVariables
3
ISM
90
0
280
0
281
0
0
ENDSEC
0
SECTION
2
TABLES
0
TABLE
2
VPORT
5
24b
100
AcDbSymbolTable
0
VPORT
5
1
100
AcDbSymbolTableRecord
100
AcDbViewportTableRecord
2
*Active
70
0
10
0
20
0
11
1
21
1
12
-1
22
1
13
0
23
0
14
0.5
24
0.5
15
10
25
10
16
0
26
0
36
1
17
0
27
0
37
0
0
ENDTAB
0
TABLE
2
LTYPE
5
24c
100
AcDbSymbolTable
0
LTYPE
5
14
100
AcDbSymbolTableRecord
100
AcDbLinetypeTableRecord
70
0
2
ByBlock
3

72
65
73
0
40
0
0
LTYPE
5
15
100
AcDbSymbolTableRecord
100
AcDbLinetypeTableRecord
70
0
2
ByLayer
3

72
65
73
0
40
0
0
LTYPE
5
16
100
AcDbSymbolTableRecord
100
AcDbLinetypeTableRecord
70
0
2
CONTINUOUS
3
Solid line
72
65
73
0
40
0
0
LTYPE
5
6A
100
AcDbSymbolTableRecord
100
AcDbLinetypeTableRecord
70
0
2
CENTER
3
____ _ ____ _ ____ _ ____
72
65
73
4
40
47.5
49
22
74
0
49
-8.5
74
0
49
8.5
74
0
49
-8.5
74
0
0
LTYPE
5
6B
100
AcDbSymbolTableRecord
100
AcDbLinetypeTableRecord
70
0
2
DASHED
3
__ __ __ __ __ __ __ __ __
72
65
73
2
40
25.72
49
12.86
74
0
49
-12.86
74
0
0
ENDTAB
0
TABLE
2
LAYER
5
24d
100
AcDbSymbolTable
0
LAYER
5
10
100
AcDbSymbolTableRecord
100
AcDbLayerTableRecord
2
0
70
0
62
7
6
CONTINUOUS
290
1
370
-3
390
0
0
LAYER
5
6D
100
AcDbSymbolTableRecord
100
AcDbLayerTableRecord
2
80
70
0
62
-6
6
CONTINUOUS
290
1
370
-3
390
0
0
LAYER
5
71
100
AcDbSymbolTableRecord
100
AcDbLayerTableRecord
2
81
70
0
62
-3
6
CONTINUOUS
290
1
370
-3
390
0
0
LAYER
5
73
100
AcDbSymbolTableRecord
100
AcDbLayerTableRecord
2
2
70
0
62
7
6
CONTINUOUS
290
1
370
-3
390
0
0
LAYER
5
75
100
AcDbSymbolTableRecord
100
AcDbLayerTableRecord
2
3
70
0
62
1
6
DASHED
290
1
370
-3
390
0
0
LAYER
5
7F
100
AcDbSymbolTableRecord
100
AcDbLayerTableRecord
2
5
70
0
62
-7
6
CONTINUOUS
290
1
370
-3
390
0
0
LAYER
5
86
100
AcDbSymbolTableRecord
100
AcDbLayerTableRecord
2
4
70
0
62
-2
6
CENTER
290
1
370
-3
390
0
0
LAYER
5
8A
100
AcDbSymbolTableRecord
100
AcDbLayerTableRecord
2
1
70
0
62
4
6
CONTINUOUS
290
1
370
-3
390
0
0
LAYER
5
236
100
AcDbSymbolTableRecord
100
AcDbLayerTableRecord
2
2L
70
0
62
7
6
CONTINUOUS
290
1
370
-3
390
0
0
LAYER
5
237
100
AcDbSymbolTableRecord
100
AcDbLayerTableRecord
2
SK4
70
0
62
2
6
CENTER
290
1
370
-3
390
0
0
LAYER
5
238
100
AcDbSymbolTableRecord
100
AcDbLayerTableRecord
2
SK1
70
0
62
4
6
CONTINUOUS
290
1
370
-3
390
0
0
LAYER
5
239
100
AcDbSymbolTableRecord
100
AcDbLayerTableRecord
2
SK6
70
0
62
5
6
CONTINUOUS
290
1
370
-3
390
0
0
LAYER
5
23a
100
AcDbSymbolTableRecord
100
AcDbLayerTableRecord
2
SK2
70
0
62
7
6
CONTINUOUS
290
1
370
-3
390
0
0
ENDTAB
0
TABLE
2
STYLE
5
24e
100
AcDbSymbolTable
0
STYLE
5
11
100
AcDbSymbolTableRecord
100
AcDbTextStyleTableRecord
2
Standard
3
txt
70
0
71
0
40
0
41
1
42
0
50
0
0
STYLE
5
18C
100
AcDbSymbolTableRecord
100
AcDbTextStyleTableRecord
2
iso_b_vert
3
simplex.shx
70
0
71
0
40
0
41
1
42
0
50
0
0
STYLE
5
18D
100
AcDbSymbolTableRecord
100
AcDbTextStyleTableRecord
2
DWGDirectTextStyle
3
simplex
70
0
71
0
40
0
41
1
42
0
50
0
0
ENDTAB
0
TABLE
2
DIMSTYLE
5
24f
100
AcDbSymbolTable
100
AcDbDimStyleTable
0
DIMSTYLE
105
27
100
AcDbSymbolTableRecord
100
AcDbDimStyleTableRecord
2
Standard
70
0
3
<>
41
0.18
42
0.0625
44
0.18
140
0.18
147
0.09
73
0
74
0
77
1
271
2
275
0
278
52
280
0
340
11
0
ENDTAB
0
TABLE
2
VIEW
5
250
100
AcDbSymbolTable
0
ENDTAB
0
TABLE
2
UCS
5
251
100
AcDbSymbolTable
0
ENDTAB
0
TABLE
2
APPID
5
252
100
AcDbSymbolTable
0
APPID
5
12
100
AcDbSymbolTableRecord
100
AcDbRegAppTableRecord
2
ACAD
70
0
0
ENDTAB
0
TABLE
2
BLOCK_RECORD
5
253
100
AcDbSymbolTable
0
BLOCK_RECORD
5
1F
100
AcDbSymbolTableRecord
100
AcDbBlockTableRecord
2
*Model_Space
340
0
70
0
0
BLOCK_RECORD
5
1B
100
AcDbSymbolTableRecord
100
AcDbBlockTableRecord
2
*Paper_Space
340
0
70
0
0
BLOCK_RECORD
5
23
100
AcDbSymbolTableRecord
100
AcDbBlockTableRecord
2
*Paper_Space0
340
0
70
0
0
BLOCK_RECORD
5
18F
100
AcDbSymbolTableRecord
100
AcDbBlockTableRecord
2
DimnDraft3D1
340
0
70
0
0
BLOCK_RECORD
5
19D
100
AcDbSymbolTableRecord
100
AcDbBlockTableRecord
2
_CLOSED
340
0
70
0
0
BLOCK_RECORD
5
1A4
100
AcDbSymbolTableRecord
100
AcDbBlockTableRecord
2
DimnDraft3D2
340
0
70
0
0
BLOCK_RECORD
5
1B3
100
AcDbSymbolTableRecord
100
AcDbBlockTableRecord
2
DimnDraft3D3
340
0
70
0
0
BLOCK_RECORD
5
1C1
100
AcDbSymbolTableRecord
100
AcDbBlockTableRecord
2
DimnDraft3D4
340
0
70
0
0
BLOCK_RECORD
5
1CF
100
AcDbSymbolTableRecord
100
AcDbBlockTableRecord
2
DimnDraft3D5
340
0
70
0
0
ENDTAB
0
ENDSEC
0
SECTION
2
BLOCKS
0
BLOCK
5
20
100
AcDbEntity
8
0
100
AcDbBlockBegin
2
*Model_Space
70
0
10
0
20
0
30
0
3
*Model_Space
0
ENDBLK
5
21
100
AcDbEntity
8
0
100
AcDbBlockEnd
0
BLOCK
5
1C
100
AcDbEntity
8
0
100
AcDbBlockBegin
2
*Paper_Space
70
0
10
0
20
0
30
0
3
*Paper_Space
0
ENDBLK
5
1D
100
AcDbEntity
8
0
100
AcDbBlockEnd
0
BLOCK
5
24
100
AcDbEntity
8
0
100
AcDbBlockBegin
2
*Paper_Space0
70
0
10
0
20
0
30
0
3
*Paper_Space0
0
ENDBLK
5
25
100
AcDbEntity
8
0
100
AcDbBlockEnd
0
BLOCK
5
19A
100
AcDbEntity
8
0
100
AcDbBlockBegin
2
DimnDraft3D1
70
0
10
0
20
0
30
0
3
DimnDraft3D1
0
MTEXT
5
190
100
AcDbEntity
8
2
62
256
6
ByLayer
370
18
48
1
60
0
100
AcDbMText
10
83.832895
20
39.128981
30
0
210
0
220
0
230
1
1
\W0.6351;71
40
3
41
0
44
1.084337
50
0
71
7
72
5
7
iso_b_vert
0
LINE
5
191
100
AcDbEntity
8
2
62
256
6
ByLayer
370
13
48
1
60
0
100
AcDbLine
10
49
20
9.5875
30
0
11
49
21
40.378981
31
0
39
0
210
0
220
0
230
1
0
LINE
5
192
100
AcDbEntity
8
2
62
256
6
ByLayer
370
13
48
1
60
0
100
AcDbLine
10
120
20
21.5875
30
0
11
120
21
40.378981
31
0
39
0
210
0
220
0
230
1
0
LINE
5
193
100
AcDbEntity
8
2
62
256
6
ByLayer
370
13
48
1
60
0
100
AcDbLine
10
49
20
38.378981
30
0
11
120
21
38.378981
31
0
39
0
210
0
220
0
230
1
0
LINE
5
194
100
AcDbEntity
8
2
62
256
6
ByLayer
370
13
48
1
60
0
100
AcDbLine
10
49
20
38.378981
30
0
11
52.499998
21
38.839765
31
0
39
0
210
0
220
0
230
1
0
LINE
5
195
100
AcDbEntity
8
2
62
256
6
ByLayer
370
13
48
1
60
0
100
AcDbLine
10
49
20
38.378981
30
0
11
52.500002
21
37.918197
31
0
39
0
210
0
220
0
230
1
0
LINE
5
196
100
AcDbEntity
8
2
62
256
6
ByLayer
370
13
48
1
60
0
100
AcDbLine
10
52.499998
20
38.839765
30
0
11
52.500002
21
37.918197
31
0
39
0
210
0
220
0
230
1
0
LINE
5
197
100
AcDbEntity
8
2
62
256
6
ByLayer
370
13
48
1
60
0
100
AcDbLine
10
120
20
38.378981
30
0
11
116.500002
21
37.918197
31
0
39
0
210
0
220
0
230
1
0
LINE
5
198
100
AcDbEntity
8
2
62
256
6
ByLayer
370
13
48
1
60
0
100
AcDbLine
10
120
20
38.378981
30
0
11
116.499998
21
38.839765
31
0
39
0
210
0
220
0
230
1
0
LINE
5
199
100
AcDbEntity
8
2
62
256
6
ByLayer
370
13
48
1
60
0
100
AcDbLine
10
116.500002
20
37.918197
30
0
11
116.499998
21
38.839765
31
0
39
0
210
0
220
0
230
1
0
ENDBLK
5
19B
100
AcDbEntity
8
0
100
AcDbBlockEnd
0
BLOCK
5
19E
100
AcDbEntity
8
0
100
AcDbBlockBegin
2
_CLOSED
70
0
10
0
20
0
30
0
3
_CLOSED
0
LINE
5
1A0
100
AcDbEntity
8
0
62
256
6
ByLayer
370
-2
48
1
60
0
100
AcDbLine
10
-1
20
0.166667
30
0
11
0
21
0
31
0
39
0
210
0
220
0
230
1
0
LINE
5
1A1
100
AcDbEntity
8
0
62
256
6
ByLayer
370
-2
48
1
60
0
100
AcDbLine
10
0
20
0
30
0
11
-1
21
-0.166667
31
0
39
0
210
0
220
0
230
1
0
LINE
5
1A2
100
AcDbEntity
8
0
62
256
6
ByLayer
370
-2
48
1
60
0
100
AcDbLine
10
-1
20
0.166667
30
0
11
-1
21
-0.166667
31
0
39
0
210
0
220
0
230
1
0
LINE
5
1A3
100
AcDbEntity
8
0
62
256
6
ByLayer
370
-2
48
1
60
0
100
AcDbLine
10
0
20
0
30
0
11
-1
21
0
31
0
39
0
210
0
220
0
230
1
0
ENDBLK
5
19F
100
AcDbEntity
8
0
100
AcDbBlockEnd
0
BLOCK
5
1B0
100
AcDbEntity
8
0
100
AcDbBlockBegin
2
DimnDraft3D2
70
0
10
0
20
0
30
0
3
DimnDraft3D2
0
MTEXT
5
1A5
100
AcDbEntity
8
SK2
62
256
6
ByLayer
370
18
48
1
60
0
100
AcDbMText
10
58.211842
20
49.128981
30
0
210
0
220
0
230
1
1
\W0.6217;120
40
3
41
0
44
1.084337
50
0
71
7
72
5
7
iso_b_vert
0
LINE
5
1A7
100
AcDbEntity
8
SK2
62
256
6
ByLayer
370
13
48
1
60
0
100
AcDbLine
10
120
20
20.476956
30
0
11
120
21
49.332893
31
0
39
0
210
0
220
0
230
1
0
LINE
5
1A8
100
AcDbEntity
8
SK2
62
256
6
ByLayer
370
13
48
1
60
0
100
AcDbLine
10
0
20
0.476956
30
0
11
0
21
49.332893
31
0
39
0
210
0
220
0
230
1
0
LINE
5
1A9
100
AcDbEntity
8
SK2
62
256
6
ByLayer
370
13
48
1
60
0
100
AcDbLine
10
120
20
48.378981
30
0
11
0
21
48.378981
31
0
39
0
210
0
220
0
230
1
0
LINE
5
1AA
100
AcDbEntity
8
SK2
62
256
6
ByLayer
370
13
48
1
60
0
100
AcDbLine
10
120
20
48.378981
30
0
11
119.046088
21
48.253396
31
0
39
0
210
0
220
0
230
1
0
LINE
5
1AB
100
AcDbEntity
8
SK2
62
256
6
ByLayer
370
13
48
1
60
0
100
AcDbLine
10
120
20
48.378981
30
0
11
119.046087
21
48.504566
31
0
39
0
210
0
220
0
230
1
0
LINE
5
1AC
100
AcDbEntity
8
SK2
62
256
6
ByLayer
370
13
48
1
60
0
100
AcDbLine
10
119.046088
20
48.253396
30
0
11
119.046087
21
48.504566
31
0
39
0
210
0
220
0
230
1
0
LINE
5
1AD
100
AcDbEntity
8
SK2
62
256
6
ByLayer
370
13
48
1
60
0
100
AcDbLine
10
0
20
48.378981
30
0
11
0.953912
21
48.504566
31
0
39
0
210
0
220
0
230
1
0
LINE
5
1AE
100
AcDbEntity
8
SK2
62
256
6
ByLayer
370
13
48
1
60
0
100
AcDbLine
10
0
20
48.378981
30
0
11
0.953913
21
48.253396
31
0
39
0
210
0
220
0
230
1
0
LINE
5
1AF
100
AcDbEntity
8
SK2
62
256
6
ByLayer
370
13
48
1
60
0
100
AcDbLine
10
0.953912
20
48.504566
30
0
11
0.953913
21
48.253396
31
0
39
0
210
0
220
0
230
1
0
ENDBLK
5
1B1
100
AcDbEntity
8
0
100
AcDbBlockEnd
0
BLOCK
5
1BE
100
AcDbEntity
8
0
100
AcDbBlockBegin
2
DimnDraft3D3
70
0
10
0
20
0
30
0
3
DimnDraft3D3
0
MTEXT
5
1B4
100
AcDbEntity
8
SK2
62
256
6
ByLayer
370
18
48
1
60
0
100
AcDbMText
10
117.078947
20
29.128981
30
0
210
0
220
0
230
1
1
\W0.5404;6
40
3
41
0
44
1.084337
50
0
71
7
72
5
7
iso_b_vert
0
LINE
5
1B5
100
AcDbEntity
8
SK2
62
256
6
ByLayer
370
13
48
1
60
0
100
AcDbLine
10
114
20
20.476956
30
0
11
114
21
29.332893
31
0
39
0
210
0
220
0
230
1
0
LINE
5
1B6
100
AcDbEntity
8
SK2
62
256
6
ByLayer
370
13
48
1
60
0
100
AcDbLine
10
120
20
20.476956
30
0
11
120
21
29.332893
31
0
39
0
210
0
220
0
230
1
0
LINE
5
1B7
100
AcDbEntity
8
SK2
62
256
6
ByLayer
370
13
48
1
60
0
100
AcDbLine
10
114
20
28.378981
30
0
11
120
21
28.378981
31
0
39
0
210
0
220
0
230
1
0
LINE
5
1B8
100
AcDbEntity
8
SK2
62
256
6
ByLayer
370
13
48
1
60
0
100
AcDbLine
10
114
20
28.378981
30
0
11
114.953912
21
28.504566
31
0
39
0
210
0
220
0
230
1
0
LINE
5
1B9
100
AcDbEntity
8
SK2
62
256
6
ByLayer
370
13
48
1
60
0
100
AcDbLine
10
114
20
28.378981
30
0
11
114.953913
21
28.253396
31
0
39
0
210
0
220
0
230
1
0
LINE
5
1BA
100
AcDbEntity
8
SK2
62
256
6
ByLayer
370
13
48
1
60
0
100
AcDbLine
10
114.953912
20
28.504566
30
0
11
114.953913
21
28.253396
31
0
39
0
210
0
220
0
230
1
0
LINE
5
1BB
100
AcDbEntity
8
SK2
62
256
6
ByLayer
370
13
48
1
60
0
100
AcDbLine
10
120
20
28.378981
30
0
11
119.046088
21
28.253396
31
0
39
0
210
0
220
0
230
1
0
LINE
5
1BC
100
AcDbEntity
8
SK2
62
256
6
ByLayer
370
13
48
1
60
0
100
AcDbLine
10
120
20
28.378981
30
0
11
119.046087
21
28.504566
31
0
39
0
210
0
220
0
230
1
0
LINE
5
1BD
100
AcDbEntity
8
SK2
62
256
6
ByLayer
370
13
48
1
60
0
100
AcDbLine
10
119.046088
20
28.253396
30
0
11
119.046087
21
28.504566
31
0
39
0
210
0
220
0
230
1
0
ENDBLK
5
1BF
100
AcDbEntity
8
0
100
AcDbBlockEnd
0
BLOCK
5
1CC
100
AcDbEntity
8
0
100
AcDbBlockBegin
2
DimnDraft3D4
70
0
10
0
20
0
30
0
3
DimnDraft3D4
0
MTEXT
5
1C2
100
AcDbEntity
8
SK2
62
256
6
ByLayer
370
18
48
1
60
0
100
AcDbMText
10
-19.1
20
-0.667105
30
0
210
0
220
0
230
1
1
\W0.5321;16
40
3
41
0
44
1.084337
50
90
71
7
72
5
7
iso_b_vert
0
LINE
5
1C3
100
AcDbEntity
8
SK2
62
256
6
ByLayer
370
13
48
1
60
0
100
AcDbLine
10
47.4125
20
8
30
0
11
-20.35
21
8
31
0
39
0
210
0
220
0
230
1
0
LINE
5
1C4
100
AcDbEntity
8
SK2
62
256
6
ByLayer
370
13
48
1
60
0
100
AcDbLine
10
47.4125
20
-8
30
0
11
-20.35
21
-8
31
0
39
0
210
0
220
0
230
1
0
LINE
5
1C5
100
AcDbEntity
8
SK2
62
256
6
ByLayer
370
13
48
1
60
0
100
AcDbLine
10
-18.35
20
8
30
0
11
-18.35
21
-8
31
0
39
0
210
0
220
0
230
1
0
LINE
5
1C6
100
AcDbEntity
8
SK2
62
256
6
ByLayer
370
13
48
1
60
0
100
AcDbLine
10
-18.35
20
8
30
0
11
-17.889216
21
4.500002
31
0
39
0
210
0
220
0
230
1
0
LINE
5
1C7
100
AcDbEntity
8
SK2
62
256
6
ByLayer
370
13
48
1
60
0
100
AcDbLine
10
-18.35
20
8
30
0
11
-18.810784
21
4.499998
31
0
39
0
210
0
220
0
230
1
0
LINE
5
1C8
100
AcDbEntity
8
SK2
62
256
6
ByLayer
370
13
48
1
60
0
100
AcDbLine
10
-17.889216
20
4.500002
30
0
11
-18.810784
21
4.499998
31
0
39
0
210
0
220
0
230
1
0
LINE
5
1C9
100
AcDbEntity
8
SK2
62
256
6
ByLayer
370
13
48
1
60
0
100
AcDbLine
10
-18.35
20
-8
30
0
11
-18.810784
21
-4.500002
31
0
39
0
210
0
220
0
230
1
0
LINE
5
1CA
100
AcDbEntity
8
SK2
62
256
6
ByLayer
370
13
48
1
60
0
100
AcDbLine
10
-18.35
20
-8
30
0
11
-17.889216
21
-4.499998
31
0
39
0
210
0
220
0
230
1
0
LINE
5
1CB
100
AcDbEntity
8
SK2
62
256
6
ByLayer
370
13
48
1
60
0
100
AcDbLine
10
-18.810784
20
-4.500002
30
0
11
-17.889216
21
-4.499998
31
0
39
0
210
0
220
0
230
1
0
ENDBLK
5
1CD
100
AcDbEntity
8
0
100
AcDbBlockEnd
0
BLOCK
5
1DA
100
AcDbEntity
8
0
100
AcDbBlockBegin
2
DimnDraft3D5
70
0
10
0
20
0
30
0
3
DimnDraft3D5
0
MTEXT
5
1D0
100
AcDbEntity
8
2
62
256
6
ByLayer
370
18
48
1
60
0
100
AcDbMText
10
143.6
20
-1.2
30
0
210
0
220
0
230
1
1
\W0.7361;40
40
3
41
0
44
1.084337
50
90
71
7
72
5
7
iso_b_vert
0
LINE
5
1D1
100
AcDbEntity
8
2
62
256
6
ByLayer
370
13
48
1
60
0
100
AcDbLine
10
121.5875
20
20
30
0
11
146.35
21
20
31
0
39
0
210
0
220
0
230
1
0
LINE
5
1D2
100
AcDbEntity
8
2
62
256
6
ByLayer
370
13
48
1
60
0
100
AcDbLine
10
121.5875
20
-20
30
0
11
146.35
21
-20
31
0
39
0
210
0
220
0
230
1
0
LINE
5
1D3
100
AcDbEntity
8
2
62
256
6
ByLayer
370
13
48
1
60
0
100
AcDbLine
10
144.35
20
20
30
0
11
144.35
21
-20
31
0
39
0
210
0
220
0
230
1
0
LINE
5
1D4
100
AcDbEntity
8
2
62
256
6
ByLayer
370
13
48
1
60
0
100
AcDbLine
10
144.35
20
20
30
0
11
144.810784
21
16.500002
31
0
39
0
210
0
220
0
230
1
0
LINE
5
1D5
100
AcDbEntity
8
2
62
256
6
ByLayer
370
13
48
1
60
0
100
AcDbLine
10
144.35
20
20
30
0
11
143.889216
21
16.499998
31
0
39
0
210
0
220
0
230
1
0
LINE
5
1D6
100
AcDbEntity
8
2
62
256
6
ByLayer
370
13
48
1
60
0
100
AcDbLine
10
144.810784
20
16.500002
30
0
11
143.889216
21
16.499998
31
0
39
0
210
0
220
0
230
1
0
LINE
5
1D7
100
AcDbEntity
8
2
62
256
6
ByLayer
370
13
48
1
60
0
100
AcDbLine
10
144.35
20
-20
30
0
11
143.889216
21
-16.500002
31
0
39
0
210
0
220
0
230
1
0
LINE
5
1D8
100
AcDbEntity
8
2
62
256
6
ByLayer
370
13
48
1
60
0
100
AcDbLine
10
144.35
20
-20
30
0
11
144.810784
21
-16.499998
31
0
39
0
210
0
220
0
230
1
0
LINE
5
1D9
100
AcDbEntity
8
2
62
256
6
ByLayer
370
13
48
1
60
0
100
AcDbLine
10
143.889216
20
-16.500002
30
0
11
144.810784
21
-16.499998
31
0
39
0
210
0
220
0
230
1
0
ENDBLK
5
1DB
100
AcDbEntity
8
0
100
AcDbBlockEnd
0
ENDSEC
0
SECTION
2
ENTITIES
0
ARC
5
104
100
AcDbEntity
8
1
62
256
6
ByLayer
370
18
48
1
60
0
100
AcDbCircle
39
0
10
-113.6
20
8.55
30
0
40
0.8
210
0
220
0
230
-1
100
AcDbArc
50
180
51
270
0
ARC
5
105
100
AcDbEntity
8
1
62
256
6
ByLayer
370
18
48
1
60
0
100
AcDbCircle
39
0
10
-89.685612
20
8.55
30
0
40
0.8
210
0
220
0
230
-1
100
AcDbArc
50
270
51
309.294607
0
ARC
5
106
100
AcDbEntity
8
1
62
256
6
ByLayer
370
18
48
1
60
0
100
AcDbCircle
39
0
10
-113.6
20
-8.55
30
0
40
0.8
210
0
220
0
230
-1
100
AcDbArc
50
90
51
180
0
ARC
5
107
100
AcDbEntity
8
1
62
256
6
ByLayer
370
18
48
1
60
0
100
AcDbCircle
39
0
10
-89.685612
20
-8.55
30
0
40
0.8
210
0
220
0
230
-1
100
AcDbArc
50
50.705393
51
90
0
ELLIPSE
5
108
100
AcDbEntity
8
1
62
256
6
ByLayer
370
18
48
1
60
0
100
AcDbEllipse
10
116.607311
20
-0.844963
30
0
11
-1.70644631232259
21
-0.148944014468606
31
0
210
0
220
0
230
1
40
0.250244
41
0
42
6.28318530717959
0
ELLIPSE
5
109
100
AcDbEntity
8
1
62
256
6
ByLayer
370
18
48
1
60
0
100
AcDbEllipse
10
117.519198
20
14.884218
30
0
11
-0.752398492460604
21
-0.244732401906674
31
0
210
0
220
0
230
1
40
0.96225
41
2.81264257902757
42
-2.94396567383483
0
ELLIPSE
5
10A
100
AcDbEntity
8
1
62
256
6
ByLayer
370
18
48
1
60
0
100
AcDbEllipse
10
117.519198
20
14.884218
30
0
11
-0.752398492460604
21
-0.244732401906674
31
0
210
0
220
0
230
1
40
0.96225
41
0.249414270014977
42
0.743642600449194
0
ELLIPSE
5
10B
100
AcDbEntity
8
1
62
256
6
ByLayer
370
18
48
1
60
0
100
AcDbEllipse
10
117.519198
20
14.884218
30
0
11
-0.752398492460604
21
-0.244732401906674
31
0
210
0
220
0
230
1
40
0.96225
41
-0.849570571441645
42
-0.118184547859177
0
ELLIPSE
5
10C
100
AcDbEntity
8
1
62
256
6
ByLayer
370
18
48
1
60
0
100
AcDbEllipse
10
116.564988
20
-0.360078
30
0
11
-1.03112969953901
21
-0.0900002512696192
31
0
210
0
220
0
230
1
40
0.250244
41
1.04799882412377
42
2.09519637532037
0
ELLIPSE
5
10D
100
AcDbEntity
8
1
62
256
6
ByLayer
370
18
48
1
60
0
100
AcDbEllipse
10
116.564988
20
-0.360078
30
0
11
-1.03112969953901
21
-0.0900002512696192
31
0
210
0
220
0
230
1
40
0.250244
41
2.09519637532037
42
2.64443468508197
0
ELLIPSE
5
10E
100
AcDbEntity
8
1
62
256
6
ByLayer
370
18
48
1
60
0
100
AcDbEllipse
10
117
20
-6.809689
30
0
11
-1.5
21
1.83690953073357E-16
31
0
210
0
220
0
230
1
40
0.809556
41
0
42
-3.14159265358979
0
ELLIPSE
5
10F
100
AcDbEntity
8
1
62
256
6
ByLayer
370
13
48
1
60
0
100
AcDbEllipse
10
118.4
20
-6.809689
30
0
11
-0.1
21
1.22460635382238E-17
31
0
210
0
220
0
230
1
40
0.587042
41
3.14159265358979
42
-1.5707963267949
0
ELLIPSE
5
110
100
AcDbEntity
8
1
62
256
6
ByLayer
370
13
48
1
60
0
100
AcDbEllipse
10
117
20
-6.750985
30
0
11
1.4
21
0
31
0
210
0
220
0
230
1
40
0.809556
41
3.14159265358979
42
2.35096703722284E-15
0
ELLIPSE
5
111
100
AcDbEntity
8
1
62
256
6
ByLayer
370
13
48
1
60
0
100
AcDbEllipse
10
115.6
20
-6.809689
30
0
11
0.1
21
0
31
0
210
0
220
0
230
1
40
0.587042
41
1.5707963267949
42
-3.14159265358976
0
ELLIPSE
5
112
100
AcDbEntity
8
1
62
256
6
ByLayer
370
18
48
1
60
0
100
AcDbEllipse
10
117.392689
20
15.273152
30
0
11
1.628929547093
21
0.529841360119012
31
0
210
0
220
0
230
1
40
0.96225
41
0
42
6.28318530717959
0
ELLIPSE
5
113
100
AcDbEntity
8
1
62
256
6
ByLayer
370
18
48
1
60
0
100
AcDbEllipse
10
117
20
-6.750985
30
0
11
-1
21
1.22460635382238E-16
31
0
210
0
220
0
230
1
40
0.809556
41
0
42
6.28318530717959
0
ELLIPSE
5
114
100
AcDbEntity
8
1
62
256
6
ByLayer
370
13
48
1
60
0
100
AcDbEllipse
10
117.474114
20
15.022822
30
0
11
-1.51617041243801
21
-0.493164234715973
31
0
210
0
220
0
230
1
40
0.96225
41
2.81333847748642
42
-2.51568598252972
0
ELLIPSE
5
115
100
AcDbEntity
8
1
62
256
6
ByLayer
370
13
48
1
60
0
100
AcDbEllipse
10
117.474114
20
15.022822
30
0
11
-1.51617041243801
21
-0.493164234715973
31
0
210
0
220
0
230
1
40
0.96225
41
-0.626017882996774
42
0
0
ELLIPSE
5
116
100
AcDbEntity
8
1
62
256
6
ByLayer
370
13
48
1
60
0
100
AcDbEllipse
10
117.474114
20
15.022822
30
0
11
-1.51617041243801
21
-0.493164234715973
31
0
210
0
220
0
230
1
40
0.96225
41
0
42
0.372320914048068
0
ELLIPSE
5
117
100
AcDbEntity
8
1
62
256
6
ByLayer
370
13
48
1
60
0
100
AcDbEllipse
10
117.474114
20
15.022822
30
0
11
-1.51617041243801
21
-0.493164234715973
31
0
210
0
220
0
230
1
40
0.96225
41
2.76935606639893
42
2.81333847748643
0
ELLIPSE
5
118
100
AcDbEntity
8
1
62
256
6
ByLayer
370
13
48
1
60
0
100
AcDbEllipse
10
117.435012
20
15.143037
30
0
11
-1.04605452692956
21
-0.340249800426366
31
0
210
0
220
0
230
1
40
0.96225
41
0
42
6.28318530717959
0
ELLIPSE
5
119
100
AcDbEntity
8
1
62
256
6
ByLayer
370
18
48
1
60
0
100
AcDbEllipse
10
117.437192
20
15.136334
30
0
11
-1.4502119577887
21
-0.471709950591098
31
0
210
0
220
0
230
1
40
0.96225
41
0
42
6.28318530717959
0
ELLIPSE
5
11A
100
AcDbEntity
8
1
62
256
6
ByLayer
370
13
48
1
60
0
100
AcDbEllipse
10
117.460383
20
15.065036
30
0
11
1.57545921333131
21
0.512449082830608
31
0
210
0
220
0
230
1
40
0.96225
41
-0.104906591470935
42
0
0
ELLIPSE
5
11B
100
AcDbEntity
8
1
62
256
6
ByLayer
370
13
48
1
60
0
100
AcDbEllipse
10
117.460383
20
15.065036
30
0
11
1.57545921333131
21
0.512449082830608
31
0
210
0
220
0
230
1
40
0.96225
41
0
42
2.81333834089169
0
ELLIPSE
5
11C
100
AcDbEntity
8
1
62
256
6
ByLayer
370
18
48
1
60
0
100
AcDbEllipse
10
117.460383
20
15.065036
30
0
11
1.57545921333131
21
0.512449082830608
31
0
210
0
220
0
230
1
40
0.96225
41
-0.183740648536969
42
-0.104906591470937
0
ELLIPSE
5
11D
100
AcDbEntity
8
1
62
256
6
ByLayer
370
18
48
1
60
0
100
AcDbEllipse
10
117.460383
20
15.065036
30
0
11
1.57545921333131
21
0.512449082830608
31
0
210
0
220
0
230
1
40
0.96225
41
2.81343666910351
42
-2.95776699514692
0
ELLIPSE
5
11E
100
AcDbEntity
8
1
62
256
6
ByLayer
370
18
48
1
60
0
100
AcDbEllipse
10
117.519198
20
14.884218
30
0
11
-0.752398492460604
21
-0.244732401906674
31
0
210
0
220
0
230
1
40
0.96225
41
-2.94396567383482
42
-1.89676812263822
0
ELLIPSE
5
11F
100
AcDbEntity
8
1
62
256
6
ByLayer
370
18
48
1
60
0
100
AcDbEllipse
10
117.435012
20
15.143037
30
0
11
0.98428976190767
21
0.320159596301191
31
0
210
0
220
0
230
1
40
0.96225
41
2.81562085774646
42
-2.42036689823653
0
ELLIPSE
5
120
100
AcDbEntity
8
1
62
256
6
ByLayer
370
18
48
1
60
0
100
AcDbEllipse
10
117.435012
20
15.143037
30
0
11
0.98428976190767
21
0.320159596301191
31
0
210
0
220
0
230
1
40
0.96225
41
-2.42036689823653
42
-1.37316934703993
0
ELLIPSE
5
121
100
AcDbEntity
8
1
62
256
6
ByLayer
370
18
48
1
60
0
100
AcDbEllipse
10
117.435012
20
15.143037
30
0
11
0.98428976190767
21
0.320159596301191
31
0
210
0
220
0
230
1
40
0.96225
41
-1.37316934703993
42
-0.325971795843335
0
ELLIPSE
5
122
100
AcDbEntity
8
1
62
256
6
ByLayer
370
18
48
1
60
0
100
AcDbEllipse
10
117.435012
20
15.143037
30
0
11
0.98428976190767
21
0.320159596301191
31
0
210
0
220
0
230
1
40
0.96225
41
-0.325971795843335
42
0.721225755353267
0
ELLIPSE
5
123
100
AcDbEntity
8
1
62
256
6
ByLayer
370
18
48
1
60
0
100
AcDbEllipse
10
117.435012
20
15.143037
30
0
11
0.98428976190767
21
0.320159596301191
31
0
210
0
220
0
230
1
40
0.96225
41
0.721225755353267
42
1.76842330654986
0
ELLIPSE
5
124
100
AcDbEntity
8
1
62
256
6
ByLayer
370
18
48
1
60
0
100
AcDbEllipse
10
117.435012
20
15.143037
30
0
11
0.98428976190767
21
0.320159596301191
31
0
210
0
220
0
230
1
40
0.96225
41
1.76842330654986
42
2.81562085774646
0
ELLIPSE
5
125
100
AcDbEntity
8
1
62
256
6
ByLayer
370
18
48
1
60
0
100
AcDbEllipse
10
117.519198
20
14.884218
30
0
11
0.752398492460605
21
0.244732401906673
31
0
210
0
220
0
230
1
40
0.96225
41
1.24482453095157
42
2.29202208214815
0
ELLIPSE
5
126
100
AcDbEntity
8
1
62
256
6
ByLayer
370
13
48
1
60
0
100
AcDbEllipse
10
116.564988
20
-0.360078
30
0
11
1.09583369836521
21
0.0956478202952332
31
0
210
0
220
0
230
1
40
0.250244
41
-2.63970793337258
42
-0.502148975560482
0
ELLIPSE
5
127
100
AcDbEntity
8
1
62
256
6
ByLayer
370
18
48
1
60
0
100
AcDbEllipse
10
116.562808
20
-0.335097
30
0
11
1.5192239909154
21
0.132602659954755
31
0
210
0
220
0
230
1
40
0.250244
41
-2.53151822920813
42
-0.600224658895417
0
ELLIPSE
5
128
100
AcDbEntity
8
1
62
256
6
ByLayer
370
18
48
1
60
0
100
AcDbEllipse
10
116.564988
20
-0.360078
30
0
11
-1.03112969953901
21
-0.0900002512696192
31
0
210
0
220
0
230
1
40
0.250244
41
0.497156872974238
42
1.04799882412377
0
ELLIPSE
5
129
100
AcDbEntity
8
1
62
256
6
ByLayer
370
18
48
1
60
0
100
AcDbEllipse
10
117.006063
20
0.00073
30
0
11
22.5504297499968
21
-18.9391387427141
31
0
210
0
220
0
230
-1
40
0.115257
41
-1.60812513990836
42
-1.60094317274711
0
ELLIPSE
5
12A
100
AcDbEntity
8
1
62
256
6
ByLayer
370
18
48
1
60
0
100
AcDbEllipse
10
136.45821
20
-1.7E-05
30
0
11
226.296811489754
21
18.5144454956752
31
0
210
0
220
0
230
-1
40
0.021076
41
-1.6498333323446
42
-1.64919572280338
0
ELLIPSE
5
12B
100
AcDbEntity
8
1
62
256
6
ByLayer
370
18
48
1
60
0
100
AcDbEllipse
10
118.800177
20
0.000106
30
0
11
1.67258461283444
21
-19.1184764221136
31
0
210
0
220
0
230
-1
40
0.000773
41
1.6819269448644
42
1.73740998246992
0
ELLIPSE
5
12C
100
AcDbEntity
8
1
62
256
6
ByLayer
370
18
48
1
60
0
100
AcDbEllipse
10
508.473875
20
-0.002813
30
0
11
847.455350530577
21
-18.475616478749
31
0
210
0
220
0
230
-1
40
0.005817
41
-2.053234847475
42
-2.04897735665606
0
ELLIPSE
5
12D
100
AcDbEntity
8
1
62
256
6
ByLayer
370
18
48
1
60
0
100
AcDbEllipse
10
118.4
20
-5.269213
30
0
11
0.00512022952634174
21
0.125673835135301
31
0
210
0
220
0
230
-1
40
0.794667
41
-0.051224694325131
42
1.51957163246565
0
ELLIPSE
5
12E
100
AcDbEntity
8
1
62
256
6
ByLayer
370
18
48
1
60
0
100
AcDbEllipse
10
115.6
20
-5.335608
30
0
11
0.00512022952458981
21
0.125673835135376
31
0
210
0
220
0
230
-1
40
0.794667
41
-1.62202102110525
42
-0.0512246943147278
0
ELLIPSE
5
12F
100
AcDbEntity
8
1
62
256
6
ByLayer
370
18
48
1
60
0
100
AcDbEllipse
10
117
20
-8.130081
30
0
11
0.0361988365147106
21
-2.27819331833758
31
0
210
0
220
0
230
-1
40
0.658225
41
-1.54666142611649
42
1.59493122747333
0
ELLIPSE
5
130
100
AcDbEntity
8
1
62
256
6
ByLayer
370
18
48
1
60
0
100
AcDbEllipse
10
-274.348364
20
-0.001458
30
0
11
847.290503785711
21
4.76889409323739
31
0
210
0
220
0
230
-1
40
0.02185
41
1.08867293885257
42
1.09293111233261
0
ELLIPSE
5
131
100
AcDbEntity
8
1
62
256
6
ByLayer
370
18
48
1
60
0
100
AcDbEllipse
10
97.541801
20
9.2E-05
30
0
11
226.296768237971
21
-4.66786563838613
31
0
210
0
220
0
230
-1
40
0.081929
41
1.47591598142195
42
1.48898262016683
0
ELLIPSE
5
132
100
AcDbEntity
8
1
62
256
6
ByLayer
370
18
48
1
60
0
100
AcDbEllipse
10
116.99432
20
0.000823
30
0
11
21.2429621333719
21
10.4683436960244
31
0
210
0
220
0
230
-1
40
0.753156
41
1.985364963205
42
1.99254596378434
0
ELLIPSE
5
133
100
AcDbEntity
8
1
62
256
6
ByLayer
370
18
48
1
60
0
100
AcDbEllipse
10
115.199813
20
-1E-06
30
0
11
0.0300057374450735
21
-19.1188662348373
31
0
210
0
220
0
230
-1
40
0.087475
41
-0.157509796733985
42
-0.102027870769108
0
ELLIPSE
5
134
100
AcDbEntity
8
1
62
256
6
ByLayer
370
18
48
1
60
0
100
AcDbEllipse
10
118.428923
20
14.884218
30
0
11
0.00746902498669328
21
0.233432020167987
31
0
210
0
220
0
230
-1
40
0.519547
41
-0.0741929489826314
42
0.244002936546737
0
ELLIPSE
5
135
100
AcDbEntity
8
1
62
256
6
ByLayer
370
18
48
1
60
0
100
AcDbEllipse
10
116.721184
20
14.443249
30
0
11
0.116795397156295
21
-0.201548166211099
31
0
210
0
220
0
230
-1
40
0.522261
41
-1.18097936394635
42
-0.474890733665723
0
ELLIPSE
5
136
100
AcDbEntity
8
1
62
256
6
ByLayer
370
18
48
1
60
0
100
AcDbEllipse
10
116.609473
20
14.884218
30
0
11
0.00746902498669341
21
0.233432020167993
31
0
210
0
220
0
230
-1
40
0.519547
41
-1.50085871734306
42
0.0409485554367086
0
ELLIPSE
5
137
100
AcDbEntity
8
1
62
256
6
ByLayer
370
18
48
1
60
0
100
AcDbEllipse
10
118.317211
20
15.325187
30
0
11
0.116795397156972
21
-0.201548166212799
31
0
210
0
220
0
230
-1
40
0.522261
41
0.226339607125243
42
1.58144022757099
0
ELLIPSE
5
138
100
AcDbEntity
8
1
62
256
6
ByLayer
370
18
48
1
60
0
100
AcDbEllipse
10
118.317211
20
15.325187
30
0
11
0.116795397159245
21
-0.201548166212758
31
0
210
0
220
0
230
-1
40
0.522261
41
1.58144022758924
42
1.96061391015047
0
ELLIPSE
5
139
100
AcDbEntity
8
1
62
256
6
ByLayer
370
18
48
1
60
0
100
AcDbEllipse
10
117.9919
20
15.648125
30
0
11
0.207364490802323
21
-0.114045397209416
31
0
210
0
220
0
230
-1
40
0.506002
41
3.10999728393236
42
-1.3490089418874
0
ELLIPSE
5
13A
100
AcDbEntity
8
1
62
256
6
ByLayer
370
18
48
1
60
0
100
AcDbEllipse
10
116.74178
20
15.325187
30
0
11
0.127721475769396
21
0.200616595539764
31
0
210
0
220
0
230
-1
40
0.501052
41
0.190146085295038
42
1.5452467057426
0
ELLIPSE
5
13B
100
AcDbEntity
8
1
62
256
6
ByLayer
370
18
48
1
60
0
100
AcDbEllipse
10
116.74178
20
15.325187
30
0
11
0.127721475768711
21
0.200616595540881
31
0
210
0
220
0
230
-1
40
0.501052
41
1.54524670575354
42
2.90034732619831
0
ELLIPSE
5
13C
100
AcDbEntity
8
1
62
256
6
ByLayer
370
18
48
1
60
0
100
AcDbEllipse
10
117.082175
20
15.648125
30
0
11
0.211789244417281
21
0.115764204054157
31
0
210
0
220
0
230
-1
40
0.486462
41
-2.71648775117749
42
0.04812560228362
0
ELLIPSE
5
13D
100
AcDbEntity
8
1
62
256
6
ByLayer
370
18
48
1
60
0
100
AcDbEllipse
10
117.539794
20
15.766157
30
0
11
0.240794401289689
21
0.001765133832786
31
0
210
0
220
0
230
-1
40
0.488736
41
0.230693404504552
42
1.58579402495347
0
ELLIPSE
5
13E
100
AcDbEntity
8
1
62
256
6
ByLayer
370
18
48
1
60
0
100
AcDbEllipse
10
117.539794
20
15.766157
30
0
11
0.240794401288794
21
0.00176513383268255
31
0
210
0
220
0
230
-1
40
0.488736
41
1.58579402495235
42
2.94089464540541
0
POINT
5
6C
100
AcDbEntity
8
80
62
256
6
ByLayer
370
18
48
1
60
0
100
AcDbPoint
10
0
20
0
30
0
39
0
210
0
220
0
230
1
50
360
0
POINT
5
6E
100
AcDbEntity
8
2L
62
256
6
ByLayer
370
18
48
1
60
0
100
AcDbPoint
10
49
20
0
30
0
39
0
210
0
220
0
230
1
50
360
0
POINT
5
70
100
AcDbEntity
8
81
62
256
6
ByLayer
370
18
48
1
60
0
100
AcDbPoint
10
120
20
0
30
0
39
0
210
0
220
0
230
1
50
360
0
POINT
5
72
100
AcDbEntity
8
2
62
256
6
ByLayer
370
18
48
1
60
0
100
AcDbPoint
10
0
20
0
30
0
39
0
210
0
220
0
230
1
50
360
0
POINT
5
74
100
AcDbEntity
8
3
62
256
6
ByLayer
370
18
48
1
60
0
100
AcDbPoint
10
120
20
0
30
0
39
0
210
0
220
0
230
1
50
360
0
POINT
5
76
100
AcDbEntity
8
2
62
256
6
ByLayer
370
18
48
1
60
0
100
AcDbPoint
10
116.652426
20
1.361846
30
0
39
0
210
0
220
0
230
1
50
360
0
POINT
5
77
100
AcDbEntity
8
2
62
256
6
ByLayer
370
18
48
1
60
0
100
AcDbPoint
10
116.652426
20
1.361846
30
0
39
0
210
0
220
0
230
1
50
360
0
POINT
5
78
100
AcDbEntity
8
2
62
256
6
ByLayer
370
18
48
1
60
0
100
AcDbPoint
10
117.347574
20
15.411852
30
0
39
0
210
0
220
0
230
1
50
360
0
POINT
5
79
100
AcDbEntity
8
2
62
256
6
ByLayer
370
18
48
1
60
0
100
AcDbPoint
10
117.347574
20
15.411852
30
0
39
0
210
0
220
0
230
1
50
360
0
POINT
5
7A
100
AcDbEntity
8
2
62
256
6
ByLayer
370
18
48
1
60
0
100
AcDbPoint
10
116.266854
20
-3.055637
30
0
39
0
210
0
220
0
230
1
50
360
0
POINT
5
7B
100
AcDbEntity
8
2
62
256
6
ByLayer
370
18
48
1
60
0
100
AcDbPoint
10
116.482507
20
-1.967096
30
0
39
0
210
0
220
0
230
1
50
360
0
POINT
5
7C
100
AcDbEntity
8
2
62
256
6
ByLayer
370
18
48
1
60
0
100
AcDbPoint
10
117.733146
20
14.226461
30
0
39
0
210
0
220
0
230
1
50
360
0
POINT
5
7D
100
AcDbEntity
8
2
62
256
6
ByLayer
370
18
48
1
60
0
100
AcDbPoint
10
117.517493
20
14.283823
30
0
39
0
210
0
220
0
230
1
50
360
0
POINT
5
7E
100
AcDbEntity
8
5
62
256
6
ByLayer
370
18
48
1
60
0
100
AcDbPoint
10
117
20
9.486833
30
0
39
0
210
0
220
0
230
1
50
360
0
POINT
5
80
100
AcDbEntity
8
5
62
256
6
ByLayer
370
18
48
1
60
0
100
AcDbPoint
10
117
20
6.584185
30
0
39
0
210
0
220
0
230
1
50
360
0
POINT
5
81
100
AcDbEntity
8
2
62
256
6
ByLayer
370
18
48
1
60
0
100
AcDbPoint
10
0
20
0
30
0
39
0
210
0
220
0
230
1
50
360
0
POINT
5
82
100
AcDbEntity
8
2
62
256
6
ByLayer
370
18
48
1
60
0
100
AcDbPoint
10
116.652426
20
1.361846
30
0
39
0
210
0
220
0
230
1
50
360
0
POINT
5
83
100
AcDbEntity
8
2
62
256
6
ByLayer
370
18
48
1
60
0
100
AcDbPoint
10
0
20
0
30
0
39
0
210
0
220
0
230
1
50
360
0
POINT
5
84
100
AcDbEntity
8
2
62
256
6
ByLayer
370
18
48
1
60
0
100
AcDbPoint
10
117.347574
20
15.411852
30
0
39
0
210
0
220
0
230
1
50
360
0
SPLINE
5
13F
100
AcDbEntity
8
1
62
256
6
ByLayer
370
13
48
1
60
0
100
AcDbSpline
70
4
71
3
72
8
73
4
40
0
40
0
40
0
40
0
40
1
40
1
40
1
40
1
41
1
10
118.612153486474
20
0.0027998253535486
30
0
41
1
10
118.371885213158
20
1.11564090985564
30
0
41
1
10
118.131616939842
20
2.22848199435774
30
0
41
1
10
117.891348666526
20
3.34132307885986
30
0
0
SPLINE
5
140
100
AcDbEntity
8
1
62
256
6
ByLayer
370
13
48
1
60
0
100
AcDbSpline
70
4
71
3
72
8
73
4
40
0
40
0
40
0
40
0
40
1
40
1
40
1
40
1
41
1
10
118.201136090601
20
3.29586864586889
30
0
41
1
10
118.49758455676
20
2.21357213729206
30
0
41
1
10
118.794033022918
20
1.13127562871526
30
0
41
1
10
119.090481489076
20
0.0489791201384264
30
0
0
SPLINE
5
141
100
AcDbEntity
8
1
62
256
6
ByLayer
370
13
48
1
60
0
100
AcDbSpline
70
4
71
3
72
8
73
4
40
0
40
0
40
0
40
0
40
1
40
1
40
1
40
1
41
1
10
114.609904360917
20
3.0542452752322
30
0
41
1
10
114.566070048532
20
1.91654941986948
30
0
41
1
10
114.522235736147
20
0.778853564506761
30
0
41
1
10
114.478401423763
20
-0.358842290855961
30
0
0
SPLINE
5
142
100
AcDbEntity
8
1
62
256
6
ByLayer
370
13
48
1
60
0
100
AcDbSpline
70
4
71
3
72
8
73
4
40
0
40
0
40
0
40
0
40
1
40
1
40
1
40
1
41
1
10
114.000073418173
20
-0.396356235996535
30
0
41
1
10
114.104431594041
20
0.721004920861617
30
0
41
1
10
114.20878976991
20
1.83836607771974
30
0
41
1
10
114.313147945779
20
2.95572723457789
30
0
0
SPLINE
5
143
100
AcDbEntity
8
1
62
256
6
ByLayer
370
18
48
1
60
0
100
AcDbSpline
70
4
71
3
72
20
73
16
40
0
40
0
40
0
40
0
40
0.124999999999993
40
0.124999999999993
40
0.249999999999985
40
0.249999999999985
40
0.374999999999978
40
0.374999999999978
40
0.49999999999997
40
0.49999999999997
40
0.624999999999962
40
0.624999999999962
40
0.749999999999955
40
0.749999999999955
40
1
40
1
40
1
40
1
41
1
10
117.891348666526
20
3.34132307885986
30
0
41
1
10
117.910735954041
20
3.34301917953982
30
0
41
1
10
117.929850508451
20
3.34422583532981
30
0
41
1
10
117.967559211589
20
3.34570523057971
30
0
41
1
10
117.986326710263
20
3.34597439183324
30
0
41
1
10
118.022438192292
20
3.34553458572069
30
0
41
1
10
118.039647337088
20
3.34483804627777
30
0
41
1
10
118.072403048226
20
3.34250893038913
30
0
41
1
10
118.088076255294
20
3.34085049848278
30
0
41
1
10
118.116539906704
20
3.33669475424134
30
0
41
1
10
118.1294536764
20
3.33419887548936
30
0
41
1
10
118.152619369071
20
3.32836294325207
30
0
41
1
10
118.162834894494
20
3.32500984713138
30
0
41
1
10
118.188096080675
20
3.31408721059034
30
0
41
1
10
118.198426945135
20
3.30539929043047
30
0
41
1
10
118.201136090601
20
3.29586864586887
30
0
0
SPLINE
5
144
100
AcDbEntity
8
1
62
256
6
ByLayer
370
18
48
1
60
0
100
AcDbSpline
70
4
71
3
72
28
73
24
40
0
40
0
40
0
40
0
40
0.125000000000046
40
0.125000000000046
40
0.187500000000064
40
0.187500000000064
40
0.250000000000082
40
0.250000000000082
40
0.375000000000117
40
0.375000000000117
40
0.43750000000013
40
0.43750000000013
40
0.500000000000142
40
0.500000000000142
40
0.625000000000137
40
0.625000000000137
40
0.687500000000113
40
0.687500000000113
40
0.750000000000088
40
0.750000000000088
40
0.875000000000044
40
0.875000000000044
40
1
40
1
40
1
40
1
41
1
10
119.090481489076
20
0.0489791201384264
30
0
41
1
10
119.090480008152
20
0.0486946298591704
30
0
41
1
10
119.087484104881
20
0.0481527259291283
30
0
41
1
10
119.07862306146
20
0.0469644473978121
30
0
41
1
10
119.074936511697
20
0.0465053539607823
30
0
41
1
10
119.066057191323
20
0.0454576857488007
30
0
41
1
10
119.060830058843
20
0.0448654591183981
30
0
41
1
10
119.043147006105
20
0.042925161462307
30
0
41
1
10
119.02868095557
20
0.0414108197605287
30
0
41
1
10
119.002985242443
20
0.0388096911183311
30
0
41
1
10
118.993749423563
20
0.0378873431584168
30
0
41
1
10
118.973881955028
20
0.0359275283915395
30
0
41
1
10
118.963355075429
20
0.034900467973273
30
0
41
1
10
118.930328336128
20
0.03170957819043
30
0
41
1
10
118.906279371717
20
0.029425562118405
30
0
41
1
10
118.867110705583
20
0.0257606596809978
30
0
41
1
10
118.853460220432
20
0.024492083075728
30
0
41
1
10
118.825656475345
20
0.0219248545213588
30
0
41
1
10
118.811464403264
20
0.0206224812121718
30
0
41
1
10
118.768037665678
20
0.016660382022593
30
0
41
1
10
118.737914964192
20
0.013942127510802
30
0
41
1
10
118.675515940531
20
0.0083710001504755
30
0
41
1
10
118.643994247294
20
0.005585420606991
30
0
41
1
10
118.612153486474
20
0.0027998253535486
30
0
0
SPLINE
5
145
100
AcDbEntity
8
1
62
256
6
ByLayer
370
18
48
1
60
0
100
AcDbSpline
70
4
71
3
72
18
73
14
40
0
40
0
40
0
40
0
40
0.25
40
0.25
40
0.5
40
0.5
40
0.625
40
0.625
40
0.75
40
0.75
40
0.875
40
0.875
40
1
40
1
40
1
40
1
41
1
10
116.069652915985
20
-0.628582482687335
30
0
41
1
10
116.092174751139
20
-0.62984866603901
30
0
41
1
10
116.115648742615
20
-0.629988581022332
30
0
41
1
10
116.163911187799
20
-0.627587974509368
30
0
41
1
10
116.1887712279
20
-0.625075202044343
30
0
41
1
10
116.226275343627
20
-0.618126013249338
30
0
41
1
10
116.238827476723
20
-0.615265169133721
30
0
41
1
10
116.263600933193
20
-0.608014718358447
30
0
41
1
10
116.275876725042
20
-0.603600741435002
30
0
41
1
10
116.298745995134
20
-0.592760796747484
30
0
41
1
10
116.309464411685
20
-0.586257500051204
30
0
41
1
10
116.327097439701
20
-0.570866031234004
30
0
41
1
10
116.333782767098
20
-0.562037387298716
30
0
41
1
10
116.337490359111
20
-0.552836757256358
30
0
0
SPLINE
5
146
100
AcDbEntity
8
1
62
256
6
ByLayer
370
18
48
1
60
0
100
AcDbSpline
70
4
71
3
72
20
73
16
40
0
40
0
40
0
40
0
40
0.125000000000001
40
0.125000000000001
40
0.250000000000002
40
0.250000000000002
40
0.375000000000003
40
0.375000000000003
40
0.500000000000004
40
0.500000000000004
40
0.625000000000005
40
0.625000000000005
40
0.750000000000006
40
0.750000000000006
40
1
40
1
40
1
40
1
41
1
10
114.313147945779
20
2.95572723457789
30
0
41
1
10
114.313625336094
20
2.96065228140984
30
0
41
1
10
114.315971956778
20
2.96563793401916
30
0
41
1
10
114.324227143278
20
2.97572472765521
30
0
41
1
10
114.330221649301
20
2.98087818589764
30
0
41
1
10
114.34556441983
20
2.99103566594974
30
0
41
1
10
114.354825989747
20
2.99601039241492
30
0
41
1
10
114.376468677409
20
3.00575579654043
30
0
41
1
10
114.388983979597
20
3.01056105916703
30
0
41
1
10
114.41621750335
20
3.01958792502589
30
0
41
1
10
114.431004262839
20
3.02385267543917
30
0
41
1
10
114.462942013815
20
3.03187965971682
30
0
41
1
10
114.480048230487
20
3.03561683407938
30
0
41
1
10
114.532821762674
20
3.04560107206007
30
0
41
1
10
114.571136678757
20
3.05085367689634
30
0
41
1
10
114.609904360917
20
3.0542452752322
30
0
0
SPLINE
5
147
100
AcDbEntity
8
1
62
256
6
ByLayer
370
18
48
1
60
0
100
AcDbSpline
70
4
71
3
72
29
73
25
40
0
40
0
40
0
40
0
40
0.125000000000016
40
0.125000000000016
40
0.187499999999995
40
0.187499999999995
40
0.249999999999975
40
0.249999999999975
40
0.374999999999989
40
0.374999999999989
40
0.437499999999997
40
0.437499999999997
40
0.500000000000004
40
0.500000000000004
40
0.625000000000029
40
0.625000000000029
40
0.687500000000026
40
0.687500000000026
40
0.750000000000024
40
0.812500000000021
40
0.812500000000021
40
0.875000000000019
40
0.875000000000019
40
1
40
1
40
1
40
1
41
1
10
114.478401423763
20
-0.358842290855961
30
0
41
1
10
114.446572605542
20
-0.361626841308777
30
0
41
1
10
114.415274608917
20
-0.364337075145301
30
0
41
1
10
114.36910002034
20
-0.368294286689348
30
0
41
1
10
114.353838136951
20
-0.369595206354489
30
0
41
1
10
114.323580814113
20
-0.372159742735505
30
0
41
1
10
114.308551365835
20
-0.373426118671063
30
0
41
1
10
114.264869814724
20
-0.377084195367473
30
0
41
1
10
114.237278545908
20
-0.379364540155535
30
0
41
1
10
114.198170770828
20
-0.38254910454603
30
0
41
1
10
114.185464143794
20
-0.383575275717106
30
0
41
1
10
114.161096811572
20
-0.385525253054766
30
0
41
1
10
114.149514406149
20
-0.386442883740926
30
0
41
1
10
114.116511313179
20
-0.389029393070842
30
0
41
1
10
114.096818765527
20
-0.390533413741849
30
0
41
1
10
114.070806658197
20
-0.392453009632931
30
0
41
1
10
114.062778456054
20
-0.393032538257444
30
0
41
1
10
114.048228358356
20
-0.394055681684222
30
0
41
1
10
114.035100567545
20
-0.394949138959078
30
0
41
1
10
114.024764816581
20
-0.395588017628427
30
0
41
1
10
114.015837862472
20
-0.396098441992535
30
0
41
1
10
114.012068415708
20
-0.396289712782306
30
0
41
1
10
114.003069762766
20
-0.396659667452781
30
0
41
1
10
114.000074898828
20
-0.396640415552184
30
0
41
1
10
114.000073418173
20
-0.396356235996535
30
0
0
SPLINE
5
148
100
AcDbEntity
8
1
62
256
6
ByLayer
370
18
48
1
60
0
100
AcDbSpline
70
4
71
3
72
30
73
26
40
0
40
0
40
0
40
0
40
0.08415737470987
40
0.08415737470987
40
0.126236062064799
40
0.126236062064799
40
0.168314749419727
40
0.168314749419727
40
0.336629498839454
40
0.336629498839454
40
0.420786873549325
40
0.420786873549325
40
0.46286556090426
40
0.46286556090426
40
0.504944248259195
40
0.504944248259195
40
0.673258997678947
40
0.673258997678947
40
0.757416372388806
40
0.757416372388806
40
0.799495059743732
40
0.799495059743732
40
0.841573747098659
40
0.841573747098659
40
1
40
1
40
1
40
1
41
1
10
114.4
20
18.0716351497047
30
0
41
1
10
114.4
20
18.1001759720447
30
0
41
1
10
114.401260813692
20
18.1287583573326
30
0
41
1
10
114.405079693313
20
18.1716954808893
30
0
41
1
10
114.406674386195
20
18.1860184613942
30
0
41
1
10
114.410519129288
20
18.2146860263749
30
0
41
1
10
114.412776144874
20
18.2290667047013
30
0
41
1
10
114.425642378598
20
18.3005097403475
30
0
41
1
10
114.440908516131
20
18.3561132060694
30
0
41
1
10
114.471077238385
20
18.4372512806917
30
0
41
1
10
114.482352102611
20
18.4639172568117
30
0
41
1
10
114.501132640458
20
18.5033335776479
30
0
41
1
10
114.507704644718
20
18.5163751032612
30
0
41
1
10
114.521484813438
20
18.5422597569544
30
0
41
1
10
114.528710213568
20
18.5551297974061
30
0
41
1
10
114.566100609863
20
18.6183694723625
30
0
41
1
10
114.600194719494
20
18.6657987001468
30
0
41
1
10
114.657463718607
20
18.7323083206529
30
0
41
1
10
114.677580688795
20
18.7537012878977
30
0
41
1
10
114.709334016535
20
18.7845974608207
30
0
41
1
10
114.720181827566
20
18.7946970107513
30
0
41
1
10
114.742415363439
20
18.814489309238
30
0
41
1
10
114.75377377627
20
18.8241555012865
30
0
41
1
10
114.808630899068
20
18.8687862871678
30
0
41
1
10
114.854488208638
20
18.9001426485407
30
0
41
1
10
114.9028110164
20
18.9276643759087
30
0
0
SPLINE
5
149
100
AcDbEntity
8
1
62
256
6
ByLayer
370
18
48
1
60
0
100
AcDbSpline
70
4
71
3
72
24
73
20
40
0
40
0
40
0
40
0
40
0.125
40
0.125
40
0.25
40
0.25
40
0.375
40
0.375
40
0.500000000000001
40
0.500000000000001
40
0.625000000000001
40
0.625000000000001
40
0.687500000000001
40
0.687500000000001
40
0.75
40
0.75
40
0.875
40
0.875
40
1
40
1
40
1
40
1
41
1
10
114.193158360105
20
-2.52964590243764
30
0
41
1
10
114.194552015961
20
-2.54531151117769
30
0
41
1
10
114.198917798757
20
-2.56046426857739
30
0
41
1
10
114.213428926984
20
-2.58977249876477
30
0
41
1
10
114.22371327764
20
-2.60406159962693
30
0
41
1
10
114.249857991664
20
-2.63088812035792
30
0
41
1
10
114.265542003256
20
-2.64332791548415
30
0
41
1
10
114.302108122173
20
-2.66626997328379
30
0
41
1
10
114.323260533553
20
-2.67685278375671
30
0
41
1
10
114.36926455435
20
-2.69514979125674
30
0
41
1
10
114.394195193049
20
-2.70296708638671
30
0
41
1
10
114.434530157381
20
-2.71266442123732
30
0
41
1
10
114.448544700611
20
-2.71556684520292
30
0
41
1
10
114.477008461157
20
-2.72056139047291
30
0
41
1
10
114.491498086022
20
-2.72266806890803
30
0
41
1
10
114.535722362495
20
-2.72784334462699
30
0
41
1
10
114.566251239725
20
-2.72977863129029
30
0
41
1
10
114.629199261654
20
-2.73049735775908
30
0
41
1
10
114.66085753799
20
-2.72927660599112
30
0
41
1
10
114.692698298808
20
-2.7264910107379
30
0
0
SPLINE
5
14A
100
AcDbEntity
8
1
62
256
6
ByLayer
370
18
48
1
60
0
100
AcDbSpline
70
4
71
1
72
4
73
2
40
0
40
0
40
1
40
1
41
1
10
119.779506220535
20
-11.0742541474752
30
0
41
1
10
119.600000527343
20
-10.530173087985
30
0
0
SPLINE
5
14B
100
AcDbEntity
8
1
62
256
6
ByLayer
370
18
48
1
60
0
100
AcDbSpline
70
4
71
3
72
24
73
20
40
0
40
0
40
0
40
0
40
0.125
40
0.125
40
0.1875
40
0.1875
40
0.25
40
0.25
40
0.375
40
0.375
40
0.5
40
0.5
40
0.625
40
0.625
40
0.75
40
0.75
40
0.875
40
0.875
40
1
40
1
40
1
40
1
41
1
10
118.826450361561
20
-2.36484889452473
30
0
41
1
10
118.858279179782
20
-2.36206434407191
30
0
41
1
10
118.889440693157
20
-2.35779042647275
30
0
41
1
10
118.935211958067
20
-2.34921234991424
30
0
41
1
10
118.950306066009
20
-2.34598923288402
30
0
41
1
10
118.980159330692
20
-2.33879541648807
30
0
41
1
10
118.99495143853
20
-2.33480983951799
30
0
41
1
10
119.03783295405
20
-2.32198578332148
30
0
41
1
10
119.064770716882
20
-2.31221824355714
30
0
41
1
10
119.115368732416
20
-2.29026330415312
30
0
41
1
10
119.139088556899
20
-2.27798671203891
30
0
41
1
10
119.181129313926
20
-2.25204380732899
30
0
41
1
10
119.19975072897
20
-2.23826785819827
30
0
41
1
10
119.232109150643
20
-2.20907796466474
30
0
41
1
10
119.245484321221
20
-2.19395453235038
30
0
41
1
10
119.26640023155
20
-2.16323371359891
30
0
41
1
10
119.274064778961
20
-2.14743230854469
30
0
41
1
10
119.283338993866
20
-2.11573038971696
30
0
41
1
10
119.284956872385
20
-2.09997356831187
30
0
41
1
10
119.283566430875
20
-2.08431054478143
30
0
0
SPLINE
5
14C
100
AcDbEntity
8
1
62
256
6
ByLayer
370
18
48
1
60
0
100
AcDbSpline
70
4
71
3
72
8
73
4
40
0
40
0
40
0
40
0
40
1
40
1
40
1
40
1
41
1
10
116.814500991624
20
-0.495296557044071
30
0
41
1
10
116.817626837577
20
-0.500292114889362
30
0
41
1
10
116.820752573424
20
-0.505288282109234
30
0
41
1
10
116.823878205972
20
-0.510285020342991
30
0
0
SPLINE
5
14D
100
AcDbEntity
8
1
62
256
6
ByLayer
370
18
48
1
60
0
100
AcDbSpline
70
4
71
3
72
8
73
4
40
0
40
0
40
0
40
0
40
1
40
1
40
1
40
1
41
1
10
118.625620878287
20
1.8259721256722
30
0
41
1
10
118.617074765081
20
1.92374005750591
30
0
41
1
10
118.608534470468
20
2.02144917599165
30
0
41
1
10
118.6
20
2.11909942502464
30
0
0
SPLINE
5
14E
100
AcDbEntity
8
1
62
256
6
ByLayer
370
18
48
1
60
0
100
AcDbSpline
70
4
71
3
72
27
73
23
40
0
40
0
40
0
40
0
40
0.124999999999998
40
0.124999999999998
40
0.187499999999998
40
0.187499999999998
40
0.249999999999997
40
0.312499999999996
40
0.312499999999996
40
0.374999999999995
40
0.374999999999995
40
0.499999999999994
40
0.499999999999994
40
0.624999999999993
40
0.624999999999993
40
0.749999999999992
40
0.749999999999992
40
0.812499999999993
40
0.812499999999993
40
0.874999999999994
40
0.874999999999994
40
1
40
1
40
1
40
1
41
1
10
118.6
20
12.8754778882173
30
0
41
1
10
118.670356166268
20
12.8741562290384
30
0
41
1
10
118.739372325399
20
12.8707273971673
30
0
41
1
10
118.840979827475
20
12.8625700646247
30
0
41
1
10
118.874604078454
20
12.8593354966878
30
0
41
1
10
118.940865154438
20
12.8518635590282
30
0
41
1
10
119.005174258191
20
12.8435032971955
30
0
41
1
10
119.065796479474
20
12.8334651698838
30
0
41
1
10
119.124618762426
20
12.8226079075939
30
0
41
1
10
119.153231081523
20
12.8167464953476
30
0
41
1
10
119.235665377949
20
12.7980831205586
30
0
41
1
10
119.285225781039
20
12.7844366263838
30
0
41
1
10
119.374535140519
20
12.754953899553
30
0
41
1
10
119.414365545315
20
12.7390110637876
30
0
41
1
10
119.481826018474
20
12.706188501946
30
0
41
1
10
119.50990652322
20
12.6891842053092
30
0
41
1
10
119.543892038437
20
12.662823856763
30
0
41
1
10
119.553810122761
20
12.6539178320641
30
0
41
1
10
119.570661312907
20
12.6361247478227
30
0
41
1
10
119.577642182362
20
12.6272020163357
30
0
41
1
10
119.594391354369
20
12.6003578050591
30
0
41
1
10
119.6
20
12.5823522444607
30
0
41
1
10
119.6
20
12.5642624906274
30
0
0
SPLINE
5
14F
100
AcDbEntity
8
1
62
256
6
ByLayer
370
18
48
1
60
0
100
AcDbSpline
70
4
71
3
72
18
73
14
40
0
40
0
40
0
40
0
40
0.138035679074663
40
0.138035679074663
40
0.276071358149326
40
0.276071358149326
40
0.552142716298651
40
0.552142716298651
40
0.828214074447976
40
0.828214074447976
40
0.966249753522638
40
0.966249753522638
40
1
40
1
40
1
40
1
41
1
10
116.344099324586
20
-0.536449739855982
30
0
41
1
10
116.347445717686
20
-0.528153964917436
30
0
41
1
10
116.352606533662
20
-0.520257997677987
30
0
41
1
10
116.365408839763
20
-0.50504818611978
30
0
41
1
10
116.372976599564
20
-0.497867501434172
30
0
41
1
10
116.39783524822
20
-0.477737419666624
30
0
41
1
10
116.417162002373
20
-0.466224767947523
30
0
41
1
10
116.45811863463
20
-0.446988532213027
30
0
41
1
10
116.479908173075
20
-0.439223529534843
30
0
41
1
10
116.51349374942
20
-0.430421592334596
30
0
41
1
10
116.524887529351
20
-0.427953321810179
30
0
41
1
10
116.539146097927
20
-0.425488808742301
30
0
41
1
10
116.541952588956
20
-0.425033331002226
30
0
41
1
10
116.544764237734
20
-0.424606598512895
30
0
0
SPLINE
5
150
100
AcDbEntity
8
1
62
256
6
ByLayer
370
18
48
1
60
0
100
AcDbSpline
70
4
71
3
72
20
73
16
40
0
40
0
40
0
40
0
40
0.105480330440855
40
0.105480330440855
40
0.403653553627238
40
0.403653553627238
40
0.552740165220429
40
0.552740165220429
40
0.70182677681362
40
0.70182677681362
40
0.850913388406812
40
0.850913388406812
40
0.925456694203406
40
0.925456694203406
40
1
40
1
40
1
40
1
41
1
10
116.616065132616
20
-0.41998108066204
30
0
41
1
10
116.62429282469
20
-0.420156410142312
30
0
41
1
10
116.632512318715
20
-0.420577978239834
30
0
41
1
10
116.663745280188
20
-0.423135553724336
30
0
41
1
10
116.686559967597
20
-0.426997492197159
30
0
41
1
10
116.719327652001
20
-0.435868015579103
30
0
41
1
10
116.730050075997
20
-0.439353769514724
30
0
41
1
10
116.75065891704
20
-0.447390894228533
30
0
41
1
10
116.760620576988
20
-0.45196957356336
30
0
41
1
10
116.779250082549
20
-0.462280652892332
30
0
41
1
10
116.787981865729
20
-0.468053894936105
30
0
41
1
10
116.79936447622
20
-0.477545559973009
30
0
41
1
10
116.802886666008
20
-0.480856505011019
30
0
41
1
10
116.80926743968
20
-0.487829940823218
30
0
41
1
10
116.812126806132
20
-0.491502262270927
30
0
41
1
10
116.814500991624
20
-0.495296557044071
30
0
0
SPLINE
5
151
100
AcDbEntity
8
1
62
256
6
ByLayer
370
18
48
1
60
0
100
AcDbSpline
70
4
71
3
72
8
73
4
40
0
40
0
40
0
40
0
40
1
40
1
40
1
40
1
41
1
10
116.337490359111
20
-0.552836757256358
30
0
41
1
10
116.339693143067
20
-0.547373861451575
30
0
41
1
10
116.341896127121
20
-0.541911510117927
30
0
41
1
10
116.344099324586
20
-0.536449739855982
30
0
0
SPLINE
5
152
100
AcDbEntity
8
1
62
256
6
ByLayer
370
18
48
1
60
0
100
AcDbSpline
70
4
71
3
72
28
73
24
40
0
40
0
40
0
40
0
40
0.125000000000015
40
0.125000000000015
40
0.250000000000029
40
0.250000000000029
40
0.312500000000028
40
0.312500000000028
40
0.375000000000027
40
0.375000000000027
40
0.500000000000032
40
0.500000000000032
40
0.562500000000034
40
0.562500000000034
40
0.625000000000036
40
0.625000000000036
40
0.750000000000036
40
0.750000000000036
40
0.812500000000034
40
0.812500000000034
40
0.875000000000032
40
0.875000000000032
40
1
40
1
40
1
40
1
41
1
10
119.6
20
1.1465136826188
30
0
41
1
10
119.6
20
1.16135839208778
30
0
41
1
10
119.594943595361
20
1.17586540105046
30
0
41
1
10
119.574357621402
20
1.20379170846249
30
0
41
1
10
119.559091483869
20
1.21691644017739
30
0
41
1
10
119.528922761615
20
1.23537797219063
30
0
41
1
10
119.517647897389
20
1.24132636882126
30
0
41
1
10
119.49260718026
20
1.25280320703351
30
0
41
1
10
119.478767865691
20
1.25835653128519
30
0
41
1
10
119.433899390137
20
1.27416661139372
30
0
41
1
10
119.399805280506
20
1.28351837377457
30
0
41
1
10
119.342536281393
20
1.29580474233751
30
0
41
1
10
119.322419311206
20
1.29960828163132
30
0
41
1
10
119.280081540885
20
1.30661753950332
30
0
41
1
10
119.257738736671
20
1.30983625243448
30
0
41
1
10
119.188663659026
20
1.31840818189465
30
0
41
1
10
119.139777447841
20
1.3227275166642
30
0
41
1
10
119.062278796746
20
1.3271553615219
30
0
41
1
10
119.035746919742
20
1.32828743111895
30
0
41
1
10
118.981248730475
20
1.32984588155634
30
0
41
1
10
118.953255091657
20
1.33026746535197
30
0
41
1
10
118.868912833564
20
1.33044470634533
30
0
41
1
10
118.811621284632
20
1.32914393072576
30
0
41
1
10
118.753288986364
20
1.32645441228607
30
0
0
SPLINE
5
153
100
AcDbEntity
8
1
62
256
6
ByLayer
370
18
48
1
60
0
100
AcDbSpline
70
4
71
3
72
8
73
4
40
0
40
0
40
0
40
0
40
1
40
1
40
1
40
1
41
1
10
118.753288986364
20
1.3264544122859
30
0
41
1
10
118.710877214181
20
1.49320499356227
30
0
41
1
10
118.668320878854
20
1.65971039039752
30
0
41
1
10
118.625620878287
20
1.8259721256722
30
0
0
SPLINE
5
154
100
AcDbEntity
8
1
62
256
6
ByLayer
370
18
48
1
60
0
100
AcDbSpline
70
4
71
3
72
26
73
22
40
0
40
0
40
0
40
0
40
0.125
40
0.125
40
0.187500000000001
40
0.187500000000001
40
0.250000000000001
40
0.250000000000001
40
0.375000000000001
40
0.375000000000001
40
0.5
40
0.5
40
0.625
40
0.625
40
0.75
40
0.75
40
0.8125
40
0.8125
40
0.875
40
0.875
40
1
40
1
40
1
40
1
41
1
10
118.6
20
-14.1930367469586
30
0
41
1
10
118.671061260978
20
-14.1918241795231
30
0
41
1
10
118.740539696099
20
-14.1824554186235
30
0
41
1
10
118.842531023147
20
-14.1569301734392
30
0
41
1
10
118.876212025562
20
-14.1464705607576
30
0
41
1
10
118.942569112343
20
-14.1217136186287
30
0
41
1
10
118.974729931502
20
-14.1076170253209
30
0
41
1
10
119.06834624275
20
-14.0604886167771
30
0
41
1
10
119.127137144964
20
-14.0225225728363
30
0
41
1
10
119.236621802034
20
-13.9347400748026
30
0
41
1
10
119.285946563889
20
-13.8860869138358
30
0
41
1
10
119.374790189433
20
-13.7801614412034
30
0
41
1
10
119.414450725809
20
-13.7224259994362
30
0
41
1
10
119.481723401013
20
-13.6026425306116
30
0
41
1
10
119.509737289214
20
-13.5402270089001
30
0
41
1
10
119.54366905426
20
-13.4429727314149
30
0
41
1
10
119.553627901444
20
-13.4098732176199
30
0
41
1
10
119.570542593551
20
-13.3435729465129
30
0
41
1
10
119.577550479685
20
-13.3102429385596
30
0
41
1
10
119.594366067797
20
-13.2097307093654
30
0
41
1
10
119.6
20
-13.142030539352
30
0
41
1
10
119.6
20
-13.0736312200264
30
0
0
SPLINE
5
155
100
AcDbEntity
8
1
62
256
6
ByLayer
370
18
48
1
60
0
100
AcDbSpline
70
4
71
3
72
31
73
27
40
0
40
0
40
0
40
0
40
0.0625000000000066
40
0.0625000000000066
40
0.125000000000013
40
0.125000000000013
40
0.250000000000023
40
0.250000000000023
40
0.312500000000024
40
0.312500000000024
40
0.375000000000025
40
0.375000000000025
40
0.500000000000024
40
0.500000000000024
40
0.562500000000023
40
0.562500000000023
40
0.625000000000021
40
0.625000000000021
40
0.749999999999999
40
0.749999999999999
40
0.8125
40
0.8125
40
0.875
40
0.9375
40
0.9375
40
1
40
1
40
1
40
1
41
1
10
114.4
20
-13.166304038818
30
0
41
1
10
114.4
20
-13.2002412938046
30
0
41
1
10
114.401421341412
20
-13.2342692674014
30
0
41
1
10
114.407045309926
20
-13.3014997571018
30
0
41
1
10
114.411245822166
20
-13.3348450238542
30
0
41
1
10
114.428006356349
20
-13.4340721704603
30
0
41
1
10
114.444686360856
20
-13.4991529825147
30
0
41
1
10
114.478588373449
20
-13.5950472299718
30
0
41
1
10
114.491442898941
20
-13.626828619426
30
0
41
1
10
114.519721354976
20
-13.6884857334108
30
0
41
1
10
114.535185904222
20
-13.7185087553073
30
0
41
1
10
114.585582615687
20
-13.8061447442024
30
0
41
1
10
114.62447439028
20
-13.8613510442996
30
0
41
1
10
114.691552246879
20
-13.9388481720936
30
0
41
1
10
114.715539014228
20
-13.9639220234726
30
0
41
1
10
114.765505767444
20
-14.0110256085372
30
0
41
1
10
114.791549472129
20
-14.0331612631307
30
0
41
1
10
114.87288049263
20
-14.09529454123
30
0
41
1
10
114.931327994402
20
-14.1310715283836
30
0
41
1
10
115.026039897358
20
-14.175333757216
30
0
41
1
10
115.058585508816
20
-14.1883788244004
30
0
41
1
10
115.124277629417
20
-14.2105178703516
30
0
41
1
10
115.190955966484
20
-14.2288929430547
30
0
41
1
10
115.259615889752
20
-14.2397051350906
30
0
41
1
10
115.329304520315
20
-14.2465911842653
30
0
41
1
10
115.364701712833
20
-14.2480492540771
30
0
41
1
10
115.4
20
-14.2474511099005
30
0
0
SPLINE
5
156
100
AcDbEntity
8
1
62
256
6
ByLayer
370
18
48
1
60
0
100
AcDbSpline
70
4
71
3
72
27
73
23
40
0
40
0
40
0
40
0
40
0.124999999999991
40
0.124999999999991
40
0.249999999999982
40
0.249999999999982
40
0.374999999999973
40
0.374999999999973
40
0.499999999999964
40
0.499999999999964
40
0.562499999999961
40
0.562499999999961
40
0.624999999999957
40
0.687499999999953
40
0.687499999999953
40
0.74999999999995
40
0.74999999999995
40
0.874999999999963
40
0.874999999999963
40
0.937499999999981
40
0.937499999999981
40
1
40
1
40
1
40
1
41
1
10
114.4
20
12.6607323946525
30
0
41
1
10
114.4
20
12.6789956223617
30
0
41
1
10
114.405663332309
20
12.6969103882584
30
0
41
1
10
114.4280948415
20
12.7320566448953
30
0
41
1
10
114.444880517392
20
12.7493054566183
30
0
41
1
10
114.490405790453
20
12.7829930062542
30
0
41
1
10
114.518498576246
20
12.7989594792264
30
0
41
1
10
114.585417317762
20
12.8291258274035
30
0
41
1
10
114.624230976025
20
12.843327726676
30
0
41
1
10
114.691470472678
20
12.8631461155675
30
0
41
1
10
114.715178159329
20
12.8694319148084
30
0
41
1
10
114.764632098425
20
12.8812101085686
30
0
41
1
10
114.816289762815
20
12.8922441808559
30
0
41
1
10
114.87244365917
20
12.9017600318089
30
0
41
1
10
114.930962393447
20
12.9104773591511
30
0
41
1
10
114.96150796825
20
12.9144485239399
30
0
41
1
10
115.056326219835
20
12.9249857771331
30
0
41
1
10
115.121881724232
20
12.9299970193434
30
0
41
1
10
115.223761483913
20
12.9344664269682
30
0
41
1
10
115.258317009092
20
12.935444435026
30
0
41
1
10
115.328686264439
20
12.9363192948987
30
0
41
1
10
115.364351436149
20
12.9362089386988
30
0
41
1
10
115.4
20
12.935540393846
30
0
0
SPLINE
5
157
100
AcDbEntity
8
1
62
256
6
ByLayer
370
18
48
1
60
0
100
AcDbSpline
70
4
71
3
72
29
73
25
40
0
40
0
40
0
40
0
40
0.125000000000028
40
0.125000000000028
40
0.187500000000029
40
0.187500000000029
40
0.250000000000029
40
0.250000000000029
40
0.375000000000028
40
0.375000000000028
40
0.437500000000028
40
0.437500000000028
40
0.500000000000027
40
0.500000000000027
40
0.625000000000026
40
0.625000000000026
40
0.687500000000022
40
0.687500000000022
40
0.750000000000019
40
0.812500000000015
40
0.812500000000015
40
0.875000000000012
40
0.875000000000012
40
1
40
1
40
1
40
1
41
1
10
118.6
20
-18.8991206884953
30
0
41
1
10
118.666310768244
20
-18.8999713372584
30
0
41
1
10
118.731454596202
20
-18.8944418069317
30
0
41
1
10
118.827499175777
20
-18.87701052708
30
0
41
1
10
118.85923340494
20
-18.869665768231
30
0
41
1
10
118.922128991078
20
-18.8518441046977
30
0
41
1
10
118.953375610679
20
-18.8413158895327
30
0
41
1
10
119.04423979135
20
-18.8056756720217
30
0
41
1
10
119.101659155943
20
-18.7764031413786
30
0
41
1
10
119.183110264896
20
-18.7243256434051
30
0
41
1
10
119.209560388338
20
-18.7055274972251
30
0
41
1
10
119.26045203051
20
-18.6653867252511
30
0
41
1
10
119.284667082928
20
-18.6442374161111
30
0
41
1
10
119.35373709279
20
-18.577655423456
30
0
41
1
10
119.395050581253
20
-18.5291181980574
30
0
41
1
10
119.449760803733
20
-18.4499480501466
30
0
41
1
10
119.466758486301
20
-18.4224772910688
30
0
41
1
10
119.497564444515
20
-18.3665929357941
30
0
41
1
10
119.525394832446
20
-18.3094759352459
30
0
41
1
10
119.547363063382
20
-18.2499305060524
30
0
41
1
10
119.566359854327
20
-18.1891541425799
30
0
41
1
10
119.574401232166
20
-18.1580011103623
30
0
41
1
10
119.593663695621
20
-18.0637036772042
30
0
41
1
10
119.6
20
-18.0004158812345
30
0
41
1
10
119.6
20
-17.9367162317469
30
0
0
SPLINE
5
158
100
AcDbEntity
8
1
62
256
6
ByLayer
370
18
48
1
60
0
100
AcDbSpline
70
4
71
3
72
8
73
4
40
0
40
0
40
0
40
0
40
1
40
1
40
1
40
1
41
1
10
115.374379121713
20
-19.0466409606174
30
0
41
1
10
115.382925323778
20
-19.03835101803
30
0
41
1
10
115.391465618296
20
-19.0291960592835
30
0
41
1
10
115.4
20
-19.0191753132215
30
0
0
SPLINE
5
159
100
AcDbEntity
8
1
62
256
6
ByLayer
370
18
48
1
60
0
100
AcDbSpline
70
4
71
3
72
8
73
4
40
0
40
0
40
0
40
0
40
1
40
1
40
1
40
1
41
1
10
115.246711013636
20
-19.0720020481073
30
0
41
1
10
115.289122785819
20
-19.0684772290016
30
0
41
1
10
115.331679121146
20
-19.0600133073144
30
0
41
1
10
115.374379121713
20
-19.0466409606174
30
0
0
SPLINE
5
15A
100
AcDbEntity
8
1
62
256
6
ByLayer
370
18
48
1
60
0
100
AcDbSpline
70
4
71
3
72
38
73
34
40
0
40
0
40
0
40
0
40
0.0624999999999949
40
0.0624999999999949
40
0.0937499999999946
40
0.0937499999999946
40
0.124999999999994
40
0.124999999999994
40
0.250000000000003
40
0.250000000000003
40
0.312500000000016
40
0.312500000000016
40
0.343750000000023
40
0.343750000000023
40
0.375000000000029
40
0.375000000000029
40
0.50000000000007
40
0.50000000000007
40
0.562500000000081
40
0.562500000000081
40
0.593750000000086
40
0.593750000000086
40
0.625000000000091
40
0.625000000000091
40
0.750000000000041
40
0.750000000000041
40
0.812500000000028
40
0.812500000000028
40
0.843750000000024
40
0.843750000000024
40
0.875000000000019
40
0.875000000000019
40
1
40
1
40
1
40
1
41
1
10
114.4
20
-18.0920455276343
30
0
41
1
10
114.4
20
-18.1207184836484
30
0
41
1
10
114.401260813692
20
-18.1494312314124
30
0
41
1
10
114.405079693313
20
-18.1925611906974
30
0
41
1
10
114.406674386195
20
-18.206947997806
30
0
41
1
10
114.410519129288
20
-18.2357422953448
30
0
41
1
10
114.412776144874
20
-18.250186035879
30
0
41
1
10
114.425642378598
20
-18.3219397887548
30
0
41
1
10
114.440908516131
20
-18.3777769025689
30
0
41
1
10
114.471077238385
20
-18.4592436316601
30
0
41
1
10
114.482352102611
20
-18.4860155018704
30
0
41
1
10
114.501132640458
20
-18.5255850567732
30
0
41
1
10
114.507704644718
20
-18.5386767245425
30
0
41
1
10
114.521484813438
20
-18.5646597532689
30
0
41
1
10
114.528710213568
20
-18.5775781243491
30
0
41
1
10
114.566100609863
20
-18.6410523434683
30
0
41
1
10
114.600194719494
20
-18.6886480524794
30
0
41
1
10
114.657463718607
20
-18.7553763964334
30
0
41
1
10
114.677580688795
20
-18.7768370747537
30
0
41
1
10
114.709334016535
20
-18.8078268324312
30
0
41
1
10
114.720181827566
20
-18.817956244999
30
0
41
1
10
114.742415363439
20
-18.8378055476577
30
0
41
1
10
114.75377377627
20
-18.8474988008305
30
0
41
1
10
114.811336340974
20
-18.8944578519007
30
0
41
1
10
114.860222552159
20
-18.9275891235931
30
0
41
1
10
114.937721203254
20
-18.9707648749793
30
0
41
1
10
114.964253080258
20
-18.9840635133863
30
0
41
1
10
115.005126722209
20
-19.0023287965675
30
0
41
1
10
115.018968366001
20
-19.0081506778409
30
0
41
1
10
115.046811862251
20
-19.0191403520138
30
0
41
1
10
115.060801951359
20
-19.0243058994464
30
0
41
1
10
115.131087166437
20
-19.0485206052881
30
0
41
1
10
115.188378715368
20
-19.06276866545
30
0
41
1
10
115.246711013636
20
-19.0720020481073
30
0
0
SPLINE
5
15B
100
AcDbEntity
8
1
62
256
6
ByLayer
370
18
48
1
60
0
100
AcDbSpline
70
4
71
1
72
4
73
2
40
0
40
0
40
1
40
1
41
1
10
119.600001864723
20
10.5418037335305
30
0
41
1
10
119.781085709178
20
11.1245487335964
30
0
0
SPLINE
5
15C
100
AcDbEntity
8
1
62
256
6
ByLayer
370
18
48
1
60
0
100
AcDbSpline
70
4
71
3
72
16
73
12
40
0
40
0
40
0
40
0
40
0.127756227830396
40
0.127756227830396
40
0.345817170872797
40
0.345817170872797
40
0.563878113915198
40
0.563878113915198
40
0.781939056957599
40
0.781939056957599
40
1
40
1
40
1
40
1
41
1
10
119.610655070093
20
10.9150723166073
30
0
41
1
10
119.625617846334
20
10.9252036843224
30
0
41
1
10
119.639953643599
20
10.936073496558
30
0
41
1
10
119.676402966965
20
10.9670123890549
30
0
41
1
10
119.697166647226
20
10.9882990655418
30
0
41
1
10
119.734173845098
20
11.0344917564384
30
0
41
1
10
119.750009873681
20
11.0589441388109
30
0
41
1
10
119.776021109134
20
11.1095739752143
30
0
41
1
10
119.786354194912
20
11.1360899791407
30
0
41
1
10
119.80107638785
20
11.1902239607531
30
0
41
1
10
119.805448237207
20
11.2175888667494
30
0
41
1
10
119.806841640028
20
11.2452506115256
30
0
0
SPLINE
5
15D
100
AcDbEntity
8
1
62
256
6
ByLayer
370
13
48
1
60
0
100
AcDbSpline
70
4
71
3
72
8
73
4
40
0
40
0
40
0
40
0
40
1
40
1
40
1
40
1
41
1
10
119.806841640028
20
-11.2002175433215
30
0
41
1
10
119.737895503972
20
-10.987673799195
30
0
41
1
10
119.668949367915
20
-10.7751300550685
30
0
41
1
10
119.600003231859
20
-10.562586310942
30
0
0
SPLINE
5
15E
100
AcDbEntity
8
1
62
256
6
ByLayer
370
18
48
1
60
0
100
AcDbSpline
70
4
71
3
72
28
73
24
40
0
40
0
40
0
40
0
40
0.124999999999985
40
0.124999999999985
40
0.187499999999982
40
0.187499999999982
40
0.24999999999998
40
0.24999999999998
40
0.374999999999975
40
0.374999999999975
40
0.437499999999972
40
0.437499999999972
40
0.49999999999997
40
0.49999999999997
40
0.624999999999975
40
0.624999999999975
40
0.687499999999996
40
0.687499999999996
40
0.750000000000017
40
0.750000000000017
40
0.875000000000008
40
0.875000000000008
40
1
40
1
40
1
40
1
41
1
10
119.999926581827
20
-19.5061846719935
30
0
41
1
10
119.999925100903
20
-19.5381264439971
30
0
41
1
10
119.996929197632
20
-19.5695613384364
30
0
41
1
10
119.988068154211
20
-19.6159744290369
30
0
41
1
10
119.984381604449
20
-19.6313214037016
30
0
41
1
10
119.975502284074
20
-19.661760389148
30
0
41
1
10
119.970275151594
20
-19.6769249840239
30
0
41
1
10
119.952592098856
20
-19.7211303971472
30
0
41
1
10
119.938126048321
20
-19.74909757002
30
0
41
1
10
119.912430335195
20
-19.7888045589518
30
0
41
1
10
119.903194516314
20
-19.8016637478965
30
0
41
1
10
119.883327047779
20
-19.8265984860698
30
0
41
1
10
119.87280016818
20
-19.8385345220965
30
0
41
1
10
119.839773428879
20
-19.8724573324959
30
0
41
1
10
119.815724464468
20
-19.8927237369195
30
0
41
1
10
119.776555798334
20
-19.919544040414
30
0
41
1
10
119.762905313184
20
-19.9279181722433
30
0
41
1
10
119.735101568096
20
-19.9431047307487
30
0
41
1
10
119.720909496015
20
-19.9499538224921
30
0
41
1
10
119.677482758429
20
-19.9683200213415
30
0
41
1
10
119.647360056943
20
-19.9776861462504
30
0
41
1
10
119.584961033282
20
-19.9903794291442
30
0
41
1
10
119.553439340045
20
-19.9935622557824
30
0
41
1
10
119.521598579225
20
-19.9936118452925
30
0
0
SPLINE
5
15F
100
AcDbEntity
8
1
62
256
6
ByLayer
370
18
48
1
60
0
100
AcDbSpline
70
4
71
3
72
10
73
6
40
0
40
0
40
0
40
0
40
0.343293193792613
40
0.343293193792613
40
1
40
1
40
1
40
1
41
1
10
119.779777598409
20
-11.0750032295005
30
0
41
1
10
119.785207124599
20
-11.088889763159
30
0
41
1
10
119.789867281443
20
-11.1030234013325
30
0
41
1
10
119.80107638785
20
-11.1446408857435
30
0
41
1
10
119.805448237207
20
-11.1722769680814
30
0
41
1
10
119.806841640028
20
-11.2002175433215
30
0
0
SPLINE
5
160
100
AcDbEntity
8
1
62
256
6
ByLayer
370
18
48
1
60
0
100
AcDbSpline
70
4
71
3
72
18
73
14
40
0
40
0
40
0
40
0
40
0.125
40
0.125
40
0.25
40
0.25
40
0.375
40
0.375
40
0.5
40
0.5
40
0.75
40
0.75
40
1
40
1
40
1
40
1
41
1
10
116.823878205972
20
-0.510285020342991
30
0
41
1
10
116.829141128776
20
-0.518702598961426
30
0
41
1
10
116.837158324495
20
-0.526149283878993
30
0
41
1
10
116.857214426935
20
-0.538280968523509
30
0
41
1
10
116.869045295956
20
-0.542881224589763
30
0
41
1
10
116.893427603106
20
-0.549574483469598
30
0
41
1
10
116.906256089136
20
-0.551785272995375
30
0
41
1
10
116.931864570089
20
-0.554622748837232
30
0
41
1
10
116.944744656734
20
-0.555265243352778
30
0
41
1
10
116.982915515809
20
-0.555600582904361
30
0
41
1
10
117.007775654312
20
-0.553763022823546
30
0
41
1
10
117.055729984745
20
-0.547747390387769
30
0
41
1
10
117.078813478272
20
-0.543533886323473
30
0
41
1
10
117.100764238245
20
-0.538375504868469
30
0
0
SPLINE
5
161
100
AcDbEntity
8
1
62
256
6
ByLayer
370
18
48
1
60
0
100
AcDbSpline
70
4
71
3
72
29
73
25
40
0
40
0
40
0
40
0
40
0.125000000000015
40
0.125000000000015
40
0.187499999999996
40
0.187499999999996
40
0.249999999999976
40
0.249999999999976
40
0.374999999999993
40
0.374999999999993
40
0.437500000000002
40
0.437500000000002
40
0.50000000000001
40
0.50000000000001
40
0.624999999999989
40
0.624999999999989
40
0.687499999999993
40
0.687499999999993
40
0.749999999999997
40
0.812500000000001
40
0.812500000000001
40
0.875000000000005
40
0.875000000000005
40
1
40
1
40
1
40
1
41
1
10
115.387846516514
20
20
30
0
41
1
10
115.356017698293
20
20
30
0
41
1
10
115.324719701668
20
19.996868060672
30
0
41
1
10
115.278545113091
20
19.9876128204532
30
0
41
1
10
115.263283229703
20
19.9837628057292
30
0
41
1
10
115.233025906864
20
19.9744907109062
30
0
41
1
10
115.217996458586
20
19.9690443586109
30
0
41
1
10
115.174314907476
20
19.9506856007056
30
0
41
1
10
115.14672363866
20
19.9356893201707
30
0
41
1
10
115.107615863579
20
19.9090872078347
30
0
41
1
10
115.094909236545
20
19.8994849143337
30
0
41
1
10
115.070541904323
20
19.879059986944
30
0
41
1
10
115.058959498901
20
19.8683131406422
30
0
41
1
10
115.02595640593
20
19.8345224768525
30
0
41
1
10
115.006263858278
20
19.8099427400528
30
0
41
1
10
114.980251750948
20
19.7699386962672
30
0
41
1
10
114.972223548805
20
19.7561403167522
30
0
41
1
10
114.957673451107
20
19.728079085853
30
0
41
1
10
114.94454562918
20
19.6994274492173
30
0
41
1
10
114.934209909332
20
19.6696167735834
30
0
41
1
10
114.925282955223
20
19.6392213004083
30
0
41
1
10
114.921513508459
20
19.6236613581245
30
0
41
1
10
114.912514855518
20
19.5767799548401
30
0
41
1
10
114.90951999158
20
19.5451816831535
30
0
41
1
10
114.909518510924
20
19.5132406515679
30
0
0
SPLINE
5
162
100
AcDbEntity
8
1
62
256
6
ByLayer
370
18
48
1
60
0
100
AcDbSpline
70
4
71
3
72
8
73
4
40
0
40
0
40
0
40
0
40
1
40
1
40
1
40
1
41
1
10
118.318132754701
20
14.8946517405222
30
0
41
1
10
118.32443478683
20
14.8949083940861
30
0
41
1
10
118.330736356716
20
14.8951652769691
30
0
41
1
10
118.337037493145
20
14.8954223747856
30
0
0
SPLINE
5
163
100
AcDbEntity
8
1
62
256
6
ByLayer
370
18
48
1
60
0
100
AcDbSpline
70
4
71
3
72
18
73
14
40
0
40
0
40
0
40
0
40
0.125
40
0.125
40
0.25
40
0.25
40
0.375
40
0.375
40
0.500000000000001
40
0.500000000000001
40
0.75
40
0.75
40
1
40
1
40
1
40
1
41
1
10
118.337037493145
20
14.8954223747856
30
0
41
1
10
118.347651341306
20
14.8958531860557
30
0
41
1
10
118.358537553893
20
14.8992470248451
30
0
41
1
10
118.379247225869
20
14.9111338643011
30
0
41
1
10
118.388886047152
20
14.9194890722593
30
0
41
1
10
118.405755259623
20
14.9382896938593
30
0
41
1
10
118.41322084511
20
14.9489258980272
30
0
41
1
10
118.426268993542
20
14.9711538622273
30
0
41
1
10
118.431910075926
20
14.982828279101
30
0
41
1
10
118.446597562937
20
15.0185332240648
30
0
41
1
10
118.453486439414
20
15.0432485590692
30
0
41
1
10
118.462975829883
20
15.0930466997178
30
0
41
1
10
118.465541343782
20
15.118135072075
30
0
41
1
10
118.466122887103
20
15.1430370366778
30
0
0
SPLINE
5
164
100
AcDbEntity
8
1
62
256
6
ByLayer
370
18
48
1
60
0
100
AcDbSpline
70
4
71
3
72
18
73
14
40
0
40
0
40
0
40
0
40
0.25
40
0.25
40
0.5
40
0.5
40
0.625
40
0.625
40
0.75
40
0.75
40
0.875
40
0.875
40
1
40
1
40
1
40
1
41
1
10
117.930347084015
20
14.277200836494
30
0
41
1
10
117.952868919168
20
14.2896460342717
30
0
41
1
10
117.974492531629
20
14.3036541165508
30
0
41
1
10
118.014990748566
20
14.3346552597648
30
0
41
1
10
118.033949018132
20
14.3516828818834
30
0
41
1
10
118.058581191275
20
14.3795249703663
30
0
41
1
10
118.066156973495
20
14.3892057347707
30
0
41
1
10
118.079292799162
20
14.4092803227266
30
0
41
1
10
118.084870275499
20
14.4197245730048
30
0
41
1
10
118.092545729096
20
14.4406051035558
30
0
41
1
10
118.09466784233
20
14.4511646808159
30
0
41
1
10
118.093579205773
20
14.4709064033164
30
0
41
1
10
118.090256618942
20
14.4798957736578
30
0
41
1
10
118.084305480957
20
14.4869968284353
30
0
0
SPLINE
5
165
100
AcDbEntity
8
1
62
256
6
ByLayer
370
18
48
1
60
0
100
AcDbSpline
70
4
71
3
72
8
73
4
40
0
40
0
40
0
40
0
40
1
40
1
40
1
40
1
41
1
10
118.084305480957
20
14.4869968284353
30
0
41
1
10
118.080773043281
20
14.4912140640876
30
0
41
1
10
118.077240329796
20
14.4954317694394
30
0
41
1
10
118.07370732217
20
14.499649975771
30
0
0
SPLINE
5
166
100
AcDbEntity
8
1
62
256
6
ByLayer
370
18
48
1
60
0
100
AcDbSpline
70
4
71
3
72
18
73
14
40
0
40
0
40
0
40
0
40
0.125
40
0.125
40
0.25
40
0.25
40
0.5
40
0.5
40
0.75
40
0.75
40
0.875
40
0.875
40
1
40
1
40
1
40
1
41
1
10
118.07370732217
20
14.499649975771
30
0
41
1
10
118.062974891213
20
14.5124638762807
30
0
41
1
10
118.058993529621
20
14.5296461693363
30
0
41
1
10
118.058082801292
20
14.5662696409052
30
0
41
1
10
118.061247830339
20
14.5857508119824
30
0
41
1
10
118.077192723736
20
14.6448209143444
30
0
41
1
10
118.096356176899
20
14.6854081231764
30
0
41
1
10
118.144699102681
20
14.7635347607745
30
0
41
1
10
118.173898988497
20
14.801107386543
30
0
41
1
10
118.223925119398
20
14.8486576968432
30
0
41
1
10
118.24175067865
20
14.8630823714472
30
0
41
1
10
118.279197602844
20
14.8856006175821
30
0
41
1
10
118.298986330371
20
14.8938719923491
30
0
41
1
10
118.318132754701
20
14.8946517405222
30
0
0
SPLINE
5
167
100
AcDbEntity
8
1
62
256
6
ByLayer
370
18
48
1
60
0
100
AcDbSpline
70
4
71
3
72
8
73
4
40
0
40
0
40
0
40
0
40
1
40
1
40
1
40
1
41
1
10
117.655900675414
20
14.268776855693
30
0
41
1
10
117.658103872879
20
14.2638238180146
30
0
41
1
10
117.660306856933
20
14.2588713259263
30
0
41
1
10
117.662509640889
20
14.2539193453735
30
0
0
SPLINE
5
168
100
AcDbEntity
8
1
62
256
6
ByLayer
370
18
48
1
60
0
100
AcDbSpline
70
4
71
3
72
18
73
14
40
0
40
0
40
0
40
0
40
0.125
40
0.125
40
0.25
40
0.25
40
0.375
40
0.375
40
0.5
40
0.5
40
0.75
40
0.75
40
1
40
1
40
1
40
1
41
1
10
117.662509640889
20
14.2539193453735
30
0
41
1
10
117.666217957956
20
14.2455769126618
30
0
41
1
10
117.672809299779
20
14.2385250371723
30
0
41
1
10
117.690437530691
20
14.22788537638
30
0
41
1
10
117.701284381218
20
14.2243767845971
30
0
41
1
10
117.724127774046
20
14.2203824910929
30
0
41
1
10
117.736376558392
20
14.2198045232354
30
0
41
1
10
117.761104586995
20
14.2206714662376
30
0
41
1
10
117.773679649469
20
14.2221113880061
30
0
41
1
10
117.811222415421
20
14.2286076753816
30
0
41
1
10
117.836035059016
20
14.2357790239405
30
0
41
1
10
117.884333409335
20
14.2538347038682
30
0
41
1
10
117.90781478072
20
14.2647498541926
30
0
41
1
10
117.930347084015
20
14.277200836494
30
0
0
SPLINE
5
169
100
AcDbEntity
8
1
62
256
6
ByLayer
370
18
48
1
60
0
100
AcDbSpline
70
4
71
3
72
18
73
14
40
0
40
0
40
0
40
0
40
0.25
40
0.25
40
0.5
40
0.5
40
0.625
40
0.625
40
0.75
40
0.75
40
0.875
40
0.875
40
1
40
1
40
1
40
1
41
1
10
116.899235761755
20
14.277200836494
30
0
41
1
10
116.921176323763
20
14.2647556387163
30
0
41
1
10
116.944252528604
20
14.2538435225976
30
0
41
1
10
116.992170741454
20
14.2357969755389
30
0
41
1
10
117.017078350355
20
14.2286113163513
30
0
41
1
10
117.055209419115
20
14.222117907798
30
0
41
1
10
117.068065428862
20
14.2206763153758
30
0
41
1
10
117.093720248184
20
14.2198028540013
30
0
41
1
10
117.106576947286
20
14.2203816802572
30
0
41
1
10
117.130987378965
20
14.224383696034
30
0
41
1
10
117.142677643569
20
14.2278478065322
30
0
41
1
10
117.162731976559
20
14.2384473688837
30
0
41
1
10
117.170859900237
20
14.2455785437835
30
0
41
1
10
117.176121794028
20
14.2539193453735
30
0
0
SPLINE
5
16A
100
AcDbEntity
8
1
62
256
6
ByLayer
370
18
48
1
60
0
100
AcDbSpline
70
4
71
3
72
8
73
4
40
0
40
0
40
0
40
0
40
1
40
1
40
1
40
1
41
1
10
117.176121794028
20
14.2539193453735
30
0
41
1
10
117.179247426576
20
14.2588713259263
30
0
41
1
10
117.182373162423
20
14.2638238180146
30
0
41
1
10
117.185499008376
20
14.268776855693
30
0
0
SPLINE
5
16B
100
AcDbEntity
8
1
62
256
6
ByLayer
370
18
48
1
60
0
100
AcDbSpline
70
4
71
3
72
18
73
14
40
0
40
0
40
0
40
0
40
0.125
40
0.125
40
0.25
40
0.25
40
0.5
40
0.5
40
0.75
40
0.75
40
0.875
40
0.875
40
1
40
1
40
1
40
1
41
1
10
117.185499008376
20
14.268776855693
30
0
41
1
10
117.194994579693
20
14.2838229978307
30
0
41
1
10
117.211353358892
20
14.2955253680692
30
0
41
1
10
117.248684676533
20
14.3143367829485
30
0
41
1
10
117.269727945327
20
14.3213893624661
30
0
41
1
10
117.335265475785
20
14.3377006297485
30
0
41
1
10
117.382488178079
20
14.3423576083132
30
0
41
1
10
117.475527708593
20
14.3423587944533
30
0
41
1
10
117.521384075705
20
14.3377030972505
30
0
41
1
10
117.58281778642
20
14.3213960127353
30
0
41
1
10
117.6021552407
20
14.3143355886749
30
0
41
1
10
117.635238059296
20
14.2955725567149
30
0
41
1
10
117.649207064101
20
14.2838248527788
30
0
41
1
10
117.655900675414
20
14.268776855693
30
0
0
SPLINE
5
16C
100
AcDbEntity
8
1
62
256
6
ByLayer
370
18
48
1
60
0
100
AcDbSpline
70
4
71
3
72
18
73
14
40
0
40
0
40
0
40
0
40
0.125
40
0.125
40
0.25
40
0.25
40
0.375
40
0.375
40
0.500000000000001
40
0.500000000000001
40
0.75
40
0.75
40
1
40
1
40
1
40
1
41
1
10
116.765212215804
20
14.4869968284353
30
0
41
1
10
116.757763223991
20
14.4798943849801
30
0
41
1
10
116.752956836189
20
14.4710212644587
30
0
41
1
10
116.748974604524
20
14.4512641297942
30
0
41
1
10
116.74980003137
20
14.4405765922239
30
0
41
1
10
116.755143329827
20
14.4197212428948
30
0
41
1
10
116.759668687475
20
14.4092997707237
30
0
41
1
10
116.770918941267
20
14.3892595809197
30
0
41
1
10
116.777679251282
20
14.379559012268
30
0
41
1
10
116.800099973603
20
14.3516863434667
30
0
41
1
10
116.817845327993
20
14.3346908641531
30
0
41
1
10
116.856421361256
20
14.3036645064563
30
0
41
1
10
116.877285001781
20
14.2896518187953
30
0
41
1
10
116.899235761755
20
14.277200836494
30
0
0
SPLINE
5
16D
100
AcDbEntity
8
1
62
256
6
ByLayer
370
18
48
1
60
0
100
AcDbSpline
70
4
71
3
72
8
73
4
40
0
40
0
40
0
40
0
40
1
40
1
40
1
40
1
41
1
10
116.778475665116
20
14.499649975771
30
0
41
1
10
116.774054330492
20
14.4954317694394
30
0
41
1
10
116.769633184621
20
14.4912140640876
30
0
41
1
10
116.765212215804
20
14.4869968284353
30
0
0
SPLINE
5
16E
100
AcDbEntity
8
1
62
256
6
ByLayer
370
18
48
1
60
0
100
AcDbSpline
70
4
71
3
72
18
73
14
40
0
40
0
40
0
40
0
40
0.125
40
0.125
40
0.25
40
0.25
40
0.375
40
0.375
40
0.5
40
0.5
40
0.75
40
0.75
40
1
40
1
40
1
40
1
41
1
10
116.531556381131
20
14.8954223747856
30
0
41
1
10
116.519797695822
20
14.8958531860557
30
0
41
1
10
116.507973513364
20
14.899247024845
30
0
41
1
10
116.485888106587
20
14.911133864301
30
0
41
1
10
116.475819384817
20
14.9194890722592
30
0
41
1
10
116.458475931502
20
14.9382896938591
30
0
41
1
10
116.450954420424
20
14.948925898027
30
0
41
1
10
116.438023520779
20
14.9711538622272
30
0
41
1
10
116.432555432916
20
14.9828282791009
30
0
41
1
10
116.418604090503
20
15.0185332240647
30
0
41
1
10
116.412487139459
20
15.0432485590691
30
0
41
1
10
116.404824351982
20
15.0930466997177
30
0
41
1
10
116.403318699262
20
15.118135072075
30
0
41
1
10
116.403900242583
20
15.1430370366778
30
0
0
SPLINE
5
16F
100
AcDbEntity
8
1
62
256
6
ByLayer
370
18
48
1
60
0
100
AcDbSpline
70
4
71
3
72
8
73
4
40
0
40
0
40
0
40
0
40
1
40
1
40
1
40
1
41
1
10
116.55249943061
20
14.8946517405222
30
0
41
1
10
116.545518077071
20
14.8949083940861
30
0
41
1
10
116.538537067699
20
14.8951652769691
30
0
41
1
10
116.531556381131
20
14.8954223747856
30
0
0
SPLINE
5
170
100
AcDbEntity
8
1
62
256
6
ByLayer
370
18
48
1
60
0
100
AcDbSpline
70
4
71
3
72
20
73
16
40
0
40
0
40
0
40
0
40
0.125
40
0.125
40
0.25
40
0.25
40
0.375
40
0.375
40
0.5
40
0.5
40
0.75
40
0.75
40
0.875
40
0.875
40
1
40
1
40
1
40
1
41
1
10
116.778475665116
20
14.499649975771
30
0
41
1
10
116.791999355171
20
14.5125523502507
30
0
41
1
10
116.798679418771
20
14.5299352522937
30
0
41
1
10
116.804519416502
20
14.5663581613739
30
0
41
1
10
116.803639841348
20
14.5859174718762
30
0
41
1
10
116.797119402769
20
14.6250144905505
30
0
41
1
10
116.791365527036
20
14.64507707483
30
0
41
1
10
116.776133743069
20
14.6848855292404
30
0
41
1
10
116.766702125039
20
14.7045957606886
30
0
41
1
10
116.733194212742
20
14.7632746282658
30
0
41
1
10
116.704582349787
20
14.8009197323478
30
0
41
1
10
116.653391886746
20
14.8485591178035
30
0
41
1
10
116.634832382712
20
14.8630127422304
30
0
41
1
10
116.595090866567
20
14.885579117637
30
0
41
1
10
116.57373832582
20
14.8938709409082
30
0
41
1
10
116.55249943061
20
14.8946517405222
30
0
0
SPLINE
5
171
100
AcDbEntity
8
1
62
256
6
ByLayer
370
18
48
1
60
0
100
AcDbSpline
70
4
71
3
72
18
73
14
40
0
40
0
40
0
40
0
40
0.250000000000001
40
0.250000000000001
40
0.500000000000001
40
0.500000000000001
40
0.625000000000001
40
0.625000000000001
40
0.750000000000001
40
0.750000000000001
40
0.875000000000001
40
0.875000000000001
40
1
40
1
40
1
40
1
41
1
10
118.466122887103
20
15.1430370366778
30
0
41
1
10
118.466704160248
20
15.1679274322332
30
0
41
1
10
118.465303761273
20
15.192687168679
30
0
41
1
10
118.458116393843
20
15.2410196724097
30
0
41
1
10
118.452345813521
20
15.2646833819757
30
0
41
1
10
118.439280879938
20
15.2976847182032
30
0
41
1
10
118.434173823563
20
15.3082746824529
30
0
41
1
10
118.422085023069
20
15.3279001578873
30
0
41
1
10
118.41506418522
20
15.3369712105116
30
0
41
1
10
118.39896096914
20
15.3519074537457
30
0
41
1
10
118.389770711778
20
15.357841133676
30
0
41
1
10
118.369526343197
20
15.364220659998
30
0
41
1
10
118.358593432304
20
15.3644875615717
30
0
41
1
10
118.34792375499
20
15.3615773409092
30
0
0
SPLINE
5
172
100
AcDbEntity
8
1
62
256
6
ByLayer
370
18
48
1
60
0
100
AcDbSpline
70
4
71
3
72
8
73
4
40
0
40
0
40
0
40
0
40
1
40
1
40
1
40
1
41
1
10
118.102939823691
20
15.7513997454295
30
0
41
1
10
118.106716158395
20
15.7576009215823
30
0
41
1
10
118.110492184186
20
15.7638019661732
30
0
41
1
10
118.114267920316
20
15.7700028872595
30
0
0
SPLINE
5
173
100
AcDbEntity
8
1
62
256
6
ByLayer
370
18
48
1
60
0
100
AcDbSpline
70
4
71
3
72
18
73
14
40
0
40
0
40
0
40
0
40
0.125
40
0.125
40
0.25
40
0.25
40
0.375
40
0.375
40
0.5
40
0.5
40
0.75
40
0.75
40
1
40
1
40
1
40
1
41
1
10
118.114267920316
20
15.7700028872595
30
0
41
1
10
118.12062999069
20
15.7804469317682
30
0
41
1
10
118.124413344418
20
15.7924652398044
30
0
41
1
10
118.126593994879
20
15.8177611056364
30
0
41
1
10
118.12500336324
20
15.8308011675483
30
0
41
1
10
118.118398300982
20
15.8555356484276
30
0
41
1
10
118.11335726091
20
15.8675425203072
30
0
41
1
10
118.101247754361
20
15.8902243728991
30
0
41
1
10
118.094140104194
20
15.9009927944576
30
0
41
1
10
118.070850268636
20
15.9315374408332
30
0
41
1
10
118.052748088789
20
15.9496299344105
30
0
41
1
10
118.013706202351
20
15.9820884981554
30
0
41
1
10
117.992738127905
20
15.9964222545602
30
0
41
1
10
117.970787367931
20
16.0088732368616
30
0
0
SPLINE
5
174
100
AcDbEntity
8
1
62
256
6
ByLayer
370
18
48
1
60
0
100
AcDbSpline
70
4
71
3
72
8
73
4
40
0
40
0
40
0
40
0
40
1
40
1
40
1
40
1
41
1
10
118.34792375499
20
15.3615773409092
30
0
41
1
10
118.341588301108
20
15.3598507532916
30
0
41
1
10
118.335252411816
20
15.3581242969356
30
0
41
1
10
118.328916058197
20
15.3563979806782
30
0
0
SPLINE
5
175
100
AcDbEntity
8
1
62
256
6
ByLayer
370
18
48
1
60
0
100
AcDbSpline
70
4
71
3
72
18
73
14
40
0
40
0
40
0
40
0
40
0.125
40
0.125
40
0.25
40
0.25
40
0.5
40
0.5
40
0.75
40
0.75
40
0.875
40
0.875
40
1
40
1
40
1
40
1
41
1
10
118.328916058197
20
15.3563979806782
30
0
41
1
10
118.309667733558
20
15.3511538453679
30
0
41
1
10
118.290220452549
20
15.353888784895
30
0
41
1
10
118.253521532672
20
15.366956697624
30
0
41
1
10
118.236290389705
20
15.3773958728321
30
0
41
1
10
118.188256228083
20
15.4153633743537
30
0
41
1
10
118.16073178033
20
15.4496494261284
30
0
41
1
10
118.116035303138
20
15.527774485484
30
0
41
1
10
118.098844168521
20
15.5716465317607
30
0
41
1
10
118.085878453173
20
15.640294215142
30
0
41
1
10
118.083718866371
20
15.6637705593901
30
0
41
1
10
118.08654357813
20
15.7097845071074
30
0
41
1
10
118.091466809086
20
15.7325597351701
30
0
41
1
10
118.102939823691
20
15.7513997454295
30
0
0
SPLINE
5
176
100
AcDbEntity
8
1
62
256
6
ByLayer
370
18
48
1
60
0
100
AcDbSpline
70
4
71
3
72
18
73
14
40
0
40
0
40
0
40
0
40
0.25
40
0.25
40
0.5
40
0.5
40
0.625
40
0.625
40
0.75
40
0.75
40
0.875
40
0.875
40
1
40
1
40
1
40
1
41
1
10
116.403900242583
20
15.1430370366778
30
0
41
1
10
116.404481515729
20
15.1679274322332
30
0
41
1
10
116.407150239795
20
15.192687168679
30
0
41
1
10
116.417093716109
20
15.2410196724097
30
0
41
1
10
116.42435273503
20
15.2646833819757
30
0
41
1
10
116.439889287752
20
15.2976847182032
30
0
41
1
10
116.445862174145
20
15.3082746824529
30
0
41
1
10
116.459789773579
20
15.3279001578874
30
0
41
1
10
116.467788161886
20
15.3369712105116
30
0
41
1
10
116.485943240379
20
15.3519074537457
30
0
41
1
10
116.496220691039
20
15.357841133676
30
0
41
1
10
116.518689260968
20
15.364220659998
30
0
41
1
10
116.530744161123
20
15.3644875615717
30
0
41
1
10
116.542442642975
20
15.3615773409092
30
0
0
SPLINE
5
177
100
AcDbEntity
8
1
62
256
6
ByLayer
370
18
48
1
60
0
100
AcDbSpline
70
4
71
3
72
24
73
20
40
0
40
0
40
0
40
0
40
0.125
40
0.125
40
0.25
40
0.25
40
0.375
40
0.375
40
0.5
40
0.5
40
0.625
40
0.625
40
0.75
40
0.75
40
0.8125
40
0.8125
40
0.875
40
0.875
40
1
40
1
40
1
40
1
41
1
10
116.563282734106
20
15.3563979806782
30
0
41
1
10
116.584423261566
20
15.351144624139
30
0
41
1
10
116.605956388787
20
15.3538994341285
30
0
41
1
10
116.646624620355
20
15.3670148815995
30
0
41
1
10
116.665671407689
20
15.3774321261441
30
0
41
1
10
116.701216347271
20
15.4028567842876
30
0
41
1
10
116.717656227322
20
15.417897035313
30
0
41
1
10
116.747743555975
20
15.4512512438777
30
0
41
1
10
116.761342457085
20
15.4695159113861
30
0
41
1
10
116.785508090138
20
15.5086649186617
30
0
41
1
10
116.795845809339
20
15.5291499588807
30
0
41
1
10
116.812935960589
20
15.5719702866084
30
0
41
1
10
116.819735297064
20
15.5945558530141
30
0
41
1
10
116.826131716677
20
15.6287313986907
30
0
41
1
10
116.827644449888
20
15.6402027309437
30
0
41
1
10
116.829167916116
20
15.6633423118202
30
0
41
1
10
116.829169527207
20
15.6750778497639
30
0
41
1
10
116.826223540876
20
15.7095786581185
30
0
41
1
10
116.82047875655
20
15.7324450937774
30
0
41
1
10
116.807708166637
20
15.7513997454295
30
0
0
SPLINE
5
178
100
AcDbEntity
8
1
62
256
6
ByLayer
370
18
48
1
60
0
100
AcDbSpline
70
4
71
3
72
8
73
4
40
0
40
0
40
0
40
0
40
1
40
1
40
1
40
1
41
1
10
116.542442642975
20
15.3615773409092
30
0
41
1
10
116.549389012091
20
15.3598507532916
30
0
41
1
10
116.556335702057
20
15.3581242969356
30
0
41
1
10
116.563282734106
20
15.3563979806782
30
0
0
SPLINE
5
179
100
AcDbEntity
8
1
62
256
6
ByLayer
370
18
48
1
60
0
100
AcDbSpline
70
4
71
3
72
18
73
14
40
0
40
0
40
0
40
0
40
0.25
40
0.25
40
0.5
40
0.5
40
0.625
40
0.625
40
0.75
40
0.75
40
0.875
40
0.875
40
1
40
1
40
1
40
1
41
1
10
116.939676045672
20
16.0088732368616
30
0
41
1
10
116.917154210518
20
15.9964280390839
30
0
41
1
10
116.895634984867
20
15.9820990329008
30
0
41
1
10
116.855602024896
20
15.9496675166028
30
0
41
1
10
116.837001273357
20
15.931540751004
30
0
41
1
10
116.813237024279
20
15.9010303409034
30
0
41
1
10
116.806007584364
20
15.8902847913452
30
0
41
1
10
116.79373214502
20
15.8675650555977
30
0
41
1
10
116.788671438512
20
15.8555320625231
30
0
41
1
10
116.782259508924
20
15.8307669888919
30
0
41
1
10
116.780893183705
20
15.8178838379685
30
0
41
1
10
116.783779022194
20
15.7926168478143
30
0
41
1
10
116.788136808255
20
15.7804448897369
30
0
41
1
10
116.795174655163
20
15.7700028872595
30
0
0
SPLINE
5
17A
100
AcDbEntity
8
1
62
256
6
ByLayer
370
18
48
1
60
0
100
AcDbSpline
70
4
71
3
72
8
73
4
40
0
40
0
40
0
40
0
40
1
40
1
40
1
40
1
41
1
10
116.795174655163
20
15.7700028872595
30
0
41
1
10
116.799352325527
20
15.7638019661732
30
0
41
1
10
116.803530159092
20
15.7576009215823
30
0
41
1
10
116.807708166637
20
15.7513997454295
30
0
0
SPLINE
5
17B
100
AcDbEntity
8
1
62
256
6
ByLayer
370
18
48
1
60
0
100
AcDbSpline
70
4
71
3
72
18
73
14
40
0
40
0
40
0
40
0
40
0.25
40
0.25
40
0.5
40
0.5
40
0.625
40
0.625
40
0.75
40
0.75
40
0.875
40
0.875
40
1
40
1
40
1
40
1
41
1
10
117.970787367931
20
16.0088732368616
30
0
41
1
10
117.948846805924
20
16.0213184346393
30
0
41
1
10
117.925874987892
20
16.0319096268539
30
0
41
1
10
117.878422032009
20
16.0485258008287
30
0
41
1
10
117.853871941133
20
16.0546123165361
30
0
41
1
10
117.81660879644
20
16.0584374034717
30
0
41
1
10
117.804099128997
20
16.0588142107401
30
0
41
1
10
117.779304695998
20
16.0570425243229
30
0
41
1
10
117.766964766726
20
16.0548749552707
30
0
41
1
10
117.743817859054
20
16.0469883964137
30
0
41
1
10
117.732883382466
20
16.0412007122522
30
0
41
1
10
117.714626251407
20
16.025075882247
30
0
41
1
10
117.707533526961
20
16.0147621196112
30
0
41
1
10
117.703358342093
20
16.0030803703213
30
0
0
SPLINE
5
17C
100
AcDbEntity
8
1
62
256
6
ByLayer
370
18
48
1
60
0
100
AcDbSpline
70
4
71
3
72
8
73
4
40
0
40
0
40
0
40
0
40
1
40
1
40
1
40
1
41
1
10
117.225514813394
20
15.9822728655075
30
0
41
1
10
117.222666616009
20
15.9892088730071
30
0
41
1
10
117.219818511874
20
15.9961447043344
30
0
41
1
10
117.216970495231
20
16.0030803703213
30
0
0
SPLINE
5
17D
100
AcDbEntity
8
1
62
256
6
ByLayer
370
18
48
1
60
0
100
AcDbSpline
70
4
71
3
72
18
73
14
40
0
40
0
40
0
40
0
40
0.125
40
0.125
40
0.25
40
0.25
40
0.375
40
0.375
40
0.5
40
0.5
40
0.75
40
0.75
40
1
40
1
40
1
40
1
41
1
10
117.216970495231
20
16.0030803703213
30
0
41
1
10
117.212175256725
20
16.0147644040865
30
0
41
1
10
117.204560880829
20
16.0249614670908
30
0
41
1
10
117.185131068712
20
16.0411398590506
30
0
41
1
10
117.173519013393
20
16.047000975175
30
0
41
1
10
117.149413856764
20
16.0548744002296
30
0
41
1
10
117.136649389993
20
16.0570377677955
30
0
41
1
10
117.111062108633
20
16.0588124875812
30
0
41
1
10
117.098139706007
20
16.0584404187194
30
0
41
1
10
117.059727826818
20
16.0546161089183
30
0
41
1
10
117.034558357766
20
16.0485417746231
30
0
41
1
10
116.985794154272
20
16.0319183007434
30
0
41
1
10
116.962208348966
20
16.021324219163
30
0
41
1
10
116.939676045672
20
16.0088732368616
30
0
0
SPLINE
5
17E
100
AcDbEntity
8
1
62
256
6
ByLayer
370
18
48
1
60
0
100
AcDbSpline
70
4
71
3
72
8
73
4
40
0
40
0
40
0
40
0
40
1
40
1
40
1
40
1
41
1
10
117.703358342093
20
16.0030803703213
30
0
41
1
10
117.700877942231
20
15.9961447043344
30
0
41
1
10
117.698397326464
20
15.9892088730071
30
0
41
1
10
117.695916480431
20
15.9822728655075
30
0
0
SPLINE
5
17F
100
AcDbEntity
8
1
62
256
6
ByLayer
370
18
48
1
60
0
100
AcDbSpline
70
4
71
3
72
18
73
14
40
0
40
0
40
0
40
0
40
0.125
40
0.125
40
0.25
40
0.25
40
0.5
40
0.5
40
0.75
40
0.75
40
0.875
40
0.875
40
1
40
1
40
1
40
1
41
1
10
117.695916480431
20
15.9822728655075
30
0
41
1
10
117.688380264383
20
15.9612029360052
30
0
41
1
10
117.673807204747
20
15.9440105991866
30
0
41
1
10
117.639562139294
20
15.9157108963861
30
0
41
1
10
117.61981306406
20
15.9046794841654
30
0
41
1
10
117.557392484478
20
15.878785549767
30
0
41
1
10
117.511239384943
20
15.8708402142171
30
0
41
1
10
117.418200109507
20
15.8708382438725
30
0
41
1
10
117.371274435753
20
15.8787813876859
30
0
41
1
10
117.306724453971
20
15.9046690493329
30
0
41
1
10
117.286091616142
20
15.9157119645609
30
0
41
1
10
117.249930009868
20
15.9439403357654
30
0
41
1
10
117.234168021532
20
15.9612003384207
30
0
41
1
10
117.225514813394
20
15.9822728655075
30
0
0
SPLINE
5
180
100
AcDbEntity
8
1
62
256
6
ByLayer
370
18
48
1
60
0
100
AcDbSpline
70
4
71
3
72
18
73
14
40
0
40
0
40
0
40
0
40
0.25
40
0.25
40
0.5
40
0.5
40
0.625
40
0.625
40
0.75
40
0.75
40
0.875
40
0.875
40
1
40
1
40
1
40
1
41
1
10
117.100764238245
20
-0.538375504868469
30
0
41
1
10
117.122704800253
20
-0.533219519913501
30
0
41
1
10
117.143562261068
20
-0.527107570939279
30
0
41
1
10
117.182113858421
20
-0.512801128598198
30
0
41
1
10
117.199893638615
20
-0.504610843975115
30
0
41
1
10
117.222295163652
20
-0.490053584693811
30
0
41
1
10
117.229047581507
20
-0.484807638598625
30
0
41
1
10
117.240323631705
20
-0.473290240468828
30
0
41
1
10
117.244859420161
20
-0.466987787257409
30
0
41
1
10
117.250205373765
20
-0.453291429983466
30
0
41
1
10
117.251024233664
20
-0.445808943791803
30
0
41
1
10
117.247087292717
20
-0.429927008682569
30
0
41
1
10
117.242235319573
20
-0.421624463604672
30
0
41
1
10
117.234787784196
20
-0.413722151879796
30
0
0
SPLINE
5
181
100
AcDbEntity
8
1
62
256
6
ByLayer
370
18
48
1
60
0
100
AcDbSpline
70
4
71
3
72
8
73
4
40
0
40
0
40
0
40
0
40
1
40
1
40
1
40
1
41
1
10
115.92629267783
20
-0.512960542961338
30
0
41
1
10
115.922759670204
20
-0.518347550954815
30
0
41
1
10
115.919226956719
20
-0.523735144558657
30
0
41
1
10
115.915694519043
20
-0.529123286890041
30
0
0
SPLINE
5
182
100
AcDbEntity
8
1
62
256
6
ByLayer
370
18
48
1
60
0
100
AcDbSpline
70
4
71
3
72
18
73
14
40
0
40
0
40
0
40
0
40
0.125
40
0.125
40
0.25
40
0.25
40
0.375
40
0.375
40
0.500000000000001
40
0.500000000000001
40
0.75
40
0.75
40
1
40
1
40
1
40
1
41
1
10
115.915694519043
20
-0.529123286890041
30
0
41
1
10
115.909742217257
20
-0.538199558804962
30
0
41
1
10
115.906446747555
20
-0.547109569292985
30
0
41
1
10
115.905318233821
20
-0.563465693622675
30
0
41
1
10
115.907462983467
20
-0.570780305561101
30
0
41
1
10
115.915132719203
20
-0.583320570055207
30
0
41
1
10
115.920697535367
20
-0.588726734728027
30
0
41
1
10
115.933804743054
20
-0.598095016750165
30
0
41
1
10
115.941390411912
20
-0.602097901506397
30
0
41
1
10
115.966044485193
20
-0.612553784769716
30
0
41
1
10
115.984966085379
20
-0.617520608256314
30
0
41
1
10
116.025490554923
20
-0.624919302345376
30
0
41
1
10
116.047120612691
20
-0.627315710814059
30
0
41
1
10
116.069652915985
20
-0.628582482687335
30
0
0
SPLINE
5
183
100
AcDbEntity
8
1
62
256
6
ByLayer
370
13
48
1
60
0
100
AcDbSpline
70
4
71
3
72
8
73
4
40
0
40
0
40
0
40
0
40
1
40
1
40
1
40
1
41
1
10
116.108651333474
20
-19.1536159875367
30
0
41
1
10
115.868383061154
20
-19.4357606059683
30
0
41
1
10
115.628114788834
20
-19.7179052243999
30
0
41
1
10
115.387846516514
20
-20.0000498428315
30
0
0
SPLINE
5
184
100
AcDbEntity
8
1
62
256
6
ByLayer
370
13
48
1
60
0
100
AcDbSpline
70
4
71
3
72
8
73
4
40
0
40
0
40
0
40
0
40
1
40
1
40
1
40
1
41
1
10
114.909518510924
20
-19.5141125839037
30
0
41
1
10
115.205966977081
20
-19.3006783119852
30
0
41
1
10
115.502415443238
20
-19.0872440400667
30
0
41
1
10
115.798863909395
20
-18.8738097681482
30
0
0
SPLINE
5
185
100
AcDbEntity
8
1
62
256
6
ByLayer
370
18
48
1
60
0
100
AcDbSpline
70
4
71
3
72
30
73
26
40
0
40
0
40
0
40
0
40
0.124999999999896
40
0.124999999999896
40
0.187499999999887
40
0.187499999999887
40
0.249999999999879
40
0.249999999999879
40
0.374999999999862
40
0.374999999999862
40
0.437499999999897
40
0.437499999999897
40
0.499999999999932
40
0.499999999999932
40
0.624999999999986
40
0.624999999999986
40
0.687499999999988
40
0.687499999999988
40
0.74999999999999
40
0.74999999999999
40
0.874999999999995
40
0.874999999999995
40
0.937499999999997
40
0.937499999999997
40
1
40
1
40
1
40
1
41
1
10
119.390095639083
20
-19.1485053930832
30
0
41
1
10
119.409482926598
20
-19.1484751988898
30
0
41
1
10
119.428513862578
20
-19.1466469806087
30
0
41
1
10
119.456550297205
20
-19.1413315278606
30
0
41
1
10
119.46581017011
20
-19.1391277761267
30
0
41
1
10
119.484155638552
20
-19.1338409305565
30
0
41
1
10
119.493283011244
20
-19.1307383687451
30
0
41
1
10
119.51988183739
20
-19.1202695189748
30
0
41
1
10
119.536695490565
20
-19.1117365605617
30
0
41
1
10
119.560562545314
20
-19.096648673585
30
0
41
1
10
119.568291142297
20
-19.0912354045038
30
0
41
1
10
119.583279330128
20
-19.0796158436192
30
0
41
1
10
119.590464838444
20
-19.0734633084508
30
0
41
1
10
119.610917381684
20
-19.0541763750194
30
0
41
1
10
119.623179990645
20
-19.0401512249583
30
0
41
1
10
119.639495177181
20
-19.0173456163301
30
0
41
1
10
119.644609325536
20
-19.0094015563237
30
0
41
1
10
119.653961821206
20
-18.9931560975168
30
0
41
1
10
119.658203475193
20
-18.9848621157482
30
0
41
1
10
119.669654767749
20
-18.9594782790815
30
0
41
1
10
119.675602593288
20
-18.9418912048453
30
0
41
1
10
119.681901492131
20
-18.9144770596205
30
0
41
1
10
119.683551304901
20
-18.9051881365482
30
0
41
1
10
119.685902833635
20
-18.8865612553144
30
0
41
1
10
119.686613332418
20
-18.8771881446492
30
0
41
1
10
119.68685205422
20
-18.8677545288526
30
0
0
SPLINE
5
186
100
AcDbEntity
8
1
62
256
6
ByLayer
370
18
48
1
60
0
100
AcDbSpline
70
4
71
3
72
29
73
25
40
0
40
0
40
0
40
0
40
0.12500000000007
40
0.12500000000007
40
0.187500000000078
40
0.187500000000078
40
0.250000000000086
40
0.250000000000086
40
0.375000000000057
40
0.375000000000057
40
0.437500000000042
40
0.437500000000042
40
0.500000000000028
40
0.500000000000028
40
0.624999999999999
40
0.624999999999999
40
0.687499999999999
40
0.687499999999999
40
0.749999999999999
40
0.812499999999999
40
0.812499999999999
40
0.875
40
0.875
40
1
40
1
40
1
40
1
41
1
10
115.387846516514
20
-20.0000498428315
30
0
41
1
10
115.356017698293
20
-20.0000994137419
30
0
41
1
10
115.324719701668
20
-19.9970167148912
30
0
41
1
10
115.278545113091
20
-19.9878348545701
30
0
41
1
10
115.263283229703
20
-19.9840092191081
30
0
41
1
10
115.233025906864
20
-19.9747857169495
30
0
41
1
10
115.217996458586
20
-19.9693636348686
30
0
41
1
10
115.174314907475
20
-19.9510758166722
30
0
41
1
10
115.14672363866
20
-19.9361248836716
30
0
41
1
10
115.107615863579
20
-19.9095878939677
30
0
41
1
10
115.094909236545
20
-19.900006911609
30
0
41
1
10
115.070541904323
20
-19.8796231709342
30
0
41
1
10
115.058959498901
20
-19.8688960662503
30
0
41
1
10
115.02595640593
20
-19.8351621566068
30
0
41
1
10
115.006263858278
20
-19.8106169842703
30
0
41
1
10
114.980251750948
20
-19.7706597912727
30
0
41
1
10
114.972223548805
20
-19.7568761015194
30
0
41
1
10
114.957673451107
20
-19.7288419777873
30
0
41
1
10
114.94454562918
20
-19.7002153267891
30
0
41
1
10
114.934209909332
20
-19.6704254719695
30
0
41
1
10
114.925282955224
20
-19.6400487182313
30
0
41
1
10
114.921513508459
20
-19.624497112162
30
0
41
1
10
114.912514855518
20
-19.577637152304
30
0
41
1
10
114.90951999158
20
-19.5460485518778
30
0
41
1
10
114.909518510924
20
-19.5141125839037
30
0
0
SPLINE
5
187
100
AcDbEntity
8
1
62
256
6
ByLayer
370
18
48
1
60
0
100
AcDbSpline
70
4
71
3
72
26
73
22
40
0
40
0
40
0
40
0
40
0.125000000000061
40
0.125000000000061
40
0.187500000000069
40
0.187500000000069
40
0.250000000000077
40
0.250000000000077
40
0.375000000000075
40
0.375000000000075
40
0.500000000000072
40
0.500000000000072
40
0.625000000000069
40
0.625000000000069
40
0.687500000000029
40
0.687500000000029
40
0.74999999999999
40
0.74999999999999
40
0.874999999999995
40
0.874999999999995
40
1
40
1
40
1
40
1
41
1
10
115.798863909395
20
-18.8738097681482
30
0
41
1
10
115.800218330941
20
-18.8926720410101
30
0
41
1
10
115.803423497799
20
-18.9111338297139
30
0
41
1
10
115.81087628854
20
-18.9382541504908
30
0
41
1
10
115.813804599851
20
-18.9471981695957
30
0
41
1
10
115.82056501807
20
-18.9648906348038
30
0
41
1
10
115.824417918531
20
-18.9736726319886
30
0
41
1
10
115.837112397377
20
-18.9991930982376
30
0
41
1
10
115.847121901878
20
-19.0152651049827
30
0
41
1
10
115.870174796755
20
-19.0455618594349
30
0
41
1
10
115.883356474652
20
-19.0598746463791
30
0
41
1
10
115.911783312569
20
-19.0854978001883
30
0
41
1
10
115.927103682808
20
-19.096951566724
30
0
41
1
10
115.951761863153
20
-19.1120744054546
30
0
41
1
10
115.960304638985
20
-19.1167874307924
30
0
41
1
10
115.977634081696
20
-19.1253327924696
30
0
41
1
10
115.986446137979
20
-19.1291855404235
30
0
41
1
10
116.013314887323
20
-19.1395108466641
30
0
41
1
10
116.031800137139
20
-19.1447619357582
30
0
41
1
10
116.069961889963
20
-19.1518688131932
30
0
41
1
10
116.089267492394
20
-19.1536461763626
30
0
41
1
10
116.108651333474
20
-19.1536159875367
30
0
0
SPLINE
5
188
100
AcDbEntity
8
1
62
256
6
ByLayer
370
13
48
1
60
0
100
AcDbSpline
70
4
71
3
72
8
73
4
40
0
40
0
40
0
40
0
40
1
40
1
40
1
40
1
41
1
10
119.521598579225
20
-19.9936118452925
30
0
41
1
10
119.477764265844
20
-19.7119096945561
30
0
41
1
10
119.433929952464
20
-19.4302075438197
30
0
41
1
10
119.390095639083
20
-19.1485053930832
30
0
0
SPLINE
5
189
100
AcDbEntity
8
1
62
256
6
ByLayer
370
13
48
1
60
0
100
AcDbSpline
70
4
71
3
72
8
73
4
40
0
40
0
40
0
40
0
40
1
40
1
40
1
40
1
41
1
10
119.68685205422
20
-18.8677545288526
30
0
41
1
10
119.791210230089
20
-19.0805645765663
30
0
41
1
10
119.895568405958
20
-19.2933746242799
30
0
41
1
10
119.999926581827
20
-19.5061846719935
30
0
0
SPLINE
5
18A
100
AcDbEntity
8
1
62
256
6
ByLayer
370
18
48
1
60
0
100
AcDbSpline
70
4
71
3
72
28
73
24
40
0
40
0
40
0
40
0
40
0.125000000000021
40
0.125000000000021
40
0.18750000000002
40
0.18750000000002
40
0.250000000000018
40
0.250000000000018
40
0.375000000000003
40
0.375000000000003
40
0.437500000000001
40
0.437500000000001
40
0.499999999999999
40
0.499999999999999
40
0.625000000000005
40
0.625000000000005
40
0.687499999999986
40
0.687499999999986
40
0.749999999999966
40
0.749999999999966
40
0.874999999999983
40
0.874999999999983
40
1
40
1
40
1
40
1
41
1
10
119.999926581827
20
19.5132406545733
30
0
41
1
10
119.999925100903
20
19.545187486495
30
0
41
1
10
119.996929197632
20
19.576622696202
30
0
41
1
10
119.988068154211
20
19.6230293399105
30
0
41
1
10
119.984381604449
20
19.6383730043838
30
0
41
1
10
119.975502284074
20
19.6688029828462
30
0
41
1
10
119.970275151594
20
19.6839618389085
30
0
41
1
10
119.952592098856
20
19.7281467134894
30
0
41
1
10
119.938126048321
20
19.7560957853612
30
0
41
1
10
119.912430335195
20
19.7957690417538
30
0
41
1
10
119.903194516314
20
19.8086158823106
30
0
41
1
10
119.88332704778
20
19.8335236252719
30
0
41
1
10
119.87280016818
20
19.8454451555613
30
0
41
1
10
119.839773428879
20
19.8793218974151
30
0
41
1
10
119.815724464468
20
19.8995540533888
30
0
41
1
10
119.776555798334
20
19.9263175956221
30
0
41
1
10
119.762905313184
20
19.9346717916693
30
0
41
1
10
119.735101568096
20
19.9498174479501
30
0
41
1
10
119.720909496015
20
19.9566455186053
30
0
41
1
10
119.677482758429
20
19.9749469836961
30
0
41
1
10
119.647360056943
20
19.9842676717745
30
0
41
1
10
119.584961033282
20
19.9968657693057
30
0
41
1
10
119.553439340045
20
20
30
0
41
1
10
119.521598579225
20
20
30
0
0
LINE
5
85
100
AcDbEntity
8
4
62
256
6
ByLayer
370
18
48
0.05
60
0
100
AcDbLine
10
130
20
0
30
0
11
49
21
0
31
0
39
0
210
0
220
0
230
1
0
LINE
5
87
100
AcDbEntity
8
SK4
62
256
6
ByLayer
370
18
48
0.05
60
0
100
AcDbLine
10
130
20
0
30
0
11
-10
21
0
31
0
39
0
210
0
220
0
230
1
0
LINE
5
89
100
AcDbEntity
8
1
62
256
6
ByLayer
370
18
48
1
60
0
100
AcDbLine
10
114.609904
20
3.054245
30
0
11
117.891349
21
3.341323
31
0
39
0
210
0
220
0
230
1
0
LINE
5
8B
100
AcDbEntity
8
1
62
256
6
ByLayer
370
18
48
1
60
0
100
AcDbLine
10
114.478401
20
-0.358842
30
0
11
118.612153
21
0.0028
31
0
39
0
210
0
220
0
230
1
0
LINE
5
8C
100
AcDbEntity
8
1
62
256
6
ByLayer
370
18
48
1
60
0
100
AcDbLine
10
119.090555
20
0.063083
30
0
11
118.840036
21
0.978176
31
0
39
0
210
0
220
0
230
1
0
LINE
5
8D
100
AcDbEntity
8
1
62
256
6
ByLayer
370
18
48
1
60
0
100
AcDbLine
10
118.605138
20
1.836211
30
0
11
118.320357
21
2.876456
31
0
39
0
210
0
220
0
230
1
0
LINE
5
8E
100
AcDbEntity
8
1
62
256
6
ByLayer
370
18
48
1
60
0
100
AcDbLine
10
118.320357
20
2.876456
30
0
11
118.201136
21
3.295869
31
0
39
0
210
0
220
0
230
1
0
LINE
5
8F
100
AcDbEntity
8
1
62
256
6
ByLayer
370
18
48
1
60
0
100
AcDbLine
10
119.090481
20
0.048979
30
0
11
119.090555
21
0.063083
31
0
39
0
210
0
220
0
230
1
0
LINE
5
90
100
AcDbEntity
8
1
62
256
6
ByLayer
370
18
48
1
60
0
100
AcDbLine
10
114
20
-0.382265
30
0
11
114.271126
21
2.522208
31
0
39
0
210
0
220
0
230
1
0
LINE
5
91
100
AcDbEntity
8
1
62
256
6
ByLayer
370
18
48
1
60
0
100
AcDbLine
10
114.313148
20
2.955727
30
0
11
114.271126
21
2.522208
31
0
39
0
210
0
220
0
230
1
0
LINE
5
92
100
AcDbEntity
8
1
62
256
6
ByLayer
370
18
48
1
60
0
100
AcDbLine
10
114
20
-0.382265
30
0
11
114.000073
21
-0.396356
31
0
39
0
210
0
220
0
230
1
0
LINE
5
93
100
AcDbEntity
8
1
62
256
6
ByLayer
370
18
48
1
60
0
100
AcDbLine
10
114.124067
20
-1.753009
30
0
11
119.214622
21
-1.307661
31
0
39
0
210
0
220
0
230
1
0
LINE
5
94
100
AcDbEntity
8
1
62
256
6
ByLayer
370
18
48
1
60
0
100
AcDbLine
10
114.124067
20
-1.753009
30
0
11
114
21
-0.382265
31
0
39
0
210
0
220
0
230
1
0
LINE
5
95
100
AcDbEntity
8
1
62
256
6
ByLayer
370
18
48
1
60
0
100
AcDbLine
10
119.090555
20
0.063083
30
0
11
119.214622
21
-1.307661
31
0
39
0
210
0
220
0
230
1
0
LINE
5
96
100
AcDbEntity
8
1
62
256
6
ByLayer
370
18
48
1
60
0
100
AcDbLine
10
119.214622
20
-1.307661
30
0
11
119.283566
21
-2.084311
31
0
39
0
210
0
220
0
230
1
0
LINE
5
97
100
AcDbEntity
8
1
62
256
6
ByLayer
370
18
48
1
60
0
100
AcDbLine
10
118.82645
20
-2.364849
30
0
11
114.692698
21
-2.726491
31
0
39
0
210
0
220
0
230
1
0
LINE
5
98
100
AcDbEntity
8
1
62
256
6
ByLayer
370
18
48
1
60
0
100
AcDbLine
10
114.193158
20
-2.529646
30
0
11
114.124067
21
-1.753009
31
0
39
0
210
0
220
0
230
1
0
LINE
5
99
100
AcDbEntity
8
1
62
256
6
ByLayer
370
18
48
1
60
0
100
AcDbLine
10
119.6
20
0.291045
30
0
11
119.041534
21
0.242187
31
0
39
0
210
0
220
0
230
1
0
LINE
5
9A
100
AcDbEntity
8
1
62
256
6
ByLayer
370
18
48
1
60
0
100
AcDbLine
10
118.759015
20
1.263195
30
0
11
118.753289
21
1.326454
31
0
39
0
210
0
220
0
230
1
0
LINE
5
9B
100
AcDbEntity
8
1
62
256
6
ByLayer
370
18
48
1
60
0
100
AcDbLine
10
119.6
20
0.291045
30
0
11
119.6
21
1.146514
31
0
39
0
210
0
220
0
230
1
0
LINE
5
9C
100
AcDbEntity
8
1
62
256
6
ByLayer
370
18
48
1
60
0
100
AcDbLine
10
118.635711
20
1.714495
30
0
11
118.625621
21
1.825972
31
0
39
0
210
0
220
0
230
1
0
LINE
5
9D
100
AcDbEntity
8
1
62
256
6
ByLayer
370
18
48
1
60
0
100
AcDbLine
10
118.416326
20
2.525913
30
0
11
118.345826
21
3.304827
31
0
39
0
210
0
220
0
230
1
0
LINE
5
9E
100
AcDbEntity
8
1
62
256
6
ByLayer
370
18
48
1
60
0
100
AcDbLine
10
118.613823
20
2.002749
30
0
11
118.544027
21
2.059429
31
0
39
0
210
0
220
0
230
1
0
LINE
5
9F
100
AcDbEntity
8
1
62
256
6
ByLayer
370
18
48
1
60
0
100
AcDbLine
10
118.4
20
-5.143496
30
0
11
115.6
21
-5.209891
31
0
39
0
210
0
220
0
230
1
0
LINE
5
A0
100
AcDbEntity
8
1
62
256
6
ByLayer
370
18
48
1
60
0
100
AcDbLine
10
115.5
20
-5.337979
30
0
11
115.5
21
-8.098922
31
0
39
0
210
0
220
0
230
1
0
LINE
5
A1
100
AcDbEntity
8
1
62
256
6
ByLayer
370
18
48
1
60
0
100
AcDbLine
10
118.5
20
-8.161239
30
0
11
118.5
21
-5.266842
31
0
39
0
210
0
220
0
230
1
0
LINE
5
A2
100
AcDbEntity
8
1
62
256
6
ByLayer
370
13
48
1
60
0
100
AcDbLine
10
119.6
20
-4.29776
30
0
11
114.4
21
-4.752683
31
0
39
0
210
0
220
0
230
1
0
LINE
5
A3
100
AcDbEntity
8
1
62
256
6
ByLayer
370
18
48
1
60
0
100
AcDbLine
10
114.4
20
-4.752683
30
0
11
114.4
21
-13.166304
31
0
39
0
210
0
220
0
230
1
0
LINE
5
A4
100
AcDbEntity
8
1
62
256
6
ByLayer
370
18
48
1
60
0
100
AcDbLine
10
119.6
20
-13.073631
30
0
11
119.6
21
-4.29776
31
0
39
0
210
0
220
0
230
1
0
LINE
5
A5
100
AcDbEntity
8
1
62
256
6
ByLayer
370
18
48
1
60
0
100
AcDbLine
10
119.178963
20
-0.913868
30
0
11
119.6
21
-0.877033
31
0
39
0
210
0
220
0
230
1
0
LINE
5
A6
100
AcDbEntity
8
1
62
256
6
ByLayer
370
18
48
1
60
0
100
AcDbLine
10
114.4
20
-3.761659
30
0
11
119.6
21
-3.306736
31
0
39
0
210
0
220
0
230
1
0
LINE
5
A7
100
AcDbEntity
8
1
62
256
6
ByLayer
370
18
48
1
60
0
100
AcDbLine
10
114.4
20
-2.700144
30
0
11
114.4
21
-3.761659
31
0
39
0
210
0
220
0
230
1
0
LINE
5
A8
100
AcDbEntity
8
1
62
256
6
ByLayer
370
18
48
1
60
0
100
AcDbLine
10
119.6
20
-3.306736
30
0
11
119.6
21
-0.877033
31
0
39
0
210
0
220
0
230
1
0
LINE
5
A9
100
AcDbEntity
8
1
62
256
6
ByLayer
370
13
48
1
60
0
100
AcDbLine
10
114.4
20
-3.774219
30
0
11
119.6
21
-3.319296
31
0
39
0
210
0
220
0
230
1
0
LINE
5
AA
100
AcDbEntity
8
1
62
256
6
ByLayer
370
18
48
1
60
0
100
AcDbLine
10
114.4
20
-3.761659
30
0
11
114.4
21
-3.774219
31
0
39
0
210
0
220
0
230
1
0
LINE
5
AB
100
AcDbEntity
8
1
62
256
6
ByLayer
370
18
48
1
60
0
100
AcDbLine
10
119.6
20
-3.319296
30
0
11
119.6
21
-3.306736
31
0
39
0
210
0
220
0
230
1
0
LINE
5
AC
100
AcDbEntity
8
1
62
256
6
ByLayer
370
13
48
1
60
0
100
AcDbLine
10
118.4
20
-6.750985
30
0
11
118.4
21
-5.143496
31
0
39
0
210
0
220
0
230
1
0
LINE
5
AD
100
AcDbEntity
8
1
62
256
6
ByLayer
370
13
48
1
60
0
100
AcDbLine
10
115.6
20
-5.209891
30
0
11
115.6
21
-6.750985
31
0
39
0
210
0
220
0
230
1
0
LINE
5
AE
100
AcDbEntity
8
1
62
256
6
ByLayer
370
18
48
1
60
0
100
AcDbLine
10
119.17555
20
-0.876487
30
0
11
119.6
21
-0.839353
31
0
39
0
210
0
220
0
230
1
0
LINE
5
AF
100
AcDbEntity
8
1
62
256
6
ByLayer
370
18
48
1
60
0
100
AcDbLine
10
119.6
20
-0.839353
30
0
11
119.6
21
0.29102
31
0
39
0
210
0
220
0
230
1
0
LINE
5
B0
100
AcDbEntity
8
1
62
256
6
ByLayer
370
18
48
1
60
0
100
AcDbLine
10
119.6
20
-0.877033
30
0
11
119.6
21
-0.839353
31
0
39
0
210
0
220
0
230
1
0
LINE
5
B1
100
AcDbEntity
8
1
62
256
6
ByLayer
370
18
48
1
60
0
100
AcDbLine
10
89.1
20
-7.9955
30
0
11
89.178965
21
-7.93088
31
0
39
0
210
0
220
0
230
1
0
LINE
5
B2
100
AcDbEntity
8
1
62
256
6
ByLayer
370
18
48
1
60
0
100
AcDbLine
10
89.178965
20
7.93088
30
0
11
89.1
21
7.9955
31
0
39
0
210
0
220
0
230
1
0
LINE
5
B3
100
AcDbEntity
8
1
62
256
6
ByLayer
370
18
48
1
60
0
100
AcDbLine
10
113.6
20
7.75
30
0
11
89.685612
21
7.75
31
0
39
0
210
0
220
0
230
1
0
LINE
5
B4
100
AcDbEntity
8
1
62
256
6
ByLayer
370
18
48
1
60
0
100
AcDbLine
10
89.685612
20
-7.75
30
0
11
113.6
21
-7.75
31
0
39
0
210
0
220
0
230
1
0
LINE
5
B5
100
AcDbEntity
8
1
62
256
6
ByLayer
370
18
48
1
60
0
100
AcDbLine
10
114.4
20
14.782142
30
0
11
114.835945
21
14.782142
31
0
39
0
210
0
220
0
230
1
0
LINE
5
B6
100
AcDbEntity
8
1
62
256
6
ByLayer
370
18
48
1
60
0
100
AcDbLine
10
114.4
20
14.264504
30
0
11
114.82386
21
14.264504
31
0
39
0
210
0
220
0
230
1
0
LINE
5
B7
100
AcDbEntity
8
1
62
256
6
ByLayer
370
18
48
1
60
0
100
AcDbLine
10
114.4
20
14.264504
30
0
11
114.4
21
14.782142
31
0
39
0
210
0
220
0
230
1
0
LINE
5
B8
100
AcDbEntity
8
1
62
256
6
ByLayer
370
18
48
1
60
0
100
AcDbLine
10
114.4
20
14.782142
30
0
11
114.4
21
18.071635
31
0
39
0
210
0
220
0
230
1
0
LINE
5
B9
100
AcDbEntity
8
1
62
256
6
ByLayer
370
18
48
1
60
0
100
AcDbLine
10
114.4
20
12.660765
30
0
11
114.4
21
14.264504
31
0
39
0
210
0
220
0
230
1
0
LINE
5
BA
100
AcDbEntity
8
1
62
256
6
ByLayer
370
18
48
1
60
0
100
AcDbLine
10
119.569148
20
12.616856
30
0
11
119.875933
21
12.616856
31
0
39
0
210
0
220
0
230
1
0
LINE
5
BB
100
AcDbEntity
8
1
62
256
6
ByLayer
370
18
48
1
60
0
100
AcDbLine
10
119.875933
20
12.616856
30
0
11
119.806842
21
11.245251
31
0
39
0
210
0
220
0
230
1
0
LINE
5
BC
100
AcDbEntity
8
1
62
256
6
ByLayer
370
18
48
1
60
0
100
AcDbLine
10
120
20
17.929448
30
0
11
119.875933
21
12.616856
31
0
39
0
210
0
220
0
230
1
0
LINE
5
BD
100
AcDbEntity
8
1
62
256
6
ByLayer
370
18
48
1
60
0
100
AcDbLine
10
114.791537
20
12.880576
30
0
11
114.909445
21
17.929448
31
0
39
0
210
0
220
0
230
1
0
LINE
5
BE
100
AcDbEntity
8
1
62
256
6
ByLayer
370
18
48
1
60
0
100
AcDbLine
10
114.909445
20
17.929448
30
0
11
120
21
17.929448
31
0
39
0
210
0
220
0
230
1
0
LINE
5
BF
100
AcDbEntity
8
1
62
256
6
ByLayer
370
18
48
1
60
0
100
AcDbLine
10
119.999927
20
19.513241
30
0
11
120
21
17.929448
31
0
39
0
210
0
220
0
230
1
0
LINE
5
C0
100
AcDbEntity
8
1
62
256
6
ByLayer
370
18
48
1
60
0
100
AcDbLine
10
114.909445
20
17.929448
30
0
11
114.909519
21
19.513241
31
0
39
0
210
0
220
0
230
1
0
LINE
5
C1
100
AcDbEntity
8
1
62
256
6
ByLayer
370
18
48
1
60
0
100
AcDbLine
10
115.387847
20
20
30
0
11
119.521599
21
20
31
0
39
0
210
0
220
0
230
1
0
LINE
5
C2
100
AcDbEntity
8
1
62
256
6
ByLayer
370
18
48
1
60
0
100
AcDbLine
10
115.98698
20
14.664624
30
0
11
116.032122
21
14.52584
31
0
39
0
210
0
220
0
230
1
0
LINE
5
C3
100
AcDbEntity
8
1
62
256
6
ByLayer
370
18
48
1
60
0
100
AcDbLine
10
118.932546
20
15.46926
30
0
11
118.887404
21
15.608044
31
0
39
0
210
0
220
0
230
1
0
LINE
5
C4
100
AcDbEntity
8
1
62
256
6
ByLayer
370
13
48
1
60
0
100
AcDbLine
10
118.093891
20
14.457527
30
0
11
118.084305
21
14.486997
31
0
39
0
210
0
220
0
230
1
0
LINE
5
C5
100
AcDbEntity
8
1
62
256
6
ByLayer
370
13
48
1
60
0
100
AcDbLine
10
116.812222
20
14.34247
30
0
11
116.765212
21
14.486997
31
0
39
0
210
0
220
0
230
1
0
LINE
5
C6
100
AcDbEntity
8
1
62
256
6
ByLayer
370
18
48
1
60
0
100
AcDbLine
10
118.06297
20
14.519668
30
0
11
118.089594
21
14.437816
31
0
39
0
210
0
220
0
230
1
0
LINE
5
C7
100
AcDbEntity
8
1
62
256
6
ByLayer
370
13
48
1
60
0
100
AcDbLine
10
118.091448
20
14.445107
30
0
11
118.073707
21
14.49965
31
0
39
0
210
0
220
0
230
1
0
LINE
5
C8
100
AcDbEntity
8
1
62
256
6
ByLayer
370
13
48
1
60
0
100
AcDbLine
10
118.427381
20
15.117295
30
0
11
118.347924
21
15.361577
31
0
39
0
210
0
220
0
230
1
0
LINE
5
C9
100
AcDbEntity
8
1
62
256
6
ByLayer
370
18
48
1
60
0
100
AcDbLine
10
116.862858
20
14.423306
30
0
11
116.789862
21
14.647723
31
0
39
0
210
0
220
0
230
1
0
LINE
5
CA
100
AcDbEntity
8
1
62
256
6
ByLayer
370
13
48
1
60
0
100
AcDbLine
10
116.836959
20
14.31985
30
0
11
116.778476
21
14.49965
31
0
39
0
210
0
220
0
230
1
0
LINE
5
CB
100
AcDbEntity
8
1
62
256
6
ByLayer
370
13
48
1
60
0
100
AcDbLine
10
116.6219
20
15.117295
30
0
11
116.542443
21
15.361577
31
0
39
0
210
0
220
0
230
1
0
LINE
5
CC
100
AcDbEntity
8
1
62
256
6
ByLayer
370
18
48
1
60
0
100
AcDbLine
10
118.407406
20
15.115091
30
0
11
118.427381
21
15.117295
31
0
39
0
210
0
220
0
230
1
0
LINE
5
CD
100
AcDbEntity
8
1
62
256
6
ByLayer
370
13
48
1
60
0
100
AcDbLine
10
118.407406
20
15.115091
30
0
11
118.328916
21
15.356398
31
0
39
0
210
0
220
0
230
1
0
LINE
5
CE
100
AcDbEntity
8
1
62
256
6
ByLayer
370
18
48
1
60
0
100
AcDbLine
10
118.102493
20
15.569695
30
0
11
118.175537
21
15.34513
31
0
39
0
210
0
220
0
230
1
0
LINE
5
CF
100
AcDbEntity
8
1
62
256
6
ByLayer
370
13
48
1
60
0
100
AcDbLine
10
117.782816
20
15.758799
30
0
11
117.703358
21
16.00308
31
0
39
0
210
0
220
0
230
1
0
LINE
5
D0
100
AcDbEntity
8
1
62
256
6
ByLayer
370
18
48
1
60
0
100
AcDbLine
10
116.898202
20
15.486181
30
0
11
116.820978
21
15.723595
31
0
39
0
210
0
220
0
230
1
0
LINE
5
D1
100
AcDbEntity
8
1
62
256
6
ByLayer
370
13
48
1
60
0
100
AcDbLine
10
116.641773
20
15.115091
30
0
11
116.563283
21
15.356398
31
0
39
0
210
0
220
0
230
1
0
LINE
5
D2
100
AcDbEntity
8
1
62
256
6
ByLayer
370
13
48
1
60
0
100
AcDbLine
10
117.296428
20
15.758799
30
0
11
117.21697
21
16.00308
31
0
39
0
210
0
220
0
230
1
0
LINE
5
D3
100
AcDbEntity
8
1
62
256
6
ByLayer
370
18
48
1
60
0
100
AcDbLine
10
116.6219
20
15.117295
30
0
11
116.641773
21
15.115091
31
0
39
0
210
0
220
0
230
1
0
LINE
5
D4
100
AcDbEntity
8
1
62
256
6
ByLayer
370
13
48
1
60
0
100
AcDbLine
10
117.774406
20
15.740966
30
0
11
117.695916
21
15.982273
31
0
39
0
210
0
220
0
230
1
0
LINE
5
D5
100
AcDbEntity
8
1
62
256
6
ByLayer
370
13
48
1
60
0
100
AcDbLine
10
117.304005
20
15.740966
30
0
11
117.225515
21
15.982273
31
0
39
0
210
0
220
0
230
1
0
LINE
5
D6
100
AcDbEntity
8
1
62
256
6
ByLayer
370
18
48
1
60
0
100
AcDbLine
10
117.774406
20
15.740966
30
0
11
117.782816
21
15.758799
31
0
39
0
210
0
220
0
230
1
0
LINE
5
D7
100
AcDbEntity
8
1
62
256
6
ByLayer
370
18
48
1
60
0
100
AcDbLine
10
117.296428
20
15.758799
30
0
11
117.304005
21
15.740966
31
0
39
0
210
0
220
0
230
1
0
LINE
5
D8
100
AcDbEntity
8
1
62
256
6
ByLayer
370
13
48
1
60
0
100
AcDbLine
10
116.814342
20
-0.40103
30
0
11
116.823878
21
-0.510285
31
0
39
0
210
0
220
0
230
1
0
LINE
5
D9
100
AcDbEntity
8
1
62
256
6
ByLayer
370
13
48
1
60
0
100
AcDbLine
10
116.327941
20
-0.443425
30
0
11
116.33749
21
-0.552837
31
0
39
0
210
0
220
0
230
1
0
LINE
5
DA
100
AcDbEntity
8
1
62
256
6
ByLayer
370
13
48
1
60
0
100
AcDbLine
10
116.335895
20
-0.44245
30
0
11
116.344099
21
-0.53645
31
0
39
0
210
0
220
0
230
1
0
LINE
5
DB
100
AcDbEntity
8
1
62
256
6
ByLayer
370
13
48
1
60
0
100
AcDbLine
10
116.806309
20
-0.401437
30
0
11
116.814501
21
-0.495297
31
0
39
0
210
0
220
0
230
1
0
LINE
5
DC
100
AcDbEntity
8
1
62
256
6
ByLayer
370
18
48
1
60
0
100
AcDbLine
10
119.599999
20
-11.803231
30
0
11
119.604807
21
-11.870188
31
0
39
0
210
0
220
0
230
1
0
LINE
5
DD
100
AcDbEntity
8
1
62
256
6
ByLayer
370
18
48
1
60
0
100
AcDbLine
10
119.604807
20
-11.870188
30
0
11
119.728874
21
-17.207182
31
0
39
0
210
0
220
0
230
1
0
LINE
5
DE
100
AcDbEntity
8
1
62
256
6
ByLayer
370
18
48
1
60
0
100
AcDbLine
10
119.728874
20
-17.207182
30
0
11
119.686852
21
-18.867755
31
0
39
0
210
0
220
0
230
1
0
LINE
5
DF
100
AcDbEntity
8
1
62
256
6
ByLayer
370
18
48
1
60
0
100
AcDbLine
10
116.108651
20
-19.153616
30
0
11
119.390096
21
-19.148505
31
0
39
0
210
0
220
0
230
1
0
LINE
5
E0
100
AcDbEntity
8
1
62
256
6
ByLayer
370
18
48
1
60
0
100
AcDbLine
10
115.798864
20
-18.87381
30
0
11
115.797996
21
-18.861721
31
0
39
0
210
0
220
0
230
1
0
LINE
5
E1
100
AcDbEntity
8
1
62
256
6
ByLayer
370
18
48
1
60
0
100
AcDbLine
10
115.387847
20
-20.00005
30
0
11
119.521599
21
-19.993612
31
0
39
0
210
0
220
0
230
1
0
LINE
5
E2
100
AcDbEntity
8
1
62
256
6
ByLayer
370
18
48
1
60
0
100
AcDbLine
10
114.909492
20
-18.939881
30
0
11
114.909519
21
-19.514113
31
0
39
0
210
0
220
0
230
1
0
LINE
5
E3
100
AcDbEntity
8
1
62
256
6
ByLayer
370
18
48
1
60
0
100
AcDbLine
10
120
20
-17.922643
30
0
11
119.728874
21
-17.207182
31
0
39
0
210
0
220
0
230
1
0
LINE
5
E4
100
AcDbEntity
8
1
62
256
6
ByLayer
370
18
48
1
60
0
100
AcDbLine
10
119.999927
20
-19.506185
30
0
11
120
21
-17.922643
31
0
39
0
210
0
220
0
230
1
0
LINE
5
E5
100
AcDbEntity
8
1
62
256
6
ByLayer
370
18
48
1
60
0
100
AcDbLine
10
120
20
-17.922643
30
0
11
119.875933
21
-12.585648
31
0
39
0
210
0
220
0
230
1
0
LINE
5
E6
100
AcDbEntity
8
1
62
256
6
ByLayer
370
18
48
1
60
0
100
AcDbLine
10
119.875933
20
-12.585648
30
0
11
119.604807
21
-11.870188
31
0
39
0
210
0
220
0
230
1
0
LINE
5
E7
100
AcDbEntity
8
1
62
256
6
ByLayer
370
18
48
1
60
0
100
AcDbLine
10
119.875933
20
-12.585648
30
0
11
119.806842
21
-11.200218
31
0
39
0
210
0
220
0
230
1
0
LINE
5
E8
100
AcDbEntity
8
1
62
256
6
ByLayer
370
18
48
1
60
0
100
AcDbLine
10
89.1
20
7.9955
30
0
11
49
21
7.9955
31
0
39
0
210
0
220
0
230
1
0
LINE
5
E9
100
AcDbEntity
8
1
62
256
6
ByLayer
370
18
48
1
60
0
100
AcDbLine
10
49
20
-7.9955
30
0
11
89.1
21
-7.9955
31
0
39
0
210
0
220
0
230
1
0
LINE
5
EA
100
AcDbEntity
8
SK1
62
256
6
ByLayer
370
18
48
1
60
0
100
AcDbLine
10
49
20
7.9955
30
0
11
1
21
7.9955
31
0
39
0
210
0
220
0
230
1
0
LINE
5
EC
100
AcDbEntity
8
SK1
62
256
6
ByLayer
370
18
48
1
60
0
100
AcDbLine
10
1
20
-7.9955
30
0
11
49
21
-7.9955
31
0
39
0
210
0
220
0
230
1
0
LINE
5
ED
100
AcDbEntity
8
SK1
62
256
6
ByLayer
370
18
48
1
60
0
100
AcDbLine
10
1
20
7.9955
30
0
11
0
21
6.9955
31
0
39
0
210
0
220
0
230
1
0
LINE
5
EE
100
AcDbEntity
8
SK1
62
256
6
ByLayer
370
18
48
1
60
0
100
AcDbLine
10
0
20
-6.9955
30
0
11
1
21
-7.9955
31
0
39
0
210
0
220
0
230
1
0
LINE
5
EF
100
AcDbEntity
8
80
62
256
6
ByLayer
370
18
48
1
60
0
100
AcDbLine
10
0
20
0
30
0
11
-10
21
0
31
0
39
0
210
0
220
0
230
1
0
LINE
5
F0
100
AcDbEntity
8
81
62
256
6
ByLayer
370
18
48
1
60
0
100
AcDbLine
10
120
20
0
30
0
11
130
21
0
31
0
39
0
210
0
220
0
230
1
0
LINE
5
F1
100
AcDbEntity
8
1
62
256
6
ByLayer
370
13
48
1
60
0
100
AcDbLine
10
113.6
20
-7.75
30
0
11
113.6
21
7.75
31
0
39
0
210
0
220
0
230
1
0
LINE
5
F2
100
AcDbEntity
8
SK1
62
256
6
ByLayer
370
18
48
1
60
0
100
AcDbLine
10
0
20
6.9955
30
0
11
0
21
-6.9955
31
0
39
0
210
0
220
0
230
1
0
LINE
5
F3
100
AcDbEntity
8
1
62
256
6
ByLayer
370
13
48
1
60
0
100
AcDbLine
10
118.6
20
2.119099
30
0
11
118.6
21
12.875478
31
0
39
0
210
0
220
0
230
1
0
LINE
5
F4
100
AcDbEntity
8
1
62
256
6
ByLayer
370
18
48
1
60
0
100
AcDbLine
10
119.6
20
12.564262
30
0
11
119.6
21
1.146514
31
0
39
0
210
0
220
0
230
1
0
LINE
5
F5
100
AcDbEntity
8
1
62
256
6
ByLayer
370
13
48
1
60
0
100
AcDbLine
10
115.4
20
12.93554
30
0
11
115.4
21
3.123398
31
0
39
0
210
0
220
0
230
1
0
LINE
5
F6
100
AcDbEntity
8
1
62
256
6
ByLayer
370
18
48
1
60
0
100
AcDbLine
10
114.4
20
3.015821
30
0
11
114.4
21
12.660732
31
0
39
0
210
0
220
0
230
1
0
LINE
5
F7
100
AcDbEntity
8
1
62
256
6
ByLayer
370
18
48
1
60
0
100
AcDbLine
10
119.6
20
-13.073631
30
0
11
119.6
21
-17.936716
31
0
39
0
210
0
220
0
230
1
0
LINE
5
F8
100
AcDbEntity
8
1
62
256
6
ByLayer
370
13
48
1
60
0
100
AcDbLine
10
118.6
20
-18.899121
30
0
11
118.6
21
-14.193037
31
0
39
0
210
0
220
0
230
1
0
LINE
5
F9
100
AcDbEntity
8
1
62
256
6
ByLayer
370
13
48
1
60
0
100
AcDbLine
10
115.4
20
-14.247451
30
0
11
115.4
21
-19.019175
31
0
39
0
210
0
220
0
230
1
0
LINE
5
FA
100
AcDbEntity
8
1
62
256
6
ByLayer
370
18
48
1
60
0
100
AcDbLine
10
114.4
20
-18.092046
30
0
11
114.4
21
-13.166304
31
0
39
0
210
0
220
0
230
1
0
LINE
5
FB
100
AcDbEntity
8
1
62
256
6
ByLayer
370
13
48
1
60
0
100
AcDbLine
10
89.178965
20
-7.93088
30
0
11
89.178965
21
7.93088
31
0
39
0
210
0
220
0
230
1
0
LINE
5
FC
100
AcDbEntity
8
SK1
62
256
6
ByLayer
370
18
48
1
60
0
100
AcDbLine
10
49
20
-7.9955
30
0
11
49
21
7.9955
31
0
39
0
210
0
220
0
230
1
0
LINE
5
FD
100
AcDbEntity
8
1
62
256
6
ByLayer
370
18
48
1
60
0
100
AcDbLine
10
89.1
20
7.9955
30
0
11
89.1
21
-7.9955
31
0
39
0
210
0
220
0
230
1
0
LINE
5
FE
100
AcDbEntity
8
SK1
62
256
6
ByLayer
370
18
48
1
60
0
100
AcDbLine
10
1
20
7.9955
30
0
11
1
21
-7.9955
31
0
39
0
210
0
220
0
230
1
0
LINE
5
FF
100
AcDbEntity
8
1
62
256
6
ByLayer
370
18
48
1
60
0
100
AcDbLine
10
49
20
-7.9955
30
0
11
49
21
7.9955
31
0
39
0
210
0
220
0
230
1
0
LINE
5
100
100
AcDbEntity
8
1
62
256
6
ByLayer
370
13
48
1
60
0
100
AcDbLine
10
115.81007
20
15.068689
30
0
11
115.810066
21
15.068532
31
0
39
0
210
0
220
0
230
1
0
LINE
5
101
100
AcDbEntity
8
1
62
256
6
ByLayer
370
13
48
1
60
0
100
AcDbLine
10
89.685612
20
7.75
30
0
11
89.685612
21
-7.75
31
0
39
0
210
0
220
0
230
1
0
LINE
5
102
100
AcDbEntity
8
1
62
256
6
ByLayer
370
18
48
1
60
0
100
AcDbLine
10
114.4
20
-3.774219
30
0
11
114.4
21
-4.752683
31
0
39
0
210
0
220
0
230
1
0
LINE
5
103
100
AcDbEntity
8
1
62
256
6
ByLayer
370
18
48
1
60
0
100
AcDbLine
10
119.6
20
-4.29776
30
0
11
119.6
21
-3.319296
31
0
39
0
210
0
220
0
230
1
0
MTEXT
5
18B
100
AcDbEntity
8
SK6
62
256
6
ByLayer
370
18
48
1
60
0
100
AcDbMText
10
55.253947
20
-44.375
30
0
210
0
220
0
230
1
1
\W0.7626;R331.35C-040A16CM060
40
3.5
41
0
44
1.084337
50
0
71
7
72
5
7
iso_b_vert
0
DIMENSION
5
19C
100
AcDbEntity
8
2
62
256
6
ByLayer
370
13
48
1
60
0
100
AcDbDimension
2
DimnDraft3D1
10
120
20
38.378981
30
0
11
85.917105
21
38.378981
31
0
70
32
71
5
72
1
41
1
210
0
220
0
230
1
3
Standard
100
AcDbAlignedDimension
13
49
23
9.5875
33
0
14
120
24
21.5875
34
0
50
0
100
AcDbRotatedDimension
1001
ACAD
1000
DSTYLE
1002
{
1070
   279
1070
     0
1070
   172
1070
     1
1070
   173
1070
     1
1070
   340
1005
18C
1070
   271
1070
     2
1070
   272
1070
     3
1070
    77
1070
     1
1070
    73
1070
     0
1070
   171
1070
     3
1070
   274
1070
     4
1070
   177
1070
     2
1070
   176
1070
     2
1070
   178
1070
     7
1070
    78
1070
     8
1070
    48
1040
-0.005
1070
    41
1041
3.5
1070
   147
1041
1.5
1070
    42
1041
1.5875
1070
    44
1041
2.0
1070
   140
1041
3.0
1070
   343
1005
19D
1070
   344
1005
19D
1002
}
0
DIMENSION
5
1B2
100
AcDbEntity
8
SK2
62
256
6
ByLayer
370
13
48
1
60
0
100
AcDbDimension
2
DimnDraft3D2
10
0
20
48.378981
30
0
11
62.538158
21
48.378981
31
0
70
32
71
5
72
1
41
1
210
0
220
0
230
1
3
Standard
100
AcDbAlignedDimension
13
120
23
20.476956
33
0
14
0
24
0.476956
34
0
50
0
100
AcDbRotatedDimension
1001
ACAD
1000
DSTYLE
1002
{
1070
   279
1070
     0
1070
   172
1070
     1
1070
   173
1070
     1
1070
   340
1005
18C
1070
   271
1070
     3
1070
   272
1070
     3
1070
    77
1070
     1
1070
    73
1070
     0
1070
   171
1070
     3
1070
   274
1070
     4
1070
   177
1070
     2
1070
   176
1070
     2
1070
   178
1070
     7
1070
    78
1070
     8
1070
    48
1040
-0.005
1070
    41
1041
0.953912
1070
   147
1041
1.5
1070
    42
1041
0.476956
1070
    44
1041
0.953912
1070
   140
1041
3.0
1070
   343
1005
19D
1070
   344
1005
19D
1002
}
0
DIMENSION
5
1C0
100
AcDbEntity
8
SK2
62
256
6
ByLayer
370
13
48
1
60
0
100
AcDbDimension
2
DimnDraft3D3
10
120
20
28.378981
30
0
11
117.671053
21
28.378981
31
0
70
32
71
5
72
1
41
1
210
0
220
0
230
1
3
Standard
100
AcDbAlignedDimension
13
114
23
20.476956
33
0
14
120
24
20.476956
34
0
50
0
100
AcDbRotatedDimension
1001
ACAD
1000
DSTYLE
1002
{
1070
   279
1070
     0
1070
   172
1070
     1
1070
   173
1070
     1
1070
   340
1005
18C
1070
   271
1070
     3
1070
   272
1070
     3
1070
    77
1070
     1
1070
    73
1070
     0
1070
   171
1070
     3
1070
   274
1070
     4
1070
   177
1070
     2
1070
   176
1070
     2
1070
   178
1070
     7
1070
    78
1070
     8
1070
    48
1040
-0.005
1070
    41
1041
0.953912
1070
   147
1041
1.5
1070
    42
1041
0.476956
1070
    44
1041
0.953912
1070
   140
1041
3.0
1070
   343
1005
19D
1070
   344
1005
19D
1002
}
0
DIMENSION
5
1CE
100
AcDbEntity
8
SK2
62
256
6
ByLayer
370
13
48
1
60
0
100
AcDbDimension
2
DimnDraft3D4
10
-18.35
20
-8
30
0
11
-18.35
21
1.417105
31
0
70
32
71
5
72
1
41
1
210
0
220
0
230
1
3
Standard
100
AcDbAlignedDimension
13
47.4125
23
8
33
0
14
47.4125
24
-8
34
0
50
90
100
AcDbRotatedDimension
1001
ACAD
1000
DSTYLE
1002
{
1070
    74
1070
     0
1070
   279
1070
     0
1070
   172
1070
     1
1070
   173
1070
     1
1070
   340
1005
18C
1070
   271
1070
     0
1070
   272
1070
     3
1070
    77
1070
     1
1070
    73
1070
     0
1070
   171
1070
     3
1070
   274
1070
     4
1070
   177
1070
     2
1070
   176
1070
     2
1070
   178
1070
     7
1070
    78
1070
     8
1070
    48
1040
-0.005
1070
    41
1041
3.5
1070
   147
1041
1.5
1070
    42
1041
1.5875
1070
    44
1041
2.0
1070
   140
1041
3.0
1070
   343
1005
19D
1070
   344
1005
19D
1002
}
0
DIMENSION
5
1DC
100
AcDbEntity
8
2
62
256
6
ByLayer
370
13
48
1
60
0
100
AcDbDimension
2
DimnDraft3D5
10
144.35
20
-20
30
0
11
144.35
21
1.95
31
0
70
32
71
5
72
1
41
1
210
0
220
0
230
1
3
Standard
100
AcDbAlignedDimension
13
121.5875
23
20
33
0
14
121.5875
24
-20
34
0
50
90
100
AcDbRotatedDimension
1001
ACAD
1000
DSTYLE
1002
{
1070
    74
1070
     0
1070
   279
1070
     0
1070
   172
1070
     1
1070
   173
1070
     1
1070
   340
1005
18C
1070
   271
1070
     2
1070
   272
1070
     3
1070
    77
1070
     1
1070
    73
1070
     0
1070
   171
1070
     3
1070
   274
1070
     4
1070
   177
1070
     2
1070
   176
1070
     2
1070
   178
1070
     7
1070
    78
1070
     8
1070
    48
1040
-0.005
1070
    41
1041
3.5
1070
   147
1041
1.5
1070
    42
1041
1.5875
1070
    44
1041
2.0
1070
   140
1041
3.0
1070
   343
1005
19D
1070
   344
1005
19D
1002
}
0
ENDSEC
0
SECTION
2
OBJECTS
0
DICTIONARY
5
248
330
0
100
AcDbDictionary
280
0
281
1
3
ACAD_GROUP
350
249
3
ACAD_MLINESTYLE
350
24a
0
DICTIONARY
5
249
330
0
100
AcDbDictionary
280
0
281
1
0
DICTIONARY
5
24a
330
0
100
AcDbDictionary
280
0
281
1
3
Standard
350
18
0
MLINESTYLE
5
18
330
24a
100
AcDbMlineStyle
2
Standard
70
0
3

62
256
51
90
52
90
71
2
49
-0.5
62
256
6
ByLayer
49
0.5
62
256
6
ByLayer
0
RASTERVARIABLES
5
235
330

100
AcDbRasterVariables
90
0
70
1
71
1
72
1
0
ENDSEC
0
EOF
