0
SECTION
2
HEADER
9
$ACADVER
1
AC1015
9
$DWGCODEPAGE
3
ANSI_1252
9
$HANDSEED
5
27c
9
$ANGBASE
50
0
9
$ANGDIR
70
0
9
$ATTMODE
70
1
9
$AUNITS
70
0
9
$AUPREC
70
0
9
$CECOLOR
62
256
9
$CELTSCALE
40
1
9
$CELTYPE
6
ByLayer
9
$CELWEIGHT
370
18
9
$CLAYER
8
0
9
$CMLJUST
70
0
9
$CMLSCALE
40
1
9
$CMLSTYLE
2
Standard
9
$DIMSTYLE
2
Standard
9
$TEXTSIZE
40
0.2
9
$TEXTSTYLE
7
Standard
9
$LUNITS
70
2
9
$LUPREC
70
4
9
$EXTNAMES
290
1
9
$INSUNITS
70
4
9
$LTSCALE
40
1
9
$LWDISPLAY
290
1
9
$PDMODE
70
0
9
$PDSIZE
40
0
9
$PLINEGEN
70
0
0
ENDSEC
0
SECTION
2
CLASSES
0
CLASS
1
RASTERVARIABLES
2
AcDbRasterVariables
3
ISM
90
0
280
0
281
0
0
ENDSEC
0
SECTION
2
TABLES
0
TABLE
2
VPORT
5
272
100
AcDbSymbolTable
0
VPORT
5
1
100
AcDbSymbolTableRecord
100
AcDbViewportTableRecord
2
*Active
70
0
10
0
20
0
11
1
21
1
12
-1
22
1
13
0
23
0
14
0.5
24
0.5
15
10
25
10
16
0
26
0
36
1
17
0
27
0
37
0
0
ENDTAB
0
TABLE
2
LTYPE
5
273
100
AcDbSymbolTable
0
LTYPE
5
14
100
AcDbSymbolTableRecord
100
AcDbLinetypeTableRecord
70
0
2
ByBlock
3

72
65
73
0
40
0
0
LTYPE
5
15
100
AcDbSymbolTableRecord
100
AcDbLinetypeTableRecord
70
0
2
ByLayer
3

72
65
73
0
40
0
0
LTYPE
5
16
100
AcDbSymbolTableRecord
100
AcDbLinetypeTableRecord
70
0
2
CONTINUOUS
3
Solid line
72
65
73
0
40
0
0
LTYPE
5
6A
100
AcDbSymbolTableRecord
100
AcDbLinetypeTableRecord
70
0
2
CENTER
3
____ _ ____ _ ____ _ ____
72
65
73
4
40
47.5
49
22
74
0
49
-8.5
74
0
49
8.5
74
0
49
-8.5
74
0
0
LTYPE
5
6B
100
AcDbSymbolTableRecord
100
AcDbLinetypeTableRecord
70
0
2
DASHED
3
__ __ __ __ __ __ __ __ __
72
65
73
2
40
25.72
49
12.86
74
0
49
-12.86
74
0
0
ENDTAB
0
TABLE
2
LAYER
5
274
100
AcDbSymbolTable
0
LAYER
5
10
100
AcDbSymbolTableRecord
100
AcDbLayerTableRecord
2
0
70
0
62
7
6
CONTINUOUS
290
1
370
-3
390
0
0
LAYER
5
6D
100
AcDbSymbolTableRecord
100
AcDbLayerTableRecord
2
81
70
0
62
-3
6
CONTINUOUS
290
1
370
-3
390
0
0
LAYER
5
6F
100
AcDbSymbolTableRecord
100
AcDbLayerTableRecord
2
80
70
0
62
-6
6
CONTINUOUS
290
1
370
-3
390
0
0
LAYER
5
71
100
AcDbSymbolTableRecord
100
AcDbLayerTableRecord
2
1
70
0
62
4
6
CONTINUOUS
290
1
370
-3
390
0
0
LAYER
5
73
100
AcDbSymbolTableRecord
100
AcDbLayerTableRecord
2
2
70
0
62
7
6
CONTINUOUS
290
1
370
-3
390
0
0
LAYER
5
260
100
AcDbSymbolTableRecord
100
AcDbLayerTableRecord
2
SK6
70
0
62
5
6
CONTINUOUS
290
1
370
-3
390
0
0
LAYER
5
261
100
AcDbSymbolTableRecord
100
AcDbLayerTableRecord
2
SK2
70
0
62
7
6
CONTINUOUS
290
1
370
-3
390
0
0
ENDTAB
0
TABLE
2
STYLE
5
275
100
AcDbSymbolTable
0
STYLE
5
11
100
AcDbSymbolTableRecord
100
AcDbTextStyleTableRecord
2
Standard
3
txt
70
0
71
0
40
0
41
1
42
0
50
0
0
STYLE
5
1C4
100
AcDbSymbolTableRecord
100
AcDbTextStyleTableRecord
2
iso_b_vert
3
simplex.shx
70
0
71
0
40
0
41
1
42
0
50
0
0
STYLE
5
1C5
100
AcDbSymbolTableRecord
100
AcDbTextStyleTableRecord
2
DWGDirectTextStyle
3
simplex
70
0
71
0
40
0
41
1
42
0
50
0
0
ENDTAB
0
TABLE
2
DIMSTYLE
5
276
100
AcDbSymbolTable
100
AcDbDimStyleTable
0
DIMSTYLE
105
27
100
AcDbSymbolTableRecord
100
AcDbDimStyleTableRecord
2
Standard
70
0
3
<>
41
0.18
42
0.0625
44
0.18
140
0.18
147
0.09
73
0
74
0
77
1
271
2
275
0
278
52
280
0
340
11
0
ENDTAB
0
TABLE
2
VIEW
5
277
100
AcDbSymbolTable
0
ENDTAB
0
TABLE
2
UCS
5
278
100
AcDbSymbolTable
0
ENDTAB
0
TABLE
2
APPID
5
279
100
AcDbSymbolTable
0
APPID
5
12
100
AcDbSymbolTableRecord
100
AcDbRegAppTableRecord
2
ACAD
70
0
0
ENDTAB
0
TABLE
2
BLOCK_RECORD
5
27a
100
AcDbSymbolTable
0
BLOCK_RECORD
5
1F
100
AcDbSymbolTableRecord
100
AcDbBlockTableRecord
2
*Model_Space
340
0
70
0
0
BLOCK_RECORD
5
1B
100
AcDbSymbolTableRecord
100
AcDbBlockTableRecord
2
*Paper_Space
340
0
70
0
0
BLOCK_RECORD
5
23
100
AcDbSymbolTableRecord
100
AcDbBlockTableRecord
2
*Paper_Space0
340
0
70
0
0
BLOCK_RECORD
5
1C7
100
AcDbSymbolTableRecord
100
AcDbBlockTableRecord
2
DimnDraft3D1
340
0
70
0
0
BLOCK_RECORD
5
1D5
100
AcDbSymbolTableRecord
100
AcDbBlockTableRecord
2
_CLOSED
340
0
70
0
0
BLOCK_RECORD
5
1DC
100
AcDbSymbolTableRecord
100
AcDbBlockTableRecord
2
DimnDraft3D2
340
0
70
0
0
BLOCK_RECORD
5
1EB
100
AcDbSymbolTableRecord
100
AcDbBlockTableRecord
2
DimnDraft3D3
340
0
70
0
0
BLOCK_RECORD
5
1F9
100
AcDbSymbolTableRecord
100
AcDbBlockTableRecord
2
DimnDraft3D4
340
0
70
0
0
ENDTAB
0
ENDSEC
0
SECTION
2
BLOCKS
0
BLOCK
5
20
100
AcDbEntity
8
0
100
AcDbBlockBegin
2
*Model_Space
70
0
10
0
20
0
30
0
3
*Model_Space
0
ENDBLK
5
21
100
AcDbEntity
8
0
100
AcDbBlockEnd
0
BLOCK
5
1C
100
AcDbEntity
8
0
100
AcDbBlockBegin
2
*Paper_Space
70
0
10
0
20
0
30
0
3
*Paper_Space
0
ENDBLK
5
1D
100
AcDbEntity
8
0
100
AcDbBlockEnd
0
BLOCK
5
24
100
AcDbEntity
8
0
100
AcDbBlockBegin
2
*Paper_Space0
70
0
10
0
20
0
30
0
3
*Paper_Space0
0
ENDBLK
5
25
100
AcDbEntity
8
0
100
AcDbBlockEnd
0
BLOCK
5
1D2
100
AcDbEntity
8
0
100
AcDbBlockBegin
2
DimnDraft3D1
70
0
10
0
20
0
30
0
3
DimnDraft3D1
0
MTEXT
5
1C8
100
AcDbEntity
8
2
62
256
6
ByLayer
370
18
48
1
60
0
100
AcDbMText
10
70.225
20
7.954605
30
0
210
0
220
0
230
1
1
\W0.6563;21.5
40
3.5
41
0
44
1.084337
50
90
71
7
72
5
7
iso_b_vert
0
LINE
5
1C9
100
AcDbEntity
8
2
62
256
6
ByLayer
370
13
48
1
60
0
100
AcDbLine
10
18
20
0
30
0
11
73.1
21
0
31
0
39
0
210
0
220
0
230
1
0
LINE
5
1CA
100
AcDbEntity
8
2
62
256
6
ByLayer
370
13
48
1
60
0
100
AcDbLine
10
48
20
21.5
30
0
11
73.1
21
21.5
31
0
39
0
210
0
220
0
230
1
0
LINE
5
1CB
100
AcDbEntity
8
2
62
256
6
ByLayer
370
13
48
1
60
0
100
AcDbLine
10
71.1
20
0
30
0
11
71.1
21
21.5
31
0
39
0
210
0
220
0
230
1
0
LINE
5
1CC
100
AcDbEntity
8
2
62
256
6
ByLayer
370
13
48
1
60
0
100
AcDbLine
10
71.1
20
0
30
0
11
70.682003
21
3.174998
31
0
39
0
210
0
220
0
230
1
0
LINE
5
1CD
100
AcDbEntity
8
2
62
256
6
ByLayer
370
13
48
1
60
0
100
AcDbLine
10
71.1
20
0
30
0
11
71.517997
21
3.175002
31
0
39
0
210
0
220
0
230
1
0
LINE
5
1CE
100
AcDbEntity
8
2
62
256
6
ByLayer
370
13
48
1
60
0
100
AcDbLine
10
70.682003
20
3.174998
30
0
11
71.517997
21
3.175002
31
0
39
0
210
0
220
0
230
1
0
LINE
5
1CF
100
AcDbEntity
8
2
62
256
6
ByLayer
370
13
48
1
60
0
100
AcDbLine
10
71.1
20
21.5
30
0
11
71.517997
21
18.325002
31
0
39
0
210
0
220
0
230
1
0
LINE
5
1D0
100
AcDbEntity
8
2
62
256
6
ByLayer
370
13
48
1
60
0
100
AcDbLine
10
71.1
20
21.5
30
0
11
70.682003
21
18.324998
31
0
39
0
210
0
220
0
230
1
0
LINE
5
1D1
100
AcDbEntity
8
2
62
256
6
ByLayer
370
13
48
1
60
0
100
AcDbLine
10
71.517997
20
18.325002
30
0
11
70.682003
21
18.324998
31
0
39
0
210
0
220
0
230
1
0
ENDBLK
5
1D3
100
AcDbEntity
8
0
100
AcDbBlockEnd
0
BLOCK
5
1D6
100
AcDbEntity
8
0
100
AcDbBlockBegin
2
_CLOSED
70
0
10
0
20
0
30
0
3
_CLOSED
0
LINE
5
1D8
100
AcDbEntity
8
0
62
256
6
ByLayer
370
-2
48
1
60
0
100
AcDbLine
10
-1
20
0.166667
30
0
11
0
21
0
31
0
39
0
210
0
220
0
230
1
0
LINE
5
1D9
100
AcDbEntity
8
0
62
256
6
ByLayer
370
-2
48
1
60
0
100
AcDbLine
10
0
20
0
30
0
11
-1
21
-0.166667
31
0
39
0
210
0
220
0
230
1
0
LINE
5
1DA
100
AcDbEntity
8
0
62
256
6
ByLayer
370
-2
48
1
60
0
100
AcDbLine
10
-1
20
0.166667
30
0
11
-1
21
-0.166667
31
0
39
0
210
0
220
0
230
1
0
LINE
5
1DB
100
AcDbEntity
8
0
62
256
6
ByLayer
370
-2
48
1
60
0
100
AcDbLine
10
0
20
0
30
0
11
-1
21
0
31
0
39
0
210
0
220
0
230
1
0
ENDBLK
5
1D7
100
AcDbEntity
8
0
100
AcDbBlockEnd
0
BLOCK
5
1E8
100
AcDbEntity
8
0
100
AcDbBlockBegin
2
DimnDraft3D2
70
0
10
0
20
0
30
0
3
DimnDraft3D2
0
MTEXT
5
1DD
100
AcDbEntity
8
SK2
62
256
6
ByLayer
370
18
48
1
60
0
100
AcDbMText
10
21.6
20
46.888162
30
0
210
0
220
0
230
1
1
\W0.7361;46
40
3.5
41
0
44
1.084337
50
0
71
7
72
5
7
iso_b_vert
0
LINE
5
1DF
100
AcDbEntity
8
SK2
62
256
6
ByLayer
370
13
48
1
60
0
100
AcDbLine
10
0
20
2
30
0
11
0
21
48.013162
31
0
39
0
210
0
220
0
230
1
0
LINE
5
1E0
100
AcDbEntity
8
SK2
62
256
6
ByLayer
370
13
48
1
60
0
100
AcDbLine
10
46
20
23.5
30
0
11
46
21
48.013162
31
0
39
0
210
0
220
0
230
1
0
LINE
5
1E1
100
AcDbEntity
8
SK2
62
256
6
ByLayer
370
13
48
1
60
0
100
AcDbLine
10
0
20
46.013162
30
0
11
46
21
46.013162
31
0
39
0
210
0
220
0
230
1
0
LINE
5
1E2
100
AcDbEntity
8
SK2
62
256
6
ByLayer
370
13
48
1
60
0
100
AcDbLine
10
0
20
46.013162
30
0
11
3.174998
21
46.431159
31
0
39
0
210
0
220
0
230
1
0
LINE
5
1E3
100
AcDbEntity
8
SK2
62
256
6
ByLayer
370
13
48
1
60
0
100
AcDbLine
10
0
20
46.013162
30
0
11
3.175002
21
45.595166
31
0
39
0
210
0
220
0
230
1
0
LINE
5
1E4
100
AcDbEntity
8
SK2
62
256
6
ByLayer
370
13
48
1
60
0
100
AcDbLine
10
3.174998
20
46.431159
30
0
11
3.175002
21
45.595166
31
0
39
0
210
0
220
0
230
1
0
LINE
5
1E5
100
AcDbEntity
8
SK2
62
256
6
ByLayer
370
13
48
1
60
0
100
AcDbLine
10
46
20
46.013162
30
0
11
42.825002
21
45.595166
31
0
39
0
210
0
220
0
230
1
0
LINE
5
1E6
100
AcDbEntity
8
SK2
62
256
6
ByLayer
370
13
48
1
60
0
100
AcDbLine
10
46
20
46.013162
30
0
11
42.824998
21
46.431159
31
0
39
0
210
0
220
0
230
1
0
LINE
5
1E7
100
AcDbEntity
8
SK2
62
256
6
ByLayer
370
13
48
1
60
0
100
AcDbLine
10
42.825002
20
45.595166
30
0
11
42.824998
21
46.431159
31
0
39
0
210
0
220
0
230
1
0
ENDBLK
5
1E9
100
AcDbEntity
8
0
100
AcDbBlockEnd
0
BLOCK
5
1F6
100
AcDbEntity
8
0
100
AcDbBlockBegin
2
DimnDraft3D3
70
0
10
0
20
0
30
0
3
DimnDraft3D3
0
MTEXT
5
1EC
100
AcDbEntity
8
2
62
256
6
ByLayer
370
18
48
1
60
0
100
AcDbMText
10
29.784211
20
-32.525
30
0
210
0
220
0
230
1
1
\W0.6740;30
40
3.5
41
0
44
1.084337
50
0
71
7
72
5
7
iso_b_vert
0
LINE
5
1ED
100
AcDbEntity
8
2
62
256
6
ByLayer
370
13
48
1
60
0
100
AcDbLine
10
46
20
19.5
30
0
11
46
21
-35.4
31
0
39
0
210
0
220
0
230
1
0
LINE
5
1EE
100
AcDbEntity
8
2
62
256
6
ByLayer
370
13
48
1
60
0
100
AcDbLine
10
16
20
-2
30
0
11
16
21
-35.4
31
0
39
0
210
0
220
0
230
1
0
LINE
5
1EF
100
AcDbEntity
8
2
62
256
6
ByLayer
370
13
48
1
60
0
100
AcDbLine
10
46
20
-33.4
30
0
11
16
21
-33.4
31
0
39
0
210
0
220
0
230
1
0
LINE
5
1F0
100
AcDbEntity
8
2
62
256
6
ByLayer
370
13
48
1
60
0
100
AcDbLine
10
46
20
-33.4
30
0
11
42.825002
21
-33.817997
31
0
39
0
210
0
220
0
230
1
0
LINE
5
1F1
100
AcDbEntity
8
2
62
256
6
ByLayer
370
13
48
1
60
0
100
AcDbLine
10
46
20
-33.4
30
0
11
42.824998
21
-32.982003
31
0
39
0
210
0
220
0
230
1
0
LINE
5
1F2
100
AcDbEntity
8
2
62
256
6
ByLayer
370
13
48
1
60
0
100
AcDbLine
10
42.825002
20
-33.817997
30
0
11
42.824998
21
-32.982003
31
0
39
0
210
0
220
0
230
1
0
LINE
5
1F3
100
AcDbEntity
8
2
62
256
6
ByLayer
370
13
48
1
60
0
100
AcDbLine
10
16
20
-33.4
30
0
11
19.174998
21
-32.982003
31
0
39
0
210
0
220
0
230
1
0
LINE
5
1F4
100
AcDbEntity
8
2
62
256
6
ByLayer
370
13
48
1
60
0
100
AcDbLine
10
16
20
-33.4
30
0
11
19.175002
21
-33.817997
31
0
39
0
210
0
220
0
230
1
0
LINE
5
1F5
100
AcDbEntity
8
2
62
256
6
ByLayer
370
13
48
1
60
0
100
AcDbLine
10
19.174998
20
-32.982003
30
0
11
19.175002
21
-33.817997
31
0
39
0
210
0
220
0
230
1
0
ENDBLK
5
1F7
100
AcDbEntity
8
0
100
AcDbBlockEnd
0
BLOCK
5
204
100
AcDbEntity
8
0
100
AcDbBlockBegin
2
DimnDraft3D4
70
0
10
0
20
0
30
0
3
DimnDraft3D4
0
MTEXT
5
1FA
100
AcDbEntity
8
2
62
256
6
ByLayer
370
18
48
1
60
0
100
AcDbMText
10
63.225
20
7.554211
30
0
210
0
220
0
230
1
1
\W0.5404;3
40
3.5
41
0
44
1.084337
50
90
71
7
72
5
7
iso_b_vert
0
LINE
5
1FB
100
AcDbEntity
8
2
62
256
6
ByLayer
370
13
48
1
60
0
100
AcDbLine
10
48
20
21.5
30
0
11
66.1
21
21.5
31
0
39
0
210
0
220
0
230
1
0
LINE
5
1FC
100
AcDbEntity
8
2
62
256
6
ByLayer
370
13
48
1
60
0
100
AcDbLine
10
48
20
18.5
30
0
11
66.1
21
18.5
31
0
39
0
210
0
220
0
230
1
0
LINE
5
1FD
100
AcDbEntity
8
2
62
256
6
ByLayer
370
13
48
1
60
0
100
AcDbLine
10
64.1
20
6.679211
30
0
11
64.1
21
30.25
31
0
39
0
210
0
220
0
230
1
0
LINE
5
1FE
100
AcDbEntity
8
2
62
256
6
ByLayer
370
13
48
1
60
0
100
AcDbLine
10
64.1
20
21.5
30
0
11
63.682003
21
24.674998
31
0
39
0
210
0
220
0
230
1
0
LINE
5
1FF
100
AcDbEntity
8
2
62
256
6
ByLayer
370
13
48
1
60
0
100
AcDbLine
10
64.1
20
21.5
30
0
11
64.517997
21
24.675002
31
0
39
0
210
0
220
0
230
1
0
LINE
5
200
100
AcDbEntity
8
2
62
256
6
ByLayer
370
13
48
1
60
0
100
AcDbLine
10
63.682003
20
24.674998
30
0
11
64.517997
21
24.675002
31
0
39
0
210
0
220
0
230
1
0
LINE
5
201
100
AcDbEntity
8
2
62
256
6
ByLayer
370
13
48
1
60
0
100
AcDbLine
10
64.1
20
18.5
30
0
11
64.517997
21
15.325002
31
0
39
0
210
0
220
0
230
1
0
LINE
5
202
100
AcDbEntity
8
2
62
256
6
ByLayer
370
13
48
1
60
0
100
AcDbLine
10
64.1
20
18.5
30
0
11
63.682003
21
15.324998
31
0
39
0
210
0
220
0
230
1
0
LINE
5
203
100
AcDbEntity
8
2
62
256
6
ByLayer
370
13
48
1
60
0
100
AcDbLine
10
64.517997
20
15.325002
30
0
11
63.682003
21
15.324998
31
0
39
0
210
0
220
0
230
1
0
ENDBLK
5
205
100
AcDbEntity
8
0
100
AcDbBlockEnd
0
ENDSEC
0
SECTION
2
ENTITIES
0
ARC
5
118
100
AcDbEntity
8
1
62
256
6
ByLayer
370
18
48
1
60
0
100
AcDbCircle
39
0
10
-16
20
17.15
30
0
40
1.6
210
0
220
0
230
-1
100
AcDbArc
50
0
51
90
0
ARC
5
119
100
AcDbEntity
8
1
62
256
6
ByLayer
370
18
48
1
60
0
100
AcDbCircle
39
0
10
-3.475
20
21
30
0
40
1
210
0
220
0
230
-1
100
AcDbArc
50
180
51
270
0
ARC
5
11A
100
AcDbEntity
8
1
62
256
6
ByLayer
370
18
48
1
60
0
100
AcDbCircle
39
0
10
-3.475
20
-21
30
0
40
1
210
0
220
0
230
-1
100
AcDbArc
50
90
51
135.572996
0
ARC
5
11B
100
AcDbEntity
8
1
62
256
6
ByLayer
370
18
48
1
60
0
100
AcDbCircle
39
0
10
-10.968005
20
-9.899495
30
0
40
5.2499999999999
210
0
220
0
230
-1
100
AcDbArc
50
77.371006
51
130.822159
0
ARC
5
11C
100
AcDbEntity
8
1
62
256
6
ByLayer
370
18
48
1
60
0
100
AcDbCircle
39
0
10
-10.968005
20
9.899495
30
0
40
5.24999999999994
210
0
220
0
230
-1
100
AcDbArc
50
229.177841
51
282.628994
0
ARC
5
11D
100
AcDbEntity
8
1
62
256
6
ByLayer
370
18
48
1
60
0
100
AcDbCircle
39
0
10
-10.968005
20
-9.899495
30
0
40
5.25000000000076
210
0
220
0
230
-1
100
AcDbArc
50
229.177841
51
282.628994
0
ARC
5
11E
100
AcDbEntity
8
1
62
256
6
ByLayer
370
18
48
1
60
0
100
AcDbCircle
39
0
10
-20.8675
20
0
30
0
40
20.2999999999449
210
0
220
0
230
-1
100
AcDbArc
50
288.578042
51
302.970279
0
ELLIPSE
5
11F
100
AcDbEntity
8
1
62
256
6
ByLayer
370
18
48
1
60
0
100
AcDbEllipse
10
90.324702
20
96.459386
30
0
11
109.868984441005
21
49.1776654298692
31
0
210
0
220
0
230
-1
40
0.547643
41
2.25327732360407
42
2.25601292716704
0
ELLIPSE
5
120
100
AcDbEntity
8
1
62
256
6
ByLayer
370
18
48
1
60
0
100
AcDbEllipse
10
-19.51697
20
96.499999
30
0
11
217.020071691064
21
-29.2886174401902
31
0
210
0
220
0
230
-1
40
0.33187
41
1.22208960732803
42
1.2389831625826
0
ELLIPSE
5
121
100
AcDbEntity
8
1
62
256
6
ByLayer
370
18
48
1
60
0
100
AcDbEllipse
10
39.755073
20
18.656512
30
0
11
0.557259188184941
21
3.12553013347129
31
0
210
0
220
0
230
-1
40
0.323005
41
0.554305204084386
42
0.564984795134641
0
ELLIPSE
5
122
100
AcDbEntity
8
1
62
256
6
ByLayer
370
18
48
1
60
0
100
AcDbEllipse
10
42.30571
20
96.5
30
0
11
92.6588418258969
21
9.36446443479506E-14
31
0
210
0
220
0
230
-1
40
0.8391
41
1.57462671635122
42
1.66131144260031
0
ELLIPSE
5
123
100
AcDbEntity
8
1
62
256
6
ByLayer
370
18
48
1
60
0
100
AcDbEllipse
10
75.400258
20
100.204077
30
0
11
35.5004185140853
21
81.0594900686297
31
0
210
0
220
0
230
-1
40
0.225571
41
3.03938001681392
42
3.04045031204095
0
ELLIPSE
5
124
100
AcDbEntity
8
1
62
256
6
ByLayer
370
18
48
1
60
0
100
AcDbEllipse
10
42.30571
20
173.499997
30
0
11
181.56365830388
21
1.8349532406553E-13
31
0
210
0
220
0
230
-1
40
0.8391
41
1.5716969820464
42
1.61694295927577
0
ELLIPSE
5
125
100
AcDbEntity
8
1
62
256
6
ByLayer
370
18
48
1
60
0
100
AcDbEllipse
10
223.683911
20
173.499873
30
0
11
469.899533843841
21
60.3950711606877
31
0
210
0
220
0
230
-1
40
0.297654
41
1.99766189815698
42
2.0085779891335
0
ELLIPSE
5
126
100
AcDbEntity
8
1
62
256
6
ByLayer
370
18
48
1
60
0
100
AcDbEllipse
10
15.5
20
6.404747
30
0
11
-9.20506833056168E-16
21
15.0335139154387
31
0
210
0
220
0
230
-1
40
0.731699
41
-1.19034690169198
42
-0.343593630572203
0
ELLIPSE
5
127
100
AcDbEntity
8
1
62
256
6
ByLayer
370
18
48
1
60
0
100
AcDbEllipse
10
37.310251
20
20.044641
30
0
11
0.0596387267557953
21
0.59711359575958
31
0
210
0
220
0
230
-1
40
0.986564
41
0
42
6.28318530717959
0
ELLIPSE
5
128
100
AcDbEntity
8
1
62
256
6
ByLayer
370
18
48
1
60
0
100
AcDbEllipse
10
79.297445
20
173.500001
30
0
11
430.893561811029
21
4.35477862149772E-13
31
0
210
0
220
0
230
-1
40
0.353568
41
1.66018103317773
42
1.70463350513578
0
POINT
5
6C
100
AcDbEntity
8
81
62
256
6
ByLayer
370
18
48
1
60
0
100
AcDbPoint
10
46
20
21.5
30
0
39
0
210
0
220
0
230
1
50
360
0
POINT
5
6E
100
AcDbEntity
8
80
62
256
6
ByLayer
370
18
48
1
60
0
100
AcDbPoint
10
0
20
0
30
0
39
0
210
0
220
0
230
1
50
360
0
POINT
5
70
100
AcDbEntity
8
1
62
256
6
ByLayer
370
18
48
1
60
0
100
AcDbPoint
10
46
20
20
30
0
39
0
210
0
220
0
230
1
50
360
0
POINT
5
72
100
AcDbEntity
8
2
62
256
6
ByLayer
370
18
48
1
60
0
100
AcDbPoint
10
46
20
20
30
0
39
0
210
0
220
0
230
1
50
360
0
SPLINE
5
129
100
AcDbEntity
8
1
62
256
6
ByLayer
370
18
48
1
60
0
100
AcDbSpline
70
4
71
3
72
22
73
18
40
0
40
0
40
0
40
0
40
0.0314011112803075
40
0.0314011112803075
40
0.171085734129552
40
0.171085734129552
40
0.311416910910978
40
0.311416910910978
40
0.452164941492797
40
0.452164941492797
40
0.592592464058505
40
0.592592464058505
40
0.732783065372416
40
0.732783065372416
40
0.873323386041228
40
0.873323386041228
40
1
40
1
40
1
40
1
41
1
10
8.07032239295955
20
-20.2999730935048
30
0
41
1
10
8.09304201072791
20
-20.2999663092781
30
0
41
1
10
8.11792435014183
20
-20.29970707997
30
0
41
1
10
8.26489727999351
20
-20.296996854288
30
0
41
1
10
8.4295177296589
20
-20.2901158736339
30
0
41
1
10
8.82184035622677
20
-20.2733334013834
30
0
41
1
10
9.05523342397726
20
-20.2633191601702
30
0
41
1
10
9.5580024823615
20
-20.2470394783801
30
0
41
1
10
9.83445179216662
20
-20.240669187857
30
0
41
1
10
10.390239349603
20
-20.2356378340217
30
0
41
1
10
10.677230590387
20
-20.2369222594096
30
0
41
1
10
11.2219284690611
20
-20.246257342678
30
0
41
1
10
11.4871701564454
20
-20.2543637441418
30
0
41
1
10
11.9608695763589
20
-20.2721766976742
30
0
41
1
10
12.1757314055012
20
-20.2820117498896
30
0
41
1
10
12.5082181248668
20
-20.2955790966597
30
0
41
1
10
12.6372648694006
20
-20.2998708460154
30
0
41
1
10
12.7292164533781
20
-20.2999930122816
30
0
0
SPLINE
5
12A
100
AcDbEntity
8
1
62
256
6
ByLayer
370
18
48
1
60
0
100
AcDbSpline
70
4
71
3
72
8
73
4
40
0
40
0
40
0
40
0
40
1
40
1
40
1
40
1
41
1
10
-0.317851501380005
20
-11.8888368758454
30
0
41
1
10
-0.322189872669611
20
-11.9229095417618
30
0
41
1
10
-0.324980947161691
20
-11.9563743682046
30
0
41
1
10
-0.324980947161663
20
-11.9882514452426
30
0
0
SPLINE
5
12B
100
AcDbEntity
8
1
62
256
6
ByLayer
370
18
48
1
60
0
100
AcDbSpline
70
4
71
3
72
8
73
4
40
0
40
0
40
0
40
0
40
1
40
1
40
1
40
1
41
1
10
-0.317851501380005
20
11.8888368758454
30
0
41
1
10
-0.322189872669611
20
11.9229095417618
30
0
41
1
10
-0.324980947161663
20
11.9563743682046
30
0
41
1
10
-0.324980947161663
20
11.9882514452425
30
0
0
SPLINE
5
12C
100
AcDbEntity
8
1
62
256
6
ByLayer
370
18
48
1
60
0
100
AcDbSpline
70
4
71
3
72
8
73
4
40
0
40
0
40
0
40
0
40
1
40
1
40
1
40
1
41
1
10
36.9612494995996
20
18.7504019302994
30
0
41
1
10
37.0209519820331
20
18.75016215936
30
0
41
1
10
37.0755120865451
20
18.7500202001991
30
0
41
1
10
37.1242109285443
20
18.7500074277709
30
0
0
SPLINE
5
12D
100
AcDbEntity
8
1
62
256
6
ByLayer
370
18
48
1
60
0
100
AcDbSpline
70
4
71
3
72
8
73
4
40
0
40
0
40
0
40
0
40
1
40
1
40
1
40
1
41
1
10
33.6735860775979
20
18.7500037915536
30
0
41
1
10
33.7228037649091
20
18.7500141314994
30
0
41
1
10
33.7781208226814
20
18.7501584356541
30
0
41
1
10
33.8387505004004
20
18.7504019302994
30
0
0
SPLINE
5
12E
100
AcDbEntity
8
1
62
256
6
ByLayer
370
18
48
1
60
0
100
AcDbSpline
70
4
71
3
72
10
73
6
40
0
40
0
40
0
40
0
40
0.782699036866293
40
0.782699036866293
40
1
40
1
40
1
40
1
41
1
10
32.271296702855
20
18.7542655592095
30
0
41
1
10
32.2818843840395
20
18.7519240052062
30
0
41
1
10
32.3312003845264
20
18.7505851614993
30
0
41
1
10
32.4384774602059
20
18.7500443476368
30
0
41
1
10
32.4646380970189
20
18.7499952771674
30
0
41
1
10
32.4934336423938
20
18.7500047803971
30
0
0
SPLINE
5
12F
100
AcDbEntity
8
1
62
256
6
ByLayer
370
18
48
1
60
0
100
AcDbSpline
70
4
71
3
72
12
73
8
40
0
40
0
40
0
40
0
40
0.16057076181643
40
0.16057076181643
40
0.732894190301644
40
0.732894190301644
40
1
40
1
40
1
40
1
41
1
10
32.324959298463
20
18.7518226693979
30
0
41
1
10
32.2794030238977
20
18.7514015134133
30
0
41
1
10
32.2368164427865
20
18.7510384650498
30
0
41
1
10
32.057512431565
20
18.7497323985607
30
0
41
1
10
31.9555863078513
20
18.7496908125913
30
0
41
1
10
31.8740596865633
20
18.7517695713933
30
0
41
1
10
31.8578144669737
20
18.7527551383386
30
0
41
1
10
31.851767055882
20
18.7540599373976
30
0
0
SPLINE
5
130
100
AcDbEntity
8
1
62
256
6
ByLayer
370
18
48
1
60
0
100
AcDbSpline
70
4
71
3
72
12
73
8
40
0
40
0
40
0
40
0
40
0.171703465178205
40
0.171703465178205
40
0.66165369687324
40
0.66165369687324
40
1
40
1
40
1
40
1
41
1
10
38.5850302437615
20
21.2017816456896
30
0
41
1
10
38.5849540918393
20
21.2006701592244
30
0
41
1
10
38.5873764190547
20
21.1995777603699
30
0
41
1
10
38.6064323534435
20
21.1954879870494
30
0
41
1
10
38.6414753711367
20
21.1926282989958
30
0
41
1
10
38.7312567587503
20
21.1884135392617
30
0
41
1
10
38.7770509726678
20
21.1868347605825
30
0
41
1
10
38.8300953772182
20
21.1854420814205
30
0
0
SPLINE
5
131
100
AcDbEntity
8
1
62
256
6
ByLayer
370
18
48
1
60
0
100
AcDbSpline
70
4
71
3
72
8
73
4
40
0
40
0
40
0
40
0
40
1
40
1
40
1
40
1
41
1
10
-0.249980947161674
20
-9.95818080364211
30
0
41
1
10
-0.0483934946950342
20
-10.5344723697693
30
0
41
1
10
0.167075266492162
20
-11.1044931479051
30
0
41
1
10
0.394519052838319
20
-11.6678057336411
30
0
0
SPLINE
5
132
100
AcDbEntity
8
1
62
256
6
ByLayer
370
18
48
1
60
0
100
AcDbSpline
70
4
71
3
72
14
73
10
40
0
40
0
40
0
40
0
40
0.367068996331762
40
0.367068996331762
40
0.635184373079588
40
0.635184373079588
40
0.858759635080798
40
0.858759635080798
40
1
40
1
40
1
40
1
41
1
10
-0.249980947161674
20
-19.0736242396016
30
0
41
1
10
-0.264116695428044
20
-19.0595861588407
30
0
41
1
10
-0.277713110049319
20
-19.046116847108
30
0
41
1
10
-0.298064705436502
20
-19.0260137389467
30
0
41
1
10
-0.30584114618128
20
-19.0183533892787
30
0
41
1
10
-0.316865710439174
20
-19.0075381064276
30
0
41
1
10
-0.320738864304872
20
-19.0037606806076
30
0
41
1
10
-0.324270124434861
20
-19.0003681497553
30
0
41
1
10
-0.32498094716172
20
-18.9997075483724
30
0
41
1
10
-0.32498094716172
20
-18.9997518271013
30
0
0
SPLINE
5
133
100
AcDbEntity
8
1
62
256
6
ByLayer
370
18
48
1
60
0
100
AcDbSpline
70
4
71
3
72
22
73
18
40
0
40
0
40
0
40
0
40
0.078868203014764
40
0.078868203014764
40
0.125385205688512
40
0.125385205688512
40
0.172693500923905
40
0.172693500923905
40
0.215469593624276
40
0.215469593624276
40
0.262741425569929
40
0.262741425569929
40
0.342722003608258
40
0.342722003608258
40
0.582518901501924
40
0.582518901501924
40
1
40
1
40
1
40
1
41
1
10
-0.249980947161674
20
-5.61238790983063
30
0
41
1
10
-0.253907122300603
20
-5.60640703828844
30
0
41
1
10
-0.258139974864093
20
-5.60068246041996
30
0
41
1
10
-0.26551297758013
20
-5.59289366789909
30
0
41
1
10
-0.268438452013413
20
-5.59026223940606
30
0
41
1
10
-0.274553504985761
20
-5.58616244683441
30
0
41
1
10
-0.277834605532462
20
-5.58468883424385
30
0
41
1
10
-0.283877115295297
20
-5.58376815391782
30
0
41
1
10
-0.286731240365867
20
-5.58414644153726
30
0
41
1
10
-0.292103201615078
20
-5.58643250106277
30
0
41
1
10
-0.294646726753285
20
-5.5884915505377
30
0
41
1
10
-0.300565438673317
20
-5.59517929313071
30
0
41
1
10
-0.303481449873203
20
-5.600656046719
30
0
41
1
10
-0.313083254394599
20
-5.62373787462025
30
0
41
1
10
-0.316636779769283
20
-5.64438526068869
30
0
41
1
10
-0.323791643110951
20
-5.70085095486721
30
0
41
1
10
-0.324980947161691
20
-5.73840699253307
30
0
41
1
10
-0.324980947161691
20
-5.7760594776002
30
0
0
SPLINE
5
134
100
AcDbEntity
8
1
62
256
6
ByLayer
370
18
48
1
60
0
100
AcDbSpline
70
4
71
3
72
22
73
18
40
0
40
0
40
0
40
0
40
0.231260126787036
40
0.231260126787036
40
0.387570852906686
40
0.387570852906686
40
0.510012572490319
40
0.510012572490319
40
0.609779905082876
40
0.609779905082876
40
0.709990143440007
40
0.709990143440007
40
0.804340392490653
40
0.804340392490653
40
0.937758789793738
40
0.937758789793738
40
1
40
1
40
1
40
1
41
1
10
0.394519052838319
20
-18.9665337194095
30
0
41
1
10
0.413465933239877
20
-18.9893456648831
30
0
41
1
10
0.431101708324377
20
-19.0119418081171
30
0
41
1
10
0.455401046253286
20
-19.0463016403559
30
0
41
1
10
0.463946549333485
20
-19.0594843603781
30
0
41
1
10
0.474773250038254
20
-19.0793494160292
30
0
41
1
10
0.478078074440106
20
-19.0869824154913
30
0
41
1
10
0.480008141173357
20
-19.0969460698151
30
0
41
1
10
0.479371180450954
20
-19.1000659104202
30
0
41
1
10
0.47470272290883
20
-19.1026167949237
30
0
41
1
10
0.470579582894913
20
-19.1020486388594
30
0
41
1
10
0.459912467712911
20
-19.0975657756679
30
0
41
1
10
0.453418354473371
20
-19.093819438838
30
0
41
1
10
0.436077878689758
20
-19.0821858184231
30
0
41
1
10
0.424289354222509
20
-19.0730851976249
30
0
41
1
10
0.406349975501371
20
-19.0581528057297
30
0
41
1
10
0.400467282736884
20
-19.0531016869878
30
0
41
1
10
0.394519052838319
20
-19.0478637127897
30
0
0
SPLINE
5
135
100
AcDbEntity
8
1
62
256
6
ByLayer
370
18
48
1
60
0
100
AcDbSpline
70
4
71
3
72
8
73
4
40
0
40
0
40
0
40
0
40
1
40
1
40
1
40
1
41
1
10
-0.249980947161674
20
9.16192765464814
30
0
41
1
10
-0.0363243711459234
20
9.38149895432917
30
0
41
1
10
0.178583254364014
20
9.5994545595567
30
0
41
1
10
0.394519052838348
20
9.81603258289468
30
0
0
SPLINE
5
136
100
AcDbEntity
8
1
62
256
6
ByLayer
370
18
48
1
60
0
100
AcDbSpline
70
4
71
3
72
8
73
4
40
0
40
0
40
0
40
0
40
1
40
1
40
1
40
1
41
1
10
-0.249980947161703
20
-6.93594876110097
30
0
41
1
10
-0.0626871252384831
20
-7.72806880567606
30
0
41
1
10
0.153545136850994
20
-8.51165171787554
30
0
41
1
10
0.394519052838319
20
-9.28418104530812
30
0
0
SPLINE
5
137
100
AcDbEntity
8
1
62
256
6
ByLayer
370
18
48
1
60
0
100
AcDbSpline
70
4
71
3
72
12
73
8
40
0
40
0
40
0
40
0
40
0.615301702098653
40
0.615301702098653
40
0.961706798328221
40
0.961706798328221
40
1
40
1
40
1
40
1
41
1
10
-0.249980947161674
20
13.7033325990739
30
0
41
1
10
-0.275247881244127
20
13.6540352131323
30
0
41
1
10
-0.29632149397753
20
13.6036020518143
30
0
41
1
10
-0.317976480917281
20
13.5289763418102
30
0
41
1
10
-0.3236604882417
20
13.5022660870475
30
0
41
1
10
-0.324914533088474
20
13.4759353293386
30
0
41
1
10
-0.32498094716172
20
13.4733236754212
30
0
41
1
10
-0.32498094716172
20
13.4707590466701
30
0
0
SPLINE
5
138
100
AcDbEntity
8
1
62
256
6
ByLayer
370
18
48
1
60
0
100
AcDbSpline
70
4
71
3
72
18
73
14
40
0
40
0
40
0
40
0
40
0.123937831480558
40
0.123937831480558
40
0.313098093381588
40
0.313098093381588
40
0.481528407194555
40
0.481528407194555
40
0.622658669203499
40
0.622658669203499
40
0.848310778203336
40
0.848310778203336
40
1
40
1
40
1
40
1
41
1
10
-0.249980947159685
20
-13.2410331525233
30
0
41
1
10
-0.255116585692804
20
-13.2367094641673
30
0
41
1
10
-0.260337990090903
20
-13.2327355743826
30
0
41
1
10
-0.273376364216034
20
-13.2241890042849
30
0
41
1
10
-0.281363091099848
20
-13.2202833455423
30
0
41
1
10
-0.294926621248862
20
-13.2170367117722
30
0
41
1
10
-0.300839956904923
20
-13.2172441345201
30
0
41
1
10
-0.309651675120648
20
-13.2207187916851
30
0
41
1
10
-0.313004447296862
20
-13.223492074514
30
0
41
1
10
-0.319822507478307
20
-13.2326869110105
30
0
41
1
10
-0.322339239659669
20
-13.2403866350276
30
0
41
1
10
-0.324589889544484
20
-13.2546312854228
30
0
41
1
10
-0.324980947164164
20
-13.2608142700645
30
0
41
1
10
-0.324980947164107
20
-13.267244992439
30
0
0
SPLINE
5
139
100
AcDbEntity
8
1
62
256
6
ByLayer
370
18
48
1
60
0
100
AcDbSpline
70
4
71
3
72
20
73
16
40
0
40
0
40
0
40
0
40
0.286607810733604
40
0.286607810733604
40
0.438925525717887
40
0.438925525717887
40
0.59350861988543
40
0.59350861988543
40
0.710064884967562
40
0.710064884967562
40
0.826332653470703
40
0.826332653470703
40
0.99361325559662
40
0.99361325559662
40
1
40
1
40
1
40
1
41
1
10
-0.324980947161691
20
11.531152623331
30
0
41
1
10
-0.324980947161691
20
11.5170039624523
30
0
41
1
10
-0.3238633943661
20
11.5033410300966
30
0
41
1
10
-0.319015300149232
20
11.4851777100478
30
0
41
1
10
-0.316698776429661
20
11.4793120003969
30
0
41
1
10
-0.31035458295878
20
11.4696128561097
30
0
41
1
10
-0.306192211150687
20
11.4657232178889
30
0
41
1
10
-0.297228048412649
20
11.4621654537654
30
0
41
1
10
-0.29273241860659
20
11.46168920021
30
0
41
1
10
-0.283178299023206
20
11.463052694229
30
0
41
1
10
-0.2780183803726
20
11.4648890390718
30
0
41
1
10
-0.265506204224351
20
11.471377328742
30
0
41
1
10
-0.257981340052709
20
11.4769530343168
30
0
41
1
10
-0.250533373803762
20
11.4835366918245
30
0
41
1
10
-0.250256991586866
20
11.4837825806603
30
0
41
1
10
-0.249980947161646
20
11.4840297216438
30
0
0
SPLINE
5
13A
100
AcDbEntity
8
1
62
256
6
ByLayer
370
18
48
1
60
0
100
AcDbSpline
70
4
71
3
72
14
73
10
40
0
40
0
40
0
40
0
40
0.343717132296831
40
0.343717132296831
40
0.644413630218909
40
0.644413630218909
40
0.879997567387377
40
0.879997567387377
40
1
40
1
40
1
40
1
41
1
10
-0.249980947161674
20
18.8729219314524
30
0
41
1
10
-0.263338820378635
20
18.8582893690387
30
0
41
1
10
-0.276030574832305
20
18.8439756527439
30
0
41
1
10
-0.296892621046084
20
18.8193910513108
30
0
41
1
10
-0.305613274085545
20
18.8086141717859
30
0
41
1
10
-0.317392142331499
20
18.7926710282901
30
0
41
1
10
-0.321352421029132
20
18.7866649098365
30
0
41
1
10
-0.324428650116829
20
18.7803450580268
30
0
41
1
10
-0.324980947161691
20
18.7786584117216
30
0
41
1
10
-0.324980947161691
20
18.7775181327357
30
0
0
SPLINE
5
13B
100
AcDbEntity
8
1
62
256
6
ByLayer
370
18
48
1
60
0
100
AcDbSpline
70
4
71
3
72
8
73
4
40
0
40
0
40
0
40
0
40
1
40
1
40
1
40
1
41
1
10
0.394519052838319
20
18.4739743524118
30
0
41
1
10
0.178025589846356
20
18.1962188143275
30
0
41
1
10
-0.0368701453001563
20
17.9167894401584
30
0
41
1
10
-0.249980947161674
20
17.6355675589553
30
0
0
SPLINE
5
13C
100
AcDbEntity
8
1
62
256
6
ByLayer
370
18
48
1
60
0
100
AcDbSpline
70
4
71
3
72
22
73
18
40
0
40
0
40
0
40
0
40
0.298588809861194
40
0.298588809861194
40
0.462731430266166
40
0.462731430266166
40
0.592200105857644
40
0.592200105857644
40
0.684071516115247
40
0.684071516115247
40
0.776983001615578
40
0.776983001615578
40
0.85720110026512
40
0.85720110026512
40
0.961507891186748
40
0.961507891186748
40
1
40
1
40
1
40
1
41
1
10
0.394519052838319
20
-17.0559192792915
30
0
41
1
10
0.417818970582204
20
-17.0906639763996
30
0
41
1
10
0.438602827032781
20
-17.1257850172184
30
0
41
1
10
0.462832964494112
20
-17.1762266313491
30
0
41
1
10
0.470002320026282
20
-17.1937000427357
30
0
41
1
10
0.478087556028214
20
-17.2215574006706
30
0
41
1
10
0.480049244674717
20
-17.2328948453491
30
0
41
1
10
0.478926880891862
20
-17.2480957763304
30
0
41
1
10
0.477087707393224
20
-17.2532675786086
30
0
41
1
10
0.470114453109261
20
-17.2597551858967
30
0
41
1
10
0.464797218159873
20
-17.261068231578
30
0
41
1
10
0.452320905579114
20
-17.2593444428697
30
0
41
1
10
0.44537439240554
20
-17.2568742677526
30
0
41
1
10
0.428262599959282
20
-17.2482913046946
30
0
41
1
10
0.417512005770021
20
-17.2412280359862
30
0
41
1
10
0.402663159305263
20
-17.2299950066617
30
0
41
1
10
0.398595167850885
20
-17.2267728518461
30
0
41
1
10
0.394519052838319
20
-17.2234180953956
30
0
0
SPLINE
5
13D
100
AcDbEntity
8
1
62
256
6
ByLayer
370
18
48
1
60
0
100
AcDbSpline
70
4
71
3
72
12
73
8
40
0
40
0
40
0
40
0
40
0.264193092465764
40
0.264193092465764
40
0.911057272405746
40
0.911057272405746
40
1
40
1
40
1
40
1
41
1
10
-0.32498094716172
20
-11.7904053433558
30
0
41
1
10
-0.324980947160498
20
-11.8126853032388
30
0
41
1
10
-0.32201399129147
20
-11.8368161077743
30
0
41
1
10
-0.306512406767837
20
-11.9207983977665
30
0
41
1
10
-0.286254819875012
20
-11.9839538680773
30
0
41
1
10
-0.257370294636416
20
-12.0544237103284
30
0
41
1
10
-0.253732321678058
20
-12.0630148227294
30
0
41
1
10
-0.249980947161674
20
-12.0715924641049
30
0
0
SPLINE
5
13E
100
AcDbEntity
8
1
62
256
6
ByLayer
370
18
48
1
60
0
100
AcDbSpline
70
4
71
3
72
8
73
4
40
0
40
0
40
0
40
0
40
1
40
1
40
1
40
1
41
1
10
-0.249980947161674
20
-19.0327392125282
30
0
41
1
10
-0.0357767269013607
20
-19.2556670974128
30
0
41
1
10
0.179076567029881
20
-19.4777657699182
30
0
41
1
10
0.394519052838319
20
-19.6990969386236
30
0
0
SPLINE
5
13F
100
AcDbEntity
8
1
62
256
6
ByLayer
370
18
48
1
60
0
100
AcDbSpline
70
4
71
3
72
12
73
8
40
0
40
0
40
0
40
0
40
0.183025184598865
40
0.183025184598865
40
0.526735094944525
40
0.526735094944525
40
1
40
1
40
1
40
1
41
1
10
-0.324980947167234
20
-16.7870313841585
30
0
41
1
10
-0.324980947166523
20
-16.793329465927
30
0
41
1
10
-0.323564867151902
20
-16.8008983003295
30
0
41
1
10
-0.316700819517507
20
-16.8244275612491
30
0
41
1
10
-0.308761278058881
20
-16.8422833192478
30
0
41
1
10
-0.285793966152596
20
-16.885881903662
30
0
41
1
10
-0.268821131413972
20
-16.9129079609012
30
0
41
1
10
-0.249980947161703
20
-16.939753936379
30
0
0
SPLINE
5
140
100
AcDbEntity
8
1
62
256
6
ByLayer
370
18
48
1
60
0
100
AcDbSpline
70
4
71
3
72
14
73
10
40
0
40
0
40
0
40
0
40
0.146815366779468
40
0.146815366779468
40
0.364430219153091
40
0.364430219153091
40
0.668854808993108
40
0.668854808993108
40
1
40
1
40
1
40
1
41
1
10
-0.324980947161663
20
-18.948426804311
30
0
41
1
10
-0.324980947161691
20
-18.9490797269465
30
0
41
1
10
-0.324183520280769
20
-18.9505258281276
30
0
41
1
10
-0.320453260649515
20
-18.9557916746307
30
0
41
1
10
-0.316623400770908
20
-18.9604902016497
30
0
41
1
10
-0.3049389320297
20
-18.974032798766
30
0
41
1
10
-0.295938913574304
20
-18.9839687335512
30
0
41
1
10
-0.275085496381905
20
-19.0064378800684
30
0
41
1
10
-0.262806262223847
20
-19.0193915746697
30
0
41
1
10
-0.249980947161674
20
-19.0327392125282
30
0
0
SPLINE
5
141
100
AcDbEntity
8
1
62
256
6
ByLayer
370
18
48
1
60
0
100
AcDbSpline
70
4
71
3
72
22
73
18
40
0
40
0
40
0
40
0
40
0.250828641170314
40
0.250828641170314
40
0.411502452975976
40
0.411502452975976
40
0.536118538597332
40
0.536118538597332
40
0.63415137333592
40
0.63415137333592
40
0.732817837877503
40
0.732817837877503
40
0.823088804657734
40
0.823088804657734
40
0.947597295962975
40
0.947597295962975
40
1
40
1
40
1
40
1
41
1
10
0.394519052838319
20
-18.4739743524118
30
0
41
1
10
0.414738013536436
20
-18.499914758328
30
0
41
1
10
0.433331336721494
20
-18.5257981377012
30
0
41
1
10
0.457806838810228
20
-18.5646342653364
30
0
41
1
10
0.466024409520742
20
-18.5792014142595
30
0
41
1
10
0.476024660894098
20
-18.6014561077749
30
0
41
1
10
0.478895027362512
20
-18.6101348784836
30
0
41
1
10
0.479847343810348
20
-18.6216837936205
30
0
41
1
10
0.478790786431119
20
-18.6254762527657
30
0
41
1
10
0.47329303858595
20
-18.6292892926581
30
0
41
1
10
0.468731522980391
20
-18.6293104081995
30
0
41
1
10
0.457358651402529
20
-18.6257293577357
30
0
41
1
10
0.450654695434935
20
-18.6224154468732
30
0
41
1
10
0.433216805629115
20
-18.6118395848942
30
0
41
1
10
0.421664916028163
20
-18.6034373760454
30
0
41
1
10
0.40479827299589
20
-18.589919542682
30
0
41
1
10
0.399678241747836
20
-18.5856649893696
30
0
41
1
10
0.394519052838319
20
-18.5812482082593
30
0
0
SPLINE
5
142
100
AcDbEntity
8
1
62
256
6
ByLayer
370
18
48
1
60
0
100
AcDbSpline
70
4
71
3
72
8
73
4
40
0
40
0
40
0
40
0
40
1
40
1
40
1
40
1
41
1
10
-0.249980947161618
20
18.4790984828195
30
0
41
1
10
-0.0353231021630336
20
18.6689517405164
30
0
41
1
10
0.179515431750133
20
18.8585328632802
30
0
41
1
10
0.394519052838319
20
19.0478637127897
30
0
0
SPLINE
5
143
100
AcDbEntity
8
1
62
256
6
ByLayer
370
18
48
1
60
0
100
AcDbSpline
70
4
71
3
72
8
73
4
40
0
40
0
40
0
40
0
40
1
40
1
40
1
40
1
41
1
10
0.394519052838319
20
-19.710304237967
30
0
41
1
10
0.179220787457297
20
-19.4987067068065
30
0
41
1
10
-0.0356273962294154
20
-19.2864967669467
30
0
41
1
10
-0.249980947161674
20
-19.0736242396016
30
0
0
SPLINE
5
144
100
AcDbEntity
8
1
62
256
6
ByLayer
370
18
48
1
60
0
100
AcDbSpline
70
4
71
3
72
8
73
4
40
0
40
0
40
0
40
0
40
1
40
1
40
1
40
1
41
1
10
0.394519052838348
20
14.9171390202628
30
0
41
1
10
0.174425330040975
20
14.516324377639
30
0
41
1
10
-0.0406455446070595
20
14.1117592050607
30
0
41
1
10
-0.249980947161674
20
13.7033325990739
30
0
0
SPLINE
5
145
100
AcDbEntity
8
1
62
256
6
ByLayer
370
18
48
1
60
0
100
AcDbSpline
70
4
71
3
72
8
73
4
40
0
40
0
40
0
40
0
40
1
40
1
40
1
40
1
41
1
10
-0.249980947161646
20
19.0736242396016
30
0
41
1
10
-0.0356273962293869
20
19.2864967669467
30
0
41
1
10
0.179220787457297
20
19.4987067068065
30
0
41
1
10
0.394519052838319
20
19.710304237967
30
0
0
SPLINE
5
146
100
AcDbEntity
8
1
62
256
6
ByLayer
370
18
48
1
60
0
100
AcDbSpline
70
4
71
3
72
22
73
18
40
0
40
0
40
0
40
0
40
0.183384948709073
40
0.183384948709073
40
0.313062700648127
40
0.313062700648127
40
0.422056145382319
40
0.422056145382319
40
0.531723374762045
40
0.531723374762045
40
0.631861132544339
40
0.631861132544339
40
0.765101579102008
40
0.765101579102008
40
0.947838436232339
40
0.947838436232339
40
1
40
1
40
1
40
1
41
1
10
0.394519052838348
20
19.710304237967
30
0
41
1
10
0.410642472983938
20
19.7261505147154
30
0
41
1
10
0.42618434721453
20
19.7413114388715
30
0
41
1
10
0.449105460958037
20
19.7633618003152
30
0
41
1
10
0.457726137803974
20
19.7715463102806
30
0
41
1
10
0.470067696986746
20
19.7829563615644
30
0
41
1
10
0.474449755408841
20
19.7868524943349
30
0
41
1
10
0.479477082331755
20
19.7908403362891
30
0
41
1
10
0.480143853922868
20
19.7909381648345
30
0
41
1
10
0.477730464276306
20
19.7874463129549
30
0
41
1
10
0.474960976757046
20
19.7841536673263
30
0
41
1
10
0.465703377530076
20
19.7737474657015
30
0
41
1
10
0.458186022617724
20
19.7656089110072
30
0
41
1
10
0.437615291364438
20
19.7437403716601
30
0
41
1
10
0.423223948449646
20
19.7287107854745
30
0
41
1
10
0.403574803366098
20
19.7084124807493
30
0
41
1
10
0.399081981489104
20
19.7037845856641
30
0
41
1
10
0.394519052838319
20
19.6990969386236
30
0
0
SPLINE
5
147
100
AcDbEntity
8
1
62
256
6
ByLayer
370
18
48
1
60
0
100
AcDbSpline
70
4
71
3
72
16
73
12
40
0
40
0
40
0
40
0
40
0.13283198388606
40
0.13283198388606
40
0.351299710245193
40
0.351299710245193
40
0.555589772513699
40
0.555589772513699
40
0.81906452354683
40
0.81906452354683
40
1
40
1
40
1
40
1
41
1
10
-0.32498094716172
20
17.9939249199246
30
0
41
1
10
-0.32498094716172
20
17.9915384581584
30
0
41
1
10
-0.324478768103745
20
17.9896102366798
30
0
41
1
10
-0.321715444542036
20
17.9860379718581
30
0
41
1
10
-0.31844124311209
20
17.9853634959566
30
0
41
1
10
-0.309560757536758
20
17.9873012900097
30
0
41
1
10
-0.304023568660682
20
17.9897141195596
30
0
41
1
10
-0.289778809121629
20
17.9977929041239
30
0
41
1
10
-0.280421553849294
20
18.0042837566079
30
0
41
1
10
-0.263997318186853
20
18.0169601388965
30
0
41
1
10
-0.25702518471428
20
18.0226812456975
30
0
41
1
10
-0.249980947161589
20
18.02872875272
30
0
0
SPLINE
5
148
100
AcDbEntity
8
1
62
256
6
ByLayer
370
18
48
1
60
0
100
AcDbSpline
70
4
71
3
72
22
73
18
40
0
40
0
40
0
40
0
40
0.0337191778455999
40
0.0337191778455999
40
0.0895646790802703
40
0.0895646790802703
40
0.131392810356541
40
0.131392810356541
40
0.173095412158189
40
0.173095412158189
40
0.233901905207916
40
0.233901905207916
40
0.338259240523273
40
0.338259240523273
40
0.556878508932909
40
0.556878508932909
40
1
40
1
40
1
40
1
41
1
10
0.394519052838063
20
12.0587239255465
30
0
41
1
10
0.399159486907337
20
12.0628458260448
30
0
41
1
10
0.403897061978853
20
12.0666751985533
30
0
41
1
10
0.416488812941964
20
12.0755695029156
30
0
41
1
10
0.424593252610578
20
12.0799308589228
30
0
41
1
10
0.437820583441891
20
12.0837380616332
30
0
41
1
10
0.443304657509117
20
12.0841484785969
30
0
41
1
10
0.452926515549421
20
12.0823456616943
30
0
41
1
10
0.457183199664286
20
12.0801365022145
30
0
41
1
10
0.465860773716429
20
12.07244086151
30
0
41
1
10
0.469661657482646
20
12.0658628688763
30
0
41
1
10
0.477095090395949
20
12.0456723621449
30
0
41
1
10
0.478986900720912
20
12.0300954666452
30
0
41
1
10
0.480331468618118
20
11.9800123416439
30
0
41
1
10
0.475156462670156
20
11.9421309304839
30
0
41
1
10
0.452287582667793
20
11.8274416641465
30
0
41
1
10
0.426399694425044
20
11.7467648775053
30
0
41
1
10
0.394519052838348
20
11.6678057336411
30
0
0
SPLINE
5
149
100
AcDbEntity
8
1
62
256
6
ByLayer
370
18
48
1
60
0
100
AcDbSpline
70
4
71
3
72
12
73
8
40
0
40
0
40
0
40
0
40
0.195464842941735
40
0.195464842941735
40
0.580247756261768
40
0.580247756261768
40
1
40
1
40
1
40
1
41
1
10
-0.3249809471763
20
-15.9014694779916
30
0
41
1
10
-0.324980947174708
20
-15.909837292279
30
0
41
1
10
-0.323351048349764
20
-15.9195916432662
30
0
41
1
10
-0.315393057316697
20
-15.9502027056823
30
0
41
1
10
-0.306002655926278
20
-15.9731746147681
30
0
41
1
10
-0.28211454650426
20
-16.021929547067
30
0
41
1
10
-0.266894165469012
20
-16.0484322921153
30
0
41
1
10
-0.249980947161674
20
-16.0747405491864
30
0
0
SPLINE
5
14A
100
AcDbEntity
8
1
62
256
6
ByLayer
370
18
48
1
60
0
100
AcDbSpline
70
4
71
3
72
24
73
20
40
0
40
0
40
0
40
0
40
0.423983946991788
40
0.423983946991788
40
0.622637146756791
40
0.622637146756791
40
0.722302904446207
40
0.722302904446207
40
0.767750298902863
40
0.767750298902863
40
0.814003400478538
40
0.814003400478538
40
0.853837190983368
40
0.853837190983368
40
0.904883484540061
40
0.904883484540061
40
0.996390813831726
40
0.996390813831726
40
1
40
1
40
1
40
1
41
1
10
-0.324980947161691
20
5.7760594776002
30
0
41
1
10
-0.324980947161691
20
5.73779746968941
30
0
41
1
10
-0.323767147163522
20
5.69961871744923
30
0
41
1
10
-0.316792567857306
20
5.64614017902684
30
0
41
1
10
-0.313804798756706
20
5.6292199713501
30
0
41
1
10
-0.306174520164802
20
5.60643808254883
30
0
41
1
10
-0.303038768809813
20
5.59912790389743
30
0
41
1
10
-0.296837044095838
20
5.59074538499485
30
0
41
1
10
-0.294610517189
20
5.58842518512361
30
0
41
1
10
-0.289565619543367
20
5.58507950132048
30
0
41
1
10
-0.286651277435709
20
5.58406621814493
30
0
41
1
10
-0.281002293531799
20
5.58398439028539
30
0
41
1
10
-0.278234692635266
20
5.58466438248408
30
0
41
1
10
-0.272152310668275
20
5.58748100946821
30
0
41
1
10
-0.268803269241886
20
5.58997588063096
30
0
41
1
10
-0.260131694329715
20
5.5980758815042
30
0
41
1
10
-0.255108305126185
20
5.60466493900836
30
0
41
1
10
-0.250343382971295
20
5.6118374217879
30
0
41
1
10
-0.250161866061859
20
5.6121123101278
30
0
41
1
10
-0.249980947161447
20
5.612387909831
30
0
0
SPLINE
5
14B
100
AcDbEntity
8
1
62
256
6
ByLayer
370
18
48
1
60
0
100
AcDbSpline
70
4
71
3
72
8
73
4
40
0
40
0
40
0
40
0
40
1
40
1
40
1
40
1
41
1
10
0.394519052838319
20
19.5732661362727
30
0
41
1
10
0.178898499370206
20
19.3407877832485
30
0
41
1
10
-0.035961400863215
20
19.107364519588
30
0
41
1
10
-0.249980947161674
20
18.8729219314524
30
0
0
SPLINE
5
14C
100
AcDbEntity
8
1
62
256
6
ByLayer
370
18
48
1
60
0
100
AcDbSpline
70
4
71
3
72
22
73
18
40
0
40
0
40
0
40
0
40
0.27291572620679
40
0.27291572620679
40
0.436610056927915
40
0.436610056927915
40
0.563360973334033
40
0.563360973334033
40
0.658857413301299
40
0.658857413301299
40
0.755190338856472
40
0.755190338856472
40
0.840768024903129
40
0.840768024903129
40
0.955645516929297
40
0.955645516929297
40
1
40
1
40
1
40
1
41
1
10
0.394519052838319
20
-17.8422547739247
30
0
41
1
10
0.416166898633264
20
-17.872062491358
30
0
41
1
10
0.435797416086786
20
-17.902007127528
30
0
41
1
10
0.460279573202712
20
-17.9461328495388
30
0
41
1
10
0.46805531162326
20
-17.9621642454125
30
0
41
1
10
0.477135407653805
20
-17.9870683640632
30
0
41
1
10
0.47955312723613
20
-17.9969443103709
30
0
41
1
10
0.479492688712298
20
-18.0102162856553
30
0
41
1
10
0.478032212565267
20
-18.0146963943843
30
0
41
1
10
0.471754989419225
20
-18.0198206699188
30
0
41
1
10
0.46678701114422
20
-18.0204638772606
30
0
41
1
10
0.45479845221746
20
-18.01779090349
30
0
41
1
10
0.447941029922419
20
-18.014897702119
30
0
41
1
10
0.430569122266689
20
-18.0053266043315
30
0
41
1
10
0.419355141826031
20
-17.997592826459
30
0
41
1
10
0.403531993006226
20
-17.9853037513096
30
0
41
1
10
0.399036008183401
20
-17.9816671833407
30
0
41
1
10
0.394519052838319
20
-17.9778880275985
30
0
0
SPLINE
5
14D
100
AcDbEntity
8
1
62
256
6
ByLayer
370
18
48
1
60
0
100
AcDbSpline
70
4
71
3
72
16
73
12
40
0
40
0
40
0
40
0
40
0.25327551276124
40
0.25327551276124
40
0.495734960994396
40
0.495734960994396
40
0.741076288408507
40
0.741076288408507
40
0.94918459530242
40
0.94918459530242
40
1
40
1
40
1
40
1
41
1
10
-0.249980947161589
20
-18.02872875272
30
0
41
1
10
-0.259797687981006
20
-18.0203010401962
30
0
41
1
10
-0.269511663051731
20
-18.0124779452731
30
0
41
1
10
-0.287211654583302
20
-17.999581232446
30
0
41
1
10
-0.295423697794945
20
-17.9942991812083
30
0
41
1
10
-0.309291111767863
20
-17.9872907726214
30
0
41
1
10
-0.315091067665378
20
-17.9855489176432
30
0
41
1
10
-0.322194130304297
20
-17.9863187804695
30
0
41
1
10
-0.32414188765793
20
-17.9882255184319
30
0
41
1
10
-0.324906942168184
20
-17.9921506207279
30
0
41
1
10
-0.32498094716172
20
-17.9930033696459
30
0
41
1
10
-0.32498094716172
20
-17.9939249199246
30
0
0
SPLINE
5
14E
100
AcDbEntity
8
1
62
256
6
ByLayer
370
18
48
1
60
0
100
AcDbSpline
70
4
71
3
72
16
73
12
40
0
40
0
40
0
40
0
40
0.138589784562611
40
0.138589784562611
40
0.353151861056776
40
0.353151861056776
40
0.570190967321415
40
0.570190967321415
40
0.908962274465456
40
0.908962274465456
40
1
40
1
40
1
40
1
41
1
10
-0.324980947161663
20
18.9324657830023
30
0
41
1
10
-0.324980947161663
20
18.9317902788802
30
0
41
1
10
-0.324330331133837
20
18.9317536112394
30
0
41
1
10
-0.321075737587165
20
18.9332952075859
30
0
41
1
10
-0.317530949447644
20
18.9358131165477
30
0
41
1
10
-0.308151744827654
20
18.9433083907631
30
0
41
1
10
-0.302205353360648
20
18.948377336511
30
0
41
1
10
-0.285308014301251
20
18.9633045368532
30
0
41
1
10
-0.273158673168581
20
18.9744756675422
30
0
41
1
10
-0.257025127288244
20
18.9896594829082
30
0
41
1
10
-0.253523035672572
20
18.9929745018164
30
0
41
1
10
-0.249980947161646
20
18.996344946724
30
0
0
SPLINE
5
14F
100
AcDbEntity
8
1
62
256
6
ByLayer
370
18
48
1
60
0
100
AcDbSpline
70
4
71
3
72
8
73
4
40
0
40
0
40
0
40
0
40
1
40
1
40
1
40
1
41
1
10
-0.249980947159742
20
13.2410331525237
30
0
41
1
10
-0.0352348131660847
20
13.4218276833375
30
0
41
1
10
0.179601945162574
20
13.6024787589423
30
0
41
1
10
0.394519052838319
20
13.7830022040407
30
0
0
SPLINE
5
150
100
AcDbEntity
8
1
62
256
6
ByLayer
370
18
48
1
60
0
100
AcDbSpline
70
4
71
3
72
12
73
8
40
0
40
0
40
0
40
0
40
0.238284110315804
40
0.238284110315804
40
0.693499188837084
40
0.693499188837084
40
1
40
1
40
1
40
1
41
1
10
-0.32498094716172
20
-14.8124623350354
30
0
41
1
10
-0.324980947160412
20
-14.8250665622847
30
0
41
1
10
-0.322563957303316
20
-14.8395827836258
30
0
41
1
10
-0.311510242767753
20
-14.8834060296336
30
0
41
1
10
-0.299099798672444
20
-14.9150040044866
30
0
41
1
10
-0.273999713189227
20
-14.9679953734617
30
0
41
1
10
-0.262512944022546
20
-14.989708598613
30
0
41
1
10
-0.249980947161703
20
-15.011305873316
30
0
0
SPLINE
5
151
100
AcDbEntity
8
1
62
256
6
ByLayer
370
18
48
1
60
0
100
AcDbSpline
70
4
71
3
72
18
73
14
40
0
40
0
40
0
40
0
40
0.152772634398944
40
0.152772634398944
40
0.372656114344168
40
0.372656114344168
40
0.56090741390462
40
0.56090741390462
40
0.721874681190829
40
0.721874681190829
40
0.973308510758092
40
0.973308510758092
40
1
40
1
40
1
40
1
41
1
10
-0.249980947160765
20
-14.6378611567673
30
0
41
1
10
-0.256162478716959
20
-14.6327878286321
30
0
41
1
10
-0.262415921837857
20
-14.6281492818557
30
0
41
1
10
-0.277294099717778
20
-14.6186816036046
30
0
41
1
10
-0.286038247677538
20
-14.6145346924841
30
0
41
1
10
-0.300123292160265
20
-14.6113803442181
30
0
41
1
10
-0.305943852928124
20
-14.6117158340747
30
0
41
1
10
-0.314360382541878
20
-14.6155103653912
30
0
41
1
10
-0.317419998019574
20
-14.6185224173724
30
0
41
1
10
-0.323098291485138
20
-14.6283387801472
30
0
41
1
10
-0.324668751520278
20
-14.6364254441561
30
0
41
1
10
-0.324966835007814
20
-14.6463275807696
30
0
41
1
10
-0.32498094716172
20
-14.6472983237552
30
0
41
1
10
-0.32498094716172
20
-14.6482797132063
30
0
0
SPLINE
5
152
100
AcDbEntity
8
1
62
256
6
ByLayer
370
18
48
1
60
0
100
AcDbSpline
70
4
71
3
72
24
73
20
40
0
40
0
40
0
40
0
40
0.0206848588900794
40
0.0206848588900794
40
0.060646799495183
40
0.060646799495183
40
0.089333718187653
40
0.089333718187653
40
0.118032445257533
40
0.118032445257533
40
0.156500968169848
40
0.156500968169848
40
0.222054907436235
40
0.222054907436235
40
0.401081749780742
40
0.401081749780742
40
0.91881305507234
40
0.91881305507234
40
1
40
1
40
1
40
1
41
1
10
0.394519052837552
20
9.81603258289664
30
0
41
1
10
0.397789280829073
20
9.81931253702786
30
0
41
1
10
0.401139924328277
20
9.82242019899934
30
0
41
1
10
0.41109147296217
20
9.83072034130186
30
0
41
1
10
0.418016583813056
20
9.83530976380467
30
0
41
1
10
0.429650020447383
20
9.8399859851371
30
0
41
1
10
0.434535828185574
20
9.84098333890589
30
0
41
1
10
0.443493024226655
20
9.84063096940727
30
0
41
1
10
0.44766659148678
20
9.8392799776588
30
0
41
1
10
0.456104953267953
20
9.83401130677211
30
0
41
1
10
0.460084318761034
20
9.82935528217584
30
0
41
1
10
0.468717974947282
20
9.81472982228314
30
0
41
1
10
0.472189805788503
20
9.80315016099806
30
0
41
1
10
0.481028383485437
20
9.75803216908741
30
0
41
1
10
0.480409679049018
20
9.71968745344631
30
0
41
1
10
0.469937489977752
20
9.57144039272166
30
0
41
1
10
0.44376687817882
20
9.45386467300796
30
0
41
1
10
0.405632347866316
20
9.32057564412344
30
0
41
1
10
0.400191892266008
20
9.30236739053862
30
0
41
1
10
0.394519052838348
20
9.28418104530812
30
0
0
SPLINE
5
153
100
AcDbEntity
8
1
62
256
6
ByLayer
370
18
48
1
60
0
100
AcDbSpline
70
4
71
3
72
8
73
4
40
0
40
0
40
0
40
0
40
1
40
1
40
1
40
1
41
1
10
-0.249980947161589
20
18.02872875272
30
0
41
1
10
-0.0352562688701994
20
18.2130707755636
30
0
41
1
10
0.179580285593943
20
18.3972391510824
30
0
41
1
10
0.394519052838319
20
18.5812482082593
30
0
0
SPLINE
5
154
100
AcDbEntity
8
1
62
256
6
ByLayer
370
18
48
1
60
0
100
AcDbSpline
70
4
71
3
72
22
73
18
40
0
40
0
40
0
40
0
40
0.177047077222608
40
0.177047077222608
40
0.339785040524724
40
0.339785040524724
40
0.464788989047046
40
0.464788989047046
40
0.567727919244636
40
0.567727919244636
40
0.671115022733353
40
0.671115022733353
40
0.768485722371064
40
0.768485722371064
40
0.904659703727702
40
0.904659703727702
40
1
40
1
40
1
40
1
41
1
10
0.394519052838319
20
-19.3305735632813
30
0
41
1
10
0.409331277986496
20
-19.3474079527141
30
0
41
1
10
0.423368445185702
20
-19.3639518224561
30
0
41
1
10
0.447107157831027
20
-19.3934031678982
30
0
41
1
10
0.457281753137437
20
-19.4067710602393
30
0
41
1
10
0.470882718266608
20
-19.426675279175
30
0
41
1
10
0.47542184304146
20
-19.4342379979462
30
0
41
1
10
0.479653035455499
20
-19.4441839844956
30
0
41
1
10
0.480069149940647
20
-19.4473170429572
30
0
41
1
10
0.477360526903539
20
-19.4498921369933
30
0
41
1
10
0.474169203566333
20
-19.4493361027783
30
0
41
1
10
0.465050569748286
20
-19.4448670138594
30
0
41
1
10
0.459205803319236
20
-19.4411209722358
30
0
41
1
10
0.44322350167937
20
-19.4295379618711
30
0
41
1
10
0.432077623030921
20
-19.4205240032207
30
0
41
1
10
0.412055391539724
20
-19.4033666625409
30
0
41
1
10
0.403367268603091
20
-19.3956608366666
30
0
41
1
10
0.394519052838319
20
-19.3876104526855
30
0
0
SPLINE
5
155
100
AcDbEntity
8
1
62
256
6
ByLayer
370
18
48
1
60
0
100
AcDbSpline
70
4
71
3
72
8
73
4
40
0
40
0
40
0
40
0
40
1
40
1
40
1
40
1
41
1
10
0.394519052838319
20
-12.0587239255453
30
0
41
1
10
0.179376718804036
20
-11.8676221276023
30
0
41
1
10
-0.0354719232411469
20
-11.6760784149013
30
0
41
1
10
-0.249980947156956
20
-11.484029721648
30
0
0
SPLINE
5
156
100
AcDbEntity
8
1
62
256
6
ByLayer
370
18
48
1
60
0
100
AcDbSpline
70
4
71
3
72
16
73
12
40
0
40
0
40
0
40
0
40
0.179734295377453
40
0.179734295377453
40
0.383266403843016
40
0.383266403843016
40
0.588925184528274
40
0.588925184528274
40
0.766117101794559
40
0.766117101794559
40
1
40
1
40
1
40
1
41
1
10
-0.249980947161219
20
-15.7705104401659
30
0
41
1
10
-0.257133799152257
20
-15.764668757659
30
0
41
1
10
-0.264332053878434
20
-15.7593292671481
30
0
41
1
10
-0.279167049677596
20
-15.7498391375718
30
0
41
1
10
-0.286897820481499
20
-15.7458626334012
30
0
41
1
10
-0.300639900226571
20
-15.7413488729786
30
0
41
1
10
-0.306808277672815
20
-15.7408261943328
30
0
41
1
10
-0.315640504608439
20
-15.7433213860411
30
0
41
1
10
-0.318791008349706
20
-15.7458657822589
30
0
41
1
10
-0.323771710814128
20
-15.7540555129293
30
0
41
1
10
-0.324980947161663
20
-15.7605037080438
30
0
41
1
10
-0.324980947161663
20
-15.7678282405416
30
0
0
SPLINE
5
157
100
AcDbEntity
8
1
62
256
6
ByLayer
370
18
48
1
60
0
100
AcDbSpline
70
4
71
3
72
16
73
12
40
0
40
0
40
0
40
0
40
0.276351823813832
40
0.276351823813832
40
0.528716772105741
40
0.528716772105741
40
0.743136095900292
40
0.743136095900292
40
0.958147221840903
40
0.958147221840903
40
1
40
1
40
1
40
1
41
1
10
-0.249980947161618
20
-18.4790984828195
30
0
41
1
10
-0.260647131689012
20
-18.4696648193085
30
0
41
1
10
-0.271137086120035
20
-18.4608380910637
30
0
41
1
10
-0.289577112777067
20
-18.4464866100013
30
0
41
1
10
-0.297839929178792
20
-18.4406231881072
30
0
41
1
10
-0.310480736674833
20
-18.4330991910473
30
0
41
1
10
-0.315369217788998
20
-18.4308858315127
30
0
41
1
10
-0.322226378270784
20
-18.4296419897003
30
0
41
1
10
-0.324268066293257
20
-18.4306115705361
30
0
41
1
10
-0.324927422014895
20
-18.4334745735416
30
0
41
1
10
-0.324980947161663
20
-18.4340003777338
30
0
41
1
10
-0.324980947161663
20
-18.4345773721769
30
0
0
SPLINE
5
158
100
AcDbEntity
8
1
62
256
6
ByLayer
370
18
48
1
60
0
100
AcDbSpline
70
4
71
3
72
8
73
4
40
0
40
0
40
0
40
0
40
1
40
1
40
1
40
1
41
1
10
0.394519052838319
20
5.63509935370516
30
0
41
1
10
-0.291747527511433
20
1.90486641532195
30
0
41
1
10
-0.29214584879557
20
-1.90270132202366
30
0
41
1
10
0.394519052838291
20
-5.63509935370516
30
0
0
SPLINE
5
159
100
AcDbEntity
8
1
62
256
6
ByLayer
370
18
48
1
60
0
100
AcDbSpline
70
4
71
3
72
8
73
4
40
0
40
0
40
0
40
0
40
1
40
1
40
1
40
1
41
1
10
0.394519052838319
20
19.6990969386236
30
0
41
1
10
0.179076567029881
20
19.4777657699182
30
0
41
1
10
-0.0357767269013607
20
19.2556670974128
30
0
41
1
10
-0.249980947161674
20
19.0327392125282
30
0
0
SPLINE
5
15A
100
AcDbEntity
8
1
62
256
6
ByLayer
370
18
48
1
60
0
100
AcDbSpline
70
4
71
3
72
22
73
18
40
0
40
0
40
0
40
0
40
0.314547624694485
40
0.314547624694485
40
0.489188195690755
40
0.489188195690755
40
0.667037022369923
40
0.667037022369923
40
0.742177798145202
40
0.742177798145202
40
0.81837245440834
40
0.81837245440834
40
0.885209745218448
40
0.885209745218448
40
0.964339528007162
40
0.964339528007162
40
1
40
1
40
1
40
1
41
1
10
0.394519052838319
20
-14.9171390202628
30
0
41
1
10
0.41827236141475
20
-14.9603963824774
30
0
41
1
10
0.438918046351972
20
-15.0042762027091
30
0
41
1
10
0.463039580774989
20
-15.0695055028691
30
0
41
1
10
0.470164967175464
20
-15.0925501744984
30
0
41
1
10
0.479208225768389
20
-15.1357287826681
30
0
41
1
10
0.481247111523743
20
-15.1565997747607
30
0
41
1
10
0.476358308188395
20
-15.1790562776074
30
0
41
1
10
0.473814074127688
20
-15.1849082348473
30
0
41
1
10
0.466047174658286
20
-15.1933015194689
30
0
41
1
10
0.460630160135679
20
-15.1958528695878
30
0
41
1
10
0.448237679219602
20
-15.1963915399305
30
0
41
1
10
0.441382973977852
20
-15.1949059312805
30
0
41
1
10
0.425599323042917
20
-15.1885282570572
30
0
41
1
10
0.416302421604257
20
-15.1830215404524
30
0
41
1
10
0.402907924232011
20
-15.1734074191566
30
0
41
1
10
0.398703383680527
20
-15.17015564785
30
0
41
1
10
0.394519052838319
20
-15.1667226783067
30
0
0
SPLINE
5
15B
100
AcDbEntity
8
1
62
256
6
ByLayer
370
18
48
1
60
0
100
AcDbSpline
70
4
71
3
72
10
73
6
40
0
40
0
40
0
40
0
40
0.453711921574278
40
0.453711921574278
40
1
40
1
40
1
40
1
41
1
10
-0.324980947161691
20
-6.37324688789289
30
0
41
1
10
-0.324980947162089
20
-6.45638947852444
30
0
41
1
10
-0.317301823059751
20
-6.54193845517366
30
0
41
1
10
-0.293012640935643
20
-6.72994439185723
30
0
41
1
10
-0.274238508775852
20
-6.83335647808005
30
0
41
1
10
-0.249980947162072
20
-6.93594876110097
30
0
0
SPLINE
5
15C
100
AcDbEntity
8
1
62
256
6
ByLayer
370
18
48
1
60
0
100
AcDbSpline
70
4
71
3
72
8
73
4
40
0
40
0
40
0
40
0
40
1
40
1
40
1
40
1
41
1
10
-0.249980947161646
20
18.996344946724
30
0
41
1
10
-0.0355054703228177
20
19.2004273056163
30
0
41
1
10
0.179338716638313
20
19.4039939367894
30
0
41
1
10
0.394519052838319
20
19.6070845897382
30
0
0
SPLINE
5
15D
100
AcDbEntity
8
1
62
256
6
ByLayer
370
18
48
1
60
0
100
AcDbSpline
70
4
71
3
72
18
73
14
40
0
40
0
40
0
40
0
40
0.172693384504572
40
0.172693384504572
40
0.374662771893737
40
0.374662771893737
40
0.540937515704528
40
0.540937515704528
40
0.707551575156824
40
0.707551575156824
40
0.908749454848477
40
0.908749454848477
40
1
40
1
40
1
40
1
41
1
10
-0.324980947163851
20
14.6482797132045
30
0
41
1
10
-0.324980947163937
20
14.6419894989028
30
0
41
1
10
-0.32440144962959
20
14.6361022616813
30
0
41
1
10
-0.321481528253599
20
14.6249402069886
30
0
41
1
10
-0.318800509149071
20
14.6198418750797
30
0
41
1
10
-0.31150813356652
20
14.6137148518036
30
0
41
1
10
-0.307224062394568
20
14.6120981946817
30
0
41
1
10
-0.297138770455916
20
14.6117749820166
30
0
41
1
10
-0.291210931737538
20
14.6130740659361
30
0
41
1
10
-0.277427723684014
20
14.6186211310805
30
0
41
1
10
-0.269237461406505
20
14.6234603308767
30
0
41
1
10
-0.257416084496612
20
14.6319359920037
30
0
41
1
10
-0.253689271776352
20
14.6348176476572
30
0
41
1
10
-0.249980947160765
20
14.6378611567675
30
0
0
SPLINE
5
15E
100
AcDbEntity
8
1
62
256
6
ByLayer
370
18
48
1
60
0
100
AcDbSpline
70
4
71
3
72
22
73
18
40
0
40
0
40
0
40
0
40
0.501204601746444
40
0.501204601746444
40
0.668371074740838
40
0.668371074740838
40
0.751638215942059
40
0.751638215942059
40
0.81687957865712
40
0.81687957865712
40
0.862349608975766
40
0.862349608975766
40
0.908208578384301
40
0.908208578384301
40
0.949654235780413
40
0.949654235780413
40
1
40
1
40
1
40
1
41
1
10
0.394519052838405
20
-11.6678057336411
30
0
41
1
10
0.430483129886539
20
-11.7568783680756
30
0
41
1
10
0.459335522461714
20
-11.8486538266279
30
0
41
1
10
0.477511563270298
20
-11.9625698658215
30
0
41
1
10
0.48032821113037
20
-11.9910078737772
30
0
41
1
10
0.478823564742811
20
-12.0297560866315
30
0
41
1
10
0.477335309886371
20
-12.0421441243299
30
0
41
1
10
0.471734054092423
20
-12.0614113266723
30
0
41
1
10
0.468187595030315
20
-12.0690435467857
30
0
41
1
10
0.459626867429449
20
-12.0784732242377
30
0
41
1
10
0.455278961679198
20
-12.0813734192935
30
0
41
1
10
0.445168200056514
20
-12.0841510432408
30
0
41
1
10
0.439248001676845
20
-12.0840053804978
30
0
41
1
10
0.427458052513941
20
-12.0808667522932
30
0
41
1
10
0.421514755084559
20
-12.0781439299216
30
0
41
1
10
0.408544697677399
20
-12.070343651735
30
0
41
1
10
0.401407235506724
20
-12.0648424056649
30
0
41
1
10
0.394519052837495
20
-12.0587239255499
30
0
0
SPLINE
5
15F
100
AcDbEntity
8
1
62
256
6
ByLayer
370
18
48
1
60
0
100
AcDbSpline
70
4
71
3
72
8
73
4
40
0
40
0
40
0
40
0
40
1
40
1
40
1
40
1
41
1
10
0.394519052838319
20
11.6678057336411
30
0
41
1
10
0.167075266492191
20
11.1044931479051
30
0
41
1
10
-0.0483934946950342
20
10.5344723697693
30
0
41
1
10
-0.249980947161674
20
9.95818080364211
30
0
0
SPLINE
5
160
100
AcDbEntity
8
1
62
256
6
ByLayer
370
18
48
1
60
0
100
AcDbSpline
70
4
71
3
72
8
73
4
40
0
40
0
40
0
40
0
40
1
40
1
40
1
40
1
41
1
10
-0.249980947161674
20
-18.1816177175708
30
0
41
1
10
-0.0364873455682471
20
-18.4447144991339
30
0
41
1
10
0.178392735131837
20
-18.7063187568174
30
0
41
1
10
0.394519052838319
20
-18.9665337194095
30
0
0
SPLINE
5
161
100
AcDbEntity
8
1
62
256
6
ByLayer
370
18
48
1
60
0
100
AcDbSpline
70
4
71
3
72
8
73
4
40
0
40
0
40
0
40
0
40
1
40
1
40
1
40
1
41
1
10
0.394519052838319
20
-15.1667226783066
30
0
41
1
10
0.179673252606676
20
-14.9904557633514
30
0
41
1
10
-0.035160531136512
20
-14.8141693177327
30
0
41
1
10
-0.249980947160765
20
-14.6378611567675
30
0
0
SPLINE
5
162
100
AcDbEntity
8
1
62
256
6
ByLayer
370
18
48
1
60
0
100
AcDbSpline
70
4
71
3
72
8
73
4
40
0
40
0
40
0
40
0
40
1
40
1
40
1
40
1
41
1
10
-0.249980947161674
20
-18.591105468188
30
0
41
1
10
-0.0361927547921823
20
-18.8388034703858
30
0
41
1
10
0.178675800779445
20
-19.0852634005435
30
0
41
1
10
0.394519052838319
20
-19.3305735632813
30
0
0
SPLINE
5
163
100
AcDbEntity
8
1
62
256
6
ByLayer
370
18
48
1
60
0
100
AcDbSpline
70
4
71
3
72
24
73
20
40
0
40
0
40
0
40
0
40
0.44108536409382
40
0.44108536409382
40
0.632349726738078
40
0.632349726738078
40
0.769815089434542
40
0.769815089434542
40
0.818093573861656
40
0.818093573861656
40
0.86698887448148
40
0.86698887448148
40
0.897729219202211
40
0.897729219202211
40
0.928744819832705
40
0.928744819832705
40
0.957005194047848
40
0.957005194047848
40
1
40
1
40
1
40
1
41
1
10
0.394519052838376
20
-9.28418104530812
30
0
41
1
10
0.425188873199517
20
-9.38250428331912
30
0
41
1
10
0.449882675710285
20
-9.48211334891894
30
0
41
1
10
0.472231488335666
20
-9.62130810046412
30
0
41
1
10
0.477297611577683
20
-9.66336231315202
30
0
41
1
10
0.480174337999642
20
-9.73290379120709
30
0
41
1
10
0.479771064349393
20
-9.76164276994709
30
0
41
1
10
0.473663831624634
20
-9.79635945319598
30
0
41
1
10
0.471512273660323
20
-9.80507510835685
30
0
41
1
10
0.465476192632252
20
-9.82082659342112
30
0
41
1
10
0.46149986833197
20
-9.82800901879023
30
0
41
1
10
0.452876879253864
20
-9.83636377353508
30
0
41
1
10
0.448932681092146
20
-9.83879960142727
30
0
41
1
10
0.440086233306062
20
-9.84116944658126
30
0
41
1
10
0.435053746645622
20
-9.84108063858938
30
0
41
1
10
0.425216115211157
20
-9.83851127653023
30
0
41
1
10
0.420327216262308
20
-9.83624231582124
30
0
41
1
10
0.408342177572194
20
-9.82883165461971
30
0
41
1
10
0.401224377748974
20
-9.8227578504291
30
0
41
1
10
0.394519052838319
20
-9.81603258289471
30
0
0
SPLINE
5
164
100
AcDbEntity
8
1
62
256
6
ByLayer
370
18
48
1
60
0
100
AcDbSpline
70
4
71
3
72
18
73
14
40
0
40
0
40
0
40
0
40
0.150435413459155
40
0.150435413459155
40
0.35509017642746
40
0.35509017642746
40
0.561953107090208
40
0.561953107090208
40
0.739387968277302
40
0.739387968277302
40
0.986215876208487
40
0.986215876208487
40
1
40
1
40
1
40
1
41
1
10
-0.324980947162317
20
15.767828240541
30
0
41
1
10
-0.324980947162317
20
15.763101472641
30
0
41
1
10
-0.324484365155087
20
15.7587571668661
30
0
41
1
10
-0.32186780661084
20
15.7499564226083
30
0
41
1
10
-0.319163331965342
20
15.7459428960202
30
0
41
1
10
-0.311112490389462
20
15.7413647335261
30
0
41
1
10
-0.305586944128237
20
15.7408167126847
30
0
41
1
10
-0.293565917025177
20
15.7433107612256
30
0
41
1
10
-0.287190897498419
20
15.7458606684657
30
0
41
1
10
-0.271359399745677
20
15.7543401173141
30
0
41
1
10
-0.261431596246382
20
15.7612832042177
30
0
41
1
10
-0.251087196815177
20
15.7696101793364
30
0
41
1
10
-0.250534089826942
20
15.7700586925501
30
0
41
1
10
-0.249980947161674
20
15.7705104401656
30
0
0
SPLINE
5
165
100
AcDbEntity
8
1
62
256
6
ByLayer
370
18
48
1
60
0
100
AcDbSpline
70
4
71
3
72
22
73
18
40
0
40
0
40
0
40
0
40
0.139273883719757
40
0.139273883719757
40
0.26128917352386
40
0.26128917352386
40
0.363859530076579
40
0.363859530076579
40
0.466842106941883
40
0.466842106941883
40
0.564255799544209
40
0.564255799544209
40
0.701692392392527
40
0.701692392392527
40
0.894855104291391
40
0.894855104291391
40
1
40
1
40
1
40
1
41
1
10
0.394519052838348
20
19.3876104526855
30
0
41
1
10
0.407363102370624
20
19.3992963714466
30
0
41
1
10
0.419929824129099
20
19.4103090855874
30
0
41
1
10
0.441368022924166
20
19.4279999529528
30
0
41
1
10
0.450697879782325
20
19.4351924715455
30
0
41
1
10
0.464731732953482
20
19.444681386161
30
0
41
1
10
0.470057704623116
20
19.4476437428617
30
0
41
1
10
0.4772976056787
20
19.449890463539
30
0
41
1
10
0.479279537266876
20
19.4491748507183
30
0
41
1
10
0.479704863514314
20
19.444434568753
30
0
41
1
10
0.478361186172009
20
19.4405579019228
30
0
41
1
10
0.472196796096199
20
19.4286342035027
30
0
41
1
10
0.466128095342782
20
19.4193805689441
30
0
41
1
10
0.448202557756929
20
19.3946397406734
30
0
41
1
10
0.434731664003578
20
19.3777342144498
30
0
41
1
10
0.411919389072295
20
19.3505600857198
30
0
41
1
10
0.403369760680221
20
19.3406325693439
30
0
41
1
10
0.394519052838319
20
19.3305735632813
30
0
0
SPLINE
5
166
100
AcDbEntity
8
1
62
256
6
ByLayer
370
18
48
1
60
0
100
AcDbSpline
70
4
71
3
72
16
73
12
40
0
40
0
40
0
40
0
40
0.205245687107939
40
0.205245687107939
40
0.42358718808829
40
0.42358718808829
40
0.644255859554191
40
0.644255859554191
40
0.834055587437534
40
0.834055587437534
40
1
40
1
40
1
40
1
41
1
10
-0.249980947161418
20
-16.6928433719954
30
0
41
1
10
-0.258052993990617
20
-16.6861964617715
30
0
41
1
10
-0.266132415192544
20
-16.680102122491
30
0
41
1
10
-0.282049955933388
20
-16.6696246650582
30
0
41
1
10
-0.29000507100929
20
-16.6652914215173
30
0
41
1
10
-0.303900135764508
20
-16.660121893933
30
0
41
1
10
-0.309994853634834
20
-16.6592919077344
30
0
41
1
10
-0.318359036730555
20
-16.6613767500816
30
0
41
1
10
-0.321158558554828
20
-16.6637899404546
30
0
41
1
10
-0.324313016982615
20
-16.6703136930313
30
0
41
1
10
-0.324980947162032
20
-16.6741989633861
30
0
41
1
10
-0.324980947162032
20
-16.6786305280169
30
0
0
SPLINE
5
167
100
AcDbEntity
8
1
62
256
6
ByLayer
370
18
48
1
60
0
100
AcDbSpline
70
4
71
3
72
8
73
4
40
0
40
0
40
0
40
0
40
1
40
1
40
1
40
1
41
1
10
0.394519052838319
20
-19.0478637127897
30
0
41
1
10
0.179515431750104
20
-18.8585328632802
30
0
41
1
10
-0.0353231021630336
20
-18.6689517405164
30
0
41
1
10
-0.249980947161618
20
-18.4790984828195
30
0
0
SPLINE
5
168
100
AcDbEntity
8
1
62
256
6
ByLayer
370
18
48
1
60
0
100
AcDbSpline
70
4
71
3
72
8
73
4
40
0
40
0
40
0
40
0
40
1
40
1
40
1
40
1
41
1
10
0.394519052838319
20
16.0923183384427
30
0
41
1
10
0.175900366251454
20
15.7350293608484
30
0
41
1
10
-0.0390955465932166
20
15.3747395684788
30
0
41
1
10
-0.249980947161674
20
15.011305873316
30
0
0
SPLINE
5
169
100
AcDbEntity
8
1
62
256
6
ByLayer
370
18
48
1
60
0
100
AcDbSpline
70
4
71
3
72
8
73
4
40
0
40
0
40
0
40
0
40
1
40
1
40
1
40
1
41
1
10
0.394519052838319
20
-16.2968648471026
30
0
41
1
10
0.179685181728644
20
-16.1214142561083
30
0
41
1
10
-0.0351481695533096
20
-15.945962816426
30
0
41
1
10
-0.249980947161219
20
-15.770510440166
30
0
0
SPLINE
5
16A
100
AcDbEntity
8
1
62
256
6
ByLayer
370
18
48
1
60
0
100
AcDbSpline
70
4
71
3
72
10
73
6
40
0
40
0
40
0
40
0
40
0.710344148694951
40
0.710344148694951
40
1
40
1
40
1
40
1
41
1
10
-0.249980947161987
20
9.95818080364208
30
0
41
1
10
-0.280258805463575
20
9.87162346008668
30
0
41
1
10
-0.303478624157634
20
9.783224124219
30
0
41
1
10
-0.32148053892422
20
9.66295508608408
30
0
41
1
10
-0.32498094716118
20
9.6281517249445
30
0
41
1
10
-0.324980947161663
20
9.59510119943192
30
0
0
SPLINE
5
16B
100
AcDbEntity
8
1
62
256
6
ByLayer
370
18
48
1
60
0
100
AcDbSpline
70
4
71
3
72
26
73
22
40
0
40
0
40
0
40
0
40
0.275225058240895
40
0.275225058240895
40
0.6432464082369
40
0.6432464082369
40
0.804612005697611
40
0.804612005697611
40
0.885674716972355
40
0.885674716972355
40
0.913780944205259
40
0.913780944205259
40
0.929803296399283
40
0.929803296399283
40
0.943095909253756
40
0.943095909253756
40
0.956435608367649
40
0.956435608367649
40
0.973160928201273
40
0.973160928201273
40
1
40
1
40
1
40
1
41
1
10
0.394519052838319
20
-5.63509935370516
30
0
41
1
10
0.412092277390372
20
-5.73061940806102
30
0
41
1
10
0.427617902573814
20
-5.82628570940065
30
0
41
1
10
0.458513504531481
20
-6.04910688744886
30
0
41
1
10
0.472809692991689
20
-6.17683343665649
30
0
41
1
10
0.480134077700484
20
-6.35680390662995
30
0
41
1
10
0.480790536034334
20
-6.41165645130394
30
0
41
1
10
0.473849128623982
20
-6.49012613969913
30
0
41
1
10
0.470353004856548
20
-6.51632461626107
30
0
41
1
10
0.459821159413593
20
-6.54662375530265
30
0
41
1
10
0.456478322884664
20
-6.55407780574063
30
0
41
1
10
0.449582893147834
20
-6.5634870564902
30
0
41
1
10
0.446676568877166
20
-6.56645926830774
30
0
41
1
10
0.440628082066894
20
-6.57018311286544
30
0
41
1
10
0.437543463185875
20
-6.57123577624947
30
0
41
1
10
0.431081319642743
20
-6.57161578155294
30
0
41
1
10
0.427626813186123
20
-6.57093615795915
30
0
41
1
10
0.420043702596018
20
-6.567805082836
30
0
41
1
10
0.415849799432152
20
-6.56494525107922
30
0
41
1
10
0.405651931464803
20
-6.55610434693239
30
0
41
1
10
0.399849900181039
20
-6.54919503965658
30
0
41
1
10
0.394519052838291
20
-6.54187806553904
30
0
0
SPLINE
5
16C
100
AcDbEntity
8
1
62
256
6
ByLayer
370
18
48
1
60
0
100
AcDbSpline
70
4
71
3
72
8
73
4
40
0
40
0
40
0
40
0
40
1
40
1
40
1
40
1
41
1
10
-0.249980947161674
20
-15.011305873316
30
0
41
1
10
-0.0390955465932166
20
-15.3747395684788
30
0
41
1
10
0.175900366251454
20
-15.7350293608484
30
0
41
1
10
0.394519052838319
20
-16.0923183384427
30
0
0
SPLINE
5
16D
100
AcDbEntity
8
1
62
256
6
ByLayer
370
18
48
1
60
0
100
AcDbSpline
70
4
71
3
72
8
73
4
40
0
40
0
40
0
40
0
40
1
40
1
40
1
40
1
41
1
10
0.394519052838319
20
-17.2234180953956
30
0
41
1
10
0.179667539911009
20
-17.0465893021274
30
0
41
1
10
-0.0351663712000914
20
-16.8697319891465
30
0
41
1
10
-0.249980947161418
20
-16.6928433719955
30
0
0
SPLINE
5
16E
100
AcDbEntity
8
1
62
256
6
ByLayer
370
18
48
1
60
0
100
AcDbSpline
70
4
71
3
72
20
73
16
40
0
40
0
40
0
40
0
40
0.092811645568057
40
0.092811645568057
40
0.248393409487404
40
0.248393409487404
40
0.364923900413234
40
0.364923900413234
40
0.481099622226512
40
0.481099622226512
40
0.651226534916504
40
0.651226534916504
40
0.944713939994483
40
0.944713939994483
40
1
40
1
40
1
40
1
41
1
10
-0.2499809471567
20
-11.4840297216472
30
0
41
1
10
-0.25396600949486
20
-11.4804619182948
30
0
41
1
10
-0.258035856448686
20
-11.4771421000847
30
0
41
1
10
-0.268948085438382
20
-11.4693477502519
30
0
41
1
10
-0.276018382009085
20
-11.4654915057363
30
0
41
1
10
-0.287599381147743
20
-11.4620830475688
30
0
41
1
10
-0.29241469879662
20
-11.4616884824178
30
0
41
1
10
-0.30088938936376
20
-11.4631954574238
30
0
41
1
10
-0.304653008195657
20
-11.4650920419125
30
0
41
1
10
-0.312376862099882
20
-11.4717480606215
30
0
41
1
10
-0.315792857243622
20
-11.4774722089602
30
0
41
1
10
-0.322555386335154
20
-11.4951060717701
30
0
41
1
10
-0.324352679274142
20
-11.5087533439068
30
0
41
1
10
-0.324936716878255
20
-11.5256666156451
30
0
41
1
10
-0.324980947161777
20
-11.5283967548234
30
0
41
1
10
-0.324980947161777
20
-11.5311526233309
30
0
0
SPLINE
5
16F
100
AcDbEntity
8
1
62
256
6
ByLayer
370
18
48
1
60
0
100
AcDbSpline
70
4
71
3
72
8
73
4
40
0
40
0
40
0
40
0
40
1
40
1
40
1
40
1
41
1
10
-0.249980947161646
20
18.7994441682815
30
0
41
1
10
-0.0354053390300066
20
18.9958755564109
30
0
41
1
10
0.179435695072158
20
19.1919208736785
30
0
41
1
10
0.394519052838319
20
19.3876104526855
30
0
0
SPLINE
5
170
100
AcDbEntity
8
1
62
256
6
ByLayer
370
18
48
1
60
0
100
AcDbSpline
70
4
71
3
72
22
73
18
40
0
40
0
40
0
40
0
40
0.179950371584695
40
0.179950371584695
40
0.330582840102327
40
0.330582840102327
40
0.450068996766956
40
0.450068996766956
40
0.570958630834341
40
0.570958630834341
40
0.673108526285204
40
0.673108526285204
40
0.774784733516888
40
0.774784733516888
40
0.928575686255428
40
0.928575686255428
40
1
40
1
40
1
40
1
41
1
10
0.394519052838319
20
-19.5732661362727
30
0
41
1
10
0.409811528179063
20
-19.5897542188033
30
0
41
1
10
0.424374574627194
20
-19.6058371726624
30
0
41
1
10
0.447800441616408
20
-19.6326356334644
30
0
41
1
10
0.457404667806912
20
-19.6440343108134
30
0
41
1
10
0.47057350034612
20
-19.6607747415594
30
0
41
1
10
0.47507256308802
20
-19.6670161325704
30
0
41
1
10
0.479894856114413
20
-19.6754367573932
30
0
41
1
10
0.480188554744359
20
-19.677644640058
30
0
41
1
10
0.476315299614953
20
-19.6771134940703
30
0
41
1
10
0.472790710641732
20
-19.6750887404331
30
0
41
1
10
0.463133821277125
20
-19.668134458301
30
0
41
1
10
0.456925623916646
20
-19.6631634576382
30
0
41
1
10
0.439394170264905
20
-19.6483415240208
30
0
41
1
10
0.426817933884166
20
-19.6370893239844
30
0
41
1
10
0.407406617666112
20
-19.6191858263395
30
0
41
1
10
0.401017516193661
20
-19.6132179436929
30
0
41
1
10
0.394519052838319
20
-19.6070845897382
30
0
0
SPLINE
5
171
100
AcDbEntity
8
1
62
256
6
ByLayer
370
18
48
1
60
0
100
AcDbSpline
70
4
71
3
72
10
73
6
40
0
40
0
40
0
40
0
40
0.458235869640195
40
0.458235869640195
40
1
40
1
40
1
40
1
41
1
10
-0.249980947161873
20
6.93594876110097
30
0
41
1
10
-0.270346092702994
20
6.84981863770352
30
0
41
1
10
-0.28677376098571
20
6.76313934416442
30
0
41
1
10
-0.31438372567564
20
6.57494561621039
30
0
41
1
10
-0.324980947162175
20
6.47244978824421
30
0
41
1
10
-0.324980947161691
20
6.37324688789289
30
0
0
SPLINE
5
172
100
AcDbEntity
8
1
62
256
6
ByLayer
370
18
48
1
60
0
100
AcDbSpline
70
4
71
3
72
14
73
10
40
0
40
0
40
0
40
0
40
0.467592821481837
40
0.467592821481837
40
0.765313187484609
40
0.765313187484609
40
0.993330689014294
40
0.993330689014294
40
1
40
1
40
1
40
1
41
1
10
-0.249980947161674
20
17.6355675589553
30
0
41
1
10
-0.268411910255111
20
17.6112459850686
30
0
41
1
10
-0.285223515491907
20
17.5868892355834
30
0
41
1
10
-0.306978426105758
20
17.5501847687632
30
0
41
1
10
-0.314163599411501
20
17.536392122987
30
0
41
1
10
-0.322575271080723
20
17.5152199018868
30
0
41
1
10
-0.324848799825389
20
17.5069217872542
30
0
41
1
10
-0.324979061598469
20
17.5004293085476
30
0
41
1
10
-0.324980947161663
20
17.5002439900365
30
0
41
1
10
-0.324980947161663
20
17.5000603949211
30
0
0
SPLINE
5
173
100
AcDbEntity
8
1
62
256
6
ByLayer
370
18
48
1
60
0
100
AcDbSpline
70
4
71
3
72
22
73
18
40
0
40
0
40
0
40
0
40
0.408684324364642
40
0.408684324364642
40
0.616236304630552
40
0.616236304630552
40
0.702098076173433
40
0.702098076173433
40
0.789387538086883
40
0.789387538086883
40
0.84447814326802
40
0.84447814326802
40
0.899761286274415
40
0.899761286274415
40
0.953309161336055
40
0.953309161336055
40
1
40
1
40
1
40
1
41
1
10
0.394519052838319
20
-13.4751387226224
30
0
41
1
10
0.42464613711013
20
-13.537810820098
30
0
41
1
10
0.449719995926529
20
-13.6019684752477
30
0
41
1
10
0.473334413977796
20
-13.6928941937859
30
0
41
1
10
0.479020166223251
20
-13.7233281344957
30
0
41
1
10
0.479685312974482
20
-13.7612545395208
30
0
41
1
10
0.478936632261423
20
-13.7718681323131
30
0
41
1
10
0.474504984859635
20
-13.7904363713798
30
0
41
1
10
0.470674894339055
20
-13.7985758785161
30
0
41
1
10
0.460937156483766
20
-13.8069973096748
30
0
41
1
10
0.456191273611552
20
-13.809094012914
30
0
41
1
10
0.445237655013415
20
-13.8101551818682
30
0
41
1
10
0.438887830944566
20
-13.8091114815384
30
0
41
1
10
0.425834787815063
20
-13.8043777070099
30
0
41
1
10
0.419014903663992
20
-13.8007508484983
30
0
41
1
10
0.406330653686638
20
-13.7924452721931
30
0
41
1
10
0.400377184476099
20
-13.7879228458484
30
0
41
1
10
0.394519052838263
20
-13.7830022040413
30
0
0
SPLINE
5
174
100
AcDbEntity
8
1
62
256
6
ByLayer
370
18
48
1
60
0
100
AcDbSpline
70
4
71
3
72
22
73
18
40
0
40
0
40
0
40
0
40
0.0604025462158293
40
0.0604025462158293
40
0.147184383286022
40
0.147184383286022
40
0.221452263388165
40
0.221452263388165
40
0.284657112146506
40
0.284657112146506
40
0.383061855667252
40
0.383061855667252
40
0.545111187455039
40
0.545111187455039
40
0.834973778387932
40
0.834973778387932
40
1
40
1
40
1
40
1
41
1
10
0.394519052838319
20
15.166722678307
30
0
41
1
10
0.401545871754166
20
15.1724877232411
30
0
41
1
10
0.408653238363001
20
15.1777590578898
30
0
41
1
10
0.425540849239837
20
15.1885069696644
30
0
41
1
10
0.435455897941495
20
15.1932159619238
30
0
41
1
10
0.451418654021182
20
15.1967878114455
30
0
41
1
10
0.458012524801461
20
15.1963973904129
30
0
41
1
10
0.467515728943567
20
15.1920505872095
30
0
41
1
10
0.470961777603236
20
15.1886184560727
30
0
41
1
10
0.477348176262637
20
15.1774581090455
30
0
41
1
10
0.479124696152013
20
15.1682851060533
30
0
41
1
10
0.48000791264846
20
15.1414893474387
30
0
41
1
10
0.476831674567649
20
15.1217726497934
30
0
41
1
10
0.462725220823472
20
15.065074688198
30
0
41
1
10
0.447445713169003
20
15.0253267629505
30
0
41
1
10
0.418700289927244
20
14.9629721962769
30
0
41
1
10
0.407077678829808
20
14.9400096461246
30
0
41
1
10
0.394519052838348
20
14.9171390202628
30
0
0
SPLINE
5
175
100
AcDbEntity
8
1
62
256
6
ByLayer
370
18
48
1
60
0
100
AcDbSpline
70
4
71
3
72
8
73
4
40
0
40
0
40
0
40
0
40
1
40
1
40
1
40
1
41
1
10
0.394519052838319
20
9.28418104530812
30
0
41
1
10
0.153545136850994
20
8.51165171787554
30
0
41
1
10
-0.0626871252384831
20
7.72806880567606
30
0
41
1
10
-0.249980947161703
20
6.93594876110097
30
0
0
SPLINE
5
176
100
AcDbEntity
8
1
62
256
6
ByLayer
370
18
48
1
60
0
100
AcDbSpline
70
4
71
3
72
12
73
8
40
0
40
0
40
0
40
0
40
0.540518353555916
40
0.540518353555916
40
0.869369978679555
40
0.869369978679555
40
1
40
1
40
1
40
1
41
1
10
-0.249980947161703
20
15.011305873316
30
0
41
1
10
-0.271910386071767
20
14.973513323455
30
0
41
1
10
-0.290869165118437
20
14.9350764040869
30
0
41
1
10
-0.313065159020596
20
14.8764659336491
30
0
41
1
10
-0.319699525179459
20
14.8545668106014
30
0
41
1
10
-0.32423303565048
20
14.8269866907195
30
0
41
1
10
-0.324980947165073
20
14.8194287506433
30
0
41
1
10
-0.324980947165955
20
14.8124623350326
30
0
0
SPLINE
5
177
100
AcDbEntity
8
1
62
256
6
ByLayer
370
18
48
1
60
0
100
AcDbSpline
70
4
71
3
72
14
73
10
40
0
40
0
40
0
40
0
40
0.158420228294809
40
0.158420228294809
40
0.383502935565572
40
0.383502935565572
40
0.741809944580249
40
0.741809944580249
40
1
40
1
40
1
40
1
41
1
10
-0.324980947161777
20
-18.4837089376593
30
0
41
1
10
-0.324980947161777
20
-18.4860553308189
30
0
41
1
10
-0.323992548254893
20
-18.4893700128427
30
0
41
1
10
-0.319670166986071
20
-18.4990526114348
30
0
41
1
10
-0.315479701706124
20
-18.5062205486188
30
0
41
1
10
-0.301990526231805
20
-18.5266661591476
30
0
41
1
10
-0.290950658335362
20
-18.5413857722147
30
0
41
1
10
-0.269784604658497
20
-18.5677927070637
30
0
41
1
10
-0.26010894588569
20
-18.5793710266251
30
0
41
1
10
-0.249980947161674
20
-18.591105468188
30
0
0
SPLINE
5
178
100
AcDbEntity
8
1
62
256
6
ByLayer
370
18
48
1
60
0
100
AcDbSpline
70
4
71
3
72
16
73
12
40
0
40
0
40
0
40
0
40
0.139294418755713
40
0.139294418755713
40
0.373165666609253
40
0.373165666609253
40
0.5782200576134
40
0.5782200576134
40
0.767384494360283
40
0.767384494360283
40
1
40
1
40
1
40
1
41
1
10
-0.32498094716189
20
16.678630528017
30
0
41
1
10
-0.324980947161919
20
16.6749006414288
30
0
41
1
10
-0.324509925620276
20
16.6715608890287
30
0
41
1
10
-0.321776149719597
20
16.6641644827683
30
0
41
1
10
-0.318404104340004
20
16.6610655199581
30
0
41
1
10
-0.309034415686142
20
16.6594100484281
30
0
41
1
10
-0.303280494303237
20
16.6603335449381
30
0
41
1
10
-0.290736621045141
20
16.6650372093721
30
0
41
1
10
-0.2839327559266
20
16.6686182084702
30
0
41
1
10
-0.268265264489543
20
16.6785042140017
30
0
41
1
10
-0.259109420845249
20
16.6853265492685
30
0
41
1
10
-0.249980947161418
20
16.6928433719953
30
0
0
SPLINE
5
179
100
AcDbEntity
8
1
62
256
6
ByLayer
370
18
48
1
60
0
100
AcDbSpline
70
4
71
3
72
16
73
12
40
0
40
0
40
0
40
0
40
0.229765673440766
40
0.229765673440766
40
0.46108007013512
40
0.46108007013512
40
0.694979532553231
40
0.694979532553231
40
0.894994565670014
40
0.894994565670014
40
1
40
1
40
1
40
1
41
1
10
-0.249980947161532
20
-17.4382636790639
30
0
41
1
10
-0.258936628568165
20
-17.4307596152509
30
0
41
1
10
-0.267850422109831
20
-17.4238421122452
30
0
41
1
10
-0.28471524965255
20
-17.4122320588242
30
0
41
1
10
-0.292827308714209
20
-17.407461082519
30
0
41
1
10
-0.30675866138003
20
-17.4014538069154
30
0
41
1
10
-0.312728591230297
20
-17.4002140532379
30
0
41
1
10
-0.320509550441642
20
-17.4017164035059
30
0
41
1
10
-0.322904003239103
20
-17.4039115445794
30
0
41
1
10
-0.324688648690483
20
-17.409025579498
30
0
41
1
10
-0.32498094716172
20
-17.411119962308
30
0
41
1
10
-0.32498094716172
20
-17.4134725186275
30
0
0
SPLINE
5
17A
100
AcDbEntity
8
1
62
256
6
ByLayer
370
18
48
1
60
0
100
AcDbSpline
70
4
71
3
72
12
73
8
40
0
40
0
40
0
40
0
40
0.498327034704599
40
0.498327034704599
40
0.787830461837888
40
0.787830461837888
40
1
40
1
40
1
40
1
41
1
10
-0.249980947161703
20
16.939753936379
30
0
41
1
10
-0.269800820179171
20
16.911511971339
30
0
41
1
10
-0.287583008921388
20
16.8830332398094
30
0
41
1
10
-0.309094068569465
20
16.8412601743114
30
0
41
1
10
-0.315715255916956
20
16.8262966636271
30
0
41
1
10
-0.32308979428376
20
16.8032870810781
30
0
41
1
10
-0.324980947172378
20
16.7943104762386
30
0
41
1
10
-0.324980947173543
20
16.7870313841533
30
0
0
SPLINE
5
17B
100
AcDbEntity
8
1
62
256
6
ByLayer
370
18
48
1
60
0
100
AcDbSpline
70
4
71
3
72
22
73
18
40
0
40
0
40
0
40
0
40
0.112744574252787
40
0.112744574252787
40
0.22093583506287
40
0.22093583506287
40
0.330432477937009
40
0.330432477937009
40
0.423105578090543
40
0.423105578090543
40
0.516499243841731
40
0.516499243841731
40
0.665297628488539
40
0.665297628488539
40
0.885227644616209
40
0.885227644616209
40
1
40
1
40
1
40
1
41
1
10
0.394519052838348
20
18.5812482082594
30
0
41
1
10
0.405514587422914
20
18.5906614843193
30
0
41
1
10
0.416402452201055
20
18.5993943551555
30
0
41
1
10
0.436302784384424
20
18.6137918562315
30
0
41
1
10
0.445564647329064
20
18.6196832248233
30
0
41
1
10
0.461262790967254
20
18.6274379539824
30
0
41
1
10
0.467863799058961
20
18.6293136503589
30
0
41
1
10
0.476033300873581
20
18.6282532709774
30
0
41
1
10
0.478329528776044
20
18.6260096094435
30
0
41
1
10
0.479981776712378
20
18.6186915120958
30
0
41
1
10
0.479360105263339
20
18.6135397770739
30
0
41
1
10
0.474860078033686
20
18.5978845359754
30
0
41
1
10
0.469265973227067
20
18.5858012962845
30
0
41
1
10
0.451507721099603
20
18.5536051836108
30
0
41
1
10
0.43721214638768
20
18.531813020687
30
0
41
1
10
0.412834536197835
20
18.4979089444933
30
0
41
1
10
0.403874244675819
20
18.4859768226333
30
0
41
1
10
0.394519052838319
20
18.4739743524118
30
0
0
SPLINE
5
17C
100
AcDbEntity
8
1
62
256
6
ByLayer
370
18
48
1
60
0
100
AcDbSpline
70
4
71
3
72
8
73
4
40
0
40
0
40
0
40
0
40
1
40
1
40
1
40
1
41
1
10
0.394519052838319
20
-9.81603258289468
30
0
41
1
10
0.178583254368562
20
-9.59945455956128
30
0
41
1
10
-0.0363243711368568
20
-9.38149895433838
30
0
41
1
10
-0.249980947148117
20
-9.16192765466209
30
0
0
SPLINE
5
17D
100
AcDbEntity
8
1
62
256
6
ByLayer
370
18
48
1
60
0
100
AcDbSpline
70
4
71
3
72
16
73
12
40
0
40
0
40
0
40
0
40
0.298751935383495
40
0.298751935383495
40
0.559563354267179
40
0.559563354267179
40
0.778831630672508
40
0.778831630672508
40
0.999028509329304
40
0.999028509329304
40
1
40
1
40
1
40
1
41
1
10
-0.249980947161646
20
-18.7994441682815
30
0
41
1
10
-0.261494955800998
20
-18.7889037684679
30
0
41
1
10
-0.27274511689015
20
-18.7789567898548
30
0
41
1
10
-0.291842372129167
20
-18.7629627881616
30
0
41
1
10
-0.300112173260857
20
-18.7564474029675
30
0
41
1
10
-0.312476341900037
20
-18.7477630003534
30
0
41
1
10
-0.31713284204173
20
-18.7450024743643
30
0
41
1
10
-0.323350193953218
20
-18.7427387467689
30
0
41
1
10
-0.32496715634818
20
-18.7432328414874
30
0
41
1
10
-0.324980913778177
20
-18.7452727544557
30
0
41
1
10
-0.324980947192358
20
-18.7452827553925
30
0
41
1
10
-0.32498094716172
20
-18.745292756394
30
0
0
SPLINE
5
17E
100
AcDbEntity
8
1
62
256
6
ByLayer
370
18
48
1
60
0
100
AcDbSpline
70
4
71
3
72
12
73
8
40
0
40
0
40
0
40
0
40
0.535005413117326
40
0.535005413117326
40
0.837949059931837
40
0.837949059931837
40
1
40
1
40
1
40
1
41
1
10
-0.249980947161674
20
16.0747405491864
30
0
41
1
10
-0.271436485838422
20
16.0413667809981
30
0
41
1
10
-0.290304587522939
20
16.0075035038982
30
0
41
1
10
-0.311991203969399
20
15.9579823894175
30
0
41
1
10
-0.31834786032141
20
15.9404195022313
30
0
41
1
10
-0.323850221825438
20
15.9163565802759
30
0
41
1
10
-0.32498094716675
20
15.9084323242163
30
0
41
1
10
-0.324980947167688
20
15.9014694779983
30
0
0
SPLINE
5
17F
100
AcDbEntity
8
1
62
256
6
ByLayer
370
18
48
1
60
0
100
AcDbSpline
70
4
71
3
72
8
73
4
40
0
40
0
40
0
40
0
40
1
40
1
40
1
40
1
41
1
10
0.394519052838319
20
-13.7830022040407
30
0
41
1
10
0.179601945162574
20
-13.6024787589423
30
0
41
1
10
-0.0352348131660847
20
-13.4218276833375
30
0
41
1
10
-0.24998094715977
20
-13.2410331525237
30
0
0
SPLINE
5
180
100
AcDbEntity
8
1
62
256
6
ByLayer
370
18
48
1
60
0
100
AcDbSpline
70
4
71
3
72
22
73
18
40
0
40
0
40
0
40
0
40
0.09960589595975
40
0.09960589595975
40
0.200053048632082
40
0.200053048632082
40
0.301645781814153
40
0.301645781814153
40
0.388258859234573
40
0.388258859234573
40
0.499069449606654
40
0.499069449606654
40
0.657716488414188
40
0.657716488414188
40
0.900399061610509
40
0.900399061610509
40
1
40
1
40
1
40
1
41
1
10
0.394519052838348
20
17.9778880275986
30
0
41
1
10
0.404574643246065
20
17.9863011376089
30
0
41
1
10
0.414587426887323
20
17.9940548718637
30
0
41
1
10
0.433572505425246
20
18.0070735891332
30
0
41
1
10
0.442724613280063
20
18.0124220375215
30
0
41
1
10
0.458484729048393
20
18.0191155281399
30
0
41
1
10
0.465263962606372
20
18.0204602901618
30
0
41
1
10
0.474147438762969
20
18.0186306360141
30
0
41
1
10
0.476914865968894
20
18.0160872377471
30
0
41
1
10
0.480118978036785
20
18.0073366577445
30
0
41
1
10
0.479790919031018
20
18.000219343869
30
0
41
1
10
0.475277139513196
20
17.9801687429301
30
0
41
1
10
0.469507950899299
20
17.9657553997812
30
0
41
1
10
0.450672548658815
20
17.9272440214238
30
0
41
1
10
0.435056494855388
20
17.9012826679856
30
0
41
1
10
0.410195410625647
20
17.8642416153249
30
0
41
1
10
0.402514156738306
20
17.8532635274126
30
0
41
1
10
0.394519052838348
20
17.8422547739247
30
0
0
SPLINE
5
181
100
AcDbEntity
8
1
62
256
6
ByLayer
370
18
48
1
60
0
100
AcDbSpline
70
4
71
3
72
12
73
8
40
0
40
0
40
0
40
0
40
0.207070190992288
40
0.207070190992288
40
0.708233155162026
40
0.708233155162026
40
1
40
1
40
1
40
1
41
1
10
-0.324980947161663
20
-13.4707590466832
30
0
41
1
10
-0.324980947160469
20
-13.4844495675558
30
0
41
1
10
-0.323129365633236
20
-13.4994708163577
30
0
41
1
10
-0.313046098828693
20
-13.5520592894348
30
0
41
1
10
-0.299521508835284
20
-13.5924397503834
30
0
41
1
10
-0.273081794683691
20
-13.656055544321
30
0
41
1
10
-0.262059461628979
20
-13.6797666536627
30
0
41
1
10
-0.249980947161674
20
-13.7033325990739
30
0
0
SPLINE
5
182
100
AcDbEntity
8
1
62
256
6
ByLayer
370
18
48
1
60
0
100
AcDbSpline
70
4
71
3
72
22
73
18
40
0
40
0
40
0
40
0
40
0.0735086950302044
40
0.0735086950302044
40
0.156709919125001
40
0.156709919125001
40
0.240804149356581
40
0.240804149356581
40
0.312964701291426
40
0.312964701291426
40
0.413770064538511
40
0.413770064538511
40
0.568942049261449
40
0.568942049261449
40
0.829011297684135
40
0.829011297684135
40
1
40
1
40
1
40
1
41
1
10
0.394519052838348
20
16.2968648471028
30
0
41
1
10
0.402605555724818
20
16.303468934732
30
0
41
1
10
0.410743385060727
20
16.309506365058
30
0
41
1
10
0.427514619923556
20
16.3202371938526
30
0
41
1
10
0.436255233375562
20
16.3247358671331
30
0
41
1
10
0.451806797757911
20
16.3298354226417
30
0
41
1
10
0.458796216414981
20
16.3304169692215
30
0
41
1
10
0.468794986962962
20
16.3275424378988
30
0
41
1
10
0.472363983680822
20
16.3246388662849
30
0
41
1
10
0.478225096261951
20
16.3149947254796
30
0
41
1
10
0.479605597672389
20
16.3070952746492
30
0
41
1
10
0.479375412191047
20
16.2843831431511
30
0
41
1
10
0.475882935738099
20
16.2677842140924
30
0
41
1
10
0.461736002340245
20
16.221409495349
30
0
41
1
10
0.447641810888115
20
16.1892697067983
30
0
41
1
10
0.420037007475884
20
16.1356652228069
30
0
41
1
10
0.407760990258737
20
16.1139596645167
30
0
41
1
10
0.394519052838348
20
16.0923183384427
30
0
0
SPLINE
5
183
100
AcDbEntity
8
1
62
256
6
ByLayer
370
18
48
1
60
0
100
AcDbSpline
70
4
71
3
72
16
73
12
40
0
40
0
40
0
40
0
40
0.133486163567379
40
0.133486163567379
40
0.34904128875079
40
0.34904128875079
40
0.555598044161543
40
0.555598044161543
40
0.842401886449936
40
0.842401886449936
40
1
40
1
40
1
40
1
41
1
10
-0.324980947161663
20
18.4345773721769
30
0
41
1
10
-0.324980947161663
20
18.4327557184459
30
0
41
1
10
-0.324439682614724
20
18.4314442096527
30
0
41
1
10
-0.321550596668487
20
18.4295752046318
30
0
41
1
10
-0.318216582379961
20
18.4299862515422
30
0
41
1
10
-0.309279846461863
20
18.4337254422995
30
0
41
1
10
-0.303688565114982
20
18.4369569413666
30
0
41
1
10
-0.288756525284896
20
18.4470005601332
30
0
41
1
10
-0.278588983144772
20
18.4548372634454
30
0
41
1
10
-0.26215274959992
20
18.468480928254
30
0
41
1
10
-0.256106086114272
20
18.4736811285923
30
0
41
1
10
-0.249980947161618
20
18.4790984828195
30
0
0
SPLINE
5
184
100
AcDbEntity
8
1
62
256
6
ByLayer
370
18
48
1
60
0
100
AcDbSpline
70
4
71
3
72
22
73
18
40
0
40
0
40
0
40
0
40
0.182095798251063
40
0.182095798251063
40
0.321827949355736
40
0.321827949355736
40
0.435999820261691
40
0.435999820261691
40
0.551186941087953
40
0.551186941087953
40
0.652312135595734
40
0.652312135595734
40
0.757225905967082
40
0.757225905967082
40
0.920384549310637
40
0.920384549310637
40
1
40
1
40
1
40
1
41
1
10
0.394519052838319
20
-19.6990969386236
30
0
41
1
10
0.410246552866369
20
-19.7152543179305
30
0
41
1
10
0.425308683615754
20
-19.7308752188008
30
0
41
1
10
0.448465713246719
20
-19.7552276840418
30
0
41
1
10
0.457555752082527
20
-19.7649189897359
30
0
41
1
10
0.470304206294372
20
-19.7788539584737
30
0
41
1
10
0.47474949855166
20
-19.7838800082448
30
0
41
1
10
0.479692190723824
20
-19.7899945114866
30
0
41
1
10
0.480187441895225
20
-19.7910978442709
30
0
41
1
10
0.477089684223898
20
-19.7890616725117
30
0
41
1
10
0.473964393527495
20
-19.7864130836086
30
0
41
1
10
0.465027356868461
20
-19.7783452551176
30
0
41
1
10
0.459041380578185
20
-19.7727587078626
30
0
41
1
10
0.441658364353969
20
-19.7562591613048
30
0
41
1
10
0.42884146234158
20
-19.743869578646
30
0
41
1
10
0.408552992926957
20
-19.7240749469017
30
0
41
1
10
0.401609156757644
20
-19.717272471001
30
0
41
1
10
0.394519052838319
20
-19.710304237967
30
0
0
SPLINE
5
185
100
AcDbEntity
8
1
62
256
6
ByLayer
370
18
48
1
60
0
100
AcDbSpline
70
4
71
3
72
8
73
4
40
0
40
0
40
0
40
0
40
1
40
1
40
1
40
1
41
1
10
-0.249980947161674
20
15.7705104401656
30
0
41
1
10
-0.0351481695535938
20
15.9459628164257
30
0
41
1
10
0.179685181728502
20
16.1214142561081
30
0
41
1
10
0.394519052838348
20
16.2968648471026
30
0
0
SPLINE
5
186
100
AcDbEntity
8
1
62
256
6
ByLayer
370
18
48
1
60
0
100
AcDbSpline
70
4
71
3
72
10
73
6
40
0
40
0
40
0
40
0
40
0.413072377760495
40
0.413072377760495
40
1
40
1
40
1
40
1
41
1
10
-0.324980947161663
20
-9.59510119943192
30
0
41
1
10
-0.324980947161009
20
-9.64203355967936
30
0
41
1
10
-0.318204568465319
20
-9.69231251695285
30
0
41
1
10
-0.295048746910595
20
-9.81372420210246
30
0
41
1
10
-0.275059623636537
20
-9.88648670976283
30
0
41
1
10
-0.249980947161788
20
-9.95818080364211
30
0
0
SPLINE
5
187
100
AcDbEntity
8
1
62
256
6
ByLayer
370
18
48
1
60
0
100
AcDbSpline
70
4
71
3
72
8
73
4
40
0
40
0
40
0
40
0
40
1
40
1
40
1
40
1
41
1
10
0.394519052838319
20
-6.54187806553898
30
0
41
1
10
0.173240128673825
20
-6.23815671379637
30
0
41
1
10
-0.0423423290801281
20
-5.92869063653163
30
0
41
1
10
-0.249980947161731
20
-5.61238790983069
30
0
0
SPLINE
5
188
100
AcDbEntity
8
1
62
256
6
ByLayer
370
18
48
1
60
0
100
AcDbSpline
70
4
71
3
72
8
73
4
40
0
40
0
40
0
40
0
40
1
40
1
40
1
40
1
41
1
10
0.394519052838319
20
17.0559192792915
30
0
41
1
10
0.176865425835672
20
16.7313555006636
30
0
41
1
10
-0.0380834512813806
20
16.4043439217116
30
0
41
1
10
-0.249980947161674
20
16.0747405491864
30
0
0
SPLINE
5
189
100
AcDbEntity
8
1
62
256
6
ByLayer
370
18
48
1
60
0
100
AcDbSpline
70
4
71
3
72
8
73
4
40
0
40
0
40
0
40
0
40
1
40
1
40
1
40
1
41
1
10
-0.249980947161674
20
-17.6355675589553
30
0
41
1
10
-0.0368701453001563
20
-17.9167894401584
30
0
41
1
10
0.178025589846356
20
-18.1962188143275
30
0
41
1
10
0.394519052838319
20
-18.4739743524118
30
0
0
SPLINE
5
18A
100
AcDbEntity
8
1
62
256
6
ByLayer
370
18
48
1
60
0
100
AcDbSpline
70
4
71
3
72
8
73
4
40
0
40
0
40
0
40
0
40
1
40
1
40
1
40
1
41
1
10
0.394519052838319
20
-19.3876104526855
30
0
41
1
10
0.179435695072158
20
-19.1919208736785
30
0
41
1
10
-0.0354053390300066
20
-18.9958755564109
30
0
41
1
10
-0.249980947161646
20
-18.7994441682815
30
0
0
SPLINE
5
18B
100
AcDbEntity
8
1
62
256
6
ByLayer
370
18
48
1
60
0
100
AcDbSpline
70
4
71
3
72
22
73
18
40
0
40
0
40
0
40
0
40
0.0471262959421869
40
0.0471262959421869
40
0.118694824008325
40
0.118694824008325
40
0.182349200535345
40
0.182349200535345
40
0.235540081599153
40
0.235540081599153
40
0.320073148402496
40
0.320073148402496
40
0.465406984164713
40
0.465406984164713
40
0.748729451042544
40
0.748729451042544
40
1
40
1
40
1
40
1
41
1
10
0.394519052838263
20
13.7830022040413
30
0
41
1
10
0.400407440124894
20
13.7879482596185
30
0
41
1
10
0.406392393543172
20
13.7924921524683
30
0
41
1
10
0.421281087343544
20
13.8022248830213
30
0
41
1
10
0.430373128901039
20
13.8066613599842
30
0
41
1
10
0.445779837153935
20
13.8103295555129
30
0
41
1
10
0.452482540149731
20
13.8100792275569
30
0
41
1
10
0.462433556843877
20
13.8060851787374
30
0
41
1
10
0.466205691132899
20
13.8029125601754
30
0
41
1
10
0.473826613574488
20
13.7924347121206
30
0
41
1
10
0.476619192818191
20
13.7836945326192
30
0
41
1
10
0.48064238353237
20
13.757495486281
30
0
41
1
10
0.479580583515599
20
13.7378308605805
30
0
41
1
10
0.471189325371597
20
13.6781158445143
30
0
41
1
10
0.458832898641703
20
13.6348383150857
30
0
41
1
10
0.429712010281719
20
13.5531632086497
30
0
41
1
10
0.41319148554939
20
13.5139821935808
30
0
41
1
10
0.394519052838319
20
13.4751387226224
30
0
0
SPLINE
5
18C
100
AcDbEntity
8
1
62
256
6
ByLayer
370
18
48
1
60
0
100
AcDbSpline
70
4
71
3
72
8
73
4
40
0
40
0
40
0
40
0
40
1
40
1
40
1
40
1
41
1
10
0.394519052838319
20
-18.5812482082593
30
0
41
1
10
0.179580285593943
20
-18.3972391510824
30
0
41
1
10
-0.0352562688701994
20
-18.2130707755636
30
0
41
1
10
-0.249980947161589
20
-18.02872875272
30
0
0
SPLINE
5
18D
100
AcDbEntity
8
1
62
256
6
ByLayer
370
18
48
1
60
0
100
AcDbSpline
70
4
71
3
72
22
73
18
40
0
40
0
40
0
40
0
40
0.125915977688751
40
0.125915977688751
40
0.241250395532781
40
0.241250395532781
40
0.339138798426038
40
0.339138798426038
40
0.437286018325628
40
0.437286018325628
40
0.532292586955261
40
0.532292586955261
40
0.672013769148369
40
0.672013769148369
40
0.872440594663297
40
0.872440594663297
40
1
40
1
40
1
40
1
41
1
10
0.394519052838348
20
19.0478637127897
30
0
41
1
10
0.406440638881747
20
19.058361787202
30
0
41
1
10
0.418176857745408
20
19.0681748502726
30
0
41
1
10
0.438890545081364
20
19.0841235895218
30
0
41
1
10
0.448209776137389
20
19.0906298674871
30
0
41
1
10
0.462528071759095
20
19.0988968618313
30
0
41
1
10
0.468095734107891
20
19.101283259894
30
0
41
1
10
0.476006752088381
20
19.1024598477094
30
0
41
1
10
0.478435552420308
20
19.1012474269685
30
0
41
1
10
0.479981347598539
20
19.0957125871646
30
0
41
1
10
0.479243670162305
20
19.0914514336448
30
0
41
1
10
0.474491450762656
20
19.0784411230919
30
0
41
1
10
0.469080689864342
20
19.0683569742697
30
0
41
1
10
0.452312179135305
20
19.0413831406079
30
0
41
1
10
0.439150605509923
20
19.0229735339849
30
0
41
1
10
0.415161619635597
20
18.991810209205
30
0
41
1
10
0.405069342058397
20
18.9792362127656
30
0
41
1
10
0.394519052838319
20
18.9665337194095
30
0
0
SPLINE
5
18E
100
AcDbEntity
8
1
62
256
6
ByLayer
370
18
48
1
60
0
100
AcDbSpline
70
4
71
3
72
14
73
10
40
0
40
0
40
0
40
0
40
0.14207804897208
40
0.14207804897208
40
0.357290302645238
40
0.357290302645238
40
0.639395942339697
40
0.639395942339697
40
1
40
1
40
1
40
1
41
1
10
-0.324980947161691
20
18.9997518271013
30
0
41
1
10
-0.324980947161691
20
18.9997072925504
30
0
41
1
10
-0.32426173211843
20
19.0003759585332
30
0
41
1
10
-0.320782229379489
20
19.0037194094063
30
0
41
1
10
-0.31710313629273
20
19.0073066391909
30
0
41
1
10
-0.306131562013661
20
19.0180667537484
30
0
41
1
10
-0.297935561852427
20
19.0261403161264
30
0
41
1
10
-0.277240182772005
20
19.04658533761
30
0
41
1
10
-0.26387378128851
20
19.0598273946242
30
0
41
1
10
-0.249980947161674
20
19.0736242396016
30
0
0
SPLINE
5
18F
100
AcDbEntity
8
1
62
256
6
ByLayer
370
18
48
1
60
0
100
AcDbSpline
70
4
71
3
72
14
73
10
40
0
40
0
40
0
40
0
40
0.152236665744559
40
0.152236665744559
40
0.373117394901559
40
0.373117394901559
40
0.702734274373
40
0.702734274373
40
1
40
1
40
1
40
1
41
1
10
-0.32498094716172
20
-18.7775181327357
30
0
41
1
10
-0.32498094716172
20
-18.7789582062073
30
0
41
1
10
-0.324094494362413
20
-18.7812765650133
30
0
41
1
10
-0.32008517036607
20
-18.7886343239383
30
0
41
1
10
-0.316086301444812
20
-18.7945143648086
30
0
41
1
10
-0.303571400409197
20
-18.8112400727183
30
0
41
1
10
-0.293634938361919
20
-18.8233577437334
30
0
41
1
10
-0.27262569282604
20
-18.8478075590943
30
0
41
1
10
-0.261563366904625
20
-18.8602342470406
30
0
41
1
10
-0.249980947161703
20
-18.8729219314524
30
0
0
SPLINE
5
190
100
AcDbEntity
8
1
62
256
6
ByLayer
370
18
48
1
60
0
100
AcDbSpline
70
4
71
3
72
8
73
4
40
0
40
0
40
0
40
0
40
1
40
1
40
1
40
1
41
1
10
-0.249980947161674
20
11.4840297216438
30
0
41
1
10
-0.0354719232443017
20
11.6760784148985
30
0
41
1
10
0.179376718802445
20
11.8676221276009
30
0
41
1
10
0.394519052838319
20
12.0587239255453
30
0
0
SPLINE
5
191
100
AcDbEntity
8
1
62
256
6
ByLayer
370
18
48
1
60
0
100
AcDbSpline
70
4
71
3
72
8
73
4
40
0
40
0
40
0
40
0
40
1
40
1
40
1
40
1
41
1
10
0.394519052838319
20
-17.9778880275985
30
0
41
1
10
0.17963125554229
20
-17.7981000086727
30
0
41
1
10
-0.0352037617522569
20
-17.6182278416682
30
0
41
1
10
-0.249980947161532
20
-17.438263679064
30
0
0
SPLINE
5
192
100
AcDbEntity
8
1
62
256
6
ByLayer
370
18
48
1
60
0
100
AcDbSpline
70
4
71
3
72
8
73
4
40
0
40
0
40
0
40
0
40
1
40
1
40
1
40
1
41
1
10
-0.249980947161674
20
-13.7033325990739
30
0
41
1
10
-0.0406455446070595
20
-14.1117592050607
30
0
41
1
10
0.174425330040947
20
-14.516324377639
30
0
41
1
10
0.394519052838319
20
-14.9171390202628
30
0
0
SPLINE
5
193
100
AcDbEntity
8
1
62
256
6
ByLayer
370
18
48
1
60
0
100
AcDbSpline
70
4
71
3
72
20
73
16
40
0
40
0
40
0
40
0
40
0.266295787722874
40
0.266295787722874
40
0.440821695973973
40
0.440821695973973
40
0.618793684174366
40
0.618793684174366
40
0.706558629008301
40
0.706558629008301
40
0.79497838456981
40
0.79497838456981
40
0.877229368138226
40
0.877229368138226
40
1
40
1
40
1
40
1
41
1
10
-0.324980947161663
20
9.24203289085605
30
0
41
1
10
-0.324980947161663
20
9.22582961878862
30
0
41
1
10
-0.324207952504963
20
9.20990564353875
30
0
41
1
10
-0.320642407864199
20
9.18509450746686
30
0
41
1
10
-0.318620244774081
20
9.1755866741139
30
0
41
1
10
-0.3125225263868
20
9.15842040039084
30
0
41
1
10
-0.308305334340844
20
9.15051548325278
30
0
41
1
10
-0.299412364375399
20
9.14292077708893
30
0
41
1
10
-0.295950283178371
20
9.14109295365401
30
0
41
1
10
-0.288307504983095
20
9.13954818908798
30
0
41
1
10
-0.284022232046112
20
9.13984876503184
30
0
41
1
10
-0.275648798264427
20
9.14237253428334
30
0
41
1
10
-0.271480286515725
20
9.144463580197
30
0
41
1
10
-0.261420768871858
20
9.15103150324327
30
0
41
1
10
-0.255533332946328
20
9.15622156038282
30
0
41
1
10
-0.249980947161589
20
9.16192765464785
30
0
0
SPLINE
5
194
100
AcDbEntity
8
1
62
256
6
ByLayer
370
18
48
1
60
0
100
AcDbSpline
70
4
71
3
72
8
73
4
40
0
40
0
40
0
40
0
40
1
40
1
40
1
40
1
41
1
10
-0.249980947161504
20
17.438263679064
30
0
41
1
10
-0.0352037617522569
20
17.6182278416682
30
0
41
1
10
0.179631255542319
20
17.7981000086727
30
0
41
1
10
0.394519052838319
20
17.9778880275985
30
0
0
SPLINE
5
195
100
AcDbEntity
8
1
62
256
6
ByLayer
370
18
48
1
60
0
100
AcDbSpline
70
4
71
3
72
16
73
12
40
0
40
0
40
0
40
0
40
0.134334358042189
40
0.134334358042189
40
0.358398012407551
40
0.358398012407551
40
0.562335087439436
40
0.562335087439436
40
0.763799604549359
40
0.763799604549359
40
1
40
1
40
1
40
1
41
1
10
-0.32498094716172
20
17.4134725186275
30
0
41
1
10
-0.32498094716172
20
17.410474826505
30
0
41
1
10
-0.32450411397852
20
17.4078942988141
30
0
41
1
10
-0.321805321390002
20
17.4025246765792
30
0
41
1
10
-0.31853369483693
20
17.4006997517748
30
0
41
1
10
-0.309542189271809
20
17.4008411993784
30
0
41
1
10
-0.303959691525705
20
17.4024812235317
30
0
41
1
10
-0.291405739683597
20
17.4083255800805
30
0
41
1
10
-0.284325701687465
20
17.4125402693704
30
0
41
1
10
-0.26834632408287
20
17.4234578890948
30
0
41
1
10
-0.259183921816629
20
17.4305524055219
30
0
41
1
10
-0.249980947161532
20
17.4382636790639
30
0
0
SPLINE
5
196
100
AcDbEntity
8
1
62
256
6
ByLayer
370
18
48
1
60
0
100
AcDbSpline
70
4
71
3
72
8
73
4
40
0
40
0
40
0
40
0
40
1
40
1
40
1
40
1
41
1
10
0.394519052838348
20
17.8422547739247
30
0
41
1
10
0.177537098598037
20
17.5434843169751
30
0
41
1
10
-0.0373804354690037
20
17.2426951415731
30
0
41
1
10
-0.249980947161674
20
16.939753936379
30
0
0
SPLINE
5
197
100
AcDbEntity
8
1
62
256
6
ByLayer
370
18
48
1
60
0
100
AcDbSpline
70
4
71
3
72
22
73
18
40
0
40
0
40
0
40
0
40
0.329595021198349
40
0.329595021198349
40
0.48907103406699
40
0.48907103406699
40
0.623695791841101
40
0.623695791841101
40
0.710117683509743
40
0.710117683509743
40
0.797737703516766
40
0.797737703516766
40
0.871898588381376
40
0.871898588381376
40
0.964345464757229
40
0.964345464757229
40
1
40
1
40
1
40
1
41
1
10
0.394519052838319
20
-16.0923183384427
30
0
41
1
10
0.419801188035848
20
-16.1336369849735
30
0
41
1
10
0.441913681432311
20
-16.1756351594972
30
0
41
1
10
0.465468257674246
20
-16.233672835813
30
0
41
1
10
0.471783394713697
20
-16.2522836809832
30
0
41
1
10
0.478867898182983
20
-16.2834843725116
30
0
41
1
10
0.480401196412089
20
-16.296854225777
30
0
41
1
10
0.478099010783041
20
-16.3143381712665
30
0
41
1
10
0.475922004905527
20
-16.3201498016436
30
0
41
1
10
0.468414125842031
20
-16.3280074439739
30
0
41
1
10
0.462873638298646
20
-16.3300521396582
30
0
41
1
10
0.450136688280111
20
-16.3294051471908
30
0
41
1
10
0.443177491108116
20
-16.327395870123
30
0
41
1
10
0.426574512986747
20
-16.3198605292104
30
0
41
1
10
0.416457509060422
20
-16.313530506219
30
0
41
1
10
0.402429365030258
20
-16.3031803090136
30
0
41
1
10
0.398472598913258
20
-16.3000936303098
30
0
41
1
10
0.394519052838319
20
-16.2968648471027
30
0
0
SPLINE
5
198
100
AcDbEntity
8
1
62
256
6
ByLayer
370
18
48
1
60
0
100
AcDbSpline
70
4
71
3
72
22
73
18
40
0
40
0
40
0
40
0
40
0.0865760041248209
40
0.0865760041248209
40
0.178747544888028
40
0.178747544888028
40
0.271926108476863
40
0.271926108476863
40
0.351775388849755
40
0.351775388849755
40
0.458632779957697
40
0.458632779957697
40
0.616926546418376
40
0.616926546418376
40
0.868957974205355
40
0.868957974205355
40
1
40
1
40
1
40
1
41
1
10
0.394519052838348
20
17.2234180953957
30
0
41
1
10
0.403609451266107
20
17.2308997470834
30
0
41
1
10
0.412709940945547
20
17.2377597598622
30
0
41
1
10
0.430660026879565
20
17.2495589658621
30
0
41
1
10
0.439641974252623
20
17.2544403670075
30
0
41
1
10
0.455358894415212
20
17.2602420820977
30
0
41
1
10
0.462269640735769
20
17.2611518291119
30
0
41
1
10
0.471769914679072
20
17.2587097950697
30
0
41
1
10
0.474965858302028
20
17.2559408108655
30
0
41
1
10
0.479527376407958
20
17.2466475385485
30
0
41
1
10
0.480038448355401
20
17.2390790098101
30
0
41
1
10
0.477550698966269
20
17.2175958445497
30
0
41
1
10
0.472816231978697
20
17.2020532232456
30
0
41
1
10
0.456000818241051
20
17.1597644317135
30
0
41
1
10
0.440970408785972
20
17.1309368327234
30
0
41
1
10
0.414636719070813
20
17.0867436085574
30
0
41
1
10
0.404856086709799
20
17.0713338019868
30
0
41
1
10
0.394519052838319
20
17.0559192792915
30
0
0
SPLINE
5
199
100
AcDbEntity
8
1
62
256
6
ByLayer
370
18
48
1
60
0
100
AcDbSpline
70
4
71
3
72
8
73
4
40
0
40
0
40
0
40
0
40
1
40
1
40
1
40
1
41
1
10
-0.249980947161674
20
-12.0715924641049
30
0
41
1
10
-0.0432521656405527
20
-12.5442846312381
30
0
41
1
10
0.171949580535255
20
-13.0121368755999
30
0
41
1
10
0.394519052838319
20
-13.4751387226224
30
0
0
SPLINE
5
19A
100
AcDbEntity
8
1
62
256
6
ByLayer
370
18
48
1
60
0
100
AcDbSpline
70
4
71
3
72
8
73
4
40
0
40
0
40
0
40
0
40
1
40
1
40
1
40
1
41
1
10
-0.249980947161504
20
5.61238790983103
30
0
41
1
10
-0.0423423290752964
20
5.92869063653893
30
0
41
1
10
0.173240128683545
20
6.23815671381035
30
0
41
1
10
0.394519052853212
20
6.54187806555939
30
0
0
SPLINE
5
19B
100
AcDbEntity
8
1
62
256
6
ByLayer
370
18
48
1
60
0
100
AcDbSpline
70
4
71
3
72
8
73
4
40
0
40
0
40
0
40
0
40
1
40
1
40
1
40
1
41
1
10
0.394519052838319
20
19.3305735632813
30
0
41
1
10
0.178675800779445
20
19.0852634005435
30
0
41
1
10
-0.0361927547921823
20
18.8388034703858
30
0
41
1
10
-0.249980947161674
20
18.591105468188
30
0
0
SPLINE
5
19C
100
AcDbEntity
8
1
62
256
6
ByLayer
370
18
48
1
60
0
100
AcDbSpline
70
4
71
3
72
8
73
4
40
0
40
0
40
0
40
0
40
1
40
1
40
1
40
1
41
1
10
-0.249980947161674
20
-16.0747405491864
30
0
41
1
10
-0.0380834512813806
20
-16.4043439217116
30
0
41
1
10
0.176865425835672
20
-16.7313555006636
30
0
41
1
10
0.394519052838319
20
-17.0559192792915
30
0
0
SPLINE
5
19D
100
AcDbEntity
8
1
62
256
6
ByLayer
370
18
48
1
60
0
100
AcDbSpline
70
4
71
3
72
14
73
10
40
0
40
0
40
0
40
0
40
0.165262095025772
40
0.165262095025772
40
0.453368826742849
40
0.453368826742849
40
0.868484900015062
40
0.868484900015062
40
1
40
1
40
1
40
1
41
1
10
-0.324980947162231
20
-18.0610023243171
30
0
41
1
10
-0.324980947162146
20
-18.0644149088857
30
0
41
1
10
-0.323874328702345
20
-18.068890758976
30
0
41
1
10
-0.31852319374488
20
-18.0829900256093
30
0
41
1
10
-0.312505598098483
20
-18.094163119481
30
0
41
1
10
-0.294385884529191
20
-18.1233510279863
30
0
41
1
10
-0.28047623351074
20
-18.1427611361318
30
0
41
1
10
-0.260265405512286
20
-18.1688092455181
30
0
41
1
10
-0.255192023833018
20
-18.1751958974765
30
0
41
1
10
-0.249980947161703
20
-18.1816177175708
30
0
0
SPLINE
5
19E
100
AcDbEntity
8
1
62
256
6
ByLayer
370
18
48
1
60
0
100
AcDbSpline
70
4
71
3
72
24
73
20
40
0
40
0
40
0
40
0
40
0.0250514837969013
40
0.0250514837969013
40
0.0399316364005519
40
0.0399316364005519
40
0.0550482702899594
40
0.0550482702899594
40
0.0684429815661031
40
0.0684429815661031
40
0.0857693518639489
40
0.0857693518639489
40
0.116437020859353
40
0.116437020859353
40
0.211608388214002
40
0.211608388214002
40
0.598389121297827
40
0.598389121297827
40
1
40
1
40
1
40
1
41
1
10
0.394519052853212
20
6.54187806555939
30
0
41
1
10
0.399506307901646
20
6.54872343436298
30
0
41
1
10
0.404897278369219
20
6.5551949712474
30
0
41
1
10
0.41419682284905
20
6.56362652995725
30
0
41
1
10
0.417892164740209
20
6.56638243117391
30
0
41
1
10
0.425453130793358
20
6.5702998873852
30
0
41
1
10
0.429424481048699
20
6.57144872098837
30
0
41
1
10
0.436457418640145
20
6.57146670306835
30
0
41
1
10
0.439651362043577
20
6.57058216196066
30
0
41
1
10
0.44616354164242
20
6.56697426039005
30
0
41
1
10
0.449367219420566
20
6.56378163323333
30
0
41
1
10
0.456901603491133
20
6.55349972481346
30
0
41
1
10
0.460461741921705
20
6.54518969171301
30
0
41
1
10
0.472135837180929
20
6.50967912725747
30
0
41
1
10
0.475426693338761
20
6.47827709215903
30
0
41
1
10
0.485646700794575
20
6.32092127490398
30
0
41
1
10
0.472635526638328
20
6.18570768161396
30
0
41
1
10
0.44161365268883
20
5.9139037930388
30
0
41
1
10
0.420126279459737
20
5.77428858852861
30
0
41
1
10
0.394519052838348
20
5.63509935370516
30
0
0
SPLINE
5
19F
100
AcDbEntity
8
1
62
256
6
ByLayer
370
18
48
1
60
0
100
AcDbSpline
70
4
71
3
72
20
73
16
40
0
40
0
40
0
40
0
40
0.124635113587952
40
0.124635113587952
40
0.213935861791068
40
0.213935861791068
40
0.304108110701257
40
0.304108110701257
40
0.38640947854099
40
0.38640947854099
40
0.519623907090914
40
0.519623907090914
40
0.7714251497456
40
0.7714251497456
40
1
40
1
40
1
40
1
41
1
10
-0.249980947138766
20
-9.16192765463444
30
0
41
1
10
-0.255577825480003
20
-9.15617583610779
30
0
41
1
10
-0.261516395555873
20
-9.1509471929221
30
0
41
1
10
-0.271961898158537
20
-9.14416541443688
30
0
41
1
10
-0.276492861412862
20
-9.14197062882337
30
0
41
1
10
-0.285235689816489
20
-9.13967639886783
30
0
41
1
10
-0.28954787928609
20
-9.13959758727182
30
0
41
1
10
-0.296865034394557
20
-9.1415356727631
30
0
41
1
10
-0.300039188227629
20
-9.14336975121401
30
0
41
1
10
-0.307198765132625
20
-9.14972756786011
30
0
41
1
10
-0.3106449222295
20
-9.15525486005407
30
0
41
1
10
-0.318438680009194
20
-9.17293690699947
30
0
41
1
10
-0.321209534757372
20
-9.18689946127444
30
0
41
1
10
-0.324399434787921
20
-9.21438286220197
30
0
41
1
10
-0.32498094718531
20
-9.22809407507143
30
0
41
1
10
-0.324980947184315
20
-9.24203289084426
30
0
0
SPLINE
5
1A0
100
AcDbEntity
8
1
62
256
6
ByLayer
370
18
48
1
60
0
100
AcDbSpline
70
4
71
3
72
8
73
4
40
0
40
0
40
0
40
0
40
1
40
1
40
1
40
1
41
1
10
-0.249980947161418
20
16.6928433719955
30
0
41
1
10
-0.0351663712000629
20
16.8697319891465
30
0
41
1
10
0.179667539911037
20
17.0465893021274
30
0
41
1
10
0.394519052838319
20
17.2234180953956
30
0
0
SPLINE
5
1A1
100
AcDbEntity
8
1
62
256
6
ByLayer
370
18
48
1
60
0
100
AcDbSpline
70
4
71
3
72
8
73
4
40
0
40
0
40
0
40
0
40
1
40
1
40
1
40
1
41
1
10
-0.249980947161674
20
-18.8729219314524
30
0
41
1
10
-0.0359614008632434
20
-19.107364519588
30
0
41
1
10
0.178898499370177
20
-19.3407877832485
30
0
41
1
10
0.394519052838319
20
-19.5732661362727
30
0
0
SPLINE
5
1A2
100
AcDbEntity
8
1
62
256
6
ByLayer
370
18
48
1
60
0
100
AcDbSpline
70
4
71
3
72
8
73
4
40
0
40
0
40
0
40
0
40
1
40
1
40
1
40
1
41
1
10
0.394519052838319
20
-19.6070845897382
30
0
41
1
10
0.179338716638313
20
-19.4039939367894
30
0
41
1
10
-0.0355054703228177
20
-19.2004273056163
30
0
41
1
10
-0.249980947161646
20
-18.996344946724
30
0
0
SPLINE
5
1A3
100
AcDbEntity
8
1
62
256
6
ByLayer
370
18
48
1
60
0
100
AcDbSpline
70
4
71
3
72
8
73
4
40
0
40
0
40
0
40
0
40
1
40
1
40
1
40
1
41
1
10
-0.249980947161674
20
-16.939753936379
30
0
41
1
10
-0.0373804354690037
20
-17.2426951415731
30
0
41
1
10
0.177537098598009
20
-17.5434843169751
30
0
41
1
10
0.394519052838319
20
-17.8422547739247
30
0
0
SPLINE
5
1A4
100
AcDbEntity
8
1
62
256
6
ByLayer
370
18
48
1
60
0
100
AcDbSpline
70
4
71
3
72
22
73
18
40
0
40
0
40
0
40
0
40
0.184010249708108
40
0.184010249708108
40
0.304403513970697
40
0.304403513970697
40
0.426280430455697
40
0.426280430455697
40
0.530616755967556
40
0.530616755967556
40
0.630698201057472
40
0.630698201057472
40
0.777320765772451
40
0.777320765772451
40
0.982764433401872
40
0.982764433401872
40
1
40
1
40
1
40
1
41
1
10
0.394519052838348
20
19.6070845897382
30
0
41
1
10
0.411004210521298
20
19.6226435459929
30
0
41
1
10
0.427013834417494
20
19.6373494781872
30
0
41
1
10
0.449722798093148
20
19.6571907214259
30
0
41
1
10
0.457909406447243
20
19.6640228598805
30
0
41
1
10
0.470772988438711
20
19.6738246235832
30
0
41
1
10
0.475553595880399
20
19.6768417740547
30
0
41
1
10
0.479815740541426
20
19.6777206789852
30
0
41
1
10
0.480012512677206
20
19.6762697358643
30
0
41
1
10
0.477116672473556
20
19.670261905694
30
0
41
1
10
0.474149065920415
20
19.6657888256828
30
0
41
1
10
0.464129371680912
20
19.6523239720989
30
0
41
1
10
0.455704724347839
20
19.6420198321359
30
0
41
1
10
0.432532260264708
20
19.6149413522762
30
0
41
1
10
0.416220755024483
20
19.5967603254278
30
0
41
1
10
0.397477790285421
20
19.5764597740585
30
0
41
1
10
0.396002601605744
20
19.5748656729056
30
0
41
1
10
0.394519052838319
20
19.5732661362727
30
0
0
SPLINE
5
1A5
100
AcDbEntity
8
1
62
256
6
ByLayer
370
18
48
1
60
0
100
AcDbSpline
70
4
71
3
72
14
73
10
40
0
40
0
40
0
40
0
40
0.376934882224445
40
0.376934882224445
40
0.630520147758914
40
0.630520147758914
40
0.887324837677527
40
0.887324837677527
40
1
40
1
40
1
40
1
41
1
10
-0.249980947161646
20
-18.996344946724
30
0
41
1
10
-0.26445320704218
20
-18.9825739880183
30
0
41
1
10
-0.278478660367142
20
-18.9695223198434
30
0
41
1
10
-0.298621574323988
20
-18.9514738133814
30
0
41
1
10
-0.305986966146861
20
-18.9451018737954
30
0
41
1
10
-0.317503050570963
20
-18.9357832641577
30
0
41
1
10
-0.321745200387397
20
-18.9327841693733
30
0
41
1
10
-0.324546635773032
20
-18.9317854442314
30
0
41
1
10
-0.324980947161663
20
-18.9319121472382
30
0
41
1
10
-0.324980947161663
20
-18.9324657830023
30
0
0
SPLINE
5
1A6
100
AcDbEntity
8
1
62
256
6
ByLayer
370
18
48
1
60
0
100
AcDbSpline
70
4
71
3
72
10
73
6
40
0
40
0
40
0
40
0
40
0.714320902179686
40
0.714320902179686
40
1
40
1
40
1
40
1
41
1
10
-0.249980947161816
20
12.0715924641049
30
0
41
1
10
-0.279771282393796
20
12.0034758815138
30
0
41
1
10
-0.303449618178149
20
11.9334098764061
30
0
41
1
10
-0.321515027831708
20
11.8408730355727
30
0
41
1
10
-0.324980947160384
20
11.8145602682299
30
0
41
1
10
-0.324980947161691
20
11.7904053433558
30
0
0
SPLINE
5
1A7
100
AcDbEntity
8
1
62
256
6
ByLayer
370
18
48
1
60
0
100
AcDbSpline
70
4
71
3
72
8
73
4
40
0
40
0
40
0
40
0
40
1
40
1
40
1
40
1
41
1
10
-0.249980947160765
20
14.6378611567675
30
0
41
1
10
-0.035160531136512
20
14.8141693177327
30
0
41
1
10
0.179673252606676
20
14.9904557633514
30
0
41
1
10
0.394519052838319
20
15.1667226783066
30
0
0
SPLINE
5
1A8
100
AcDbEntity
8
1
62
256
6
ByLayer
370
18
48
1
60
0
100
AcDbSpline
70
4
71
3
72
16
73
12
40
0
40
0
40
0
40
0
40
0.135539077030805
40
0.135539077030805
40
0.349952554262529
40
0.349952554262529
40
0.560746965742267
40
0.560746965742267
40
0.872605918490045
40
0.872605918490045
40
1
40
1
40
1
40
1
41
1
10
-0.324980947161691
20
18.7452914556606
30
0
41
1
10
-0.324980947161691
20
18.7440308292307
30
0
41
1
10
-0.324389759541361
20
18.7433410170541
30
0
41
1
10
-0.32133350260375
20
18.7431592438304
30
0
41
1
10
-0.317905446317781
20
18.7446259593932
30
0
41
1
10
-0.308794670342337
20
18.7502031890134
30
0
41
1
10
-0.303064858151373
20
18.7543120858566
30
0
41
1
10
-0.287247409224562
20
18.7666264327003
30
0
41
1
10
-0.276151502418344
20
18.7760176514693
30
0
41
1
10
-0.259817105513093
20
18.7905043015337
30
0
41
1
10
-0.254931686345799
20
18.7949120568329
30
0
41
1
10
-0.249980947161646
20
18.7994441682815
30
0
0
SPLINE
5
1A9
100
AcDbEntity
8
1
62
256
6
ByLayer
370
18
48
1
60
0
100
AcDbSpline
70
4
71
3
72
8
73
4
40
0
40
0
40
0
40
0
40
1
40
1
40
1
40
1
41
1
10
0.394519052838348
20
13.4751387226224
30
0
41
1
10
0.171949580535255
20
13.0121368755999
30
0
41
1
10
-0.0432521656405527
20
12.5442846312381
30
0
41
1
10
-0.249980947161674
20
12.0715924641049
30
0
0
SPLINE
5
1AA
100
AcDbEntity
8
1
62
256
6
ByLayer
370
18
48
1
60
0
100
AcDbSpline
70
4
71
3
72
14
73
10
40
0
40
0
40
0
40
0
40
0.173406569625442
40
0.173406569625442
40
0.486237054863842
40
0.486237054863842
40
0.947014098831324
40
0.947014098831324
40
1
40
1
40
1
40
1
41
1
10
-0.324980947163539
20
-17.5000603949206
30
0
41
1
10
-0.324980947163254
20
-17.5047589732248
30
0
41
1
10
-0.323734576929695
20
-17.5106212635558
30
0
41
1
10
-0.317711363292403
20
-17.5288576775035
30
0
41
1
10
-0.310854210033739
20
-17.5429413036
30
0
41
1
10
-0.290089958966007
20
-17.5793909261422
30
0
41
1
10
-0.27401088966684
20
-17.6032703638716
30
0
41
1
10
-0.254190442382821
20
-17.629983835738
30
0
41
1
10
-0.252098223320388
20
-17.6327735927218
30
0
41
1
10
-0.249980947161674
20
-17.6355675589553
30
0
0
SPLINE
5
1AB
100
AcDbEntity
8
1
62
256
6
ByLayer
370
18
48
1
60
0
100
AcDbSpline
70
4
71
3
72
14
73
10
40
0
40
0
40
0
40
0
40
0.330109961908022
40
0.330109961908022
40
0.649680194826224
40
0.649680194826224
40
0.891263240804246
40
0.891263240804246
40
1
40
1
40
1
40
1
41
1
10
-0.249980947161674
20
18.591105468188
30
0
41
1
10
-0.26288600857157
20
18.5761534827952
30
0
41
1
10
-0.275087583143119
20
18.5614192068616
30
0
41
1
10
-0.2962752852942
20
18.5342817516763
30
0
41
1
10
-0.305552123339339
20
18.5215548747788
30
0
41
1
10
-0.317719790178217
20
18.5025161150046
30
0
41
1
10
-0.321700075490469
20
18.4952410127669
30
0
41
1
10
-0.324513048260854
20
18.4874072150517
30
0
41
1
10
-0.324980947161663
20
18.4853296001057
30
0
41
1
10
-0.324980947161691
20
18.4837089376594
30
0
0
SPLINE
5
1AC
100
AcDbEntity
8
1
62
256
6
ByLayer
370
18
48
1
60
0
100
AcDbSpline
70
4
71
3
72
8
73
4
40
0
40
0
40
0
40
0
40
1
40
1
40
1
40
1
41
1
10
0.394519052838319
20
18.9665337194095
30
0
41
1
10
0.178392735131837
20
18.7063187568174
30
0
41
1
10
-0.0364873455682186
20
18.4447144991339
30
0
41
1
10
-0.249980947161674
20
18.1816177175708
30
0
0
SPLINE
5
1AD
100
AcDbEntity
8
1
62
256
6
ByLayer
370
18
48
1
60
0
100
AcDbSpline
70
4
71
3
72
14
73
10
40
0
40
0
40
0
40
0
40
0.439690780838575
40
0.439690780838575
40
0.735583901987314
40
0.735583901987314
40
0.959844853737481
40
0.959844853737481
40
1
40
1
40
1
40
1
41
1
10
-0.249980947161703
20
18.1816177175708
30
0
41
1
10
-0.267192544285052
20
18.1604071717983
30
0
41
1
10
-0.283112559692967
20
18.139324634163
30
0
41
1
10
-0.304751684093048
20
18.1071227465221
30
0
41
1
10
-0.312262689620894
20
18.0947319637468
30
0
41
1
10
-0.321405521836908
20
18.0761331967054
30
0
41
1
10
-0.324072100072215
20
18.0690101776654
30
0
41
1
10
-0.32491465154871
20
18.0627462002314
30
0
41
1
10
-0.324980947161691
20
18.0618428030285
30
0
41
1
10
-0.324980947161691
20
18.0610023243173
30
0
0
SPLINE
5
1AE
100
AcDbEntity
8
1
62
256
6
ByLayer
370
18
48
1
60
0
100
AcDbSpline
70
4
71
3
72
18
73
14
40
0
40
0
40
0
40
0
40
0.216359851968161
40
0.216359851968161
40
0.403178518558887
40
0.403178518558887
40
0.557121079507334
40
0.557121079507334
40
0.712142571002711
40
0.712142571002711
40
0.8532831780414
40
0.8532831780414
40
1
40
1
40
1
40
1
41
1
10
-0.324980947170701
20
13.2672449924339
30
0
41
1
10
-0.324980947171042
20
13.2581224284342
30
0
41
1
10
-0.324198214848991
20
13.249462399411
30
0
41
1
10
-0.320563452409544
20
13.2353395273908
30
0
41
1
10
-0.317953792557944
20
13.2295101004107
30
0
41
1
10
-0.311037343988431
20
13.2216818248394
30
0
41
1
10
-0.307017153148138
20
13.2191501561731
30
0
41
1
10
-0.297434239926218
20
13.2170478231028
30
0
41
1
10
-0.291724026717901
20
13.2174954056764
30
0
41
1
10
-0.280165420428744
20
13.2210378447893
30
0
41
1
10
-0.274254856529836
20
13.2239035805403
30
0
41
1
10
-0.262247191573863
20
13.2312967930468
30
0
41
1
10
-0.25604867837265
20
13.2359247363788
30
0
41
1
10
-0.249980947159656
20
13.241033152523
30
0
0
SPLINE
5
1AF
100
AcDbEntity
8
1
62
256
6
ByLayer
370
18
48
1
60
0
100
AcDbSpline
70
4
71
3
72
14
73
10
40
0
40
0
40
0
40
0
40
0.355996993723012
40
0.355996993723012
40
0.639682181428514
40
0.639682181428514
40
0.86920962142347
40
0.86920962142347
40
1
40
1
40
1
40
1
41
1
10
-0.249980947161674
20
19.0327392125282
30
0
41
1
10
-0.263746924048263
20
19.0184126035241
30
0
41
1
10
-0.276901151739736
20
19.0045216483307
30
0
41
1
10
-0.297488943040861
20
18.982258222303
30
0
41
1
10
-0.305713688034956
20
18.9731467356602
30
0
41
1
10
-0.317110238947407
20
18.9599158421158
30
0
41
1
10
-0.321032947917615
20
18.9550686613547
30
0
41
1
10
-0.324347328130045
20
18.9502229466297
30
0
41
1
10
-0.324980947161663
20
18.949009886987
30
0
41
1
10
-0.324980947161663
20
18.948426804311
30
0
0
SPLINE
5
1B0
100
AcDbEntity
8
1
62
256
6
ByLayer
370
18
48
1
60
0
100
AcDbSpline
70
4
71
3
72
14
73
10
40
0
40
0
40
0
40
0
40
0.25
40
0.25
40
0.5
40
0.5
40
0.75
40
0.75
40
1
40
1
40
1
40
1
41
1
10
9.82016042092624
20
-15.0224777276009
30
0
41
1
10
8.62146628159275
20
-14.8605406239051
30
0
41
1
10
7.56760593972541
20
-14.4681945062533
30
0
41
1
10
6.19027660188758
20
-12.7078896245993
30
0
41
1
10
5.87147557381718
20
-11.3190879068319
30
0
41
1
10
5.87040312432586
20
-8.48710159293185
30
0
41
1
10
6.1819127625688
20
-7.10371956734733
30
0
41
1
10
7.57157128782458
20
-5.32380366434666
30
0
41
1
10
8.61511053294564
20
-4.939307876631
30
0
41
1
10
9.82016042092627
20
-4.77651214562249
30
0
0
SPLINE
5
1B1
100
AcDbEntity
8
1
62
256
6
ByLayer
370
18
48
1
60
0
100
AcDbSpline
70
4
71
3
72
20
73
16
40
0
40
0
40
0
40
0
40
0.25
40
0.25
40
0.375
40
0.375
40
0.5
40
0.5
40
0.625
40
0.625
40
0.75
40
0.75
40
0.875
40
0.875
40
1
40
1
40
1
40
1
41
1
10
14.4
20
15.1359516578985
30
0
41
1
10
12.5993130864878
20
15.1489761076633
30
0
41
1
10
10.8380383873497
20
15.2354953512036
30
0
41
1
10
8.59407572887565
20
14.7988026143439
30
0
41
1
10
7.92349687818557
20
14.5455049380944
30
0
41
1
10
6.84434279275075
20
13.6638200194735
30
0
41
1
10
6.44462750244494
20
13.0285817209595
30
0
41
1
10
5.950370843391
20
11.4593367274923
30
0
41
1
10
5.84805945743332
20
10.5249628821327
30
0
41
1
10
5.90223402895302
20
8.70879891440359
30
0
41
1
10
6.06064085698139
20
7.81121040204232
30
0
41
1
10
6.67999345349827
20
6.35975249338483
30
0
41
1
10
7.14382826192281
20
5.8094258586072
30
0
41
1
10
8.33778179451878
20
5.07112703395387
30
0
41
1
10
9.0439179947582
20
4.88137830466576
30
0
41
1
10
9.82016042092417
20
4.77651214562275
30
0
0
SPLINE
5
1B2
100
AcDbEntity
8
1
62
256
6
ByLayer
370
18
48
1
60
0
100
AcDbSpline
70
4
71
3
72
10
73
6
40
0
40
0
40
0
40
0
40
0.514128081771582
40
0.514128081771582
40
1
40
1
40
1
40
1
41
1
10
16
20
19.3163719189749
30
0
41
1
10
15.9127148441932
20
19.3163719189749
30
0
41
1
10
15.8251349601201
20
19.3091273223616
30
0
41
1
10
15.6580698476598
20
19.2813061407038
30
0
41
1
10
15.5779139488166
20
19.2614724441029
30
0
41
1
10
15.5
20
19.2356529424287
30
0
0
SPLINE
5
1B3
100
AcDbEntity
8
1
62
256
6
ByLayer
370
18
48
1
60
0
100
AcDbSpline
70
4
71
3
72
18
73
14
40
0
40
0
40
0
40
0
40
0.170272664884852
40
0.170272664884852
40
0.340552944863446
40
0.340552944863446
40
0.510745458072657
40
0.510745458072657
40
0.681133731476691
40
0.681133731476691
40
0.851769700505692
40
0.851769700505692
40
1
40
1
40
1
40
1
41
1
10
26.4440183835723
20
18.8667805909332
30
0
41
1
10
26.8504475639499
20
18.8777062045737
30
0
41
1
10
27.2968810291082
20
18.8856291997325
30
0
41
1
10
28.1959361502225
20
18.8920430600592
30
0
41
1
10
28.6609482270152
20
18.8905992722362
30
0
41
1
10
29.544635694292
20
18.8790405233531
30
0
41
1
10
29.9755000791249
20
18.8688114448757
30
0
41
1
10
30.7448300155707
20
18.8438396189721
30
0
41
1
10
31.0937966695776
20
18.828831373565
30
0
41
1
10
31.6627806658665
20
18.8000888005958
30
0
41
1
10
31.8904659633915
20
18.7860502643556
30
0
41
1
10
32.1745801259705
20
18.7656900130156
30
0
41
1
10
32.2525872324456
20
18.7584033146418
30
0
41
1
10
32.271296702855
20
18.7542655592095
30
0
0
SPLINE
5
1B4
100
AcDbEntity
8
1
62
256
6
ByLayer
370
18
48
1
60
0
100
AcDbSpline
70
4
71
3
72
32
73
28
40
0
40
0
40
0
40
0
40
0.0767424726171733
40
0.0767424726171733
40
0.153487233636722
40
0.153487233636722
40
0.230195121682429
40
0.230195121682429
40
0.306821196649564
40
0.306821196649564
40
0.383367780825861
40
0.383367780825861
40
0.45986440536019
40
0.45986440536019
40
0.536354805523049
40
0.536354805523049
40
0.6128843006444
40
0.6128843006444
40
0.689487446951568
40
0.689487446951568
40
0.766175033720114
40
0.766175033720114
40
0.842923854145056
40
0.842923854145056
40
0.919678039059922
40
0.919678039059922
40
1
40
1
40
1
40
1
41
1
10
27.0157394952992
20
18.8508505962662
30
0
41
1
10
27.0222630789269
20
18.848590085919
30
0
41
1
10
27.0212140821685
20
18.8462812444149
30
0
41
1
10
27.0041399412482
20
18.8419474186447
30
0
41
1
10
26.9878782618961
20
18.8398622998277
30
0
41
1
10
26.9425999623129
20
18.836177424009
30
0
41
1
10
26.9129637435225
20
18.8345257784742
30
0
41
1
10
26.8446286051692
20
18.8318417813063
30
0
41
1
10
26.8049957780352
20
18.8307708430383
30
0
41
1
10
26.7213771921726
20
18.8293153555198
30
0
41
1
10
26.6762423179719
20
18.8289094208949
30
0
41
1
10
26.5867908150088
20
18.8287934379428
30
0
41
1
10
26.5412404271493
20
18.8290812869441
30
0
41
1
10
26.4560093123531
20
18.8303111773224
30
0
41
1
10
26.4151536117524
20
18.8312706273721
30
0
41
1
10
26.3436947088844
20
18.8337508177819
30
0
41
1
10
26.3121120888658
20
18.8353068614446
30
0
41
1
10
26.2624442322545
20
18.838831870479
30
0
41
1
10
26.2436872157126
20
18.8408506118771
30
0
41
1
10
26.2214250675177
20
18.8450954267456
30
0
41
1
10
26.217629379368
20
18.8473806676059
30
0
41
1
10
26.2253449850921
20
18.8519045617751
30
0
41
1
10
26.2369748546178
20
18.8542054375378
30
0
41
1
10
26.2738566556302
20
18.8584837323158
30
0
41
1
10
26.2996192750675
20
18.8605195123326
30
0
41
1
10
26.3629221812249
20
18.8640893655396
30
0
41
1
10
26.4019132103279
20
18.8656487212808
30
0
41
1
10
26.4440183835723
20
18.8667805909332
30
0
0
SPLINE
5
1B5
100
AcDbEntity
8
1
62
256
6
ByLayer
370
18
48
1
60
0
100
AcDbSpline
70
4
71
3
72
12
73
8
40
0
40
0
40
0
40
0
40
0.377165031926337
40
0.377165031926337
40
0.754328971841057
40
0.754328971841057
40
1
40
1
40
1
40
1
41
1
10
35.7122498999199
20
18.7546464410895
30
0
41
1
10
35.8913234611208
20
18.7546464410895
30
0
41
1
10
36.0728665126953
20
18.7542919771332
30
0
41
1
10
36.4108234733399
20
18.753133443189
30
0
41
1
10
36.5718981074971
20
18.7523225069131
30
0
41
1
10
36.8035634012818
20
18.7511320903834
30
0
41
1
10
36.8877498350765
20
18.7506971120554
30
0
41
1
10
36.9612494995996
20
18.7504019302994
30
0
0
SPLINE
5
1B6
100
AcDbEntity
8
1
62
256
6
ByLayer
370
18
48
1
60
0
100
AcDbSpline
70
4
71
3
72
16
73
12
40
0
40
0
40
0
40
0
40
0.241400180839984
40
0.241400180839984
40
0.482784905362554
40
0.482784905362554
40
0.72439897443759
40
0.72439897443759
40
0.966306237484693
40
0.966306237484693
40
1
40
1
40
1
40
1
41
1
10
27.083196808762
20
18.8565092571655
30
0
41
1
10
27.0725757139546
20
18.8563246990442
30
0
41
1
10
27.0624177490297
20
18.8560417701558
30
0
41
1
10
27.0447099538669
20
18.8553282292565
30
0
41
1
10
27.0369158209421
20
18.8548878577322
30
0
41
1
10
27.0247257999372
20
18.8539147582852
30
0
41
1
10
27.0201650464649
20
18.8533685934892
30
0
41
1
10
27.0148651424172
20
18.8522488594459
30
0
41
1
10
27.0140574703084
20
18.851659844605
30
0
41
1
10
27.0153160121151
20
18.8510105433768
30
0
41
1
10
27.0155092023796
20
18.8509303958913
30
0
41
1
10
27.0157394952992
20
18.8508505962662
30
0
0
SPLINE
5
1B7
100
AcDbEntity
8
1
62
256
6
ByLayer
370
18
48
1
60
0
100
AcDbSpline
70
4
71
3
72
19
73
15
40
0
40
0
40
0
40
0
40
0.1830352185697
40
0.1830352185697
40
0.366060075785476
40
0.366060075785476
40
0.549231383570892
40
0.549231383570892
40
0.732418254516715
40
0.732418254516715
40
0.915376778492891
40
0.915376778492891
40
0.915376778492891
40
1
40
1
40
1
40
1
41
1
10
31.8517670558821
20
18.7540599373976
30
0
41
1
10
31.8325487448967
20
18.7582065108168
30
0
41
1
10
31.7430289185315
20
18.7657233118562
30
0
41
1
10
31.4383106758818
20
18.7849476994032
30
0
41
1
10
31.2189264047644
20
18.7968680076693
30
0
41
1
10
30.6821816867797
20
18.8205813594665
30
0
41
1
10
30.3573343368345
20
18.8326274979838
30
0
41
1
10
29.6485759437297
20
18.8520382306579
30
0
41
1
10
29.2548645544463
20
18.859605724841
30
0
41
1
10
28.4545924869818
20
18.8672146538189
30
0
41
1
10
28.0370098702332
20
18.867344280618
30
0
41
1
10
27.636371393629
20
18.8637734750845
30
0
41
1
10
27.4489739062003
20
18.8621032411351
30
0
41
1
10
27.2634431954395
20
18.8596413198306
30
0
41
1
10
27.083196808762
20
18.8565092571655
30
0
0
SPLINE
5
1B8
100
AcDbEntity
8
1
62
256
6
ByLayer
370
18
48
1
60
0
100
AcDbSpline
70
4
71
3
72
14
73
10
40
0
40
0
40
0
40
0
40
0.26883771995153
40
0.26883771995153
40
0.53778863380552
40
0.53778863380552
40
0.806514007313682
40
0.806514007313682
40
1
40
1
40
1
40
1
41
1
10
15.5
20
19.2356529424287
30
0
41
1
10
15.3298374665001
20
19.179263658028
30
0
41
1
10
15.1669790689647
20
19.0929823879047
30
0
41
1
10
14.882879068233
20
18.8745138808647
30
0
41
1
10
14.7577398690581
20
18.7392769087607
30
0
41
1
10
14.5621938329428
20
18.4391506227764
30
0
41
1
10
14.4890536775624
20
18.270150162332
30
0
41
1
10
14.4156501951032
20
17.9707326530191
30
0
41
1
10
14.3999999999999
20
17.840622238764
30
0
41
1
10
14.3999999999999
20
17.7114450601744
30
0
0
SPLINE
5
1B9
100
AcDbEntity
8
1
62
256
6
ByLayer
370
18
48
1
60
0
100
AcDbSpline
70
4
71
3
72
8
73
4
40
0
40
0
40
0
40
0
40
1
40
1
40
1
40
1
41
1
10
27.5022563138732
20
19.3163719189749
30
0
41
1
10
29.8555050328725
20
19.3163719189749
30
0
41
1
10
32.1307081017843
20
19.2053278446115
30
0
41
1
10
33.9301324107385
20
19.0682849403934
30
0
0
SPLINE
5
1BA
100
AcDbEntity
8
1
62
256
6
ByLayer
370
18
48
1
60
0
100
AcDbSpline
70
4
71
3
72
12
73
8
40
0
40
0
40
0
40
0
40
0.377176997874804
40
0.377176997874804
40
0.754353854139141
40
0.754353854139141
40
1
40
1
40
1
40
1
41
1
10
33.8387505004004
20
18.7504019302994
30
0
41
1
10
33.9506747068262
20
18.7508514287292
30
0
41
1
10
34.0882773301012
20
18.7516292033376
30
0
41
1
10
34.3920501496607
20
18.7531106163662
30
0
41
1
10
34.562409924798
20
18.7538215888908
30
0
41
1
10
34.8518659143728
20
18.7544998262358
30
0
41
1
10
34.9701620092883
20
18.7546464410895
30
0
41
1
10
35.0877501000801
20
18.7546464410895
30
0
0
SPLINE
5
1BB
100
AcDbEntity
8
1
62
256
6
ByLayer
370
18
48
1
60
0
100
AcDbSpline
70
4
71
3
72
12
73
8
40
0
40
0
40
0
40
0
40
0.345055758274544
40
0.345055758274544
40
0.701291390697841
40
0.701291390697841
40
1
40
1
40
1
40
1
41
1
10
40.7602761571154
20
21.2193027901519
30
0
41
1
10
40.6906968493336
20
21.2222194158313
30
0
41
1
10
40.6040670038796
20
21.2249175932766
30
0
41
1
10
40.4070540572296
20
21.2293959741571
30
0
41
1
10
40.2932553445129
20
21.2312012885316
30
0
41
1
10
40.0757132921695
20
21.233282364738
30
0
41
1
10
39.971126099522
20
21.233778461628
30
0
41
1
10
39.8675560198108
20
21.233778461628
30
0
0
SPLINE
5
1BC
100
AcDbEntity
8
1
62
256
6
ByLayer
370
18
48
1
60
0
100
AcDbSpline
70
4
71
3
72
8
73
4
40
0
40
0
40
0
40
0
40
1
40
1
40
1
40
1
41
1
10
32.0224439665639
20
21.375582345301
30
0
41
1
10
32.701539647704
20
21.3568346664848
30
0
41
1
10
33.3380786313283
20
21.3351283353125
30
0
41
1
10
33.9301324107385
20
21.3121867655885
30
0
0
SPLINE
5
1BD
100
AcDbEntity
8
1
62
256
6
ByLayer
370
18
48
1
60
0
100
AcDbSpline
70
4
71
3
72
10
73
6
40
0
40
0
40
0
40
0
40
0.5
40
0.5
40
1
40
1
40
1
40
1
41
1
10
15.5
20
21.126950916171
30
0
41
1
10
14.8546762133567
20
21.126950916171
30
0
41
1
10
14.2199965569926
20
21.0995079163324
30
0
41
1
10
12.9751453456994
20
20.9484801426252
30
0
41
1
10
12.3507991713974
20
20.8316226972539
30
0
41
1
10
11.7943987216874
20
20.5595544642643
30
0
0
SPLINE
5
1BE
100
AcDbEntity
8
1
62
256
6
ByLayer
370
18
48
1
60
0
100
AcDbSpline
70
4
71
3
72
8
73
4
40
0
40
0
40
0
40
0
40
1
40
1
40
1
40
1
41
1
10
32.0224439665639
20
21.3755823453009
30
0
41
1
10
30.6134667301727
20
21.4144797399107
30
0
41
1
10
29.077620248989
20
21.1269509161718
30
0
41
1
10
27.5022563138731
20
21.1269509161718
30
0
0
SPLINE
5
1BF
100
AcDbEntity
8
1
62
256
6
ByLayer
370
18
48
1
60
0
100
AcDbSpline
70
4
71
3
72
16
73
12
40
0
40
0
40
0
40
0
40
0.25
40
0.25
40
0.5
40
0.5
40
0.75
40
0.75
40
0.875
40
0.875
40
1
40
1
40
1
40
1
41
1
10
5.28652375092742
20
11.9872591039364
30
0
41
1
10
4.61690249450461
20
9.69898107036511
30
0
41
1
10
4.549410759637
20
7.00717627920798
30
0
41
1
10
4.48392776115682
20
1.3796960541909
30
0
41
1
10
4.48234341379163
20
-1.55765101900252
30
0
41
1
10
4.55552886768444
20
-7.19791713188255
30
0
41
1
10
4.63768222149358
20
-9.87395153467565
30
0
41
1
10
5.67314862031026
20
-13.251575928979
30
0
41
1
10
6.18434659219798
20
-14.2615560195166
30
0
41
1
10
7.66568262582518
20
-15.9203337469095
30
0
41
1
10
8.65187132364986
20
-16.5738127823389
30
0
41
1
10
9.82016042092624
20
-17.0307453807704
30
0
0
SPLINE
5
1C0
100
AcDbEntity
8
1
62
256
6
ByLayer
370
18
48
1
60
0
100
AcDbSpline
70
4
71
3
72
12
73
8
40
0
40
0
40
0
40
0
40
0.371755424996929
40
0.371755424996929
40
0.766328113338266
40
0.766328113338266
40
1
40
1
40
1
40
1
41
1
10
4.18914284285427
20
11.9872591039365
30
0
41
1
10
4.1891428428556
20
12.5256957863352
30
0
41
1
10
4.22454764030792
20
13.0641533581369
30
0
41
1
10
4.32587864795306
20
14.1713411383805
30
0
41
1
10
4.39111998598059
20
14.7408344270667
30
0
41
1
10
4.45802193721639
20
15.649494395431
30
0
41
1
10
4.47499999999999
20
15.9880239779867
30
0
41
1
10
4.47499999999999
20
16.3265195672838
30
0
0
SPLINE
5
1C1
100
AcDbEntity
8
1
62
256
6
ByLayer
370
18
48
1
60
0
100
AcDbSpline
70
4
71
3
72
10
73
6
40
0
40
0
40
0
40
0
40
0.5
40
0.5
40
1
40
1
40
1
40
1
41
1
10
40.8334166620954
20
21.7582046379162
30
0
41
1
10
42.2003408335249
20
21.7148895824541
30
0
41
1
10
43.3823699187374
20
21.6361437234027
30
0
41
1
10
45.0422453175573
20
21.4657815740827
30
0
41
1
10
45.5000000000042
20
21.3775418822489
30
0
41
1
10
45.5
20
21.3108988790581
30
0
0
SPLINE
5
1C2
100
AcDbEntity
8
1
62
256
6
ByLayer
370
18
48
1
60
0
100
AcDbSpline
70
4
71
3
72
8
73
4
40
0
40
0
40
0
40
0
40
1
40
1
40
1
40
1
41
1
10
18.0929078621189
20
22.8400270686517
30
0
41
1
10
19.1494152257313
20
22.6858760721614
30
0
41
1
10
20.4049346478599
20
22.578847205019
30
0
41
1
10
21.7998785781122
20
22.5124408020928
30
0
0
LINE
5
74
100
AcDbEntity
8
81
62
256
6
ByLayer
370
18
48
1
60
0
100
AcDbLine
10
46
20
21.5
30
0
11
51
21
21.5
31
0
39
0
210
0
220
0
230
1
0
LINE
5
75
100
AcDbEntity
8
80
62
256
6
ByLayer
370
18
48
1
60
0
100
AcDbLine
10
0
20
0
30
0
11
-5
21
0
31
0
39
0
210
0
220
0
230
1
0
LINE
5
76
100
AcDbEntity
8
1
62
256
6
ByLayer
370
18
48
1
60
0
100
AcDbLine
10
3.475
20
20
30
0
11
0.675
21
20
31
0
39
0
210
0
220
0
230
1
0
LINE
5
77
100
AcDbEntity
8
1
62
256
6
ByLayer
370
18
48
1
60
0
100
AcDbLine
10
0.675
20
-20
30
0
11
3.475
21
-20
31
0
39
0
210
0
220
0
230
1
0
LINE
5
78
100
AcDbEntity
8
1
62
256
6
ByLayer
370
18
48
1
60
0
100
AcDbLine
10
4.189143
20
-20.3
30
0
11
8.093721
21
-20.3
31
0
39
0
210
0
220
0
230
1
0
LINE
5
79
100
AcDbEntity
8
1
62
256
6
ByLayer
370
18
48
1
60
0
100
AcDbLine
10
16
20
18.75
30
0
11
32.063046
21
18.75
31
0
39
0
210
0
220
0
230
1
0
LINE
5
7A
100
AcDbEntity
8
1
62
256
6
ByLayer
370
18
48
1
60
0
100
AcDbLine
10
32.513146
20
18.75
30
0
11
33.691327
21
18.75
31
0
39
0
210
0
220
0
230
1
0
LINE
5
7B
100
AcDbEntity
8
1
62
256
6
ByLayer
370
18
48
1
60
0
100
AcDbLine
10
37.099937
20
18.75
30
0
11
41.647943
21
18.75
31
0
39
0
210
0
220
0
230
1
0
LINE
5
7C
100
AcDbEntity
8
1
62
256
6
ByLayer
370
18
48
1
60
0
100
AcDbLine
10
31.765118
20
21.378544
30
0
11
4.475
21
21.378544
31
0
39
0
210
0
220
0
230
1
0
LINE
5
7D
100
AcDbEntity
8
1
62
256
6
ByLayer
370
18
48
1
60
0
100
AcDbLine
10
12.719197
20
-20.3
30
0
11
14.4
21
-20.3
31
0
39
0
210
0
220
0
230
1
0
LINE
5
7E
100
AcDbEntity
8
1
62
256
6
ByLayer
370
18
48
1
60
0
100
AcDbLine
10
-0.324981
20
-19.000019
30
0
11
0.675
21
-20
31
0
39
0
210
0
220
0
230
1
0
LINE
5
7F
100
AcDbEntity
8
1
62
256
6
ByLayer
370
18
48
1
60
0
100
AcDbLine
10
0.675
20
20
30
0
11
-0.324981
21
19.000019
31
0
39
0
210
0
220
0
230
1
0
LINE
5
80
100
AcDbEntity
8
1
62
256
6
ByLayer
370
18
48
1
60
0
100
AcDbLine
10
-0.324981
20
19.000019
30
0
11
-0.324981
21
18.999752
31
0
39
0
210
0
220
0
230
1
0
LINE
5
81
100
AcDbEntity
8
1
62
256
6
ByLayer
370
18
48
1
60
0
100
AcDbLine
10
-0.324981
20
-18.999752
30
0
11
-0.324981
21
-19.000019
31
0
39
0
210
0
220
0
230
1
0
LINE
5
82
100
AcDbEntity
8
1
62
256
6
ByLayer
370
18
48
1
60
0
100
AcDbLine
10
0.675
20
20
30
0
11
0.675
21
-20
31
0
39
0
210
0
220
0
230
1
0
LINE
5
83
100
AcDbEntity
8
1
62
256
6
ByLayer
370
18
48
1
60
0
100
AcDbLine
10
14.4
20
-19.242179
30
0
11
14.4
21
-20.3
31
0
39
0
210
0
220
0
230
1
0
LINE
5
84
100
AcDbEntity
8
1
62
256
6
ByLayer
370
18
48
1
60
0
100
AcDbLine
10
4.189143
20
-20.3
30
0
11
4.189143
21
11.987259
31
0
39
0
210
0
220
0
230
1
0
LINE
5
85
100
AcDbEntity
8
1
62
256
6
ByLayer
370
13
48
1
60
0
100
AcDbLine
10
42.092921
20
19.937338
30
0
11
45.5
21
19.788582
31
0
39
0
210
0
220
0
230
1
0
LINE
5
86
100
AcDbEntity
8
1
62
256
6
ByLayer
370
13
48
1
60
0
100
AcDbLine
10
45.5
20
20.255079
30
0
11
42.111837
21
20.40301
31
0
39
0
210
0
220
0
230
1
0
LINE
5
87
100
AcDbEntity
8
1
62
256
6
ByLayer
370
13
48
1
60
0
100
AcDbLine
10
45.5
20
19.728775
30
0
11
42.090451
21
19.87764
31
0
39
0
210
0
220
0
230
1
0
LINE
5
88
100
AcDbEntity
8
1
62
256
6
ByLayer
370
13
48
1
60
0
100
AcDbLine
10
42.114255
20
20.46271
30
0
11
45.5
21
20.314886
31
0
39
0
210
0
220
0
230
1
0
LINE
5
89
100
AcDbEntity
8
1
62
256
6
ByLayer
370
13
48
1
60
0
100
AcDbLine
10
42.11003
20
20.35792
30
0
11
45.5
21
20.209911
31
0
39
0
210
0
220
0
230
1
0
LINE
5
8A
100
AcDbEntity
8
1
62
256
6
ByLayer
370
13
48
1
60
0
100
AcDbLine
10
39.667365
20
21.233778
30
0
11
39.664411
21
21.166115
31
0
39
0
210
0
220
0
230
1
0
LINE
5
8B
100
AcDbEntity
8
1
62
256
6
ByLayer
370
13
48
1
60
0
100
AcDbLine
10
40.766254
20
21.199953
30
0
11
40.764312
21
21.155473
31
0
39
0
210
0
220
0
230
1
0
LINE
5
8C
100
AcDbEntity
8
1
62
256
6
ByLayer
370
13
48
1
60
0
100
AcDbLine
10
0.394519
20
9.816033
30
0
11
0.394519
21
9.284126
31
0
39
0
210
0
220
0
230
1
0
LINE
5
8D
100
AcDbEntity
8
1
62
256
6
ByLayer
370
13
48
1
60
0
100
AcDbLine
10
0.394519
20
-9.284126
30
0
11
0.394519
21
-9.816033
31
0
39
0
210
0
220
0
230
1
0
LINE
5
8E
100
AcDbEntity
8
1
62
256
6
ByLayer
370
13
48
1
60
0
100
AcDbLine
10
4.189143
20
11.987259
30
0
11
5.286524
21
11.987259
31
0
39
0
210
0
220
0
230
1
0
LINE
5
8F
100
AcDbEntity
8
1
62
256
6
ByLayer
370
13
48
1
60
0
100
AcDbLine
10
-0.249981
20
9.161928
30
0
11
-0.249981
21
6.935866
31
0
39
0
210
0
220
0
230
1
0
LINE
5
90
100
AcDbEntity
8
1
62
256
6
ByLayer
370
13
48
1
60
0
100
AcDbLine
10
-0.249981
20
-6.935866
30
0
11
-0.249981
21
-9.161928
31
0
39
0
210
0
220
0
230
1
0
LINE
5
91
100
AcDbEntity
8
1
62
256
6
ByLayer
370
18
48
1
60
0
100
AcDbLine
10
-0.324981
20
9.242033
30
0
11
-0.324981
21
6.372959
31
0
39
0
210
0
220
0
230
1
0
LINE
5
92
100
AcDbEntity
8
1
62
256
6
ByLayer
370
18
48
1
60
0
100
AcDbLine
10
-0.324981
20
-6.372959
30
0
11
-0.324981
21
-9.242033
31
0
39
0
210
0
220
0
230
1
0
LINE
5
93
100
AcDbEntity
8
1
62
256
6
ByLayer
370
13
48
1
60
0
100
AcDbLine
10
3.475
20
-20
30
0
11
3.475
21
20
31
0
39
0
210
0
220
0
230
1
0
LINE
5
94
100
AcDbEntity
8
1
62
256
6
ByLayer
370
13
48
1
60
0
100
AcDbLine
10
15.5
20
19.235653
30
0
11
15.5
21
21.126951
31
0
39
0
210
0
220
0
230
1
0
LINE
5
95
100
AcDbEntity
8
1
62
256
6
ByLayer
370
13
48
1
60
0
100
AcDbLine
10
4.475
20
20.559554
30
0
11
11.794399
21
20.559554
31
0
39
0
210
0
220
0
230
1
0
LINE
5
96
100
AcDbEntity
8
1
62
256
6
ByLayer
370
13
48
1
60
0
100
AcDbLine
10
0.394519
20
6.541878
30
0
11
0.394519
21
5.63501
31
0
39
0
210
0
220
0
230
1
0
LINE
5
97
100
AcDbEntity
8
1
62
256
6
ByLayer
370
13
48
1
60
0
100
AcDbLine
10
0.394519
20
-5.63501
30
0
11
0.394519
21
-6.541878
31
0
39
0
210
0
220
0
230
1
0
LINE
5
98
100
AcDbEntity
8
1
62
256
6
ByLayer
370
13
48
1
60
0
100
AcDbLine
10
0.394519
20
12.058724
30
0
11
0.394519
21
11.667569
31
0
39
0
210
0
220
0
230
1
0
LINE
5
99
100
AcDbEntity
8
1
62
256
6
ByLayer
370
13
48
1
60
0
100
AcDbLine
10
0.394519
20
-11.667569
30
0
11
0.394519
21
-12.058724
31
0
39
0
210
0
220
0
230
1
0
LINE
5
9A
100
AcDbEntity
8
1
62
256
6
ByLayer
370
18
48
1
60
0
100
AcDbLine
10
-0.324981
20
11.531153
30
0
11
-0.324981
21
9.595
31
0
39
0
210
0
220
0
230
1
0
LINE
5
9B
100
AcDbEntity
8
1
62
256
6
ByLayer
370
18
48
1
60
0
100
AcDbLine
10
-0.324981
20
-9.595
30
0
11
-0.324981
21
-11.531153
31
0
39
0
210
0
220
0
230
1
0
LINE
5
9C
100
AcDbEntity
8
1
62
256
6
ByLayer
370
13
48
1
60
0
100
AcDbLine
10
-0.249981
20
5.612388
30
0
11
-0.249981
21
-5.612388
31
0
39
0
210
0
220
0
230
1
0
LINE
5
9D
100
AcDbEntity
8
1
62
256
6
ByLayer
370
13
48
1
60
0
100
AcDbLine
10
-0.249981
20
11.48403
30
0
11
-0.249981
21
9.958089
31
0
39
0
210
0
220
0
230
1
0
LINE
5
9E
100
AcDbEntity
8
1
62
256
6
ByLayer
370
13
48
1
60
0
100
AcDbLine
10
-0.249981
20
-9.958089
30
0
11
-0.249981
21
-11.48403
31
0
39
0
210
0
220
0
230
1
0
LINE
5
9F
100
AcDbEntity
8
1
62
256
6
ByLayer
370
13
48
1
60
0
100
AcDbLine
10
0.394519
20
13.783002
30
0
11
0.394519
21
13.475038
31
0
39
0
210
0
220
0
230
1
0
LINE
5
A0
100
AcDbEntity
8
1
62
256
6
ByLayer
370
13
48
1
60
0
100
AcDbLine
10
0.394519
20
-13.475038
30
0
11
0.394519
21
-13.783002
31
0
39
0
210
0
220
0
230
1
0
LINE
5
A1
100
AcDbEntity
8
1
62
256
6
ByLayer
370
13
48
1
60
0
100
AcDbLine
10
-0.249981
20
-12.071618
30
0
11
-0.249981
21
-13.241033
31
0
39
0
210
0
220
0
230
1
0
LINE
5
A2
100
AcDbEntity
8
1
62
256
6
ByLayer
370
13
48
1
60
0
100
AcDbLine
10
-0.249981
20
13.241033
30
0
11
-0.249981
21
12.071618
31
0
39
0
210
0
220
0
230
1
0
LINE
5
A3
100
AcDbEntity
8
1
62
256
6
ByLayer
370
13
48
1
60
0
100
AcDbLine
10
0.394519
20
-14.91713
30
0
11
0.394519
21
-15.166723
31
0
39
0
210
0
220
0
230
1
0
LINE
5
A4
100
AcDbEntity
8
1
62
256
6
ByLayer
370
13
48
1
60
0
100
AcDbLine
10
0.394519
20
15.166723
30
0
11
0.394519
21
14.91713
31
0
39
0
210
0
220
0
230
1
0
LINE
5
A5
100
AcDbEntity
8
1
62
256
6
ByLayer
370
18
48
1
60
0
100
AcDbLine
10
-0.324981
20
15.767828
30
0
11
-0.324981
21
14.812475
31
0
39
0
210
0
220
0
230
1
0
LINE
5
A6
100
AcDbEntity
8
1
62
256
6
ByLayer
370
18
48
1
60
0
100
AcDbLine
10
-0.324981
20
-14.812475
30
0
11
-0.324981
21
-15.767828
31
0
39
0
210
0
220
0
230
1
0
LINE
5
A7
100
AcDbEntity
8
1
62
256
6
ByLayer
370
18
48
1
60
0
100
AcDbLine
10
4.475
20
21.378544
30
0
11
4.475
21
20.559554
31
0
39
0
210
0
220
0
230
1
0
LINE
5
A8
100
AcDbEntity
8
1
62
256
6
ByLayer
370
13
48
1
60
0
100
AcDbLine
10
-0.249981
20
14.637861
30
0
11
-0.249981
21
13.70335
31
0
39
0
210
0
220
0
230
1
0
LINE
5
A9
100
AcDbEntity
8
1
62
256
6
ByLayer
370
13
48
1
60
0
100
AcDbLine
10
-0.249981
20
-13.70335
30
0
11
-0.249981
21
-14.637861
31
0
39
0
210
0
220
0
230
1
0
LINE
5
AA
100
AcDbEntity
8
1
62
256
6
ByLayer
370
13
48
1
60
0
100
AcDbLine
10
0.394519
20
-16.092304
30
0
11
0.394519
21
-16.296865
31
0
39
0
210
0
220
0
230
1
0
LINE
5
AB
100
AcDbEntity
8
1
62
256
6
ByLayer
370
13
48
1
60
0
100
AcDbLine
10
0.394519
20
16.296865
30
0
11
0.394519
21
16.092304
31
0
39
0
210
0
220
0
230
1
0
LINE
5
AC
100
AcDbEntity
8
1
62
256
6
ByLayer
370
13
48
1
60
0
100
AcDbLine
10
-0.249981
20
15.77051
30
0
11
-0.249981
21
15.011285
31
0
39
0
210
0
220
0
230
1
0
LINE
5
AD
100
AcDbEntity
8
1
62
256
6
ByLayer
370
13
48
1
60
0
100
AcDbLine
10
-0.249981
20
-15.011285
30
0
11
-0.249981
21
-15.77051
31
0
39
0
210
0
220
0
230
1
0
LINE
5
AE
100
AcDbEntity
8
1
62
256
6
ByLayer
370
13
48
1
60
0
100
AcDbLine
10
0.394519
20
-17.055898
30
0
11
0.394519
21
-17.223418
31
0
39
0
210
0
220
0
230
1
0
LINE
5
AF
100
AcDbEntity
8
1
62
256
6
ByLayer
370
18
48
1
60
0
100
AcDbLine
10
-0.324981
20
-15.901439
30
0
11
-0.324981
21
-16.678631
31
0
39
0
210
0
220
0
230
1
0
LINE
5
B0
100
AcDbEntity
8
1
62
256
6
ByLayer
370
18
48
1
60
0
100
AcDbLine
10
-0.324981
20
16.678631
30
0
11
-0.324981
21
15.901439
31
0
39
0
210
0
220
0
230
1
0
LINE
5
B1
100
AcDbEntity
8
1
62
256
6
ByLayer
370
13
48
1
60
0
100
AcDbLine
10
0.394519
20
17.223418
30
0
11
0.394519
21
17.055898
31
0
39
0
210
0
220
0
230
1
0
LINE
5
B2
100
AcDbEntity
8
1
62
256
6
ByLayer
370
13
48
1
60
0
100
AcDbLine
10
16
20
18.75
30
0
11
16
21
19.316372
31
0
39
0
210
0
220
0
230
1
0
LINE
5
B3
100
AcDbEntity
8
1
62
256
6
ByLayer
370
18
48
1
60
0
100
AcDbLine
10
38.830095
20
21.185442
30
0
11
38.832371
21
21.17788
31
0
39
0
210
0
220
0
230
1
0
LINE
5
B4
100
AcDbEntity
8
1
62
256
6
ByLayer
370
18
48
1
60
0
100
AcDbLine
10
4.475
20
22.840027
30
0
11
4.475
21
21.378522
31
0
39
0
210
0
220
0
230
1
0
LINE
5
B5
100
AcDbEntity
8
1
62
256
6
ByLayer
370
13
48
1
60
0
100
AcDbLine
10
-0.249981
20
-16.07471
30
0
11
-0.249981
21
-16.692843
31
0
39
0
210
0
220
0
230
1
0
LINE
5
B6
100
AcDbEntity
8
1
62
256
6
ByLayer
370
13
48
1
60
0
100
AcDbLine
10
-0.249981
20
16.692843
30
0
11
-0.249981
21
16.07471
31
0
39
0
210
0
220
0
230
1
0
LINE
5
B7
100
AcDbEntity
8
1
62
256
6
ByLayer
370
18
48
1
60
0
100
AcDbLine
10
-0.324981
20
-16.786998
30
0
11
-0.324981
21
-17.413473
31
0
39
0
210
0
220
0
230
1
0
LINE
5
B8
100
AcDbEntity
8
1
62
256
6
ByLayer
370
18
48
1
60
0
100
AcDbLine
10
-0.324981
20
17.413473
30
0
11
-0.324981
21
16.786998
31
0
39
0
210
0
220
0
230
1
0
LINE
5
B9
100
AcDbEntity
8
1
62
256
6
ByLayer
370
13
48
1
60
0
100
AcDbLine
10
27.502256
20
21.126951
30
0
11
27.502256
21
19.316372
31
0
39
0
210
0
220
0
230
1
0
LINE
5
BA
100
AcDbEntity
8
1
62
256
6
ByLayer
370
13
48
1
60
0
100
AcDbLine
10
33.930132
20
19.068285
30
0
11
33.930132
21
21.312187
31
0
39
0
210
0
220
0
230
1
0
LINE
5
BB
100
AcDbEntity
8
1
62
256
6
ByLayer
370
13
48
1
60
0
100
AcDbLine
10
0.394519
20
-17.842221
30
0
11
0.394519
21
-17.977888
31
0
39
0
210
0
220
0
230
1
0
LINE
5
BC
100
AcDbEntity
8
1
62
256
6
ByLayer
370
13
48
1
60
0
100
AcDbLine
10
0.394519
20
17.977888
30
0
11
0.394519
21
17.842221
31
0
39
0
210
0
220
0
230
1
0
LINE
5
BD
100
AcDbEntity
8
1
62
256
6
ByLayer
370
18
48
1
60
0
100
AcDbLine
10
-0.324981
20
17.993925
30
0
11
-0.324981
21
17.499994
31
0
39
0
210
0
220
0
230
1
0
LINE
5
BE
100
AcDbEntity
8
1
62
256
6
ByLayer
370
18
48
1
60
0
100
AcDbLine
10
-0.324981
20
-17.499994
30
0
11
-0.324981
21
-17.993925
31
0
39
0
210
0
220
0
230
1
0
LINE
5
BF
100
AcDbEntity
8
1
62
256
6
ByLayer
370
13
48
1
60
0
100
AcDbLine
10
-0.249981
20
-16.939739
30
0
11
-0.249981
21
-17.438264
31
0
39
0
210
0
220
0
230
1
0
LINE
5
C0
100
AcDbEntity
8
1
62
256
6
ByLayer
370
13
48
1
60
0
100
AcDbLine
10
-0.249981
20
17.438264
30
0
11
-0.249981
21
16.939739
31
0
39
0
210
0
220
0
230
1
0
LINE
5
C1
100
AcDbEntity
8
1
62
256
6
ByLayer
370
13
48
1
60
0
100
AcDbLine
10
0.394519
20
18.581248
30
0
11
0.394519
21
18.473913
31
0
39
0
210
0
220
0
230
1
0
LINE
5
C2
100
AcDbEntity
8
1
62
256
6
ByLayer
370
13
48
1
60
0
100
AcDbLine
10
0.394519
20
-18.473913
30
0
11
0.394519
21
-18.581248
31
0
39
0
210
0
220
0
230
1
0
LINE
5
C3
100
AcDbEntity
8
1
62
256
6
ByLayer
370
18
48
1
60
0
100
AcDbLine
10
-0.324981
20
18.434577
30
0
11
-0.324981
21
18.060977
31
0
39
0
210
0
220
0
230
1
0
LINE
5
C4
100
AcDbEntity
8
1
62
256
6
ByLayer
370
18
48
1
60
0
100
AcDbLine
10
-0.324981
20
-18.060977
30
0
11
-0.324981
21
-18.434577
31
0
39
0
210
0
220
0
230
1
0
LINE
5
C5
100
AcDbEntity
8
1
62
256
6
ByLayer
370
13
48
1
60
0
100
AcDbLine
10
-0.249981
20
18.028729
30
0
11
-0.249981
21
17.635501
31
0
39
0
210
0
220
0
230
1
0
LINE
5
C6
100
AcDbEntity
8
1
62
256
6
ByLayer
370
13
48
1
60
0
100
AcDbLine
10
-0.249981
20
-17.635501
30
0
11
-0.249981
21
-18.028729
31
0
39
0
210
0
220
0
230
1
0
LINE
5
C7
100
AcDbEntity
8
1
62
256
6
ByLayer
370
13
48
1
60
0
100
AcDbLine
10
0.394519
20
19.047864
30
0
11
0.394519
21
18.966461
31
0
39
0
210
0
220
0
230
1
0
LINE
5
C8
100
AcDbEntity
8
1
62
256
6
ByLayer
370
13
48
1
60
0
100
AcDbLine
10
0.394519
20
-18.966461
30
0
11
0.394519
21
-19.047864
31
0
39
0
210
0
220
0
230
1
0
LINE
5
C9
100
AcDbEntity
8
1
62
256
6
ByLayer
370
18
48
1
60
0
100
AcDbLine
10
-0.324981
20
18.745291
30
0
11
-0.324981
21
18.483688
31
0
39
0
210
0
220
0
230
1
0
LINE
5
CA
100
AcDbEntity
8
1
62
256
6
ByLayer
370
18
48
1
60
0
100
AcDbLine
10
-0.324981
20
-18.483688
30
0
11
-0.324981
21
-18.745291
31
0
39
0
210
0
220
0
230
1
0
LINE
5
CB
100
AcDbEntity
8
1
62
256
6
ByLayer
370
13
48
1
60
0
100
AcDbLine
10
-0.249981
20
-18.181589
30
0
11
-0.249981
21
-18.479098
31
0
39
0
210
0
220
0
230
1
0
LINE
5
CC
100
AcDbEntity
8
1
62
256
6
ByLayer
370
13
48
1
60
0
100
AcDbLine
10
-0.249981
20
18.479098
30
0
11
-0.249981
21
18.181589
31
0
39
0
210
0
220
0
230
1
0
LINE
5
CD
100
AcDbEntity
8
1
62
256
6
ByLayer
370
13
48
1
60
0
100
AcDbLine
10
0.394519
20
19.38761
30
0
11
0.394519
21
19.330508
31
0
39
0
210
0
220
0
230
1
0
LINE
5
CE
100
AcDbEntity
8
1
62
256
6
ByLayer
370
13
48
1
60
0
100
AcDbLine
10
0.394519
20
-19.330508
30
0
11
0.394519
21
-19.38761
31
0
39
0
210
0
220
0
230
1
0
LINE
5
CF
100
AcDbEntity
8
1
62
256
6
ByLayer
370
18
48
1
60
0
100
AcDbLine
10
-0.324981
20
18.932466
30
0
11
-0.324981
21
18.777454
31
0
39
0
210
0
220
0
230
1
0
LINE
5
D0
100
AcDbEntity
8
1
62
256
6
ByLayer
370
18
48
1
60
0
100
AcDbLine
10
-0.324981
20
-18.777454
30
0
11
-0.324981
21
-18.932466
31
0
39
0
210
0
220
0
230
1
0
LINE
5
D1
100
AcDbEntity
8
1
62
256
6
ByLayer
370
13
48
1
60
0
100
AcDbLine
10
-0.249981
20
-18.591032
30
0
11
-0.249981
21
-18.799444
31
0
39
0
210
0
220
0
230
1
0
LINE
5
D2
100
AcDbEntity
8
1
62
256
6
ByLayer
370
13
48
1
60
0
100
AcDbLine
10
-0.249981
20
18.799444
30
0
11
-0.249981
21
18.591032
31
0
39
0
210
0
220
0
230
1
0
LINE
5
D3
100
AcDbEntity
8
1
62
256
6
ByLayer
370
13
48
1
60
0
100
AcDbLine
10
0.394519
20
19.607085
30
0
11
0.394519
21
19.573114
31
0
39
0
210
0
220
0
230
1
0
LINE
5
D4
100
AcDbEntity
8
1
62
256
6
ByLayer
370
13
48
1
60
0
100
AcDbLine
10
0.394519
20
-19.573114
30
0
11
0.394519
21
-19.607085
31
0
39
0
210
0
220
0
230
1
0
LINE
5
D5
100
AcDbEntity
8
1
62
256
6
ByLayer
370
18
48
1
60
0
100
AcDbLine
10
-0.324981
20
-18.94836
30
0
11
-0.324981
21
-18.999752
31
0
39
0
210
0
220
0
230
1
0
LINE
5
D6
100
AcDbEntity
8
1
62
256
6
ByLayer
370
18
48
1
60
0
100
AcDbLine
10
-0.324981
20
18.999752
30
0
11
-0.324981
21
18.94836
31
0
39
0
210
0
220
0
230
1
0
LINE
5
D7
100
AcDbEntity
8
1
62
256
6
ByLayer
370
13
48
1
60
0
100
AcDbLine
10
-0.249981
20
-18.872848
30
0
11
-0.249981
21
-18.996345
31
0
39
0
210
0
220
0
230
1
0
LINE
5
D8
100
AcDbEntity
8
1
62
256
6
ByLayer
370
13
48
1
60
0
100
AcDbLine
10
-0.249981
20
18.996345
30
0
11
-0.249981
21
18.872848
31
0
39
0
210
0
220
0
230
1
0
LINE
5
D9
100
AcDbEntity
8
1
62
256
6
ByLayer
370
13
48
1
60
0
100
AcDbLine
10
0.394519
20
19.710304
30
0
11
0.394519
21
19.699024
31
0
39
0
210
0
220
0
230
1
0
LINE
5
DA
100
AcDbEntity
8
1
62
256
6
ByLayer
370
13
48
1
60
0
100
AcDbLine
10
0.394519
20
-19.699024
30
0
11
0.394519
21
-19.710304
31
0
39
0
210
0
220
0
230
1
0
LINE
5
DB
100
AcDbEntity
8
1
62
256
6
ByLayer
370
13
48
1
60
0
100
AcDbLine
10
-0.249981
20
-19.03268
30
0
11
-0.249981
21
-19.073624
31
0
39
0
210
0
220
0
230
1
0
LINE
5
DC
100
AcDbEntity
8
1
62
256
6
ByLayer
370
13
48
1
60
0
100
AcDbLine
10
-0.249981
20
19.073624
30
0
11
-0.249981
21
19.03268
31
0
39
0
210
0
220
0
230
1
0
LINE
5
DD
100
AcDbEntity
8
1
62
256
6
ByLayer
370
13
48
1
60
0
100
AcDbLine
10
45.5
20
19.83375
30
0
11
42.094754
21
19.982426
31
0
39
0
210
0
220
0
230
1
0
LINE
5
DE
100
AcDbEntity
8
1
62
256
6
ByLayer
370
13
48
1
60
0
100
AcDbLine
10
42.100362
20
20.121392
30
0
11
45.5
21
19.97296
31
0
39
0
210
0
220
0
230
1
0
LINE
5
DF
100
AcDbEntity
8
1
62
256
6
ByLayer
370
18
48
1
60
0
100
AcDbLine
10
40.779791
20
21.155373
30
0
11
40.766254
21
21.199953
31
0
39
0
210
0
220
0
230
1
0
LINE
5
E0
100
AcDbEntity
8
1
62
256
6
ByLayer
370
13
48
1
60
0
100
AcDbLine
10
45.5
20
20.070701
30
0
11
42.104349
21
20.218958
31
0
39
0
210
0
220
0
230
1
0
LINE
5
E1
100
AcDbEntity
8
1
62
256
6
ByLayer
370
13
48
1
60
0
100
AcDbLine
10
39.867556
20
21.233778
30
0
11
39.864499
21
21.163759
31
0
39
0
210
0
220
0
230
1
0
LINE
5
E2
100
AcDbEntity
8
1
62
256
6
ByLayer
370
18
48
1
60
0
100
AcDbLine
10
45.5
20
20.255079
30
0
11
45.5
21
20.314886
31
0
39
0
210
0
220
0
230
1
0
LINE
5
E3
100
AcDbEntity
8
1
62
256
6
ByLayer
370
18
48
1
60
0
100
AcDbLine
10
45.5
20
21.17822
30
0
11
45.5
21
20.314886
31
0
39
0
210
0
220
0
230
1
0
LINE
5
E4
100
AcDbEntity
8
1
62
256
6
ByLayer
370
18
48
1
60
0
100
AcDbLine
10
45.5
20
20.209911
30
0
11
45.5
21
20.070701
31
0
39
0
210
0
220
0
230
1
0
LINE
5
E5
100
AcDbEntity
8
1
62
256
6
ByLayer
370
18
48
1
60
0
100
AcDbLine
10
45.5
20
20.070701
30
0
11
45.5
21
19.97296
31
0
39
0
210
0
220
0
230
1
0
LINE
5
E6
100
AcDbEntity
8
1
62
256
6
ByLayer
370
18
48
1
60
0
100
AcDbLine
10
45.5
20
19.97296
30
0
11
45.5
21
19.83375
31
0
39
0
210
0
220
0
230
1
0
LINE
5
E7
100
AcDbEntity
8
1
62
256
6
ByLayer
370
18
48
1
60
0
100
AcDbLine
10
45.5
20
19.728775
30
0
11
45.5
21
18.804741
31
0
39
0
210
0
220
0
230
1
0
LINE
5
E8
100
AcDbEntity
8
1
62
256
6
ByLayer
370
18
48
1
60
0
100
AcDbLine
10
45.5
20
19.83375
30
0
11
45.5
21
19.788582
31
0
39
0
210
0
220
0
230
1
0
LINE
5
E9
100
AcDbEntity
8
1
62
256
6
ByLayer
370
18
48
1
60
0
100
AcDbLine
10
45.5
20
19.728775
30
0
11
45.5
21
19.788582
31
0
39
0
210
0
220
0
230
1
0
LINE
5
EA
100
AcDbEntity
8
1
62
256
6
ByLayer
370
18
48
1
60
0
100
AcDbLine
10
45.5
20
20.255079
30
0
11
45.5
21
20.209911
31
0
39
0
210
0
220
0
230
1
0
LINE
5
EB
100
AcDbEntity
8
1
62
256
6
ByLayer
370
18
48
1
60
0
100
AcDbLine
10
-0.324981
20
-11.988251
30
0
11
-0.324981
21
-13.267245
31
0
39
0
210
0
220
0
230
1
0
LINE
5
EC
100
AcDbEntity
8
1
62
256
6
ByLayer
370
18
48
1
60
0
100
AcDbLine
10
-0.324981
20
-13.534977
30
0
11
-0.324981
21
-14.64828
31
0
39
0
210
0
220
0
230
1
0
LINE
5
ED
100
AcDbEntity
8
1
62
256
6
ByLayer
370
18
48
1
60
0
100
AcDbLine
10
-0.324981
20
5.776059
30
0
11
-0.324981
21
-5.776059
31
0
39
0
210
0
220
0
230
1
0
LINE
5
EE
100
AcDbEntity
8
1
62
256
6
ByLayer
370
18
48
1
60
0
100
AcDbLine
10
-0.324981
20
-11.531153
30
0
11
-0.324981
21
-11.790405
31
0
39
0
210
0
220
0
230
1
0
LINE
5
EF
100
AcDbEntity
8
1
62
256
6
ByLayer
370
18
48
1
60
0
100
AcDbLine
10
-0.324981
20
-14.64828
30
0
11
-0.324981
21
-14.812462
31
0
39
0
210
0
220
0
230
1
0
LINE
5
F0
100
AcDbEntity
8
1
62
256
6
ByLayer
370
18
48
1
60
0
100
AcDbLine
10
-0.324981
20
18.948427
30
0
11
-0.324981
21
18.932466
31
0
39
0
210
0
220
0
230
1
0
LINE
5
F1
100
AcDbEntity
8
1
62
256
6
ByLayer
370
18
48
1
60
0
100
AcDbLine
10
-0.324981
20
-17.993925
30
0
11
-0.324981
21
-18.061002
31
0
39
0
210
0
220
0
230
1
0
LINE
5
F2
100
AcDbEntity
8
1
62
256
6
ByLayer
370
18
48
1
60
0
100
AcDbLine
10
-0.324981
20
-18.745291
30
0
11
-0.324981
21
-18.777518
31
0
39
0
210
0
220
0
230
1
0
LINE
5
F3
100
AcDbEntity
8
1
62
256
6
ByLayer
370
18
48
1
60
0
100
AcDbLine
10
-0.324981
20
-17.413473
30
0
11
-0.324981
21
-17.50006
31
0
39
0
210
0
220
0
230
1
0
LINE
5
F4
100
AcDbEntity
8
1
62
256
6
ByLayer
370
18
48
1
60
0
100
AcDbLine
10
-0.324981
20
-5.776059
30
0
11
-0.324981
21
-6.373247
31
0
39
0
210
0
220
0
230
1
0
LINE
5
F5
100
AcDbEntity
8
1
62
256
6
ByLayer
370
18
48
1
60
0
100
AcDbLine
10
-0.324981
20
-13.267245
30
0
11
-0.324981
21
-13.470759
31
0
39
0
210
0
220
0
230
1
0
LINE
5
F6
100
AcDbEntity
8
1
62
256
6
ByLayer
370
18
48
1
60
0
100
AcDbLine
10
-0.324981
20
-16.678631
30
0
11
-0.324981
21
-16.787031
31
0
39
0
210
0
220
0
230
1
0
LINE
5
F7
100
AcDbEntity
8
1
62
256
6
ByLayer
370
18
48
1
60
0
100
AcDbLine
10
-0.324981
20
-15.767828
30
0
11
-0.324981
21
-15.901469
31
0
39
0
210
0
220
0
230
1
0
LINE
5
F8
100
AcDbEntity
8
1
62
256
6
ByLayer
370
18
48
1
60
0
100
AcDbLine
10
-0.324981
20
9.595101
30
0
11
-0.324981
21
9.242033
31
0
39
0
210
0
220
0
230
1
0
LINE
5
F9
100
AcDbEntity
8
1
62
256
6
ByLayer
370
18
48
1
60
0
100
AcDbLine
10
-0.324981
20
17.50006
30
0
11
-0.324981
21
17.413473
31
0
39
0
210
0
220
0
230
1
0
LINE
5
FA
100
AcDbEntity
8
1
62
256
6
ByLayer
370
18
48
1
60
0
100
AcDbLine
10
-0.324981
20
13.267245
30
0
11
-0.324981
21
11.988251
31
0
39
0
210
0
220
0
230
1
0
LINE
5
FB
100
AcDbEntity
8
1
62
256
6
ByLayer
370
18
48
1
60
0
100
AcDbLine
10
-0.324981
20
6.373247
30
0
11
-0.324981
21
5.776059
31
0
39
0
210
0
220
0
230
1
0
LINE
5
FC
100
AcDbEntity
8
1
62
256
6
ByLayer
370
18
48
1
60
0
100
AcDbLine
10
-0.324981
20
11.790405
30
0
11
-0.324981
21
11.531153
31
0
39
0
210
0
220
0
230
1
0
LINE
5
FD
100
AcDbEntity
8
1
62
256
6
ByLayer
370
18
48
1
60
0
100
AcDbLine
10
-0.324981
20
-18.932466
30
0
11
-0.324981
21
-18.948427
31
0
39
0
210
0
220
0
230
1
0
LINE
5
FE
100
AcDbEntity
8
1
62
256
6
ByLayer
370
18
48
1
60
0
100
AcDbLine
10
-0.324981
20
16.787031
30
0
11
-0.324981
21
16.678631
31
0
39
0
210
0
220
0
230
1
0
LINE
5
FF
100
AcDbEntity
8
1
62
256
6
ByLayer
370
18
48
1
60
0
100
AcDbLine
10
-0.324981
20
18.483709
30
0
11
-0.324981
21
18.434577
31
0
39
0
210
0
220
0
230
1
0
LINE
5
100
100
AcDbEntity
8
1
62
256
6
ByLayer
370
18
48
1
60
0
100
AcDbLine
10
-0.324981
20
14.812462
30
0
11
-0.324981
21
14.64828
31
0
39
0
210
0
220
0
230
1
0
LINE
5
101
100
AcDbEntity
8
1
62
256
6
ByLayer
370
18
48
1
60
0
100
AcDbLine
10
-0.324981
20
18.061002
30
0
11
-0.324981
21
17.993925
31
0
39
0
210
0
220
0
230
1
0
LINE
5
102
100
AcDbEntity
8
1
62
256
6
ByLayer
370
18
48
1
60
0
100
AcDbLine
10
-0.324981
20
-18.434577
30
0
11
-0.324981
21
-18.483709
31
0
39
0
210
0
220
0
230
1
0
LINE
5
103
100
AcDbEntity
8
1
62
256
6
ByLayer
370
18
48
1
60
0
100
AcDbLine
10
-0.324981
20
18.777518
30
0
11
-0.324981
21
18.745291
31
0
39
0
210
0
220
0
230
1
0
LINE
5
104
100
AcDbEntity
8
1
62
256
6
ByLayer
370
18
48
1
60
0
100
AcDbLine
10
-0.324981
20
13.470759
30
0
11
-0.324981
21
13.267245
31
0
39
0
210
0
220
0
230
1
0
LINE
5
105
100
AcDbEntity
8
1
62
256
6
ByLayer
370
18
48
1
60
0
100
AcDbLine
10
-0.324981
20
-9.242033
30
0
11
-0.324981
21
-9.595101
31
0
39
0
210
0
220
0
230
1
0
LINE
5
106
100
AcDbEntity
8
1
62
256
6
ByLayer
370
18
48
1
60
0
100
AcDbLine
10
-0.324981
20
14.64828
30
0
11
-0.324981
21
13.534977
31
0
39
0
210
0
220
0
230
1
0
LINE
5
107
100
AcDbEntity
8
1
62
256
6
ByLayer
370
18
48
1
60
0
100
AcDbLine
10
-0.324981
20
15.901469
30
0
11
-0.324981
21
15.767828
31
0
39
0
210
0
220
0
230
1
0
LINE
5
108
100
AcDbEntity
8
1
62
256
6
ByLayer
370
18
48
1
60
0
100
AcDbLine
10
42.05755
20
19.069179
30
0
11
41.950792
21
18.75057
31
0
39
0
210
0
220
0
230
1
0
LINE
5
109
100
AcDbEntity
8
1
62
256
6
ByLayer
370
18
48
1
60
0
100
AcDbLine
10
42.05755
20
19.069179
30
0
11
42.142184
21
21.150062
31
0
39
0
210
0
220
0
230
1
0
LINE
5
10A
100
AcDbEntity
8
1
62
256
6
ByLayer
370
18
48
1
60
0
100
AcDbLine
10
14.4
20
17.711445
30
0
11
14.4
21
15.135952
31
0
39
0
210
0
220
0
230
1
0
LINE
5
10B
100
AcDbEntity
8
1
62
256
6
ByLayer
370
18
48
1
60
0
100
AcDbLine
10
14.4
20
-13.872392
30
0
11
14.4
21
-5.926598
31
0
39
0
210
0
220
0
230
1
0
LINE
5
10C
100
AcDbEntity
8
1
62
256
6
ByLayer
370
18
48
1
60
0
100
AcDbLine
10
14.4
20
15.135952
30
0
11
14.4
21
5.926598
31
0
39
0
210
0
220
0
230
1
0
LINE
5
10D
100
AcDbEntity
8
1
62
256
6
ByLayer
370
18
48
1
60
0
100
AcDbLine
10
16
20
19.316372
30
0
11
27.502256
21
19.316372
31
0
39
0
210
0
220
0
230
1
0
LINE
5
10E
100
AcDbEntity
8
1
62
256
6
ByLayer
370
18
48
1
60
0
100
AcDbLine
10
35.08775
20
18.754646
30
0
11
35.71225
21
18.754646
31
0
39
0
210
0
220
0
230
1
0
LINE
5
10F
100
AcDbEntity
8
1
62
256
6
ByLayer
370
18
48
1
60
0
100
AcDbLine
10
45.5
20
21.17822
30
0
11
45.5
21
21.310899
31
0
39
0
210
0
220
0
230
1
0
LINE
5
110
100
AcDbEntity
8
1
62
256
6
ByLayer
370
18
48
1
60
0
100
AcDbLine
10
39.867556
20
21.233778
30
0
11
39.667365
21
21.233778
31
0
39
0
210
0
220
0
230
1
0
LINE
5
111
100
AcDbEntity
8
1
62
256
6
ByLayer
370
18
48
1
60
0
100
AcDbLine
10
4.475
20
22.840027
30
0
11
18.092908
21
22.840027
31
0
39
0
210
0
220
0
230
1
0
LINE
5
112
100
AcDbEntity
8
1
62
256
6
ByLayer
370
18
48
1
60
0
100
AcDbLine
10
27.502256
20
21.126951
30
0
11
15.5
21
21.126951
31
0
39
0
210
0
220
0
230
1
0
LINE
5
113
100
AcDbEntity
8
1
62
256
6
ByLayer
370
18
48
1
60
0
100
AcDbLine
10
4.475
20
16.32652
30
0
11
4.475
21
20.559554
31
0
39
0
210
0
220
0
230
1
0
LINE
5
114
100
AcDbEntity
8
1
62
256
6
ByLayer
370
18
48
1
60
0
100
AcDbLine
10
9.82016
20
-15.022478
30
0
11
9.82016
21
-17.030745
31
0
39
0
210
0
220
0
230
1
0
LINE
5
115
100
AcDbEntity
8
1
62
256
6
ByLayer
370
18
48
1
60
0
100
AcDbLine
10
9.82016
20
4.776512
30
0
11
9.82016
21
-4.776512
31
0
39
0
210
0
220
0
230
1
0
LINE
5
116
100
AcDbEntity
8
1
62
256
6
ByLayer
370
18
48
1
60
0
100
AcDbLine
10
14.4
20
-13.872392
30
0
11
14.4
21
-19.242179
31
0
39
0
210
0
220
0
230
1
0
LINE
5
117
100
AcDbEntity
8
1
62
256
6
ByLayer
370
18
48
1
60
0
100
AcDbLine
10
14.4
20
5.926598
30
0
11
14.4
21
-5.926598
31
0
39
0
210
0
220
0
230
1
0
MTEXT
5
1C3
100
AcDbEntity
8
SK6
62
256
6
ByLayer
370
18
48
1
60
0
100
AcDbMText
10
-11.125
20
-49.318419
30
0
210
0
220
0
230
1
1
\W0.7759;SL-QFT-RG30C40-150B
40
3.5
41
0
44
1.084337
50
0
71
7
72
5
7
iso_b_vert
0
DIMENSION
5
1D4
100
AcDbEntity
8
2
62
256
6
ByLayer
370
13
48
1
60
0
100
AcDbDimension
2
DimnDraft3D1
10
71.1
20
21.5
30
0
11
71.1
21
7.079605
31
0
70
32
71
5
72
1
41
1
210
0
220
0
230
1
3
Standard
100
AcDbAlignedDimension
13
18
23
0
33
0
14
48
24
21.5
34
0
50
90
100
AcDbRotatedDimension
1001
ACAD
1000
DSTYLE
1002
{
1070
    74
1070
     0
1070
   279
1070
     0
1070
   172
1070
     1
1070
   173
1070
     1
1070
   340
1005
1C4
1070
   271
1070
     1
1070
    77
1070
     1
1070
    73
1070
     0
1070
   171
1070
     3
1070
   274
1070
     4
1070
   177
1070
     2
1070
   176
1070
     2
1070
   178
1070
     7
1070
    78
1070
     8
1070
    41
1041
3.175
1070
   147
1041
1.75
1070
    42
1041
2.0
1070
    44
1041
2.0
1070
   140
1041
3.5
1070
   343
1005
1D5
1070
   344
1005
1D5
1002
}
0
DIMENSION
5
1EA
100
AcDbEntity
8
SK2
62
256
6
ByLayer
370
13
48
1
60
0
100
AcDbDimension
2
DimnDraft3D2
10
46
20
46.013162
30
0
11
20.725
21
46.013162
31
0
70
32
71
5
72
1
41
1
210
0
220
0
230
1
3
Standard
100
AcDbAlignedDimension
13
0
23
2
33
0
14
46
24
23.5
34
0
50
0
100
AcDbRotatedDimension
1001
ACAD
1000
DSTYLE
1002
{
1070
   279
1070
     0
1070
   172
1070
     1
1070
   173
1070
     1
1070
   340
1005
1C4
1070
   271
1070
     1
1070
    77
1070
     1
1070
    73
1070
     0
1070
   171
1070
     3
1070
   274
1070
     4
1070
   177
1070
     2
1070
   176
1070
     2
1070
   178
1070
     7
1070
    78
1070
     8
1070
    41
1041
3.175
1070
   147
1041
1.75
1070
    42
1041
2.0
1070
    44
1041
2.0
1070
   140
1041
3.5
1070
   343
1005
1D5
1070
   344
1005
1D5
1002
}
0
DIMENSION
5
1F8
100
AcDbEntity
8
2
62
256
6
ByLayer
370
13
48
1
60
0
100
AcDbDimension
2
DimnDraft3D3
10
16
20
-33.4
30
0
11
28.909211
21
-33.4
31
0
70
32
71
5
72
1
41
1
210
0
220
0
230
1
3
Standard
100
AcDbAlignedDimension
13
46
23
19.5
33
0
14
16
24
-2
34
0
50
0
100
AcDbRotatedDimension
1001
ACAD
1000
DSTYLE
1002
{
1070
   279
1070
     0
1070
   172
1070
     1
1070
   173
1070
     1
1070
   340
1005
1C4
1070
   271
1070
     1
1070
    77
1070
     1
1070
    73
1070
     0
1070
   171
1070
     3
1070
   274
1070
     4
1070
   177
1070
     2
1070
   176
1070
     2
1070
   178
1070
     7
1070
    78
1070
     8
1070
    41
1041
3.175
1070
   147
1041
1.75
1070
    42
1041
2.0
1070
    44
1041
2.0
1070
   140
1041
3.5
1070
   343
1005
1D5
1070
   344
1005
1D5
1002
}
0
DIMENSION
5
206
100
AcDbEntity
8
2
62
256
6
ByLayer
370
13
48
1
60
0
100
AcDbDimension
2
DimnDraft3D4
10
64.1
20
18.5
30
0
11
64.1
21
6.679211
31
0
70
32
71
5
72
1
41
1
210
0
220
0
230
1
3
Standard
100
AcDbAlignedDimension
13
48
23
21.5
33
0
14
48
24
18.5
34
0
50
90
100
AcDbRotatedDimension
1001
ACAD
1000
DSTYLE
1002
{
1070
    74
1070
     0
1070
   279
1070
     0
1070
   172
1070
     1
1070
   173
1070
     1
1070
   340
1005
1C4
1070
   271
1070
     1
1070
    77
1070
     1
1070
    73
1070
     0
1070
   171
1070
     3
1070
   274
1070
     4
1070
   177
1070
     2
1070
   176
1070
     2
1070
   178
1070
     7
1070
    78
1070
     8
1070
    41
1041
3.175
1070
   147
1041
1.75
1070
    42
1041
2.0
1070
    44
1041
2.0
1070
   140
1041
3.5
1070
   343
1005
1D5
1070
   344
1005
1D5
1002
}
0
ENDSEC
0
SECTION
2
OBJECTS
0
DICTIONARY
5
26f
330
0
100
AcDbDictionary
280
0
281
1
3
ACAD_GROUP
350
270
3
ACAD_MLINESTYLE
350
271
0
DICTIONARY
5
270
330
0
100
AcDbDictionary
280
0
281
1
0
DICTIONARY
5
271
330
0
100
AcDbDictionary
280
0
281
1
3
Standard
350
18
0
MLINESTYLE
5
18
330
271
100
AcDbMlineStyle
2
Standard
70
0
3

62
256
51
90
52
90
71
2
49
-0.5
62
256
6
ByLayer
49
0.5
62
256
6
ByLayer
0
RASTERVARIABLES
5
25f
330

100
AcDbRasterVariables
90
0
70
1
71
1
72
1
0
ENDSEC
0
EOF
