0
SECTION
2
HEADER
9
$ACADVER
1
AC1015
9
$DWGCODEPAGE
3
ANSI_1252
9
$HANDSEED
5
27a
9
$ANGBASE
50
0
9
$ANGDIR
70
0
9
$ATTMODE
70
1
9
$AUNITS
70
0
9
$AUPREC
70
0
9
$CECOLOR
62
256
9
$CELTSCALE
40
1
9
$CELTYPE
6
ByLayer
9
$CELWEIGHT
370
18
9
$CLAYER
8
0
9
$CMLJUST
70
0
9
$CMLSCALE
40
1
9
$CMLSTYLE
2
Standard
9
$DIMSTYLE
2
Standard
9
$TEXTSIZE
40
0.2
9
$TEXTSTYLE
7
Standard
9
$LUNITS
70
2
9
$LUPREC
70
4
9
$EXTNAMES
290
1
9
$INSUNITS
70
4
9
$LTSCALE
40
1
9
$LWDISPLAY
290
1
9
$PDMODE
70
0
9
$PDSIZE
40
0
9
$PLINEGEN
70
0
0
ENDSEC
0
SECTION
2
CLASSES
0
CLASS
1
RASTERVARIABLES
2
AcDbRasterVariables
3
ISM
90
0
280
0
281
0
0
ENDSEC
0
SECTION
2
TABLES
0
TABLE
2
VPORT
5
270
100
AcDbSymbolTable
0
VPORT
5
1
100
AcDbSymbolTableRecord
100
AcDbViewportTableRecord
2
*Active
70
0
10
0
20
0
11
1
21
1
12
-1
22
1
13
0
23
0
14
0.5
24
0.5
15
10
25
10
16
0
26
0
36
1
17
0
27
0
37
0
0
ENDTAB
0
TABLE
2
LTYPE
5
271
100
AcDbSymbolTable
0
LTYPE
5
14
100
AcDbSymbolTableRecord
100
AcDbLinetypeTableRecord
70
0
2
ByBlock
3

72
65
73
0
40
0
0
LTYPE
5
15
100
AcDbSymbolTableRecord
100
AcDbLinetypeTableRecord
70
0
2
ByLayer
3

72
65
73
0
40
0
0
LTYPE
5
16
100
AcDbSymbolTableRecord
100
AcDbLinetypeTableRecord
70
0
2
CONTINUOUS
3
Solid line
72
65
73
0
40
0
0
LTYPE
5
6A
100
AcDbSymbolTableRecord
100
AcDbLinetypeTableRecord
70
0
2
CENTER
3
____ _ ____ _ ____ _ ____
72
65
73
4
40
47.5
49
22
74
0
49
-8.5
74
0
49
8.5
74
0
49
-8.5
74
0
0
LTYPE
5
6B
100
AcDbSymbolTableRecord
100
AcDbLinetypeTableRecord
70
0
2
DASHED
3
__ __ __ __ __ __ __ __ __
72
65
73
2
40
25.72
49
12.86
74
0
49
-12.86
74
0
0
ENDTAB
0
TABLE
2
LAYER
5
272
100
AcDbSymbolTable
0
LAYER
5
10
100
AcDbSymbolTableRecord
100
AcDbLayerTableRecord
2
0
70
0
62
7
6
CONTINUOUS
290
1
370
-3
390
0
0
LAYER
5
6D
100
AcDbSymbolTableRecord
100
AcDbLayerTableRecord
2
80
70
0
62
-6
6
CONTINUOUS
290
1
370
-3
390
0
0
LAYER
5
6F
100
AcDbSymbolTableRecord
100
AcDbLayerTableRecord
2
81
70
0
62
-3
6
CONTINUOUS
290
1
370
-3
390
0
0
LAYER
5
71
100
AcDbSymbolTableRecord
100
AcDbLayerTableRecord
2
2
70
0
62
7
6
CONTINUOUS
290
1
370
-3
390
0
0
LAYER
5
73
100
AcDbSymbolTableRecord
100
AcDbLayerTableRecord
2
1
70
0
62
4
6
CONTINUOUS
290
1
370
-3
390
0
0
LAYER
5
25e
100
AcDbSymbolTableRecord
100
AcDbLayerTableRecord
2
SK6
70
0
62
5
6
CONTINUOUS
290
1
370
-3
390
0
0
LAYER
5
25f
100
AcDbSymbolTableRecord
100
AcDbLayerTableRecord
2
SK2
70
0
62
7
6
CONTINUOUS
290
1
370
-3
390
0
0
ENDTAB
0
TABLE
2
STYLE
5
273
100
AcDbSymbolTable
0
STYLE
5
11
100
AcDbSymbolTableRecord
100
AcDbTextStyleTableRecord
2
Standard
3
txt
70
0
71
0
40
0
41
1
42
0
50
0
0
STYLE
5
1C2
100
AcDbSymbolTableRecord
100
AcDbTextStyleTableRecord
2
iso_b_vert
3
simplex.shx
70
0
71
0
40
0
41
1
42
0
50
0
0
STYLE
5
1C3
100
AcDbSymbolTableRecord
100
AcDbTextStyleTableRecord
2
DWGDirectTextStyle
3
simplex
70
0
71
0
40
0
41
1
42
0
50
0
0
ENDTAB
0
TABLE
2
DIMSTYLE
5
274
100
AcDbSymbolTable
100
AcDbDimStyleTable
0
DIMSTYLE
105
27
100
AcDbSymbolTableRecord
100
AcDbDimStyleTableRecord
2
Standard
70
0
3
<>
41
0.18
42
0.0625
44
0.18
140
0.18
147
0.09
73
0
74
0
77
1
271
2
275
0
278
52
280
0
340
11
0
ENDTAB
0
TABLE
2
VIEW
5
275
100
AcDbSymbolTable
0
ENDTAB
0
TABLE
2
UCS
5
276
100
AcDbSymbolTable
0
ENDTAB
0
TABLE
2
APPID
5
277
100
AcDbSymbolTable
0
APPID
5
12
100
AcDbSymbolTableRecord
100
AcDbRegAppTableRecord
2
ACAD
70
0
0
ENDTAB
0
TABLE
2
BLOCK_RECORD
5
278
100
AcDbSymbolTable
0
BLOCK_RECORD
5
1F
100
AcDbSymbolTableRecord
100
AcDbBlockTableRecord
2
*Model_Space
340
0
70
0
0
BLOCK_RECORD
5
1B
100
AcDbSymbolTableRecord
100
AcDbBlockTableRecord
2
*Paper_Space
340
0
70
0
0
BLOCK_RECORD
5
23
100
AcDbSymbolTableRecord
100
AcDbBlockTableRecord
2
*Paper_Space0
340
0
70
0
0
BLOCK_RECORD
5
1C5
100
AcDbSymbolTableRecord
100
AcDbBlockTableRecord
2
DimnDraft3D1
340
0
70
0
0
BLOCK_RECORD
5
1D4
100
AcDbSymbolTableRecord
100
AcDbBlockTableRecord
2
_CLOSED
340
0
70
0
0
BLOCK_RECORD
5
1DB
100
AcDbSymbolTableRecord
100
AcDbBlockTableRecord
2
DimnDraft3D2
340
0
70
0
0
BLOCK_RECORD
5
1E9
100
AcDbSymbolTableRecord
100
AcDbBlockTableRecord
2
DimnDraft3D3
340
0
70
0
0
BLOCK_RECORD
5
1F7
100
AcDbSymbolTableRecord
100
AcDbBlockTableRecord
2
DimnDraft3D4
340
0
70
0
0
ENDTAB
0
ENDSEC
0
SECTION
2
BLOCKS
0
BLOCK
5
20
100
AcDbEntity
8
0
100
AcDbBlockBegin
2
*Model_Space
70
0
10
0
20
0
30
0
3
*Model_Space
0
ENDBLK
5
21
100
AcDbEntity
8
0
100
AcDbBlockEnd
0
BLOCK
5
1C
100
AcDbEntity
8
0
100
AcDbBlockBegin
2
*Paper_Space
70
0
10
0
20
0
30
0
3
*Paper_Space
0
ENDBLK
5
1D
100
AcDbEntity
8
0
100
AcDbBlockEnd
0
BLOCK
5
24
100
AcDbEntity
8
0
100
AcDbBlockBegin
2
*Paper_Space0
70
0
10
0
20
0
30
0
3
*Paper_Space0
0
ENDBLK
5
25
100
AcDbEntity
8
0
100
AcDbBlockEnd
0
BLOCK
5
1D1
100
AcDbEntity
8
0
100
AcDbBlockBegin
2
DimnDraft3D1
70
0
10
0
20
0
30
0
3
DimnDraft3D1
0
MTEXT
5
1C6
100
AcDbEntity
8
SK2
62
256
6
ByLayer
370
18
48
1
60
0
100
AcDbMText
10
25.6
20
43.775
30
0
210
0
220
0
230
1
1
\W0.7167;54
40
3.5
41
0
44
1.084337
50
0
71
7
72
5
7
iso_b_vert
0
LINE
5
1C8
100
AcDbEntity
8
SK2
62
256
6
ByLayer
370
13
48
1
60
0
100
AcDbLine
10
0
20
2
30
0
11
0
21
44.9
31
0
39
0
210
0
220
0
230
1
0
LINE
5
1C9
100
AcDbEntity
8
SK2
62
256
6
ByLayer
370
13
48
1
60
0
100
AcDbLine
10
54
20
-20.5
30
0
11
54
21
44.9
31
0
39
0
210
0
220
0
230
1
0
LINE
5
1CA
100
AcDbEntity
8
SK2
62
256
6
ByLayer
370
13
48
1
60
0
100
AcDbLine
10
0
20
42.9
30
0
11
54
21
42.9
31
0
39
0
210
0
220
0
230
1
0
LINE
5
1CB
100
AcDbEntity
8
SK2
62
256
6
ByLayer
370
13
48
1
60
0
100
AcDbLine
10
0
20
42.9
30
0
11
3.174998
21
43.317997
31
0
39
0
210
0
220
0
230
1
0
LINE
5
1CC
100
AcDbEntity
8
SK2
62
256
6
ByLayer
370
13
48
1
60
0
100
AcDbLine
10
0
20
42.9
30
0
11
3.175002
21
42.482003
31
0
39
0
210
0
220
0
230
1
0
LINE
5
1CD
100
AcDbEntity
8
SK2
62
256
6
ByLayer
370
13
48
1
60
0
100
AcDbLine
10
3.174998
20
43.317997
30
0
11
3.175002
21
42.482003
31
0
39
0
210
0
220
0
230
1
0
LINE
5
1CE
100
AcDbEntity
8
SK2
62
256
6
ByLayer
370
13
48
1
60
0
100
AcDbLine
10
54
20
42.9
30
0
11
50.825002
21
42.482003
31
0
39
0
210
0
220
0
230
1
0
LINE
5
1CF
100
AcDbEntity
8
SK2
62
256
6
ByLayer
370
13
48
1
60
0
100
AcDbLine
10
54
20
42.9
30
0
11
50.824998
21
43.317997
31
0
39
0
210
0
220
0
230
1
0
LINE
5
1D0
100
AcDbEntity
8
SK2
62
256
6
ByLayer
370
13
48
1
60
0
100
AcDbLine
10
50.825002
20
42.482003
30
0
11
50.824998
21
43.317997
31
0
39
0
210
0
220
0
230
1
0
ENDBLK
5
1D2
100
AcDbEntity
8
0
100
AcDbBlockEnd
0
BLOCK
5
1D5
100
AcDbEntity
8
0
100
AcDbBlockBegin
2
_CLOSED
70
0
10
0
20
0
30
0
3
_CLOSED
0
LINE
5
1D7
100
AcDbEntity
8
0
62
256
6
ByLayer
370
-2
48
1
60
0
100
AcDbLine
10
-1
20
0.166667
30
0
11
0
21
0
31
0
39
0
210
0
220
0
230
1
0
LINE
5
1D8
100
AcDbEntity
8
0
62
256
6
ByLayer
370
-2
48
1
60
0
100
AcDbLine
10
0
20
0
30
0
11
-1
21
-0.166667
31
0
39
0
210
0
220
0
230
1
0
LINE
5
1D9
100
AcDbEntity
8
0
62
256
6
ByLayer
370
-2
48
1
60
0
100
AcDbLine
10
-1
20
0.166667
30
0
11
-1
21
-0.166667
31
0
39
0
210
0
220
0
230
1
0
LINE
5
1DA
100
AcDbEntity
8
0
62
256
6
ByLayer
370
-2
48
1
60
0
100
AcDbLine
10
0
20
0
30
0
11
-1
21
0
31
0
39
0
210
0
220
0
230
1
0
ENDBLK
5
1D6
100
AcDbEntity
8
0
100
AcDbBlockEnd
0
BLOCK
5
1E6
100
AcDbEntity
8
0
100
AcDbBlockBegin
2
DimnDraft3D2
70
0
10
0
20
0
30
0
3
DimnDraft3D2
0
MTEXT
5
1DC
100
AcDbEntity
8
2
62
256
6
ByLayer
370
18
48
1
60
0
100
AcDbMText
10
33.784211
20
-34.725
30
0
210
0
220
0
230
1
1
\W0.6740;38
40
3.5
41
0
44
1.084337
50
0
71
7
72
5
7
iso_b_vert
0
LINE
5
1DD
100
AcDbEntity
8
2
62
256
6
ByLayer
370
13
48
1
60
0
100
AcDbLine
10
54
20
-24.5
30
0
11
54
21
-37.6
31
0
39
0
210
0
220
0
230
1
0
LINE
5
1DE
100
AcDbEntity
8
2
62
256
6
ByLayer
370
13
48
1
60
0
100
AcDbLine
10
16
20
-2
30
0
11
16
21
-37.6
31
0
39
0
210
0
220
0
230
1
0
LINE
5
1DF
100
AcDbEntity
8
2
62
256
6
ByLayer
370
13
48
1
60
0
100
AcDbLine
10
54
20
-35.6
30
0
11
16
21
-35.6
31
0
39
0
210
0
220
0
230
1
0
LINE
5
1E0
100
AcDbEntity
8
2
62
256
6
ByLayer
370
13
48
1
60
0
100
AcDbLine
10
54
20
-35.6
30
0
11
50.825002
21
-36.017997
31
0
39
0
210
0
220
0
230
1
0
LINE
5
1E1
100
AcDbEntity
8
2
62
256
6
ByLayer
370
13
48
1
60
0
100
AcDbLine
10
54
20
-35.6
30
0
11
50.824998
21
-35.182003
31
0
39
0
210
0
220
0
230
1
0
LINE
5
1E2
100
AcDbEntity
8
2
62
256
6
ByLayer
370
13
48
1
60
0
100
AcDbLine
10
50.825002
20
-36.017997
30
0
11
50.824998
21
-35.182003
31
0
39
0
210
0
220
0
230
1
0
LINE
5
1E3
100
AcDbEntity
8
2
62
256
6
ByLayer
370
13
48
1
60
0
100
AcDbLine
10
16
20
-35.6
30
0
11
19.174998
21
-35.182003
31
0
39
0
210
0
220
0
230
1
0
LINE
5
1E4
100
AcDbEntity
8
2
62
256
6
ByLayer
370
13
48
1
60
0
100
AcDbLine
10
16
20
-35.6
30
0
11
19.175002
21
-36.017997
31
0
39
0
210
0
220
0
230
1
0
LINE
5
1E5
100
AcDbEntity
8
2
62
256
6
ByLayer
370
13
48
1
60
0
100
AcDbLine
10
19.174998
20
-35.182003
30
0
11
19.175002
21
-36.017997
31
0
39
0
210
0
220
0
230
1
0
ENDBLK
5
1E7
100
AcDbEntity
8
0
100
AcDbBlockEnd
0
BLOCK
5
1F4
100
AcDbEntity
8
0
100
AcDbBlockBegin
2
DimnDraft3D3
70
0
10
0
20
0
30
0
3
DimnDraft3D3
0
MTEXT
5
1EA
100
AcDbEntity
8
2
62
256
6
ByLayer
370
18
48
1
60
0
100
AcDbMText
10
78.225
20
-14.482895
30
0
210
0
220
0
230
1
1
\W0.7346;22.5
40
3.5
41
0
44
1.084337
50
90
71
7
72
5
7
iso_b_vert
0
LINE
5
1EB
100
AcDbEntity
8
2
62
256
6
ByLayer
370
13
48
1
60
0
100
AcDbLine
10
47
20
0
30
0
11
81.1
21
0
31
0
39
0
210
0
220
0
230
1
0
LINE
5
1EC
100
AcDbEntity
8
2
62
256
6
ByLayer
370
13
48
1
60
0
100
AcDbLine
10
56
20
-22.5
30
0
11
81.1
21
-22.5
31
0
39
0
210
0
220
0
230
1
0
LINE
5
1ED
100
AcDbEntity
8
2
62
256
6
ByLayer
370
13
48
1
60
0
100
AcDbLine
10
79.1
20
0
30
0
11
79.1
21
-22.5
31
0
39
0
210
0
220
0
230
1
0
LINE
5
1EE
100
AcDbEntity
8
2
62
256
6
ByLayer
370
13
48
1
60
0
100
AcDbLine
10
79.1
20
0
30
0
11
79.517997
21
-3.174998
31
0
39
0
210
0
220
0
230
1
0
LINE
5
1EF
100
AcDbEntity
8
2
62
256
6
ByLayer
370
13
48
1
60
0
100
AcDbLine
10
79.1
20
0
30
0
11
78.682003
21
-3.175002
31
0
39
0
210
0
220
0
230
1
0
LINE
5
1F0
100
AcDbEntity
8
2
62
256
6
ByLayer
370
13
48
1
60
0
100
AcDbLine
10
79.517997
20
-3.174998
30
0
11
78.682003
21
-3.175002
31
0
39
0
210
0
220
0
230
1
0
LINE
5
1F1
100
AcDbEntity
8
2
62
256
6
ByLayer
370
13
48
1
60
0
100
AcDbLine
10
79.1
20
-22.5
30
0
11
78.682003
21
-19.325002
31
0
39
0
210
0
220
0
230
1
0
LINE
5
1F2
100
AcDbEntity
8
2
62
256
6
ByLayer
370
13
48
1
60
0
100
AcDbLine
10
79.1
20
-22.5
30
0
11
79.517997
21
-19.324998
31
0
39
0
210
0
220
0
230
1
0
LINE
5
1F3
100
AcDbEntity
8
2
62
256
6
ByLayer
370
13
48
1
60
0
100
AcDbLine
10
78.682003
20
-19.325002
30
0
11
79.517997
21
-19.324998
31
0
39
0
210
0
220
0
230
1
0
ENDBLK
5
1F5
100
AcDbEntity
8
0
100
AcDbBlockEnd
0
BLOCK
5
202
100
AcDbEntity
8
0
100
AcDbBlockBegin
2
DimnDraft3D4
70
0
10
0
20
0
30
0
3
DimnDraft3D4
0
MTEXT
5
1F8
100
AcDbEntity
8
2
62
256
6
ByLayer
370
18
48
1
60
0
100
AcDbMText
10
71.225
20
-33.814211
30
0
210
0
220
0
230
1
1
\W0.6380;4
40
3.5
41
0
44
1.084337
50
90
71
7
72
5
7
iso_b_vert
0
LINE
5
1F9
100
AcDbEntity
8
2
62
256
6
ByLayer
370
13
48
1
60
0
100
AcDbLine
10
56
20
-22.5
30
0
11
74.1
21
-22.5
31
0
39
0
210
0
220
0
230
1
0
LINE
5
1FA
100
AcDbEntity
8
2
62
256
6
ByLayer
370
13
48
1
60
0
100
AcDbLine
10
56
20
-18.5
30
0
11
74.1
21
-18.5
31
0
39
0
210
0
220
0
230
1
0
LINE
5
1FB
100
AcDbEntity
8
2
62
256
6
ByLayer
370
13
48
1
60
0
100
AcDbLine
10
72.1
20
-9.75
30
0
11
72.1
21
-34.689211
31
0
39
0
210
0
220
0
230
1
0
LINE
5
1FC
100
AcDbEntity
8
2
62
256
6
ByLayer
370
13
48
1
60
0
100
AcDbLine
10
72.1
20
-22.5
30
0
11
72.517997
21
-25.674998
31
0
39
0
210
0
220
0
230
1
0
LINE
5
1FD
100
AcDbEntity
8
2
62
256
6
ByLayer
370
13
48
1
60
0
100
AcDbLine
10
72.1
20
-22.5
30
0
11
71.682003
21
-25.675002
31
0
39
0
210
0
220
0
230
1
0
LINE
5
1FE
100
AcDbEntity
8
2
62
256
6
ByLayer
370
13
48
1
60
0
100
AcDbLine
10
72.517997
20
-25.674998
30
0
11
71.682003
21
-25.675002
31
0
39
0
210
0
220
0
230
1
0
LINE
5
1FF
100
AcDbEntity
8
2
62
256
6
ByLayer
370
13
48
1
60
0
100
AcDbLine
10
72.1
20
-18.5
30
0
11
71.682003
21
-15.325002
31
0
39
0
210
0
220
0
230
1
0
LINE
5
200
100
AcDbEntity
8
2
62
256
6
ByLayer
370
13
48
1
60
0
100
AcDbLine
10
72.1
20
-18.5
30
0
11
72.517997
21
-15.324998
31
0
39
0
210
0
220
0
230
1
0
LINE
5
201
100
AcDbEntity
8
2
62
256
6
ByLayer
370
13
48
1
60
0
100
AcDbLine
10
71.682003
20
-15.325002
30
0
11
72.517997
21
-15.324998
31
0
39
0
210
0
220
0
230
1
0
ENDBLK
5
203
100
AcDbEntity
8
0
100
AcDbBlockEnd
0
ENDSEC
0
SECTION
2
ENTITIES
0
ARC
5
11A
100
AcDbEntity
8
1
62
256
6
ByLayer
370
18
48
1
60
0
100
AcDbCircle
39
0
10
-3.475
20
21
30
0
40
1
210
0
220
0
230
-1
100
AcDbArc
50
224.444968
51
270
0
ARC
5
11B
100
AcDbEntity
8
1
62
256
6
ByLayer
370
18
48
1
60
0
100
AcDbCircle
39
0
10
-3.475
20
-21
30
0
40
1
210
0
220
0
230
-1
100
AcDbArc
50
90
51
180
0
ARC
5
11C
100
AcDbEntity
8
1
62
256
6
ByLayer
370
18
48
1
60
0
100
AcDbCircle
39
0
10
-21.2457
20
0
30
0
40
20.2999999999199
210
0
220
0
230
-1
100
AcDbArc
50
55.747953
51
70.292007
0
ARC
5
11D
100
AcDbEntity
8
1
62
256
6
ByLayer
370
18
48
1
60
0
100
AcDbCircle
39
0
10
-11.346205
20
9.899495
30
0
40
5.25
210
0
220
0
230
-1
100
AcDbArc
50
234.431544
51
286.898382
0
ARC
5
11E
100
AcDbEntity
8
1
62
256
6
ByLayer
370
18
48
1
60
0
100
AcDbCircle
39
0
10
-11.346205
20
-9.899495
30
0
40
5.25000000000001
210
0
220
0
230
-1
100
AcDbArc
50
73.101618
51
125.568456
0
ARC
5
11F
100
AcDbEntity
8
1
62
256
6
ByLayer
370
18
48
1
60
0
100
AcDbCircle
39
0
10
-11.346205
20
9.899495
30
0
40
5.24999999999966
210
0
220
0
230
-1
100
AcDbArc
50
73.101618
51
125.568456
0
ELLIPSE
5
120
100
AcDbEntity
8
1
62
256
6
ByLayer
370
18
48
1
60
0
100
AcDbEllipse
10
81.511217
20
31.500223
30
0
11
70.2735154534238
21
36.2732173452247
31
0
210
0
220
0
230
-1
40
0.564442
41
2.30730596704207
42
2.31155466713886
0
ELLIPSE
5
121
100
AcDbEntity
8
1
62
256
6
ByLayer
370
18
48
1
60
0
100
AcDbEllipse
10
11.685888
20
31.500002
30
0
11
150.029956838065
21
-20.2477593283518
31
0
210
0
220
0
230
-1
40
0.33187
41
1.24388278823147
42
1.27126243024393
0
ELLIPSE
5
122
100
AcDbEntity
8
1
62
256
6
ByLayer
370
18
48
1
60
0
100
AcDbEllipse
10
46.641121
20
-21.367676
30
0
11
0.65863415815266
21
3.69395365196519
31
0
210
0
220
0
230
-1
40
0.323001
41
0.696495424252928
42
0.763494272269724
0
ELLIPSE
5
123
100
AcDbEntity
8
1
62
256
6
ByLayer
370
18
48
1
60
0
100
AcDbEllipse
10
87.175775
20
57.5
30
0
11
215.258611302036
21
2.17548759524631E-13
31
0
210
0
220
0
230
-1
40
0.35469
41
1.74984317178497
42
1.87942556746591
0
ELLIPSE
5
124
100
AcDbEntity
8
1
62
256
6
ByLayer
370
18
48
1
60
0
100
AcDbEllipse
10
15.5
20
-5.973615
30
0
11
-9.07681389914003E-16
21
14.8240516159474
31
0
210
0
220
0
230
-1
40
0.742037
41
3.14159265358979
42
-1.9966023597945
0
ELLIPSE
5
125
100
AcDbEntity
8
1
62
256
6
ByLayer
370
18
48
1
60
0
100
AcDbEllipse
10
49.747819
20
31.5
30
0
11
64.0567556030079
21
6.47382589542658E-14
31
0
210
0
220
0
230
-1
40
0.8391
41
1.57504507965813
42
1.70902483147423
0
ELLIPSE
5
126
100
AcDbEntity
8
1
62
256
6
ByLayer
370
18
48
1
60
0
100
AcDbEllipse
10
49.747819
20
57.5
30
0
11
90.9903867977368
21
9.19584385348434E-14
31
0
210
0
220
0
230
-1
40
0.8391
41
1.57152325171381
42
1.66795164528239
0
ELLIPSE
5
127
100
AcDbEntity
8
1
62
256
6
ByLayer
370
18
48
1
60
0
100
AcDbEllipse
10
147.85366
20
57.500011
30
0
11
235.489658332985
21
30.2669557082734
31
0
210
0
220
0
230
-1
40
0.297654
41
2.0209629345788
42
2.04699127369428
0
ELLIPSE
5
128
100
AcDbEntity
8
1
62
256
6
ByLayer
370
18
48
1
60
0
100
AcDbEllipse
10
44.671987
20
-20.380369
30
0
11
0.76036465715203
21
0.0807055556304438
31
0
210
0
220
0
230
-1
40
0.980661
41
0
42
6.28318530717959
0
POINT
5
6C
100
AcDbEntity
8
80
62
256
6
ByLayer
370
18
48
1
60
0
100
AcDbPoint
10
0
20
0
30
0
39
0
210
0
220
0
230
1
50
360
0
POINT
5
6E
100
AcDbEntity
8
81
62
256
6
ByLayer
370
18
48
1
60
0
100
AcDbPoint
10
54
20
-22.5
30
0
39
0
210
0
220
0
230
1
50
360
0
POINT
5
70
100
AcDbEntity
8
2
62
256
6
ByLayer
370
18
48
1
60
0
100
AcDbPoint
10
54
20
-20.5
30
0
39
0
210
0
220
0
230
1
50
360
0
POINT
5
72
100
AcDbEntity
8
1
62
256
6
ByLayer
370
18
48
1
60
0
100
AcDbPoint
10
54
20
-20.5
30
0
39
0
210
0
220
0
230
1
50
360
0
SPLINE
5
129
100
AcDbEntity
8
1
62
256
6
ByLayer
370
18
48
1
60
0
100
AcDbSpline
70
4
71
3
72
8
73
4
40
0
40
0
40
0
40
0
40
1
40
1
40
1
40
1
41
1
10
-0.324980947161663
20
11.9882514452425
30
0
41
1
10
-0.324980947161635
20
11.9563743682046
30
0
41
1
10
-0.322189872669583
20
11.9229095417618
30
0
41
1
10
-0.317851501380005
20
11.8888368758453
30
0
0
SPLINE
5
12A
100
AcDbEntity
8
1
62
256
6
ByLayer
370
18
48
1
60
0
100
AcDbSpline
70
4
71
3
72
8
73
4
40
0
40
0
40
0
40
0
40
1
40
1
40
1
40
1
41
1
10
-0.324980947161663
20
-11.9882514452425
30
0
41
1
10
-0.324980947161691
20
-11.9563743682046
30
0
41
1
10
-0.322189872669611
20
-11.9229095417618
30
0
41
1
10
-0.317851501380005
20
-11.8888368758453
30
0
0
SPLINE
5
12B
100
AcDbEntity
8
1
62
256
6
ByLayer
370
18
48
1
60
0
100
AcDbSpline
70
4
71
3
72
12
73
8
40
0
40
0
40
0
40
0
40
0.25946405806309
40
0.25946405806309
40
0.657802211455021
40
0.657802211455021
40
1
40
1
40
1
40
1
41
1
10
42.3122498999199
20
-22.2471859728489
30
0
41
1
10
42.4298496691982
20
-22.2471859728489
30
0
41
1
10
42.5481576372125
20
-22.2473248437023
30
0
41
1
10
42.8376172073659
20
-22.2479431140129
30
0
41
1
10
43.0079694051264
20
-22.2485810800622
30
0
41
1
10
43.290324502205
20
-22.2495885318053
30
0
41
1
10
43.4102589287361
20
-22.2499802384063
30
0
41
1
10
43.5124288986556
20
-22.2499989658873
30
0
0
SPLINE
5
12C
100
AcDbEntity
8
1
62
256
6
ByLayer
370
18
48
1
60
0
100
AcDbSpline
70
4
71
3
72
12
73
8
40
0
40
0
40
0
40
0
40
0.20621300829416
40
0.20621300829416
40
0.603106016091215
40
0.603106016091215
40
1
40
1
40
1
40
1
41
1
10
40.4846420980767
20
-22.2499995943993
30
0
41
1
10
40.5466204064902
20
-22.249992979738
30
0
41
1
10
40.6150071109064
20
-22.2498475083333
30
0
41
1
10
40.8280934037201
20
-22.2492151051002
30
0
41
1
10
40.9891698161406
20
-22.2485403052601
30
0
41
1
10
41.3271300571796
20
-22.2475261445658
30
0
41
1
10
41.5086748266992
20
-22.2471859728489
30
0
41
1
10
41.6877501000801
20
-22.2471859728489
30
0
0
SPLINE
5
12D
100
AcDbEntity
8
1
62
256
6
ByLayer
370
18
48
1
60
0
100
AcDbSpline
70
4
71
3
72
12
73
8
40
0
40
0
40
0
40
0
40
0.137981523852353
40
0.137981523852353
40
0.753135392700064
40
0.753135392700064
40
1
40
1
40
1
40
1
41
1
10
39.3085169613315
20
-22.2277690952589
30
0
41
1
10
39.3109352184244
20
-22.2299617252057
30
0
41
1
10
39.3162652718635
20
-22.2319906671509
30
0
41
1
10
39.3606354140237
20
-22.2420255901318
30
0
41
1
10
39.4548076999351
20
-22.2468960672911
30
0
41
1
10
39.6571986730169
20
-22.2496543815023
30
0
41
1
10
39.7238944540309
20
-22.2499949535925
30
0
41
1
10
39.7982618833476
20
-22.2499840980337
30
0
0
SPLINE
5
12E
100
AcDbEntity
8
1
62
256
6
ByLayer
370
18
48
1
60
0
100
AcDbSpline
70
4
71
3
72
10
73
6
40
0
40
0
40
0
40
0
40
0.444775634407462
40
0.444775634407462
40
1
40
1
40
1
40
1
41
1
10
39.5609196342599
20
-22.2485209122559
30
0
41
1
10
39.3778545791441
20
-22.2503266350888
30
0
41
1
10
39.226902809404
20
-22.2506174319823
30
0
41
1
10
38.9789403198425
20
-22.2457322694639
30
0
41
1
10
38.9008443776135
20
-22.239041605361
30
0
41
1
10
38.8887282342959
20
-22.2281506609055
30
0
0
SPLINE
5
12F
100
AcDbEntity
8
1
62
256
6
ByLayer
370
18
48
1
60
0
100
AcDbSpline
70
4
71
3
72
22
73
18
40
0
40
0
40
0
40
0
40
0.019038368010508
40
0.019038368010508
40
0.159445405206606
40
0.159445405206606
40
0.299536702383558
40
0.299536702383558
40
0.439382296735319
40
0.439382296735319
40
0.57957008181004
40
0.57957008181004
40
0.719951448687878
40
0.719951448687878
40
0.859960677859733
40
0.859960677859733
40
1
40
1
40
1
40
1
41
1
10
12.7323807579393
20
20.3
30
0
41
1
10
12.7185143713622
20
20.3
30
0
41
1
10
12.7038133065721
20
20.2999044883719
30
0
41
1
10
12.5755084807288
20
20.2983700504652
30
0
41
1
10
12.4168587743752
20
20.292057310577
30
0
41
1
10
12.0347333227718
20
20.2757876982789
30
0
41
1
10
11.8061368226822
20
20.2657485341772
30
0
41
1
10
11.3114782960123
20
20.2489508662393
30
0
41
1
10
11.0386796148341
20
20.2420673231918
30
0
41
1
10
10.4859827432207
20
20.23576714397
30
0
41
1
10
10.1984371918847
20
20.2363236383269
30
0
41
1
10
9.64905500062369
20
20.244506826226
30
0
41
1
10
9.37964826818893
20
20.2522030542229
30
0
41
1
10
8.89702383177959
20
20.2697274538134
30
0
41
1
10
8.67700694581382
20
20.2796722856774
30
0
41
1
10
8.31507301470839
20
20.2947709836763
30
0
41
1
10
8.16818875359985
20
20.3
30
0
41
1
10
8.06761924206072
20
20.3
30
0
0
SPLINE
5
130
100
AcDbEntity
8
1
62
256
6
ByLayer
370
18
48
1
60
0
100
AcDbSpline
70
4
71
3
72
20
73
16
40
0
40
0
40
0
40
0
40
0.125
40
0.125
40
0.25
40
0.25
40
0.375
40
0.375
40
0.5
40
0.5
40
0.625
40
0.625
40
0.75
40
0.75
40
1
40
1
40
1
40
1
41
1
10
9.82016042092619
20
-4.87618051790236
30
0
41
1
10
9.08171191332673
20
-5.01144222503868
30
0
41
1
10
8.40811714228062
20
-5.23552879380048
30
0
41
1
10
7.28452228878433
20
-6.01069679049911
30
0
41
1
10
6.8428359915487
20
-6.56702038080695
30
0
41
1
10
6.25259047425214
20
-8.00858713518008
30
0
41
1
10
6.10769191910677
20
-8.86370632239439
30
0
41
1
10
6.07483059129353
20
-10.6090429062191
30
0
41
1
10
6.19049697495487
20
-11.4964373523826
30
0
41
1
10
6.70058348473501
20
-12.9817680661331
30
0
41
1
10
7.10361854130448
20
-13.5892762917079
30
0
41
1
10
8.17181121341221
20
-14.4510962616106
30
0
41
1
10
8.82314555131637
20
-14.7086236594797
30
0
41
1
10
10.9874644423042
20
-15.1849229219937
30
0
41
1
10
12.6778392659794
20
-15.1494504799046
30
0
41
1
10
14.4
20
-15.1494947647703
30
0
0
SPLINE
5
131
100
AcDbEntity
8
1
62
256
6
ByLayer
370
18
48
1
60
0
100
AcDbSpline
70
4
71
3
72
8
73
4
40
0
40
0
40
0
40
0
40
1
40
1
40
1
40
1
41
1
10
0.394519052838291
20
5.63509935370516
30
0
41
1
10
-0.29214584879557
20
1.90270132202366
30
0
41
1
10
-0.291747527511433
20
-1.90486641532195
30
0
41
1
10
0.394519052838319
20
-5.63509935370516
30
0
0
SPLINE
5
132
100
AcDbEntity
8
1
62
256
6
ByLayer
370
18
48
1
60
0
100
AcDbSpline
70
4
71
3
72
24
73
20
40
0
40
0
40
0
40
0
40
0.401610878702431
40
0.401610878702431
40
0.788391611786294
40
0.788391611786294
40
0.88356297914095
40
0.88356297914095
40
0.914230648136368
40
0.914230648136368
40
0.931557018434221
40
0.931557018434221
40
0.94495172971037
40
0.94495172971037
40
0.960068363599779
40
0.960068363599779
40
0.974948516203432
40
0.974948516203432
40
1
40
1
40
1
40
1
41
1
10
0.394519052838348
20
-5.63509935370516
30
0
41
1
10
0.420126279459737
20
-5.77428858852863
30
0
41
1
10
0.44161365268883
20
-5.91390379303888
30
0
41
1
10
0.472635526638328
20
-6.18570768161408
30
0
41
1
10
0.485646700794575
20
-6.32092127490407
30
0
41
1
10
0.475426693338761
20
-6.47827709215906
30
0
41
1
10
0.472135837180929
20
-6.5096791272575
30
0
41
1
10
0.460461741921705
20
-6.54518969171301
30
0
41
1
10
0.456901603491133
20
-6.55349972481349
30
0
41
1
10
0.449367219420566
20
-6.56378163323333
30
0
41
1
10
0.44616354164242
20
-6.56697426039008
30
0
41
1
10
0.439651362043577
20
-6.57058216196066
30
0
41
1
10
0.436457418640145
20
-6.57146670306835
30
0
41
1
10
0.42942448104867
20
-6.57144872098837
30
0
41
1
10
0.425453130793329
20
-6.57029988738523
30
0
41
1
10
0.417892164740181
20
-6.56638243117391
30
0
41
1
10
0.41419682284905
20
-6.56362652995725
30
0
41
1
10
0.404897278369276
20
-6.55519497124749
30
0
41
1
10
0.399506307901788
20
-6.54872343436315
30
0
41
1
10
0.394519052853411
20
-6.54187806555964
30
0
0
SPLINE
5
133
100
AcDbEntity
8
1
62
256
6
ByLayer
370
18
48
1
60
0
100
AcDbSpline
70
4
71
3
72
26
73
22
40
0
40
0
40
0
40
0
40
0.0268390717987144
40
0.0268390717987144
40
0.0435643916323399
40
0.0435643916323399
40
0.0569040907462379
40
0.0569040907462379
40
0.0701967036007156
40
0.0701967036007156
40
0.0862190557947375
40
0.0862190557947375
40
0.114325283027641
40
0.114325283027641
40
0.195387994302384
40
0.195387994302384
40
0.356753591763094
40
0.356753591763094
40
0.724774941759095
40
0.724774941759095
40
1
40
1
40
1
40
1
41
1
10
0.394519052838291
20
6.54187806553904
30
0
41
1
10
0.399849900181039
20
6.54919503965658
30
0
41
1
10
0.405651931464803
20
6.55610434693239
30
0
41
1
10
0.415849799432152
20
6.56494525107919
30
0
41
1
10
0.420043702596018
20
6.567805082836
30
0
41
1
10
0.427626813186123
20
6.57093615795915
30
0
41
1
10
0.431081319642743
20
6.57161578155294
30
0
41
1
10
0.437543463185875
20
6.57123577624947
30
0
41
1
10
0.440628082066894
20
6.57018311286541
30
0
41
1
10
0.446676568877166
20
6.56645926830771
30
0
41
1
10
0.449582893147834
20
6.5634870564902
30
0
41
1
10
0.456478322884664
20
6.55407780574063
30
0
41
1
10
0.459821159413593
20
6.54662375530265
30
0
41
1
10
0.470353004856577
20
6.51632461626107
30
0
41
1
10
0.473849128623982
20
6.49012613969913
30
0
41
1
10
0.480790536034334
20
6.41165645130394
30
0
41
1
10
0.480134077700484
20
6.35680390662995
30
0
41
1
10
0.472809692991689
20
6.17683343665649
30
0
41
1
10
0.458513504531481
20
6.04910688744886
30
0
41
1
10
0.427617902573814
20
5.82628570940065
30
0
41
1
10
0.412092277390372
20
5.73061940806102
30
0
41
1
10
0.394519052838319
20
5.63509935370516
30
0
0
SPLINE
5
134
100
AcDbEntity
8
1
62
256
6
ByLayer
370
18
48
1
60
0
100
AcDbSpline
70
4
71
3
72
8
73
4
40
0
40
0
40
0
40
0
40
1
40
1
40
1
40
1
41
1
10
-0.249980947161703
20
5.61238790983072
30
0
41
1
10
-0.0423423290800997
20
5.92869063653163
30
0
41
1
10
0.173240128673825
20
6.23815671379637
30
0
41
1
10
0.394519052838348
20
6.54187806553898
30
0
0
SPLINE
5
135
100
AcDbEntity
8
1
62
256
6
ByLayer
370
18
48
1
60
0
100
AcDbSpline
70
4
71
3
72
8
73
4
40
0
40
0
40
0
40
0
40
1
40
1
40
1
40
1
41
1
10
0.394519052853411
20
-6.54187806555967
30
0
41
1
10
0.173240128683687
20
-6.23815671381055
30
0
41
1
10
-0.0423423290752396
20
-5.92869063653905
30
0
41
1
10
-0.249980947161475
20
-5.61238790983106
30
0
0
SPLINE
5
136
100
AcDbEntity
8
1
62
256
6
ByLayer
370
18
48
1
60
0
100
AcDbSpline
70
4
71
3
72
22
73
18
40
0
40
0
40
0
40
0
40
0.417481098497809
40
0.417481098497809
40
0.657277996391665
40
0.657277996391665
40
0.737258574430024
40
0.737258574430024
40
0.784530406375708
40
0.784530406375708
40
0.82730649907605
40
0.82730649907605
40
0.874614794311453
40
0.874614794311453
40
0.921131796985198
40
0.921131796985198
40
1
40
1
40
1
40
1
41
1
10
-0.324980947161691
20
5.77605947760023
30
0
41
1
10
-0.324980947161691
20
5.7384069925331
30
0
41
1
10
-0.323791643110951
20
5.70085095486729
30
0
41
1
10
-0.316636779769283
20
5.64438526068878
30
0
41
1
10
-0.313083254394599
20
5.6237378746203
30
0
41
1
10
-0.303481449873203
20
5.60065604671902
30
0
41
1
10
-0.300565438673317
20
5.59517929313077
30
0
41
1
10
-0.294646726753285
20
5.58849155053773
30
0
41
1
10
-0.292103201615078
20
5.5864325010628
30
0
41
1
10
-0.286731240365867
20
5.58414644153728
30
0
41
1
10
-0.283877115295297
20
5.58376815391787
30
0
41
1
10
-0.277834605532462
20
5.58468883424388
30
0
41
1
10
-0.274553504985761
20
5.58616244683444
30
0
41
1
10
-0.268438452013442
20
5.59026223940609
30
0
41
1
10
-0.26551297758013
20
5.59289366789912
30
0
41
1
10
-0.258139974864093
20
5.60068246041999
30
0
41
1
10
-0.253907122300603
20
5.6064070382885
30
0
41
1
10
-0.249980947161674
20
5.61238790983066
30
0
0
SPLINE
5
137
100
AcDbEntity
8
1
62
256
6
ByLayer
370
18
48
1
60
0
100
AcDbSpline
70
4
71
3
72
24
73
20
40
0
40
0
40
0
40
0
40
0.0036091861681784
40
0.0036091861681784
40
0.095116515459893
40
0.095116515459893
40
0.146162809016605
40
0.146162809016605
40
0.185996599521418
40
0.185996599521418
40
0.232249701097005
40
0.232249701097005
40
0.277697095553582
40
0.277697095553582
40
0.377362853243108
40
0.377362853243108
40
0.576016053008345
40
0.576016053008345
40
1
40
1
40
1
40
1
41
1
10
-0.249980947161447
20
-5.61238790983103
30
0
41
1
10
-0.250161866061859
20
-5.61211231012786
30
0
41
1
10
-0.250343382971266
20
-5.61183742178795
30
0
41
1
10
-0.255108305126157
20
-5.60466493900842
30
0
41
1
10
-0.260131694329715
20
-5.59807588150429
30
0
41
1
10
-0.268803269241886
20
-5.58997588063102
30
0
41
1
10
-0.272152310668275
20
-5.58748100946826
30
0
41
1
10
-0.278234692635237
20
-5.58466438248411
30
0
41
1
10
-0.28100229353177
20
-5.58398439028542
30
0
41
1
10
-0.286651277435681
20
-5.58406621814496
30
0
41
1
10
-0.289565619543339
20
-5.58507950132048
30
0
41
1
10
-0.294610517188971
20
-5.58842518512361
30
0
41
1
10
-0.29683704409581
20
-5.59074538499482
30
0
41
1
10
-0.303038768809785
20
-5.5991279038974
30
0
41
1
10
-0.306174520164774
20
-5.60643808254883
30
0
41
1
10
-0.313804798756706
20
-5.62921997135012
30
0
41
1
10
-0.316792567857306
20
-5.6461401790269
30
0
41
1
10
-0.323767147163522
20
-5.69961871744925
30
0
41
1
10
-0.324980947161691
20
-5.73779746968944
30
0
41
1
10
-0.324980947161691
20
-5.77605947760023
30
0
0
SPLINE
5
138
100
AcDbEntity
8
1
62
256
6
ByLayer
370
18
48
1
60
0
100
AcDbSpline
70
4
71
3
72
10
73
6
40
0
40
0
40
0
40
0
40
0.54176413035982
40
0.54176413035982
40
1
40
1
40
1
40
1
41
1
10
-0.324980947161691
20
-6.37324688789292
30
0
41
1
10
-0.324980947162146
20
-6.47244978824423
30
0
41
1
10
-0.314383725675612
20
-6.57494561621041
30
0
41
1
10
-0.28677376098571
20
-6.76313934416442
30
0
41
1
10
-0.270346092702994
20
-6.84981863770352
30
0
41
1
10
-0.249980947161873
20
-6.93594876110095
30
0
0
SPLINE
5
139
100
AcDbEntity
8
1
62
256
6
ByLayer
370
18
48
1
60
0
100
AcDbSpline
70
4
71
3
72
10
73
6
40
0
40
0
40
0
40
0
40
0.546288078425718
40
0.546288078425718
40
1
40
1
40
1
40
1
41
1
10
-0.249980947162044
20
6.93594876110095
30
0
41
1
10
-0.274238508775852
20
6.83335647808005
30
0
41
1
10
-0.293012640935643
20
6.72994439185723
30
0
41
1
10
-0.317301823059751
20
6.54193845517369
30
0
41
1
10
-0.324980947162089
20
6.45638947852447
30
0
41
1
10
-0.324980947161691
20
6.37324688789292
30
0
0
SPLINE
5
13A
100
AcDbEntity
8
1
62
256
6
ByLayer
370
18
48
1
60
0
100
AcDbSpline
70
4
71
3
72
8
73
4
40
0
40
0
40
0
40
0
40
1
40
1
40
1
40
1
41
1
10
-0.249980947161703
20
-6.93594876110097
30
0
41
1
10
-0.0626871252384831
20
-7.72806880567606
30
0
41
1
10
0.153545136850994
20
-8.51165171787554
30
0
41
1
10
0.394519052838319
20
-9.28418104530812
30
0
0
SPLINE
5
13B
100
AcDbEntity
8
1
62
256
6
ByLayer
370
18
48
1
60
0
100
AcDbSpline
70
4
71
3
72
8
73
4
40
0
40
0
40
0
40
0
40
1
40
1
40
1
40
1
41
1
10
0.394519052838319
20
9.28418104530812
30
0
41
1
10
0.153545136850994
20
8.51165171787554
30
0
41
1
10
-0.0626871252384831
20
7.72806880567606
30
0
41
1
10
-0.249980947161703
20
6.93594876110097
30
0
0
SPLINE
5
13C
100
AcDbEntity
8
1
62
256
6
ByLayer
370
18
48
1
60
0
100
AcDbSpline
70
4
71
3
72
24
73
20
40
0
40
0
40
0
40
0
40
0.0811869449274341
40
0.0811869449274341
40
0.59891825021916
40
0.59891825021916
40
0.777945092563733
40
0.777945092563733
40
0.843499031830132
40
0.843499031830132
40
0.881967554742453
40
0.881967554742453
40
0.910666281812339
40
0.910666281812339
40
0.93935320050481
40
0.93935320050481
40
0.97931514110992
40
0.97931514110992
40
1
40
1
40
1
40
1
41
1
10
0.394519052838319
20
-9.28418104530812
30
0
41
1
10
0.40019189226598
20
-9.30236739053856
30
0
41
1
10
0.405632347866259
20
-9.32057564412335
30
0
41
1
10
0.443766878178764
20
-9.45386467300781
30
0
41
1
10
0.469937489977724
20
-9.57144039272157
30
0
41
1
10
0.480409679049018
20
-9.71968745344626
30
0
41
1
10
0.481028383485437
20
-9.75803216908739
30
0
41
1
10
0.472189805788503
20
-9.80315016099803
30
0
41
1
10
0.468717974947282
20
-9.81472982228311
30
0
41
1
10
0.460084318761034
20
-9.82935528217581
30
0
41
1
10
0.456104953267953
20
-9.83401130677208
30
0
41
1
10
0.44766659148678
20
-9.8392799776588
30
0
41
1
10
0.443493024226655
20
-9.84063096940727
30
0
41
1
10
0.434535828185574
20
-9.84098333890589
30
0
41
1
10
0.429650020447383
20
-9.83998598513708
30
0
41
1
10
0.418016583813028
20
-9.83530976380467
30
0
41
1
10
0.41109147296217
20
-9.83072034130186
30
0
41
1
10
0.401139924328277
20
-9.82242019899931
30
0
41
1
10
0.397789280829073
20
-9.81931253702786
30
0
41
1
10
0.394519052837552
20
-9.81603258289664
30
0
0
SPLINE
5
13D
100
AcDbEntity
8
1
62
256
6
ByLayer
370
18
48
1
60
0
100
AcDbSpline
70
4
71
3
72
24
73
20
40
0
40
0
40
0
40
0
40
0.0429948059521603
40
0.0429948059521603
40
0.0712551801673037
40
0.0712551801673037
40
0.102270780797799
40
0.102270780797799
40
0.133011125518527
40
0.133011125518527
40
0.181906426138348
40
0.181906426138348
40
0.230184910565461
40
0.230184910565461
40
0.367650273261925
40
0.367650273261925
40
0.558914635906181
40
0.558914635906181
40
1
40
1
40
1
40
1
41
1
10
0.394519052838319
20
9.81603258289471
30
0
41
1
10
0.401224377749003
20
9.8227578504291
30
0
41
1
10
0.408342177572194
20
9.82883165461971
30
0
41
1
10
0.420327216262308
20
9.83624231582124
30
0
41
1
10
0.425216115211185
20
9.83851127653023
30
0
41
1
10
0.43505374664565
20
9.84108063858938
30
0
41
1
10
0.44008623330609
20
9.84116944658126
30
0
41
1
10
0.448932681092146
20
9.83879960142727
30
0
41
1
10
0.452876879253893
20
9.83636377353508
30
0
41
1
10
0.46149986833197
20
9.82800901879023
30
0
41
1
10
0.465476192632252
20
9.82082659342112
30
0
41
1
10
0.471512273660352
20
9.80507510835685
30
0
41
1
10
0.473663831624634
20
9.79635945319598
30
0
41
1
10
0.479771064349393
20
9.76164276994709
30
0
41
1
10
0.480174337999642
20
9.73290379120709
30
0
41
1
10
0.477297611577683
20
9.66336231315202
30
0
41
1
10
0.472231488335666
20
9.62130810046412
30
0
41
1
10
0.449882675710285
20
9.48211334891894
30
0
41
1
10
0.425188873199517
20
9.38250428331912
30
0
41
1
10
0.394519052838376
20
9.28418104530812
30
0
0
SPLINE
5
13E
100
AcDbEntity
8
1
62
256
6
ByLayer
370
18
48
1
60
0
100
AcDbSpline
70
4
71
3
72
8
73
4
40
0
40
0
40
0
40
0
40
1
40
1
40
1
40
1
41
1
10
-0.249980947148117
20
9.16192765466209
30
0
41
1
10
-0.0363243711368284
20
9.38149895433838
30
0
41
1
10
0.178583254368562
20
9.59945455956128
30
0
41
1
10
0.394519052838319
20
9.81603258289468
30
0
0
SPLINE
5
13F
100
AcDbEntity
8
1
62
256
6
ByLayer
370
18
48
1
60
0
100
AcDbSpline
70
4
71
3
72
8
73
4
40
0
40
0
40
0
40
0
40
1
40
1
40
1
40
1
41
1
10
0.394519052838319
20
-9.81603258289468
30
0
41
1
10
0.178583254364014
20
-9.5994545595567
30
0
41
1
10
-0.0363243711459234
20
-9.38149895432917
30
0
41
1
10
-0.249980947161674
20
-9.16192765464814
30
0
0
SPLINE
5
140
100
AcDbEntity
8
1
62
256
6
ByLayer
370
18
48
1
60
0
100
AcDbSpline
70
4
71
3
72
20
73
16
40
0
40
0
40
0
40
0
40
0.228574850254578
40
0.228574850254578
40
0.480376092909206
40
0.480376092909206
40
0.613590521459099
40
0.613590521459099
40
0.695891889298813
40
0.695891889298813
40
0.786064138208981
40
0.786064138208981
40
0.875364886412077
40
0.875364886412077
40
1
40
1
40
1
40
1
41
1
10
-0.324980947184315
20
9.24203289084431
30
0
41
1
10
-0.32498094718531
20
9.22809407507145
30
0
41
1
10
-0.324399434787921
20
9.214382862202
30
0
41
1
10
-0.321209534757372
20
9.18689946127444
30
0
41
1
10
-0.318438680009194
20
9.17293690699947
30
0
41
1
10
-0.3106449222295
20
9.15525486005407
30
0
41
1
10
-0.307198765132625
20
9.14972756786011
30
0
41
1
10
-0.300039188227629
20
9.14336975121401
30
0
41
1
10
-0.296865034394557
20
9.1415356727631
30
0
41
1
10
-0.28954787928609
20
9.13959758727182
30
0
41
1
10
-0.28523568981646
20
9.13967639886783
30
0
41
1
10
-0.276492861412862
20
9.14197062882337
30
0
41
1
10
-0.271961898158537
20
9.14416541443688
30
0
41
1
10
-0.261516395555873
20
9.1509471929221
30
0
41
1
10
-0.255577825480003
20
9.15617583610779
30
0
41
1
10
-0.249980947138738
20
9.16192765463444
30
0
0
SPLINE
5
141
100
AcDbEntity
8
1
62
256
6
ByLayer
370
18
48
1
60
0
100
AcDbSpline
70
4
71
3
72
20
73
16
40
0
40
0
40
0
40
0
40
0.122770631861746
40
0.122770631861746
40
0.205021615430145
40
0.205021615430145
40
0.293441370991634
40
0.293441370991634
40
0.381206315825549
40
0.381206315825549
40
0.559178304025902
40
0.559178304025902
40
0.733704212276963
40
0.733704212276963
40
1
40
1
40
1
40
1
41
1
10
-0.249980947161589
20
-9.16192765464785
30
0
41
1
10
-0.255533332946328
20
-9.15622156038282
30
0
41
1
10
-0.261420768871858
20
-9.15103150324327
30
0
41
1
10
-0.271480286515725
20
-9.144463580197
30
0
41
1
10
-0.275648798264427
20
-9.14237253428334
30
0
41
1
10
-0.284022232046112
20
-9.13984876503184
30
0
41
1
10
-0.288307504983095
20
-9.13954818908798
30
0
41
1
10
-0.295950283178399
20
-9.14109295365401
30
0
41
1
10
-0.299412364375428
20
-9.14292077708893
30
0
41
1
10
-0.308305334340844
20
-9.15051548325278
30
0
41
1
10
-0.3125225263868
20
-9.15842040039084
30
0
41
1
10
-0.318620244774081
20
-9.1755866741139
30
0
41
1
10
-0.320642407864199
20
-9.18509450746686
30
0
41
1
10
-0.324207952504963
20
-9.20990564353878
30
0
41
1
10
-0.324980947161663
20
-9.22582961878865
30
0
41
1
10
-0.324980947161663
20
-9.24203289085611
30
0
0
SPLINE
5
142
100
AcDbEntity
8
1
62
256
6
ByLayer
370
18
48
1
60
0
100
AcDbSpline
70
4
71
3
72
10
73
6
40
0
40
0
40
0
40
0
40
0.289655851305036
40
0.289655851305036
40
1
40
1
40
1
40
1
41
1
10
-0.324980947161663
20
-9.59510119943195
30
0
41
1
10
-0.32498094716118
20
-9.6281517249445
30
0
41
1
10
-0.32148053892422
20
-9.66295508608408
30
0
41
1
10
-0.303478624157634
20
-9.78322412421903
30
0
41
1
10
-0.280258805463575
20
-9.87162346008668
30
0
41
1
10
-0.249980947161987
20
-9.95818080364208
30
0
0
SPLINE
5
143
100
AcDbEntity
8
1
62
256
6
ByLayer
370
18
48
1
60
0
100
AcDbSpline
70
4
71
3
72
10
73
6
40
0
40
0
40
0
40
0
40
0.586927622239529
40
0.586927622239529
40
1
40
1
40
1
40
1
41
1
10
-0.249980947161788
20
9.95818080364211
30
0
41
1
10
-0.275059623636508
20
9.88648670976283
30
0
41
1
10
-0.295048746910595
20
9.81372420210246
30
0
41
1
10
-0.31820456846529
20
9.69231251695285
30
0
41
1
10
-0.324980947160981
20
9.64203355967936
30
0
41
1
10
-0.324980947161663
20
9.59510119943192
30
0
0
SPLINE
5
144
100
AcDbEntity
8
1
62
256
6
ByLayer
370
18
48
1
60
0
100
AcDbSpline
70
4
71
3
72
8
73
4
40
0
40
0
40
0
40
0
40
1
40
1
40
1
40
1
41
1
10
-0.249980947161674
20
-9.95818080364211
30
0
41
1
10
-0.0483934946950342
20
-10.5344723697693
30
0
41
1
10
0.167075266492162
20
-11.1044931479051
30
0
41
1
10
0.394519052838319
20
-11.6678057336411
30
0
0
SPLINE
5
145
100
AcDbEntity
8
1
62
256
6
ByLayer
370
18
48
1
60
0
100
AcDbSpline
70
4
71
3
72
8
73
4
40
0
40
0
40
0
40
0
40
1
40
1
40
1
40
1
41
1
10
0.394519052838319
20
11.6678057336411
30
0
41
1
10
0.167075266492191
20
11.1044931479051
30
0
41
1
10
-0.0483934946950342
20
10.5344723697693
30
0
41
1
10
-0.249980947161674
20
9.95818080364211
30
0
0
SPLINE
5
146
100
AcDbEntity
8
1
62
256
6
ByLayer
370
18
48
1
60
0
100
AcDbSpline
70
4
71
3
72
22
73
18
40
0
40
0
40
0
40
0
40
0.443121491067171
40
0.443121491067171
40
0.661740759476763
40
0.661740759476763
40
0.766098094792102
40
0.766098094792102
40
0.826904587841819
40
0.826904587841819
40
0.868607189643466
40
0.868607189643466
40
0.91043532091973
40
0.91043532091973
40
0.9662808221544
40
0.9662808221544
40
1
40
1
40
1
40
1
41
1
10
0.394519052838348
20
-11.6678057336411
30
0
41
1
10
0.426399694425072
20
-11.7467648775053
30
0
41
1
10
0.452287582667793
20
-11.8274416641465
30
0
41
1
10
0.475156462670156
20
-11.942130930484
30
0
41
1
10
0.480331468618118
20
-11.980012341644
30
0
41
1
10
0.478986900720884
20
-12.0300954666452
30
0
41
1
10
0.477095090395949
20
-12.0456723621449
30
0
41
1
10
0.469661657482618
20
-12.0658628688763
30
0
41
1
10
0.465860773716429
20
-12.07244086151
30
0
41
1
10
0.457183199664257
20
-12.0801365022145
30
0
41
1
10
0.452926515549393
20
-12.0823456616943
30
0
41
1
10
0.443304657509117
20
-12.0841484785969
30
0
41
1
10
0.437820583441891
20
-12.0837380616332
30
0
41
1
10
0.424593252610578
20
-12.0799308589228
30
0
41
1
10
0.416488812941964
20
-12.0755695029156
30
0
41
1
10
0.403897061978853
20
-12.0666751985533
30
0
41
1
10
0.399159486907337
20
-12.0628458260448
30
0
41
1
10
0.394519052838063
20
-12.0587239255465
30
0
0
SPLINE
5
147
100
AcDbEntity
8
1
62
256
6
ByLayer
370
18
48
1
60
0
100
AcDbSpline
70
4
71
3
72
22
73
18
40
0
40
0
40
0
40
0
40
0.0503457642195914
40
0.0503457642195914
40
0.0917914216157044
40
0.0917914216157044
40
0.137650391024242
40
0.137650391024242
40
0.183120421342895
40
0.183120421342895
40
0.248361784057941
40
0.248361784057941
40
0.331628925259179
40
0.331628925259179
40
0.498795398253557
40
0.498795398253557
40
1
40
1
40
1
40
1
41
1
10
0.394519052837495
20
12.0587239255499
30
0
41
1
10
0.401407235506724
20
12.0648424056649
30
0
41
1
10
0.408544697677399
20
12.070343651735
30
0
41
1
10
0.421514755084559
20
12.0781439299216
30
0
41
1
10
0.427458052513941
20
12.0808667522932
30
0
41
1
10
0.439248001676845
20
12.0840053804978
30
0
41
1
10
0.445168200056514
20
12.0841510432408
30
0
41
1
10
0.455278961679198
20
12.0813734192935
30
0
41
1
10
0.459626867429449
20
12.0784732242377
30
0
41
1
10
0.468187595030344
20
12.0690435467857
30
0
41
1
10
0.471734054092423
20
12.0614113266723
30
0
41
1
10
0.477335309886371
20
12.0421441243299
30
0
41
1
10
0.478823564742811
20
12.0297560866315
30
0
41
1
10
0.48032821113037
20
11.9910078737772
30
0
41
1
10
0.477511563270326
20
11.9625698658215
30
0
41
1
10
0.459335522461714
20
11.8486538266279
30
0
41
1
10
0.430483129886539
20
11.7568783680756
30
0
41
1
10
0.394519052838405
20
11.6678057336411
30
0
0
SPLINE
5
148
100
AcDbEntity
8
1
62
256
6
ByLayer
370
18
48
1
60
0
100
AcDbSpline
70
4
71
3
72
8
73
4
40
0
40
0
40
0
40
0
40
1
40
1
40
1
40
1
41
1
10
-0.249980947156928
20
11.484029721648
30
0
41
1
10
-0.0354719232411469
20
11.6760784149013
30
0
41
1
10
0.179376718804036
20
11.8676221276023
30
0
41
1
10
0.394519052838319
20
12.0587239255453
30
0
0
SPLINE
5
149
100
AcDbEntity
8
1
62
256
6
ByLayer
370
18
48
1
60
0
100
AcDbSpline
70
4
71
3
72
8
73
4
40
0
40
0
40
0
40
0
40
1
40
1
40
1
40
1
41
1
10
0.394519052838319
20
-12.0587239255453
30
0
41
1
10
0.179376718802445
20
-11.8676221276009
30
0
41
1
10
-0.0354719232443017
20
-11.6760784148985
30
0
41
1
10
-0.249980947161674
20
-11.4840297216438
30
0
0
SPLINE
5
14A
100
AcDbEntity
8
1
62
256
6
ByLayer
370
18
48
1
60
0
100
AcDbSpline
70
4
71
3
72
20
73
16
40
0
40
0
40
0
40
0
40
0.0552860600054884
40
0.0552860600054884
40
0.348773465083526
40
0.348773465083526
40
0.518900377773517
40
0.518900377773517
40
0.635076099586798
40
0.635076099586798
40
0.751606590512631
40
0.751606590512631
40
0.907188354431965
40
0.907188354431965
40
1
40
1
40
1
40
1
41
1
10
-0.324980947161748
20
11.5311526233309
30
0
41
1
10
-0.324980947161748
20
11.5283967548234
30
0
41
1
10
-0.324936716878227
20
11.5256666156451
30
0
41
1
10
-0.324352679274114
20
11.5087533439068
30
0
41
1
10
-0.322555386335125
20
11.4951060717701
30
0
41
1
10
-0.315792857243622
20
11.4774722089602
30
0
41
1
10
-0.312376862099882
20
11.4717480606215
30
0
41
1
10
-0.304653008195629
20
11.4650920419126
30
0
41
1
10
-0.300889389363732
20
11.4631954574238
30
0
41
1
10
-0.29241469879662
20
11.4616884824179
30
0
41
1
10
-0.287599381147743
20
11.4620830475688
30
0
41
1
10
-0.276018382009085
20
11.4654915057364
30
0
41
1
10
-0.268948085438382
20
11.4693477502519
30
0
41
1
10
-0.258035856448686
20
11.4771421000847
30
0
41
1
10
-0.25396600949486
20
11.4804619182948
30
0
41
1
10
-0.2499809471567
20
11.4840297216472
30
0
0
SPLINE
5
14B
100
AcDbEntity
8
1
62
256
6
ByLayer
370
18
48
1
60
0
100
AcDbSpline
70
4
71
3
72
20
73
16
40
0
40
0
40
0
40
0
40
0.0063867444033366
40
0.0063867444033366
40
0.173667346529252
40
0.173667346529252
40
0.289935115032404
40
0.289935115032404
40
0.406491380114553
40
0.406491380114553
40
0.561074474282097
40
0.561074474282097
40
0.713392189266379
40
0.713392189266379
40
1
40
1
40
1
40
1
41
1
10
-0.249980947161674
20
-11.4840297216438
30
0
41
1
10
-0.250256991586895
20
-11.4837825806603
30
0
41
1
10
-0.250533373803762
20
-11.4835366918245
30
0
41
1
10
-0.257981340052709
20
-11.4769530343168
30
0
41
1
10
-0.265506204224351
20
-11.471377328742
30
0
41
1
10
-0.2780183803726
20
-11.4648890390718
30
0
41
1
10
-0.283178299023206
20
-11.463052694229
30
0
41
1
10
-0.29273241860659
20
-11.46168920021
30
0
41
1
10
-0.297228048412649
20
-11.4621654537654
30
0
41
1
10
-0.306192211150687
20
-11.4657232178889
30
0
41
1
10
-0.31035458295878
20
-11.4696128561097
30
0
41
1
10
-0.316698776429661
20
-11.4793120003969
30
0
41
1
10
-0.319015300149232
20
-11.4851777100478
30
0
41
1
10
-0.3238633943661
20
-11.5033410300966
30
0
41
1
10
-0.324980947161691
20
-11.5170039624523
30
0
41
1
10
-0.324980947161691
20
-11.531152623331
30
0
0
SPLINE
5
14C
100
AcDbEntity
8
1
62
256
6
ByLayer
370
18
48
1
60
0
100
AcDbSpline
70
4
71
3
72
10
73
6
40
0
40
0
40
0
40
0
40
0.285679097820292
40
0.285679097820292
40
1
40
1
40
1
40
1
41
1
10
-0.324980947161691
20
-11.7904053433558
30
0
41
1
10
-0.324980947160384
20
-11.8145602682299
30
0
41
1
10
-0.321515027831708
20
-11.8408730355727
30
0
41
1
10
-0.303449618178149
20
-11.9334098764061
30
0
41
1
10
-0.279771282393796
20
-12.0034758815138
30
0
41
1
10
-0.249980947161816
20
-12.0715924641049
30
0
0
SPLINE
5
14D
100
AcDbEntity
8
1
62
256
6
ByLayer
370
18
48
1
60
0
100
AcDbSpline
70
4
71
3
72
12
73
8
40
0
40
0
40
0
40
0
40
0.088942727594184
40
0.088942727594184
40
0.735806907534196
40
0.735806907534196
40
1
40
1
40
1
40
1
41
1
10
-0.249980947161674
20
12.0715924641049
30
0
41
1
10
-0.253732321678058
20
12.0630148227294
30
0
41
1
10
-0.257370294636416
20
12.0544237103285
30
0
41
1
10
-0.286254819875012
20
11.9839538680773
30
0
41
1
10
-0.306512406767837
20
11.9207983977665
30
0
41
1
10
-0.322013991291442
20
11.8368161077743
30
0
41
1
10
-0.324980947160498
20
11.8126853032388
30
0
41
1
10
-0.324980947161691
20
11.7904053433559
30
0
0
SPLINE
5
14E
100
AcDbEntity
8
1
62
256
6
ByLayer
370
18
48
1
60
0
100
AcDbSpline
70
4
71
3
72
8
73
4
40
0
40
0
40
0
40
0
40
1
40
1
40
1
40
1
41
1
10
-0.249980947161674
20
-12.0715924641049
30
0
41
1
10
-0.0432521656405527
20
-12.5442846312381
30
0
41
1
10
0.171949580535255
20
-13.0121368755999
30
0
41
1
10
0.394519052838319
20
-13.4751387226224
30
0
0
SPLINE
5
14F
100
AcDbEntity
8
1
62
256
6
ByLayer
370
18
48
1
60
0
100
AcDbSpline
70
4
71
3
72
8
73
4
40
0
40
0
40
0
40
0
40
1
40
1
40
1
40
1
41
1
10
0.394519052838348
20
13.4751387226224
30
0
41
1
10
0.171949580535255
20
13.0121368755999
30
0
41
1
10
-0.0432521656405527
20
12.5442846312381
30
0
41
1
10
-0.249980947161674
20
12.0715924641049
30
0
0
SPLINE
5
150
100
AcDbEntity
8
1
62
256
6
ByLayer
370
18
48
1
60
0
100
AcDbSpline
70
4
71
3
72
22
73
18
40
0
40
0
40
0
40
0
40
0.251270548957428
40
0.251270548957428
40
0.534593015835276
40
0.534593015835276
40
0.679926851597499
40
0.679926851597499
40
0.764459918400844
40
0.764459918400844
40
0.817650799464652
40
0.817650799464652
40
0.88130517599167
40
0.88130517599167
40
0.95287370405781
40
0.95287370405781
40
1
40
1
40
1
40
1
41
1
10
0.394519052838319
20
-13.4751387226224
30
0
41
1
10
0.41319148554939
20
-13.5139821935808
30
0
41
1
10
0.429712010281719
20
-13.5531632086497
30
0
41
1
10
0.458832898641703
20
-13.6348383150857
30
0
41
1
10
0.471189325371597
20
-13.6781158445143
30
0
41
1
10
0.479580583515599
20
-13.7378308605805
30
0
41
1
10
0.48064238353237
20
-13.757495486281
30
0
41
1
10
0.476619192818191
20
-13.7836945326192
30
0
41
1
10
0.473826613574488
20
-13.7924347121206
30
0
41
1
10
0.466205691132899
20
-13.8029125601754
30
0
41
1
10
0.462433556843877
20
-13.8060851787374
30
0
41
1
10
0.452482540149731
20
-13.8100792275569
30
0
41
1
10
0.445779837153935
20
-13.8103295555129
30
0
41
1
10
0.430373128901039
20
-13.8066613599842
30
0
41
1
10
0.421281087343544
20
-13.8022248830213
30
0
41
1
10
0.406392393543172
20
-13.7924921524683
30
0
41
1
10
0.400407440124866
20
-13.7879482596185
30
0
41
1
10
0.394519052838263
20
-13.7830022040413
30
0
0
SPLINE
5
151
100
AcDbEntity
8
1
62
256
6
ByLayer
370
18
48
1
60
0
100
AcDbSpline
70
4
71
3
72
22
73
18
40
0
40
0
40
0
40
0
40
0.0466908386639445
40
0.0466908386639445
40
0.100238713725582
40
0.100238713725582
40
0.155521856731983
40
0.155521856731983
40
0.210612461913126
40
0.210612461913126
40
0.297901923826577
40
0.297901923826577
40
0.383763695369449
40
0.383763695369449
40
0.591315675635359
40
0.591315675635359
40
1
40
1
40
1
40
1
41
1
10
0.394519052838263
20
13.7830022040413
30
0
41
1
10
0.400377184476099
20
13.7879228458484
30
0
41
1
10
0.406330653686638
20
13.7924452721931
30
0
41
1
10
0.419014903663992
20
13.8007508484983
30
0
41
1
10
0.425834787815063
20
13.8043777070099
30
0
41
1
10
0.438887830944566
20
13.8091114815384
30
0
41
1
10
0.445237655013415
20
13.8101551818682
30
0
41
1
10
0.456191273611552
20
13.809094012914
30
0
41
1
10
0.460937156483766
20
13.8069973096748
30
0
41
1
10
0.470674894339083
20
13.7985758785161
30
0
41
1
10
0.474504984859635
20
13.7904363713798
30
0
41
1
10
0.478936632261423
20
13.7718681323131
30
0
41
1
10
0.479685312974482
20
13.7612545395208
30
0
41
1
10
0.479020166223251
20
13.7233281344957
30
0
41
1
10
0.473334413977796
20
13.6928941937859
30
0
41
1
10
0.449719995926529
20
13.6019684752477
30
0
41
1
10
0.424646137110159
20
13.537810820098
30
0
41
1
10
0.394519052838348
20
13.4751387226224
30
0
0
SPLINE
5
152
100
AcDbEntity
8
1
62
256
6
ByLayer
370
18
48
1
60
0
100
AcDbSpline
70
4
71
3
72
22
73
18
40
0
40
0
40
0
40
0
40
0.127559405336712
40
0.127559405336712
40
0.327986230851634
40
0.327986230851634
40
0.467707413044739
40
0.467707413044739
40
0.562713981674372
40
0.562713981674372
40
0.660861201573962
40
0.660861201573962
40
0.758749604467219
40
0.758749604467219
40
0.874084022311248
40
0.874084022311248
40
1
40
1
40
1
40
1
41
1
10
0.394519052838319
20
-18.9665337194095
30
0
41
1
10
0.405069342058368
20
-18.9792362127656
30
0
41
1
10
0.415161619635597
20
-18.991810209205
30
0
41
1
10
0.439150605509923
20
-19.0229735339849
30
0
41
1
10
0.452312179135305
20
-19.0413831406079
30
0
41
1
10
0.469080689864342
20
-19.0683569742697
30
0
41
1
10
0.474491450762656
20
-19.0784411230919
30
0
41
1
10
0.479243670162276
20
-19.0914514336448
30
0
41
1
10
0.47998134759851
20
-19.0957125871646
30
0
41
1
10
0.478435552420308
20
-19.1012474269685
30
0
41
1
10
0.476006752088352
20
-19.1024598477094
30
0
41
1
10
0.468095734107891
20
-19.101283259894
30
0
41
1
10
0.462528071759067
20
-19.0988968618313
30
0
41
1
10
0.448209776137389
20
-19.0906298674871
30
0
41
1
10
0.438890545081364
20
-19.0841235895218
30
0
41
1
10
0.418176857745408
20
-19.0681748502726
30
0
41
1
10
0.406440638881719
20
-19.058361787202
30
0
41
1
10
0.394519052838348
20
-19.0478637127897
30
0
0
SPLINE
5
153
100
AcDbEntity
8
1
62
256
6
ByLayer
370
18
48
1
60
0
100
AcDbSpline
70
4
71
3
72
22
73
18
40
0
40
0
40
0
40
0
40
0.0622412102062521
40
0.0622412102062521
40
0.195659607509336
40
0.195659607509336
40
0.290009856559985
40
0.290009856559985
40
0.390220094917112
40
0.390220094917112
40
0.48998742750967
40
0.48998742750967
40
0.612429147093309
40
0.612429147093309
40
0.768739873212956
40
0.768739873212956
40
1
40
1
40
1
40
1
41
1
10
0.394519052838348
20
19.0478637127897
30
0
41
1
10
0.400467282736884
20
19.0531016869878
30
0
41
1
10
0.406349975501371
20
19.0581528057297
30
0
41
1
10
0.424289354222509
20
19.0730851976249
30
0
41
1
10
0.436077878689758
20
19.0821858184231
30
0
41
1
10
0.453418354473371
20
19.093819438838
30
0
41
1
10
0.459912467712911
20
19.0975657756679
30
0
41
1
10
0.470579582894913
20
19.1020486388594
30
0
41
1
10
0.47470272290883
20
19.1026167949237
30
0
41
1
10
0.479371180450983
20
19.1000659104202
30
0
41
1
10
0.480008141173357
20
19.0969460698151
30
0
41
1
10
0.478078074440106
20
19.0869824154913
30
0
41
1
10
0.474773250038254
20
19.0793494160292
30
0
41
1
10
0.463946549333485
20
19.0594843603781
30
0
41
1
10
0.455401046253286
20
19.0463016403559
30
0
41
1
10
0.431101708324377
20
19.0119418081171
30
0
41
1
10
0.413465933239877
20
18.9893456648831
30
0
41
1
10
0.394519052838319
20
18.9665337194095
30
0
0
SPLINE
5
154
100
AcDbEntity
8
1
62
256
6
ByLayer
370
18
48
1
60
0
100
AcDbSpline
70
4
71
3
72
8
73
4
40
0
40
0
40
0
40
0
40
1
40
1
40
1
40
1
41
1
10
0.394519052838319
20
-19.0478637127897
30
0
41
1
10
0.179515431750104
20
-18.8585328632802
30
0
41
1
10
-0.0353231021630336
20
-18.6689517405164
30
0
41
1
10
-0.249980947161618
20
-18.4790984828195
30
0
0
SPLINE
5
155
100
AcDbEntity
8
1
62
256
6
ByLayer
370
18
48
1
60
0
100
AcDbSpline
70
4
71
3
72
16
73
12
40
0
40
0
40
0
40
0
40
0.157598113550062
40
0.157598113550062
40
0.44440195583845
40
0.44440195583845
40
0.650958711249201
40
0.650958711249201
40
0.866513836432607
40
0.866513836432607
40
1
40
1
40
1
40
1
41
1
10
-0.249980947161618
20
-18.4790984828195
30
0
41
1
10
-0.256106086114272
20
-18.4736811285923
30
0
41
1
10
-0.262152749599949
20
-18.468480928254
30
0
41
1
10
-0.2785889831448
20
-18.4548372634454
30
0
41
1
10
-0.288756525284896
20
-18.4470005601332
30
0
41
1
10
-0.303688565114982
20
-18.4369569413666
30
0
41
1
10
-0.309279846461863
20
-18.4337254422995
30
0
41
1
10
-0.318216582379961
20
-18.4299862515422
30
0
41
1
10
-0.321550596668487
20
-18.4295752046318
30
0
41
1
10
-0.324439682614724
20
-18.4314442096527
30
0
41
1
10
-0.324980947161663
20
-18.4327557184459
30
0
41
1
10
-0.324980947161663
20
-18.4345773721769
30
0
0
SPLINE
5
156
100
AcDbEntity
8
1
62
256
6
ByLayer
370
18
48
1
60
0
100
AcDbSpline
70
4
71
3
72
8
73
4
40
0
40
0
40
0
40
0
40
1
40
1
40
1
40
1
41
1
10
-0.249980947161618
20
18.4790984828195
30
0
41
1
10
-0.0353231021630336
20
18.6689517405164
30
0
41
1
10
0.179515431750133
20
18.8585328632802
30
0
41
1
10
0.394519052838319
20
19.0478637127897
30
0
0
SPLINE
5
157
100
AcDbEntity
8
1
62
256
6
ByLayer
370
18
48
1
60
0
100
AcDbSpline
70
4
71
3
72
16
73
12
40
0
40
0
40
0
40
0
40
0.0418527781591213
40
0.0418527781591213
40
0.256863904099726
40
0.256863904099726
40
0.471283227894272
40
0.471283227894272
40
0.723648176186175
40
0.723648176186175
40
1
40
1
40
1
40
1
41
1
10
-0.324980947161663
20
18.4345773721769
30
0
41
1
10
-0.324980947161663
20
18.4340003777338
30
0
41
1
10
-0.324927422014866
20
18.4334745735416
30
0
41
1
10
-0.324268066293257
20
18.4306115705361
30
0
41
1
10
-0.322226378270784
20
18.4296419897003
30
0
41
1
10
-0.315369217788998
20
18.4308858315127
30
0
41
1
10
-0.310480736674833
20
18.4330991910473
30
0
41
1
10
-0.297839929178764
20
18.4406231881072
30
0
41
1
10
-0.289577112777067
20
18.4464866100013
30
0
41
1
10
-0.271137086120035
20
18.4608380910637
30
0
41
1
10
-0.260647131689012
20
18.4696648193085
30
0
41
1
10
-0.249980947161618
20
18.4790984828195
30
0
0
SPLINE
5
158
100
AcDbEntity
8
1
62
256
6
ByLayer
370
18
48
1
60
0
100
AcDbSpline
70
4
71
3
72
14
73
10
40
0
40
0
40
0
40
0
40
0.10873675919575
40
0.10873675919575
40
0.350319805173773
40
0.350319805173773
40
0.669890038091977
40
0.669890038091977
40
1
40
1
40
1
40
1
41
1
10
-0.324980947161691
20
-18.4837089376594
30
0
41
1
10
-0.324980947161691
20
-18.4853296001057
30
0
41
1
10
-0.324513048260883
20
-18.4874072150517
30
0
41
1
10
-0.321700075490497
20
-18.4952410127669
30
0
41
1
10
-0.317719790178245
20
-18.5025161150046
30
0
41
1
10
-0.305552123339368
20
-18.5215548747788
30
0
41
1
10
-0.2962752852942
20
-18.5342817516763
30
0
41
1
10
-0.275087583143147
20
-18.5614192068616
30
0
41
1
10
-0.26288600857157
20
-18.5761534827952
30
0
41
1
10
-0.249980947161674
20
-18.591105468188
30
0
0
SPLINE
5
159
100
AcDbEntity
8
1
62
256
6
ByLayer
370
18
48
1
60
0
100
AcDbSpline
70
4
71
3
72
8
73
4
40
0
40
0
40
0
40
0
40
1
40
1
40
1
40
1
41
1
10
-0.249980947161674
20
-18.591105468188
30
0
41
1
10
-0.0361927547921823
20
-18.8388034703858
30
0
41
1
10
0.178675800779445
20
-19.0852634005435
30
0
41
1
10
0.394519052838319
20
-19.3305735632813
30
0
0
SPLINE
5
15A
100
AcDbEntity
8
1
62
256
6
ByLayer
370
18
48
1
60
0
100
AcDbSpline
70
4
71
3
72
22
73
18
40
0
40
0
40
0
40
0
40
0.10514489570861
40
0.10514489570861
40
0.298307607607473
40
0.298307607607473
40
0.435744200455791
40
0.435744200455791
40
0.533157893058118
40
0.533157893058118
40
0.63614046992342
40
0.63614046992342
40
0.73871082647614
40
0.73871082647614
40
0.860726116280243
40
0.860726116280243
40
1
40
1
40
1
40
1
41
1
10
0.394519052838319
20
-19.3305735632813
30
0
41
1
10
0.403369760680221
20
-19.3406325693439
30
0
41
1
10
0.411919389072295
20
-19.3505600857198
30
0
41
1
10
0.434731664003578
20
-19.3777342144498
30
0
41
1
10
0.448202557756929
20
-19.3946397406734
30
0
41
1
10
0.466128095342782
20
-19.4193805689441
30
0
41
1
10
0.472196796096199
20
-19.4286342035027
30
0
41
1
10
0.478361186172009
20
-19.4405579019228
30
0
41
1
10
0.479704863514286
20
-19.444434568753
30
0
41
1
10
0.479279537266876
20
-19.4491748507183
30
0
41
1
10
0.4772976056787
20
-19.449890463539
30
0
41
1
10
0.470057704623116
20
-19.4476437428617
30
0
41
1
10
0.464731732953453
20
-19.444681386161
30
0
41
1
10
0.450697879782325
20
-19.4351924715455
30
0
41
1
10
0.441368022924166
20
-19.4279999529528
30
0
41
1
10
0.41992982412907
20
-19.4103090855874
30
0
41
1
10
0.407363102370624
20
-19.3992963714466
30
0
41
1
10
0.394519052838348
20
-19.3876104526855
30
0
0
SPLINE
5
15B
100
AcDbEntity
8
1
62
256
6
ByLayer
370
18
48
1
60
0
100
AcDbSpline
70
4
71
3
72
14
73
10
40
0
40
0
40
0
40
0
40
0.258190055419753
40
0.258190055419753
40
0.616497064434434
40
0.616497064434434
40
0.841579771705199
40
0.841579771705199
40
1
40
1
40
1
40
1
41
1
10
-0.249980947161674
20
18.591105468188
30
0
41
1
10
-0.26010894588569
20
18.5793710266251
30
0
41
1
10
-0.269784604658469
20
18.5677927070637
30
0
41
1
10
-0.290950658335362
20
18.5413857722147
30
0
41
1
10
-0.301990526231776
20
18.5266661591476
30
0
41
1
10
-0.315479701706124
20
18.5062205486188
30
0
41
1
10
-0.319670166986043
20
18.4990526114348
30
0
41
1
10
-0.323992548254864
20
18.4893700128427
30
0
41
1
10
-0.324980947161777
20
18.4860553308189
30
0
41
1
10
-0.324980947161777
20
18.4837089376593
30
0
0
SPLINE
5
15C
100
AcDbEntity
8
1
62
256
6
ByLayer
370
18
48
1
60
0
100
AcDbSpline
70
4
71
3
72
8
73
4
40
0
40
0
40
0
40
0
40
1
40
1
40
1
40
1
41
1
10
0.394519052838319
20
19.3305735632813
30
0
41
1
10
0.178675800779445
20
19.0852634005435
30
0
41
1
10
-0.0361927547921823
20
18.8388034703858
30
0
41
1
10
-0.249980947161674
20
18.591105468188
30
0
0
SPLINE
5
15D
100
AcDbEntity
8
1
62
256
6
ByLayer
370
18
48
1
60
0
100
AcDbSpline
70
4
71
3
72
22
73
18
40
0
40
0
40
0
40
0
40
0.0953402962722936
40
0.0953402962722936
40
0.231514277628934
40
0.231514277628934
40
0.328884977266644
40
0.328884977266644
40
0.432272080755363
40
0.432272080755363
40
0.535211010952955
40
0.535211010952955
40
0.660214959475276
40
0.660214959475276
40
0.822952922777393
40
0.822952922777393
40
1
40
1
40
1
40
1
41
1
10
0.394519052838319
20
19.3876104526855
30
0
41
1
10
0.403367268603091
20
19.3956608366666
30
0
41
1
10
0.412055391539724
20
19.4033666625409
30
0
41
1
10
0.432077623030921
20
19.4205240032207
30
0
41
1
10
0.44322350167937
20
19.4295379618711
30
0
41
1
10
0.459205803319236
20
19.4411209722358
30
0
41
1
10
0.465050569748286
20
19.4448670138593
30
0
41
1
10
0.474169203566362
20
19.4493361027783
30
0
41
1
10
0.477360526903539
20
19.4498921369933
30
0
41
1
10
0.480069149940675
20
19.4473170429572
30
0
41
1
10
0.479653035455527
20
19.4441839844956
30
0
41
1
10
0.475421843041488
20
19.4342379979462
30
0
41
1
10
0.470882718266608
20
19.426675279175
30
0
41
1
10
0.457281753137437
20
19.4067710602393
30
0
41
1
10
0.447107157831027
20
19.3934031678982
30
0
41
1
10
0.423368445185702
20
19.3639518224561
30
0
41
1
10
0.409331277986524
20
19.3474079527141
30
0
41
1
10
0.394519052838319
20
19.3305735632813
30
0
0
SPLINE
5
15E
100
AcDbEntity
8
1
62
256
6
ByLayer
370
18
48
1
60
0
100
AcDbSpline
70
4
71
3
72
8
73
4
40
0
40
0
40
0
40
0
40
1
40
1
40
1
40
1
41
1
10
0.394519052838319
20
-19.3876104526855
30
0
41
1
10
0.179435695072158
20
-19.1919208736785
30
0
41
1
10
-0.0354053390300066
20
-18.9958755564109
30
0
41
1
10
-0.249980947161646
20
-18.7994441682815
30
0
0
SPLINE
5
15F
100
AcDbEntity
8
1
62
256
6
ByLayer
370
18
48
1
60
0
100
AcDbSpline
70
4
71
3
72
16
73
12
40
0
40
0
40
0
40
0
40
0.127394081509942
40
0.127394081509942
40
0.43925303425772
40
0.43925303425772
40
0.650047445737467
40
0.650047445737467
40
0.864460922969191
40
0.864460922969191
40
1
40
1
40
1
40
1
41
1
10
-0.249980947161646
20
-18.7994441682815
30
0
41
1
10
-0.254931686345799
20
-18.7949120568329
30
0
41
1
10
-0.259817105513093
20
-18.7905043015337
30
0
41
1
10
-0.276151502418344
20
-18.7760176514694
30
0
41
1
10
-0.287247409224562
20
-18.7666264327003
30
0
41
1
10
-0.303064858151373
20
-18.7543120858566
30
0
41
1
10
-0.308794670342337
20
-18.7502031890134
30
0
41
1
10
-0.317905446317781
20
-18.7446259593932
30
0
41
1
10
-0.32133350260375
20
-18.7431592438304
30
0
41
1
10
-0.324389759541361
20
-18.7433410170541
30
0
41
1
10
-0.324980947161691
20
-18.7440308292307
30
0
41
1
10
-0.324980947161691
20
-18.7452914556606
30
0
0
SPLINE
5
160
100
AcDbEntity
8
1
62
256
6
ByLayer
370
18
48
1
60
0
100
AcDbSpline
70
4
71
3
72
8
73
4
40
0
40
0
40
0
40
0
40
1
40
1
40
1
40
1
41
1
10
-0.249980947161646
20
18.7994441682815
30
0
41
1
10
-0.0354053390300066
20
18.9958755564109
30
0
41
1
10
0.179435695072158
20
19.1919208736785
30
0
41
1
10
0.394519052838319
20
19.3876104526855
30
0
0
SPLINE
5
161
100
AcDbEntity
8
1
62
256
6
ByLayer
370
18
48
1
60
0
100
AcDbSpline
70
4
71
3
72
16
73
12
40
0
40
0
40
0
40
0
40
0.0009714906707063
40
0.0009714906707063
40
0.221168369327508
40
0.221168369327508
40
0.440436645732835
40
0.440436645732835
40
0.701248064616532
40
0.701248064616532
40
1
40
1
40
1
40
1
41
1
10
-0.324980947161691
20
18.745292756394
30
0
41
1
10
-0.324980947189914
20
18.7452827553927
30
0
41
1
10
-0.324980913780934
20
18.7452727544558
30
0
41
1
10
-0.32496715634818
20
18.7432328414874
30
0
41
1
10
-0.323350193953189
20
18.7427387467689
30
0
41
1
10
-0.317132842041701
20
18.7450024743643
30
0
41
1
10
-0.312476341900009
20
18.7477630003535
30
0
41
1
10
-0.300112173260857
20
18.7564474029675
30
0
41
1
10
-0.291842372129139
20
18.7629627881616
30
0
41
1
10
-0.27274511689015
20
18.7789567898548
30
0
41
1
10
-0.261494955800998
20
18.7889037684679
30
0
41
1
10
-0.249980947161646
20
18.7994441682815
30
0
0
SPLINE
5
162
100
AcDbEntity
8
1
62
256
6
ByLayer
370
18
48
1
60
0
100
AcDbSpline
70
4
71
3
72
14
73
10
40
0
40
0
40
0
40
0
40
0.120002432612604
40
0.120002432612604
40
0.355586369781075
40
0.355586369781075
40
0.656282867703152
40
0.656282867703152
40
1
40
1
40
1
40
1
41
1
10
-0.324980947161691
20
-18.7775181327357
30
0
41
1
10
-0.324980947161691
20
-18.7786584117216
30
0
41
1
10
-0.324428650116829
20
-18.7803450580268
30
0
41
1
10
-0.321352421029132
20
-18.7866649098365
30
0
41
1
10
-0.317392142331499
20
-18.7926710282901
30
0
41
1
10
-0.305613274085545
20
-18.8086141717859
30
0
41
1
10
-0.296892621046084
20
-18.8193910513108
30
0
41
1
10
-0.276030574832305
20
-18.8439756527439
30
0
41
1
10
-0.263338820378635
20
-18.8582893690387
30
0
41
1
10
-0.249980947161703
20
-18.8729219314524
30
0
0
SPLINE
5
163
100
AcDbEntity
8
1
62
256
6
ByLayer
370
18
48
1
60
0
100
AcDbSpline
70
4
71
3
72
8
73
4
40
0
40
0
40
0
40
0
40
1
40
1
40
1
40
1
41
1
10
-0.249980947161674
20
-18.8729219314524
30
0
41
1
10
-0.0359614008632434
20
-19.107364519588
30
0
41
1
10
0.178898499370177
20
-19.3407877832485
30
0
41
1
10
0.394519052838319
20
-19.5732661362727
30
0
0
SPLINE
5
164
100
AcDbEntity
8
1
62
256
6
ByLayer
370
18
48
1
60
0
100
AcDbSpline
70
4
71
3
72
22
73
18
40
0
40
0
40
0
40
0
40
0.0172355665981015
40
0.0172355665981015
40
0.222679234227531
40
0.222679234227531
40
0.369301798942522
40
0.369301798942522
40
0.469383244032438
40
0.469383244032438
40
0.5737195695443
40
0.5737195695443
40
0.695596486029299
40
0.695596486029299
40
0.815989750291893
40
0.815989750291893
40
1
40
1
40
1
40
1
41
1
10
0.394519052838319
20
-19.5732661362727
30
0
41
1
10
0.396002601605744
20
-19.5748656729056
30
0
41
1
10
0.397477790285393
20
-19.5764597740584
30
0
41
1
10
0.416220755024483
20
-19.5967603254278
30
0
41
1
10
0.432532260264679
20
-19.6149413522761
30
0
41
1
10
0.455704724347839
20
-19.6420198321359
30
0
41
1
10
0.464129371680912
20
-19.6523239720989
30
0
41
1
10
0.474149065920415
20
-19.6657888256828
30
0
41
1
10
0.477116672473556
20
-19.670261905694
30
0
41
1
10
0.480012512677206
20
-19.6762697358643
30
0
41
1
10
0.479815740541426
20
-19.6777206789852
30
0
41
1
10
0.475553595880399
20
-19.6768417740547
30
0
41
1
10
0.470772988438711
20
-19.6738246235832
30
0
41
1
10
0.457909406447215
20
-19.6640228598805
30
0
41
1
10
0.449722798093148
20
-19.6571907214259
30
0
41
1
10
0.427013834417494
20
-19.6373494781872
30
0
41
1
10
0.411004210521298
20
-19.6226435459929
30
0
41
1
10
0.394519052838348
20
-19.6070845897382
30
0
0
SPLINE
5
165
100
AcDbEntity
8
1
62
256
6
ByLayer
370
18
48
1
60
0
100
AcDbSpline
70
4
71
3
72
14
73
10
40
0
40
0
40
0
40
0
40
0.297265725626991
40
0.297265725626991
40
0.62688260509844
40
0.62688260509844
40
0.847763334255443
40
0.847763334255443
40
1
40
1
40
1
40
1
41
1
10
-0.249980947161674
20
18.8729219314524
30
0
41
1
10
-0.261563366904625
20
18.8602342470406
30
0
41
1
10
-0.27262569282604
20
18.8478075590943
30
0
41
1
10
-0.29363493836189
20
18.8233577437334
30
0
41
1
10
-0.303571400409197
20
18.8112400727183
30
0
41
1
10
-0.316086301444784
20
18.7945143648086
30
0
41
1
10
-0.320085170366042
20
18.7886343239383
30
0
41
1
10
-0.324094494362413
20
18.7812765650133
30
0
41
1
10
-0.32498094716172
20
18.7789582062073
30
0
41
1
10
-0.32498094716172
20
18.7775181327357
30
0
0
SPLINE
5
166
100
AcDbEntity
8
1
62
256
6
ByLayer
370
18
48
1
60
0
100
AcDbSpline
70
4
71
3
72
8
73
4
40
0
40
0
40
0
40
0
40
1
40
1
40
1
40
1
41
1
10
0.394519052838319
20
19.5732661362727
30
0
41
1
10
0.178898499370177
20
19.3407877832485
30
0
41
1
10
-0.035961400863215
20
19.107364519588
30
0
41
1
10
-0.249980947161674
20
18.8729219314524
30
0
0
SPLINE
5
167
100
AcDbEntity
8
1
62
256
6
ByLayer
370
18
48
1
60
0
100
AcDbSpline
70
4
71
3
72
22
73
18
40
0
40
0
40
0
40
0
40
0.07142431374457
40
0.07142431374457
40
0.225215266483105
40
0.225215266483105
40
0.326891473714789
40
0.326891473714789
40
0.429041369165652
40
0.429041369165652
40
0.54993100323304
40
0.54993100323304
40
0.669417159897671
40
0.669417159897671
40
0.820049628415304
40
0.820049628415304
40
1
40
1
40
1
40
1
41
1
10
0.394519052838319
20
19.6070845897382
30
0
41
1
10
0.40101751619369
20
19.6132179436929
30
0
41
1
10
0.407406617666112
20
19.6191858263395
30
0
41
1
10
0.426817933884166
20
19.6370893239844
30
0
41
1
10
0.439394170264905
20
19.6483415240208
30
0
41
1
10
0.456925623916646
20
19.6631634576382
30
0
41
1
10
0.463133821277154
20
19.668134458301
30
0
41
1
10
0.472790710641732
20
19.6750887404331
30
0
41
1
10
0.476315299614953
20
19.6771134940703
30
0
41
1
10
0.480188554744359
20
19.677644640058
30
0
41
1
10
0.479894856114441
20
19.6754367573932
30
0
41
1
10
0.475072563088048
20
19.6670161325704
30
0
41
1
10
0.47057350034612
20
19.6607747415594
30
0
41
1
10
0.457404667806912
20
19.6440343108134
30
0
41
1
10
0.447800441616408
20
19.6326356334644
30
0
41
1
10
0.424374574627223
20
19.6058371726624
30
0
41
1
10
0.409811528179091
20
19.5897542188033
30
0
41
1
10
0.394519052838319
20
19.5732661362727
30
0
0
SPLINE
5
168
100
AcDbEntity
8
1
62
256
6
ByLayer
370
18
48
1
60
0
100
AcDbSpline
70
4
71
3
72
8
73
4
40
0
40
0
40
0
40
0
40
1
40
1
40
1
40
1
41
1
10
0.394519052838319
20
-19.6070845897382
30
0
41
1
10
0.179338716638313
20
-19.4039939367894
30
0
41
1
10
-0.0355054703228177
20
-19.2004273056163
30
0
41
1
10
-0.249980947161646
20
-18.996344946724
30
0
0
SPLINE
5
169
100
AcDbEntity
8
1
62
256
6
ByLayer
370
18
48
1
60
0
100
AcDbSpline
70
4
71
3
72
16
73
12
40
0
40
0
40
0
40
0
40
0.091037725534552
40
0.091037725534552
40
0.42980903267859
40
0.42980903267859
40
0.646848138943224
40
0.646848138943224
40
0.861410215437389
40
0.861410215437389
40
1
40
1
40
1
40
1
41
1
10
-0.249980947161646
20
-18.996344946724
30
0
41
1
10
-0.253523035672572
20
-18.9929745018164
30
0
41
1
10
-0.257025127288273
20
-18.9896594829082
30
0
41
1
10
-0.273158673168609
20
-18.9744756675422
30
0
41
1
10
-0.285308014301279
20
-18.9633045368532
30
0
41
1
10
-0.302205353360648
20
-18.948377336511
30
0
41
1
10
-0.308151744827654
20
-18.9433083907631
30
0
41
1
10
-0.317530949447644
20
-18.9358131165477
30
0
41
1
10
-0.321075737587165
20
-18.9332952075859
30
0
41
1
10
-0.324330331133837
20
-18.9317536112394
30
0
41
1
10
-0.324980947161663
20
-18.9317902788802
30
0
41
1
10
-0.324980947161663
20
-18.9324657830023
30
0
0
SPLINE
5
16A
100
AcDbEntity
8
1
62
256
6
ByLayer
370
18
48
1
60
0
100
AcDbSpline
70
4
71
3
72
8
73
4
40
0
40
0
40
0
40
0
40
1
40
1
40
1
40
1
41
1
10
-0.249980947161646
20
18.996344946724
30
0
41
1
10
-0.0355054703228177
20
19.2004273056163
30
0
41
1
10
0.179338716638313
20
19.4039939367894
30
0
41
1
10
0.394519052838319
20
19.6070845897382
30
0
0
SPLINE
5
16B
100
AcDbEntity
8
1
62
256
6
ByLayer
370
18
48
1
60
0
100
AcDbSpline
70
4
71
3
72
14
73
10
40
0
40
0
40
0
40
0
40
0.112675162322476
40
0.112675162322476
40
0.369479852241088
40
0.369479852241088
40
0.623065117775557
40
0.623065117775557
40
1
40
1
40
1
40
1
41
1
10
-0.324980947161663
20
18.9324657830023
30
0
41
1
10
-0.324980947161663
20
18.9319121472382
30
0
41
1
10
-0.324546635773032
20
18.9317854442314
30
0
41
1
10
-0.321745200387369
20
18.9327841693733
30
0
41
1
10
-0.317503050570963
20
18.9357832641577
30
0
41
1
10
-0.305986966146861
20
18.9451018737954
30
0
41
1
10
-0.29862157432396
20
18.9514738133814
30
0
41
1
10
-0.278478660367142
20
18.9695223198434
30
0
41
1
10
-0.264453207042152
20
18.9825739880183
30
0
41
1
10
-0.249980947161646
20
18.996344946724
30
0
0
SPLINE
5
16C
100
AcDbEntity
8
1
62
256
6
ByLayer
370
18
48
1
60
0
100
AcDbSpline
70
4
71
3
72
14
73
10
40
0
40
0
40
0
40
0
40
0.130790378576528
40
0.130790378576528
40
0.360317818571481
40
0.360317818571481
40
0.644003006276979
40
0.644003006276979
40
1
40
1
40
1
40
1
41
1
10
-0.324980947161663
20
-18.948426804311
30
0
41
1
10
-0.324980947161663
20
-18.949009886987
30
0
41
1
10
-0.324347328130074
20
-18.9502229466297
30
0
41
1
10
-0.321032947917615
20
-18.9550686613547
30
0
41
1
10
-0.317110238947407
20
-18.9599158421158
30
0
41
1
10
-0.305713688034956
20
-18.9731467356602
30
0
41
1
10
-0.297488943040861
20
-18.982258222303
30
0
41
1
10
-0.276901151739736
20
-19.0045216483307
30
0
41
1
10
-0.263746924048291
20
-19.0184126035241
30
0
41
1
10
-0.249980947161674
20
-19.0327392125282
30
0
0
SPLINE
5
16D
100
AcDbEntity
8
1
62
256
6
ByLayer
370
18
48
1
60
0
100
AcDbSpline
70
4
71
3
72
8
73
4
40
0
40
0
40
0
40
0
40
1
40
1
40
1
40
1
41
1
10
-0.249980947161674
20
-19.0327392125282
30
0
41
1
10
-0.0357767269013607
20
-19.2556670974128
30
0
41
1
10
0.179076567029881
20
-19.4777657699182
30
0
41
1
10
0.394519052838319
20
-19.6990969386236
30
0
0
SPLINE
5
16E
100
AcDbEntity
8
1
62
256
6
ByLayer
370
18
48
1
60
0
100
AcDbSpline
70
4
71
3
72
22
73
18
40
0
40
0
40
0
40
0
40
0.0521615637676517
40
0.0521615637676517
40
0.234898420897985
40
0.234898420897985
40
0.36813886745566
40
0.36813886745566
40
0.468276625237954
40
0.468276625237954
40
0.57794385461768
40
0.57794385461768
40
0.686937299351873
40
0.686937299351873
40
0.816615051290926
40
0.816615051290926
40
1
40
1
40
1
40
1
41
1
10
0.394519052838319
20
-19.6990969386236
30
0
41
1
10
0.399081981489076
20
-19.7037845856641
30
0
41
1
10
0.403574803366069
20
-19.7084124807493
30
0
41
1
10
0.423223948449618
20
-19.7287107854745
30
0
41
1
10
0.437615291364438
20
-19.7437403716601
30
0
41
1
10
0.458186022617696
20
-19.7656089110072
30
0
41
1
10
0.465703377530048
20
-19.7737474657015
30
0
41
1
10
0.474960976757046
20
-19.7841536673263
30
0
41
1
10
0.477730464276306
20
-19.7874463129549
30
0
41
1
10
0.48014385392284
20
-19.7909381648345
30
0
41
1
10
0.479477082331755
20
-19.7908403362891
30
0
41
1
10
0.474449755408813
20
-19.7868524943349
30
0
41
1
10
0.470067696986746
20
-19.7829563615644
30
0
41
1
10
0.457726137803974
20
-19.7715463102806
30
0
41
1
10
0.449105460958037
20
-19.7633618003152
30
0
41
1
10
0.42618434721453
20
-19.7413114388715
30
0
41
1
10
0.410642472983938
20
-19.7261505147154
30
0
41
1
10
0.394519052838319
20
-19.710304237967
30
0
0
SPLINE
5
16F
100
AcDbEntity
8
1
62
256
6
ByLayer
370
18
48
1
60
0
100
AcDbSpline
70
4
71
3
72
14
73
10
40
0
40
0
40
0
40
0
40
0.331145191006894
40
0.331145191006894
40
0.635569780846911
40
0.635569780846911
40
0.853184633220534
40
0.853184633220534
40
1
40
1
40
1
40
1
41
1
10
-0.249980947161674
20
19.0327392125282
30
0
41
1
10
-0.262806262223847
20
19.0193915746697
30
0
41
1
10
-0.275085496381905
20
19.0064378800684
30
0
41
1
10
-0.295938913574304
20
18.9839687335512
30
0
41
1
10
-0.3049389320297
20
18.974032798766
30
0
41
1
10
-0.316623400770908
20
18.9604902016497
30
0
41
1
10
-0.320453260649515
20
18.9557916746307
30
0
41
1
10
-0.324183520280769
20
18.9505258281276
30
0
41
1
10
-0.324980947161663
20
18.9490797269465
30
0
41
1
10
-0.324980947161663
20
18.948426804311
30
0
0
SPLINE
5
170
100
AcDbEntity
8
1
62
256
6
ByLayer
370
18
48
1
60
0
100
AcDbSpline
70
4
71
3
72
8
73
4
40
0
40
0
40
0
40
0
40
1
40
1
40
1
40
1
41
1
10
0.394519052838319
20
19.6990969386236
30
0
41
1
10
0.179076567029881
20
19.4777657699182
30
0
41
1
10
-0.0357767269013607
20
19.2556670974128
30
0
41
1
10
-0.249980947161674
20
19.0327392125282
30
0
0
SPLINE
5
171
100
AcDbEntity
8
1
62
256
6
ByLayer
370
18
48
1
60
0
100
AcDbSpline
70
4
71
3
72
22
73
18
40
0
40
0
40
0
40
0
40
0.0796154506893558
40
0.0796154506893558
40
0.242774094032917
40
0.242774094032917
40
0.347687864404265
40
0.347687864404265
40
0.448813058912045
40
0.448813058912045
40
0.564000179738307
40
0.564000179738307
40
0.678172050644262
40
0.678172050644262
40
0.817904201748936
40
0.817904201748936
40
1
40
1
40
1
40
1
41
1
10
0.394519052838319
20
19.710304237967
30
0
41
1
10
0.401609156757644
20
19.717272471001
30
0
41
1
10
0.408552992926957
20
19.7240749469017
30
0
41
1
10
0.42884146234158
20
19.743869578646
30
0
41
1
10
0.441658364353969
20
19.7562591613048
30
0
41
1
10
0.459041380578185
20
19.7727587078626
30
0
41
1
10
0.465027356868461
20
19.7783452551176
30
0
41
1
10
0.473964393527495
20
19.7864130836086
30
0
41
1
10
0.477089684223898
20
19.7890616725117
30
0
41
1
10
0.480187441895225
20
19.7910978442709
30
0
41
1
10
0.479692190723824
20
19.7899945114866
30
0
41
1
10
0.47474949855166
20
19.7838800082448
30
0
41
1
10
0.470304206294372
20
19.7788539584737
30
0
41
1
10
0.457555752082527
20
19.7649189897359
30
0
41
1
10
0.448465713246748
20
19.7552276840418
30
0
41
1
10
0.425308683615754
20
19.7308752188008
30
0
41
1
10
0.410246552866397
20
19.7152543179305
30
0
41
1
10
0.394519052838319
20
19.6990969386236
30
0
0
SPLINE
5
172
100
AcDbEntity
8
1
62
256
6
ByLayer
370
18
48
1
60
0
100
AcDbSpline
70
4
71
3
72
8
73
4
40
0
40
0
40
0
40
0
40
1
40
1
40
1
40
1
41
1
10
0.394519052838319
20
-19.710304237967
30
0
41
1
10
0.179220787457297
20
-19.4987067068065
30
0
41
1
10
-0.0356273962293869
20
-19.2864967669467
30
0
41
1
10
-0.249980947161674
20
-19.0736242396016
30
0
0
SPLINE
5
173
100
AcDbEntity
8
1
62
256
6
ByLayer
370
18
48
1
60
0
100
AcDbSpline
70
4
71
3
72
14
73
10
40
0
40
0
40
0
40
0
40
0.360604057660305
40
0.360604057660305
40
0.642709697354763
40
0.642709697354763
40
0.857921951027921
40
0.857921951027921
40
1
40
1
40
1
40
1
41
1
10
-0.249980947161674
20
-19.0736242396016
30
0
41
1
10
-0.26387378128851
20
-19.0598273946242
30
0
41
1
10
-0.277240182772005
20
-19.04658533761
30
0
41
1
10
-0.297935561852427
20
-19.0261403161264
30
0
41
1
10
-0.306131562013661
20
-19.0180667537484
30
0
41
1
10
-0.31710313629273
20
-19.007306639191
30
0
41
1
10
-0.320782229379489
20
-19.0037194094063
30
0
41
1
10
-0.32426173211843
20
-19.0003759585332
30
0
41
1
10
-0.324980947161691
20
-18.9997072925504
30
0
41
1
10
-0.324980947161691
20
-18.9997518271013
30
0
0
SPLINE
5
174
100
AcDbEntity
8
1
62
256
6
ByLayer
370
18
48
1
60
0
100
AcDbSpline
70
4
71
3
72
8
73
4
40
0
40
0
40
0
40
0
40
1
40
1
40
1
40
1
41
1
10
-0.249980947161646
20
19.0736242396016
30
0
41
1
10
-0.0356273962293869
20
19.2864967669467
30
0
41
1
10
0.179220787457325
20
19.4987067068065
30
0
41
1
10
0.394519052838319
20
19.710304237967
30
0
0
SPLINE
5
175
100
AcDbEntity
8
1
62
256
6
ByLayer
370
18
48
1
60
0
100
AcDbSpline
70
4
71
3
72
14
73
10
40
0
40
0
40
0
40
0
40
0.141240364919154
40
0.141240364919154
40
0.364815626920371
40
0.364815626920371
40
0.63293100366821
40
0.63293100366821
40
1
40
1
40
1
40
1
41
1
10
-0.324980947161691
20
18.9997518271013
30
0
41
1
10
-0.324980947161691
20
18.9997075483724
30
0
41
1
10
-0.324270124434833
20
19.0003681497553
30
0
41
1
10
-0.320738864304843
20
19.0037606806076
30
0
41
1
10
-0.316865710439174
20
19.0075381064276
30
0
41
1
10
-0.30584114618128
20
19.0183533892788
30
0
41
1
10
-0.298064705436474
20
19.0260137389467
30
0
41
1
10
-0.277713110049291
20
19.046116847108
30
0
41
1
10
-0.264116695428015
20
19.0595861588407
30
0
41
1
10
-0.249980947161646
20
19.0736242396016
30
0
0
SPLINE
5
176
100
AcDbEntity
8
1
62
256
6
ByLayer
370
18
48
1
60
0
100
AcDbSpline
70
4
71
3
72
16
73
12
40
0
40
0
40
0
40
0
40
0.0508154046975833
40
0.0508154046975833
40
0.258923711591509
40
0.258923711591509
40
0.504265039005607
40
0.504265039005607
40
0.746724487238743
40
0.746724487238743
40
1
40
1
40
1
40
1
41
1
10
-0.324980947161691
20
17.9939249199247
30
0
41
1
10
-0.324980947161691
20
17.9930033696459
30
0
41
1
10
-0.324906942168155
20
17.9921506207279
30
0
41
1
10
-0.324141887657902
20
17.9882255184319
30
0
41
1
10
-0.322194130304268
20
17.9863187804695
30
0
41
1
10
-0.31509106766535
20
17.9855489176432
30
0
41
1
10
-0.309291111767834
20
17.9872907726214
30
0
41
1
10
-0.295423697794945
20
17.9942991812083
30
0
41
1
10
-0.287211654583302
20
17.999581232446
30
0
41
1
10
-0.269511663051731
20
18.0124779452731
30
0
41
1
10
-0.259797687981006
20
18.0203010401962
30
0
41
1
10
-0.249980947161589
20
18.02872875272
30
0
0
SPLINE
5
177
100
AcDbEntity
8
1
62
256
6
ByLayer
370
18
48
1
60
0
100
AcDbSpline
70
4
71
3
72
14
73
10
40
0
40
0
40
0
40
0
40
0.131515099984925
40
0.131515099984925
40
0.546631173257155
40
0.546631173257155
40
0.834737904974219
40
0.834737904974219
40
1
40
1
40
1
40
1
41
1
10
-0.249980947161674
20
18.1816177175708
30
0
41
1
10
-0.25519202383299
20
18.1751958974765
30
0
41
1
10
-0.260265405512257
20
18.1688092455181
30
0
41
1
10
-0.280476233510711
20
18.1427611361318
30
0
41
1
10
-0.294385884529191
20
18.1233510279863
30
0
41
1
10
-0.312505598098454
20
18.094163119481
30
0
41
1
10
-0.318523193744852
20
18.0829900256093
30
0
41
1
10
-0.323874328702317
20
18.068890758976
30
0
41
1
10
-0.324980947162146
20
18.0644149088857
30
0
41
1
10
-0.324980947162231
20
18.0610023243171
30
0
0
SPLINE
5
178
100
AcDbEntity
8
1
62
256
6
ByLayer
370
18
48
1
60
0
100
AcDbSpline
70
4
71
3
72
8
73
4
40
0
40
0
40
0
40
0
40
1
40
1
40
1
40
1
41
1
10
0.394519052838319
20
18.9665337194095
30
0
41
1
10
0.178392735131837
20
18.7063187568174
30
0
41
1
10
-0.0364873455682186
20
18.4447144991339
30
0
41
1
10
-0.249980947161674
20
18.1816177175708
30
0
0
SPLINE
5
179
100
AcDbEntity
8
1
62
256
6
ByLayer
370
18
48
1
60
0
100
AcDbSpline
70
4
71
3
72
14
73
10
40
0
40
0
40
0
40
0
40
0.0401551462625109
40
0.0401551462625109
40
0.264416098012656
40
0.264416098012656
40
0.560309219161401
40
0.560309219161401
40
1
40
1
40
1
40
1
41
1
10
-0.324980947161691
20
-18.0610023243174
30
0
41
1
10
-0.324980947161691
20
-18.0618428030285
30
0
41
1
10
-0.32491465154871
20
-18.0627462002314
30
0
41
1
10
-0.324072100072215
20
-18.0690101776654
30
0
41
1
10
-0.321405521836908
20
-18.0761331967054
30
0
41
1
10
-0.312262689620894
20
-18.0947319637468
30
0
41
1
10
-0.304751684093048
20
-18.1071227465221
30
0
41
1
10
-0.283112559692967
20
-18.139324634163
30
0
41
1
10
-0.267192544285052
20
-18.1604071717983
30
0
41
1
10
-0.249980947161703
20
-18.1816177175708
30
0
0
SPLINE
5
17A
100
AcDbEntity
8
1
62
256
6
ByLayer
370
18
48
1
60
0
100
AcDbSpline
70
4
71
3
72
8
73
4
40
0
40
0
40
0
40
0
40
1
40
1
40
1
40
1
41
1
10
-0.249980947161674
20
-18.1816177175708
30
0
41
1
10
-0.0364873455682471
20
-18.4447144991339
30
0
41
1
10
0.178392735131837
20
-18.7063187568174
30
0
41
1
10
0.394519052838319
20
-18.9665337194095
30
0
0
SPLINE
5
17B
100
AcDbEntity
8
1
62
256
6
ByLayer
370
18
48
1
60
0
100
AcDbSpline
70
4
71
3
72
8
73
4
40
0
40
0
40
0
40
0
40
1
40
1
40
1
40
1
41
1
10
-0.249980947159742
20
13.2410331525237
30
0
41
1
10
-0.0352348131660847
20
13.4218276833375
30
0
41
1
10
0.179601945162602
20
13.6024787589423
30
0
41
1
10
0.394519052838348
20
13.7830022040407
30
0
0
SPLINE
5
17C
100
AcDbEntity
8
1
62
256
6
ByLayer
370
18
48
1
60
0
100
AcDbSpline
70
4
71
3
72
8
73
4
40
0
40
0
40
0
40
0
40
1
40
1
40
1
40
1
41
1
10
0.394519052838319
20
-13.7830022040407
30
0
41
1
10
0.179601945162574
20
-13.6024787589423
30
0
41
1
10
-0.0352348131660847
20
-13.4218276833375
30
0
41
1
10
-0.24998094715977
20
-13.2410331525237
30
0
0
SPLINE
5
17D
100
AcDbEntity
8
1
62
256
6
ByLayer
370
18
48
1
60
0
100
AcDbSpline
70
4
71
3
72
18
73
14
40
0
40
0
40
0
40
0
40
0.151689221796797
40
0.151689221796797
40
0.377341330796585
40
0.377341330796585
40
0.51847159280552
40
0.51847159280552
40
0.686901906618474
40
0.686901906618474
40
0.87606216851947
40
0.87606216851947
40
1
40
1
40
1
40
1
41
1
10
-0.324980947164107
20
13.267244992439
30
0
41
1
10
-0.324980947164164
20
13.2608142700645
30
0
41
1
10
-0.324589889544484
20
13.2546312854228
30
0
41
1
10
-0.322339239659669
20
13.2403866350276
30
0
41
1
10
-0.319822507478307
20
13.2326869110105
30
0
41
1
10
-0.313004447296862
20
13.223492074514
30
0
41
1
10
-0.309651675120648
20
13.2207187916851
30
0
41
1
10
-0.300839956904923
20
13.2172441345201
30
0
41
1
10
-0.294926621248862
20
13.2170367117722
30
0
41
1
10
-0.281363091099848
20
13.2202833455423
30
0
41
1
10
-0.273376364216034
20
13.2241890042849
30
0
41
1
10
-0.260337990090903
20
13.2327355743826
30
0
41
1
10
-0.255116585692804
20
13.2367094641673
30
0
41
1
10
-0.249980947159685
20
13.2410331525233
30
0
0
SPLINE
5
17E
100
AcDbEntity
8
1
62
256
6
ByLayer
370
18
48
1
60
0
100
AcDbSpline
70
4
71
3
72
18
73
14
40
0
40
0
40
0
40
0
40
0.146716821958584
40
0.146716821958584
40
0.287857428997257
40
0.287857428997257
40
0.442878920492617
40
0.442878920492617
40
0.596821481441047
40
0.596821481441047
40
0.783640148031752
40
0.783640148031752
40
1
40
1
40
1
40
1
41
1
10
-0.249980947159656
20
-13.241033152523
30
0
41
1
10
-0.25604867837265
20
-13.2359247363788
30
0
41
1
10
-0.262247191573891
20
-13.2312967930468
30
0
41
1
10
-0.274254856529836
20
-13.2239035805403
30
0
41
1
10
-0.280165420428744
20
-13.2210378447893
30
0
41
1
10
-0.291724026717901
20
-13.2174954056764
30
0
41
1
10
-0.297434239926218
20
-13.2170478231028
30
0
41
1
10
-0.307017153148138
20
-13.2191501561731
30
0
41
1
10
-0.31103734398846
20
-13.2216818248394
30
0
41
1
10
-0.317953792557944
20
-13.2295101004107
30
0
41
1
10
-0.320563452409544
20
-13.2353395273908
30
0
41
1
10
-0.324198214848991
20
-13.249462399411
30
0
41
1
10
-0.324980947171071
20
-13.2581224284342
30
0
41
1
10
-0.324980947170701
20
-13.2672449924339
30
0
0
SPLINE
5
17F
100
AcDbEntity
8
1
62
256
6
ByLayer
370
18
48
1
60
0
100
AcDbSpline
70
4
71
3
72
12
73
8
40
0
40
0
40
0
40
0
40
0.0382932016717372
40
0.0382932016717372
40
0.384698297901305
40
0.384698297901305
40
1
40
1
40
1
40
1
41
1
10
-0.32498094716172
20
-13.4707590466701
30
0
41
1
10
-0.32498094716172
20
-13.4733236754212
30
0
41
1
10
-0.324914533088474
20
-13.4759353293386
30
0
41
1
10
-0.323660488241728
20
-13.5022660870475
30
0
41
1
10
-0.317976480917281
20
-13.5289763418102
30
0
41
1
10
-0.29632149397753
20
-13.6036020518143
30
0
41
1
10
-0.275247881244127
20
-13.6540352131323
30
0
41
1
10
-0.249980947161703
20
-13.7033325990739
30
0
0
SPLINE
5
180
100
AcDbEntity
8
1
62
256
6
ByLayer
370
18
48
1
60
0
100
AcDbSpline
70
4
71
3
72
12
73
8
40
0
40
0
40
0
40
0
40
0.291766844837991
40
0.291766844837991
40
0.792929809007734
40
0.792929809007734
40
1
40
1
40
1
40
1
41
1
10
-0.249980947161674
20
13.7033325990739
30
0
41
1
10
-0.262059461628979
20
13.6797666536627
30
0
41
1
10
-0.273081794683691
20
13.656055544321
30
0
41
1
10
-0.299521508835284
20
13.5924397503834
30
0
41
1
10
-0.313046098828693
20
13.5520592894348
30
0
41
1
10
-0.323129365633236
20
13.4994708163577
30
0
41
1
10
-0.324980947160441
20
13.4844495675558
30
0
41
1
10
-0.324980947161663
20
13.4707590466832
30
0
0
SPLINE
5
181
100
AcDbEntity
8
1
62
256
6
ByLayer
370
18
48
1
60
0
100
AcDbSpline
70
4
71
3
72
8
73
4
40
0
40
0
40
0
40
0
40
1
40
1
40
1
40
1
41
1
10
-0.249980947161674
20
-13.7033325990739
30
0
41
1
10
-0.0406455446070595
20
-14.1117592050607
30
0
41
1
10
0.174425330040947
20
-14.516324377639
30
0
41
1
10
0.394519052838319
20
-14.9171390202628
30
0
0
SPLINE
5
182
100
AcDbEntity
8
1
62
256
6
ByLayer
370
18
48
1
60
0
100
AcDbSpline
70
4
71
3
72
8
73
4
40
0
40
0
40
0
40
0
40
1
40
1
40
1
40
1
41
1
10
0.394519052838348
20
14.9171390202628
30
0
41
1
10
0.174425330040947
20
14.516324377639
30
0
41
1
10
-0.0406455446070595
20
14.1117592050607
30
0
41
1
10
-0.249980947161674
20
13.7033325990739
30
0
0
SPLINE
5
183
100
AcDbEntity
8
1
62
256
6
ByLayer
370
18
48
1
60
0
100
AcDbSpline
70
4
71
3
72
22
73
18
40
0
40
0
40
0
40
0
40
0.165026221612059
40
0.165026221612059
40
0.454888812544956
40
0.454888812544956
40
0.616938144332745
40
0.616938144332745
40
0.715342887853494
40
0.715342887853494
40
0.778547736611835
40
0.778547736611835
40
0.852815616713979
40
0.852815616713979
40
0.939597453784172
40
0.939597453784172
40
1
40
1
40
1
40
1
41
1
10
0.394519052838319
20
-14.9171390202628
30
0
41
1
10
0.407077678829808
20
-14.9400096461246
30
0
41
1
10
0.418700289927216
20
-14.9629721962769
30
0
41
1
10
0.447445713169003
20
-15.0253267629505
30
0
41
1
10
0.462725220823472
20
-15.065074688198
30
0
41
1
10
0.476831674567649
20
-15.1217726497934
30
0
41
1
10
0.48000791264846
20
-15.1414893474387
30
0
41
1
10
0.479124696152013
20
-15.1682851060533
30
0
41
1
10
0.477348176262637
20
-15.1774581090455
30
0
41
1
10
0.470961777603236
20
-15.1886184560727
30
0
41
1
10
0.467515728943567
20
-15.1920505872095
30
0
41
1
10
0.458012524801461
20
-15.1963973904129
30
0
41
1
10
0.451418654021182
20
-15.1967878114455
30
0
41
1
10
0.435455897941495
20
-15.1932159619238
30
0
41
1
10
0.425540849239837
20
-15.1885069696644
30
0
41
1
10
0.408653238363001
20
-15.1777590578898
30
0
41
1
10
0.401545871754166
20
-15.1724877232411
30
0
41
1
10
0.394519052838319
20
-15.166722678307
30
0
0
SPLINE
5
184
100
AcDbEntity
8
1
62
256
6
ByLayer
370
18
48
1
60
0
100
AcDbSpline
70
4
71
3
72
22
73
18
40
0
40
0
40
0
40
0
40
0.0356604719928324
40
0.0356604719928324
40
0.114790254781547
40
0.114790254781547
40
0.181627545591656
40
0.181627545591656
40
0.257822201854789
40
0.257822201854789
40
0.332962977630064
40
0.332962977630064
40
0.510811804309237
40
0.510811804309237
40
0.685452375305511
40
0.685452375305511
40
1
40
1
40
1
40
1
41
1
10
0.394519052838319
20
15.1667226783067
30
0
41
1
10
0.398703383680527
20
15.17015564785
30
0
41
1
10
0.402907924232011
20
15.1734074191566
30
0
41
1
10
0.416302421604286
20
15.1830215404524
30
0
41
1
10
0.425599323042917
20
15.1885282570572
30
0
41
1
10
0.441382973977852
20
15.1949059312805
30
0
41
1
10
0.448237679219602
20
15.1963915399305
30
0
41
1
10
0.460630160135679
20
15.1958528695878
30
0
41
1
10
0.466047174658286
20
15.1933015194689
30
0
41
1
10
0.473814074127688
20
15.1849082348473
30
0
41
1
10
0.476358308188395
20
15.1790562776074
30
0
41
1
10
0.481247111523743
20
15.1565997747607
30
0
41
1
10
0.479208225768389
20
15.1357287826682
30
0
41
1
10
0.470164967175464
20
15.0925501744984
30
0
41
1
10
0.463039580775018
20
15.0695055028691
30
0
41
1
10
0.438918046351972
20
15.0042762027091
30
0
41
1
10
0.418272361414779
20
14.9603963824774
30
0
41
1
10
0.394519052838348
20
14.9171390202628
30
0
0
SPLINE
5
185
100
AcDbEntity
8
1
62
256
6
ByLayer
370
18
48
1
60
0
100
AcDbSpline
70
4
71
3
72
8
73
4
40
0
40
0
40
0
40
0
40
1
40
1
40
1
40
1
41
1
10
-0.249980947160765
20
14.6378611567675
30
0
41
1
10
-0.035160531136512
20
14.8141693177327
30
0
41
1
10
0.179673252606676
20
14.9904557633514
30
0
41
1
10
0.394519052838319
20
15.1667226783066
30
0
0
SPLINE
5
186
100
AcDbEntity
8
1
62
256
6
ByLayer
370
18
48
1
60
0
100
AcDbSpline
70
4
71
3
72
8
73
4
40
0
40
0
40
0
40
0
40
1
40
1
40
1
40
1
41
1
10
0.394519052838319
20
-15.1667226783066
30
0
41
1
10
0.179673252606676
20
-14.9904557633514
30
0
41
1
10
-0.035160531136512
20
-14.8141693177327
30
0
41
1
10
-0.249980947160793
20
-14.6378611567675
30
0
0
SPLINE
5
187
100
AcDbEntity
8
1
62
256
6
ByLayer
370
18
48
1
60
0
100
AcDbSpline
70
4
71
3
72
18
73
14
40
0
40
0
40
0
40
0
40
0.0266914892419243
40
0.0266914892419243
40
0.278125318809188
40
0.278125318809188
40
0.439092586095398
40
0.439092586095398
40
0.627343885655857
40
0.627343885655857
40
0.84722736560107
40
0.84722736560107
40
1
40
1
40
1
40
1
41
1
10
-0.324980947161691
20
14.6482797132063
30
0
41
1
10
-0.324980947161691
20
14.6472983237552
30
0
41
1
10
-0.324966835007814
20
14.6463275807696
30
0
41
1
10
-0.324668751520278
20
14.6364254441561
30
0
41
1
10
-0.323098291485138
20
14.6283387801472
30
0
41
1
10
-0.317419998019574
20
14.6185224173724
30
0
41
1
10
-0.314360382541878
20
14.6155103653912
30
0
41
1
10
-0.305943852928095
20
14.6117158340747
30
0
41
1
10
-0.300123292160237
20
14.6113803442181
30
0
41
1
10
-0.28603824767751
20
14.6145346924841
30
0
41
1
10
-0.277294099717778
20
14.6186816036047
30
0
41
1
10
-0.262415921837828
20
14.6281492818557
30
0
41
1
10
-0.256162478716959
20
14.6327878286321
30
0
41
1
10
-0.249980947160765
20
14.6378611567673
30
0
0
SPLINE
5
188
100
AcDbEntity
8
1
62
256
6
ByLayer
370
18
48
1
60
0
100
AcDbSpline
70
4
71
3
72
18
73
14
40
0
40
0
40
0
40
0
40
0.0912505451515168
40
0.0912505451515168
40
0.292448424843187
40
0.292448424843187
40
0.459062484295475
40
0.459062484295475
40
0.625337228106276
40
0.625337228106276
40
0.827306615495433
40
0.827306615495433
40
1
40
1
40
1
40
1
41
1
10
-0.249980947160765
20
-14.6378611567675
30
0
41
1
10
-0.253689271776352
20
-14.6348176476572
30
0
41
1
10
-0.257416084496612
20
-14.6319359920037
30
0
41
1
10
-0.269237461406505
20
-14.6234603308767
30
0
41
1
10
-0.277427723684014
20
-14.6186211310805
30
0
41
1
10
-0.291210931737538
20
-14.6130740659361
30
0
41
1
10
-0.297138770455916
20
-14.6117749820166
30
0
41
1
10
-0.307224062394568
20
-14.6120981946817
30
0
41
1
10
-0.31150813356652
20
-14.6137148518036
30
0
41
1
10
-0.318800509149071
20
-14.6198418750797
30
0
41
1
10
-0.321481528253599
20
-14.6249402069886
30
0
41
1
10
-0.32440144962959
20
-14.6361022616813
30
0
41
1
10
-0.324980947163937
20
-14.6419894989028
30
0
41
1
10
-0.324980947163851
20
-14.6482797132045
30
0
0
SPLINE
5
189
100
AcDbEntity
8
1
62
256
6
ByLayer
370
18
48
1
60
0
100
AcDbSpline
70
4
71
3
72
12
73
8
40
0
40
0
40
0
40
0
40
0.130630021320441
40
0.130630021320441
40
0.459481646444068
40
0.459481646444068
40
1
40
1
40
1
40
1
41
1
10
-0.324980947165955
20
-14.8124623350326
30
0
41
1
10
-0.324980947165045
20
-14.8194287506433
30
0
41
1
10
-0.32423303565048
20
-14.8269866907195
30
0
41
1
10
-0.319699525179459
20
-14.8545668106014
30
0
41
1
10
-0.313065159020596
20
-14.8764659336491
30
0
41
1
10
-0.290869165118437
20
-14.9350764040869
30
0
41
1
10
-0.271910386071767
20
-14.973513323455
30
0
41
1
10
-0.249980947161703
20
-15.011305873316
30
0
0
SPLINE
5
18A
100
AcDbEntity
8
1
62
256
6
ByLayer
370
18
48
1
60
0
100
AcDbSpline
70
4
71
3
72
12
73
8
40
0
40
0
40
0
40
0
40
0.306500811162929
40
0.306500811162929
40
0.761715889684208
40
0.761715889684208
40
1
40
1
40
1
40
1
41
1
10
-0.249980947161674
20
15.011305873316
30
0
41
1
10
-0.262512944022546
20
14.989708598613
30
0
41
1
10
-0.273999713189198
20
14.9679953734617
30
0
41
1
10
-0.299099798672415
20
14.9150040044866
30
0
41
1
10
-0.311510242767753
20
14.8834060296336
30
0
41
1
10
-0.322563957303316
20
14.8395827836259
30
0
41
1
10
-0.324980947160412
20
14.8250665622847
30
0
41
1
10
-0.324980947161691
20
14.8124623350354
30
0
0
SPLINE
5
18B
100
AcDbEntity
8
1
62
256
6
ByLayer
370
18
48
1
60
0
100
AcDbSpline
70
4
71
3
72
8
73
4
40
0
40
0
40
0
40
0
40
1
40
1
40
1
40
1
41
1
10
-0.249980947161674
20
-15.011305873316
30
0
41
1
10
-0.0390955465932166
20
-15.3747395684788
30
0
41
1
10
0.175900366251454
20
-15.7350293608484
30
0
41
1
10
0.394519052838319
20
-16.0923183384427
30
0
0
SPLINE
5
18C
100
AcDbEntity
8
1
62
256
6
ByLayer
370
18
48
1
60
0
100
AcDbSpline
70
4
71
3
72
8
73
4
40
0
40
0
40
0
40
0
40
1
40
1
40
1
40
1
41
1
10
0.394519052838319
20
16.0923183384427
30
0
41
1
10
0.175900366251454
20
15.7350293608484
30
0
41
1
10
-0.0390955465932166
20
15.3747395684788
30
0
41
1
10
-0.249980947161674
20
15.011305873316
30
0
0
SPLINE
5
18D
100
AcDbEntity
8
1
62
256
6
ByLayer
370
18
48
1
60
0
100
AcDbSpline
70
4
71
3
72
22
73
18
40
0
40
0
40
0
40
0
40
0.170988702315837
40
0.170988702315837
40
0.43105795073853
40
0.43105795073853
40
0.586229935461476
40
0.586229935461476
40
0.687035298708567
40
0.687035298708567
40
0.759195850643413
40
0.759195850643413
40
0.843290080874989
40
0.843290080874989
40
0.926491304969792
40
0.926491304969792
40
1
40
1
40
1
40
1
41
1
10
0.394519052838319
20
-16.0923183384427
30
0
41
1
10
0.407760990258737
20
-16.1139596645167
30
0
41
1
10
0.420037007475884
20
-16.1356652228069
30
0
41
1
10
0.447641810888115
20
-16.1892697067983
30
0
41
1
10
0.461736002340217
20
-16.221409495349
30
0
41
1
10
0.475882935738071
20
-16.2677842140924
30
0
41
1
10
0.479375412191047
20
-16.2843831431511
30
0
41
1
10
0.479605597672389
20
-16.3070952746492
30
0
41
1
10
0.478225096261923
20
-16.3149947254796
30
0
41
1
10
0.472363983680793
20
-16.3246388662849
30
0
41
1
10
0.468794986962962
20
-16.3275424378988
30
0
41
1
10
0.458796216414981
20
-16.3304169692215
30
0
41
1
10
0.451806797757911
20
-16.3298354226417
30
0
41
1
10
0.436255233375533
20
-16.3247358671331
30
0
41
1
10
0.427514619923556
20
-16.3202371938526
30
0
41
1
10
0.410743385060698
20
-16.309506365058
30
0
41
1
10
0.402605555724818
20
-16.303468934732
30
0
41
1
10
0.394519052838348
20
-16.2968648471028
30
0
0
SPLINE
5
18E
100
AcDbEntity
8
1
62
256
6
ByLayer
370
18
48
1
60
0
100
AcDbSpline
70
4
71
3
72
22
73
18
40
0
40
0
40
0
40
0
40
0.035654535242771
40
0.035654535242771
40
0.128101411618624
40
0.128101411618624
40
0.20226229648323
40
0.20226229648323
40
0.289882316490257
40
0.289882316490257
40
0.376304208158899
40
0.376304208158899
40
0.51092896593301
40
0.51092896593301
40
0.670404978801651
40
0.670404978801651
40
1
40
1
40
1
40
1
41
1
10
0.394519052838319
20
16.2968648471027
30
0
41
1
10
0.398472598913258
20
16.3000936303098
30
0
41
1
10
0.402429365030258
20
16.3031803090136
30
0
41
1
10
0.416457509060422
20
16.313530506219
30
0
41
1
10
0.426574512986747
20
16.3198605292104
30
0
41
1
10
0.443177491108116
20
16.327395870123
30
0
41
1
10
0.450136688280111
20
16.3294051471908
30
0
41
1
10
0.462873638298646
20
16.3300521396582
30
0
41
1
10
0.468414125842031
20
16.3280074439739
30
0
41
1
10
0.475922004905527
20
16.3201498016436
30
0
41
1
10
0.478099010783041
20
16.3143381712665
30
0
41
1
10
0.480401196412089
20
16.296854225777
30
0
41
1
10
0.478867898182983
20
16.2834843725116
30
0
41
1
10
0.471783394713725
20
16.2522836809832
30
0
41
1
10
0.465468257674246
20
16.233672835813
30
0
41
1
10
0.441913681432311
20
16.1756351594972
30
0
41
1
10
0.419801188035876
20
16.1336369849735
30
0
41
1
10
0.394519052838348
20
16.0923183384427
30
0
0
SPLINE
5
18F
100
AcDbEntity
8
1
62
256
6
ByLayer
370
18
48
1
60
0
100
AcDbSpline
70
4
71
3
72
8
73
4
40
0
40
0
40
0
40
0
40
1
40
1
40
1
40
1
41
1
10
-0.249980947161191
20
15.770510440166
30
0
41
1
10
-0.0351481695532812
20
15.945962816426
30
0
41
1
10
0.179685181728644
20
16.1214142561083
30
0
41
1
10
0.394519052838319
20
16.2968648471026
30
0
0
SPLINE
5
190
100
AcDbEntity
8
1
62
256
6
ByLayer
370
18
48
1
60
0
100
AcDbSpline
70
4
71
3
72
8
73
4
40
0
40
0
40
0
40
0
40
1
40
1
40
1
40
1
41
1
10
0.394519052838319
20
-16.2968648471026
30
0
41
1
10
0.179685181728473
20
-16.1214142561081
30
0
41
1
10
-0.0351481695535938
20
-15.9459628164257
30
0
41
1
10
-0.249980947161674
20
-15.7705104401656
30
0
0
SPLINE
5
191
100
AcDbEntity
8
1
62
256
6
ByLayer
370
18
48
1
60
0
100
AcDbSpline
70
4
71
3
72
16
73
12
40
0
40
0
40
0
40
0
40
0.233882898205476
40
0.233882898205476
40
0.411074815471753
40
0.411074815471753
40
0.616733596157001
40
0.616733596157001
40
0.820265704622555
40
0.820265704622555
40
1
40
1
40
1
40
1
41
1
10
-0.324980947161663
20
15.7678282405416
30
0
41
1
10
-0.324980947161663
20
15.7605037080438
30
0
41
1
10
-0.323771710814128
20
15.7540555129293
30
0
41
1
10
-0.318791008349706
20
15.7458657822589
30
0
41
1
10
-0.315640504608439
20
15.7433213860411
30
0
41
1
10
-0.306808277672815
20
15.7408261943328
30
0
41
1
10
-0.300639900226571
20
15.7413488729786
30
0
41
1
10
-0.286897820481499
20
15.7458626334012
30
0
41
1
10
-0.279167049677596
20
15.7498391375718
30
0
41
1
10
-0.264332053878405
20
15.7593292671481
30
0
41
1
10
-0.257133799152257
20
15.764668757659
30
0
41
1
10
-0.249980947161219
20
15.7705104401659
30
0
0
SPLINE
5
192
100
AcDbEntity
8
1
62
256
6
ByLayer
370
18
48
1
60
0
100
AcDbSpline
70
4
71
3
72
18
73
14
40
0
40
0
40
0
40
0
40
0.0137841237915144
40
0.0137841237915144
40
0.260612031722682
40
0.260612031722682
40
0.438046892909764
40
0.438046892909764
40
0.644909823572498
40
0.644909823572498
40
0.84956458654079
40
0.84956458654079
40
1
40
1
40
1
40
1
41
1
10
-0.249980947161674
20
-15.7705104401656
30
0
41
1
10
-0.250534089826971
20
-15.7700586925501
30
0
41
1
10
-0.251087196815177
20
-15.7696101793364
30
0
41
1
10
-0.261431596246382
20
-15.7612832042177
30
0
41
1
10
-0.271359399745677
20
-15.7543401173141
30
0
41
1
10
-0.287190897498419
20
-15.7458606684657
30
0
41
1
10
-0.293565917025177
20
-15.7433107612256
30
0
41
1
10
-0.305586944128237
20
-15.7408167126847
30
0
41
1
10
-0.311112490389462
20
-15.7413647335261
30
0
41
1
10
-0.319163331965342
20
-15.7459428960202
30
0
41
1
10
-0.32186780661084
20
-15.7499564226083
30
0
41
1
10
-0.324484365155087
20
-15.7587571668661
30
0
41
1
10
-0.324980947162345
20
-15.763101472641
30
0
41
1
10
-0.324980947162317
20
-15.767828240541
30
0
0
SPLINE
5
193
100
AcDbEntity
8
1
62
256
6
ByLayer
370
18
48
1
60
0
100
AcDbSpline
70
4
71
3
72
12
73
8
40
0
40
0
40
0
40
0
40
0.162050940068138
40
0.162050940068138
40
0.464994586882649
40
0.464994586882649
40
1
40
1
40
1
40
1
41
1
10
-0.324980947167688
20
-15.9014694779983
30
0
41
1
10
-0.32498094716675
20
-15.9084323242163
30
0
41
1
10
-0.323850221825467
20
-15.9163565802759
30
0
41
1
10
-0.31834786032141
20
-15.9404195022313
30
0
41
1
10
-0.311991203969427
20
-15.9579823894175
30
0
41
1
10
-0.290304587522939
20
-16.0075035038982
30
0
41
1
10
-0.271436485838422
20
-16.0413667809981
30
0
41
1
10
-0.249980947161674
20
-16.0747405491864
30
0
0
SPLINE
5
194
100
AcDbEntity
8
1
62
256
6
ByLayer
370
18
48
1
60
0
100
AcDbSpline
70
4
71
3
72
12
73
8
40
0
40
0
40
0
40
0
40
0.419752243738243
40
0.419752243738243
40
0.804535157058287
40
0.804535157058287
40
1
40
1
40
1
40
1
41
1
10
-0.249980947161674
20
16.0747405491864
30
0
41
1
10
-0.266894165469012
20
16.0484322921153
30
0
41
1
10
-0.28211454650426
20
16.021929547067
30
0
41
1
10
-0.30600265592625
20
15.9731746147681
30
0
41
1
10
-0.315393057316697
20
15.9502027056823
30
0
41
1
10
-0.323351048349764
20
15.9195916432662
30
0
41
1
10
-0.324980947174708
20
15.909837292279
30
0
41
1
10
-0.3249809471763
20
15.9014694779916
30
0
0
SPLINE
5
195
100
AcDbEntity
8
1
62
256
6
ByLayer
370
18
48
1
60
0
100
AcDbSpline
70
4
71
3
72
8
73
4
40
0
40
0
40
0
40
0
40
1
40
1
40
1
40
1
41
1
10
-0.249980947161674
20
-16.0747405491864
30
0
41
1
10
-0.0380834512813806
20
-16.4043439217116
30
0
41
1
10
0.176865425835672
20
-16.7313555006636
30
0
41
1
10
0.394519052838319
20
-17.0559192792915
30
0
0
SPLINE
5
196
100
AcDbEntity
8
1
62
256
6
ByLayer
370
18
48
1
60
0
100
AcDbSpline
70
4
71
3
72
8
73
4
40
0
40
0
40
0
40
0
40
1
40
1
40
1
40
1
41
1
10
0.394519052838319
20
17.0559192792915
30
0
41
1
10
0.176865425835672
20
16.7313555006636
30
0
41
1
10
-0.0380834512813806
20
16.4043439217116
30
0
41
1
10
-0.249980947161674
20
16.0747405491864
30
0
0
SPLINE
5
197
100
AcDbEntity
8
1
62
256
6
ByLayer
370
18
48
1
60
0
100
AcDbSpline
70
4
71
3
72
22
73
18
40
0
40
0
40
0
40
0
40
0.131042025794635
40
0.131042025794635
40
0.383073453581624
40
0.383073453581624
40
0.541367220042303
40
0.541367220042303
40
0.648224611150245
40
0.648224611150245
40
0.728073891523138
40
0.728073891523138
40
0.821252455111972
40
0.821252455111972
40
0.913423995875175
40
0.913423995875175
40
1
40
1
40
1
40
1
41
1
10
0.394519052838319
20
-17.0559192792915
30
0
41
1
10
0.404856086709799
20
-17.0713338019868
30
0
41
1
10
0.414636719070813
20
-17.0867436085574
30
0
41
1
10
0.440970408785972
20
-17.1309368327234
30
0
41
1
10
0.456000818241051
20
-17.1597644317135
30
0
41
1
10
0.472816231978697
20
-17.2020532232456
30
0
41
1
10
0.47755069896624
20
-17.2175958445497
30
0
41
1
10
0.480038448355401
20
-17.2390790098101
30
0
41
1
10
0.47952737640793
20
-17.2466475385485
30
0
41
1
10
0.474965858302028
20
-17.2559408108655
30
0
41
1
10
0.471769914679072
20
-17.2587097950697
30
0
41
1
10
0.462269640735769
20
-17.2611518291119
30
0
41
1
10
0.455358894415212
20
-17.2602420820977
30
0
41
1
10
0.439641974252623
20
-17.2544403670075
30
0
41
1
10
0.430660026879565
20
-17.2495589658621
30
0
41
1
10
0.412709940945518
20
-17.2377597598622
30
0
41
1
10
0.403609451266078
20
-17.2308997470834
30
0
41
1
10
0.394519052838348
20
-17.2234180953957
30
0
0
SPLINE
5
198
100
AcDbEntity
8
1
62
256
6
ByLayer
370
18
48
1
60
0
100
AcDbSpline
70
4
71
3
72
22
73
18
40
0
40
0
40
0
40
0
40
0.0384921088132372
40
0.0384921088132372
40
0.142798899734864
40
0.142798899734864
40
0.223016998384412
40
0.223016998384412
40
0.31592848388474
40
0.31592848388474
40
0.407799894142344
40
0.407799894142344
40
0.53726856973382
40
0.53726856973382
40
0.701411190138787
40
0.701411190138787
40
1
40
1
40
1
40
1
41
1
10
0.394519052838319
20
17.2234180953956
30
0
41
1
10
0.398595167850885
20
17.2267728518461
30
0
41
1
10
0.402663159305263
20
17.2299950066617
30
0
41
1
10
0.417512005770021
20
17.2412280359862
30
0
41
1
10
0.428262599959282
20
17.2482913046945
30
0
41
1
10
0.44537439240554
20
17.2568742677526
30
0
41
1
10
0.452320905579114
20
17.2593444428697
30
0
41
1
10
0.464797218159873
20
17.261068231578
30
0
41
1
10
0.470114453109261
20
17.2597551858967
30
0
41
1
10
0.477087707393224
20
17.2532675786086
30
0
41
1
10
0.478926880891862
20
17.2480957763304
30
0
41
1
10
0.480049244674717
20
17.2328948453491
30
0
41
1
10
0.478087556028214
20
17.2215574006706
30
0
41
1
10
0.470002320026282
20
17.1937000427357
30
0
41
1
10
0.462832964494112
20
17.1762266313491
30
0
41
1
10
0.438602827032781
20
17.1257850172184
30
0
41
1
10
0.417818970582204
20
17.0906639763996
30
0
41
1
10
0.394519052838348
20
17.0559192792915
30
0
0
SPLINE
5
199
100
AcDbEntity
8
1
62
256
6
ByLayer
370
18
48
1
60
0
100
AcDbSpline
70
4
71
3
72
8
73
4
40
0
40
0
40
0
40
0
40
1
40
1
40
1
40
1
41
1
10
-0.249980947161418
20
16.6928433719955
30
0
41
1
10
-0.0351663712000629
20
16.8697319891465
30
0
41
1
10
0.179667539911037
20
17.0465893021274
30
0
41
1
10
0.394519052838319
20
17.2234180953956
30
0
0
SPLINE
5
19A
100
AcDbEntity
8
1
62
256
6
ByLayer
370
18
48
1
60
0
100
AcDbSpline
70
4
71
3
72
8
73
4
40
0
40
0
40
0
40
0
40
1
40
1
40
1
40
1
41
1
10
0.394519052838319
20
-17.2234180953956
30
0
41
1
10
0.179667539911009
20
-17.0465893021274
30
0
41
1
10
-0.0351663712000914
20
-16.8697319891465
30
0
41
1
10
-0.249980947161418
20
-16.6928433719955
30
0
0
SPLINE
5
19B
100
AcDbEntity
8
1
62
256
6
ByLayer
370
18
48
1
60
0
100
AcDbSpline
70
4
71
3
72
16
73
12
40
0
40
0
40
0
40
0
40
0.165944412562498
40
0.165944412562498
40
0.355744140445825
40
0.355744140445825
40
0.576412811911732
40
0.576412811911732
40
0.794754312892073
40
0.794754312892073
40
1
40
1
40
1
40
1
41
1
10
-0.324980947162004
20
16.6786305280169
30
0
41
1
10
-0.324980947162004
20
16.6741989633861
30
0
41
1
10
-0.324313016982615
20
16.6703136930314
30
0
41
1
10
-0.321158558554828
20
16.6637899404546
30
0
41
1
10
-0.318359036730527
20
16.6613767500816
30
0
41
1
10
-0.309994853634834
20
16.6592919077345
30
0
41
1
10
-0.303900135764508
20
16.660121893933
30
0
41
1
10
-0.29000507100929
20
16.6652914215173
30
0
41
1
10
-0.282049955933388
20
16.6696246650582
30
0
41
1
10
-0.266132415192516
20
16.680102122491
30
0
41
1
10
-0.258052993990617
20
16.6861964617715
30
0
41
1
10
-0.249980947161418
20
16.6928433719954
30
0
0
SPLINE
5
19C
100
AcDbEntity
8
1
62
256
6
ByLayer
370
18
48
1
60
0
100
AcDbSpline
70
4
71
3
72
16
73
12
40
0
40
0
40
0
40
0
40
0.232615505639717
40
0.232615505639717
40
0.421779942386582
40
0.421779942386582
40
0.626834333390738
40
0.626834333390738
40
0.860705581244278
40
0.860705581244278
40
1
40
1
40
1
40
1
41
1
10
-0.249980947161418
20
-16.6928433719954
30
0
41
1
10
-0.259109420845249
20
-16.6853265492685
30
0
41
1
10
-0.268265264489543
20
-16.6785042140017
30
0
41
1
10
-0.2839327559266
20
-16.6686182084702
30
0
41
1
10
-0.290736621045141
20
-16.6650372093721
30
0
41
1
10
-0.303280494303237
20
-16.6603335449382
30
0
41
1
10
-0.309034415686142
20
-16.6594100484281
30
0
41
1
10
-0.318404104340004
20
-16.6610655199581
30
0
41
1
10
-0.321776149719597
20
-16.6641644827684
30
0
41
1
10
-0.324509925620276
20
-16.6715608890287
30
0
41
1
10
-0.324980947161919
20
-16.6749006414288
30
0
41
1
10
-0.32498094716189
20
-16.678630528017
30
0
0
SPLINE
5
19D
100
AcDbEntity
8
1
62
256
6
ByLayer
370
18
48
1
60
0
100
AcDbSpline
70
4
71
3
72
12
73
8
40
0
40
0
40
0
40
0
40
0.212169538162126
40
0.212169538162126
40
0.501672965295393
40
0.501672965295393
40
1
40
1
40
1
40
1
41
1
10
-0.324980947173543
20
-16.7870313841534
30
0
41
1
10
-0.324980947172378
20
-16.7943104762386
30
0
41
1
10
-0.32308979428376
20
-16.8032870810781
30
0
41
1
10
-0.315715255916956
20
-16.8262966636271
30
0
41
1
10
-0.309094068569465
20
-16.8412601743114
30
0
41
1
10
-0.287583008921388
20
-16.8830332398094
30
0
41
1
10
-0.269800820179171
20
-16.911511971339
30
0
41
1
10
-0.249980947161703
20
-16.939753936379
30
0
0
SPLINE
5
19E
100
AcDbEntity
8
1
62
256
6
ByLayer
370
18
48
1
60
0
100
AcDbSpline
70
4
71
3
72
12
73
8
40
0
40
0
40
0
40
0
40
0.47326490505548
40
0.47326490505548
40
0.81697481540114
40
0.81697481540114
40
1
40
1
40
1
40
1
41
1
10
-0.249980947161674
20
16.939753936379
30
0
41
1
10
-0.268821131413944
20
16.9129079609012
30
0
41
1
10
-0.285793966152596
20
16.885881903662
30
0
41
1
10
-0.308761278058853
20
16.8422833192478
30
0
41
1
10
-0.316700819517479
20
16.8244275612491
30
0
41
1
10
-0.323564867151873
20
16.8008983003295
30
0
41
1
10
-0.324980947166523
20
16.793329465927
30
0
41
1
10
-0.324980947167205
20
16.7870313841585
30
0
0
SPLINE
5
19F
100
AcDbEntity
8
1
62
256
6
ByLayer
370
18
48
1
60
0
100
AcDbSpline
70
4
71
3
72
8
73
4
40
0
40
0
40
0
40
0
40
1
40
1
40
1
40
1
41
1
10
-0.249980947161674
20
-16.939753936379
30
0
41
1
10
-0.0373804354690037
20
-17.2426951415731
30
0
41
1
10
0.177537098598009
20
-17.5434843169751
30
0
41
1
10
0.394519052838319
20
-17.8422547739247
30
0
0
SPLINE
5
1A0
100
AcDbEntity
8
1
62
256
6
ByLayer
370
18
48
1
60
0
100
AcDbSpline
70
4
71
3
72
8
73
4
40
0
40
0
40
0
40
0
40
1
40
1
40
1
40
1
41
1
10
0.394519052838319
20
17.8422547739247
30
0
41
1
10
0.177537098598009
20
17.5434843169751
30
0
41
1
10
-0.0373804354690037
20
17.2426951415731
30
0
41
1
10
-0.249980947161674
20
16.939753936379
30
0
0
SPLINE
5
1A1
100
AcDbEntity
8
1
62
256
6
ByLayer
370
18
48
1
60
0
100
AcDbSpline
70
4
71
3
72
22
73
18
40
0
40
0
40
0
40
0
40
0.0996009383894909
40
0.0996009383894909
40
0.342283511585808
40
0.342283511585808
40
0.500930550393347
40
0.500930550393347
40
0.611741140765428
40
0.611741140765428
40
0.698354218185848
40
0.698354218185848
40
0.799946951367918
40
0.799946951367918
40
0.90039410404025
40
0.90039410404025
40
1
40
1
40
1
40
1
41
1
10
0.394519052838319
20
-17.8422547739247
30
0
41
1
10
0.402514156738278
20
-17.8532635274126
30
0
41
1
10
0.410195410625647
20
-17.8642416153249
30
0
41
1
10
0.435056494855388
20
-17.9012826679856
30
0
41
1
10
0.450672548658815
20
-17.9272440214238
30
0
41
1
10
0.469507950899299
20
-17.9657553997812
30
0
41
1
10
0.475277139513196
20
-17.9801687429301
30
0
41
1
10
0.479790919031018
20
-18.000219343869
30
0
41
1
10
0.480118978036785
20
-18.0073366577445
30
0
41
1
10
0.476914865968894
20
-18.0160872377471
30
0
41
1
10
0.474147438762969
20
-18.0186306360141
30
0
41
1
10
0.465263962606372
20
-18.0204602901618
30
0
41
1
10
0.458484729048393
20
-18.0191155281399
30
0
41
1
10
0.442724613280035
20
-18.0124220375215
30
0
41
1
10
0.433572505425246
20
-18.0070735891332
30
0
41
1
10
0.414587426887323
20
-17.9940548718637
30
0
41
1
10
0.404574643246065
20
-17.9863011376089
30
0
41
1
10
0.394519052838348
20
-17.9778880275986
30
0
0
SPLINE
5
1A2
100
AcDbEntity
8
1
62
256
6
ByLayer
370
18
48
1
60
0
100
AcDbSpline
70
4
71
3
72
22
73
18
40
0
40
0
40
0
40
0
40
0.0443544830707036
40
0.0443544830707036
40
0.159231975096872
40
0.159231975096872
40
0.244809661143529
40
0.244809661143529
40
0.341142586698703
40
0.341142586698703
40
0.436639026665966
40
0.436639026665966
40
0.563389943072091
40
0.563389943072091
40
0.727084273793224
40
0.727084273793224
40
1
40
1
40
1
40
1
41
1
10
0.394519052838319
20
17.9778880275985
30
0
41
1
10
0.399036008183401
20
17.9816671833407
30
0
41
1
10
0.403531993006226
20
17.9853037513096
30
0
41
1
10
0.419355141826031
20
17.997592826459
30
0
41
1
10
0.430569122266689
20
18.0053266043315
30
0
41
1
10
0.447941029922419
20
18.014897702119
30
0
41
1
10
0.454798452217489
20
18.01779090349
30
0
41
1
10
0.46678701114422
20
18.0204638772606
30
0
41
1
10
0.471754989419225
20
18.0198206699188
30
0
41
1
10
0.478032212565267
20
18.0146963943843
30
0
41
1
10
0.479492688712298
20
18.0102162856553
30
0
41
1
10
0.479553127236159
20
17.9969443103709
30
0
41
1
10
0.477135407653805
20
17.9870683640632
30
0
41
1
10
0.468055311623289
20
17.9621642454125
30
0
41
1
10
0.460279573202712
20
17.9461328495388
30
0
41
1
10
0.435797416086814
20
17.902007127528
30
0
41
1
10
0.416166898633293
20
17.872062491358
30
0
41
1
10
0.394519052838319
20
17.8422547739247
30
0
0
SPLINE
5
1A3
100
AcDbEntity
8
1
62
256
6
ByLayer
370
18
48
1
60
0
100
AcDbSpline
70
4
71
3
72
8
73
4
40
0
40
0
40
0
40
0
40
1
40
1
40
1
40
1
41
1
10
-0.249980947161504
20
17.438263679064
30
0
41
1
10
-0.0352037617522569
20
17.6182278416682
30
0
41
1
10
0.179631255542319
20
17.7981000086727
30
0
41
1
10
0.394519052838319
20
17.9778880275985
30
0
0
SPLINE
5
1A4
100
AcDbEntity
8
1
62
256
6
ByLayer
370
18
48
1
60
0
100
AcDbSpline
70
4
71
3
72
8
73
4
40
0
40
0
40
0
40
0
40
1
40
1
40
1
40
1
41
1
10
0.394519052838319
20
-17.9778880275985
30
0
41
1
10
0.17963125554229
20
-17.7981000086727
30
0
41
1
10
-0.0352037617522569
20
-17.6182278416682
30
0
41
1
10
-0.249980947161532
20
-17.438263679064
30
0
0
SPLINE
5
1A5
100
AcDbEntity
8
1
62
256
6
ByLayer
370
18
48
1
60
0
100
AcDbSpline
70
4
71
3
72
16
73
12
40
0
40
0
40
0
40
0
40
0.105005434330036
40
0.105005434330036
40
0.305020467446808
40
0.305020467446808
40
0.538919929864906
40
0.538919929864906
40
0.770234326559247
40
0.770234326559247
40
1
40
1
40
1
40
1
41
1
10
-0.324980947161691
20
17.4134725186275
30
0
41
1
10
-0.324980947161691
20
17.411119962308
30
0
41
1
10
-0.324688648690483
20
17.409025579498
30
0
41
1
10
-0.322904003239103
20
17.4039115445794
30
0
41
1
10
-0.320509550441642
20
17.4017164035059
30
0
41
1
10
-0.312728591230268
20
17.4002140532379
30
0
41
1
10
-0.306758661380002
20
17.4014538069154
30
0
41
1
10
-0.292827308714209
20
17.407461082519
30
0
41
1
10
-0.284715249652521
20
17.4122320588242
30
0
41
1
10
-0.267850422109802
20
17.4238421122452
30
0
41
1
10
-0.258936628568165
20
17.4307596152509
30
0
41
1
10
-0.249980947161532
20
17.4382636790639
30
0
0
SPLINE
5
1A6
100
AcDbEntity
8
1
62
256
6
ByLayer
370
18
48
1
60
0
100
AcDbSpline
70
4
71
3
72
16
73
12
40
0
40
0
40
0
40
0
40
0.236200395450628
40
0.236200395450628
40
0.437664912560542
40
0.437664912560542
40
0.641601987592416
40
0.641601987592416
40
0.865665641957767
40
0.865665641957767
40
1
40
1
40
1
40
1
41
1
10
-0.249980947161532
20
-17.4382636790639
30
0
41
1
10
-0.259183921816629
20
-17.4305524055219
30
0
41
1
10
-0.26834632408287
20
-17.4234578890948
30
0
41
1
10
-0.284325701687465
20
-17.4125402693704
30
0
41
1
10
-0.291405739683626
20
-17.4083255800805
30
0
41
1
10
-0.303959691525705
20
-17.4024812235317
30
0
41
1
10
-0.309542189271809
20
-17.4008411993784
30
0
41
1
10
-0.318533694836958
20
-17.4006997517748
30
0
41
1
10
-0.32180532139003
20
-17.4025246765792
30
0
41
1
10
-0.32450411397852
20
-17.4078942988141
30
0
41
1
10
-0.32498094716172
20
-17.410474826505
30
0
41
1
10
-0.32498094716172
20
-17.4134725186275
30
0
0
SPLINE
5
1A7
100
AcDbEntity
8
1
62
256
6
ByLayer
370
18
48
1
60
0
100
AcDbSpline
70
4
71
3
72
14
73
10
40
0
40
0
40
0
40
0
40
0.0066693109856912
40
0.0066693109856912
40
0.23468681251538
40
0.23468681251538
40
0.532407178518156
40
0.532407178518156
40
1
40
1
40
1
40
1
41
1
10
-0.324980947161663
20
-17.5000603949211
30
0
41
1
10
-0.324980947161663
20
-17.5002439900365
30
0
41
1
10
-0.324979061598498
20
-17.5004293085476
30
0
41
1
10
-0.324848799825389
20
-17.5069217872542
30
0
41
1
10
-0.322575271080751
20
-17.5152199018868
30
0
41
1
10
-0.314163599411501
20
-17.536392122987
30
0
41
1
10
-0.306978426105786
20
-17.5501847687632
30
0
41
1
10
-0.285223515491907
20
-17.5868892355834
30
0
41
1
10
-0.268411910255111
20
-17.6112459850686
30
0
41
1
10
-0.249980947161674
20
-17.6355675589553
30
0
0
SPLINE
5
1A8
100
AcDbEntity
8
1
62
256
6
ByLayer
370
18
48
1
60
0
100
AcDbSpline
70
4
71
3
72
14
73
10
40
0
40
0
40
0
40
0
40
0.0529859011686592
40
0.0529859011686592
40
0.513762945136161
40
0.513762945136161
40
0.826593430374573
40
0.826593430374573
40
1
40
1
40
1
40
1
41
1
10
-0.249980947161674
20
17.6355675589552
30
0
41
1
10
-0.252098223320388
20
17.6327735927218
30
0
41
1
10
-0.254190442382821
20
17.629983835738
30
0
41
1
10
-0.27401088966684
20
17.6032703638716
30
0
41
1
10
-0.290089958966007
20
17.5793909261422
30
0
41
1
10
-0.31085421003371
20
17.5429413036
30
0
41
1
10
-0.317711363292403
20
17.5288576775035
30
0
41
1
10
-0.323734576929695
20
17.5106212635558
30
0
41
1
10
-0.324980947163254
20
17.5047589732248
30
0
41
1
10
-0.32498094716351
20
17.5000603949206
30
0
0
SPLINE
5
1A9
100
AcDbEntity
8
1
62
256
6
ByLayer
370
18
48
1
60
0
100
AcDbSpline
70
4
71
3
72
8
73
4
40
0
40
0
40
0
40
0
40
1
40
1
40
1
40
1
41
1
10
-0.249980947161674
20
-17.6355675589553
30
0
41
1
10
-0.0368701453001563
20
-17.9167894401584
30
0
41
1
10
0.178025589846356
20
-18.1962188143275
30
0
41
1
10
0.394519052838319
20
-18.4739743524118
30
0
0
SPLINE
5
1AA
100
AcDbEntity
8
1
62
256
6
ByLayer
370
18
48
1
60
0
100
AcDbSpline
70
4
71
3
72
8
73
4
40
0
40
0
40
0
40
0
40
1
40
1
40
1
40
1
41
1
10
0.394519052838319
20
18.4739743524118
30
0
41
1
10
0.178025589846356
20
18.1962188143275
30
0
41
1
10
-0.0368701453001563
20
17.9167894401584
30
0
41
1
10
-0.249980947161674
20
17.6355675589552
30
0
0
SPLINE
5
1AB
100
AcDbEntity
8
1
62
256
6
ByLayer
370
18
48
1
60
0
100
AcDbSpline
70
4
71
3
72
22
73
18
40
0
40
0
40
0
40
0
40
0.114772355383792
40
0.114772355383792
40
0.334702371511462
40
0.334702371511462
40
0.483500756158271
40
0.483500756158271
40
0.576894421909459
40
0.576894421909459
40
0.669567522062991
40
0.669567522062991
40
0.779064164937133
40
0.779064164937133
40
0.887255425747213
40
0.887255425747213
40
1
40
1
40
1
40
1
41
1
10
0.394519052838319
20
-18.4739743524118
30
0
41
1
10
0.403874244675819
20
-18.4859768226333
30
0
41
1
10
0.412834536197835
20
-18.4979089444933
30
0
41
1
10
0.43721214638768
20
-18.531813020687
30
0
41
1
10
0.451507721099574
20
-18.5536051836108
30
0
41
1
10
0.469265973227067
20
-18.5858012962845
30
0
41
1
10
0.474860078033686
20
-18.5978845359754
30
0
41
1
10
0.479360105263339
20
-18.6135397770739
30
0
41
1
10
0.479981776712378
20
-18.6186915120958
30
0
41
1
10
0.478329528776044
20
-18.6260096094435
30
0
41
1
10
0.476033300873553
20
-18.6282532709774
30
0
41
1
10
0.467863799058961
20
-18.6293136503589
30
0
41
1
10
0.461262790967254
20
-18.6274379539824
30
0
41
1
10
0.445564647329064
20
-18.6196832248233
30
0
41
1
10
0.436302784384424
20
-18.6137918562315
30
0
41
1
10
0.416402452201055
20
-18.5993943551555
30
0
41
1
10
0.405514587422914
20
-18.5906614843193
30
0
41
1
10
0.394519052838348
20
-18.5812482082594
30
0
0
SPLINE
5
1AC
100
AcDbEntity
8
1
62
256
6
ByLayer
370
18
48
1
60
0
100
AcDbSpline
70
4
71
3
72
22
73
18
40
0
40
0
40
0
40
0
40
0.052402704037037
40
0.052402704037037
40
0.176911195342276
40
0.176911195342276
40
0.267182162122504
40
0.267182162122504
40
0.365848626664089
40
0.365848626664089
40
0.463881461402673
40
0.463881461402673
40
0.588497547024034
40
0.588497547024034
40
0.749171358829694
40
0.749171358829694
40
1
40
1
40
1
40
1
41
1
10
0.394519052838319
20
18.5812482082593
30
0
41
1
10
0.399678241747836
20
18.5856649893696
30
0
41
1
10
0.40479827299589
20
18.589919542682
30
0
41
1
10
0.421664916028163
20
18.6034373760455
30
0
41
1
10
0.433216805629144
20
18.6118395848942
30
0
41
1
10
0.450654695434935
20
18.6224154468732
30
0
41
1
10
0.457358651402529
20
18.6257293577357
30
0
41
1
10
0.46873152298042
20
18.6293104081995
30
0
41
1
10
0.47329303858595
20
18.6292892926581
30
0
41
1
10
0.478790786431148
20
18.6254762527657
30
0
41
1
10
0.479847343810348
20
18.6216837936205
30
0
41
1
10
0.478895027362512
20
18.6101348784836
30
0
41
1
10
0.476024660894098
20
18.6014561077749
30
0
41
1
10
0.466024409520742
20
18.5792014142595
30
0
41
1
10
0.457806838810228
20
18.5646342653364
30
0
41
1
10
0.433331336721494
20
18.5257981377012
30
0
41
1
10
0.414738013536436
20
18.499914758328
30
0
41
1
10
0.394519052838319
20
18.4739743524118
30
0
0
SPLINE
5
1AD
100
AcDbEntity
8
1
62
256
6
ByLayer
370
18
48
1
60
0
100
AcDbSpline
70
4
71
3
72
8
73
4
40
0
40
0
40
0
40
0
40
1
40
1
40
1
40
1
41
1
10
-0.249980947161589
20
18.02872875272
30
0
41
1
10
-0.0352562688701994
20
18.2130707755636
30
0
41
1
10
0.179580285593943
20
18.3972391510824
30
0
41
1
10
0.394519052838319
20
18.5812482082593
30
0
0
SPLINE
5
1AE
100
AcDbEntity
8
1
62
256
6
ByLayer
370
18
48
1
60
0
100
AcDbSpline
70
4
71
3
72
8
73
4
40
0
40
0
40
0
40
0
40
1
40
1
40
1
40
1
41
1
10
0.394519052838319
20
-18.5812482082593
30
0
41
1
10
0.179580285593943
20
-18.3972391510824
30
0
41
1
10
-0.0352562688701994
20
-18.2130707755636
30
0
41
1
10
-0.249980947161589
20
-18.02872875272
30
0
0
SPLINE
5
1AF
100
AcDbEntity
8
1
62
256
6
ByLayer
370
18
48
1
60
0
100
AcDbSpline
70
4
71
3
72
16
73
12
40
0
40
0
40
0
40
0
40
0.180935476453122
40
0.180935476453122
40
0.444410227486285
40
0.444410227486285
40
0.648700289754788
40
0.648700289754788
40
0.867168016113925
40
0.867168016113925
40
1
40
1
40
1
40
1
41
1
10
-0.249980947161589
20
-18.02872875272
30
0
41
1
10
-0.25702518471428
20
-18.0226812456975
30
0
41
1
10
-0.263997318186853
20
-18.0169601388965
30
0
41
1
10
-0.280421553849294
20
-18.0042837566079
30
0
41
1
10
-0.289778809121629
20
-17.9977929041239
30
0
41
1
10
-0.304023568660682
20
-17.9897141195596
30
0
41
1
10
-0.309560757536758
20
-17.9873012900097
30
0
41
1
10
-0.31844124311209
20
-17.9853634959566
30
0
41
1
10
-0.321715444542036
20
-17.9860379718581
30
0
41
1
10
-0.324478768103745
20
-17.9896102366798
30
0
41
1
10
-0.32498094716172
20
-17.9915384581584
30
0
41
1
10
-0.32498094716172
20
-17.9939249199246
30
0
0
SPLINE
5
1B0
100
AcDbEntity
8
1
62
256
6
ByLayer
370
18
48
1
60
0
100
AcDbSpline
70
4
71
3
72
14
73
10
40
0
40
0
40
0
40
0
40
0.25
40
0.25
40
0.5
40
0.5
40
0.75
40
0.75
40
1
40
1
40
1
40
1
41
1
10
9.82016042092627
20
4.87618051790233
30
0
41
1
10
8.6892049012838
20
5.08333778439797
30
0
41
1
10
7.70681918877034
20
5.51559942553803
30
0
41
1
10
6.40020534656583
20
7.25293145005159
30
0
41
1
10
6.08936597881711
20
8.55940819004402
30
0
41
1
10
6.09008759129188
20
11.2442438966133
30
0
41
1
10
6.40363849163688
20
12.5519190874767
30
0
41
1
10
7.70646493805319
20
14.281620551454
30
0
41
1
10
8.69412934662134
20
14.7165541001047
30
0
41
1
10
9.82016042092627
20
14.922809355321
30
0
0
SPLINE
5
1B1
100
AcDbEntity
8
1
62
256
6
ByLayer
370
18
48
1
60
0
100
AcDbSpline
70
4
71
3
72
16
73
12
40
0
40
0
40
0
40
0
40
0.201805533317288
40
0.201805533317288
40
0.402164529615789
40
0.402164529615789
40
0.601693433139844
40
0.601693433139844
40
0.800835467773022
40
0.800835467773022
40
1
40
1
40
1
40
1
41
1
10
38.8887282342959
20
-22.2281506609055
30
0
41
1
10
38.8749992013423
20
-22.2158099241374
30
0
41
1
10
38.785706856457
20
-22.1978507199192
30
0
41
1
10
38.4724454224122
20
-22.1558884411158
30
0
41
1
10
38.2451385645978
20
-22.1314338638586
30
0
41
1
10
37.6868201609419
20
-22.0840144647943
30
0
41
1
10
37.3485862748129
20
-22.0605112967778
30
0
41
1
10
36.6087966530576
20
-22.0226506320366
30
0
41
1
10
36.1972176744949
20
-22.0078632762849
30
0
41
1
10
35.3576089717597
20
-21.9922933475381
30
0
41
1
10
34.918033633251
20
-21.9913463101604
30
0
41
1
10
34.4951412647663
20
-21.9974248246672
30
0
0
SPLINE
5
1B2
100
AcDbEntity
8
1
62
256
6
ByLayer
370
18
48
1
60
0
100
AcDbSpline
70
4
71
3
72
14
73
10
40
0
40
0
40
0
40
0
40
0.270456983034983
40
0.270456983034983
40
0.513300750952891
40
0.513300750952891
40
0.756666723697869
40
0.756666723697869
40
1
40
1
40
1
40
1
41
1
10
34.4951412647663
20
-21.9974248246672
30
0
41
1
10
34.4827839215213
20
-21.9976024450164
30
0
41
1
10
34.4705725518432
20
-21.9980164159679
30
0
41
1
10
34.4500279005412
20
-21.9991673654377
30
0
41
1
10
34.4411372643466
20
-21.9998831061709
30
0
41
1
10
34.426509163745
20
-22.0015325355845
30
0
41
1
10
34.4205743658478
20
-22.0024895191737
30
0
41
1
10
34.4124542173453
20
-22.0045031695479
30
0
41
1
10
34.4101556594585
20
-22.0055875971156
30
0
41
1
10
34.4098056552114
20
-22.0066592528138
30
0
0
SPLINE
5
1B3
100
AcDbEntity
8
1
62
256
6
ByLayer
370
18
48
1
60
0
100
AcDbSpline
70
4
71
3
72
32
73
28
40
0
40
0
40
0
40
0
40
0.0818771454062246
40
0.0818771454062246
40
0.158275429566723
40
0.158275429566723
40
0.234436910608811
40
0.234436910608811
40
0.310515245153714
40
0.310515245153714
40
0.386690382828764
40
0.386690382828764
40
0.463113335114712
40
0.463113335114712
40
0.539851551448532
40
0.539851551448532
40
0.61684807647437
40
0.61684807647437
40
0.693922080316294
40
0.693922080316294
40
0.770833583915584
40
0.770833583915584
40
0.847397560814317
40
0.847397560814317
40
0.923689647183431
40
0.923689647183431
40
1
40
1
40
1
40
1
41
1
10
34.4098056552114
20
-22.0066592528138
30
0
41
1
10
34.4083192867479
20
-22.0112102696841
30
0
41
1
10
34.3980144508258
20
-22.0157384756393
30
0
41
1
10
34.3628276582172
20
-22.0236659803315
30
0
41
1
10
34.3384832475949
20
-22.0272297778685
30
0
41
1
10
34.2791514733068
20
-22.0332751823585
30
0
41
1
10
34.2433857305639
20
-22.0358437512971
30
0
41
1
10
34.1654582153051
20
-22.0397060741174
30
0
41
1
10
34.1222345617087
20
-22.0410551216814
30
0
41
1
10
34.0343012260595
20
-22.042400395509
30
0
41
1
10
33.9883768451671
20
-22.0424138473238
30
0
41
1
10
33.9001495816704
20
-22.0411176053507
30
0
41
1
10
33.856634343217
20
-22.0397852484291
30
0
41
1
10
33.7780231033202
20
-22.0359371065372
30
0
41
1
10
33.7418660817
20
-22.0333618426593
30
0
41
1
10
33.6819108693468
20
-22.0272866116053
30
0
41
1
10
33.6573170569546
20
-22.0236976933504
30
0
41
1
10
33.623030072742
20
-22.0159746957166
30
0
41
1
10
33.6128740319793
20
-22.0117320430932
30
0
41
1
10
33.6082094176307
20
-22.0031783832615
30
0
41
1
10
33.6136028215695
20
-21.9987496326678
30
0
41
1
10
33.6388960354989
20
-21.9903417031628
30
0
41
1
10
33.6590768593975
20
-21.9862464409309
30
0
41
1
10
33.7112024978362
20
-21.9789848950267
30
0
41
1
10
33.7438187522882
20
-21.9757176628534
30
0
41
1
10
33.8169439740677
20
-21.9704937325478
30
0
41
1
10
33.8584626280395
20
-21.9684669854961
30
0
41
1
10
33.9015011820832
20
-21.967217911481
30
0
0
SPLINE
5
1B4
100
AcDbEntity
8
1
62
256
6
ByLayer
370
18
48
1
60
0
100
AcDbSpline
70
4
71
3
72
19
73
15
40
0
40
0
40
0
40
0
40
0.0694833725148054
40
0.0694833725148054
40
0.0694833725148054
40
0.255043285473438
40
0.255043285473438
40
0.441476198390851
40
0.441476198390851
40
0.627952928661915
40
0.627952928661915
40
0.813959632548324
40
0.813959632548324
40
1
40
1
40
1
40
1
41
1
10
33.9015011820832
20
-21.967217911481
30
0
41
1
10
34.0748429215633
20
-21.9621871508685
30
0
41
1
10
34.2516796612404
20
-21.9582188302915
30
0
41
1
10
34.4298629465129
20
-21.9554336345693
30
0
41
1
10
34.8998722186637
20
-21.9480868858986
30
0
41
1
10
35.3885768067914
20
-21.9491936466271
30
0
41
1
10
36.3240920828864
20
-21.9679100902789
30
0
41
1
10
36.7837323778507
20
-21.9857980757909
30
0
41
1
10
37.6082053198379
20
-22.0314264227646
30
0
41
1
10
37.9844820871362
20
-22.0596665871193
30
0
41
1
10
38.6022997082503
20
-22.1160791263619
30
0
41
1
10
38.8526879337365
20
-22.1448834714053
30
0
41
1
10
39.1959074903824
20
-22.1935955444313
30
0
41
1
10
39.2934120985141
20
-22.2140735396235
30
0
41
1
10
39.3085169613315
20
-22.2277690952589
30
0
0
SPLINE
5
1B5
100
AcDbEntity
8
1
62
256
6
ByLayer
370
18
48
1
60
0
100
AcDbSpline
70
4
71
3
72
8
73
4
40
0
40
0
40
0
40
0
40
1
40
1
40
1
40
1
41
1
10
39.4092112458184
20
-21.5809735721225
30
0
41
1
10
39.9421423039424
20
-21.6288845357502
30
0
41
1
10
40.4465638685418
20
-21.681870752798
30
0
41
1
10
40.9215198876904
20
-21.737313274285
30
0
0
SPLINE
5
1B6
100
AcDbEntity
8
1
62
256
6
ByLayer
370
18
48
1
60
0
100
AcDbSpline
70
4
71
3
72
8
73
4
40
0
40
0
40
0
40
0
40
1
40
1
40
1
40
1
41
1
10
34.493643790825
20
-18.2254503552802
30
0
41
1
10
36.8472061773183
20
-18.2254503552802
30
0
41
1
10
39.1223447197598
20
-18.3428061907156
30
0
41
1
10
40.9215198876904
20
-18.489943575873
30
0
0
SPLINE
5
1B7
100
AcDbEntity
8
1
62
256
6
ByLayer
370
18
48
1
60
0
100
AcDbSpline
70
4
71
3
72
22
73
18
40
0
40
0
40
0
40
0
40
0.0379006691976195
40
0.0379006691976195
40
0.195136410151719
40
0.195136410151719
40
0.352551960138898
40
0.352551960138898
40
0.509657665907248
40
0.509657665907248
40
0.666200117212435
40
0.666200117212435
40
0.822278283291645
40
0.822278283291645
40
0.97823531102685
40
0.97823531102685
40
1
40
1
40
1
40
1
41
1
10
46.6109686119964
20
-18.6194424525347
30
0
41
1
10
46.5738449291914
20
-18.6194424525347
30
0
41
1
10
46.5366896900324
20
-18.6195617490105
30
0
41
1
10
46.3482739531921
20
-18.6207717905689
30
0
41
1
10
46.1969374660876
20
-18.6238061416409
30
0
41
1
10
45.9194620232429
20
-18.6332681580725
30
0
41
1
10
45.7894958586892
20
-18.6398223778551
30
0
41
1
10
45.5689807260048
20
-18.655049251575
30
0
41
1
10
45.475314476488
20
-18.6639168152989
30
0
41
1
10
45.3366671269619
20
-18.6822555019724
30
0
41
1
10
45.289619407276
20
-18.6919670168035
30
0
41
1
10
45.2477684177773
20
-18.7106324908399
30
0
41
1
10
45.2522473119809
20
-18.7198408003384
30
0
41
1
10
45.3113670431898
20
-18.7365384956408
30
0
41
1
10
45.3667863754759
20
-18.7442620830501
30
0
41
1
10
45.4543728126363
20
-18.7518018986549
30
0
41
1
10
45.4656350346298
20
-18.7527144560132
30
0
41
1
10
45.4773147856186
20
-18.7536066671643
30
0
0
SPLINE
5
1B8
100
AcDbEntity
8
1
62
256
6
ByLayer
370
18
48
1
60
0
100
AcDbSpline
70
4
71
3
72
14
73
10
40
0
40
0
40
0
40
0
40
0.0729277144045969
40
0.0729277144045969
40
0.381820144300509
40
0.381820144300509
40
0.690919206025284
40
0.690919206025284
40
1
40
1
40
1
40
1
41
1
10
47.9118025975803
20
-18.6705416410309
30
0
41
1
10
47.8958333463374
20
-18.6684355482801
30
0
41
1
10
47.8786211703139
20
-18.6663530067313
30
0
41
1
10
47.7833261278951
20
-18.6557384146736
30
0
41
1
10
47.684180964781
20
-18.647670370767
30
0
41
1
10
47.4576597960781
20
-18.6342680866602
30
0
41
1
10
47.3271422489317
20
-18.6287608399793
30
0
41
1
10
47.0532993366145
20
-18.6213958521837
30
0
41
1
10
46.9062033464266
20
-18.6194424525347
30
0
41
1
10
46.7611115147709
20
-18.6194424525347
30
0
0
SPLINE
5
1B9
100
AcDbEntity
8
1
62
256
6
ByLayer
370
18
48
1
60
0
100
AcDbSpline
70
4
71
3
72
10
73
6
40
0
40
0
40
0
40
0
40
0.558523105103004
40
0.558523105103004
40
1
40
1
40
1
40
1
41
1
10
15.5
20
-18.1446571781899
30
0
41
1
10
15.5895346819081
20
-18.1743553727123
30
0
41
1
10
15.6820859712633
20
-18.1961421766241
30
0
41
1
10
15.8497468709147
20
-18.220101584153
30
0
41
1
10
15.9249673588913
20
-18.2254503552802
30
0
41
1
10
16
20
-18.2254503552802
30
0
0
SPLINE
5
1BA
100
AcDbEntity
8
1
62
256
6
ByLayer
370
18
48
1
60
0
100
AcDbSpline
70
4
71
3
72
14
73
10
40
0
40
0
40
0
40
0
40
0.201177844036488
40
0.201177844036488
40
0.470965764194127
40
0.470965764194127
40
0.735345392561601
40
0.735345392561601
40
1
40
1
40
1
40
1
41
1
10
14.4
20
-16.6046966847421
30
0
41
1
10
14.4
20
-16.7397537887296
30
0
41
1
10
14.4170599366873
20
-16.8758354468401
30
0
41
1
10
14.494783158298
20
-17.1821231768654
30
0
41
1
10
14.5696879239001
20
-17.352277019658
30
0
41
1
10
14.766418295184
20
-17.6515849424519
30
0
41
1
10
14.8899049962512
20
-17.7854420122048
30
0
41
1
10
15.1704745241947
20
-18.0026046026217
30
0
41
1
10
15.3314884024683
20
-18.0887627460423
30
0
41
1
10
15.5
20
-18.1446571781899
30
0
0
SPLINE
5
1BB
100
AcDbEntity
8
1
62
256
6
ByLayer
370
18
48
1
60
0
100
AcDbSpline
70
4
71
3
72
8
73
4
40
0
40
0
40
0
40
0
40
1
40
1
40
1
40
1
41
1
10
34.493643790825
20
-20.7976669484125
30
0
41
1
10
36.2480846279521
20
-20.7976669484125
30
0
41
1
10
37.8873529834412
20
-21.4441571964512
30
0
41
1
10
39.4092112458184
20
-21.5809735721225
30
0
0
SPLINE
5
1BC
100
AcDbEntity
8
1
62
256
6
ByLayer
370
18
48
1
60
0
100
AcDbSpline
70
4
71
3
72
16
73
12
40
0
40
0
40
0
40
0
40
0.125
40
0.125
40
0.25
40
0.25
40
0.5
40
0.5
40
0.75
40
0.75
40
1
40
1
40
1
40
1
41
1
10
9.82016042092624
20
16.7793636746755
30
0
41
1
10
8.66899210429096
20
16.3067374331718
30
0
41
1
10
7.69912527817431
20
15.6361682504734
30
0
41
1
10
6.23846486470305
20
13.9497438610233
30
0
41
1
10
5.73280589383532
20
12.9311431393436
30
0
41
1
10
4.69554317524006
20
9.53809001384431
30
0
41
1
10
4.59178588399928
20
6.86973802382121
30
0
41
1
10
4.49165869715594
20
1.26312367217346
30
0
41
1
10
4.49005044031199
20
-1.64544071223395
30
0
41
1
10
4.60738581775448
20
-7.20706270927676
30
0
41
1
10
4.72896158252783
20
-9.85857801786733
30
0
41
1
10
5.48223297823731
20
-12.096763602184
30
0
0
SPLINE
5
1BD
100
AcDbEntity
8
1
62
256
6
ByLayer
370
18
48
1
60
0
100
AcDbSpline
70
4
71
3
72
18
73
14
40
0
40
0
40
0
40
0
40
0.124897944286133
40
0.124897944286133
40
0.339219195805304
40
0.339219195805304
40
0.556646045974193
40
0.556646045974193
40
0.775634574855509
40
0.775634574855509
40
0.994526342200818
40
0.994526342200818
40
1
40
1
40
1
40
1
41
1
10
15.9999999999998
20
-14.4802613647426
30
0
41
1
10
15.8941613748483
20
-14.4802613647426
30
0
41
1
10
15.78779201067
20
-14.4696501557315
30
0
41
1
10
15.507863750561
20
-14.4132713689861
30
0
41
1
10
15.335496936377
20
-14.3467341093353
30
0
41
1
10
15.0253630505557
20
-14.1621020302896
30
0
41
1
10
14.8836682873336
20
-14.0406561051852
30
0
41
1
10
14.6519658487246
20
-13.7611658699791
30
0
41
1
10
14.5590147249181
20
-13.5989173515738
30
0
41
1
10
14.434718519593
20
-13.2581272412801
30
0
41
1
10
14.4015940793776
20
-13.0748590697059
30
0
41
1
10
14.4000192107783
20
-12.8893148406616
30
0
41
1
10
14.3999999999999
20
-12.8847880860099
30
0
41
1
10
14.3999999999999
20
-12.8802613647414
30
0
0
SPLINE
5
1BE
100
AcDbEntity
8
1
62
256
6
ByLayer
370
18
48
1
60
0
100
AcDbSpline
70
4
71
3
72
12
73
8
40
0
40
0
40
0
40
0
40
0.233672037472362
40
0.233672037472362
40
0.628244802258964
40
0.628244802258964
40
1
40
1
40
1
40
1
41
1
10
4.47499999999999
20
-16.4146522160426
30
0
41
1
10
4.47499999999999
20
-16.0778235774395
30
0
41
1
10
4.45802191560529
20
-15.7409611130441
30
0
41
1
10
4.39111991184555
20
-14.8367761767667
30
0
41
1
10
4.32587855264185
20
-14.2700876634345
30
0
41
1
10
4.2245475944614
20
-13.1683532510355
30
0
41
1
10
4.18914284285509
20
-12.632548033128
30
0
41
1
10
4.18914284285427
20
-12.096763602184
30
0
0
SPLINE
5
1BF
100
AcDbEntity
8
1
62
256
6
ByLayer
370
18
48
1
60
0
100
AcDbSpline
70
4
71
3
72
8
73
4
40
0
40
0
40
0
40
0
40
1
40
1
40
1
40
1
41
1
10
18.1232221746604
20
-14.4802613647414
30
0
41
1
10
19.1600255789719
20
-14.8335489320622
30
0
41
1
10
20.40066472051
20
-15.0853829172127
30
0
41
1
10
21.7903414436202
20
-15.2425264056882
30
0
0
SPLINE
5
1C0
100
AcDbEntity
8
1
62
256
6
ByLayer
370
18
48
1
60
0
100
AcDbSpline
70
4
71
3
72
10
73
6
40
0
40
0
40
0
40
0
40
0.5
40
0.5
40
1
40
1
40
1
40
1
41
1
10
48.8399954356324
20
-17.6294604084647
30
0
41
1
10
50.2092669738432
20
-17.7173587394999
30
0
41
1
10
51.3979476520768
20
-17.8779228536057
30
0
41
1
10
53.0477864368833
20
-18.2199262285194
30
0
41
1
10
53.5000000000042
20
-18.394995936732
30
0
41
1
10
53.5
20
-18.5284321816535
30
0
0
LINE
5
74
100
AcDbEntity
8
81
62
256
6
ByLayer
370
18
48
1
60
0
100
AcDbLine
10
54
20
-22.5
30
0
11
59
21
-22.5
31
0
39
0
210
0
220
0
230
1
0
LINE
5
75
100
AcDbEntity
8
80
62
256
6
ByLayer
370
18
48
1
60
0
100
AcDbLine
10
0
20
0
30
0
11
-5
21
0
31
0
39
0
210
0
220
0
230
1
0
LINE
5
76
100
AcDbEntity
8
1
62
256
6
ByLayer
370
18
48
1
60
0
100
AcDbLine
10
3.475
20
20
30
0
11
0.675
21
20
31
0
39
0
210
0
220
0
230
1
0
LINE
5
77
100
AcDbEntity
8
1
62
256
6
ByLayer
370
18
48
1
60
0
100
AcDbLine
10
0.675
20
-20
30
0
11
3.475
21
-20
31
0
39
0
210
0
220
0
230
1
0
LINE
5
78
100
AcDbEntity
8
1
62
256
6
ByLayer
370
18
48
1
60
0
100
AcDbLine
10
4.475
20
-22.25
30
0
11
39.316123
21
-22.25
31
0
39
0
210
0
220
0
230
1
0
LINE
5
79
100
AcDbEntity
8
1
62
256
6
ByLayer
370
18
48
1
60
0
100
AcDbLine
10
39.803064
20
-22.25
30
0
11
40.488771
21
-22.25
31
0
39
0
210
0
220
0
230
1
0
LINE
5
7A
100
AcDbEntity
8
1
62
256
6
ByLayer
370
18
48
1
60
0
100
AcDbLine
10
43.505039
20
-22.25
30
0
11
49.196328
21
-22.25
31
0
39
0
210
0
220
0
230
1
0
LINE
5
7B
100
AcDbEntity
8
1
62
256
6
ByLayer
370
18
48
1
60
0
100
AcDbLine
10
-0.324981
20
-19.000019
30
0
11
0.675
21
-20
31
0
39
0
210
0
220
0
230
1
0
LINE
5
7C
100
AcDbEntity
8
1
62
256
6
ByLayer
370
18
48
1
60
0
100
AcDbLine
10
0.675
20
20
30
0
11
-0.324981
21
19.000019
31
0
39
0
210
0
220
0
230
1
0
LINE
5
7D
100
AcDbEntity
8
1
62
256
6
ByLayer
370
18
48
1
60
0
100
AcDbLine
10
-0.324981
20
19.000019
30
0
11
-0.324981
21
18.999752
31
0
39
0
210
0
220
0
230
1
0
LINE
5
7E
100
AcDbEntity
8
1
62
256
6
ByLayer
370
18
48
1
60
0
100
AcDbLine
10
-0.324981
20
-18.999752
30
0
11
-0.324981
21
-19.000019
31
0
39
0
210
0
220
0
230
1
0
LINE
5
7F
100
AcDbEntity
8
1
62
256
6
ByLayer
370
18
48
1
60
0
100
AcDbLine
10
0.675
20
-20
30
0
11
0.675
21
20
31
0
39
0
210
0
220
0
230
1
0
LINE
5
80
100
AcDbEntity
8
1
62
256
6
ByLayer
370
13
48
1
60
0
100
AcDbLine
10
49.633623
20
-20.12128
30
0
11
53.5
21
-20.290089
31
0
39
0
210
0
220
0
230
1
0
LINE
5
81
100
AcDbEntity
8
1
62
256
6
ByLayer
370
13
48
1
60
0
100
AcDbLine
10
49.616035
20
-20.541841
30
0
11
53.5
21
-20.711418
31
0
39
0
210
0
220
0
230
1
0
LINE
5
82
100
AcDbEntity
8
1
62
256
6
ByLayer
370
13
48
1
60
0
100
AcDbLine
10
53.5
20
-20.244921
30
0
11
49.635447
21
-20.076191
31
0
39
0
210
0
220
0
230
1
0
LINE
5
83
100
AcDbEntity
8
1
62
256
6
ByLayer
370
13
48
1
60
0
100
AcDbLine
10
53.5
20
-20.771225
30
0
11
49.613464
21
-20.601535
31
0
39
0
210
0
220
0
230
1
0
LINE
5
84
100
AcDbEntity
8
1
62
256
6
ByLayer
370
13
48
1
60
0
100
AcDbLine
10
53.5
20
-20.429299
30
0
11
49.627737
21
-20.260233
31
0
39
0
210
0
220
0
230
1
0
LINE
5
85
100
AcDbEntity
8
1
62
256
6
ByLayer
370
13
48
1
60
0
100
AcDbLine
10
49.637989
20
-20.016495
30
0
11
53.5
21
-20.185114
31
0
39
0
210
0
220
0
230
1
0
LINE
5
86
100
AcDbEntity
8
1
62
256
6
ByLayer
370
13
48
1
60
0
100
AcDbLine
10
46.610969
20
-18.619442
30
0
11
46.602894
21
-18.804385
31
0
39
0
210
0
220
0
230
1
0
LINE
5
87
100
AcDbEntity
8
1
62
256
6
ByLayer
370
13
48
1
60
0
100
AcDbLine
10
0.394519
20
9.816033
30
0
11
0.394519
21
9.284126
31
0
39
0
210
0
220
0
230
1
0
LINE
5
88
100
AcDbEntity
8
1
62
256
6
ByLayer
370
13
48
1
60
0
100
AcDbLine
10
0.394519
20
-9.284126
30
0
11
0.394519
21
-9.816033
31
0
39
0
210
0
220
0
230
1
0
LINE
5
89
100
AcDbEntity
8
1
62
256
6
ByLayer
370
13
48
1
60
0
100
AcDbLine
10
15.5
20
-20.797667
30
0
11
15.5
21
-18.144657
31
0
39
0
210
0
220
0
230
1
0
LINE
5
8A
100
AcDbEntity
8
1
62
256
6
ByLayer
370
13
48
1
60
0
100
AcDbLine
10
-0.249981
20
9.161928
30
0
11
-0.249981
21
6.935866
31
0
39
0
210
0
220
0
230
1
0
LINE
5
8B
100
AcDbEntity
8
1
62
256
6
ByLayer
370
13
48
1
60
0
100
AcDbLine
10
-0.249981
20
-6.935866
30
0
11
-0.249981
21
-9.161928
31
0
39
0
210
0
220
0
230
1
0
LINE
5
8C
100
AcDbEntity
8
1
62
256
6
ByLayer
370
18
48
1
60
0
100
AcDbLine
10
-0.324981
20
9.242033
30
0
11
-0.324981
21
6.372959
31
0
39
0
210
0
220
0
230
1
0
LINE
5
8D
100
AcDbEntity
8
1
62
256
6
ByLayer
370
18
48
1
60
0
100
AcDbLine
10
-0.324981
20
-6.372959
30
0
11
-0.324981
21
-9.242033
31
0
39
0
210
0
220
0
230
1
0
LINE
5
8E
100
AcDbEntity
8
1
62
256
6
ByLayer
370
13
48
1
60
0
100
AcDbLine
10
5.482233
20
-12.096764
30
0
11
4.189143
21
-12.096764
31
0
39
0
210
0
220
0
230
1
0
LINE
5
8F
100
AcDbEntity
8
1
62
256
6
ByLayer
370
13
48
1
60
0
100
AcDbLine
10
3.475
20
20
30
0
11
3.475
21
-20
31
0
39
0
210
0
220
0
230
1
0
LINE
5
90
100
AcDbEntity
8
1
62
256
6
ByLayer
370
13
48
1
60
0
100
AcDbLine
10
15.5
20
-20.797667
30
0
11
4.475
21
-20.797667
31
0
39
0
210
0
220
0
230
1
0
LINE
5
91
100
AcDbEntity
8
1
62
256
6
ByLayer
370
13
48
1
60
0
100
AcDbLine
10
0.394519
20
6.541878
30
0
11
0.394519
21
5.63501
31
0
39
0
210
0
220
0
230
1
0
LINE
5
92
100
AcDbEntity
8
1
62
256
6
ByLayer
370
13
48
1
60
0
100
AcDbLine
10
0.394519
20
-5.63501
30
0
11
0.394519
21
-6.541878
31
0
39
0
210
0
220
0
230
1
0
LINE
5
93
100
AcDbEntity
8
1
62
256
6
ByLayer
370
13
48
1
60
0
100
AcDbLine
10
0.394519
20
12.058724
30
0
11
0.394519
21
11.667569
31
0
39
0
210
0
220
0
230
1
0
LINE
5
94
100
AcDbEntity
8
1
62
256
6
ByLayer
370
13
48
1
60
0
100
AcDbLine
10
0.394519
20
-11.667569
30
0
11
0.394519
21
-12.058724
31
0
39
0
210
0
220
0
230
1
0
LINE
5
95
100
AcDbEntity
8
1
62
256
6
ByLayer
370
18
48
1
60
0
100
AcDbLine
10
-0.324981
20
11.531153
30
0
11
-0.324981
21
9.595
31
0
39
0
210
0
220
0
230
1
0
LINE
5
96
100
AcDbEntity
8
1
62
256
6
ByLayer
370
18
48
1
60
0
100
AcDbLine
10
-0.324981
20
-9.595
30
0
11
-0.324981
21
-11.531153
31
0
39
0
210
0
220
0
230
1
0
LINE
5
97
100
AcDbEntity
8
1
62
256
6
ByLayer
370
13
48
1
60
0
100
AcDbLine
10
-0.249981
20
5.612388
30
0
11
-0.249981
21
-5.612388
31
0
39
0
210
0
220
0
230
1
0
LINE
5
98
100
AcDbEntity
8
1
62
256
6
ByLayer
370
13
48
1
60
0
100
AcDbLine
10
-0.249981
20
11.48403
30
0
11
-0.249981
21
9.958089
31
0
39
0
210
0
220
0
230
1
0
LINE
5
99
100
AcDbEntity
8
1
62
256
6
ByLayer
370
13
48
1
60
0
100
AcDbLine
10
-0.249981
20
-9.958089
30
0
11
-0.249981
21
-11.48403
31
0
39
0
210
0
220
0
230
1
0
LINE
5
9A
100
AcDbEntity
8
1
62
256
6
ByLayer
370
13
48
1
60
0
100
AcDbLine
10
0.394519
20
13.783002
30
0
11
0.394519
21
13.475038
31
0
39
0
210
0
220
0
230
1
0
LINE
5
9B
100
AcDbEntity
8
1
62
256
6
ByLayer
370
13
48
1
60
0
100
AcDbLine
10
0.394519
20
-13.475038
30
0
11
0.394519
21
-13.783002
31
0
39
0
210
0
220
0
230
1
0
LINE
5
9C
100
AcDbEntity
8
1
62
256
6
ByLayer
370
13
48
1
60
0
100
AcDbLine
10
-0.249981
20
-12.071618
30
0
11
-0.249981
21
-13.241033
31
0
39
0
210
0
220
0
230
1
0
LINE
5
9D
100
AcDbEntity
8
1
62
256
6
ByLayer
370
13
48
1
60
0
100
AcDbLine
10
-0.249981
20
13.241033
30
0
11
-0.249981
21
12.071618
31
0
39
0
210
0
220
0
230
1
0
LINE
5
9E
100
AcDbEntity
8
1
62
256
6
ByLayer
370
13
48
1
60
0
100
AcDbLine
10
0.394519
20
-14.91713
30
0
11
0.394519
21
-15.166723
31
0
39
0
210
0
220
0
230
1
0
LINE
5
9F
100
AcDbEntity
8
1
62
256
6
ByLayer
370
13
48
1
60
0
100
AcDbLine
10
0.394519
20
15.166723
30
0
11
0.394519
21
14.91713
31
0
39
0
210
0
220
0
230
1
0
LINE
5
A0
100
AcDbEntity
8
1
62
256
6
ByLayer
370
18
48
1
60
0
100
AcDbLine
10
-0.324981
20
-14.812475
30
0
11
-0.324981
21
-15.767828
31
0
39
0
210
0
220
0
230
1
0
LINE
5
A1
100
AcDbEntity
8
1
62
256
6
ByLayer
370
18
48
1
60
0
100
AcDbLine
10
-0.324981
20
15.767828
30
0
11
-0.324981
21
14.812475
31
0
39
0
210
0
220
0
230
1
0
LINE
5
A2
100
AcDbEntity
8
1
62
256
6
ByLayer
370
13
48
1
60
0
100
AcDbLine
10
-0.249981
20
14.637861
30
0
11
-0.249981
21
13.70335
31
0
39
0
210
0
220
0
230
1
0
LINE
5
A3
100
AcDbEntity
8
1
62
256
6
ByLayer
370
13
48
1
60
0
100
AcDbLine
10
-0.249981
20
-13.70335
30
0
11
-0.249981
21
-14.637861
31
0
39
0
210
0
220
0
230
1
0
LINE
5
A4
100
AcDbEntity
8
1
62
256
6
ByLayer
370
13
48
1
60
0
100
AcDbLine
10
0.394519
20
16.296865
30
0
11
0.394519
21
16.092304
31
0
39
0
210
0
220
0
230
1
0
LINE
5
A5
100
AcDbEntity
8
1
62
256
6
ByLayer
370
13
48
1
60
0
100
AcDbLine
10
0.394519
20
-16.092304
30
0
11
0.394519
21
-16.296865
31
0
39
0
210
0
220
0
230
1
0
LINE
5
A6
100
AcDbEntity
8
1
62
256
6
ByLayer
370
13
48
1
60
0
100
AcDbLine
10
-0.249981
20
-15.011285
30
0
11
-0.249981
21
-15.77051
31
0
39
0
210
0
220
0
230
1
0
LINE
5
A7
100
AcDbEntity
8
1
62
256
6
ByLayer
370
13
48
1
60
0
100
AcDbLine
10
-0.249981
20
15.77051
30
0
11
-0.249981
21
15.011285
31
0
39
0
210
0
220
0
230
1
0
LINE
5
A8
100
AcDbEntity
8
1
62
256
6
ByLayer
370
18
48
1
60
0
100
AcDbLine
10
45.477315
20
-18.753607
30
0
11
45.481048
21
-18.766011
31
0
39
0
210
0
220
0
230
1
0
LINE
5
A9
100
AcDbEntity
8
1
62
256
6
ByLayer
370
13
48
1
60
0
100
AcDbLine
10
16
20
-14.480261
30
0
11
16
21
-18.225463
31
0
39
0
210
0
220
0
230
1
0
LINE
5
AA
100
AcDbEntity
8
1
62
256
6
ByLayer
370
13
48
1
60
0
100
AcDbLine
10
0.394519
20
17.223418
30
0
11
0.394519
21
17.055898
31
0
39
0
210
0
220
0
230
1
0
LINE
5
AB
100
AcDbEntity
8
1
62
256
6
ByLayer
370
18
48
1
60
0
100
AcDbLine
10
-0.324981
20
-15.901439
30
0
11
-0.324981
21
-16.678631
31
0
39
0
210
0
220
0
230
1
0
LINE
5
AC
100
AcDbEntity
8
1
62
256
6
ByLayer
370
18
48
1
60
0
100
AcDbLine
10
-0.324981
20
16.678631
30
0
11
-0.324981
21
15.901439
31
0
39
0
210
0
220
0
230
1
0
LINE
5
AD
100
AcDbEntity
8
1
62
256
6
ByLayer
370
18
48
1
60
0
100
AcDbLine
10
4.475
20
-22.25
30
0
11
4.475
21
-21.580974
31
0
39
0
210
0
220
0
230
1
0
LINE
5
AE
100
AcDbEntity
8
1
62
256
6
ByLayer
370
13
48
1
60
0
100
AcDbLine
10
0.394519
20
-17.055898
30
0
11
0.394519
21
-17.223418
31
0
39
0
210
0
220
0
230
1
0
LINE
5
AF
100
AcDbEntity
8
1
62
256
6
ByLayer
370
13
48
1
60
0
100
AcDbLine
10
34.493644
20
-18.22545
30
0
11
34.493644
21
-20.797667
31
0
39
0
210
0
220
0
230
1
0
LINE
5
B0
100
AcDbEntity
8
1
62
256
6
ByLayer
370
13
48
1
60
0
100
AcDbLine
10
4.475
20
-21.580974
30
0
11
39.409211
21
-21.580974
31
0
39
0
210
0
220
0
230
1
0
LINE
5
B1
100
AcDbEntity
8
1
62
256
6
ByLayer
370
13
48
1
60
0
100
AcDbLine
10
40.92152
20
-21.737313
30
0
11
40.92152
21
-18.489944
31
0
39
0
210
0
220
0
230
1
0
LINE
5
B2
100
AcDbEntity
8
1
62
256
6
ByLayer
370
18
48
1
60
0
100
AcDbLine
10
-0.324981
20
17.413473
30
0
11
-0.324981
21
16.786998
31
0
39
0
210
0
220
0
230
1
0
LINE
5
B3
100
AcDbEntity
8
1
62
256
6
ByLayer
370
18
48
1
60
0
100
AcDbLine
10
-0.324981
20
-16.786998
30
0
11
-0.324981
21
-17.413473
31
0
39
0
210
0
220
0
230
1
0
LINE
5
B4
100
AcDbEntity
8
1
62
256
6
ByLayer
370
13
48
1
60
0
100
AcDbLine
10
-0.249981
20
16.692843
30
0
11
-0.249981
21
16.07471
31
0
39
0
210
0
220
0
230
1
0
LINE
5
B5
100
AcDbEntity
8
1
62
256
6
ByLayer
370
13
48
1
60
0
100
AcDbLine
10
-0.249981
20
-16.07471
30
0
11
-0.249981
21
-16.692843
31
0
39
0
210
0
220
0
230
1
0
LINE
5
B6
100
AcDbEntity
8
1
62
256
6
ByLayer
370
13
48
1
60
0
100
AcDbLine
10
0.394519
20
17.977888
30
0
11
0.394519
21
17.842221
31
0
39
0
210
0
220
0
230
1
0
LINE
5
B7
100
AcDbEntity
8
1
62
256
6
ByLayer
370
13
48
1
60
0
100
AcDbLine
10
0.394519
20
-17.842221
30
0
11
0.394519
21
-17.977888
31
0
39
0
210
0
220
0
230
1
0
LINE
5
B8
100
AcDbEntity
8
1
62
256
6
ByLayer
370
18
48
1
60
0
100
AcDbLine
10
-0.324981
20
17.993925
30
0
11
-0.324981
21
17.499994
31
0
39
0
210
0
220
0
230
1
0
LINE
5
B9
100
AcDbEntity
8
1
62
256
6
ByLayer
370
18
48
1
60
0
100
AcDbLine
10
-0.324981
20
-17.499994
30
0
11
-0.324981
21
-17.993925
31
0
39
0
210
0
220
0
230
1
0
LINE
5
BA
100
AcDbEntity
8
1
62
256
6
ByLayer
370
18
48
1
60
0
100
AcDbLine
10
34.409806
20
-21.955859
30
0
11
34.409806
21
-22.006659
31
0
39
0
210
0
220
0
230
1
0
LINE
5
BB
100
AcDbEntity
8
1
62
256
6
ByLayer
370
13
48
1
60
0
100
AcDbLine
10
-0.249981
20
17.438264
30
0
11
-0.249981
21
16.939739
31
0
39
0
210
0
220
0
230
1
0
LINE
5
BC
100
AcDbEntity
8
1
62
256
6
ByLayer
370
13
48
1
60
0
100
AcDbLine
10
-0.249981
20
-16.939739
30
0
11
-0.249981
21
-17.438264
31
0
39
0
210
0
220
0
230
1
0
LINE
5
BD
100
AcDbEntity
8
1
62
256
6
ByLayer
370
13
48
1
60
0
100
AcDbLine
10
0.394519
20
-18.473913
30
0
11
0.394519
21
-18.581248
31
0
39
0
210
0
220
0
230
1
0
LINE
5
BE
100
AcDbEntity
8
1
62
256
6
ByLayer
370
13
48
1
60
0
100
AcDbLine
10
0.394519
20
18.581248
30
0
11
0.394519
21
18.473913
31
0
39
0
210
0
220
0
230
1
0
LINE
5
BF
100
AcDbEntity
8
1
62
256
6
ByLayer
370
13
48
1
60
0
100
AcDbLine
10
-0.249981
20
-17.635501
30
0
11
-0.249981
21
-18.028729
31
0
39
0
210
0
220
0
230
1
0
LINE
5
C0
100
AcDbEntity
8
1
62
256
6
ByLayer
370
13
48
1
60
0
100
AcDbLine
10
-0.249981
20
18.028729
30
0
11
-0.249981
21
17.635501
31
0
39
0
210
0
220
0
230
1
0
LINE
5
C1
100
AcDbEntity
8
1
62
256
6
ByLayer
370
18
48
1
60
0
100
AcDbLine
10
-0.324981
20
18.434577
30
0
11
-0.324981
21
18.060977
31
0
39
0
210
0
220
0
230
1
0
LINE
5
C2
100
AcDbEntity
8
1
62
256
6
ByLayer
370
18
48
1
60
0
100
AcDbLine
10
-0.324981
20
-18.060977
30
0
11
-0.324981
21
-18.434577
31
0
39
0
210
0
220
0
230
1
0
LINE
5
C3
100
AcDbEntity
8
1
62
256
6
ByLayer
370
13
48
1
60
0
100
AcDbLine
10
0.394519
20
19.047864
30
0
11
0.394519
21
18.966461
31
0
39
0
210
0
220
0
230
1
0
LINE
5
C4
100
AcDbEntity
8
1
62
256
6
ByLayer
370
13
48
1
60
0
100
AcDbLine
10
0.394519
20
-18.966461
30
0
11
0.394519
21
-19.047864
31
0
39
0
210
0
220
0
230
1
0
LINE
5
C5
100
AcDbEntity
8
1
62
256
6
ByLayer
370
13
48
1
60
0
100
AcDbLine
10
38.888728
20
-22.152273
30
0
11
38.888728
21
-22.228151
31
0
39
0
210
0
220
0
230
1
0
LINE
5
C6
100
AcDbEntity
8
1
62
256
6
ByLayer
370
13
48
1
60
0
100
AcDbLine
10
34.495141
20
-21.954979
30
0
11
34.495141
21
-21.997425
31
0
39
0
210
0
220
0
230
1
0
LINE
5
C7
100
AcDbEntity
8
1
62
256
6
ByLayer
370
18
48
1
60
0
100
AcDbLine
10
-0.324981
20
18.745291
30
0
11
-0.324981
21
18.483688
31
0
39
0
210
0
220
0
230
1
0
LINE
5
C8
100
AcDbEntity
8
1
62
256
6
ByLayer
370
18
48
1
60
0
100
AcDbLine
10
-0.324981
20
-18.483688
30
0
11
-0.324981
21
-18.745291
31
0
39
0
210
0
220
0
230
1
0
LINE
5
C9
100
AcDbEntity
8
1
62
256
6
ByLayer
370
13
48
1
60
0
100
AcDbLine
10
-0.249981
20
-18.181589
30
0
11
-0.249981
21
-18.479098
31
0
39
0
210
0
220
0
230
1
0
LINE
5
CA
100
AcDbEntity
8
1
62
256
6
ByLayer
370
13
48
1
60
0
100
AcDbLine
10
-0.249981
20
18.479098
30
0
11
-0.249981
21
18.181589
31
0
39
0
210
0
220
0
230
1
0
LINE
5
CB
100
AcDbEntity
8
1
62
256
6
ByLayer
370
13
48
1
60
0
100
AcDbLine
10
0.394519
20
-19.330508
30
0
11
0.394519
21
-19.38761
31
0
39
0
210
0
220
0
230
1
0
LINE
5
CC
100
AcDbEntity
8
1
62
256
6
ByLayer
370
13
48
1
60
0
100
AcDbLine
10
0.394519
20
19.38761
30
0
11
0.394519
21
19.330508
31
0
39
0
210
0
220
0
230
1
0
LINE
5
CD
100
AcDbEntity
8
1
62
256
6
ByLayer
370
18
48
1
60
0
100
AcDbLine
10
-0.324981
20
-18.777454
30
0
11
-0.324981
21
-18.932466
31
0
39
0
210
0
220
0
230
1
0
LINE
5
CE
100
AcDbEntity
8
1
62
256
6
ByLayer
370
18
48
1
60
0
100
AcDbLine
10
-0.324981
20
18.932466
30
0
11
-0.324981
21
18.777454
31
0
39
0
210
0
220
0
230
1
0
LINE
5
CF
100
AcDbEntity
8
1
62
256
6
ByLayer
370
13
48
1
60
0
100
AcDbLine
10
-0.249981
20
18.799444
30
0
11
-0.249981
21
18.591032
31
0
39
0
210
0
220
0
230
1
0
LINE
5
D0
100
AcDbEntity
8
1
62
256
6
ByLayer
370
13
48
1
60
0
100
AcDbLine
10
-0.249981
20
-18.591032
30
0
11
-0.249981
21
-18.799444
31
0
39
0
210
0
220
0
230
1
0
LINE
5
D1
100
AcDbEntity
8
1
62
256
6
ByLayer
370
13
48
1
60
0
100
AcDbLine
10
0.394519
20
-19.573114
30
0
11
0.394519
21
-19.607085
31
0
39
0
210
0
220
0
230
1
0
LINE
5
D2
100
AcDbEntity
8
1
62
256
6
ByLayer
370
13
48
1
60
0
100
AcDbLine
10
0.394519
20
19.607085
30
0
11
0.394519
21
19.573114
31
0
39
0
210
0
220
0
230
1
0
LINE
5
D3
100
AcDbEntity
8
1
62
256
6
ByLayer
370
18
48
1
60
0
100
AcDbLine
10
-0.324981
20
-18.94836
30
0
11
-0.324981
21
-18.999752
31
0
39
0
210
0
220
0
230
1
0
LINE
5
D4
100
AcDbEntity
8
1
62
256
6
ByLayer
370
18
48
1
60
0
100
AcDbLine
10
-0.324981
20
18.999752
30
0
11
-0.324981
21
18.94836
31
0
39
0
210
0
220
0
230
1
0
LINE
5
D5
100
AcDbEntity
8
1
62
256
6
ByLayer
370
13
48
1
60
0
100
AcDbLine
10
-0.249981
20
18.996345
30
0
11
-0.249981
21
18.872848
31
0
39
0
210
0
220
0
230
1
0
LINE
5
D6
100
AcDbEntity
8
1
62
256
6
ByLayer
370
13
48
1
60
0
100
AcDbLine
10
-0.249981
20
-18.872848
30
0
11
-0.249981
21
-18.996345
31
0
39
0
210
0
220
0
230
1
0
LINE
5
D7
100
AcDbEntity
8
1
62
256
6
ByLayer
370
13
48
1
60
0
100
AcDbLine
10
0.394519
20
-19.699024
30
0
11
0.394519
21
-19.710304
31
0
39
0
210
0
220
0
230
1
0
LINE
5
D8
100
AcDbEntity
8
1
62
256
6
ByLayer
370
13
48
1
60
0
100
AcDbLine
10
0.394519
20
19.710304
30
0
11
0.394519
21
19.699024
31
0
39
0
210
0
220
0
230
1
0
LINE
5
D9
100
AcDbEntity
8
1
62
256
6
ByLayer
370
13
48
1
60
0
100
AcDbLine
10
-0.249981
20
-19.03268
30
0
11
-0.249981
21
-19.073624
31
0
39
0
210
0
220
0
230
1
0
LINE
5
DA
100
AcDbEntity
8
1
62
256
6
ByLayer
370
13
48
1
60
0
100
AcDbLine
10
-0.249981
20
19.073624
30
0
11
-0.249981
21
19.03268
31
0
39
0
210
0
220
0
230
1
0
LINE
5
DB
100
AcDbEntity
8
1
62
256
6
ByLayer
370
13
48
1
60
0
100
AcDbLine
10
49.623706
20
-20.357797
30
0
11
53.5
21
-20.52704
31
0
39
0
210
0
220
0
230
1
0
LINE
5
DC
100
AcDbEntity
8
1
62
256
6
ByLayer
370
13
48
1
60
0
100
AcDbLine
10
53.5
20
-20.66625
30
0
11
49.617881
21
-20.496753
31
0
39
0
210
0
220
0
230
1
0
LINE
5
DD
100
AcDbEntity
8
1
62
256
6
ByLayer
370
13
48
1
60
0
100
AcDbLine
10
46.761112
20
-18.619442
30
0
11
46.75285
21
-18.808668
31
0
39
0
210
0
220
0
230
1
0
LINE
5
DE
100
AcDbEntity
8
1
62
256
6
ByLayer
370
18
48
1
60
0
100
AcDbLine
10
4.189143
20
20.3
30
0
11
4.189143
21
-12.096764
31
0
39
0
210
0
220
0
230
1
0
LINE
5
DF
100
AcDbEntity
8
1
62
256
6
ByLayer
370
18
48
1
60
0
100
AcDbLine
10
14.4
20
19.110897
30
0
11
14.4
21
20.3
31
0
39
0
210
0
220
0
230
1
0
LINE
5
E0
100
AcDbEntity
8
1
62
256
6
ByLayer
370
18
48
1
60
0
100
AcDbLine
10
53.5
20
-18.780899
30
0
11
53.5
21
-20.185114
31
0
39
0
210
0
220
0
230
1
0
LINE
5
E1
100
AcDbEntity
8
1
62
256
6
ByLayer
370
18
48
1
60
0
100
AcDbLine
10
53.5
20
-20.244921
30
0
11
53.5
21
-20.185114
31
0
39
0
210
0
220
0
230
1
0
LINE
5
E2
100
AcDbEntity
8
1
62
256
6
ByLayer
370
18
48
1
60
0
100
AcDbLine
10
53.5
20
-20.771225
30
0
11
53.5
21
-22.155457
31
0
39
0
210
0
220
0
230
1
0
LINE
5
E3
100
AcDbEntity
8
1
62
256
6
ByLayer
370
18
48
1
60
0
100
AcDbLine
10
53.5
20
-20.244921
30
0
11
53.5
21
-20.290089
31
0
39
0
210
0
220
0
230
1
0
LINE
5
E4
100
AcDbEntity
8
1
62
256
6
ByLayer
370
18
48
1
60
0
100
AcDbLine
10
53.5
20
-20.771225
30
0
11
53.5
21
-20.711418
31
0
39
0
210
0
220
0
230
1
0
LINE
5
E5
100
AcDbEntity
8
1
62
256
6
ByLayer
370
18
48
1
60
0
100
AcDbLine
10
53.5
20
-20.290089
30
0
11
53.5
21
-20.429299
31
0
39
0
210
0
220
0
230
1
0
LINE
5
E6
100
AcDbEntity
8
1
62
256
6
ByLayer
370
18
48
1
60
0
100
AcDbLine
10
53.5
20
-20.66625
30
0
11
53.5
21
-20.711418
31
0
39
0
210
0
220
0
230
1
0
LINE
5
E7
100
AcDbEntity
8
1
62
256
6
ByLayer
370
18
48
1
60
0
100
AcDbLine
10
53.5
20
-20.429299
30
0
11
53.5
21
-20.52704
31
0
39
0
210
0
220
0
230
1
0
LINE
5
E8
100
AcDbEntity
8
1
62
256
6
ByLayer
370
18
48
1
60
0
100
AcDbLine
10
53.5
20
-20.52704
30
0
11
53.5
21
-20.66625
31
0
39
0
210
0
220
0
230
1
0
LINE
5
E9
100
AcDbEntity
8
1
62
256
6
ByLayer
370
18
48
1
60
0
100
AcDbLine
10
-0.324981
20
6.373247
30
0
11
-0.324981
21
5.776059
31
0
39
0
210
0
220
0
230
1
0
LINE
5
EA
100
AcDbEntity
8
1
62
256
6
ByLayer
370
18
48
1
60
0
100
AcDbLine
10
-0.324981
20
-5.776059
30
0
11
-0.324981
21
-6.373247
31
0
39
0
210
0
220
0
230
1
0
LINE
5
EB
100
AcDbEntity
8
1
62
256
6
ByLayer
370
18
48
1
60
0
100
AcDbLine
10
-0.324981
20
9.595101
30
0
11
-0.324981
21
9.242033
31
0
39
0
210
0
220
0
230
1
0
LINE
5
EC
100
AcDbEntity
8
1
62
256
6
ByLayer
370
18
48
1
60
0
100
AcDbLine
10
-0.324981
20
-9.242033
30
0
11
-0.324981
21
-9.595101
31
0
39
0
210
0
220
0
230
1
0
LINE
5
ED
100
AcDbEntity
8
1
62
256
6
ByLayer
370
18
48
1
60
0
100
AcDbLine
10
-0.324981
20
11.790405
30
0
11
-0.324981
21
11.531153
31
0
39
0
210
0
220
0
230
1
0
LINE
5
EE
100
AcDbEntity
8
1
62
256
6
ByLayer
370
18
48
1
60
0
100
AcDbLine
10
-0.324981
20
-11.531153
30
0
11
-0.324981
21
-11.790405
31
0
39
0
210
0
220
0
230
1
0
LINE
5
EF
100
AcDbEntity
8
1
62
256
6
ByLayer
370
18
48
1
60
0
100
AcDbLine
10
-0.324981
20
-18.434577
30
0
11
-0.324981
21
-18.483709
31
0
39
0
210
0
220
0
230
1
0
LINE
5
F0
100
AcDbEntity
8
1
62
256
6
ByLayer
370
18
48
1
60
0
100
AcDbLine
10
-0.324981
20
18.483709
30
0
11
-0.324981
21
18.434577
31
0
39
0
210
0
220
0
230
1
0
LINE
5
F1
100
AcDbEntity
8
1
62
256
6
ByLayer
370
18
48
1
60
0
100
AcDbLine
10
-0.324981
20
-18.745291
30
0
11
-0.324981
21
-18.777518
31
0
39
0
210
0
220
0
230
1
0
LINE
5
F2
100
AcDbEntity
8
1
62
256
6
ByLayer
370
18
48
1
60
0
100
AcDbLine
10
-0.324981
20
18.777518
30
0
11
-0.324981
21
18.745291
31
0
39
0
210
0
220
0
230
1
0
LINE
5
F3
100
AcDbEntity
8
1
62
256
6
ByLayer
370
18
48
1
60
0
100
AcDbLine
10
-0.324981
20
-18.932466
30
0
11
-0.324981
21
-18.948427
31
0
39
0
210
0
220
0
230
1
0
LINE
5
F4
100
AcDbEntity
8
1
62
256
6
ByLayer
370
18
48
1
60
0
100
AcDbLine
10
-0.324981
20
18.948427
30
0
11
-0.324981
21
18.932466
31
0
39
0
210
0
220
0
230
1
0
LINE
5
F5
100
AcDbEntity
8
1
62
256
6
ByLayer
370
18
48
1
60
0
100
AcDbLine
10
-0.324981
20
18.061002
30
0
11
-0.324981
21
17.993925
31
0
39
0
210
0
220
0
230
1
0
LINE
5
F6
100
AcDbEntity
8
1
62
256
6
ByLayer
370
18
48
1
60
0
100
AcDbLine
10
-0.324981
20
13.470759
30
0
11
-0.324981
21
13.267245
31
0
39
0
210
0
220
0
230
1
0
LINE
5
F7
100
AcDbEntity
8
1
62
256
6
ByLayer
370
18
48
1
60
0
100
AcDbLine
10
-0.324981
20
-13.267245
30
0
11
-0.324981
21
-13.470759
31
0
39
0
210
0
220
0
230
1
0
LINE
5
F8
100
AcDbEntity
8
1
62
256
6
ByLayer
370
18
48
1
60
0
100
AcDbLine
10
-0.324981
20
14.812462
30
0
11
-0.324981
21
14.64828
31
0
39
0
210
0
220
0
230
1
0
LINE
5
F9
100
AcDbEntity
8
1
62
256
6
ByLayer
370
18
48
1
60
0
100
AcDbLine
10
-0.324981
20
-14.64828
30
0
11
-0.324981
21
-14.812462
31
0
39
0
210
0
220
0
230
1
0
LINE
5
FA
100
AcDbEntity
8
1
62
256
6
ByLayer
370
18
48
1
60
0
100
AcDbLine
10
-0.324981
20
15.901469
30
0
11
-0.324981
21
15.767828
31
0
39
0
210
0
220
0
230
1
0
LINE
5
FB
100
AcDbEntity
8
1
62
256
6
ByLayer
370
18
48
1
60
0
100
AcDbLine
10
-0.324981
20
-15.767828
30
0
11
-0.324981
21
-15.901469
31
0
39
0
210
0
220
0
230
1
0
LINE
5
FC
100
AcDbEntity
8
1
62
256
6
ByLayer
370
18
48
1
60
0
100
AcDbLine
10
-0.324981
20
16.787031
30
0
11
-0.324981
21
16.678631
31
0
39
0
210
0
220
0
230
1
0
LINE
5
FD
100
AcDbEntity
8
1
62
256
6
ByLayer
370
18
48
1
60
0
100
AcDbLine
10
-0.324981
20
-16.678631
30
0
11
-0.324981
21
-16.787031
31
0
39
0
210
0
220
0
230
1
0
LINE
5
FE
100
AcDbEntity
8
1
62
256
6
ByLayer
370
18
48
1
60
0
100
AcDbLine
10
-0.324981
20
17.50006
30
0
11
-0.324981
21
17.413473
31
0
39
0
210
0
220
0
230
1
0
LINE
5
FF
100
AcDbEntity
8
1
62
256
6
ByLayer
370
18
48
1
60
0
100
AcDbLine
10
-0.324981
20
-17.413473
30
0
11
-0.324981
21
-17.50006
31
0
39
0
210
0
220
0
230
1
0
LINE
5
100
100
AcDbEntity
8
1
62
256
6
ByLayer
370
18
48
1
60
0
100
AcDbLine
10
-0.324981
20
-17.993925
30
0
11
-0.324981
21
-18.061002
31
0
39
0
210
0
220
0
230
1
0
LINE
5
101
100
AcDbEntity
8
1
62
256
6
ByLayer
370
18
48
1
60
0
100
AcDbLine
10
-0.324981
20
-13.534977
30
0
11
-0.324981
21
-14.64828
31
0
39
0
210
0
220
0
230
1
0
LINE
5
102
100
AcDbEntity
8
1
62
256
6
ByLayer
370
18
48
1
60
0
100
AcDbLine
10
-0.324981
20
14.64828
30
0
11
-0.324981
21
13.534977
31
0
39
0
210
0
220
0
230
1
0
LINE
5
103
100
AcDbEntity
8
1
62
256
6
ByLayer
370
18
48
1
60
0
100
AcDbLine
10
-0.324981
20
-11.988251
30
0
11
-0.324981
21
-13.267245
31
0
39
0
210
0
220
0
230
1
0
LINE
5
104
100
AcDbEntity
8
1
62
256
6
ByLayer
370
18
48
1
60
0
100
AcDbLine
10
-0.324981
20
13.267245
30
0
11
-0.324981
21
11.988251
31
0
39
0
210
0
220
0
230
1
0
LINE
5
105
100
AcDbEntity
8
1
62
256
6
ByLayer
370
18
48
1
60
0
100
AcDbLine
10
-0.324981
20
5.776059
30
0
11
-0.324981
21
-5.776059
31
0
39
0
210
0
220
0
230
1
0
LINE
5
106
100
AcDbEntity
8
1
62
256
6
ByLayer
370
18
48
1
60
0
100
AcDbLine
10
49.681676
20
-18.84998
30
0
11
49.68598
21
-18.867424
31
0
39
0
210
0
220
0
230
1
0
LINE
5
107
100
AcDbEntity
8
1
62
256
6
ByLayer
370
18
48
1
60
0
100
AcDbLine
10
49.555836
20
-21.979421
30
0
11
49.68598
21
-18.867424
31
0
39
0
210
0
220
0
230
1
0
LINE
5
108
100
AcDbEntity
8
1
62
256
6
ByLayer
370
18
48
1
60
0
100
AcDbLine
10
49.555836
20
-21.979421
30
0
11
49.475659
21
-22.249515
31
0
39
0
210
0
220
0
230
1
0
LINE
5
109
100
AcDbEntity
8
1
62
256
6
ByLayer
370
18
48
1
60
0
100
AcDbLine
10
41.68775
20
-22.247186
30
0
11
42.31225
21
-22.247186
31
0
39
0
210
0
220
0
230
1
0
LINE
5
10A
100
AcDbEntity
8
1
62
256
6
ByLayer
370
18
48
1
60
0
100
AcDbLine
10
14.4
20
-15.149495
30
0
11
14.4
21
-16.604697
31
0
39
0
210
0
220
0
230
1
0
LINE
5
10B
100
AcDbEntity
8
1
62
256
6
ByLayer
370
18
48
1
60
0
100
AcDbLine
10
14.4
20
-5.629034
30
0
11
14.4
21
-15.149495
31
0
39
0
210
0
220
0
230
1
0
LINE
5
10C
100
AcDbEntity
8
1
62
256
6
ByLayer
370
18
48
1
60
0
100
AcDbLine
10
14.4
20
5.629034
30
0
11
14.4
21
14.169956
31
0
39
0
210
0
220
0
230
1
0
LINE
5
10D
100
AcDbEntity
8
1
62
256
6
ByLayer
370
18
48
1
60
0
100
AcDbLine
10
16
20
-18.22545
30
0
11
34.493644
21
-18.22545
31
0
39
0
210
0
220
0
230
1
0
LINE
5
10E
100
AcDbEntity
8
1
62
256
6
ByLayer
370
18
48
1
60
0
100
AcDbLine
10
46.761112
20
-18.619442
30
0
11
46.610969
21
-18.619442
31
0
39
0
210
0
220
0
230
1
0
LINE
5
10F
100
AcDbEntity
8
1
62
256
6
ByLayer
370
18
48
1
60
0
100
AcDbLine
10
53.5
20
-18.780899
30
0
11
53.5
21
-18.528432
31
0
39
0
210
0
220
0
230
1
0
LINE
5
110
100
AcDbEntity
8
1
62
256
6
ByLayer
370
18
48
1
60
0
100
AcDbLine
10
15.5
20
-20.797667
30
0
11
34.493644
21
-20.797667
31
0
39
0
210
0
220
0
230
1
0
LINE
5
111
100
AcDbEntity
8
1
62
256
6
ByLayer
370
18
48
1
60
0
100
AcDbLine
10
8.067619
20
20.3
30
0
11
4.189143
21
20.3
31
0
39
0
210
0
220
0
230
1
0
LINE
5
112
100
AcDbEntity
8
1
62
256
6
ByLayer
370
18
48
1
60
0
100
AcDbLine
10
14.4
20
20.3
30
0
11
12.732381
21
20.3
31
0
39
0
210
0
220
0
230
1
0
LINE
5
113
100
AcDbEntity
8
1
62
256
6
ByLayer
370
18
48
1
60
0
100
AcDbLine
10
18.123222
20
-14.480261
30
0
11
16
21
-14.480261
31
0
39
0
210
0
220
0
230
1
0
LINE
5
114
100
AcDbEntity
8
1
62
256
6
ByLayer
370
18
48
1
60
0
100
AcDbLine
10
4.475
20
-20.797667
30
0
11
4.475
21
-16.414652
31
0
39
0
210
0
220
0
230
1
0
LINE
5
115
100
AcDbEntity
8
1
62
256
6
ByLayer
370
18
48
1
60
0
100
AcDbLine
10
4.475
20
-21.580974
30
0
11
4.475
21
-20.797667
31
0
39
0
210
0
220
0
230
1
0
LINE
5
116
100
AcDbEntity
8
1
62
256
6
ByLayer
370
18
48
1
60
0
100
AcDbLine
10
9.82016
20
4.876181
30
0
11
9.82016
21
-4.876181
31
0
39
0
210
0
220
0
230
1
0
LINE
5
117
100
AcDbEntity
8
1
62
256
6
ByLayer
370
18
48
1
60
0
100
AcDbLine
10
14.4
20
5.629034
30
0
11
14.4
21
-5.629034
31
0
39
0
210
0
220
0
230
1
0
LINE
5
118
100
AcDbEntity
8
1
62
256
6
ByLayer
370
18
48
1
60
0
100
AcDbLine
10
9.82016
20
16.779364
30
0
11
9.82016
21
14.922809
31
0
39
0
210
0
220
0
230
1
0
LINE
5
119
100
AcDbEntity
8
1
62
256
6
ByLayer
370
18
48
1
60
0
100
AcDbLine
10
14.4
20
19.110897
30
0
11
14.4
21
14.169956
31
0
39
0
210
0
220
0
230
1
0
MTEXT
5
1C1
100
AcDbEntity
8
SK6
62
256
6
ByLayer
370
18
48
1
60
0
100
AcDbMText
10
-7.125
20
-51.975
30
0
210
0
220
0
230
1
1
\W0.7848;SL-QFT-LH38C40-100A
40
3.5
41
0
44
1.084337
50
0
71
7
72
5
7
iso_b_vert
0
DIMENSION
5
1D3
100
AcDbEntity
8
SK2
62
256
6
ByLayer
370
13
48
1
60
0
100
AcDbDimension
2
DimnDraft3D1
10
54
20
42.9
30
0
11
24.725
21
42.9
31
0
70
32
71
5
72
1
41
1
210
0
220
0
230
1
3
Standard
100
AcDbAlignedDimension
13
0
23
2
33
0
14
54
24
-20.5
34
0
50
0
100
AcDbRotatedDimension
1001
ACAD
1000
DSTYLE
1002
{
1070
   279
1070
     0
1070
   172
1070
     1
1070
   173
1070
     1
1070
   340
1005
1C2
1070
   271
1070
     1
1070
    77
1070
     1
1070
    73
1070
     0
1070
   171
1070
     3
1070
   274
1070
     4
1070
   177
1070
     2
1070
   176
1070
     2
1070
   178
1070
     7
1070
    78
1070
     8
1070
    41
1041
3.175
1070
   147
1041
1.75
1070
    42
1041
2.0
1070
    44
1041
2.0
1070
   140
1041
3.5
1070
   343
1005
1D4
1070
   344
1005
1D4
1002
}
0
DIMENSION
5
1E8
100
AcDbEntity
8
2
62
256
6
ByLayer
370
13
48
1
60
0
100
AcDbDimension
2
DimnDraft3D2
10
16
20
-35.6
30
0
11
32.909211
21
-35.6
31
0
70
32
71
5
72
1
41
1
210
0
220
0
230
1
3
Standard
100
AcDbAlignedDimension
13
54
23
-24.5
33
0
14
16
24
-2
34
0
50
0
100
AcDbRotatedDimension
1001
ACAD
1000
DSTYLE
1002
{
1070
   279
1070
     0
1070
   172
1070
     1
1070
   173
1070
     1
1070
   340
1005
1C2
1070
   271
1070
     1
1070
    77
1070
     1
1070
    73
1070
     0
1070
   171
1070
     3
1070
   274
1070
     4
1070
   177
1070
     2
1070
   176
1070
     2
1070
   178
1070
     7
1070
    78
1070
     8
1070
    41
1041
3.175
1070
   147
1041
1.75
1070
    42
1041
2.0
1070
    44
1041
2.0
1070
   140
1041
3.5
1070
   343
1005
1D4
1070
   344
1005
1D4
1002
}
0
DIMENSION
5
1F6
100
AcDbEntity
8
2
62
256
6
ByLayer
370
13
48
1
60
0
100
AcDbDimension
2
DimnDraft3D3
10
79.1
20
-22.5
30
0
11
79.1
21
-15.357895
31
0
70
32
71
5
72
1
41
1
210
0
220
0
230
1
3
Standard
100
AcDbAlignedDimension
13
47
23
0
33
0
14
56
24
-22.5
34
0
50
90
100
AcDbRotatedDimension
1001
ACAD
1000
DSTYLE
1002
{
1070
    74
1070
     0
1070
   279
1070
     0
1070
   172
1070
     1
1070
   173
1070
     1
1070
   340
1005
1C2
1070
   271
1070
     1
1070
    77
1070
     1
1070
    73
1070
     0
1070
   171
1070
     3
1070
   274
1070
     4
1070
   177
1070
     2
1070
   176
1070
     2
1070
   178
1070
     7
1070
    78
1070
     8
1070
    41
1041
3.175
1070
   147
1041
1.75
1070
    42
1041
2.0
1070
    44
1041
2.0
1070
   140
1041
3.5
1070
   343
1005
1D4
1070
   344
1005
1D4
1002
}
0
DIMENSION
5
204
100
AcDbEntity
8
2
62
256
6
ByLayer
370
13
48
1
60
0
100
AcDbDimension
2
DimnDraft3D4
10
72.1
20
-18.5
30
0
11
72.1
21
-34.689211
31
0
70
32
71
5
72
1
41
1
210
0
220
0
230
1
3
Standard
100
AcDbAlignedDimension
13
56
23
-22.5
33
0
14
56
24
-18.5
34
0
50
90
100
AcDbRotatedDimension
1001
ACAD
1000
DSTYLE
1002
{
1070
    74
1070
     0
1070
   279
1070
     0
1070
   172
1070
     1
1070
   173
1070
     1
1070
   340
1005
1C2
1070
   271
1070
     1
1070
    77
1070
     1
1070
    73
1070
     0
1070
   171
1070
     3
1070
   274
1070
     4
1070
   177
1070
     2
1070
   176
1070
     2
1070
   178
1070
     7
1070
    78
1070
     8
1070
    41
1041
3.175
1070
   147
1041
1.75
1070
    42
1041
2.0
1070
    44
1041
2.0
1070
   140
1041
3.5
1070
   343
1005
1D4
1070
   344
1005
1D4
1002
}
0
ENDSEC
0
SECTION
2
OBJECTS
0
DICTIONARY
5
26d
330
0
100
AcDbDictionary
280
0
281
1
3
ACAD_GROUP
350
26e
3
ACAD_MLINESTYLE
350
26f
0
DICTIONARY
5
26e
330
0
100
AcDbDictionary
280
0
281
1
0
DICTIONARY
5
26f
330
0
100
AcDbDictionary
280
0
281
1
3
Standard
350
18
0
MLINESTYLE
5
18
330
26f
100
AcDbMlineStyle
2
Standard
70
0
3

62
256
51
90
52
90
71
2
49
-0.5
62
256
6
ByLayer
49
0.5
62
256
6
ByLayer
0
RASTERVARIABLES
5
25d
330

100
AcDbRasterVariables
90
0
70
1
71
1
72
1
0
ENDSEC
0
EOF
