0
SECTION
2
HEADER
9
$ACADVER
1
AC1015
9
$DWGCODEPAGE
3
ANSI_1252
9
$HANDSEED
5
1b4
9
$ANGBASE
50
0
9
$ANGDIR
70
0
9
$ATTMODE
70
1
9
$AUNITS
70
0
9
$AUPREC
70
0
9
$CECOLOR
62
256
9
$CELTSCALE
40
1
9
$CELTYPE
6
ByLayer
9
$CELWEIGHT
370
18
9
$CLAYER
8
0
9
$CMLJUST
70
0
9
$CMLSCALE
40
1
9
$CMLSTYLE
2
Standard
9
$DIMSTYLE
2
Standard
9
$TEXTSIZE
40
0.2
9
$TEXTSTYLE
7
Standard
9
$LUNITS
70
2
9
$LUPREC
70
4
9
$EXTNAMES
290
1
9
$INSUNITS
70
4
9
$LTSCALE
40
1
9
$LWDISPLAY
290
1
9
$PDMODE
70
0
9
$PDSIZE
40
0
9
$PLINEGEN
70
0
0
ENDSEC
0
SECTION
2
CLASSES
0
CLASS
1
RASTERVARIABLES
2
AcDbRasterVariables
3
ISM
90
0
280
0
281
0
0
ENDSEC
0
SECTION
2
TABLES
0
TABLE
2
VPORT
5
1aa
100
AcDbSymbolTable
0
VPORT
5
1
100
AcDbSymbolTableRecord
100
AcDbViewportTableRecord
2
*Active
70
0
10
0
20
0
11
1
21
1
12
-1
22
1
13
0
23
0
14
0.5
24
0.5
15
10
25
10
16
0
26
0
36
1
17
0
27
0
37
0
0
ENDTAB
0
TABLE
2
LTYPE
5
1ab
100
AcDbSymbolTable
0
LTYPE
5
14
100
AcDbSymbolTableRecord
100
AcDbLinetypeTableRecord
70
0
2
ByBlock
3

72
65
73
0
40
0
0
LTYPE
5
15
100
AcDbSymbolTableRecord
100
AcDbLinetypeTableRecord
70
0
2
ByLayer
3

72
65
73
0
40
0
0
LTYPE
5
16
100
AcDbSymbolTableRecord
100
AcDbLinetypeTableRecord
70
0
2
CONTINUOUS
3
Solid line
72
65
73
0
40
0
0
LTYPE
5
6A
100
AcDbSymbolTableRecord
100
AcDbLinetypeTableRecord
70
0
2
CENTER
3
____ _ ____ _ ____ _ ____
72
65
73
4
40
47.5
49
22
74
0
49
-8.5
74
0
49
8.5
74
0
49
-8.5
74
0
0
LTYPE
5
6B
100
AcDbSymbolTableRecord
100
AcDbLinetypeTableRecord
70
0
2
DASHED
3
__ __ __ __ __ __ __ __ __
72
65
73
2
40
25.72
49
12.86
74
0
49
-12.86
74
0
0
ENDTAB
0
TABLE
2
LAYER
5
1ac
100
AcDbSymbolTable
0
LAYER
5
10
100
AcDbSymbolTableRecord
100
AcDbLayerTableRecord
2
0
70
0
62
7
6
CONTINUOUS
290
1
370
-3
390
0
0
LAYER
5
6D
100
AcDbSymbolTableRecord
100
AcDbLayerTableRecord
2
80
70
0
62
-6
6
CONTINUOUS
290
1
370
-3
390
0
0
LAYER
5
6F
100
AcDbSymbolTableRecord
100
AcDbLayerTableRecord
2
81
70
0
62
-3
6
CONTINUOUS
290
1
370
-3
390
0
0
LAYER
5
71
100
AcDbSymbolTableRecord
100
AcDbLayerTableRecord
2
1
70
0
62
4
6
CONTINUOUS
290
1
370
-3
390
0
0
LAYER
5
E4
100
AcDbSymbolTableRecord
100
AcDbLayerTableRecord
2
2
70
0
62
7
6
CONTINUOUS
290
1
370
-3
390
0
0
LAYER
5
197
100
AcDbSymbolTableRecord
100
AcDbLayerTableRecord
2
SK1
70
0
62
4
6
CONTINUOUS
290
1
370
-3
390
0
0
LAYER
5
198
100
AcDbSymbolTableRecord
100
AcDbLayerTableRecord
2
SK2
70
0
62
7
6
CONTINUOUS
290
1
370
-3
390
0
0
LAYER
5
199
100
AcDbSymbolTableRecord
100
AcDbLayerTableRecord
2
SK6
70
0
62
5
6
CONTINUOUS
290
1
370
-3
390
0
0
ENDTAB
0
TABLE
2
STYLE
5
1ad
100
AcDbSymbolTable
0
STYLE
5
11
100
AcDbSymbolTableRecord
100
AcDbTextStyleTableRecord
2
Standard
3
txt
70
0
71
0
40
0
41
1
42
0
50
0
0
STYLE
5
DE
100
AcDbSymbolTableRecord
100
AcDbTextStyleTableRecord
2
iso_b_vert
3
simplex.shx
70
0
71
0
40
0
41
1
42
0
50
0
0
STYLE
5
DF
100
AcDbSymbolTableRecord
100
AcDbTextStyleTableRecord
2
DWGDirectTextStyle
3
simplex
70
0
71
0
40
0
41
1
42
0
50
0
0
ENDTAB
0
TABLE
2
DIMSTYLE
5
1ae
100
AcDbSymbolTable
100
AcDbDimStyleTable
0
DIMSTYLE
105
27
100
AcDbSymbolTableRecord
100
AcDbDimStyleTableRecord
2
Standard
70
0
3
<>
41
0.18
42
0.0625
44
0.18
140
0.18
147
0.09
73
0
74
0
77
1
271
2
275
0
278
52
280
0
340
11
0
ENDTAB
0
TABLE
2
VIEW
5
1af
100
AcDbSymbolTable
0
ENDTAB
0
TABLE
2
UCS
5
1b0
100
AcDbSymbolTable
0
ENDTAB
0
TABLE
2
APPID
5
1b1
100
AcDbSymbolTable
0
APPID
5
12
100
AcDbSymbolTableRecord
100
AcDbRegAppTableRecord
2
ACAD
70
0
0
ENDTAB
0
TABLE
2
BLOCK_RECORD
5
1b2
100
AcDbSymbolTable
0
BLOCK_RECORD
5
1F
100
AcDbSymbolTableRecord
100
AcDbBlockTableRecord
2
*Model_Space
340
0
70
0
0
BLOCK_RECORD
5
1B
100
AcDbSymbolTableRecord
100
AcDbBlockTableRecord
2
*Paper_Space
340
0
70
0
0
BLOCK_RECORD
5
23
100
AcDbSymbolTableRecord
100
AcDbBlockTableRecord
2
*Paper_Space0
340
0
70
0
0
BLOCK_RECORD
5
E2
100
AcDbSymbolTableRecord
100
AcDbBlockTableRecord
2
DimnDraft3D1
340
0
70
0
0
BLOCK_RECORD
5
F1
100
AcDbSymbolTableRecord
100
AcDbBlockTableRecord
2
_CLOSED
340
0
70
0
0
BLOCK_RECORD
5
F8
100
AcDbSymbolTableRecord
100
AcDbBlockTableRecord
2
DimnDraft3D2
340
0
70
0
0
BLOCK_RECORD
5
106
100
AcDbSymbolTableRecord
100
AcDbBlockTableRecord
2
DimnDraft3D3
340
0
70
0
0
BLOCK_RECORD
5
114
100
AcDbSymbolTableRecord
100
AcDbBlockTableRecord
2
DimnDraft3D4
340
0
70
0
0
BLOCK_RECORD
5
122
100
AcDbSymbolTableRecord
100
AcDbBlockTableRecord
2
DimnDraft3D5
340
0
70
0
0
BLOCK_RECORD
5
130
100
AcDbSymbolTableRecord
100
AcDbBlockTableRecord
2
DimnDraft3D6
340
0
70
0
0
ENDTAB
0
ENDSEC
0
SECTION
2
BLOCKS
0
BLOCK
5
20
100
AcDbEntity
8
0
100
AcDbBlockBegin
2
*Model_Space
70
0
10
0
20
0
30
0
3
*Model_Space
0
ENDBLK
5
21
100
AcDbEntity
8
0
100
AcDbBlockEnd
0
BLOCK
5
1C
100
AcDbEntity
8
0
100
AcDbBlockBegin
2
*Paper_Space
70
0
10
0
20
0
30
0
3
*Paper_Space
0
ENDBLK
5
1D
100
AcDbEntity
8
0
100
AcDbBlockEnd
0
BLOCK
5
24
100
AcDbEntity
8
0
100
AcDbBlockBegin
2
*Paper_Space0
70
0
10
0
20
0
30
0
3
*Paper_Space0
0
ENDBLK
5
25
100
AcDbEntity
8
0
100
AcDbBlockEnd
0
BLOCK
5
EE
100
AcDbEntity
8
0
100
AcDbBlockBegin
2
DimnDraft3D1
70
0
10
0
20
0
30
0
3
DimnDraft3D1
0
MTEXT
5
E3
100
AcDbEntity
8
2
62
256
6
ByLayer
370
18
48
1
60
0
100
AcDbMText
10
20.382295
20
29.97505
30
0
210
0
220
0
230
1
1
\W0.7640;47.6
40
3.5
41
0
44
1.084337
50
0
71
7
72
5
7
iso_b_vert
0
LINE
5
E5
100
AcDbEntity
8
2
62
256
6
ByLayer
370
13
48
1
60
0
100
AcDbLine
10
0
20
14.5
30
0
11
0
21
31.10005
31
0
39
0
210
0
220
0
230
1
0
LINE
5
E6
100
AcDbEntity
8
2
62
256
6
ByLayer
370
13
48
1
60
0
100
AcDbLine
10
47.5988
20
-11
30
0
11
47.5988
21
31.10005
31
0
39
0
210
0
220
0
230
1
0
LINE
5
E7
100
AcDbEntity
8
2
62
256
6
ByLayer
370
13
48
1
60
0
100
AcDbLine
10
0
20
29.10005
30
0
11
47.5988
21
29.10005
31
0
39
0
210
0
220
0
230
1
0
LINE
5
E8
100
AcDbEntity
8
2
62
256
6
ByLayer
370
13
48
1
60
0
100
AcDbLine
10
0
20
29.10005
30
0
11
3.174998
21
29.518047
31
0
39
0
210
0
220
0
230
1
0
LINE
5
E9
100
AcDbEntity
8
2
62
256
6
ByLayer
370
13
48
1
60
0
100
AcDbLine
10
0
20
29.10005
30
0
11
3.175002
21
28.682053
31
0
39
0
210
0
220
0
230
1
0
LINE
5
EA
100
AcDbEntity
8
2
62
256
6
ByLayer
370
13
48
1
60
0
100
AcDbLine
10
3.174998
20
29.518047
30
0
11
3.175002
21
28.682053
31
0
39
0
210
0
220
0
230
1
0
LINE
5
EB
100
AcDbEntity
8
2
62
256
6
ByLayer
370
13
48
1
60
0
100
AcDbLine
10
47.5988
20
29.10005
30
0
11
44.423802
21
28.682053
31
0
39
0
210
0
220
0
230
1
0
LINE
5
EC
100
AcDbEntity
8
2
62
256
6
ByLayer
370
13
48
1
60
0
100
AcDbLine
10
47.5988
20
29.10005
30
0
11
44.423798
21
29.518047
31
0
39
0
210
0
220
0
230
1
0
LINE
5
ED
100
AcDbEntity
8
2
62
256
6
ByLayer
370
13
48
1
60
0
100
AcDbLine
10
44.423802
20
28.682053
30
0
11
44.423798
21
29.518047
31
0
39
0
210
0
220
0
230
1
0
ENDBLK
5
EF
100
AcDbEntity
8
0
100
AcDbBlockEnd
0
BLOCK
5
F2
100
AcDbEntity
8
0
100
AcDbBlockBegin
2
_CLOSED
70
0
10
0
20
0
30
0
3
_CLOSED
0
LINE
5
F4
100
AcDbEntity
8
0
62
256
6
ByLayer
370
-2
48
1
60
0
100
AcDbLine
10
-1
20
0.166667
30
0
11
0
21
0
31
0
39
0
210
0
220
0
230
1
0
LINE
5
F5
100
AcDbEntity
8
0
62
256
6
ByLayer
370
-2
48
1
60
0
100
AcDbLine
10
0
20
0
30
0
11
-1
21
-0.166667
31
0
39
0
210
0
220
0
230
1
0
LINE
5
F6
100
AcDbEntity
8
0
62
256
6
ByLayer
370
-2
48
1
60
0
100
AcDbLine
10
-1
20
0.166667
30
0
11
-1
21
-0.166667
31
0
39
0
210
0
220
0
230
1
0
LINE
5
F7
100
AcDbEntity
8
0
62
256
6
ByLayer
370
-2
48
1
60
0
100
AcDbLine
10
0
20
0
30
0
11
-1
21
0
31
0
39
0
210
0
220
0
230
1
0
ENDBLK
5
F3
100
AcDbEntity
8
0
100
AcDbBlockEnd
0
BLOCK
5
103
100
AcDbEntity
8
0
100
AcDbBlockBegin
2
DimnDraft3D2
70
0
10
0
20
0
30
0
3
DimnDraft3D2
0
MTEXT
5
F9
100
AcDbEntity
8
SK2
62
256
6
ByLayer
370
18
48
1
60
0
100
AcDbMText
10
-82.384868
20
-30.838054
30
0
210
0
220
0
230
1
1
\W0.5404;3
40
3.5
41
0
44
1.084337
50
0
71
7
72
5
7
iso_b_vert
0
LINE
5
FA
100
AcDbEntity
8
SK2
62
256
6
ByLayer
370
13
48
1
60
0
100
AcDbLine
10
-84
20
10.5
30
0
11
-84
21
-33.713054
31
0
39
0
210
0
220
0
230
1
0
LINE
5
FB
100
AcDbEntity
8
SK2
62
256
6
ByLayer
370
13
48
1
60
0
100
AcDbLine
10
-81
20
-14.5
30
0
11
-81
21
-33.713054
31
0
39
0
210
0
220
0
230
1
0
LINE
5
FC
100
AcDbEntity
8
SK2
62
256
6
ByLayer
370
13
48
1
60
0
100
AcDbLine
10
-92.75
20
-31.713054
30
0
11
-72.25
21
-31.713054
31
0
39
0
210
0
220
0
230
1
0
LINE
5
FD
100
AcDbEntity
8
SK2
62
256
6
ByLayer
370
13
48
1
60
0
100
AcDbLine
10
-84
20
-31.713054
30
0
11
-87.174998
21
-32.131051
31
0
39
0
210
0
220
0
230
1
0
LINE
5
FE
100
AcDbEntity
8
SK2
62
256
6
ByLayer
370
13
48
1
60
0
100
AcDbLine
10
-84
20
-31.713054
30
0
11
-87.175002
21
-31.295058
31
0
39
0
210
0
220
0
230
1
0
LINE
5
FF
100
AcDbEntity
8
SK2
62
256
6
ByLayer
370
13
48
1
60
0
100
AcDbLine
10
-87.174998
20
-32.131051
30
0
11
-87.175002
21
-31.295058
31
0
39
0
210
0
220
0
230
1
0
LINE
5
100
100
AcDbEntity
8
SK2
62
256
6
ByLayer
370
13
48
1
60
0
100
AcDbLine
10
-81
20
-31.713054
30
0
11
-77.825002
21
-31.295058
31
0
39
0
210
0
220
0
230
1
0
LINE
5
101
100
AcDbEntity
8
SK2
62
256
6
ByLayer
370
13
48
1
60
0
100
AcDbLine
10
-81
20
-31.713054
30
0
11
-77.824998
21
-32.131051
31
0
39
0
210
0
220
0
230
1
0
LINE
5
102
100
AcDbEntity
8
SK2
62
256
6
ByLayer
370
13
48
1
60
0
100
AcDbLine
10
-77.825002
20
-31.295058
30
0
11
-77.824998
21
-32.131051
31
0
39
0
210
0
220
0
230
1
0
ENDBLK
5
104
100
AcDbEntity
8
0
100
AcDbBlockEnd
0
BLOCK
5
111
100
AcDbEntity
8
0
100
AcDbBlockBegin
2
DimnDraft3D3
70
0
10
0
20
0
30
0
3
DimnDraft3D3
0
MTEXT
5
107
100
AcDbEntity
8
SK2
62
256
6
ByLayer
370
18
48
1
60
0
100
AcDbMText
10
-21.866389
20
35.97505
30
0
210
0
220
0
230
1
1
\W0.6261;131.6
40
3.5
41
0
44
1.084337
50
0
71
7
72
5
7
iso_b_vert
0
LINE
5
108
100
AcDbEntity
8
SK2
62
256
6
ByLayer
370
13
48
1
60
0
100
AcDbLine
10
-84
20
14.5
30
0
11
-84
21
37.10005
31
0
39
0
210
0
220
0
230
1
0
LINE
5
109
100
AcDbEntity
8
SK2
62
256
6
ByLayer
370
13
48
1
60
0
100
AcDbLine
10
47.5988
20
-11
30
0
11
47.5988
21
37.10005
31
0
39
0
210
0
220
0
230
1
0
LINE
5
10A
100
AcDbEntity
8
SK2
62
256
6
ByLayer
370
13
48
1
60
0
100
AcDbLine
10
-84
20
35.10005
30
0
11
47.5988
21
35.10005
31
0
39
0
210
0
220
0
230
1
0
LINE
5
10B
100
AcDbEntity
8
SK2
62
256
6
ByLayer
370
13
48
1
60
0
100
AcDbLine
10
-84
20
35.10005
30
0
11
-80.825002
21
35.518047
31
0
39
0
210
0
220
0
230
1
0
LINE
5
10C
100
AcDbEntity
8
SK2
62
256
6
ByLayer
370
13
48
1
60
0
100
AcDbLine
10
-84
20
35.10005
30
0
11
-80.824998
21
34.682053
31
0
39
0
210
0
220
0
230
1
0
LINE
5
10D
100
AcDbEntity
8
SK2
62
256
6
ByLayer
370
13
48
1
60
0
100
AcDbLine
10
-80.825002
20
35.518047
30
0
11
-80.824998
21
34.682053
31
0
39
0
210
0
220
0
230
1
0
LINE
5
10E
100
AcDbEntity
8
SK2
62
256
6
ByLayer
370
13
48
1
60
0
100
AcDbLine
10
47.5988
20
35.10005
30
0
11
44.423802
21
34.682053
31
0
39
0
210
0
220
0
230
1
0
LINE
5
10F
100
AcDbEntity
8
SK2
62
256
6
ByLayer
370
13
48
1
60
0
100
AcDbLine
10
47.5988
20
35.10005
30
0
11
44.423798
21
35.518047
31
0
39
0
210
0
220
0
230
1
0
LINE
5
110
100
AcDbEntity
8
SK2
62
256
6
ByLayer
370
13
48
1
60
0
100
AcDbLine
10
44.423802
20
34.682053
30
0
11
44.423798
21
35.518047
31
0
39
0
210
0
220
0
230
1
0
ENDBLK
5
112
100
AcDbEntity
8
0
100
AcDbBlockEnd
0
BLOCK
5
11F
100
AcDbEntity
8
0
100
AcDbBlockBegin
2
DimnDraft3D4
70
0
10
0
20
0
30
0
3
DimnDraft3D4
0
MTEXT
5
115
100
AcDbEntity
8
2
62
256
6
ByLayer
370
18
48
1
60
0
100
AcDbMText
10
27.383011
20
-30.838054
30
0
210
0
220
0
230
1
1
\W0.6740;38
40
3.5
41
0
44
1.084337
50
0
71
7
72
5
7
iso_b_vert
0
LINE
5
116
100
AcDbEntity
8
2
62
256
6
ByLayer
370
13
48
1
60
0
100
AcDbLine
10
47.5988
20
-15
30
0
11
47.5988
21
-33.713054
31
0
39
0
210
0
220
0
230
1
0
LINE
5
117
100
AcDbEntity
8
2
62
256
6
ByLayer
370
13
48
1
60
0
100
AcDbLine
10
9.5988
20
-14.5
30
0
11
9.5988
21
-33.713054
31
0
39
0
210
0
220
0
230
1
0
LINE
5
118
100
AcDbEntity
8
2
62
256
6
ByLayer
370
13
48
1
60
0
100
AcDbLine
10
47.5988
20
-31.713054
30
0
11
9.5988
21
-31.713054
31
0
39
0
210
0
220
0
230
1
0
LINE
5
119
100
AcDbEntity
8
2
62
256
6
ByLayer
370
13
48
1
60
0
100
AcDbLine
10
47.5988
20
-31.713054
30
0
11
44.423802
21
-32.131051
31
0
39
0
210
0
220
0
230
1
0
LINE
5
11A
100
AcDbEntity
8
2
62
256
6
ByLayer
370
13
48
1
60
0
100
AcDbLine
10
47.5988
20
-31.713054
30
0
11
44.423798
21
-31.295058
31
0
39
0
210
0
220
0
230
1
0
LINE
5
11B
100
AcDbEntity
8
2
62
256
6
ByLayer
370
13
48
1
60
0
100
AcDbLine
10
44.423802
20
-32.131051
30
0
11
44.423798
21
-31.295058
31
0
39
0
210
0
220
0
230
1
0
LINE
5
11C
100
AcDbEntity
8
2
62
256
6
ByLayer
370
13
48
1
60
0
100
AcDbLine
10
9.5988
20
-31.713054
30
0
11
12.773798
21
-31.295058
31
0
39
0
210
0
220
0
230
1
0
LINE
5
11D
100
AcDbEntity
8
2
62
256
6
ByLayer
370
13
48
1
60
0
100
AcDbLine
10
9.5988
20
-31.713054
30
0
11
12.773802
21
-32.131051
31
0
39
0
210
0
220
0
230
1
0
LINE
5
11E
100
AcDbEntity
8
2
62
256
6
ByLayer
370
13
48
1
60
0
100
AcDbLine
10
12.773798
20
-31.295058
30
0
11
12.773802
21
-32.131051
31
0
39
0
210
0
220
0
230
1
0
ENDBLK
5
120
100
AcDbEntity
8
0
100
AcDbBlockEnd
0
BLOCK
5
12D
100
AcDbEntity
8
0
100
AcDbBlockBegin
2
DimnDraft3D5
70
0
10
0
20
0
30
0
3
DimnDraft3D5
0
MTEXT
5
123
100
AcDbEntity
8
2
62
256
6
ByLayer
370
18
48
1
60
0
100
AcDbMText
10
71.8238
20
-3.482895
30
0
210
0
220
0
230
1
1
\W0.7346;25.5
40
3.5
41
0
44
1.084337
50
90
71
7
72
5
7
iso_b_vert
0
LINE
5
124
100
AcDbEntity
8
2
62
256
6
ByLayer
370
13
48
1
60
0
100
AcDbLine
10
2
20
12.5
30
0
11
74.6988
21
12.5
31
0
39
0
210
0
220
0
230
1
0
LINE
5
125
100
AcDbEntity
8
2
62
256
6
ByLayer
370
13
48
1
60
0
100
AcDbLine
10
49.5988
20
-13
30
0
11
74.6988
21
-13
31
0
39
0
210
0
220
0
230
1
0
LINE
5
126
100
AcDbEntity
8
2
62
256
6
ByLayer
370
13
48
1
60
0
100
AcDbLine
10
72.6988
20
12.5
30
0
11
72.6988
21
-13
31
0
39
0
210
0
220
0
230
1
0
LINE
5
127
100
AcDbEntity
8
2
62
256
6
ByLayer
370
13
48
1
60
0
100
AcDbLine
10
72.6988
20
12.5
30
0
11
73.116797
21
9.325002
31
0
39
0
210
0
220
0
230
1
0
LINE
5
128
100
AcDbEntity
8
2
62
256
6
ByLayer
370
13
48
1
60
0
100
AcDbLine
10
72.6988
20
12.5
30
0
11
72.280803
21
9.324998
31
0
39
0
210
0
220
0
230
1
0
LINE
5
129
100
AcDbEntity
8
2
62
256
6
ByLayer
370
13
48
1
60
0
100
AcDbLine
10
73.116797
20
9.325002
30
0
11
72.280803
21
9.324998
31
0
39
0
210
0
220
0
230
1
0
LINE
5
12A
100
AcDbEntity
8
2
62
256
6
ByLayer
370
13
48
1
60
0
100
AcDbLine
10
72.6988
20
-13
30
0
11
72.280803
21
-9.825002
31
0
39
0
210
0
220
0
230
1
0
LINE
5
12B
100
AcDbEntity
8
2
62
256
6
ByLayer
370
13
48
1
60
0
100
AcDbLine
10
72.6988
20
-13
30
0
11
73.116797
21
-9.824998
31
0
39
0
210
0
220
0
230
1
0
LINE
5
12C
100
AcDbEntity
8
2
62
256
6
ByLayer
370
13
48
1
60
0
100
AcDbLine
10
72.280803
20
-9.825002
30
0
11
73.116797
21
-9.824998
31
0
39
0
210
0
220
0
230
1
0
ENDBLK
5
12E
100
AcDbEntity
8
0
100
AcDbBlockEnd
0
BLOCK
5
13B
100
AcDbEntity
8
0
100
AcDbBlockBegin
2
DimnDraft3D6
70
0
10
0
20
0
30
0
3
DimnDraft3D6
0
MTEXT
5
131
100
AcDbEntity
8
2
62
256
6
ByLayer
370
18
48
1
60
0
100
AcDbMText
10
64.8238
20
-24.314211
30
0
210
0
220
0
230
1
1
\W0.6380;4
40
3.5
41
0
44
1.084337
50
90
71
7
72
5
7
iso_b_vert
0
LINE
5
132
100
AcDbEntity
8
2
62
256
6
ByLayer
370
13
48
1
60
0
100
AcDbLine
10
49.5988
20
-13
30
0
11
67.6988
21
-13
31
0
39
0
210
0
220
0
230
1
0
LINE
5
133
100
AcDbEntity
8
2
62
256
6
ByLayer
370
13
48
1
60
0
100
AcDbLine
10
49.5988
20
-9
30
0
11
67.6988
21
-9
31
0
39
0
210
0
220
0
230
1
0
LINE
5
134
100
AcDbEntity
8
2
62
256
6
ByLayer
370
13
48
1
60
0
100
AcDbLine
10
65.6988
20
-0.25
30
0
11
65.6988
21
-25.189211
31
0
39
0
210
0
220
0
230
1
0
LINE
5
135
100
AcDbEntity
8
2
62
256
6
ByLayer
370
13
48
1
60
0
100
AcDbLine
10
65.6988
20
-13
30
0
11
66.116797
21
-16.174998
31
0
39
0
210
0
220
0
230
1
0
LINE
5
136
100
AcDbEntity
8
2
62
256
6
ByLayer
370
13
48
1
60
0
100
AcDbLine
10
65.6988
20
-13
30
0
11
65.280803
21
-16.175002
31
0
39
0
210
0
220
0
230
1
0
LINE
5
137
100
AcDbEntity
8
2
62
256
6
ByLayer
370
13
48
1
60
0
100
AcDbLine
10
66.116797
20
-16.174998
30
0
11
65.280803
21
-16.175002
31
0
39
0
210
0
220
0
230
1
0
LINE
5
138
100
AcDbEntity
8
2
62
256
6
ByLayer
370
13
48
1
60
0
100
AcDbLine
10
65.6988
20
-9
30
0
11
65.280803
21
-5.825002
31
0
39
0
210
0
220
0
230
1
0
LINE
5
139
100
AcDbEntity
8
2
62
256
6
ByLayer
370
13
48
1
60
0
100
AcDbLine
10
65.6988
20
-9
30
0
11
66.116797
21
-5.824998
31
0
39
0
210
0
220
0
230
1
0
LINE
5
13A
100
AcDbEntity
8
2
62
256
6
ByLayer
370
13
48
1
60
0
100
AcDbLine
10
65.280803
20
-5.825002
30
0
11
66.116797
21
-5.824998
31
0
39
0
210
0
220
0
230
1
0
ENDBLK
5
13C
100
AcDbEntity
8
0
100
AcDbBlockEnd
0
ENDSEC
0
SECTION
2
ENTITIES
0
ARC
5
BB
100
AcDbEntity
8
1
62
256
6
ByLayer
370
18
48
1
60
0
100
AcDbCircle
39
0
10
-9.5988
20
-7.65
30
0
40
1.6
210
0
220
0
230
-1
100
AcDbArc
50
270
51
0
0
ARC
5
BC
100
AcDbEntity
8
SK1
62
256
6
ByLayer
370
18
48
1
60
0
100
AcDbCircle
39
0
10
1.227723
20
-14.025
30
0
40
1.59999999999824
210
0
220
0
230
-1
100
AcDbArc
50
90
51
120.763857
0
ARC
5
BD
100
AcDbEntity
8
SK1
62
256
6
ByLayer
370
18
48
1
60
0
100
AcDbCircle
39
0
10
0.1012
20
13.1
30
0
40
1.6
210
0
220
0
230
-1
100
AcDbArc
50
314.755023
51
337.975687
0
ELLIPSE
5
BE
100
AcDbEntity
8
1
62
256
6
ByLayer
370
18
48
1
60
0
100
AcDbEllipse
10
40.239921
20
-10.132324
30
0
11
0.658634203323449
21
-3.69395375738727
31
0
210
0
220
0
230
-1
40
0.323001
41
-0.763494259971696
42
-0.696495413245092
0
ELLIPSE
5
BF
100
AcDbEntity
8
1
62
256
6
ByLayer
370
18
48
1
60
0
100
AcDbEllipse
10
75.110164
20
-63.000468
30
0
11
70.2736804871354
21
-36.2734700055708
31
0
210
0
220
0
230
-1
40
0.564443
41
-2.31155686551796
42
-2.30730817511138
0
ELLIPSE
5
C0
100
AcDbEntity
8
1
62
256
6
ByLayer
370
18
48
1
60
0
100
AcDbEllipse
10
2.497474
20
-12.708195
30
0
11
8.04071436169372E-17
21
0.499999999999882
31
0
210
0
220
0
230
-1
40
0.267949
41
1.5707963267949
42
-3.02099212768298
0
ELLIPSE
5
C1
100
AcDbEntity
8
1
62
256
6
ByLayer
370
18
48
1
60
0
100
AcDbEllipse
10
39.916836
20
-11.014989
30
0
11
0.855355699695587
21
-0.00474743230415176
31
0
210
0
220
0
230
-1
40
0.876812
41
0
42
6.28318530717959
0
ELLIPSE
5
C2
100
AcDbEntity
8
1
62
256
6
ByLayer
370
18
48
1
60
0
100
AcDbEllipse
10
5.284689
20
-63
30
0
11
150.029954169967
21
20.2477584209037
31
0
210
0
220
0
230
-1
40
0.33187
41
-1.27126243633324
42
-1.24388279386202
0
ELLIPSE
5
C3
100
AcDbEntity
8
1
62
256
6
ByLayer
370
18
48
1
60
0
100
AcDbEllipse
10
43.346619
20
-89
30
0
11
90.9903867959489
21
9.19584385330365E-14
31
0
210
0
220
0
230
-1
40
0.8391
41
-1.6679516452843
42
-1.57152325171382
0
ELLIPSE
5
C4
100
AcDbEntity
8
1
62
256
6
ByLayer
370
18
48
1
60
0
100
AcDbEllipse
10
73.522562
20
-89
30
0
11
174.283810709654
21
1.76138025771758E-13
31
0
210
0
220
0
230
-1
40
0.438079
41
-1.91503091595741
42
-1.74737377519669
0
ELLIPSE
5
C5
100
AcDbEntity
8
1
62
256
6
ByLayer
370
18
48
1
60
0
100
AcDbEllipse
10
0.020096
20
-89
30
0
11
1.22781708299029E-14
21
76.3499999974737
31
0
210
0
220
0
230
-1
40
0.267949
41
0.0145504744954129
42
0.120600525908698
0
ELLIPSE
5
C6
100
AcDbEntity
8
1
62
256
6
ByLayer
370
18
48
1
60
0
100
AcDbEllipse
10
141.452451
20
-89.000003
30
0
11
235.489644952475
21
-30.2669509486147
31
0
210
0
220
0
230
-1
40
0.297654
41
-2.04699125121448
42
-2.02096291082872
0
ELLIPSE
5
C7
100
AcDbEntity
8
1
62
256
6
ByLayer
370
18
48
1
60
0
100
AcDbEllipse
10
43.346619
20
-63
30
0
11
64.0567556031388
21
6.4738258954398E-14
31
0
210
0
220
0
230
-1
40
0.8391
41
-1.70902483147395
42
-1.57504507965812
0
POINT
5
6C
100
AcDbEntity
8
80
62
256
6
ByLayer
370
18
48
1
60
0
100
AcDbPoint
10
0
20
0
30
0
39
0
210
0
220
0
230
1
50
360
0
POINT
5
6E
100
AcDbEntity
8
81
62
256
6
ByLayer
370
18
48
1
60
0
100
AcDbPoint
10
47.5988
20
-13
30
0
39
0
210
0
220
0
230
1
50
360
0
SPLINE
5
C8
100
AcDbEntity
8
SK1
62
256
6
ByLayer
370
18
48
1
60
0
100
AcDbSpline
70
4
71
3
72
10
73
6
40
0
40
0
40
0
40
0
40
0.396735657131261
40
0.396735657131261
40
1
40
1
40
1
40
1
41
1
10
-0.409321700484981
20
-12.6501476380814
30
0
41
1
10
-0.364689516443121
20
-12.6501998859748
30
0
41
1
10
-0.321301316485687
20
-12.6502703342277
30
0
41
1
10
-0.216023066782924
20
-12.650510063002
30
0
41
1
10
-0.155874641290495
20
-12.6507124645599
30
0
41
1
10
-0.100000000001813
20
-12.6509960425086
30
0
0
SPLINE
5
C9
100
AcDbEntity
8
SK1
62
256
6
ByLayer
370
18
48
1
60
0
100
AcDbSpline
70
4
71
3
72
8
73
4
40
0
40
0
40
0
40
0
40
1
40
1
40
1
40
1
41
1
10
-0.100000000001813
20
-12.8899932037356
30
0
41
1
10
-0.260903852946967
20
-12.7301219100678
30
0
41
1
10
-0.409579737696418
20
-12.649604353903
30
0
41
1
10
-0.409545033582674
20
-12.6500017258781
30
0
0
SPLINE
5
CA
100
AcDbEntity
8
SK1
62
256
6
ByLayer
370
18
48
1
60
0
100
AcDbSpline
70
4
71
3
72
14
73
10
40
0
40
0
40
0
40
0
40
0.0782240908324933
40
0.0782240908324933
40
0.373745986492279
40
0.373745986492279
40
0.687740301636449
40
0.687740301636449
40
1
40
1
40
1
40
1
41
1
10
-0.101200000000034
20
11.5
30
0
41
1
10
-0.126764194613543
20
11.5
30
0
41
1
10
-0.153205218482668
20
11.5006135788319
30
0
41
1
10
-0.281992422160727
20
11.5069965094968
30
0
41
1
10
-0.396169967621603
20
11.5227670583598
30
0
41
1
10
-0.637193031411812
20
11.5869979759265
30
0
41
1
10
-0.767595850199712
20
11.6386599083221
30
0
41
1
10
-1.01083152014266
20
11.7763557183186
30
0
41
1
10
-1.12691191262974
20
11.8638492973924
30
0
41
1
10
-1.22772318076633
20
11.9638021637074
30
0
0
SPLINE
5
CB
100
AcDbEntity
8
1
62
256
6
ByLayer
370
18
48
1
60
0
100
AcDbSpline
70
4
71
3
72
12
73
8
40
0
40
0
40
0
40
0
40
0.246882552300149
40
0.246882552300149
40
0.857179235385172
40
0.857179235385172
40
1
40
1
40
1
40
1
41
1
10
32.9073169613316
20
-9.27223090474115
30
0
41
1
10
32.9116727411046
20
-9.26828152599217
30
0
41
1
10
32.9255109562192
20
-9.26486250118631
30
0
41
1
10
33.0051410100834
20
-9.25501011022931
30
0
41
1
10
33.1195090277115
20
-9.25133610419928
30
0
41
1
10
33.3204010084291
20
-9.25008369169876
30
0
41
1
10
33.3613656320937
20
-9.24998573039784
30
0
41
1
10
33.4049632701139
20
-9.2500071180059
30
0
0
SPLINE
5
CC
100
AcDbEntity
8
1
62
256
6
ByLayer
370
18
48
1
60
0
100
AcDbSpline
70
4
71
3
72
32
73
28
40
0
40
0
40
0
40
0
40
0.0818771454062433
40
0.0818771454062433
40
0.158275429566742
40
0.158275429566742
40
0.234436910608825
40
0.234436910608825
40
0.310515245153727
40
0.310515245153727
40
0.386690382828778
40
0.386690382828778
40
0.463113335114722
40
0.463113335114722
40
0.539851551448547
40
0.539851551448547
40
0.616848076474383
40
0.616848076474383
40
0.693922080316307
40
0.693922080316307
40
0.770833583915597
40
0.770833583915597
40
0.847397560814329
40
0.847397560814329
40
0.92368964718344
40
0.92368964718344
40
1
40
1
40
1
40
1
41
1
10
28.0086056552114
20
-9.49334074718621
30
0
41
1
10
28.007119286748
20
-9.48878973031594
30
0
41
1
10
27.9968144508259
20
-9.4842615243607
30
0
41
1
10
27.9616276582172
20
-9.47633401966851
30
0
41
1
10
27.937283247595
20
-9.47277022213154
30
0
41
1
10
27.8779514733068
20
-9.46672481764151
30
0
41
1
10
27.842185730564
20
-9.46415624870289
30
0
41
1
10
27.7642582153051
20
-9.4602939258827
30
0
41
1
10
27.7210345617087
20
-9.45894487831859
30
0
41
1
10
27.6331012260595
20
-9.45759960449101
30
0
41
1
10
27.5871768451671
20
-9.4575861526763
30
0
41
1
10
27.4989495816704
20
-9.45888239464935
30
0
41
1
10
27.455434343217
20
-9.46021475157096
30
0
41
1
10
27.3768231033202
20
-9.46406289346282
30
0
41
1
10
27.3406660817
20
-9.46663815734081
30
0
41
1
10
27.2807108693468
20
-9.47271338839477
30
0
41
1
10
27.2561170569546
20
-9.47630230664967
30
0
41
1
10
27.221830072742
20
-9.48402530428339
30
0
41
1
10
27.2116740319794
20
-9.48826795690687
30
0
41
1
10
27.2070094176307
20
-9.49682161673857
30
0
41
1
10
27.2124028215696
20
-9.50125036733229
30
0
41
1
10
27.237696035499
20
-9.50965829683724
30
0
41
1
10
27.2578768593975
20
-9.51375355906913
30
0
41
1
10
27.3100024978363
20
-9.52101510497334
30
0
41
1
10
27.3426187522883
20
-9.5242823371467
30
0
41
1
10
27.4157439740677
20
-9.52950626745229
30
0
41
1
10
27.4572626280395
20
-9.53153301450396
30
0
41
1
10
27.5003011820833
20
-9.53278208851901
30
0
0
SPLINE
5
CD
100
AcDbEntity
8
1
62
256
6
ByLayer
370
18
48
1
60
0
100
AcDbSpline
70
4
71
3
72
19
73
15
40
0
40
0
40
0
40
0
40
0.0694833725148021
40
0.0694833725148021
40
0.0694833725148021
40
0.255043285473435
40
0.255043285473435
40
0.44147619839085
40
0.44147619839085
40
0.627952928661914
40
0.627952928661914
40
0.813959632548323
40
0.813959632548323
40
1
40
1
40
1
40
1
41
1
10
27.5003011820833
20
-9.53278208851901
30
0
41
1
10
27.6736429215634
20
-9.5378128491316
30
0
41
1
10
27.8504796612405
20
-9.54178116970854
30
0
41
1
10
28.0286629465129
20
-9.5445663654308
30
0
41
1
10
28.4986722186637
20
-9.55191311410144
30
0
41
1
10
28.9873768067915
20
-9.55080635337299
30
0
41
1
10
29.9228920828864
20
-9.53208990972115
30
0
41
1
10
30.3825323778508
20
-9.5142019242092
30
0
41
1
10
31.207005319838
20
-9.46857357723542
30
0
41
1
10
31.5832820871362
20
-9.4403334128807
30
0
41
1
10
32.2010997082503
20
-9.3839208736382
30
0
41
1
10
32.4514879337365
20
-9.35511652859472
30
0
41
1
10
32.7947074903824
20
-9.30640445556878
30
0
41
1
10
32.8922120985141
20
-9.2859264603766
30
0
41
1
10
32.9073169613316
20
-9.27223090474115
30
0
0
SPLINE
5
CE
100
AcDbEntity
8
1
62
256
6
ByLayer
370
18
48
1
60
0
100
AcDbSpline
70
4
71
3
72
22
73
18
40
0
40
0
40
0
40
0
40
0.0379006691976124
40
0.0379006691976124
40
0.195136410151711
40
0.195136410151711
40
0.352551960138889
40
0.352551960138889
40
0.509657665907238
40
0.509657665907238
40
0.666200117212425
40
0.666200117212425
40
0.822278283291634
40
0.822278283291634
40
0.97823531102684
40
0.97823531102684
40
1
40
1
40
1
40
1
41
1
10
40.2097686119964
20
-12.8805575474653
30
0
41
1
10
40.1726449291914
20
-12.8805575474653
30
0
41
1
10
40.1354896900324
20
-12.8804382509896
30
0
41
1
10
39.9470739531921
20
-12.8792282094311
30
0
41
1
10
39.7957374660876
20
-12.8761938583592
30
0
41
1
10
39.5182620232429
20
-12.8667318419275
30
0
41
1
10
39.3882958586892
20
-12.8601776221449
30
0
41
1
10
39.1677807260049
20
-12.844950748425
30
0
41
1
10
39.074114476488
20
-12.8360831847012
30
0
41
1
10
38.9354671269619
20
-12.8177444980277
30
0
41
1
10
38.888419407276
20
-12.8080329831966
30
0
41
1
10
38.8465684177773
20
-12.7893675091601
30
0
41
1
10
38.8510473119809
20
-12.7801591996617
30
0
41
1
10
38.9101670431898
20
-12.7634615043593
30
0
41
1
10
38.9655863754759
20
-12.75573791695
30
0
41
1
10
39.0531728126363
20
-12.7481981013451
30
0
41
1
10
39.0644350346298
20
-12.7472855439868
30
0
41
1
10
39.0761147856186
20
-12.7463933328357
30
0
0
SPLINE
5
CF
100
AcDbEntity
8
1
62
256
6
ByLayer
370
18
48
1
60
0
100
AcDbSpline
70
4
71
3
72
8
73
4
40
0
40
0
40
0
40
0
40
1
40
1
40
1
40
1
41
1
10
31.3923394264311
20
-13.2045631433425
30
0
41
1
10
30.3132729653294
20
-13.2502767414122
30
0
41
1
10
29.2030945518577
20
-12.9565416736554
30
0
41
1
10
28.0924437908251
20
-12.7081948600638
30
0
0
SPLINE
5
D0
100
AcDbEntity
8
1
62
256
6
ByLayer
370
18
48
1
60
0
100
AcDbSpline
70
4
71
3
72
10
73
6
40
0
40
0
40
0
40
0
40
0.359827829897643
40
0.359827829897643
40
1
40
1
40
1
40
1
41
1
10
-0.100000000001813
20
-12.6509960425086
30
0
41
1
10
-0.0284097988904648
20
-12.6513593809017
30
0
41
1
10
0.0367081544819712
20
-12.6518599524234
30
0
41
1
10
0.194586213845412
20
-12.6537458778385
30
0
41
1
10
0.27141927624146
20
-12.6555656053753
30
0
41
1
10
0.317758141296167
20
-12.6580821274646
30
0
0
SPLINE
5
D1
100
AcDbEntity
8
1
62
256
6
ByLayer
370
18
48
1
60
0
100
AcDbSpline
70
4
71
3
72
14
73
10
40
0
40
0
40
0
40
0
40
0.0729277143914526
40
0.0729277143914526
40
0.38182014429175
40
0.38182014429175
40
0.690919206020914
40
0.690919206020914
40
1
40
1
40
1
40
1
41
1
10
41.510602597571
20
-12.8294583589704
30
0
41
1
10
41.4946333463308
20
-12.8315644517208
30
0
41
1
10
41.4774211703103
20
-12.8336469932691
30
0
41
1
10
41.382126127895
20
-12.8442615853265
30
0
41
1
10
41.2829809647811
20
-12.852329629233
30
0
41
1
10
41.0564597960781
20
-12.8657319133399
30
0
41
1
10
40.9259422489317
20
-12.8712391600207
30
0
41
1
10
40.6520993366145
20
-12.8786041478163
30
0
41
1
10
40.5050033464266
20
-12.8805575474653
30
0
41
1
10
40.3599115147709
20
-12.8805575474653
30
0
0
SPLINE
5
D2
100
AcDbEntity
8
1
62
256
6
ByLayer
370
18
48
1
60
0
100
AcDbSpline
70
4
71
3
72
14
73
10
40
0
40
0
40
0
40
0
40
0.270456983034764
40
0.270456983034764
40
0.513300750952726
40
0.513300750952726
40
0.75666672369778
40
0.75666672369778
40
1
40
1
40
1
40
1
41
1
10
28.0939412647663
20
-9.50257517533288
30
0
41
1
10
28.0815839215213
20
-9.50239755498365
30
0
41
1
10
28.0693725518432
20
-9.50198358403216
30
0
41
1
10
28.0488279005413
20
-9.50083263456239
30
0
41
1
10
28.0399372643466
20
-9.50011689382916
30
0
41
1
10
28.0253091637451
20
-9.49846746441554
30
0
41
1
10
28.0193743658478
20
-9.49751048082635
30
0
41
1
10
28.0112542173454
20
-9.49549683045217
30
0
41
1
10
28.0089556594586
20
-9.49441240288451
30
0
41
1
10
28.0086056552114
20
-9.49334074718621
30
0
0
SPLINE
5
D3
100
AcDbEntity
8
1
62
256
6
ByLayer
370
18
48
1
60
0
100
AcDbSpline
70
4
71
3
72
12
73
8
40
0
40
0
40
0
40
0
40
0.259464058063111
40
0.259464058063111
40
0.65780221145504
40
0.65780221145504
40
1
40
1
40
1
40
1
41
1
10
35.9110498999199
20
-9.25281402715117
30
0
41
1
10
36.0286496691982
20
-9.25281402715117
30
0
41
1
10
36.1469576372125
20
-9.25267515629776
30
0
41
1
10
36.4364172073658
20
-9.25205688598709
30
0
41
1
10
36.6067694051264
20
-9.25141891993781
30
0
41
1
10
36.889124502205
20
-9.25041146819476
30
0
41
1
10
37.009058928736
20
-9.25001976159373
30
0
41
1
10
37.1112288986555
20
-9.25000103411276
30
0
0
SPLINE
5
D4
100
AcDbEntity
8
1
62
256
6
ByLayer
370
18
48
1
60
0
100
AcDbSpline
70
4
71
3
72
8
73
4
40
0
40
0
40
0
40
0
40
1
40
1
40
1
40
1
41
1
10
14.7059114362668
20
-17.1291463273997
30
0
41
1
10
13.3965033118443
20
-17.3347952802291
30
0
41
1
10
12.2515696661422
20
-17.6380192500428
30
0
41
1
10
11.3106057728964
20
-18.0421020316479
30
0
0
SPLINE
5
D5
100
AcDbEntity
8
1
62
256
6
ByLayer
370
18
48
1
60
0
100
AcDbSpline
70
4
71
3
72
8
73
4
40
0
40
0
40
0
40
0
40
1
40
1
40
1
40
1
41
1
10
0.317758141296167
20
-13.610889527836
30
0
41
1
10
0.231716673990093
20
-13.2897784002919
30
0
41
1
10
0.0611454872271793
20
-13.0501045810612
30
0
41
1
10
-0.100000000001813
20
-12.8899932037356
30
0
0
SPLINE
5
D6
100
AcDbEntity
8
1
62
256
6
ByLayer
370
18
48
1
60
0
100
AcDbSpline
70
4
71
3
72
16
73
12
40
0
40
0
40
0
40
0
40
0.201805533317298
40
0.201805533317298
40
0.402164529615796
40
0.402164529615796
40
0.601693433139851
40
0.601693433139851
40
0.800835467773025
40
0.800835467773025
40
1
40
1
40
1
40
1
41
1
10
32.487528234296
20
-9.27184933909459
30
0
41
1
10
32.4737992013424
20
-9.28419007586263
30
0
41
1
10
32.384506856457
20
-9.30214928008087
30
0
41
1
10
32.0712454224122
20
-9.34411155888429
30
0
41
1
10
31.8439385645978
20
-9.36856613614142
30
0
41
1
10
31.2856201609419
20
-9.41598553520581
30
0
41
1
10
30.9473862748129
20
-9.43948870322222
30
0
41
1
10
30.2075966530576
20
-9.47734936796348
30
0
41
1
10
29.7960176744949
20
-9.49213672371519
30
0
41
1
10
28.9564089717596
20
-9.50770665246196
30
0
41
1
10
28.516833633251
20
-9.50865368983966
30
0
41
1
10
28.0939412647663
20
-9.50257517533288
30
0
0
SPLINE
5
D7
100
AcDbEntity
8
1
62
256
6
ByLayer
370
18
48
1
60
0
100
AcDbSpline
70
4
71
3
72
8
73
4
40
0
40
0
40
0
40
0
40
1
40
1
40
1
40
1
41
1
10
47.0988
20
-12.9715678183465
30
0
41
1
10
47.0988000000079
20
-13.2228476522138
30
0
41
1
10
45.4119678280256
20
-13.6414313715532
30
0
41
1
10
42.9076450927815
20
-13.8371915557534
30
0
0
SPLINE
5
D8
100
AcDbEntity
8
1
62
256
6
ByLayer
370
18
48
1
60
0
100
AcDbSpline
70
4
71
3
72
18
73
14
40
0
40
0
40
0
40
0
40
0.0301699522344333
40
0.0301699522344333
40
0.242862511686821
40
0.242862511686821
40
0.459101101250907
40
0.459101101250907
40
0.678145213605224
40
0.678145213605224
40
0.897850618055869
40
0.897850618055869
40
1
40
1
40
1
40
1
41
1
10
9.59879999999998
20
-10.1409058769449
30
0
41
1
10
9.57316762516328
20
-10.1409058769449
30
0
41
1
10
9.54752760291879
20
-10.1402791538164
30
0
41
1
10
9.34338051154171
20
-10.130293793904
30
0
41
1
10
9.16386548854976
20
-10.0901068774506
30
0
41
1
10
8.8305321329577
20
-9.95293944132374
30
0
41
1
10
8.67239157653995
20
-9.85308457772382
30
0
41
1
10
8.4007062834761
20
-9.60823960936051
30
0
41
1
10
8.28382832100121
20
-9.45919316586608
30
0
41
1
10
8.10857811057781
20
-9.1348419117281
30
0
41
1
10
8.0478804265625
20
-8.95489738887119
30
0
41
1
10
8.0055897793265
20
-8.68739520346728
30
0
41
1
10
7.99879999999999
20
-8.60093467766808
30
0
41
1
10
7.99879999999999
20
-8.51473748333413
30
0
0
SPLINE
5
D9
100
AcDbEntity
8
1
62
256
6
ByLayer
370
18
48
1
60
0
100
AcDbSpline
70
4
71
3
72
10
73
6
40
0
40
0
40
0
40
0
40
0.451305845745549
40
0.451305845745549
40
1
40
1
40
1
40
1
41
1
10
33.1744838905164
20
-9.25162727697148
30
0
41
1
10
32.9847620709824
20
-9.24969069122301
30
0
41
1
10
32.8286539261734
20
-9.2493244274294
30
0
41
1
10
32.5777403198425
20
-9.25426773053613
30
0
41
1
10
32.4996443776135
20
-9.26095839463903
30
0
41
1
10
32.487528234296
20
-9.27184933909459
30
0
0
SPLINE
5
DA
100
AcDbEntity
8
1
62
256
6
ByLayer
370
18
48
1
60
0
100
AcDbSpline
70
4
71
3
72
12
73
8
40
0
40
0
40
0
40
0
40
0.206213008294225
40
0.206213008294225
40
0.603106016091247
40
0.603106016091247
40
1
40
1
40
1
40
1
41
1
10
34.0834420980766
20
-9.25000040560079
30
0
41
1
10
34.1454204064902
20
-9.25000702026213
30
0
41
1
10
34.2138071109063
20
-9.25015249166677
30
0
41
1
10
34.42689340372
20
-9.25078489489988
30
0
41
1
10
34.5879698161405
20
-9.25145969473999
30
0
41
1
10
34.9259300571796
20
-9.25247385543423
30
0
41
1
10
35.1074748266992
20
-9.2528140271512
30
0
41
1
10
35.28655010008
20
-9.2528140271512
30
0
0
SPLINE
5
DB
100
AcDbEntity
8
1
62
256
6
ByLayer
370
18
48
1
60
0
100
AcDbSpline
70
4
71
3
72
8
73
4
40
0
40
0
40
0
40
0
40
1
40
1
40
1
40
1
41
1
10
28.0924437908251
20
-10.1409058769449
30
0
41
1
10
30.448568905994
20
-10.1409058769449
30
0
41
1
10
32.7230694983507
20
-9.97248318962139
30
0
41
1
10
34.5203198876905
20
-9.76268672571513
30
0
0
SPLINE
5
DC
100
AcDbEntity
8
1
62
256
6
ByLayer
370
18
48
1
60
0
100
AcDbSpline
70
4
71
3
72
8
73
4
40
0
40
0
40
0
40
0
40
1
40
1
40
1
40
1
41
1
10
31.3923394264311
20
-13.2045631433425
30
0
41
1
10
32.5370338231665
20
-13.1560692817953
30
0
41
1
10
33.5885057137205
20
-13.086260622281
30
0
41
1
10
34.5203198876905
20
-13.0100564241271
30
0
0
LINE
5
70
100
AcDbEntity
8
1
62
256
6
ByLayer
370
18
48
1
60
0
100
AcDbLine
10
32.914923
20
-9.25
30
0
11
9.5988
21
-9.25
31
0
39
0
210
0
220
0
230
1
0
LINE
5
72
100
AcDbEntity
8
1
62
256
6
ByLayer
370
18
48
1
60
0
100
AcDbLine
10
34.087571
20
-9.25
30
0
11
33.421891
21
-9.25
31
0
39
0
210
0
220
0
230
1
0
LINE
5
73
100
AcDbEntity
8
1
62
256
6
ByLayer
370
18
48
1
60
0
100
AcDbLine
10
42.795128
20
-9.25
30
0
11
37.103839
21
-9.25
31
0
39
0
210
0
220
0
230
1
0
LINE
5
74
100
AcDbEntity
8
1
62
256
6
ByLayer
370
18
48
1
60
0
100
AcDbLine
10
2.497474
20
-13.208195
30
0
11
31.195824
21
-13.208195
31
0
39
0
210
0
220
0
230
1
0
LINE
5
75
100
AcDbEntity
8
80
62
256
6
ByLayer
370
18
48
1
60
0
100
AcDbLine
10
0
20
0
30
0
11
-5
21
0
31
0
39
0
210
0
220
0
230
1
0
LINE
5
76
100
AcDbEntity
8
81
62
256
6
ByLayer
370
18
48
1
60
0
100
AcDbLine
10
47.5988
20
-13
30
0
11
52.5988
21
-13
31
0
39
0
210
0
220
0
230
1
0
LINE
5
77
100
AcDbEntity
8
SK1
62
256
6
ByLayer
370
18
48
1
60
0
100
AcDbLine
10
-84
20
9.5
30
0
11
-84
21
-9.425
31
0
39
0
210
0
220
0
230
1
0
LINE
5
79
100
AcDbEntity
8
SK1
62
256
6
ByLayer
370
18
48
1
60
0
100
AcDbLine
10
-84
20
-9.425
30
0
11
-81
21
-12.425
31
0
39
0
210
0
220
0
230
1
0
LINE
5
7A
100
AcDbEntity
8
SK1
62
256
6
ByLayer
370
18
48
1
60
0
100
AcDbLine
10
-1.227723
20
-12.425
30
0
11
-81
21
-12.425
31
0
39
0
210
0
220
0
230
1
0
LINE
5
7B
100
AcDbEntity
8
SK1
62
256
6
ByLayer
370
18
48
1
60
0
100
AcDbLine
10
-1.58444
20
12.5
30
0
11
-81
21
12.5
31
0
39
0
210
0
220
0
230
1
0
LINE
5
7C
100
AcDbEntity
8
SK1
62
256
6
ByLayer
370
18
48
1
60
0
100
AcDbLine
10
-0.1
20
-12.650996
30
0
11
-0.1
21
11.5
31
0
39
0
210
0
220
0
230
1
0
LINE
5
7D
100
AcDbEntity
8
SK1
62
256
6
ByLayer
370
18
48
1
60
0
100
AcDbLine
10
-0.1
20
11.5
30
0
11
-0.1012
21
11.5
31
0
39
0
210
0
220
0
230
1
0
LINE
5
7E
100
AcDbEntity
8
SK1
62
256
6
ByLayer
370
18
48
1
60
0
100
AcDbLine
10
-84
20
9.5
30
0
11
-81
21
12.5
31
0
39
0
210
0
220
0
230
1
0
LINE
5
7F
100
AcDbEntity
8
SK1
62
256
6
ByLayer
370
13
48
1
60
0
100
AcDbLine
10
-1.227723
20
-12.425
30
0
11
-1.227723
21
11.963802
31
0
39
0
210
0
220
0
230
1
0
LINE
5
80
100
AcDbEntity
8
SK1
62
256
6
ByLayer
370
18
48
1
60
0
100
AcDbLine
10
-0.1
20
-12.889993
30
0
11
-0.1
21
-12.650996
31
0
39
0
210
0
220
0
230
1
0
LINE
5
81
100
AcDbEntity
8
1
62
256
6
ByLayer
370
18
48
1
60
0
100
AcDbLine
10
-0.1
20
-12.650996
30
0
11
-0.1
21
11.5
31
0
39
0
210
0
220
0
230
1
0
LINE
5
82
100
AcDbEntity
8
1
62
256
6
ByLayer
370
18
48
1
60
0
100
AcDbLine
10
2.631449
20
8.5
30
0
11
7.9988
21
8.5
31
0
39
0
210
0
220
0
230
1
0
LINE
5
83
100
AcDbEntity
8
1
62
256
6
ByLayer
370
18
48
1
60
0
100
AcDbLine
10
0.317758
20
-13.61089
30
0
11
1.505098
21
-18.042102
31
0
39
0
210
0
220
0
230
1
0
LINE
5
84
100
AcDbEntity
8
1
62
256
6
ByLayer
370
18
48
1
60
0
100
AcDbLine
10
-0.1
20
-12.889993
30
0
11
-0.1
21
-12.650996
31
0
39
0
210
0
220
0
230
1
0
LINE
5
85
100
AcDbEntity
8
1
62
256
6
ByLayer
370
18
48
1
60
0
100
AcDbLine
10
47.0988
20
-9.344543
30
0
11
47.0988
21
-10.728775
31
0
39
0
210
0
220
0
230
1
0
LINE
5
86
100
AcDbEntity
8
1
62
256
6
ByLayer
370
13
48
1
60
0
100
AcDbLine
10
43.212264
20
-10.898465
30
0
11
47.0988
21
-10.728775
31
0
39
0
210
0
220
0
230
1
0
LINE
5
87
100
AcDbEntity
8
1
62
256
6
ByLayer
370
18
48
1
60
0
100
AcDbLine
10
47.0988
20
-10.788582
30
0
11
47.0988
21
-10.83375
31
0
39
0
210
0
220
0
230
1
0
LINE
5
88
100
AcDbEntity
8
1
62
256
6
ByLayer
370
13
48
1
60
0
100
AcDbLine
10
9.5988
20
-10.140906
30
0
11
9.5988
21
-9.25
31
0
39
0
210
0
220
0
230
1
0
LINE
5
89
100
AcDbEntity
8
1
62
256
6
ByLayer
370
18
48
1
60
0
100
AcDbLine
10
43.28478
20
-12.632576
30
0
11
43.154636
21
-9.520579
31
0
39
0
210
0
220
0
230
1
0
LINE
5
8A
100
AcDbEntity
8
1
62
256
6
ByLayer
370
13
48
1
60
0
100
AcDbLine
10
47.0988
20
-11.314886
30
0
11
43.236789
21
-11.483505
31
0
39
0
210
0
220
0
230
1
0
LINE
5
8B
100
AcDbEntity
8
1
62
256
6
ByLayer
370
13
48
1
60
0
100
AcDbLine
10
32.487528
20
-9.347727
30
0
11
32.487528
21
-9.271849
31
0
39
0
210
0
220
0
230
1
0
LINE
5
8C
100
AcDbEntity
8
1
62
256
6
ByLayer
370
18
48
1
60
0
100
AcDbLine
10
43.074459
20
-9.250485
30
0
11
43.154636
21
-9.520579
31
0
39
0
210
0
220
0
230
1
0
LINE
5
8D
100
AcDbEntity
8
1
62
256
6
ByLayer
370
18
48
1
60
0
100
AcDbLine
10
47.0988
20
-12.971568
30
0
11
47.0988
21
-12.719101
31
0
39
0
210
0
220
0
230
1
0
LINE
5
8E
100
AcDbEntity
8
1
62
256
6
ByLayer
370
18
48
1
60
0
100
AcDbLine
10
1.827601
20
11.5
30
0
11
6.9988
21
11.5
31
0
39
0
210
0
220
0
230
1
0
LINE
5
8F
100
AcDbEntity
8
1
62
256
6
ByLayer
370
18
48
1
60
0
100
AcDbLine
10
47.0988
20
-11.070701
30
0
11
47.0988
21
-11.209911
31
0
39
0
210
0
220
0
230
1
0
LINE
5
90
100
AcDbEntity
8
1
62
256
6
ByLayer
370
18
48
1
60
0
100
AcDbLine
10
35.28655
20
-9.252814
30
0
11
35.91105
21
-9.252814
31
0
39
0
210
0
220
0
230
1
0
LINE
5
91
100
AcDbEntity
8
1
62
256
6
ByLayer
370
18
48
1
60
0
100
AcDbLine
10
43.28478
20
-12.632576
30
0
11
43.280476
21
-12.65002
31
0
39
0
210
0
220
0
230
1
0
LINE
5
92
100
AcDbEntity
8
1
62
256
6
ByLayer
370
18
48
1
60
0
100
AcDbLine
10
1.827601
20
11.5
30
0
11
2.631449
21
8.5
31
0
39
0
210
0
220
0
230
1
0
LINE
5
93
100
AcDbEntity
8
1
62
256
6
ByLayer
370
13
48
1
60
0
100
AcDbLine
10
34.52032
20
-9.762687
30
0
11
34.52032
21
-13.010056
31
0
39
0
210
0
220
0
230
1
0
LINE
5
94
100
AcDbEntity
8
1
62
256
6
ByLayer
370
18
48
1
60
0
100
AcDbLine
10
28.008606
20
-9.544141
30
0
11
28.008606
21
-9.493341
31
0
39
0
210
0
220
0
230
1
0
LINE
5
95
100
AcDbEntity
8
1
62
256
6
ByLayer
370
18
48
1
60
0
100
AcDbLine
10
11.310606
20
-18.042102
30
0
11
1.505098
21
-18.042102
31
0
39
0
210
0
220
0
230
1
0
LINE
5
96
100
AcDbEntity
8
1
62
256
6
ByLayer
370
13
48
1
60
0
100
AcDbLine
10
0.317758
20
11.5
30
0
11
0.317758
21
-12.658082
31
0
39
0
210
0
220
0
230
1
0
LINE
5
97
100
AcDbEntity
8
1
62
256
6
ByLayer
370
13
48
1
60
0
100
AcDbLine
10
28.092444
20
-12.708195
30
0
11
28.092444
21
-10.140906
31
0
39
0
210
0
220
0
230
1
0
LINE
5
98
100
AcDbEntity
8
1
62
256
6
ByLayer
370
13
48
1
60
0
100
AcDbLine
10
40.35165
20
-12.691332
30
0
11
40.359912
21
-12.880558
31
0
39
0
210
0
220
0
230
1
0
LINE
5
99
100
AcDbEntity
8
1
62
256
6
ByLayer
370
18
48
1
60
0
100
AcDbLine
10
7.9988
20
8.5
30
0
11
7.9988
21
10.5
31
0
39
0
210
0
220
0
230
1
0
LINE
5
9A
100
AcDbEntity
8
1
62
256
6
ByLayer
370
18
48
1
60
0
100
AcDbLine
10
1.827601
20
11.5
30
0
11
0.317758
21
11.5
31
0
39
0
210
0
220
0
230
1
0
LINE
5
9B
100
AcDbEntity
8
1
62
256
6
ByLayer
370
18
48
1
60
0
100
AcDbLine
10
47.0988
20
-10.97296
30
0
11
47.0988
21
-11.070701
31
0
39
0
210
0
220
0
230
1
0
LINE
5
9C
100
AcDbEntity
8
1
62
256
6
ByLayer
370
13
48
1
60
0
100
AcDbLine
10
43.216681
20
-11.003247
30
0
11
47.0988
21
-10.83375
31
0
39
0
210
0
220
0
230
1
0
LINE
5
9D
100
AcDbEntity
8
1
62
256
6
ByLayer
370
18
48
1
60
0
100
AcDbLine
10
47.0988
20
-11.314886
30
0
11
47.0988
21
-12.719101
31
0
39
0
210
0
220
0
230
1
0
LINE
5
9E
100
AcDbEntity
8
1
62
256
6
ByLayer
370
18
48
1
60
0
100
AcDbLine
10
7.9988
20
-8.514737
30
0
11
7.9988
21
8.5
31
0
39
0
210
0
220
0
230
1
0
LINE
5
9F
100
AcDbEntity
8
1
62
256
6
ByLayer
370
18
48
1
60
0
100
AcDbLine
10
47.0988
20
-11.314886
30
0
11
47.0988
21
-11.255079
31
0
39
0
210
0
220
0
230
1
0
LINE
5
A0
100
AcDbEntity
8
1
62
256
6
ByLayer
370
18
48
1
60
0
100
AcDbLine
10
47.0988
20
-10.83375
30
0
11
47.0988
21
-10.97296
31
0
39
0
210
0
220
0
230
1
0
LINE
5
A1
100
AcDbEntity
8
1
62
256
6
ByLayer
370
18
48
1
60
0
100
AcDbLine
10
47.0988
20
-11.209911
30
0
11
47.0988
21
-11.255079
31
0
39
0
210
0
220
0
230
1
0
LINE
5
A2
100
AcDbEntity
8
1
62
256
6
ByLayer
370
18
48
1
60
0
100
AcDbLine
10
47.0988
20
-10.788582
30
0
11
47.0988
21
-10.728775
31
0
39
0
210
0
220
0
230
1
0
LINE
5
A3
100
AcDbEntity
8
1
62
256
6
ByLayer
370
13
48
1
60
0
100
AcDbLine
10
28.092444
20
-12.708195
30
0
11
2.631449
21
-12.708195
31
0
39
0
210
0
220
0
230
1
0
LINE
5
A4
100
AcDbEntity
8
1
62
256
6
ByLayer
370
13
48
1
60
0
100
AcDbLine
10
28.093941
20
-9.545021
30
0
11
28.093941
21
-9.502575
31
0
39
0
210
0
220
0
230
1
0
LINE
5
A5
100
AcDbEntity
8
1
62
256
6
ByLayer
370
13
48
1
60
0
100
AcDbLine
10
47.0988
20
-11.209911
30
0
11
43.232423
21
-11.37872
31
0
39
0
210
0
220
0
230
1
0
LINE
5
A6
100
AcDbEntity
8
1
62
256
6
ByLayer
370
13
48
1
60
0
100
AcDbLine
10
43.234247
20
-11.423809
30
0
11
47.0988
21
-11.255079
31
0
39
0
210
0
220
0
230
1
0
LINE
5
A7
100
AcDbEntity
8
1
62
256
6
ByLayer
370
18
48
1
60
0
100
AcDbLine
10
7.9988
20
10.5
30
0
11
6.9988
21
11.5
31
0
39
0
210
0
220
0
230
1
0
LINE
5
A8
100
AcDbEntity
8
1
62
256
6
ByLayer
370
13
48
1
60
0
100
AcDbLine
10
47.0988
20
-10.788582
30
0
11
43.214835
21
-10.958159
31
0
39
0
210
0
220
0
230
1
0
LINE
5
A9
100
AcDbEntity
8
1
62
256
6
ByLayer
370
13
48
1
60
0
100
AcDbLine
10
40.201694
20
-12.695615
30
0
11
40.209769
21
-12.880558
31
0
39
0
210
0
220
0
230
1
0
LINE
5
AA
100
AcDbEntity
8
1
62
256
6
ByLayer
370
13
48
1
60
0
100
AcDbLine
10
47.0988
20
-10.97296
30
0
11
43.222506
21
-11.142203
31
0
39
0
210
0
220
0
230
1
0
LINE
5
AB
100
AcDbEntity
8
1
62
256
6
ByLayer
370
18
48
1
60
0
100
AcDbLine
10
2.631449
20
8.5
30
0
11
2.631449
21
-12.708195
31
0
39
0
210
0
220
0
230
1
0
LINE
5
AC
100
AcDbEntity
8
1
62
256
6
ByLayer
370
18
48
1
60
0
100
AcDbLine
10
40.359912
20
-12.880558
30
0
11
40.209769
21
-12.880558
31
0
39
0
210
0
220
0
230
1
0
LINE
5
AD
100
AcDbEntity
8
1
62
256
6
ByLayer
370
18
48
1
60
0
100
AcDbLine
10
0.317758
20
11.5
30
0
11
-0.1
21
11.5
31
0
39
0
210
0
220
0
230
1
0
LINE
5
AE
100
AcDbEntity
8
1
62
256
6
ByLayer
370
18
48
1
60
0
100
AcDbLine
10
9.5988
20
-10.140906
30
0
11
28.092444
21
-10.140906
31
0
39
0
210
0
220
0
230
1
0
LINE
5
AF
100
AcDbEntity
8
1
62
256
6
ByLayer
370
18
48
1
60
0
100
AcDbLine
10
39.076115
20
-12.746393
30
0
11
39.079848
21
-12.733989
31
0
39
0
210
0
220
0
230
1
0
LINE
5
B0
100
AcDbEntity
8
1
62
256
6
ByLayer
370
13
48
1
60
0
100
AcDbLine
10
43.226537
20
-11.239767
30
0
11
47.0988
21
-11.070701
31
0
39
0
210
0
220
0
230
1
0
LINE
5
B1
100
AcDbEntity
8
SK2
62
256
6
ByLayer
370
13
48
1
60
0
100
AcDbLine
10
-93.60005
20
-12.5
30
0
11
-93.60005
21
12.5
31
0
39
0
210
0
220
0
230
1
0
LINE
5
B3
100
AcDbEntity
8
SK2
62
256
6
ByLayer
370
13
48
1
60
0
100
AcDbLine
10
-2
20
12.5
30
0
11
-95.60005
21
12.5
31
0
39
0
210
0
220
0
230
1
0
LINE
5
B4
100
AcDbEntity
8
SK2
62
256
6
ByLayer
370
13
48
1
60
0
100
AcDbLine
10
-2
20
-12.5
30
0
11
-95.60005
21
-12.5
31
0
39
0
210
0
220
0
230
1
0
LINE
5
B5
100
AcDbEntity
8
SK2
62
256
6
ByLayer
370
18
48
1
60
0
100
AcDbLine
10
-93.60005
20
12.5
30
0
11
-93.182053
21
9.325002
31
0
39
0
210
0
220
0
230
1
0
LINE
5
B6
100
AcDbEntity
8
SK2
62
256
6
ByLayer
370
18
48
1
60
0
100
AcDbLine
10
-93.60005
20
12.5
30
0
11
-94.018047
21
9.324998
31
0
39
0
210
0
220
0
230
1
0
LINE
5
B7
100
AcDbEntity
8
SK2
62
256
6
ByLayer
370
18
48
1
60
0
100
AcDbLine
10
-93.182053
20
9.325002
30
0
11
-94.018047
21
9.324998
31
0
39
0
210
0
220
0
230
1
0
LINE
5
B8
100
AcDbEntity
8
SK2
62
256
6
ByLayer
370
18
48
1
60
0
100
AcDbLine
10
-93.60005
20
-12.5
30
0
11
-94.018047
21
-9.325002
31
0
39
0
210
0
220
0
230
1
0
LINE
5
B9
100
AcDbEntity
8
SK2
62
256
6
ByLayer
370
18
48
1
60
0
100
AcDbLine
10
-93.60005
20
-12.5
30
0
11
-93.182053
21
-9.324998
31
0
39
0
210
0
220
0
230
1
0
LINE
5
BA
100
AcDbEntity
8
SK2
62
256
6
ByLayer
370
18
48
1
60
0
100
AcDbLine
10
-94.018047
20
-9.325002
30
0
11
-93.182053
21
-9.324998
31
0
39
0
210
0
220
0
230
1
0
MTEXT
5
DD
100
AcDbEntity
8
SK6
62
256
6
ByLayer
370
18
48
1
60
0
100
AcDbMText
10
-49.825625
20
-53.931502
30
0
210
0
220
0
230
1
1
\W0.7631;QFU-LFH38C2525-100B
40
3.5
41
0
44
1.084337
50
0
71
7
72
5
7
iso_b_vert
0
MTEXT
5
E1
100
AcDbEntity
8
SK2
62
256
6
ByLayer
370
18
48
1
60
0
100
AcDbMText
10
-94.47505
20
-1.169737
30
0
210
0
220
0
230
1
1
\W0.6740;25
40
3.5
41
0
44
1.084337
50
89.9999999999999
71
7
72
5
7
iso_b_vert
0
DIMENSION
5
F0
100
AcDbEntity
8
2
62
256
6
ByLayer
370
13
48
1
60
0
100
AcDbDimension
2
DimnDraft3D1
10
47.5988
20
29.10005
30
0
11
19.507295
21
29.10005
31
0
70
32
71
5
72
1
41
1
210
0
220
0
230
1
3
Standard
100
AcDbAlignedDimension
13
0
23
14.5
33
0
14
47.5988
24
-11
34
0
50
0
100
AcDbRotatedDimension
1001
ACAD
1000
DSTYLE
1002
{
1070
   279
1070
     0
1070
   172
1070
     1
1070
   173
1070
     1
1070
   340
1005
DE
1070
   271
1070
     1
1070
    77
1070
     1
1070
    73
1070
     0
1070
   171
1070
     3
1070
   274
1070
     4
1070
   177
1070
     2
1070
   176
1070
     2
1070
   178
1070
     7
1070
    78
1070
     8
1070
    41
1041
3.175
1070
   147
1041
1.75
1070
    42
1041
2.0
1070
    44
1041
2.0
1070
   140
1041
3.5
1070
   343
1005
F1
1070
   344
1005
F1
1002
}
0
DIMENSION
5
105
100
AcDbEntity
8
SK2
62
256
6
ByLayer
370
13
48
1
60
0
100
AcDbDimension
2
DimnDraft3D2
10
-81
20
-31.713054
30
0
11
-83.259868
21
-31.713054
31
0
70
32
71
5
72
1
41
1
210
0
220
0
230
1
3
Standard
100
AcDbAlignedDimension
13
-84
23
10.5
33
0
14
-81
24
-14.5
34
0
50
0
100
AcDbRotatedDimension
1001
ACAD
1000
DSTYLE
1002
{
1070
   279
1070
     0
1070
   172
1070
     1
1070
   173
1070
     1
1070
   340
1005
DE
1070
    77
1070
     1
1070
    73
1070
     0
1070
   171
1070
     3
1070
   274
1070
     4
1070
   177
1070
     2
1070
   176
1070
     2
1070
   178
1070
     7
1070
    78
1070
     8
1070
    41
1041
3.175
1070
   147
1041
1.75
1070
    42
1041
2.0
1070
    44
1041
2.0
1070
   140
1041
3.5
1070
   343
1005
F1
1070
   344
1005
F1
1002
}
0
DIMENSION
5
113
100
AcDbEntity
8
SK2
62
256
6
ByLayer
370
13
48
1
60
0
100
AcDbDimension
2
DimnDraft3D3
10
47.5988
20
35.10005
30
0
11
-22.741389
21
35.10005
31
0
70
32
71
5
72
1
41
1
210
0
220
0
230
1
3
Standard
100
AcDbAlignedDimension
13
-84
23
14.5
33
0
14
47.5988
24
-11
34
0
50
0
100
AcDbRotatedDimension
1001
ACAD
1000
DSTYLE
1002
{
1070
   279
1070
     0
1070
   172
1070
     1
1070
   173
1070
     1
1070
   340
1005
DE
1070
   271
1070
     1
1070
    77
1070
     1
1070
    73
1070
     0
1070
   171
1070
     3
1070
   274
1070
     4
1070
   177
1070
     2
1070
   176
1070
     2
1070
   178
1070
     7
1070
    78
1070
     8
1070
    41
1041
3.175
1070
   147
1041
1.75
1070
    42
1041
2.0
1070
    44
1041
2.0
1070
   140
1041
3.5
1070
   343
1005
F1
1070
   344
1005
F1
1002
}
0
DIMENSION
5
121
100
AcDbEntity
8
2
62
256
6
ByLayer
370
13
48
1
60
0
100
AcDbDimension
2
DimnDraft3D4
10
9.5988
20
-31.713054
30
0
11
26.508011
21
-31.713054
31
0
70
32
71
5
72
1
41
1
210
0
220
0
230
1
3
Standard
100
AcDbAlignedDimension
13
47.5988
23
-15
33
0
14
9.5988
24
-14.5
34
0
50
0
100
AcDbRotatedDimension
1001
ACAD
1000
DSTYLE
1002
{
1070
   279
1070
     0
1070
   172
1070
     1
1070
   173
1070
     1
1070
   340
1005
DE
1070
   271
1070
     1
1070
    77
1070
     1
1070
    73
1070
     0
1070
   171
1070
     3
1070
   274
1070
     4
1070
   177
1070
     2
1070
   176
1070
     2
1070
   178
1070
     7
1070
    78
1070
     8
1070
    41
1041
3.175
1070
   147
1041
1.75
1070
    42
1041
2.0
1070
    44
1041
2.0
1070
   140
1041
3.5
1070
   343
1005
F1
1070
   344
1005
F1
1002
}
0
DIMENSION
5
12F
100
AcDbEntity
8
2
62
256
6
ByLayer
370
13
48
1
60
0
100
AcDbDimension
2
DimnDraft3D5
10
72.6988
20
-13
30
0
11
72.6988
21
-4.357895
31
0
70
32
71
5
72
1
41
1
210
0
220
0
230
1
3
Standard
100
AcDbAlignedDimension
13
2
23
12.5
33
0
14
49.5988
24
-13
34
0
50
90
100
AcDbRotatedDimension
1001
ACAD
1000
DSTYLE
1002
{
1070
    74
1070
     0
1070
   279
1070
     0
1070
   172
1070
     1
1070
   173
1070
     1
1070
   340
1005
DE
1070
   271
1070
     1
1070
    77
1070
     1
1070
    73
1070
     0
1070
   171
1070
     3
1070
   274
1070
     4
1070
   177
1070
     2
1070
   176
1070
     2
1070
   178
1070
     7
1070
    78
1070
     8
1070
    41
1041
3.175
1070
   147
1041
1.75
1070
    42
1041
2.0
1070
    44
1041
2.0
1070
   140
1041
3.5
1070
   343
1005
F1
1070
   344
1005
F1
1002
}
0
DIMENSION
5
13D
100
AcDbEntity
8
2
62
256
6
ByLayer
370
13
48
1
60
0
100
AcDbDimension
2
DimnDraft3D6
10
65.6988
20
-9
30
0
11
65.6988
21
-25.189211
31
0
70
32
71
5
72
1
41
1
210
0
220
0
230
1
3
Standard
100
AcDbAlignedDimension
13
49.5988
23
-13
33
0
14
49.5988
24
-9
34
0
50
90
100
AcDbRotatedDimension
1001
ACAD
1000
DSTYLE
1002
{
1070
    74
1070
     0
1070
   279
1070
     0
1070
   172
1070
     1
1070
   173
1070
     1
1070
   340
1005
DE
1070
   271
1070
     1
1070
    77
1070
     1
1070
    73
1070
     0
1070
   171
1070
     3
1070
   274
1070
     4
1070
   177
1070
     2
1070
   176
1070
     2
1070
   178
1070
     7
1070
    78
1070
     8
1070
    41
1041
3.175
1070
   147
1041
1.75
1070
    42
1041
2.0
1070
    44
1041
2.0
1070
   140
1041
3.5
1070
   343
1005
F1
1070
   344
1005
F1
1002
}
0
ENDSEC
0
SECTION
2
OBJECTS
0
DICTIONARY
5
1a7
330
0
100
AcDbDictionary
280
0
281
1
3
ACAD_GROUP
350
1a8
3
ACAD_MLINESTYLE
350
1a9
0
DICTIONARY
5
1a8
330
0
100
AcDbDictionary
280
0
281
1
0
DICTIONARY
5
1a9
330
0
100
AcDbDictionary
280
0
281
1
3
Standard
350
18
0
MLINESTYLE
5
18
330
1a9
100
AcDbMlineStyle
2
Standard
70
0
3

62
256
51
90
52
90
71
2
49
-0.5
62
256
6
ByLayer
49
0.5
62
256
6
ByLayer
0
RASTERVARIABLES
5
196
330

100
AcDbRasterVariables
90
0
70
1
71
1
72
1
0
ENDSEC
0
EOF
