0
SECTION
2
HEADER
9
$ACADVER
1
AC1015
9
$DWGCODEPAGE
3
ANSI_1252
9
$HANDSEED
5
1b2
9
$ANGBASE
50
0
9
$ANGDIR
70
0
9
$ATTMODE
70
1
9
$AUNITS
70
0
9
$AUPREC
70
0
9
$CECOLOR
62
256
9
$CELTSCALE
40
1
9
$CELTYPE
6
ByLayer
9
$CELWEIGHT
370
18
9
$CLAYER
8
0
9
$CMLJUST
70
0
9
$CMLSCALE
40
1
9
$CMLSTYLE
2
Standard
9
$DIMSTYLE
2
Standard
9
$TEXTSIZE
40
0.2
9
$TEXTSTYLE
7
Standard
9
$LUNITS
70
2
9
$LUPREC
70
4
9
$EXTNAMES
290
1
9
$INSUNITS
70
4
9
$LTSCALE
40
1
9
$LWDISPLAY
290
1
9
$PDMODE
70
0
9
$PDSIZE
40
0
9
$PLINEGEN
70
0
0
ENDSEC
0
SECTION
2
CLASSES
0
CLASS
1
RASTERVARIABLES
2
AcDbRasterVariables
3
ISM
90
0
280
0
281
0
0
ENDSEC
0
SECTION
2
TABLES
0
TABLE
2
VPORT
5
1a8
100
AcDbSymbolTable
0
VPORT
5
1
100
AcDbSymbolTableRecord
100
AcDbViewportTableRecord
2
*Active
70
0
10
0
20
0
11
1
21
1
12
-1
22
1
13
0
23
0
14
0.5
24
0.5
15
10
25
10
16
0
26
0
36
1
17
0
27
0
37
0
0
ENDTAB
0
TABLE
2
LTYPE
5
1a9
100
AcDbSymbolTable
0
LTYPE
5
14
100
AcDbSymbolTableRecord
100
AcDbLinetypeTableRecord
70
0
2
ByBlock
3

72
65
73
0
40
0
0
LTYPE
5
15
100
AcDbSymbolTableRecord
100
AcDbLinetypeTableRecord
70
0
2
ByLayer
3

72
65
73
0
40
0
0
LTYPE
5
16
100
AcDbSymbolTableRecord
100
AcDbLinetypeTableRecord
70
0
2
CONTINUOUS
3
Solid line
72
65
73
0
40
0
0
LTYPE
5
6A
100
AcDbSymbolTableRecord
100
AcDbLinetypeTableRecord
70
0
2
CENTER
3
____ _ ____ _ ____ _ ____
72
65
73
4
40
47.5
49
22
74
0
49
-8.5
74
0
49
8.5
74
0
49
-8.5
74
0
0
LTYPE
5
6B
100
AcDbSymbolTableRecord
100
AcDbLinetypeTableRecord
70
0
2
DASHED
3
__ __ __ __ __ __ __ __ __
72
65
73
2
40
25.72
49
12.86
74
0
49
-12.86
74
0
0
ENDTAB
0
TABLE
2
LAYER
5
1aa
100
AcDbSymbolTable
0
LAYER
5
10
100
AcDbSymbolTableRecord
100
AcDbLayerTableRecord
2
0
70
0
62
7
6
CONTINUOUS
290
1
370
-3
390
0
0
LAYER
5
6D
100
AcDbSymbolTableRecord
100
AcDbLayerTableRecord
2
80
70
0
62
-6
6
CONTINUOUS
290
1
370
-3
390
0
0
LAYER
5
6F
100
AcDbSymbolTableRecord
100
AcDbLayerTableRecord
2
81
70
0
62
-3
6
CONTINUOUS
290
1
370
-3
390
0
0
LAYER
5
71
100
AcDbSymbolTableRecord
100
AcDbLayerTableRecord
2
1
70
0
62
4
6
CONTINUOUS
290
1
370
-3
390
0
0
LAYER
5
E2
100
AcDbSymbolTableRecord
100
AcDbLayerTableRecord
2
2
70
0
62
7
6
CONTINUOUS
290
1
370
-3
390
0
0
LAYER
5
195
100
AcDbSymbolTableRecord
100
AcDbLayerTableRecord
2
SK1
70
0
62
4
6
CONTINUOUS
290
1
370
-3
390
0
0
LAYER
5
196
100
AcDbSymbolTableRecord
100
AcDbLayerTableRecord
2
SK2
70
0
62
7
6
CONTINUOUS
290
1
370
-3
390
0
0
LAYER
5
197
100
AcDbSymbolTableRecord
100
AcDbLayerTableRecord
2
SK6
70
0
62
5
6
CONTINUOUS
290
1
370
-3
390
0
0
ENDTAB
0
TABLE
2
STYLE
5
1ab
100
AcDbSymbolTable
0
STYLE
5
11
100
AcDbSymbolTableRecord
100
AcDbTextStyleTableRecord
2
Standard
3
txt
70
0
71
0
40
0
41
1
42
0
50
0
0
STYLE
5
DC
100
AcDbSymbolTableRecord
100
AcDbTextStyleTableRecord
2
iso_b_vert
3
simplex.shx
70
0
71
0
40
0
41
1
42
0
50
0
0
STYLE
5
DD
100
AcDbSymbolTableRecord
100
AcDbTextStyleTableRecord
2
DWGDirectTextStyle
3
simplex
70
0
71
0
40
0
41
1
42
0
50
0
0
ENDTAB
0
TABLE
2
DIMSTYLE
5
1ac
100
AcDbSymbolTable
100
AcDbDimStyleTable
0
DIMSTYLE
105
27
100
AcDbSymbolTableRecord
100
AcDbDimStyleTableRecord
2
Standard
70
0
3
<>
41
0.18
42
0.0625
44
0.18
140
0.18
147
0.09
73
0
74
0
77
1
271
2
275
0
278
52
280
0
340
11
0
ENDTAB
0
TABLE
2
VIEW
5
1ad
100
AcDbSymbolTable
0
ENDTAB
0
TABLE
2
UCS
5
1ae
100
AcDbSymbolTable
0
ENDTAB
0
TABLE
2
APPID
5
1af
100
AcDbSymbolTable
0
APPID
5
12
100
AcDbSymbolTableRecord
100
AcDbRegAppTableRecord
2
ACAD
70
0
0
ENDTAB
0
TABLE
2
BLOCK_RECORD
5
1b0
100
AcDbSymbolTable
0
BLOCK_RECORD
5
1F
100
AcDbSymbolTableRecord
100
AcDbBlockTableRecord
2
*Model_Space
340
0
70
0
0
BLOCK_RECORD
5
1B
100
AcDbSymbolTableRecord
100
AcDbBlockTableRecord
2
*Paper_Space
340
0
70
0
0
BLOCK_RECORD
5
23
100
AcDbSymbolTableRecord
100
AcDbBlockTableRecord
2
*Paper_Space0
340
0
70
0
0
BLOCK_RECORD
5
E0
100
AcDbSymbolTableRecord
100
AcDbBlockTableRecord
2
DimnDraft3D1
340
0
70
0
0
BLOCK_RECORD
5
EF
100
AcDbSymbolTableRecord
100
AcDbBlockTableRecord
2
_CLOSED
340
0
70
0
0
BLOCK_RECORD
5
F6
100
AcDbSymbolTableRecord
100
AcDbBlockTableRecord
2
DimnDraft3D2
340
0
70
0
0
BLOCK_RECORD
5
104
100
AcDbSymbolTableRecord
100
AcDbBlockTableRecord
2
DimnDraft3D3
340
0
70
0
0
BLOCK_RECORD
5
112
100
AcDbSymbolTableRecord
100
AcDbBlockTableRecord
2
DimnDraft3D4
340
0
70
0
0
BLOCK_RECORD
5
120
100
AcDbSymbolTableRecord
100
AcDbBlockTableRecord
2
DimnDraft3D5
340
0
70
0
0
BLOCK_RECORD
5
12E
100
AcDbSymbolTableRecord
100
AcDbBlockTableRecord
2
DimnDraft3D6
340
0
70
0
0
ENDTAB
0
ENDSEC
0
SECTION
2
BLOCKS
0
BLOCK
5
20
100
AcDbEntity
8
0
100
AcDbBlockBegin
2
*Model_Space
70
0
10
0
20
0
30
0
3
*Model_Space
0
ENDBLK
5
21
100
AcDbEntity
8
0
100
AcDbBlockEnd
0
BLOCK
5
1C
100
AcDbEntity
8
0
100
AcDbBlockBegin
2
*Paper_Space
70
0
10
0
20
0
30
0
3
*Paper_Space
0
ENDBLK
5
1D
100
AcDbEntity
8
0
100
AcDbBlockEnd
0
BLOCK
5
24
100
AcDbEntity
8
0
100
AcDbBlockBegin
2
*Paper_Space0
70
0
10
0
20
0
30
0
3
*Paper_Space0
0
ENDBLK
5
25
100
AcDbEntity
8
0
100
AcDbBlockEnd
0
BLOCK
5
EC
100
AcDbEntity
8
0
100
AcDbBlockBegin
2
DimnDraft3D1
70
0
10
0
20
0
30
0
3
DimnDraft3D1
0
MTEXT
5
E1
100
AcDbEntity
8
2
62
256
6
ByLayer
370
18
48
1
60
0
100
AcDbMText
10
20.382295
20
29.97505
30
0
210
0
220
0
230
1
1
\W0.7640;47.6
40
3.5
41
0
44
1.084337
50
0
71
7
72
5
7
iso_b_vert
0
LINE
5
E3
100
AcDbEntity
8
2
62
256
6
ByLayer
370
13
48
1
60
0
100
AcDbLine
10
0
20
14.5
30
0
11
0
21
31.10005
31
0
39
0
210
0
220
0
230
1
0
LINE
5
E4
100
AcDbEntity
8
2
62
256
6
ByLayer
370
13
48
1
60
0
100
AcDbLine
10
47.5988
20
-11
30
0
11
47.5988
21
31.10005
31
0
39
0
210
0
220
0
230
1
0
LINE
5
E5
100
AcDbEntity
8
2
62
256
6
ByLayer
370
13
48
1
60
0
100
AcDbLine
10
0
20
29.10005
30
0
11
47.5988
21
29.10005
31
0
39
0
210
0
220
0
230
1
0
LINE
5
E6
100
AcDbEntity
8
2
62
256
6
ByLayer
370
13
48
1
60
0
100
AcDbLine
10
0
20
29.10005
30
0
11
3.174998
21
29.518047
31
0
39
0
210
0
220
0
230
1
0
LINE
5
E7
100
AcDbEntity
8
2
62
256
6
ByLayer
370
13
48
1
60
0
100
AcDbLine
10
0
20
29.10005
30
0
11
3.175002
21
28.682053
31
0
39
0
210
0
220
0
230
1
0
LINE
5
E8
100
AcDbEntity
8
2
62
256
6
ByLayer
370
13
48
1
60
0
100
AcDbLine
10
3.174998
20
29.518047
30
0
11
3.175002
21
28.682053
31
0
39
0
210
0
220
0
230
1
0
LINE
5
E9
100
AcDbEntity
8
2
62
256
6
ByLayer
370
13
48
1
60
0
100
AcDbLine
10
47.5988
20
29.10005
30
0
11
44.423802
21
28.682053
31
0
39
0
210
0
220
0
230
1
0
LINE
5
EA
100
AcDbEntity
8
2
62
256
6
ByLayer
370
13
48
1
60
0
100
AcDbLine
10
47.5988
20
29.10005
30
0
11
44.423798
21
29.518047
31
0
39
0
210
0
220
0
230
1
0
LINE
5
EB
100
AcDbEntity
8
2
62
256
6
ByLayer
370
13
48
1
60
0
100
AcDbLine
10
44.423802
20
28.682053
30
0
11
44.423798
21
29.518047
31
0
39
0
210
0
220
0
230
1
0
ENDBLK
5
ED
100
AcDbEntity
8
0
100
AcDbBlockEnd
0
BLOCK
5
F0
100
AcDbEntity
8
0
100
AcDbBlockBegin
2
_CLOSED
70
0
10
0
20
0
30
0
3
_CLOSED
0
LINE
5
F2
100
AcDbEntity
8
0
62
256
6
ByLayer
370
-2
48
1
60
0
100
AcDbLine
10
-1
20
0.166667
30
0
11
0
21
0
31
0
39
0
210
0
220
0
230
1
0
LINE
5
F3
100
AcDbEntity
8
0
62
256
6
ByLayer
370
-2
48
1
60
0
100
AcDbLine
10
0
20
0
30
0
11
-1
21
-0.166667
31
0
39
0
210
0
220
0
230
1
0
LINE
5
F4
100
AcDbEntity
8
0
62
256
6
ByLayer
370
-2
48
1
60
0
100
AcDbLine
10
-1
20
0.166667
30
0
11
-1
21
-0.166667
31
0
39
0
210
0
220
0
230
1
0
LINE
5
F5
100
AcDbEntity
8
0
62
256
6
ByLayer
370
-2
48
1
60
0
100
AcDbLine
10
0
20
0
30
0
11
-1
21
0
31
0
39
0
210
0
220
0
230
1
0
ENDBLK
5
F1
100
AcDbEntity
8
0
100
AcDbBlockEnd
0
BLOCK
5
101
100
AcDbEntity
8
0
100
AcDbBlockBegin
2
DimnDraft3D2
70
0
10
0
20
0
30
0
3
DimnDraft3D2
0
MTEXT
5
F7
100
AcDbEntity
8
SK2
62
256
6
ByLayer
370
18
48
1
60
0
100
AcDbMText
10
-82.384868
20
-28.186244
30
0
210
0
220
0
230
1
1
\W0.5404;3
40
3.5
41
0
44
1.084337
50
0
71
7
72
5
7
iso_b_vert
0
LINE
5
F8
100
AcDbEntity
8
SK2
62
256
6
ByLayer
370
13
48
1
60
0
100
AcDbLine
10
-84
20
10.5
30
0
11
-84
21
-31.061244
31
0
39
0
210
0
220
0
230
1
0
LINE
5
F9
100
AcDbEntity
8
SK2
62
256
6
ByLayer
370
13
48
1
60
0
100
AcDbLine
10
-81
20
-14.5
30
0
11
-81
21
-31.061244
31
0
39
0
210
0
220
0
230
1
0
LINE
5
FA
100
AcDbEntity
8
SK2
62
256
6
ByLayer
370
13
48
1
60
0
100
AcDbLine
10
-92.75
20
-29.061244
30
0
11
-72.25
21
-29.061244
31
0
39
0
210
0
220
0
230
1
0
LINE
5
FB
100
AcDbEntity
8
SK2
62
256
6
ByLayer
370
13
48
1
60
0
100
AcDbLine
10
-84
20
-29.061244
30
0
11
-87.174998
21
-29.479241
31
0
39
0
210
0
220
0
230
1
0
LINE
5
FC
100
AcDbEntity
8
SK2
62
256
6
ByLayer
370
13
48
1
60
0
100
AcDbLine
10
-84
20
-29.061244
30
0
11
-87.175002
21
-28.643247
31
0
39
0
210
0
220
0
230
1
0
LINE
5
FD
100
AcDbEntity
8
SK2
62
256
6
ByLayer
370
13
48
1
60
0
100
AcDbLine
10
-87.174998
20
-29.479241
30
0
11
-87.175002
21
-28.643247
31
0
39
0
210
0
220
0
230
1
0
LINE
5
FE
100
AcDbEntity
8
SK2
62
256
6
ByLayer
370
13
48
1
60
0
100
AcDbLine
10
-81
20
-29.061244
30
0
11
-77.825002
21
-28.643247
31
0
39
0
210
0
220
0
230
1
0
LINE
5
FF
100
AcDbEntity
8
SK2
62
256
6
ByLayer
370
13
48
1
60
0
100
AcDbLine
10
-81
20
-29.061244
30
0
11
-77.824998
21
-29.479241
31
0
39
0
210
0
220
0
230
1
0
LINE
5
100
100
AcDbEntity
8
SK2
62
256
6
ByLayer
370
13
48
1
60
0
100
AcDbLine
10
-77.825002
20
-28.643247
30
0
11
-77.824998
21
-29.479241
31
0
39
0
210
0
220
0
230
1
0
ENDBLK
5
102
100
AcDbEntity
8
0
100
AcDbBlockEnd
0
BLOCK
5
10F
100
AcDbEntity
8
0
100
AcDbBlockBegin
2
DimnDraft3D3
70
0
10
0
20
0
30
0
3
DimnDraft3D3
0
MTEXT
5
105
100
AcDbEntity
8
SK2
62
256
6
ByLayer
370
18
48
1
60
0
100
AcDbMText
10
-21.866389
20
35.97505
30
0
210
0
220
0
230
1
1
\W0.6261;131.6
40
3.5
41
0
44
1.084337
50
0
71
7
72
5
7
iso_b_vert
0
LINE
5
106
100
AcDbEntity
8
SK2
62
256
6
ByLayer
370
13
48
1
60
0
100
AcDbLine
10
-84
20
14.5
30
0
11
-84
21
37.10005
31
0
39
0
210
0
220
0
230
1
0
LINE
5
107
100
AcDbEntity
8
SK2
62
256
6
ByLayer
370
13
48
1
60
0
100
AcDbLine
10
47.5988
20
-11
30
0
11
47.5988
21
37.10005
31
0
39
0
210
0
220
0
230
1
0
LINE
5
108
100
AcDbEntity
8
SK2
62
256
6
ByLayer
370
13
48
1
60
0
100
AcDbLine
10
-84
20
35.10005
30
0
11
47.5988
21
35.10005
31
0
39
0
210
0
220
0
230
1
0
LINE
5
109
100
AcDbEntity
8
SK2
62
256
6
ByLayer
370
13
48
1
60
0
100
AcDbLine
10
-84
20
35.10005
30
0
11
-80.825002
21
35.518047
31
0
39
0
210
0
220
0
230
1
0
LINE
5
10A
100
AcDbEntity
8
SK2
62
256
6
ByLayer
370
13
48
1
60
0
100
AcDbLine
10
-84
20
35.10005
30
0
11
-80.824998
21
34.682053
31
0
39
0
210
0
220
0
230
1
0
LINE
5
10B
100
AcDbEntity
8
SK2
62
256
6
ByLayer
370
13
48
1
60
0
100
AcDbLine
10
-80.825002
20
35.518047
30
0
11
-80.824998
21
34.682053
31
0
39
0
210
0
220
0
230
1
0
LINE
5
10C
100
AcDbEntity
8
SK2
62
256
6
ByLayer
370
13
48
1
60
0
100
AcDbLine
10
47.5988
20
35.10005
30
0
11
44.423802
21
34.682053
31
0
39
0
210
0
220
0
230
1
0
LINE
5
10D
100
AcDbEntity
8
SK2
62
256
6
ByLayer
370
13
48
1
60
0
100
AcDbLine
10
47.5988
20
35.10005
30
0
11
44.423798
21
35.518047
31
0
39
0
210
0
220
0
230
1
0
LINE
5
10E
100
AcDbEntity
8
SK2
62
256
6
ByLayer
370
13
48
1
60
0
100
AcDbLine
10
44.423802
20
34.682053
30
0
11
44.423798
21
35.518047
31
0
39
0
210
0
220
0
230
1
0
ENDBLK
5
110
100
AcDbEntity
8
0
100
AcDbBlockEnd
0
BLOCK
5
11D
100
AcDbEntity
8
0
100
AcDbBlockBegin
2
DimnDraft3D4
70
0
10
0
20
0
30
0
3
DimnDraft3D4
0
MTEXT
5
113
100
AcDbEntity
8
2
62
256
6
ByLayer
370
18
48
1
60
0
100
AcDbMText
10
27.383011
20
-28.186244
30
0
210
0
220
0
230
1
1
\W0.6740;38
40
3.5
41
0
44
1.084337
50
0
71
7
72
5
7
iso_b_vert
0
LINE
5
114
100
AcDbEntity
8
2
62
256
6
ByLayer
370
13
48
1
60
0
100
AcDbLine
10
47.5988
20
-15
30
0
11
47.5988
21
-31.061244
31
0
39
0
210
0
220
0
230
1
0
LINE
5
115
100
AcDbEntity
8
2
62
256
6
ByLayer
370
13
48
1
60
0
100
AcDbLine
10
9.5988
20
-14.5
30
0
11
9.5988
21
-31.061244
31
0
39
0
210
0
220
0
230
1
0
LINE
5
116
100
AcDbEntity
8
2
62
256
6
ByLayer
370
13
48
1
60
0
100
AcDbLine
10
47.5988
20
-29.061244
30
0
11
9.5988
21
-29.061244
31
0
39
0
210
0
220
0
230
1
0
LINE
5
117
100
AcDbEntity
8
2
62
256
6
ByLayer
370
13
48
1
60
0
100
AcDbLine
10
47.5988
20
-29.061244
30
0
11
44.423802
21
-29.479241
31
0
39
0
210
0
220
0
230
1
0
LINE
5
118
100
AcDbEntity
8
2
62
256
6
ByLayer
370
13
48
1
60
0
100
AcDbLine
10
47.5988
20
-29.061244
30
0
11
44.423798
21
-28.643247
31
0
39
0
210
0
220
0
230
1
0
LINE
5
119
100
AcDbEntity
8
2
62
256
6
ByLayer
370
13
48
1
60
0
100
AcDbLine
10
44.423802
20
-29.479241
30
0
11
44.423798
21
-28.643247
31
0
39
0
210
0
220
0
230
1
0
LINE
5
11A
100
AcDbEntity
8
2
62
256
6
ByLayer
370
13
48
1
60
0
100
AcDbLine
10
9.5988
20
-29.061244
30
0
11
12.773798
21
-28.643247
31
0
39
0
210
0
220
0
230
1
0
LINE
5
11B
100
AcDbEntity
8
2
62
256
6
ByLayer
370
13
48
1
60
0
100
AcDbLine
10
9.5988
20
-29.061244
30
0
11
12.773802
21
-29.479241
31
0
39
0
210
0
220
0
230
1
0
LINE
5
11C
100
AcDbEntity
8
2
62
256
6
ByLayer
370
13
48
1
60
0
100
AcDbLine
10
12.773798
20
-28.643247
30
0
11
12.773802
21
-29.479241
31
0
39
0
210
0
220
0
230
1
0
ENDBLK
5
11E
100
AcDbEntity
8
0
100
AcDbBlockEnd
0
BLOCK
5
12B
100
AcDbEntity
8
0
100
AcDbBlockBegin
2
DimnDraft3D5
70
0
10
0
20
0
30
0
3
DimnDraft3D5
0
MTEXT
5
121
100
AcDbEntity
8
2
62
256
6
ByLayer
370
18
48
1
60
0
100
AcDbMText
10
71.8238
20
-3.482895
30
0
210
0
220
0
230
1
1
\W0.7346;25.5
40
3.5
41
0
44
1.084337
50
90
71
7
72
5
7
iso_b_vert
0
LINE
5
122
100
AcDbEntity
8
2
62
256
6
ByLayer
370
13
48
1
60
0
100
AcDbLine
10
2
20
12.5
30
0
11
74.6988
21
12.5
31
0
39
0
210
0
220
0
230
1
0
LINE
5
123
100
AcDbEntity
8
2
62
256
6
ByLayer
370
13
48
1
60
0
100
AcDbLine
10
49.5988
20
-13
30
0
11
74.6988
21
-13
31
0
39
0
210
0
220
0
230
1
0
LINE
5
124
100
AcDbEntity
8
2
62
256
6
ByLayer
370
13
48
1
60
0
100
AcDbLine
10
72.6988
20
12.5
30
0
11
72.6988
21
-13
31
0
39
0
210
0
220
0
230
1
0
LINE
5
125
100
AcDbEntity
8
2
62
256
6
ByLayer
370
13
48
1
60
0
100
AcDbLine
10
72.6988
20
12.5
30
0
11
73.116797
21
9.325002
31
0
39
0
210
0
220
0
230
1
0
LINE
5
126
100
AcDbEntity
8
2
62
256
6
ByLayer
370
13
48
1
60
0
100
AcDbLine
10
72.6988
20
12.5
30
0
11
72.280803
21
9.324998
31
0
39
0
210
0
220
0
230
1
0
LINE
5
127
100
AcDbEntity
8
2
62
256
6
ByLayer
370
13
48
1
60
0
100
AcDbLine
10
73.116797
20
9.325002
30
0
11
72.280803
21
9.324998
31
0
39
0
210
0
220
0
230
1
0
LINE
5
128
100
AcDbEntity
8
2
62
256
6
ByLayer
370
13
48
1
60
0
100
AcDbLine
10
72.6988
20
-13
30
0
11
72.280803
21
-9.825002
31
0
39
0
210
0
220
0
230
1
0
LINE
5
129
100
AcDbEntity
8
2
62
256
6
ByLayer
370
13
48
1
60
0
100
AcDbLine
10
72.6988
20
-13
30
0
11
73.116797
21
-9.824998
31
0
39
0
210
0
220
0
230
1
0
LINE
5
12A
100
AcDbEntity
8
2
62
256
6
ByLayer
370
13
48
1
60
0
100
AcDbLine
10
72.280803
20
-9.825002
30
0
11
73.116797
21
-9.824998
31
0
39
0
210
0
220
0
230
1
0
ENDBLK
5
12C
100
AcDbEntity
8
0
100
AcDbBlockEnd
0
BLOCK
5
139
100
AcDbEntity
8
0
100
AcDbBlockBegin
2
DimnDraft3D6
70
0
10
0
20
0
30
0
3
DimnDraft3D6
0
MTEXT
5
12F
100
AcDbEntity
8
2
62
256
6
ByLayer
370
18
48
1
60
0
100
AcDbMText
10
64.8238
20
-24.314211
30
0
210
0
220
0
230
1
1
\W0.6380;4
40
3.5
41
0
44
1.084337
50
90
71
7
72
5
7
iso_b_vert
0
LINE
5
130
100
AcDbEntity
8
2
62
256
6
ByLayer
370
13
48
1
60
0
100
AcDbLine
10
49.5988
20
-13
30
0
11
67.6988
21
-13
31
0
39
0
210
0
220
0
230
1
0
LINE
5
131
100
AcDbEntity
8
2
62
256
6
ByLayer
370
13
48
1
60
0
100
AcDbLine
10
49.5988
20
-9
30
0
11
67.6988
21
-9
31
0
39
0
210
0
220
0
230
1
0
LINE
5
132
100
AcDbEntity
8
2
62
256
6
ByLayer
370
13
48
1
60
0
100
AcDbLine
10
65.6988
20
-0.25
30
0
11
65.6988
21
-25.189211
31
0
39
0
210
0
220
0
230
1
0
LINE
5
133
100
AcDbEntity
8
2
62
256
6
ByLayer
370
13
48
1
60
0
100
AcDbLine
10
65.6988
20
-13
30
0
11
66.116797
21
-16.174998
31
0
39
0
210
0
220
0
230
1
0
LINE
5
134
100
AcDbEntity
8
2
62
256
6
ByLayer
370
13
48
1
60
0
100
AcDbLine
10
65.6988
20
-13
30
0
11
65.280803
21
-16.175002
31
0
39
0
210
0
220
0
230
1
0
LINE
5
135
100
AcDbEntity
8
2
62
256
6
ByLayer
370
13
48
1
60
0
100
AcDbLine
10
66.116797
20
-16.174998
30
0
11
65.280803
21
-16.175002
31
0
39
0
210
0
220
0
230
1
0
LINE
5
136
100
AcDbEntity
8
2
62
256
6
ByLayer
370
13
48
1
60
0
100
AcDbLine
10
65.6988
20
-9
30
0
11
65.280803
21
-5.825002
31
0
39
0
210
0
220
0
230
1
0
LINE
5
137
100
AcDbEntity
8
2
62
256
6
ByLayer
370
13
48
1
60
0
100
AcDbLine
10
65.6988
20
-9
30
0
11
66.116797
21
-5.824998
31
0
39
0
210
0
220
0
230
1
0
LINE
5
138
100
AcDbEntity
8
2
62
256
6
ByLayer
370
13
48
1
60
0
100
AcDbLine
10
65.280803
20
-5.825002
30
0
11
66.116797
21
-5.824998
31
0
39
0
210
0
220
0
230
1
0
ENDBLK
5
13A
100
AcDbEntity
8
0
100
AcDbBlockEnd
0
ENDSEC
0
SECTION
2
ENTITIES
0
ARC
5
B9
100
AcDbEntity
8
1
62
256
6
ByLayer
370
18
48
1
60
0
100
AcDbCircle
39
0
10
-9.5988
20
-7.65
30
0
40
1.6
210
0
220
0
230
-1
100
AcDbArc
50
270
51
0
0
ARC
5
BA
100
AcDbEntity
8
SK1
62
256
6
ByLayer
370
18
48
1
60
0
100
AcDbCircle
39
0
10
0.1012
20
13.1
30
0
40
1.6
210
0
220
0
230
-1
100
AcDbArc
50
314.755023
51
337.975687
0
ARC
5
BB
100
AcDbEntity
8
SK1
62
256
6
ByLayer
370
18
48
1
60
0
100
AcDbCircle
39
0
10
1.227723
20
-14.025
30
0
40
1.59999999999568
210
0
220
0
230
-1
100
AcDbArc
50
90
51
120.75873
0
ELLIPSE
5
BC
100
AcDbEntity
8
1
62
256
6
ByLayer
370
18
48
1
60
0
100
AcDbEllipse
10
0.020096
20
-164
30
0
11
2.43392424008541E-14
21
151.350000174123
31
0
210
0
220
0
230
-1
40
0.267949
41
0.00733993724521221
42
0.0609247428924063
0
ELLIPSE
5
BD
100
AcDbEntity
8
1
62
256
6
ByLayer
370
18
48
1
60
0
100
AcDbEllipse
10
72.838091
20
-164
30
0
11
337.755015900306
21
3.41348410118814E-13
31
0
210
0
220
0
230
-1
40
0.448106
41
-1.74400654696892
42
-1.65936911638309
0
ELLIPSE
5
BE
100
AcDbEntity
8
1
62
256
6
ByLayer
370
18
48
1
60
0
100
AcDbEllipse
10
39.916836
20
-10.986732
30
0
11
0.855362593159544
21
-0.00268306779851044
31
0
210
0
220
0
230
-1
40
0.876816
41
0
42
6.28318530717959
0
ELLIPSE
5
BF
100
AcDbEntity
8
1
62
256
6
ByLayer
370
18
48
1
60
0
100
AcDbEllipse
10
-18.106963
20
-88.000011
30
0
11
219.811344039275
21
29.6653260653803
31
0
210
0
220
0
230
-1
40
0.33187
41
-1.24407148718106
42
-1.22517196820223
0
ELLIPSE
5
C0
100
AcDbEntity
8
1
62
256
6
ByLayer
370
18
48
1
60
0
100
AcDbEllipse
10
43.346619
20
-88
30
0
11
93.8505954508789
21
9.48490771053934E-14
31
0
210
0
220
0
230
-1
40
0.8391
41
-1.66498179518456
42
-1.57369675136635
0
ELLIPSE
5
C1
100
AcDbEntity
8
1
62
256
6
ByLayer
370
18
48
1
60
0
100
AcDbEllipse
10
90.14187
20
-88.003108
30
0
11
102.960743252273
21
-53.1473471937648
31
0
210
0
220
0
230
-1
40
0.564443
41
-2.31157172862066
42
-2.30867136025042
0
ELLIPSE
5
C2
100
AcDbEntity
8
1
62
256
6
ByLayer
370
18
48
1
60
0
100
AcDbEllipse
10
2.497474
20
-12.431733
30
0
11
8.04071436169405E-17
21
0.499999999999902
31
0
210
0
220
0
230
-1
40
0.267949
41
1.5707963267949
42
-3.08066791066223
0
ELLIPSE
5
C3
100
AcDbEntity
8
1
62
256
6
ByLayer
370
18
48
1
60
0
100
AcDbEllipse
10
43.346619
20
-164
30
0
11
180.371906345699
21
1.82290892992622E-13
31
0
210
0
220
0
230
-1
40
0.8391
41
-1.61974976793641
42
-1.57116301753743
0
ELLIPSE
5
C4
100
AcDbEntity
8
1
62
256
6
ByLayer
370
18
48
1
60
0
100
AcDbEllipse
10
40.239921
20
-10.132323
30
0
11
0.658634383652566
21
-3.69395417377122
31
0
210
0
220
0
230
-1
40
0.323001
41
-0.764193015783553
42
-0.731542292833057
0
ELLIPSE
5
C5
100
AcDbEntity
8
1
62
256
6
ByLayer
370
18
48
1
60
0
100
AcDbEllipse
10
225.031182
20
-164.000352
30
0
11
466.816036159859
21
-59.9989436063101
31
0
210
0
220
0
230
-1
40
0.297654
41
-2.01271970218422
42
-1.99978575200005
0
POINT
5
6C
100
AcDbEntity
8
80
62
256
6
ByLayer
370
18
48
1
60
0
100
AcDbPoint
10
0
20
0
30
0
39
0
210
0
220
0
230
1
50
360
0
POINT
5
6E
100
AcDbEntity
8
81
62
256
6
ByLayer
370
18
48
1
60
0
100
AcDbPoint
10
47.5988
20
-13
30
0
39
0
210
0
220
0
230
1
50
360
0
SPLINE
5
C6
100
AcDbEntity
8
SK1
62
256
6
ByLayer
370
18
48
1
60
0
100
AcDbSpline
70
4
71
3
72
8
73
4
40
0
40
0
40
0
40
0
40
1
40
1
40
1
40
1
41
1
10
-0.0999999999999943
20
-12.8899932037375
30
0
41
1
10
-0.260950629658424
20
-12.7300754335334
30
0
41
1
10
-0.409376933827872
20
-12.649828374634
30
0
41
1
10
-0.40955736058811
20
-12.6500002910017
30
0
0
SPLINE
5
C7
100
AcDbEntity
8
SK1
62
256
6
ByLayer
370
18
48
1
60
0
100
AcDbSpline
70
4
71
3
72
10
73
6
40
0
40
0
40
0
40
0
40
0.396651756121572
40
0.396651756121572
40
1
40
1
40
1
40
1
41
1
10
-0.409444739366279
20
-12.6500744047986
30
0
41
1
10
-0.364803353023262
20
-12.6501007489373
30
0
41
1
10
-0.321406117640521
20
-12.6501362741332
30
0
41
1
10
-0.21608381066298
20
-12.6502572027736
30
0
41
1
10
-0.155902889520235
20
-12.6503593363988
30
0
41
1
10
-0.0999999999999943
20
-12.6505024610223
30
0
0
SPLINE
5
C8
100
AcDbEntity
8
SK1
62
256
6
ByLayer
370
18
48
1
60
0
100
AcDbSpline
70
4
71
3
72
14
73
10
40
0
40
0
40
0
40
0
40
0.0782240908324933
40
0.0782240908324933
40
0.373745986492279
40
0.373745986492279
40
0.687740301636449
40
0.687740301636449
40
1
40
1
40
1
40
1
41
1
10
-0.101200000000034
20
11.5
30
0
41
1
10
-0.126764194613543
20
11.5
30
0
41
1
10
-0.153205218482668
20
11.5006135788319
30
0
41
1
10
-0.281992422160727
20
11.5069965094968
30
0
41
1
10
-0.396169967621603
20
11.5227670583598
30
0
41
1
10
-0.637193031411812
20
11.5869979759265
30
0
41
1
10
-0.767595850199712
20
11.6386599083221
30
0
41
1
10
-1.01083152014266
20
11.7763557183186
30
0
41
1
10
-1.12691191262974
20
11.8638492973924
30
0
41
1
10
-1.22772318076633
20
11.9638021637074
30
0
0
SPLINE
5
C9
100
AcDbEntity
8
1
62
256
6
ByLayer
370
18
48
1
60
0
100
AcDbSpline
70
4
71
3
72
8
73
4
40
0
40
0
40
0
40
0
40
1
40
1
40
1
40
1
41
1
10
47.0988
20
-12.8119631055412
30
0
41
1
10
47.0988000000079
20
-12.9372699411858
30
0
41
1
10
45.432164273741
20
-13.1449665276847
30
0
41
1
10
42.9612870120787
20
-13.2432928729141
30
0
0
SPLINE
5
CA
100
AcDbEntity
8
1
62
256
6
ByLayer
370
18
48
1
60
0
100
AcDbSpline
70
4
71
3
72
8
73
4
40
0
40
0
40
0
40
0
40
1
40
1
40
1
40
1
41
1
10
31.3060866237605
20
-12.9308054294708
30
0
41
1
10
30.2528730761062
20
-12.9526084125983
30
0
41
1
10
29.173059938185
20
-12.6733640285268
30
0
41
1
10
28.0924437908251
20
-12.4317330985474
30
0
0
SPLINE
5
CB
100
AcDbEntity
8
1
62
256
6
ByLayer
370
18
48
1
60
0
100
AcDbSpline
70
4
71
3
72
16
73
12
40
0
40
0
40
0
40
0
40
0.0294814985699686
40
0.0294814985699686
40
0.27161371588008
40
0.27161371588008
40
0.514253693114371
40
0.514253693114371
40
0.75713441220493
40
0.75713441220493
40
1
40
1
40
1
40
1
41
1
10
28.0939412647663
20
-9.42217575631844
30
0
41
1
10
28.0925731884935
20
-9.42216236846969
30
0
41
1
10
28.0912090294874
20
-9.42214709815437
30
0
41
1
10
28.0788500476299
20
-9.42199123580093
30
0
41
1
10
28.0680609451102
20
-9.4217247766527
30
0
41
1
10
28.0486772625677
20
-9.42098178981362
30
0
41
1
10
28.039818334176
20
-9.42049458499136
30
0
41
1
10
28.0252474094342
20
-9.4193726951105
30
0
41
1
10
28.0193364882638
20
-9.41872239662598
30
0
41
1
10
28.0112463703299
20
-9.41735390203553
30
0
41
1
10
28.0089550407656
20
-9.41661685690838
30
0
41
1
10
28.0086056552114
20
-9.41588847358059
30
0
0
SPLINE
5
CC
100
AcDbEntity
8
1
62
256
6
ByLayer
370
18
48
1
60
0
100
AcDbSpline
70
4
71
3
72
10
73
6
40
0
40
0
40
0
40
0
40
0.450783762047071
40
0.450783762047071
40
1
40
1
40
1
40
1
41
1
10
33.1743817970672
20
-9.25111003984577
30
0
41
1
10
32.9849114119776
20
-9.2497903668521
30
0
41
1
10
32.8289763155141
20
-9.24953960990808
30
0
41
1
10
32.5778943826417
20
-9.25290467156856
30
0
41
1
10
32.4996569218975
20
-9.25747183984868
30
0
41
1
10
32.487528234296
20
-9.26491142164792
30
0
0
SPLINE
5
CD
100
AcDbEntity
8
1
62
256
6
ByLayer
370
18
48
1
60
0
100
AcDbSpline
70
4
71
3
72
12
73
8
40
0
40
0
40
0
40
0
40
0.206205050402075
40
0.206205050402075
40
0.603102297837885
40
0.603102297837885
40
1
40
1
40
1
40
1
41
1
10
34.0834419625418
20
-9.25000027682393
30
0
41
1
10
34.1454178271518
20
-9.25000479126601
30
0
41
1
10
34.2138015603189
20
-9.25010407351704
30
0
41
1
10
34.4268853873225
20
-9.25053569832068
30
0
41
1
10
34.587963470536
20
-9.25099627806111
30
0
41
1
10
34.9259270209632
20
-9.25168848057328
30
0
41
1
10
35.1074733355473
20
-9.25192065834244
30
0
41
1
10
35.28655010008
20
-9.25192065834244
30
0
0
SPLINE
5
CE
100
AcDbEntity
8
1
62
256
6
ByLayer
370
18
48
1
60
0
100
AcDbSpline
70
4
71
3
72
8
73
4
40
0
40
0
40
0
40
0
40
1
40
1
40
1
40
1
41
1
10
31.3060866237605
20
-12.9308054294709
30
0
41
1
10
32.4811671912597
20
-12.9064796297851
30
0
41
1
10
33.5647063331888
20
-12.8705992853636
30
0
41
1
10
34.5203198876905
20
-12.8313143383713
30
0
0
SPLINE
5
CF
100
AcDbEntity
8
1
62
256
6
ByLayer
370
18
48
1
60
0
100
AcDbSpline
70
4
71
3
72
19
73
15
40
0
40
0
40
0
40
0
40
0.0694623095327159
40
0.0694623095327159
40
0.0694623095327159
40
0.25531674212416
40
0.25531674212416
40
0.441576691356045
40
0.441576691356045
40
0.627858295591036
40
0.627858295591036
40
0.813921300817824
40
0.813921300817824
40
1
40
1
40
1
40
1
41
1
10
27.5003011820833
20
-9.44273813838856
30
0
41
1
10
27.6735403627206
20
-9.4461601215792
30
0
41
1
10
27.850252592704
20
-9.44885928013753
30
0
41
1
10
28.0283023288867
20
-9.45075437743606
30
0
41
1
10
28.4988651873653
20
-9.45576287911092
30
0
41
1
10
28.9880730827867
20
-9.45500539451723
30
0
41
1
10
29.923524984531
20
-9.44224869404209
30
0
41
1
10
30.3826364004816
20
-9.43008739840559
30
0
41
1
10
31.2064584077672
20
-9.39904668362169
30
0
41
1
10
31.5825636705006
20
-9.37982756671684
30
0
41
1
10
32.2006363755022
20
-9.34138381987819
30
0
41
1
10
32.4512798402096
20
-9.32172916759544
30
0
41
1
10
32.7947139286093
20
-9.28849056194545
30
0
41
1
10
32.8922127651401
20
-9.27451708032947
30
0
41
1
10
32.9073169613316
20
-9.26517179828579
30
0
0
SPLINE
5
D0
100
AcDbEntity
8
1
62
256
6
ByLayer
370
18
48
1
60
0
100
AcDbSpline
70
4
71
3
72
18
73
14
40
0
40
0
40
0
40
0
40
0.0525164297765544
40
0.0525164297765544
40
0.267818087907167
40
0.267818087907167
40
0.483006983814658
40
0.483006983814658
40
0.697844873289383
40
0.697844873289383
40
0.91230059041944
40
0.91230059041944
40
1
40
1
40
1
40
1
41
1
10
40.2047746061261
20
-12.7661760078629
30
0
41
1
10
40.1672986824633
20
-12.7661760078629
30
0
41
1
10
40.1297904127508
20
-12.766114816862
30
0
41
1
10
39.9413828556539
20
-12.7654998705376
30
0
41
1
10
39.790416039897
20
-12.7639735458058
30
0
41
1
10
39.5137694516165
20
-12.7592191357624
30
0
41
1
10
39.3842585557269
20
-12.755930419482
30
0
41
1
10
39.164391393745
20
-12.7482852040138
30
0
41
1
10
39.0709491948228
20
-12.7438306057612
30
0
41
1
10
38.9324644348834
20
-12.734606621956
30
0
41
1
10
38.8854387127059
20
-12.72971546581
30
0
41
1
10
38.8559262143108
20
-12.7230828858099
30
0
41
1
10
38.8516259165806
20
-12.7211671113497
30
0
41
1
10
38.8515680188092
20
-12.7192865358026
30
0
0
SPLINE
5
D1
100
AcDbEntity
8
1
62
256
6
ByLayer
370
18
48
1
60
0
100
AcDbSpline
70
4
71
3
72
16
73
12
40
0
40
0
40
0
40
0
40
0.208539120059838
40
0.208539120059838
40
0.423625040096507
40
0.423625040096507
40
0.640131742456197
40
0.640131742456197
40
0.857104744709511
40
0.857104744709511
40
1
40
1
40
1
40
1
41
1
10
9.59879999999998
20
-9.85536594551104
30
0
41
1
10
9.42422034587059
20
-9.85536594551104
30
0
41
1
10
9.24732493196615
20
-9.82577317099415
30
0
41
1
10
8.91197029838008
20
-9.71049083809032
30
0
41
1
10
8.74956410048929
20
-9.62142450732523
30
0
41
1
10
8.46664280027076
20
-9.39679096563268
30
0
41
1
10
8.34241828139844
20
-9.25777536029483
30
0
41
1
10
8.14966654389173
20
-8.95037031182486
30
0
41
1
10
8.07855406066787
20
-8.777635029507
30
0
41
1
10
8.01222182356679
20
-8.48358560446476
30
0
41
1
10
7.99879999999999
20
-8.36303913359163
30
0
41
1
10
7.99879999999999
20
-8.24322078023715
30
0
0
SPLINE
5
D2
100
AcDbEntity
8
1
62
256
6
ByLayer
370
18
48
1
60
0
100
AcDbSpline
70
4
71
3
72
10
73
6
40
0
40
0
40
0
40
0
40
0.359753252513555
40
0.359753252513555
40
1
40
1
40
1
40
1
41
1
10
-0.0999999999999943
20
-12.6505024610223
30
0
41
1
10
-0.0284263207505262
20
-12.6506857065752
30
0
41
1
10
0.0366782759394653
20
-12.6509381467896
30
0
41
1
10
0.194564250598944
20
-12.6518893701613
30
0
41
1
10
0.271411859428127
20
-12.6528073606492
30
0
41
1
10
0.317758141296167
20
-12.6540769480165
30
0
0
SPLINE
5
D3
100
AcDbEntity
8
1
62
256
6
ByLayer
370
18
48
1
60
0
100
AcDbSpline
70
4
71
3
72
8
73
4
40
0
40
0
40
0
40
0
40
1
40
1
40
1
40
1
41
1
10
0.317758141296167
20
-13.610889527836
30
0
41
1
10
0.231847378937545
20
-13.2902661977966
30
0
41
1
10
0.0611364748927201
20
-13.0500956265616
30
0
41
1
10
-0.0999999999999943
20
-12.8899932037375
30
0
0
SPLINE
5
D4
100
AcDbEntity
8
1
62
256
6
ByLayer
370
18
48
1
60
0
100
AcDbSpline
70
4
71
3
72
16
73
12
40
0
40
0
40
0
40
0
40
0.20055788358889
40
0.20055788358889
40
0.400796017977149
40
0.400796017977149
40
0.60064798540815
40
0.60064798540815
40
0.800318729754599
40
0.800318729754599
40
1
40
1
40
1
40
1
41
1
10
32.487528234296
20
-9.26491142164792
30
0
41
1
10
32.4738846897989
20
-9.27328019728557
30
0
41
1
10
32.3856401696976
20
-9.28543269050076
30
0
41
1
10
32.0750155843303
20
-9.31391085926327
30
0
41
1
10
31.8485716941416
20
-9.33056693164855
30
0
41
1
10
31.2911937264825
20
-9.36292161551779
30
0
41
1
10
30.952795690719
20
-9.37898602921078
30
0
41
1
10
30.2120756925146
20
-9.40488207650588
30
0
41
1
10
29.7996226080526
20
-9.41500308150572
30
0
41
1
10
28.9582566859571
20
-9.4256663105057
30
0
41
1
10
28.5177564230152
20
-9.42632316634277
30
0
41
1
10
28.0939412647663
20
-9.42217575631844
30
0
0
SPLINE
5
D5
100
AcDbEntity
8
1
62
256
6
ByLayer
370
18
48
1
60
0
100
AcDbSpline
70
4
71
3
72
12
73
8
40
0
40
0
40
0
40
0
40
0.259450394584317
40
0.259450394584317
40
0.657795779149816
40
0.657795779149816
40
1
40
1
40
1
40
1
41
1
10
35.9110498999199
20
-9.25192065834244
30
0
41
1
10
36.0286434372595
20
-9.25192065834244
30
0
41
1
10
36.1469450397256
20
-9.25182588682711
30
0
41
1
10
36.4364025078322
20
-9.25140392574039
30
0
41
1
10
36.6067588232349
20
-9.25096849015179
30
0
41
1
10
36.8891203767174
20
-9.25028085267687
30
0
41
1
10
37.0090572564218
20
-9.25001348813299
30
0
41
1
10
37.111229035936
20
-9.2500007058255
30
0
0
SPLINE
5
D6
100
AcDbEntity
8
1
62
256
6
ByLayer
370
18
48
1
60
0
100
AcDbSpline
70
4
71
3
72
32
73
28
40
0
40
0
40
0
40
0
40
0.0816000192998551
40
0.0816000192998551
40
0.158081285574642
40
0.158081285574642
40
0.2344522043956
40
0.2344522043956
40
0.310784627424719
40
0.310784627424719
40
0.387162494508632
40
0.387162494508632
40
0.463655771438079
40
0.463655771438079
40
0.540295280252196
40
0.540295280252196
40
0.617054385410031
40
0.617054385410031
40
0.693849489774604
40
0.693849489774604
40
0.770569403234098
40
0.770569403234098
40
0.847127809207932
40
0.847127809207932
40
0.923559648450188
40
0.923559648450188
40
1
40
1
40
1
40
1
41
1
10
28.0086056552114
20
-9.41588847358062
30
0
41
1
10
28.0071225284668
20
-9.41279651748604
30
0
41
1
10
27.996858803602
20
-9.40972010451247
30
0
41
1
10
27.9617633864431
20
-9.40432227705099
30
0
41
1
10
27.9374017705071
20
-9.4018907846345
30
0
41
1
10
27.877987092466
20
-9.39776456909539
30
0
41
1
10
27.8421332340168
20
-9.3960113224436
30
0
41
1
10
27.7640145965012
20
-9.39337671950534
30
0
41
1
10
27.7206784430628
20
-9.39245797965995
30
0
41
1
10
27.6325716367897
20
-9.39154621644809
30
0
41
1
10
27.58658498514
20
-9.39154088448049
30
0
41
1
10
27.4983296696751
20
-9.3924329828258
30
0
41
1
10
27.4548459538593
20
-9.39334439186942
30
0
41
1
10
27.3763756256191
20
-9.39597075139864
30
0
41
1
10
27.3403175359833
20
-9.39772435350704
30
0
41
1
10
27.2805614371288
20
-9.40185698324314
30
0
41
1
10
27.2560537500163
20
-9.40429511238099
30
0
41
1
10
27.2218657587955
20
-9.40954095196625
30
0
41
1
10
27.2117186099665
20
-9.41242199937295
30
0
41
1
10
27.2069943054745
20
-9.41823457391325
30
0
41
1
10
27.2123364137892
20
-9.42124624224871
30
0
41
1
10
27.237520330277
20
-9.42697064046592
30
0
41
1
10
27.2576779025875
20
-9.42976209637919
30
0
41
1
10
27.309803326938
20
-9.4347148812206
30
0
41
1
10
27.3424679396147
20
-9.43694431479966
30
0
41
1
10
27.4156784785599
20
-9.44050657744006
30
0
41
1
10
27.4572345865502
20
-9.44188744649858
30
0
41
1
10
27.5003011820833
20
-9.44273813838853
30
0
0
SPLINE
5
D7
100
AcDbEntity
8
1
62
256
6
ByLayer
370
18
48
1
60
0
100
AcDbSpline
70
4
71
3
72
12
73
8
40
0
40
0
40
0
40
0
40
0.246638394728324
40
0.246638394728324
40
0.857108943146042
40
0.857108943146042
40
1
40
1
40
1
40
1
41
1
10
32.9073169613315
20
-9.26517179828579
30
0
41
1
10
32.9116691733348
20
-9.2624789937056
30
0
41
1
10
32.9254877772557
20
-9.26014751448591
30
0
41
1
10
33.005060347197
20
-9.25342153040049
30
0
41
1
10
33.1194385259289
20
-9.25091254777774
30
0
41
1
10
33.3203771926691
20
-9.25005715274955
30
0
41
1
10
33.3613594609253
20
-9.24999024339883
30
0
41
1
10
33.4049770198155
20
-9.25000486493985
30
0
0
SPLINE
5
D8
100
AcDbEntity
8
1
62
256
6
ByLayer
370
18
48
1
60
0
100
AcDbSpline
70
4
71
3
72
8
73
4
40
0
40
0
40
0
40
0
40
1
40
1
40
1
40
1
41
1
10
14.6275618567864
20
-14.9147141017192
30
0
41
1
10
13.2854809085143
20
-15.0199417629679
30
0
41
1
10
12.1061162492193
20
-15.175910664951
30
0
41
1
10
11.142136446675
20
-15.3870777445093
30
0
0
SPLINE
5
D9
100
AcDbEntity
8
1
62
256
6
ByLayer
370
18
48
1
60
0
100
AcDbSpline
70
4
71
3
72
14
73
10
40
0
40
0
40
0
40
0
40
0.0992586761801212
40
0.0992586761801212
40
0.399326754305433
40
0.399326754305433
40
0.699673465386776
40
0.699673465386776
40
1
40
1
40
1
40
1
41
1
10
41.5270872617766
20
-12.7390469084857
30
0
41
1
10
41.5061124610932
20
-12.7405515604604
30
0
41
1
10
41.482633113032
20
-12.7420372127742
30
0
41
1
10
41.3798542000611
20
-12.7478190936582
30
0
41
1
10
41.2804825034411
20
-12.7518990908937
30
0
41
1
10
41.0533902399899
20
-12.7586769225707
30
0
41
1
10
40.9225066080504
20
-12.7614622695831
30
0
41
1
10
40.6479087517952
20
-12.7651875548689
30
0
41
1
10
40.5004090092478
20
-12.7661760078629
30
0
41
1
10
40.3549175089005
20
-12.7661760078629
30
0
0
SPLINE
5
DA
100
AcDbEntity
8
1
62
256
6
ByLayer
370
18
48
1
60
0
100
AcDbSpline
70
4
71
3
72
8
73
4
40
0
40
0
40
0
40
0
40
1
40
1
40
1
40
1
41
1
10
28.0924437908251
20
-9.85536594551104
30
0
41
1
10
30.4458571431299
20
-9.85536594551104
30
0
41
1
10
32.7210315890453
20
-9.74165516528632
30
0
41
1
10
34.5203198876905
20
-9.59903364967784
30
0
0
LINE
5
70
100
AcDbEntity
8
1
62
256
6
ByLayer
370
18
48
1
60
0
100
AcDbLine
10
32.915015
20
-9.25
30
0
11
9.5988
21
-9.25
31
0
39
0
210
0
220
0
230
1
0
LINE
5
72
100
AcDbEntity
8
1
62
256
6
ByLayer
370
18
48
1
60
0
100
AcDbLine
10
34.08757
20
-9.25
30
0
11
33.421902
21
-9.25
31
0
39
0
210
0
220
0
230
1
0
LINE
5
73
100
AcDbEntity
8
1
62
256
6
ByLayer
370
18
48
1
60
0
100
AcDbLine
10
42.795128
20
-9.25
30
0
11
37.103838
21
-9.25
31
0
39
0
210
0
220
0
230
1
0
LINE
5
74
100
AcDbEntity
8
1
62
256
6
ByLayer
370
18
48
1
60
0
100
AcDbLine
10
2.497474
20
-12.931733
30
0
11
31.205012
21
-12.931733
31
0
39
0
210
0
220
0
230
1
0
LINE
5
75
100
AcDbEntity
8
80
62
256
6
ByLayer
370
18
48
1
60
0
100
AcDbLine
10
0
20
0
30
0
11
-5
21
0
31
0
39
0
210
0
220
0
230
1
0
LINE
5
76
100
AcDbEntity
8
81
62
256
6
ByLayer
370
18
48
1
60
0
100
AcDbLine
10
47.5988
20
-13
30
0
11
52.5988
21
-13
31
0
39
0
210
0
220
0
230
1
0
LINE
5
77
100
AcDbEntity
8
SK1
62
256
6
ByLayer
370
18
48
1
60
0
100
AcDbLine
10
-0.1
20
-12.650502
30
0
11
-0.1
21
11.5
31
0
39
0
210
0
220
0
230
1
0
LINE
5
79
100
AcDbEntity
8
SK1
62
256
6
ByLayer
370
18
48
1
60
0
100
AcDbLine
10
-0.1
20
11.5
30
0
11
-0.1012
21
11.5
31
0
39
0
210
0
220
0
230
1
0
LINE
5
7A
100
AcDbEntity
8
SK1
62
256
6
ByLayer
370
18
48
1
60
0
100
AcDbLine
10
-84
20
9.5
30
0
11
-81
21
12.5
31
0
39
0
210
0
220
0
230
1
0
LINE
5
7B
100
AcDbEntity
8
SK1
62
256
6
ByLayer
370
18
48
1
60
0
100
AcDbLine
10
-1.227723
20
-12.425
30
0
11
-81
21
-12.425
31
0
39
0
210
0
220
0
230
1
0
LINE
5
7C
100
AcDbEntity
8
SK1
62
256
6
ByLayer
370
18
48
1
60
0
100
AcDbLine
10
-84
20
-9.425
30
0
11
-81
21
-12.425
31
0
39
0
210
0
220
0
230
1
0
LINE
5
7D
100
AcDbEntity
8
SK1
62
256
6
ByLayer
370
18
48
1
60
0
100
AcDbLine
10
-84
20
9.5
30
0
11
-84
21
-9.425
31
0
39
0
210
0
220
0
230
1
0
LINE
5
7E
100
AcDbEntity
8
SK1
62
256
6
ByLayer
370
13
48
1
60
0
100
AcDbLine
10
-1.227723
20
-12.425
30
0
11
-1.227723
21
11.963802
31
0
39
0
210
0
220
0
230
1
0
LINE
5
7F
100
AcDbEntity
8
SK1
62
256
6
ByLayer
370
18
48
1
60
0
100
AcDbLine
10
-0.1
20
-12.889993
30
0
11
-0.1
21
-12.650503
31
0
39
0
210
0
220
0
230
1
0
LINE
5
80
100
AcDbEntity
8
SK1
62
256
6
ByLayer
370
18
48
1
60
0
100
AcDbLine
10
-1.58444
20
12.5
30
0
11
-81
21
12.5
31
0
39
0
210
0
220
0
230
1
0
LINE
5
81
100
AcDbEntity
8
1
62
256
6
ByLayer
370
13
48
1
60
0
100
AcDbLine
10
43.216681
20
-11.003247
30
0
11
47.0988
21
-10.83375
31
0
39
0
210
0
220
0
230
1
0
LINE
5
82
100
AcDbEntity
8
1
62
256
6
ByLayer
370
18
48
1
60
0
100
AcDbLine
10
43.28478
20
-12.632576
30
0
11
43.280478
21
-12.65001
31
0
39
0
210
0
220
0
230
1
0
LINE
5
83
100
AcDbEntity
8
1
62
256
6
ByLayer
370
18
48
1
60
0
100
AcDbLine
10
47.0988
20
-11.209911
30
0
11
47.0988
21
-11.255079
31
0
39
0
210
0
220
0
230
1
0
LINE
5
84
100
AcDbEntity
8
1
62
256
6
ByLayer
370
13
48
1
60
0
100
AcDbLine
10
43.212264
20
-10.898465
30
0
11
47.0988
21
-10.728775
31
0
39
0
210
0
220
0
230
1
0
LINE
5
85
100
AcDbEntity
8
1
62
256
6
ByLayer
370
18
48
1
60
0
100
AcDbLine
10
2.631449
20
8.5
30
0
11
7.9988
21
8.5
31
0
39
0
210
0
220
0
230
1
0
LINE
5
86
100
AcDbEntity
8
1
62
256
6
ByLayer
370
18
48
1
60
0
100
AcDbLine
10
-0.1
20
-12.889993
30
0
11
-0.1
21
-12.650503
31
0
39
0
210
0
220
0
230
1
0
LINE
5
87
100
AcDbEntity
8
1
62
256
6
ByLayer
370
13
48
1
60
0
100
AcDbLine
10
40.200707
20
-12.673004
30
0
11
40.204775
21
-12.766176
31
0
39
0
210
0
220
0
230
1
0
LINE
5
88
100
AcDbEntity
8
1
62
256
6
ByLayer
370
18
48
1
60
0
100
AcDbLine
10
35.28655
20
-9.251921
30
0
11
35.91105
21
-9.251921
31
0
39
0
210
0
220
0
230
1
0
LINE
5
89
100
AcDbEntity
8
1
62
256
6
ByLayer
370
18
48
1
60
0
100
AcDbLine
10
47.0988
20
-10.83375
30
0
11
47.0988
21
-10.97296
31
0
39
0
210
0
220
0
230
1
0
LINE
5
8A
100
AcDbEntity
8
1
62
256
6
ByLayer
370
18
48
1
60
0
100
AcDbLine
10
7.9988
20
8.5
30
0
11
7.9988
21
10.5
31
0
39
0
210
0
220
0
230
1
0
LINE
5
8B
100
AcDbEntity
8
1
62
256
6
ByLayer
370
13
48
1
60
0
100
AcDbLine
10
47.0988
20
-10.788582
30
0
11
43.214835
21
-10.958159
31
0
39
0
210
0
220
0
230
1
0
LINE
5
8C
100
AcDbEntity
8
1
62
256
6
ByLayer
370
13
48
1
60
0
100
AcDbLine
10
34.52032
20
-9.599034
30
0
11
34.52032
21
-12.831314
31
0
39
0
210
0
220
0
230
1
0
LINE
5
8D
100
AcDbEntity
8
1
62
256
6
ByLayer
370
18
48
1
60
0
100
AcDbLine
10
0.317758
20
-13.61089
30
0
11
0.793686
21
-15.387078
31
0
39
0
210
0
220
0
230
1
0
LINE
5
8E
100
AcDbEntity
8
1
62
256
6
ByLayer
370
18
48
1
60
0
100
AcDbLine
10
47.0988
20
-11.070701
30
0
11
47.0988
21
-11.209911
31
0
39
0
210
0
220
0
230
1
0
LINE
5
8F
100
AcDbEntity
8
1
62
256
6
ByLayer
370
13
48
1
60
0
100
AcDbLine
10
28.092444
20
-12.431733
30
0
11
28.092444
21
-9.855366
31
0
39
0
210
0
220
0
230
1
0
LINE
5
90
100
AcDbEntity
8
1
62
256
6
ByLayer
370
18
48
1
60
0
100
AcDbLine
10
-0.1
20
-12.650502
30
0
11
-0.1
21
11.5
31
0
39
0
210
0
220
0
230
1
0
LINE
5
91
100
AcDbEntity
8
1
62
256
6
ByLayer
370
18
48
1
60
0
100
AcDbLine
10
47.0988
20
-10.788582
30
0
11
47.0988
21
-10.83375
31
0
39
0
210
0
220
0
230
1
0
LINE
5
92
100
AcDbEntity
8
1
62
256
6
ByLayer
370
18
48
1
60
0
100
AcDbLine
10
47.0988
20
-10.97296
30
0
11
47.0988
21
-11.070701
31
0
39
0
210
0
220
0
230
1
0
LINE
5
93
100
AcDbEntity
8
1
62
256
6
ByLayer
370
18
48
1
60
0
100
AcDbLine
10
47.0988
20
-9.314926
30
0
11
47.0988
21
-10.728775
31
0
39
0
210
0
220
0
230
1
0
LINE
5
94
100
AcDbEntity
8
1
62
256
6
ByLayer
370
18
48
1
60
0
100
AcDbLine
10
1.827601
20
11.5
30
0
11
2.631449
21
8.5
31
0
39
0
210
0
220
0
230
1
0
LINE
5
95
100
AcDbEntity
8
1
62
256
6
ByLayer
370
13
48
1
60
0
100
AcDbLine
10
47.0988
20
-11.314886
30
0
11
43.236789
21
-11.483505
31
0
39
0
210
0
220
0
230
1
0
LINE
5
96
100
AcDbEntity
8
1
62
256
6
ByLayer
370
13
48
1
60
0
100
AcDbLine
10
9.5988
20
-9.855366
30
0
11
9.5988
21
-9.25
31
0
39
0
210
0
220
0
230
1
0
LINE
5
97
100
AcDbEntity
8
1
62
256
6
ByLayer
370
13
48
1
60
0
100
AcDbLine
10
43.234247
20
-11.423809
30
0
11
47.0988
21
-11.255079
31
0
39
0
210
0
220
0
230
1
0
LINE
5
98
100
AcDbEntity
8
1
62
256
6
ByLayer
370
18
48
1
60
0
100
AcDbLine
10
43.28478
20
-12.632576
30
0
11
43.154636
21
-9.520579
31
0
39
0
210
0
220
0
230
1
0
LINE
5
99
100
AcDbEntity
8
1
62
256
6
ByLayer
370
13
48
1
60
0
100
AcDbLine
10
32.487528
20
-9.316705
30
0
11
32.487528
21
-9.264911
31
0
39
0
210
0
220
0
230
1
0
LINE
5
9A
100
AcDbEntity
8
1
62
256
6
ByLayer
370
18
48
1
60
0
100
AcDbLine
10
47.0988
20
-11.314886
30
0
11
47.0988
21
-11.255079
31
0
39
0
210
0
220
0
230
1
0
LINE
5
9B
100
AcDbEntity
8
1
62
256
6
ByLayer
370
18
48
1
60
0
100
AcDbLine
10
9.5988
20
-9.855366
30
0
11
28.092444
21
-9.855366
31
0
39
0
210
0
220
0
230
1
0
LINE
5
9C
100
AcDbEntity
8
1
62
256
6
ByLayer
370
18
48
1
60
0
100
AcDbLine
10
43.074413
20
-9.250331
30
0
11
43.154636
21
-9.520579
31
0
39
0
210
0
220
0
230
1
0
LINE
5
9D
100
AcDbEntity
8
1
62
256
6
ByLayer
370
18
48
1
60
0
100
AcDbLine
10
1.827601
20
11.5
30
0
11
6.9988
21
11.5
31
0
39
0
210
0
220
0
230
1
0
LINE
5
9E
100
AcDbEntity
8
1
62
256
6
ByLayer
370
18
48
1
60
0
100
AcDbLine
10
47.0988
20
-11.314886
30
0
11
47.0988
21
-12.68456
31
0
39
0
210
0
220
0
230
1
0
LINE
5
9F
100
AcDbEntity
8
1
62
256
6
ByLayer
370
18
48
1
60
0
100
AcDbLine
10
7.9988
20
10.5
30
0
11
6.9988
21
11.5
31
0
39
0
210
0
220
0
230
1
0
LINE
5
A0
100
AcDbEntity
8
1
62
256
6
ByLayer
370
18
48
1
60
0
100
AcDbLine
10
47.0988
20
-10.788582
30
0
11
47.0988
21
-10.728775
31
0
39
0
210
0
220
0
230
1
0
LINE
5
A1
100
AcDbEntity
8
1
62
256
6
ByLayer
370
18
48
1
60
0
100
AcDbLine
10
40.354918
20
-12.766176
30
0
11
40.204775
21
-12.766176
31
0
39
0
210
0
220
0
230
1
0
LINE
5
A2
100
AcDbEntity
8
1
62
256
6
ByLayer
370
18
48
1
60
0
100
AcDbLine
10
7.9988
20
-8.243221
30
0
11
7.9988
21
8.5
31
0
39
0
210
0
220
0
230
1
0
LINE
5
A3
100
AcDbEntity
8
1
62
256
6
ByLayer
370
18
48
1
60
0
100
AcDbLine
10
11.142136
20
-15.387078
30
0
11
0.793686
21
-15.387078
31
0
39
0
210
0
220
0
230
1
0
LINE
5
A4
100
AcDbEntity
8
1
62
256
6
ByLayer
370
18
48
1
60
0
100
AcDbLine
10
0.317758
20
11.5
30
0
11
-0.1
21
11.5
31
0
39
0
210
0
220
0
230
1
0
LINE
5
A5
100
AcDbEntity
8
1
62
256
6
ByLayer
370
13
48
1
60
0
100
AcDbLine
10
43.226537
20
-11.239767
30
0
11
47.0988
21
-11.070701
31
0
39
0
210
0
220
0
230
1
0
LINE
5
A6
100
AcDbEntity
8
1
62
256
6
ByLayer
370
13
48
1
60
0
100
AcDbLine
10
0.317758
20
11.5
30
0
11
0.317758
21
-12.654077
31
0
39
0
210
0
220
0
230
1
0
LINE
5
A7
100
AcDbEntity
8
1
62
256
6
ByLayer
370
18
48
1
60
0
100
AcDbLine
10
2.631449
20
8.5
30
0
11
2.631449
21
-12.431733
31
0
39
0
210
0
220
0
230
1
0
LINE
5
A8
100
AcDbEntity
8
1
62
256
6
ByLayer
370
18
48
1
60
0
100
AcDbLine
10
39.090685
20
-12.697981
30
0
11
39.092455
21
-12.692102
31
0
39
0
210
0
220
0
230
1
0
LINE
5
A9
100
AcDbEntity
8
1
62
256
6
ByLayer
370
18
48
1
60
0
100
AcDbLine
10
47.0988
20
-12.811963
30
0
11
47.0988
21
-12.68456
31
0
39
0
210
0
220
0
230
1
0
LINE
5
AA
100
AcDbEntity
8
1
62
256
6
ByLayer
370
13
48
1
60
0
100
AcDbLine
10
47.0988
20
-11.209911
30
0
11
43.232423
21
-11.37872
31
0
39
0
210
0
220
0
230
1
0
LINE
5
AB
100
AcDbEntity
8
1
62
256
6
ByLayer
370
13
48
1
60
0
100
AcDbLine
10
47.0988
20
-10.97296
30
0
11
43.222506
21
-11.142203
31
0
39
0
210
0
220
0
230
1
0
LINE
5
AC
100
AcDbEntity
8
1
62
256
6
ByLayer
370
18
48
1
60
0
100
AcDbLine
10
1.827601
20
11.5
30
0
11
0.317758
21
11.5
31
0
39
0
210
0
220
0
230
1
0
LINE
5
AD
100
AcDbEntity
8
1
62
256
6
ByLayer
370
13
48
1
60
0
100
AcDbLine
10
40.350755
20
-12.670843
30
0
11
40.354918
21
-12.766176
31
0
39
0
210
0
220
0
230
1
0
LINE
5
AE
100
AcDbEntity
8
1
62
256
6
ByLayer
370
13
48
1
60
0
100
AcDbLine
10
28.092444
20
-12.431733
30
0
11
2.631449
21
-12.431733
31
0
39
0
210
0
220
0
230
1
0
LINE
5
AF
100
AcDbEntity
8
SK2
62
256
6
ByLayer
370
13
48
1
60
0
100
AcDbLine
10
-93.60005
20
-12.5
30
0
11
-93.60005
21
12.5
31
0
39
0
210
0
220
0
230
1
0
LINE
5
B1
100
AcDbEntity
8
SK2
62
256
6
ByLayer
370
13
48
1
60
0
100
AcDbLine
10
-2
20
12.5
30
0
11
-95.60005
21
12.5
31
0
39
0
210
0
220
0
230
1
0
LINE
5
B2
100
AcDbEntity
8
SK2
62
256
6
ByLayer
370
13
48
1
60
0
100
AcDbLine
10
-2
20
-12.5
30
0
11
-95.60005
21
-12.5
31
0
39
0
210
0
220
0
230
1
0
LINE
5
B3
100
AcDbEntity
8
SK2
62
256
6
ByLayer
370
18
48
1
60
0
100
AcDbLine
10
-93.60005
20
12.5
30
0
11
-93.182053
21
9.325002
31
0
39
0
210
0
220
0
230
1
0
LINE
5
B4
100
AcDbEntity
8
SK2
62
256
6
ByLayer
370
18
48
1
60
0
100
AcDbLine
10
-93.60005
20
12.5
30
0
11
-94.018047
21
9.324998
31
0
39
0
210
0
220
0
230
1
0
LINE
5
B5
100
AcDbEntity
8
SK2
62
256
6
ByLayer
370
18
48
1
60
0
100
AcDbLine
10
-93.182053
20
9.325002
30
0
11
-94.018047
21
9.324998
31
0
39
0
210
0
220
0
230
1
0
LINE
5
B6
100
AcDbEntity
8
SK2
62
256
6
ByLayer
370
18
48
1
60
0
100
AcDbLine
10
-93.60005
20
-12.5
30
0
11
-94.018047
21
-9.325002
31
0
39
0
210
0
220
0
230
1
0
LINE
5
B7
100
AcDbEntity
8
SK2
62
256
6
ByLayer
370
18
48
1
60
0
100
AcDbLine
10
-93.60005
20
-12.5
30
0
11
-93.182053
21
-9.324998
31
0
39
0
210
0
220
0
230
1
0
LINE
5
B8
100
AcDbEntity
8
SK2
62
256
6
ByLayer
370
18
48
1
60
0
100
AcDbLine
10
-94.018047
20
-9.325002
30
0
11
-93.182053
21
-9.324998
31
0
39
0
210
0
220
0
230
1
0
MTEXT
5
DB
100
AcDbEntity
8
SK6
62
256
6
ByLayer
370
18
48
1
60
0
100
AcDbMText
10
-49.825625
20
-52.605597
30
0
210
0
220
0
230
1
1
\W0.7631;QFU-LFH38C2525-150B
40
3.5
41
0
44
1.084337
50
0
71
7
72
5
7
iso_b_vert
0
MTEXT
5
DF
100
AcDbEntity
8
SK2
62
256
6
ByLayer
370
18
48
1
60
0
100
AcDbMText
10
-94.47505
20
-1.169737
30
0
210
0
220
0
230
1
1
\W0.6740;25
40
3.5
41
0
44
1.084337
50
89.9999999999999
71
7
72
5
7
iso_b_vert
0
DIMENSION
5
EE
100
AcDbEntity
8
2
62
256
6
ByLayer
370
13
48
1
60
0
100
AcDbDimension
2
DimnDraft3D1
10
47.5988
20
29.10005
30
0
11
19.507295
21
29.10005
31
0
70
32
71
5
72
1
41
1
210
0
220
0
230
1
3
Standard
100
AcDbAlignedDimension
13
0
23
14.5
33
0
14
47.5988
24
-11
34
0
50
0
100
AcDbRotatedDimension
1001
ACAD
1000
DSTYLE
1002
{
1070
   279
1070
     0
1070
   172
1070
     1
1070
   173
1070
     1
1070
   340
1005
DC
1070
   271
1070
     1
1070
    77
1070
     1
1070
    73
1070
     0
1070
   171
1070
     3
1070
   274
1070
     4
1070
   177
1070
     2
1070
   176
1070
     2
1070
   178
1070
     7
1070
    78
1070
     8
1070
    41
1041
3.175
1070
   147
1041
1.75
1070
    42
1041
2.0
1070
    44
1041
2.0
1070
   140
1041
3.5
1070
   343
1005
EF
1070
   344
1005
EF
1002
}
0
DIMENSION
5
103
100
AcDbEntity
8
SK2
62
256
6
ByLayer
370
13
48
1
60
0
100
AcDbDimension
2
DimnDraft3D2
10
-81
20
-29.061244
30
0
11
-83.259868
21
-29.061244
31
0
70
32
71
5
72
1
41
1
210
0
220
0
230
1
3
Standard
100
AcDbAlignedDimension
13
-84
23
10.5
33
0
14
-81
24
-14.5
34
0
50
0
100
AcDbRotatedDimension
1001
ACAD
1000
DSTYLE
1002
{
1070
   279
1070
     0
1070
   172
1070
     1
1070
   173
1070
     1
1070
   340
1005
DC
1070
    77
1070
     1
1070
    73
1070
     0
1070
   171
1070
     3
1070
   274
1070
     4
1070
   177
1070
     2
1070
   176
1070
     2
1070
   178
1070
     7
1070
    78
1070
     8
1070
    41
1041
3.175
1070
   147
1041
1.75
1070
    42
1041
2.0
1070
    44
1041
2.0
1070
   140
1041
3.5
1070
   343
1005
EF
1070
   344
1005
EF
1002
}
0
DIMENSION
5
111
100
AcDbEntity
8
SK2
62
256
6
ByLayer
370
13
48
1
60
0
100
AcDbDimension
2
DimnDraft3D3
10
47.5988
20
35.10005
30
0
11
-22.741389
21
35.10005
31
0
70
32
71
5
72
1
41
1
210
0
220
0
230
1
3
Standard
100
AcDbAlignedDimension
13
-84
23
14.5
33
0
14
47.5988
24
-11
34
0
50
0
100
AcDbRotatedDimension
1001
ACAD
1000
DSTYLE
1002
{
1070
   279
1070
     0
1070
   172
1070
     1
1070
   173
1070
     1
1070
   340
1005
DC
1070
   271
1070
     1
1070
    77
1070
     1
1070
    73
1070
     0
1070
   171
1070
     3
1070
   274
1070
     4
1070
   177
1070
     2
1070
   176
1070
     2
1070
   178
1070
     7
1070
    78
1070
     8
1070
    41
1041
3.175
1070
   147
1041
1.75
1070
    42
1041
2.0
1070
    44
1041
2.0
1070
   140
1041
3.5
1070
   343
1005
EF
1070
   344
1005
EF
1002
}
0
DIMENSION
5
11F
100
AcDbEntity
8
2
62
256
6
ByLayer
370
13
48
1
60
0
100
AcDbDimension
2
DimnDraft3D4
10
9.5988
20
-29.061244
30
0
11
26.508011
21
-29.061244
31
0
70
32
71
5
72
1
41
1
210
0
220
0
230
1
3
Standard
100
AcDbAlignedDimension
13
47.5988
23
-15
33
0
14
9.5988
24
-14.5
34
0
50
0
100
AcDbRotatedDimension
1001
ACAD
1000
DSTYLE
1002
{
1070
   279
1070
     0
1070
   172
1070
     1
1070
   173
1070
     1
1070
   340
1005
DC
1070
   271
1070
     1
1070
    77
1070
     1
1070
    73
1070
     0
1070
   171
1070
     3
1070
   274
1070
     4
1070
   177
1070
     2
1070
   176
1070
     2
1070
   178
1070
     7
1070
    78
1070
     8
1070
    41
1041
3.175
1070
   147
1041
1.75
1070
    42
1041
2.0
1070
    44
1041
2.0
1070
   140
1041
3.5
1070
   343
1005
EF
1070
   344
1005
EF
1002
}
0
DIMENSION
5
12D
100
AcDbEntity
8
2
62
256
6
ByLayer
370
13
48
1
60
0
100
AcDbDimension
2
DimnDraft3D5
10
72.6988
20
-13
30
0
11
72.6988
21
-4.357895
31
0
70
32
71
5
72
1
41
1
210
0
220
0
230
1
3
Standard
100
AcDbAlignedDimension
13
2
23
12.5
33
0
14
49.5988
24
-13
34
0
50
90
100
AcDbRotatedDimension
1001
ACAD
1000
DSTYLE
1002
{
1070
    74
1070
     0
1070
   279
1070
     0
1070
   172
1070
     1
1070
   173
1070
     1
1070
   340
1005
DC
1070
   271
1070
     1
1070
    77
1070
     1
1070
    73
1070
     0
1070
   171
1070
     3
1070
   274
1070
     4
1070
   177
1070
     2
1070
   176
1070
     2
1070
   178
1070
     7
1070
    78
1070
     8
1070
    41
1041
3.175
1070
   147
1041
1.75
1070
    42
1041
2.0
1070
    44
1041
2.0
1070
   140
1041
3.5
1070
   343
1005
EF
1070
   344
1005
EF
1002
}
0
DIMENSION
5
13B
100
AcDbEntity
8
2
62
256
6
ByLayer
370
13
48
1
60
0
100
AcDbDimension
2
DimnDraft3D6
10
65.6988
20
-9
30
0
11
65.6988
21
-25.189211
31
0
70
32
71
5
72
1
41
1
210
0
220
0
230
1
3
Standard
100
AcDbAlignedDimension
13
49.5988
23
-13
33
0
14
49.5988
24
-9
34
0
50
90
100
AcDbRotatedDimension
1001
ACAD
1000
DSTYLE
1002
{
1070
    74
1070
     0
1070
   279
1070
     0
1070
   172
1070
     1
1070
   173
1070
     1
1070
   340
1005
DC
1070
   271
1070
     1
1070
    77
1070
     1
1070
    73
1070
     0
1070
   171
1070
     3
1070
   274
1070
     4
1070
   177
1070
     2
1070
   176
1070
     2
1070
   178
1070
     7
1070
    78
1070
     8
1070
    41
1041
3.175
1070
   147
1041
1.75
1070
    42
1041
2.0
1070
    44
1041
2.0
1070
   140
1041
3.5
1070
   343
1005
EF
1070
   344
1005
EF
1002
}
0
ENDSEC
0
SECTION
2
OBJECTS
0
DICTIONARY
5
1a5
330
0
100
AcDbDictionary
280
0
281
1
3
ACAD_GROUP
350
1a6
3
ACAD_MLINESTYLE
350
1a7
0
DICTIONARY
5
1a6
330
0
100
AcDbDictionary
280
0
281
1
0
DICTIONARY
5
1a7
330
0
100
AcDbDictionary
280
0
281
1
3
Standard
350
18
0
MLINESTYLE
5
18
330
1a7
100
AcDbMlineStyle
2
Standard
70
0
3

62
256
51
90
52
90
71
2
49
-0.5
62
256
6
ByLayer
49
0.5
62
256
6
ByLayer
0
RASTERVARIABLES
5
194
330

100
AcDbRasterVariables
90
0
70
1
71
1
72
1
0
ENDSEC
0
EOF
