0
SECTION
2
HEADER
9
$ACADVER
1
AC1015
9
$DWGCODEPAGE
3
ANSI_1252
9
$HANDSEED
5
1b7
9
$ANGBASE
50
0
9
$ANGDIR
70
0
9
$ATTMODE
70
1
9
$AUNITS
70
0
9
$AUPREC
70
0
9
$CECOLOR
62
256
9
$CELTSCALE
40
1
9
$CELTYPE
6
ByLayer
9
$CELWEIGHT
370
18
9
$CLAYER
8
0
9
$CMLJUST
70
0
9
$CMLSCALE
40
1
9
$CMLSTYLE
2
Standard
9
$DIMSTYLE
2
Standard
9
$TEXTSIZE
40
0.2
9
$TEXTSTYLE
7
Standard
9
$LUNITS
70
2
9
$LUPREC
70
4
9
$EXTNAMES
290
1
9
$INSUNITS
70
4
9
$LTSCALE
40
1
9
$LWDISPLAY
290
1
9
$PDMODE
70
0
9
$PDSIZE
40
0
9
$PLINEGEN
70
0
0
ENDSEC
0
SECTION
2
CLASSES
0
CLASS
1
RASTERVARIABLES
2
AcDbRasterVariables
3
ISM
90
0
280
0
281
0
0
ENDSEC
0
SECTION
2
TABLES
0
TABLE
2
VPORT
5
1ad
100
AcDbSymbolTable
0
VPORT
5
1
100
AcDbSymbolTableRecord
100
AcDbViewportTableRecord
2
*Active
70
0
10
0
20
0
11
1
21
1
12
-1
22
1
13
0
23
0
14
0.5
24
0.5
15
10
25
10
16
0
26
0
36
1
17
0
27
0
37
0
0
ENDTAB
0
TABLE
2
LTYPE
5
1ae
100
AcDbSymbolTable
0
LTYPE
5
14
100
AcDbSymbolTableRecord
100
AcDbLinetypeTableRecord
70
0
2
ByBlock
3

72
65
73
0
40
0
0
LTYPE
5
15
100
AcDbSymbolTableRecord
100
AcDbLinetypeTableRecord
70
0
2
ByLayer
3

72
65
73
0
40
0
0
LTYPE
5
16
100
AcDbSymbolTableRecord
100
AcDbLinetypeTableRecord
70
0
2
CONTINUOUS
3
Solid line
72
65
73
0
40
0
0
LTYPE
5
6A
100
AcDbSymbolTableRecord
100
AcDbLinetypeTableRecord
70
0
2
CENTER
3
____ _ ____ _ ____ _ ____
72
65
73
4
40
47.5
49
22
74
0
49
-8.5
74
0
49
8.5
74
0
49
-8.5
74
0
0
LTYPE
5
6B
100
AcDbSymbolTableRecord
100
AcDbLinetypeTableRecord
70
0
2
DASHED
3
__ __ __ __ __ __ __ __ __
72
65
73
2
40
25.72
49
12.86
74
0
49
-12.86
74
0
0
ENDTAB
0
TABLE
2
LAYER
5
1af
100
AcDbSymbolTable
0
LAYER
5
10
100
AcDbSymbolTableRecord
100
AcDbLayerTableRecord
2
0
70
0
62
7
6
CONTINUOUS
290
1
370
-3
390
0
0
LAYER
5
6D
100
AcDbSymbolTableRecord
100
AcDbLayerTableRecord
2
81
70
0
62
-3
6
CONTINUOUS
290
1
370
-3
390
0
0
LAYER
5
6F
100
AcDbSymbolTableRecord
100
AcDbLayerTableRecord
2
80
70
0
62
-6
6
CONTINUOUS
290
1
370
-3
390
0
0
LAYER
5
71
100
AcDbSymbolTableRecord
100
AcDbLayerTableRecord
2
1
70
0
62
4
6
CONTINUOUS
290
1
370
-3
390
0
0
LAYER
5
E7
100
AcDbSymbolTableRecord
100
AcDbLayerTableRecord
2
2
70
0
62
7
6
CONTINUOUS
290
1
370
-3
390
0
0
LAYER
5
19a
100
AcDbSymbolTableRecord
100
AcDbLayerTableRecord
2
SK1
70
0
62
4
6
CONTINUOUS
290
1
370
-3
390
0
0
LAYER
5
19b
100
AcDbSymbolTableRecord
100
AcDbLayerTableRecord
2
SK2
70
0
62
7
6
CONTINUOUS
290
1
370
-3
390
0
0
LAYER
5
19c
100
AcDbSymbolTableRecord
100
AcDbLayerTableRecord
2
SK6
70
0
62
5
6
CONTINUOUS
290
1
370
-3
390
0
0
ENDTAB
0
TABLE
2
STYLE
5
1b0
100
AcDbSymbolTable
0
STYLE
5
11
100
AcDbSymbolTableRecord
100
AcDbTextStyleTableRecord
2
Standard
3
txt
70
0
71
0
40
0
41
1
42
0
50
0
0
STYLE
5
E1
100
AcDbSymbolTableRecord
100
AcDbTextStyleTableRecord
2
iso_b_vert
3
simplex.shx
70
0
71
0
40
0
41
1
42
0
50
0
0
STYLE
5
E2
100
AcDbSymbolTableRecord
100
AcDbTextStyleTableRecord
2
DWGDirectTextStyle
3
simplex
70
0
71
0
40
0
41
1
42
0
50
0
0
ENDTAB
0
TABLE
2
DIMSTYLE
5
1b1
100
AcDbSymbolTable
100
AcDbDimStyleTable
0
DIMSTYLE
105
27
100
AcDbSymbolTableRecord
100
AcDbDimStyleTableRecord
2
Standard
70
0
3
<>
41
0.18
42
0.0625
44
0.18
140
0.18
147
0.09
73
0
74
0
77
1
271
2
275
0
278
52
280
0
340
11
0
ENDTAB
0
TABLE
2
VIEW
5
1b2
100
AcDbSymbolTable
0
ENDTAB
0
TABLE
2
UCS
5
1b3
100
AcDbSymbolTable
0
ENDTAB
0
TABLE
2
APPID
5
1b4
100
AcDbSymbolTable
0
APPID
5
12
100
AcDbSymbolTableRecord
100
AcDbRegAppTableRecord
2
ACAD
70
0
0
ENDTAB
0
TABLE
2
BLOCK_RECORD
5
1b5
100
AcDbSymbolTable
0
BLOCK_RECORD
5
1F
100
AcDbSymbolTableRecord
100
AcDbBlockTableRecord
2
*Model_Space
340
0
70
0
0
BLOCK_RECORD
5
1B
100
AcDbSymbolTableRecord
100
AcDbBlockTableRecord
2
*Paper_Space
340
0
70
0
0
BLOCK_RECORD
5
23
100
AcDbSymbolTableRecord
100
AcDbBlockTableRecord
2
*Paper_Space0
340
0
70
0
0
BLOCK_RECORD
5
E5
100
AcDbSymbolTableRecord
100
AcDbBlockTableRecord
2
DimnDraft3D1
340
0
70
0
0
BLOCK_RECORD
5
F4
100
AcDbSymbolTableRecord
100
AcDbBlockTableRecord
2
_CLOSED
340
0
70
0
0
BLOCK_RECORD
5
FB
100
AcDbSymbolTableRecord
100
AcDbBlockTableRecord
2
DimnDraft3D2
340
0
70
0
0
BLOCK_RECORD
5
109
100
AcDbSymbolTableRecord
100
AcDbBlockTableRecord
2
DimnDraft3D3
340
0
70
0
0
BLOCK_RECORD
5
117
100
AcDbSymbolTableRecord
100
AcDbBlockTableRecord
2
DimnDraft3D4
340
0
70
0
0
BLOCK_RECORD
5
125
100
AcDbSymbolTableRecord
100
AcDbBlockTableRecord
2
DimnDraft3D5
340
0
70
0
0
BLOCK_RECORD
5
133
100
AcDbSymbolTableRecord
100
AcDbBlockTableRecord
2
DimnDraft3D6
340
0
70
0
0
ENDTAB
0
ENDSEC
0
SECTION
2
BLOCKS
0
BLOCK
5
20
100
AcDbEntity
8
0
100
AcDbBlockBegin
2
*Model_Space
70
0
10
0
20
0
30
0
3
*Model_Space
0
ENDBLK
5
21
100
AcDbEntity
8
0
100
AcDbBlockEnd
0
BLOCK
5
1C
100
AcDbEntity
8
0
100
AcDbBlockBegin
2
*Paper_Space
70
0
10
0
20
0
30
0
3
*Paper_Space
0
ENDBLK
5
1D
100
AcDbEntity
8
0
100
AcDbBlockEnd
0
BLOCK
5
24
100
AcDbEntity
8
0
100
AcDbBlockBegin
2
*Paper_Space0
70
0
10
0
20
0
30
0
3
*Paper_Space0
0
ENDBLK
5
25
100
AcDbEntity
8
0
100
AcDbBlockEnd
0
BLOCK
5
F1
100
AcDbEntity
8
0
100
AcDbBlockBegin
2
DimnDraft3D1
70
0
10
0
20
0
30
0
3
DimnDraft3D1
0
MTEXT
5
E6
100
AcDbEntity
8
2
62
256
6
ByLayer
370
18
48
1
60
0
100
AcDbMText
10
4.092105
20
29.97505
30
0
210
0
220
0
230
1
1
\W0.5404;8
40
3.5
41
0
44
1.084337
50
0
71
7
72
5
7
iso_b_vert
0
LINE
5
E8
100
AcDbEntity
8
2
62
256
6
ByLayer
370
13
48
1
60
0
100
AcDbLine
10
0
20
14.5
30
0
11
0
21
31.10005
31
0
39
0
210
0
220
0
230
1
0
LINE
5
E9
100
AcDbEntity
8
2
62
256
6
ByLayer
370
13
48
1
60
0
100
AcDbLine
10
8
20
-44.6
30
0
11
8
21
31.10005
31
0
39
0
210
0
220
0
230
1
0
LINE
5
EA
100
AcDbEntity
8
2
62
256
6
ByLayer
370
13
48
1
60
0
100
AcDbLine
10
-8.75
20
29.10005
30
0
11
16.75
21
29.10005
31
0
39
0
210
0
220
0
230
1
0
LINE
5
EB
100
AcDbEntity
8
2
62
256
6
ByLayer
370
13
48
1
60
0
100
AcDbLine
10
0
20
29.10005
30
0
11
-3.174998
21
28.682053
31
0
39
0
210
0
220
0
230
1
0
LINE
5
EC
100
AcDbEntity
8
2
62
256
6
ByLayer
370
13
48
1
60
0
100
AcDbLine
10
0
20
29.10005
30
0
11
-3.175002
21
29.518047
31
0
39
0
210
0
220
0
230
1
0
LINE
5
ED
100
AcDbEntity
8
2
62
256
6
ByLayer
370
13
48
1
60
0
100
AcDbLine
10
-3.174998
20
28.682053
30
0
11
-3.175002
21
29.518047
31
0
39
0
210
0
220
0
230
1
0
LINE
5
EE
100
AcDbEntity
8
2
62
256
6
ByLayer
370
13
48
1
60
0
100
AcDbLine
10
8
20
29.10005
30
0
11
11.174998
21
29.518047
31
0
39
0
210
0
220
0
230
1
0
LINE
5
EF
100
AcDbEntity
8
2
62
256
6
ByLayer
370
13
48
1
60
0
100
AcDbLine
10
8
20
29.10005
30
0
11
11.175002
21
28.682053
31
0
39
0
210
0
220
0
230
1
0
LINE
5
F0
100
AcDbEntity
8
2
62
256
6
ByLayer
370
13
48
1
60
0
100
AcDbLine
10
11.174998
20
29.518047
30
0
11
11.175002
21
28.682053
31
0
39
0
210
0
220
0
230
1
0
ENDBLK
5
F2
100
AcDbEntity
8
0
100
AcDbBlockEnd
0
BLOCK
5
F5
100
AcDbEntity
8
0
100
AcDbBlockBegin
2
_CLOSED
70
0
10
0
20
0
30
0
3
_CLOSED
0
LINE
5
F7
100
AcDbEntity
8
0
62
256
6
ByLayer
370
-2
48
1
60
0
100
AcDbLine
10
-1
20
0.166667
30
0
11
0
21
0
31
0
39
0
210
0
220
0
230
1
0
LINE
5
F8
100
AcDbEntity
8
0
62
256
6
ByLayer
370
-2
48
1
60
0
100
AcDbLine
10
0
20
0
30
0
11
-1
21
-0.166667
31
0
39
0
210
0
220
0
230
1
0
LINE
5
F9
100
AcDbEntity
8
0
62
256
6
ByLayer
370
-2
48
1
60
0
100
AcDbLine
10
-1
20
0.166667
30
0
11
-1
21
-0.166667
31
0
39
0
210
0
220
0
230
1
0
LINE
5
FA
100
AcDbEntity
8
0
62
256
6
ByLayer
370
-2
48
1
60
0
100
AcDbLine
10
0
20
0
30
0
11
-1
21
0
31
0
39
0
210
0
220
0
230
1
0
ENDBLK
5
F6
100
AcDbEntity
8
0
100
AcDbBlockEnd
0
BLOCK
5
106
100
AcDbEntity
8
0
100
AcDbBlockBegin
2
DimnDraft3D2
70
0
10
0
20
0
30
0
3
DimnDraft3D2
0
MTEXT
5
FC
100
AcDbEntity
8
SK2
62
256
6
ByLayer
370
18
48
1
60
0
100
AcDbMText
10
-39.215789
20
35.97505
30
0
210
0
220
0
230
1
1
\W0.6740;92
40
3.5
41
0
44
1.084337
50
0
71
7
72
5
7
iso_b_vert
0
LINE
5
FD
100
AcDbEntity
8
SK2
62
256
6
ByLayer
370
13
48
1
60
0
100
AcDbLine
10
-84
20
14.5
30
0
11
-84
21
37.10005
31
0
39
0
210
0
220
0
230
1
0
LINE
5
FE
100
AcDbEntity
8
SK2
62
256
6
ByLayer
370
13
48
1
60
0
100
AcDbLine
10
8
20
-44.6
30
0
11
8
21
37.10005
31
0
39
0
210
0
220
0
230
1
0
LINE
5
FF
100
AcDbEntity
8
SK2
62
256
6
ByLayer
370
13
48
1
60
0
100
AcDbLine
10
-84
20
35.10005
30
0
11
8
21
35.10005
31
0
39
0
210
0
220
0
230
1
0
LINE
5
100
100
AcDbEntity
8
SK2
62
256
6
ByLayer
370
13
48
1
60
0
100
AcDbLine
10
-84
20
35.10005
30
0
11
-80.825002
21
35.518047
31
0
39
0
210
0
220
0
230
1
0
LINE
5
101
100
AcDbEntity
8
SK2
62
256
6
ByLayer
370
13
48
1
60
0
100
AcDbLine
10
-84
20
35.10005
30
0
11
-80.824998
21
34.682053
31
0
39
0
210
0
220
0
230
1
0
LINE
5
102
100
AcDbEntity
8
SK2
62
256
6
ByLayer
370
13
48
1
60
0
100
AcDbLine
10
-80.825002
20
35.518047
30
0
11
-80.824998
21
34.682053
31
0
39
0
210
0
220
0
230
1
0
LINE
5
103
100
AcDbEntity
8
SK2
62
256
6
ByLayer
370
13
48
1
60
0
100
AcDbLine
10
8
20
35.10005
30
0
11
4.825002
21
34.682053
31
0
39
0
210
0
220
0
230
1
0
LINE
5
104
100
AcDbEntity
8
SK2
62
256
6
ByLayer
370
13
48
1
60
0
100
AcDbLine
10
8
20
35.10005
30
0
11
4.824998
21
35.518047
31
0
39
0
210
0
220
0
230
1
0
LINE
5
105
100
AcDbEntity
8
SK2
62
256
6
ByLayer
370
13
48
1
60
0
100
AcDbLine
10
4.825002
20
34.682053
30
0
11
4.824998
21
35.518047
31
0
39
0
210
0
220
0
230
1
0
ENDBLK
5
107
100
AcDbEntity
8
0
100
AcDbBlockEnd
0
BLOCK
5
114
100
AcDbEntity
8
0
100
AcDbBlockBegin
2
DimnDraft3D3
70
0
10
0
20
0
30
0
3
DimnDraft3D3
0
MTEXT
5
10A
100
AcDbEntity
8
2
62
256
6
ByLayer
370
18
48
1
60
0
100
AcDbMText
10
-7.314211
20
-63.825
30
0
210
0
220
0
230
1
1
\W0.6380;4
40
3.5
41
0
44
1.084337
50
0
71
7
72
5
7
iso_b_vert
0
LINE
5
10B
100
AcDbEntity
8
2
62
256
6
ByLayer
370
13
48
1
60
0
100
AcDbLine
10
8
20
-48.6
30
0
11
8
21
-66.7
31
0
39
0
210
0
220
0
230
1
0
LINE
5
10C
100
AcDbEntity
8
2
62
256
6
ByLayer
370
13
48
1
60
0
100
AcDbLine
10
4
20
-48.6
30
0
11
4
21
-66.7
31
0
39
0
210
0
220
0
230
1
0
LINE
5
10D
100
AcDbEntity
8
2
62
256
6
ByLayer
370
13
48
1
60
0
100
AcDbLine
10
-8.189211
20
-64.7
30
0
11
16.75
21
-64.7
31
0
39
0
210
0
220
0
230
1
0
LINE
5
10E
100
AcDbEntity
8
2
62
256
6
ByLayer
370
13
48
1
60
0
100
AcDbLine
10
8
20
-64.7
30
0
11
11.174998
21
-64.282003
31
0
39
0
210
0
220
0
230
1
0
LINE
5
10F
100
AcDbEntity
8
2
62
256
6
ByLayer
370
13
48
1
60
0
100
AcDbLine
10
8
20
-64.7
30
0
11
11.175002
21
-65.117997
31
0
39
0
210
0
220
0
230
1
0
LINE
5
110
100
AcDbEntity
8
2
62
256
6
ByLayer
370
13
48
1
60
0
100
AcDbLine
10
11.174998
20
-64.282003
30
0
11
11.175002
21
-65.117997
31
0
39
0
210
0
220
0
230
1
0
LINE
5
111
100
AcDbEntity
8
2
62
256
6
ByLayer
370
13
48
1
60
0
100
AcDbLine
10
4
20
-64.7
30
0
11
0.825002
21
-65.117997
31
0
39
0
210
0
220
0
230
1
0
LINE
5
112
100
AcDbEntity
8
2
62
256
6
ByLayer
370
13
48
1
60
0
100
AcDbLine
10
4
20
-64.7
30
0
11
0.824998
21
-64.282003
31
0
39
0
210
0
220
0
230
1
0
LINE
5
113
100
AcDbEntity
8
2
62
256
6
ByLayer
370
13
48
1
60
0
100
AcDbLine
10
0.825002
20
-65.117997
30
0
11
0.824998
21
-64.282003
31
0
39
0
210
0
220
0
230
1
0
ENDBLK
5
115
100
AcDbEntity
8
0
100
AcDbBlockEnd
0
BLOCK
5
122
100
AcDbEntity
8
0
100
AcDbBlockBegin
2
DimnDraft3D4
70
0
10
0
20
0
30
0
3
DimnDraft3D4
0
MTEXT
5
118
100
AcDbEntity
8
SK2
62
256
6
ByLayer
370
18
48
1
60
0
100
AcDbMText
10
-82.384868
20
-63.825
30
0
210
0
220
0
230
1
1
\W0.5404;3
40
3.5
41
0
44
1.084337
50
0
71
7
72
5
7
iso_b_vert
0
LINE
5
119
100
AcDbEntity
8
SK2
62
256
6
ByLayer
370
13
48
1
60
0
100
AcDbLine
10
-84
20
10.5
30
0
11
-84
21
-66.7
31
0
39
0
210
0
220
0
230
1
0
LINE
5
11A
100
AcDbEntity
8
SK2
62
256
6
ByLayer
370
13
48
1
60
0
100
AcDbLine
10
-81
20
-14.5
30
0
11
-81
21
-66.7
31
0
39
0
210
0
220
0
230
1
0
LINE
5
11B
100
AcDbEntity
8
SK2
62
256
6
ByLayer
370
13
48
1
60
0
100
AcDbLine
10
-92.75
20
-64.7
30
0
11
-72.25
21
-64.7
31
0
39
0
210
0
220
0
230
1
0
LINE
5
11C
100
AcDbEntity
8
SK2
62
256
6
ByLayer
370
13
48
1
60
0
100
AcDbLine
10
-84
20
-64.7
30
0
11
-87.174998
21
-65.117997
31
0
39
0
210
0
220
0
230
1
0
LINE
5
11D
100
AcDbEntity
8
SK2
62
256
6
ByLayer
370
13
48
1
60
0
100
AcDbLine
10
-84
20
-64.7
30
0
11
-87.175002
21
-64.282003
31
0
39
0
210
0
220
0
230
1
0
LINE
5
11E
100
AcDbEntity
8
SK2
62
256
6
ByLayer
370
13
48
1
60
0
100
AcDbLine
10
-87.174998
20
-65.117997
30
0
11
-87.175002
21
-64.282003
31
0
39
0
210
0
220
0
230
1
0
LINE
5
11F
100
AcDbEntity
8
SK2
62
256
6
ByLayer
370
13
48
1
60
0
100
AcDbLine
10
-81
20
-64.7
30
0
11
-77.825002
21
-64.282003
31
0
39
0
210
0
220
0
230
1
0
LINE
5
120
100
AcDbEntity
8
SK2
62
256
6
ByLayer
370
13
48
1
60
0
100
AcDbLine
10
-81
20
-64.7
30
0
11
-77.824998
21
-65.117997
31
0
39
0
210
0
220
0
230
1
0
LINE
5
121
100
AcDbEntity
8
SK2
62
256
6
ByLayer
370
13
48
1
60
0
100
AcDbLine
10
-77.825002
20
-64.282003
30
0
11
-77.824998
21
-65.117997
31
0
39
0
210
0
220
0
230
1
0
ENDBLK
5
123
100
AcDbEntity
8
0
100
AcDbBlockEnd
0
BLOCK
5
130
100
AcDbEntity
8
0
100
AcDbBlockBegin
2
DimnDraft3D5
70
0
10
0
20
0
30
0
3
DimnDraft3D5
0
MTEXT
5
126
100
AcDbEntity
8
2
62
256
6
ByLayer
370
18
48
1
60
0
100
AcDbMText
10
32.739998
20
-19.845395
30
0
210
0
220
0
230
1
1
\W0.7208;59.1
40
3.5
41
0
44
1.084337
50
90
71
7
72
5
7
iso_b_vert
0
LINE
5
127
100
AcDbEntity
8
2
62
256
6
ByLayer
370
13
48
1
60
0
100
AcDbLine
10
2
20
12.5
30
0
11
35.614998
21
12.5
31
0
39
0
210
0
220
0
230
1
0
LINE
5
128
100
AcDbEntity
8
2
62
256
6
ByLayer
370
13
48
1
60
0
100
AcDbLine
10
10
20
-46.6
30
0
11
35.614998
21
-46.6
31
0
39
0
210
0
220
0
230
1
0
LINE
5
129
100
AcDbEntity
8
2
62
256
6
ByLayer
370
13
48
1
60
0
100
AcDbLine
10
33.614998
20
12.5
30
0
11
33.614998
21
-46.6
31
0
39
0
210
0
220
0
230
1
0
LINE
5
12A
100
AcDbEntity
8
2
62
256
6
ByLayer
370
13
48
1
60
0
100
AcDbLine
10
33.614998
20
12.5
30
0
11
34.032994
21
9.325002
31
0
39
0
210
0
220
0
230
1
0
LINE
5
12B
100
AcDbEntity
8
2
62
256
6
ByLayer
370
13
48
1
60
0
100
AcDbLine
10
33.614998
20
12.5
30
0
11
33.197001
21
9.324998
31
0
39
0
210
0
220
0
230
1
0
LINE
5
12C
100
AcDbEntity
8
2
62
256
6
ByLayer
370
13
48
1
60
0
100
AcDbLine
10
34.032994
20
9.325002
30
0
11
33.197001
21
9.324998
31
0
39
0
210
0
220
0
230
1
0
LINE
5
12D
100
AcDbEntity
8
2
62
256
6
ByLayer
370
13
48
1
60
0
100
AcDbLine
10
33.614998
20
-46.6
30
0
11
33.197001
21
-43.425002
31
0
39
0
210
0
220
0
230
1
0
LINE
5
12E
100
AcDbEntity
8
2
62
256
6
ByLayer
370
13
48
1
60
0
100
AcDbLine
10
33.614998
20
-46.6
30
0
11
34.032994
21
-43.424998
31
0
39
0
210
0
220
0
230
1
0
LINE
5
12F
100
AcDbEntity
8
2
62
256
6
ByLayer
370
13
48
1
60
0
100
AcDbLine
10
33.197001
20
-43.425002
30
0
11
34.032994
21
-43.424998
31
0
39
0
210
0
220
0
230
1
0
ENDBLK
5
131
100
AcDbEntity
8
0
100
AcDbBlockEnd
0
BLOCK
5
13E
100
AcDbEntity
8
0
100
AcDbBlockBegin
2
DimnDraft3D6
70
0
10
0
20
0
30
0
3
DimnDraft3D6
0
MTEXT
5
134
100
AcDbEntity
8
2
62
256
6
ByLayer
370
18
48
1
60
0
100
AcDbMText
10
25.739998
20
-31.815789
30
0
210
0
220
0
230
1
1
\W0.6740;32
40
3.5
41
0
44
1.084337
50
90
71
7
72
5
7
iso_b_vert
0
LINE
5
135
100
AcDbEntity
8
2
62
256
6
ByLayer
370
13
48
1
60
0
100
AcDbLine
10
10
20
-46.6
30
0
11
28.614998
21
-46.6
31
0
39
0
210
0
220
0
230
1
0
LINE
5
136
100
AcDbEntity
8
2
62
256
6
ByLayer
370
13
48
1
60
0
100
AcDbLine
10
6
20
-14.6
30
0
11
28.614998
21
-14.6
31
0
39
0
210
0
220
0
230
1
0
LINE
5
137
100
AcDbEntity
8
2
62
256
6
ByLayer
370
13
48
1
60
0
100
AcDbLine
10
26.614998
20
-46.6
30
0
11
26.614998
21
-14.6
31
0
39
0
210
0
220
0
230
1
0
LINE
5
138
100
AcDbEntity
8
2
62
256
6
ByLayer
370
13
48
1
60
0
100
AcDbLine
10
26.614998
20
-46.6
30
0
11
26.197001
21
-43.425002
31
0
39
0
210
0
220
0
230
1
0
LINE
5
139
100
AcDbEntity
8
2
62
256
6
ByLayer
370
13
48
1
60
0
100
AcDbLine
10
26.614998
20
-46.6
30
0
11
27.032994
21
-43.424998
31
0
39
0
210
0
220
0
230
1
0
LINE
5
13A
100
AcDbEntity
8
2
62
256
6
ByLayer
370
13
48
1
60
0
100
AcDbLine
10
26.197001
20
-43.425002
30
0
11
27.032994
21
-43.424998
31
0
39
0
210
0
220
0
230
1
0
LINE
5
13B
100
AcDbEntity
8
2
62
256
6
ByLayer
370
13
48
1
60
0
100
AcDbLine
10
26.614998
20
-14.6
30
0
11
27.032994
21
-17.774998
31
0
39
0
210
0
220
0
230
1
0
LINE
5
13C
100
AcDbEntity
8
2
62
256
6
ByLayer
370
13
48
1
60
0
100
AcDbLine
10
26.614998
20
-14.6
30
0
11
26.197001
21
-17.775002
31
0
39
0
210
0
220
0
230
1
0
LINE
5
13D
100
AcDbEntity
8
2
62
256
6
ByLayer
370
13
48
1
60
0
100
AcDbLine
10
27.032994
20
-17.774998
30
0
11
26.197001
21
-17.775002
31
0
39
0
210
0
220
0
230
1
0
ENDBLK
5
13F
100
AcDbEntity
8
0
100
AcDbBlockEnd
0
ENDSEC
0
SECTION
2
ENTITIES
0
ARC
5
BF
100
AcDbEntity
8
1
62
256
6
ByLayer
370
18
48
1
60
0
100
AcDbCircle
39
0
10
-2.65
20
-14.6
30
0
40
1.6
210
0
220
0
230
-1
100
AcDbArc
50
90
51
180
0
ARC
5
C0
100
AcDbEntity
8
SK1
62
256
6
ByLayer
370
18
48
1
60
0
100
AcDbCircle
39
0
10
1.342559
20
11.175
30
0
40
1.59999999995548
210
0
220
0
230
-1
100
AcDbArc
50
124.093391
51
140.950287
0
ARC
5
C1
100
AcDbEntity
8
1
62
256
6
ByLayer
370
18
48
1
60
0
100
AcDbCircle
39
0
10
9.25
20
0.700242
30
0
40
1.6
210
0
220
0
230
1
100
AcDbArc
50
180
51
218.487216
0
ARC
5
C2
100
AcDbEntity
8
1
62
256
6
ByLayer
370
18
48
1
60
0
100
AcDbCircle
39
0
10
1.342559
20
11.175
30
0
40
1.60000000000267
210
0
220
0
230
-1
100
AcDbArc
50
140.950287
51
170
0
ELLIPSE
5
C3
100
AcDbEntity
8
1
62
256
6
ByLayer
370
18
48
1
60
0
100
AcDbEllipse
10
58
20
-111.479831
30
0
11
19.9599326212682
21
-155.296703014273
31
0
210
0
220
0
230
-1
40
0.297654
41
2.04324216092839
42
2.08340756805573
0
ELLIPSE
5
C4
100
AcDbEntity
8
1
62
256
6
ByLayer
370
18
48
1
60
0
100
AcDbEllipse
10
58
20
-42.347819
30
0
11
9.649628079211E-15
21
60.0047933873881
31
0
210
0
220
0
230
-1
40
0.8391
41
-1.5696939855572
42
-1.42316743035077
0
ELLIPSE
5
C5
100
AcDbEntity
8
1
62
256
6
ByLayer
370
18
48
1
60
0
100
AcDbEllipse
10
57.999887
20
8.685644
30
0
11
18.4686142947854
21
154.451963400292
31
0
210
0
220
0
230
-1
40
0.303268
41
-1.94016602296063
42
-1.92944390383336
0
ELLIPSE
5
C6
100
AcDbEntity
8
1
62
256
6
ByLayer
370
18
48
1
60
0
100
AcDbEllipse
10
5.132324
20
-39.241121
30
0
11
3.69395365340762
21
-0.658634158910642
31
0
210
0
220
0
230
-1
40
0.323001
41
0.657044122039012
42
0.762768510518751
0
ELLIPSE
5
C7
100
AcDbEntity
8
1
62
256
6
ByLayer
370
18
48
1
60
0
100
AcDbEllipse
10
40.5
20
-20.66004
30
0
11
13.6554650210568
21
101.182992479876
31
0
210
0
220
0
230
-1
40
0.33187
41
-1.86944736986161
42
-1.82942398962639
0
ELLIPSE
5
C8
100
AcDbEntity
8
1
62
256
6
ByLayer
370
18
48
1
60
0
100
AcDbEllipse
10
40.500254
20
-63.590153
30
0
11
24.4634397666937
21
-47.3938362182252
31
0
210
0
220
0
230
-1
40
0.564442
41
2.30525782471121
42
2.3115560488162
0
ELLIPSE
5
C9
100
AcDbEntity
8
1
62
256
6
ByLayer
370
18
48
1
60
0
100
AcDbEllipse
10
6.047539
20
-38.921683
30
0
11
0.00736438134885111
21
-0.854394335657733
31
0
210
0
220
0
230
-1
40
0.877777
41
0
42
6.28318530717959
0
ELLIPSE
5
CA
100
AcDbEntity
8
1
62
256
6
ByLayer
370
18
48
1
60
0
100
AcDbEllipse
10
58
20
-82.495662
30
0
11
2.44451402827968E-14
21
152.008510582397
31
0
210
0
220
0
230
-1
40
0.331231
41
-1.29636227595648
42
-1.15137404353489
0
ELLIPSE
5
CB
100
AcDbEntity
8
1
62
256
6
ByLayer
370
18
48
1
60
0
100
AcDbEllipse
10
58.000093
20
-17.643874
30
0
11
33.6896521182867
21
60.0438365671938
31
0
210
0
220
0
230
-1
40
0.623185
41
-2.30380414905613
42
-2.29760113653319
0
ELLIPSE
5
CC
100
AcDbEntity
8
1
62
256
6
ByLayer
370
18
48
1
60
0
100
AcDbEllipse
10
40.5
20
-42.347819
30
0
11
6.94734891502775E-15
21
43.2010677317649
31
0
210
0
220
0
230
-1
40
0.8391
41
-1.56449803600946
42
-1.36504016251173
0
POINT
5
6C
100
AcDbEntity
8
81
62
256
6
ByLayer
370
18
48
1
60
0
100
AcDbPoint
10
8
20
-46.6
30
0
39
0
210
0
220
0
230
1
50
360
0
POINT
5
6E
100
AcDbEntity
8
80
62
256
6
ByLayer
370
18
48
1
60
0
100
AcDbPoint
10
0
20
0
30
0
39
0
210
0
220
0
230
1
50
360
0
SPLINE
5
CD
100
AcDbEntity
8
SK1
62
256
6
ByLayer
370
18
48
1
60
0
100
AcDbSpline
70
4
71
3
72
12
73
8
40
0
40
0
40
0
40
0
40
0.362564935986098
40
0.362564935986098
40
0.721382890960574
40
0.721382890960574
40
1
40
1
40
1
40
1
41
1
10
-1.10000000000017
20
-12.425
30
0
41
1
10
-0.952490788031525
20
-12.425
30
0
41
1
10
-0.806274222063166
20
-12.446283698381
30
0
41
1
10
-0.543981776984737
20
-12.5186010974054
30
0
41
1
10
-0.423841056728264
20
-12.5699359760131
30
0
41
1
10
-0.237901315714169
20
-12.6739115853666
30
0
41
1
10
-0.164673373614221
20
-12.7242202607345
30
0
41
1
10
-0.0999999999999943
20
-12.7760004003205
30
0
0
SPLINE
5
CE
100
AcDbEntity
8
1
62
256
6
ByLayer
370
18
48
1
60
0
100
AcDbSpline
70
4
71
3
72
8
73
4
40
0
40
0
40
0
40
0
40
1
40
1
40
1
40
1
41
1
10
7.99760474227259
20
-27.0936437908242
30
0
41
1
10
8.25273745319052
20
-28.234642267659
30
0
41
1
10
8.5627752047034
20
-29.3757813159857
30
0
41
1
10
8.48927037902507
20
-30.4802429230562
30
0
0
SPLINE
5
CF
100
AcDbEntity
8
1
62
256
6
ByLayer
370
18
48
1
60
0
100
AcDbSpline
70
4
71
3
72
32
73
28
40
0
40
0
40
0
40
0
40
0.0760181793461358
40
0.0760181793461358
40
0.151996225237852
40
0.151996225237852
40
0.228573102396255
40
0.228573102396255
40
0.305918233080996
40
0.305918233080996
40
0.383626105809039
40
0.383626105809039
40
0.461162585202655
40
0.461162585202655
40
0.538123161292753
40
0.538123161292753
40
0.614383776130725
40
0.614383776130725
40
0.690099226949356
40
0.690099226949356
40
0.765605616942155
40
0.765605616942155
40
0.841297379996178
40
0.841297379996178
40
0.917509476753002
40
0.917509476753002
40
1
40
1
40
1
40
1
41
1
10
4.67063507130223
20
-26.5015011820832
30
0
41
1
10
4.66877382742823
20
-26.4585253490885
30
0
41
1
10
4.66575642709628
20
-26.4170908983577
30
0
41
1
10
4.65799428472744
20
-26.34415779859
30
0
41
1
10
4.65314677878635
20
-26.3116504434087
30
0
41
1
10
4.64236207064698
20
-26.2595249193638
30
0
41
1
10
4.63627130968402
20
-26.2392921692963
30
0
41
1
10
4.62373345077012
20
-26.2137532235177
30
0
41
1
10
4.6171117387108
20
-26.2082443725762
30
0
41
1
10
4.60430198942214
20
-26.212774661159
30
0
41
1
10
4.59793825380893
20
-26.2229515555133
30
0
41
1
10
4.58636118727131
20
-26.2574657078785
30
0
41
1
10
4.58098305026388
20
-26.282256845574
30
0
41
1
10
4.57190632650386
20
-26.3426678101254
30
0
41
1
10
4.56806777625042
20
-26.3790506508461
30
0
41
1
10
4.56236193078146
20
-26.4579822787228
30
0
41
1
10
4.56039673155104
20
-26.5015680543428
30
0
41
1
10
4.5585115724565
20
-26.589729399929
30
0
41
1
10
4.5585506810576
20
-26.6355113757029
30
0
41
1
10
4.56057733400252
20
-26.7230510011194
30
0
41
1
10
4.56258779666021
20
-26.7660203714133
30
0
41
1
10
4.56832284340413
20
-26.8435165560662
30
0
41
1
10
4.5721312029373
20
-26.8790836782955
30
0
41
1
10
4.58109577524223
20
-26.9382268991415
30
0
41
1
10
4.58638497185311
20
-26.9625310941761
30
0
41
1
10
4.59820326669069
20
-26.9979175221393
30
0
41
1
10
4.60498685051132
20
-27.0083122101198
30
0
41
1
10
4.61180438644584
20
-27.0098056552114
30
0
0
SPLINE
5
D0
100
AcDbEntity
8
1
62
256
6
ByLayer
370
18
48
1
60
0
100
AcDbSpline
70
4
71
3
72
16
73
12
40
0
40
0
40
0
40
0
40
0.198001678100827
40
0.198001678100827
40
0.395954369885957
40
0.395954369885957
40
0.594747014428034
40
0.594747014428034
40
0.795370306628619
40
0.795370306628619
40
1
40
1
40
1
40
1
41
1
10
4.62557369279733
20
-27.0951412647663
30
0
41
1
10
4.63459368425515
20
-27.5159556759715
30
0
41
1
10
4.63324074227819
20
-27.9534486640768
30
0
41
1
10
4.61033092729943
20
-28.7891010253409
30
0
41
1
10
4.58854169016777
20
-29.1987128925296
30
0
41
1
10
4.53267135982765
20
-29.9363827888327
30
0
41
1
10
4.497933718773
20
-30.2742258496165
30
0
41
1
10
4.4275723813285
20
-30.8346275542699
30
0
41
1
10
4.39114180022813
20
-31.0638686716521
30
0
41
1
10
4.3281211694466
20
-31.3831168845967
30
0
41
1
10
4.30097054907986
20
-31.4748056517109
30
0
41
1
10
4.28240519525139
20
-31.488728234296
30
0
0
SPLINE
5
D1
100
AcDbEntity
8
1
62
256
6
ByLayer
370
18
48
1
60
0
100
AcDbSpline
70
4
71
3
72
8
73
4
40
0
40
0
40
0
40
0
40
1
40
1
40
1
40
1
41
1
10
12.9607379319994
20
-17.0867460966314
30
0
41
1
10
12.5223287033091
20
-18.0902855403615
30
0
41
1
10
12.2090550939867
20
-19.2728906238052
30
0
41
1
10
12.0141185761864
20
-20.5927991647365
30
0
0
SPLINE
5
D2
100
AcDbEntity
8
1
62
256
6
ByLayer
370
18
48
1
60
0
100
AcDbSpline
70
4
71
3
72
8
73
4
40
0
40
0
40
0
40
0
40
1
40
1
40
1
40
1
41
1
10
7.99760474227259
20
-0.295502302656445
30
0
41
1
10
8.03543894561116
20
-0.343088204981115
30
0
41
1
10
8.07629528406511
20
-0.388795284065139
30
0
41
1
10
8.11862915010153
20
-0.431129150101555
30
0
0
SPLINE
5
D3
100
AcDbEntity
8
1
62
256
6
ByLayer
370
18
48
1
60
0
100
AcDbSpline
70
4
71
3
72
18
73
14
40
0
40
0
40
0
40
0
40
0.0711341061336068
40
0.0711341061336068
40
0.296737972848819
40
0.296737972848819
40
0.521548842211809
40
0.521548842211809
40
0.740607549981318
40
0.740607549981318
40
0.951634872806947
40
0.951634872806947
40
1
40
1
40
1
40
1
41
1
10
3.92618653312181
20
-13
30
0
41
1
10
3.98696443494416
20
-13
30
0
41
1
10
4.04782817018639
20
-13.0032419918782
30
0
41
1
10
4.29861831001037
20
-13.0300383120011
30
0
41
1
10
4.48816757623393
20
-13.0834300856588
30
0
41
1
10
4.83301400916233
20
-13.2480575514176
30
0
41
1
10
4.99333739976007
20
-13.361507736717
30
0
41
1
10
5.25777374586639
20
-13.6295127820458
30
0
41
1
10
5.36693507557411
20
-13.7868610881303
30
0
41
1
10
5.51846053095096
20
-14.1188263574307
30
0
41
1
10
5.56518073976562
20
-14.2973063380603
30
0
41
1
10
5.58294569958227
20
-14.5171141249376
30
0
41
1
10
5.58461898374873
20
-14.5585738592347
30
0
41
1
10
5.58461898374873
20
-14.5999999999999
30
0
0
SPLINE
5
D4
100
AcDbEntity
8
1
62
256
6
ByLayer
370
18
48
1
60
0
100
AcDbSpline
70
4
71
3
72
12
73
8
40
0
40
0
40
0
40
0
40
0.396885855081763
40
0.396885855081763
40
0.793769564050957
40
0.793769564050957
40
1
40
1
40
1
40
1
41
1
10
4.25417265394537
20
-34.2877501000801
30
0
41
1
10
4.25417265394537
20
-34.1086781728102
30
0
41
1
10
4.25366824713072
20
-33.9271368703897
30
0
41
1
10
4.25216447988643
20
-33.5891840556475
30
0
41
1
10
4.25116392470497
20
-33.428111392514
30
0
41
1
10
4.25022614865335
20
-33.2150197588716
30
0
41
1
10
4.25001041215165
20
-33.1466265536847
30
0
41
1
10
4.25000060155693
20
-33.08464289046
30
0
0
SPLINE
5
D5
100
AcDbEntity
8
1
62
256
6
ByLayer
370
18
48
1
60
0
100
AcDbSpline
70
4
71
3
72
10
73
6
40
0
40
0
40
0
40
0
40
0.548654800025641
40
0.548654800025641
40
1
40
1
40
1
40
1
41
1
10
4.28240519525139
20
-31.488728234296
30
0
41
1
10
4.26628607498773
20
-31.5008163304961
30
0
41
1
10
4.25636801896951
20
-31.5785962664972
30
0
41
1
10
4.24900998065587
20
-31.8286183705268
30
0
41
1
10
4.24952933653063
20
-31.9842075636787
30
0
41
1
10
4.25237686070011
20
-32.1733217587651
30
0
0
SPLINE
5
D6
100
AcDbEntity
8
1
62
256
6
ByLayer
370
18
48
1
60
0
100
AcDbSpline
70
4
71
3
72
10
73
6
40
0
40
0
40
0
40
0
40
0.59195231415918
40
0.59195231415918
40
1
40
1
40
1
40
1
41
1
10
-0.0999999999999943
20
-12.7760004003205
30
0
41
1
10
-0.0448858102096779
20
-12.8201270676184
30
0
41
1
10
0.0044110843943201
20
-12.8656367876261
30
0
41
1
10
0.0774653363334892
20
-12.9408372396506
30
0
41
1
10
0.104506528554879
20
-12.9711620037735
30
0
41
1
10
0.128566237530379
20
-13
30
0
0
SPLINE
5
D7
100
AcDbEntity
8
1
62
256
6
ByLayer
370
18
48
1
60
0
100
AcDbSpline
70
4
71
3
72
14
73
10
40
0
40
0
40
0
40
0
40
0.319238702390752
40
0.319238702390752
40
0.638477495296517
40
0.638477495296517
40
0.957839799303163
40
0.957839799303163
40
1
40
1
40
1
40
1
41
1
10
8.00030480808161
20
-39.3663397930801
30
0
41
1
10
8.00030480808161
20
-39.5108535340908
30
0
41
1
10
7.99735384023663
20
-39.6573647200603
30
0
41
1
10
7.9862261914746
20
-39.9301032574887
30
0
41
1
10
7.97790611671761
20
-40.0600795094499
30
0
41
1
10
7.95765360711644
20
-40.2858703812935
30
0
41
1
10
7.94545754727221
20
-40.384773426366
30
0
41
1
10
7.9307729965418
20
-40.4719284097561
30
0
41
1
10
7.92902490417731
20
-40.4818425413845
30
0
41
1
10
7.9272633821233
20
-40.4913802731514
30
0
0
SPLINE
5
D8
100
AcDbEntity
8
1
62
256
6
ByLayer
370
18
48
1
60
0
100
AcDbSpline
70
4
71
3
72
8
73
4
40
0
40
0
40
0
40
0
40
1
40
1
40
1
40
1
41
1
10
5.01462942754637
20
-33.5215198876896
30
0
41
1
10
5.32856921992695
20
-31.7288925951125
30
0
41
1
10
5.5846189837487
20
-29.4561431444189
30
0
41
1
10
5.5846189837487
20
-27.0936437908242
30
0
0
SPLINE
5
D9
100
AcDbEntity
8
1
62
256
6
ByLayer
370
18
48
1
60
0
100
AcDbSpline
70
4
71
3
72
12
73
8
40
0
40
0
40
0
40
0
40
0.342183731412499
40
0.342183731412499
40
0.740505431741478
40
0.740505431741478
40
1
40
1
40
1
40
1
41
1
10
4.25000153318814
20
-36.1124291023512
30
0
41
1
10
4.25002929943659
20
-36.0102630815374
30
0
41
1
10
4.25061006150074
20
-35.8903339767337
30
0
41
1
10
4.25210381346321
20
-35.6079931486198
30
0
41
1
10
4.25304977070232
20
-35.4376501901651
30
0
41
1
10
4.2539666768883
20
-35.1481859038767
30
0
41
1
10
4.25417265394537
20
-35.0298636526017
30
0
41
1
10
4.25417265394537
20
-34.9122498999199
30
0
0
SPLINE
5
DA
100
AcDbEntity
8
1
62
256
6
ByLayer
370
18
48
1
60
0
100
AcDbSpline
70
4
71
3
72
8
73
4
40
0
40
0
40
0
40
0
40
1
40
1
40
1
40
1
41
1
10
9.53416118356182
20
-41.3010201810639
30
0
41
1
10
9.27111369185511
20
-44.1217794271682
30
0
41
1
10
8.55353943297661
20
-46.1000000000086
30
0
41
1
10
8.13896812138475
20
-46.1
30
0
0
SPLINE
5
DB
100
AcDbEntity
8
1
62
256
6
ByLayer
370
18
48
1
60
0
100
AcDbSpline
70
4
71
3
72
19
73
15
40
0
40
0
40
0
40
0
40
0.185950372524409
40
0.185950372524409
40
0.371826859991093
40
0.371826859991093
40
0.558740550372011
40
0.558740550372011
40
0.745571371608945
40
0.745571371608945
40
0.930470242563348
40
0.930470242563348
40
0.930470242563348
40
1
40
1
40
1
40
1
41
1
10
4.28297124344053
20
-31.9085169613315
30
0
41
1
10
4.3032902808219
20
-31.8934107947989
30
0
41
1
10
4.33367107239337
20
-31.7958955061389
30
0
41
1
10
4.40594352037286
20
-31.4531666267502
30
0
41
1
10
4.44867921471922
20
-31.2033579730266
30
0
41
1
10
4.53261835305332
20
-30.5861331809667
30
0
41
1
10
4.57476594497501
20
-30.2094851750169
30
0
41
1
10
4.64292880422013
20
-29.3835504840617
30
0
41
1
10
4.66969144434768
20
-28.9227010925898
30
0
41
1
10
4.69753386557554
20
-27.9870151665203
30
0
41
1
10
4.6991648060465
20
-27.4994366085685
30
0
41
1
10
4.68824161167831
20
-27.0306690283437
30
0
41
1
10
4.68408262425723
20
-26.8521865804584
30
0
41
1
10
4.67815223703025
20
-26.6750713753455
30
0
41
1
10
4.67063507130223
20
-26.5015011820832
30
0
0
SPLINE
5
DC
100
AcDbEntity
8
1
62
256
6
ByLayer
370
18
48
1
60
0
100
AcDbSpline
70
4
71
3
72
12
73
8
40
0
40
0
40
0
40
0
40
0.142700086770071
40
0.142700086770071
40
0.752580853580465
40
0.752580853580465
40
1
40
1
40
1
40
1
41
1
10
4.25001055081771
20
-32.4061719804198
30
0
41
1
10
4.24997883677165
20
-32.3626042599356
30
0
41
1
10
4.25012384269411
20
-32.321665974977
30
0
41
1
10
4.25197818067323
20
-32.1208670840799
30
0
41
1
10
4.25741938422763
20
-32.0065218115075
30
0
41
1
10
4.27202160183526
20
-31.9267629176495
30
0
41
1
10
4.2771016151078
20
-31.9128807302156
30
0
41
1
10
4.2829712434405
20
-31.9085169613315
30
0
0
SPLINE
5
DD
100
AcDbEntity
8
1
62
256
6
ByLayer
370
18
48
1
60
0
100
AcDbSpline
70
4
71
3
72
22
73
18
40
0
40
0
40
0
40
0
40
0.0103947534911486
40
0.0103947534911486
40
0.167733063301589
40
0.167733063301589
40
0.325430909358614
40
0.325430909358614
40
0.48405137839416
40
0.48405137839416
40
0.643594168382736
40
0.643594168382736
40
0.803421034266104
40
0.803421034266104
40
0.962573459693747
40
0.962573459693747
40
1
40
1
40
1
40
1
41
1
10
7.7984276170429
20
-38.0616542435994
30
0
41
1
10
7.79908446490603
20
-38.0563404841514
30
0
41
1
10
7.79974810911057
20
-38.0511225064549
30
0
41
1
10
7.81043893266559
20
-37.9694555265978
30
0
41
1
10
7.82214623912711
20
-37.9142502787772
30
0
41
1
10
7.84746606716328
20
-37.8553256270594
30
0
41
1
10
7.86143521394155
20
-37.8509039853988
30
0
41
1
10
7.88979503580481
20
-37.8927435788718
30
0
41
1
10
7.90457276110706
20
-37.9398615166817
30
0
41
1
10
7.93252392477473
20
-38.0788648957313
30
0
41
1
10
7.94606099812435
20
-38.1729244709193
30
0
41
1
10
7.96930917244543
20
-38.3944847969808
30
0
41
1
10
7.97931946013617
20
-38.5251303272573
30
0
41
1
10
7.9937268164675
20
-38.803742429233
30
0
41
1
10
7.99833326426989
20
-38.9555170014561
30
0
41
1
10
8.00013101879571
20
-39.1435350771891
30
0
41
1
10
8.00030480808161
20
-39.1798808579192
30
0
41
1
10
8.00030480808161
20
-39.2161968903057
30
0
0
SPLINE
5
DE
100
AcDbEntity
8
1
62
256
6
ByLayer
370
18
48
1
60
0
100
AcDbSpline
70
4
71
3
72
14
73
10
40
0
40
0
40
0
40
0
40
0.244934836955917
40
0.244934836955917
40
0.489942819288351
40
0.489942819288351
40
0.733772753237971
40
0.733772753237971
40
1
40
1
40
1
40
1
41
1
10
4.61180438644587
20
-27.0098056552114
30
0
41
1
10
4.6134086070916
20
-27.0101570747671
30
0
41
1
10
4.61503204248754
20
-27.0124722132004
30
0
41
1
10
4.61804709113517
20
-27.0206612392193
30
0
41
1
10
4.61948036369867
20
-27.0266508160047
30
0
41
1
10
4.62194534316802
20
-27.0414097758302
30
0
41
1
10
4.62301304213065
20
-27.0503726870766
30
0
41
1
10
4.62470701425104
20
-27.070881347222
30
0
41
1
10
4.62531210689954
20
-27.0829373601312
30
0
41
1
10
4.62557369279733
20
-27.0951412647663
30
0
0
SPLINE
5
DF
100
AcDbEntity
8
1
62
256
6
ByLayer
370
18
48
1
60
0
100
AcDbSpline
70
4
71
3
72
8
73
4
40
0
40
0
40
0
40
0
40
1
40
1
40
1
40
1
41
1
10
8.19767550942669
20
-33.5215198876896
30
0
41
1
10
8.31092966305636
20
-32.6139124523096
30
0
41
1
10
8.41510193917966
20
-31.5946757988523
30
0
41
1
10
8.48927037902507
20
-30.4802429230562
30
0
0
LINE
5
70
100
AcDbEntity
8
1
62
256
6
ByLayer
370
18
48
1
60
0
100
AcDbLine
10
8.497605
20
-30.18844
30
0
11
8.497605
21
-0.810105
31
0
39
0
210
0
220
0
230
1
0
LINE
5
72
100
AcDbEntity
8
1
62
256
6
ByLayer
370
18
48
1
60
0
100
AcDbLine
10
4.25
20
-36.10504
30
0
11
4.25
21
-41.796328
31
0
39
0
210
0
220
0
230
1
0
LINE
5
73
100
AcDbEntity
8
1
62
256
6
ByLayer
370
18
48
1
60
0
100
AcDbLine
10
4.25
20
-32.423067
30
0
11
4.25
21
-33.088771
31
0
39
0
210
0
220
0
230
1
0
LINE
5
74
100
AcDbEntity
8
1
62
256
6
ByLayer
370
18
48
1
60
0
100
AcDbLine
10
4.25
20
-14.6
30
0
11
4.25
21
-31.914697
31
0
39
0
210
0
220
0
230
1
0
LINE
5
75
100
AcDbEntity
8
80
62
256
6
ByLayer
370
18
48
1
60
0
100
AcDbLine
10
0
20
0
30
0
11
-5
21
0
31
0
39
0
210
0
220
0
230
1
0
LINE
5
76
100
AcDbEntity
8
81
62
256
6
ByLayer
370
18
48
1
60
0
100
AcDbLine
10
8
20
-46.6
30
0
11
8
21
-51.6
31
0
39
0
210
0
220
0
230
1
0
LINE
5
77
100
AcDbEntity
8
1
62
256
6
ByLayer
370
18
48
1
60
0
100
AcDbLine
10
-0.1
20
-12.776
30
0
11
-0.1
21
12.182991
31
0
39
0
210
0
220
0
230
1
0
LINE
5
78
100
AcDbEntity
8
SK1
62
256
6
ByLayer
370
18
48
1
60
0
100
AcDbLine
10
-1.342559
20
-12.425
30
0
11
-1.1
21
-12.425
31
0
39
0
210
0
220
0
230
1
0
LINE
5
7A
100
AcDbEntity
8
SK1
62
256
6
ByLayer
370
18
48
1
60
0
100
AcDbLine
10
-81
20
-12.425
30
0
11
-84
21
-9.425
31
0
39
0
210
0
220
0
230
1
0
LINE
5
7B
100
AcDbEntity
8
SK1
62
256
6
ByLayer
370
18
48
1
60
0
100
AcDbLine
10
-0.1
20
12.182991
30
0
11
-0.1
21
12.5
31
0
39
0
210
0
220
0
230
1
0
LINE
5
7C
100
AcDbEntity
8
SK1
62
256
6
ByLayer
370
18
48
1
60
0
100
AcDbLine
10
-0.1
20
-12.776
30
0
11
-0.1
21
12.182991
31
0
39
0
210
0
220
0
230
1
0
LINE
5
7D
100
AcDbEntity
8
SK1
62
256
6
ByLayer
370
13
48
1
60
0
100
AcDbLine
10
-1.342559
20
12.5
30
0
11
-1.342559
21
-12.425
31
0
39
0
210
0
220
0
230
1
0
LINE
5
7E
100
AcDbEntity
8
SK1
62
256
6
ByLayer
370
18
48
1
60
0
100
AcDbLine
10
-1.342559
20
12.5
30
0
11
-0.44569
21
12.5
31
0
39
0
210
0
220
0
230
1
0
LINE
5
7F
100
AcDbEntity
8
SK1
62
256
6
ByLayer
370
18
48
1
60
0
100
AcDbLine
10
-81
20
-12.425
30
0
11
-1.342559
21
-12.425
31
0
39
0
210
0
220
0
230
1
0
LINE
5
80
100
AcDbEntity
8
SK1
62
256
6
ByLayer
370
18
48
1
60
0
100
AcDbLine
10
-84
20
9.5
30
0
11
-84
21
-9.425
31
0
39
0
210
0
220
0
230
1
0
LINE
5
81
100
AcDbEntity
8
SK1
62
256
6
ByLayer
370
18
48
1
60
0
100
AcDbLine
10
-0.1
20
12.5
30
0
11
-0.44569
21
12.5
31
0
39
0
210
0
220
0
230
1
0
LINE
5
82
100
AcDbEntity
8
SK1
62
256
6
ByLayer
370
18
48
1
60
0
100
AcDbLine
10
-81
20
12.5
30
0
11
-84
21
9.5
31
0
39
0
210
0
220
0
230
1
0
LINE
5
83
100
AcDbEntity
8
SK1
62
256
6
ByLayer
370
18
48
1
60
0
100
AcDbLine
10
-81
20
12.5
30
0
11
-1.342559
21
12.5
31
0
39
0
210
0
220
0
230
1
0
LINE
5
84
100
AcDbEntity
8
1
62
256
6
ByLayer
370
18
48
1
60
0
100
AcDbLine
10
12.960738
20
-5.273238
30
0
11
12.960738
21
-17.086746
31
0
39
0
210
0
220
0
230
1
0
LINE
5
85
100
AcDbEntity
8
1
62
256
6
ByLayer
370
13
48
1
60
0
100
AcDbLine
10
6.37872
20
-42.233623
30
0
11
6.209911
21
-46.1
31
0
39
0
210
0
220
0
230
1
0
LINE
5
86
100
AcDbEntity
8
1
62
256
6
ByLayer
370
18
48
1
60
0
100
AcDbLine
10
6.209911
20
-46.1
30
0
11
6.070701
21
-46.1
31
0
39
0
210
0
220
0
230
1
0
LINE
5
87
100
AcDbEntity
8
1
62
256
6
ByLayer
370
18
48
1
60
0
100
AcDbLine
10
7.755764
20
-46.1
30
0
11
8.138968
21
-46.1
31
0
39
0
210
0
220
0
230
1
0
LINE
5
88
100
AcDbEntity
8
1
62
256
6
ByLayer
370
18
48
1
60
0
100
AcDbLine
10
7.778249
20
-38.067727
30
0
11
7.798428
21
-38.061654
31
0
39
0
210
0
220
0
230
1
0
LINE
5
89
100
AcDbEntity
8
1
62
256
6
ByLayer
370
13
48
1
60
0
100
AcDbLine
10
5.958159
20
-42.216035
30
0
11
5.788582
21
-46.1
31
0
39
0
210
0
220
0
230
1
0
LINE
5
8A
100
AcDbEntity
8
1
62
256
6
ByLayer
370
18
48
1
60
0
100
AcDbLine
10
4.520579
20
-42.155836
30
0
11
4.250719
21
-42.075728
31
0
39
0
210
0
220
0
230
1
0
LINE
5
8B
100
AcDbEntity
8
1
62
256
6
ByLayer
370
18
48
1
60
0
100
AcDbLine
10
7.65
20
0.700242
30
0
11
7.65
21
2.9543
31
0
39
0
210
0
220
0
230
1
0
LINE
5
8C
100
AcDbEntity
8
1
62
256
6
ByLayer
370
18
48
1
60
0
100
AcDbLine
10
1.731654
20
2.9543
30
0
11
0.233133
21
11.452837
31
0
39
0
210
0
220
0
230
1
0
LINE
5
8D
100
AcDbEntity
8
1
62
256
6
ByLayer
370
13
48
1
60
0
100
AcDbLine
10
5.83375
20
-46.1
30
0
11
6.003247
21
-42.217881
31
0
39
0
210
0
220
0
230
1
0
LINE
5
8E
100
AcDbEntity
8
1
62
256
6
ByLayer
370
18
48
1
60
0
100
AcDbLine
10
6.255079
20
-46.1
30
0
11
6.209911
21
-46.1
31
0
39
0
210
0
220
0
230
1
0
LINE
5
8F
100
AcDbEntity
8
1
62
256
6
ByLayer
370
13
48
1
60
0
100
AcDbLine
10
6.142203
20
-42.223706
30
0
11
5.97296
21
-46.1
31
0
39
0
210
0
220
0
230
1
0
LINE
5
90
100
AcDbEntity
8
1
62
256
6
ByLayer
370
13
48
1
60
0
100
AcDbLine
10
8.000305
20
-39.36634
30
0
11
7.712675
21
-39.353782
31
0
39
0
210
0
220
0
230
1
0
LINE
5
91
100
AcDbEntity
8
1
62
256
6
ByLayer
370
18
48
1
60
0
100
AcDbLine
10
0.128566
20
-13
30
0
11
0.233133
21
-13
31
0
39
0
210
0
220
0
230
1
0
LINE
5
92
100
AcDbEntity
8
1
62
256
6
ByLayer
370
18
48
1
60
0
100
AcDbLine
10
7.650031
20
-42.281673
30
0
11
7.632576
21
-42.28598
31
0
39
0
210
0
220
0
230
1
0
LINE
5
93
100
AcDbEntity
8
1
62
256
6
ByLayer
370
18
48
1
60
0
100
AcDbLine
10
1.731654
20
2.9543
30
0
11
7.65
21
2.9543
31
0
39
0
210
0
220
0
230
1
0
LINE
5
94
100
AcDbEntity
8
1
62
256
6
ByLayer
370
18
48
1
60
0
100
AcDbLine
10
7.65
20
11.5
30
0
11
7.65
21
2.9543
31
0
39
0
210
0
220
0
230
1
0
LINE
5
95
100
AcDbEntity
8
1
62
256
6
ByLayer
370
13
48
1
60
0
100
AcDbLine
10
7.997605
20
-27.093644
30
0
11
5.584619
21
-27.093644
31
0
39
0
210
0
220
0
230
1
0
LINE
5
96
100
AcDbEntity
8
1
62
256
6
ByLayer
370
18
48
1
60
0
100
AcDbLine
10
-0.1
20
12.182991
30
0
11
-0.1
21
12.5
31
0
39
0
210
0
220
0
230
1
0
LINE
5
97
100
AcDbEntity
8
1
62
256
6
ByLayer
370
18
48
1
60
0
100
AcDbLine
10
1.731654
20
2.9543
30
0
11
1.731654
21
-13
31
0
39
0
210
0
220
0
230
1
0
LINE
5
98
100
AcDbEntity
8
1
62
256
6
ByLayer
370
18
48
1
60
0
100
AcDbLine
10
5.728775
20
-46.1
30
0
11
4.388944
21
-46.1
31
0
39
0
210
0
220
0
230
1
0
LINE
5
99
100
AcDbEntity
8
1
62
256
6
ByLayer
370
18
48
1
60
0
100
AcDbLine
10
5.728775
20
-46.1
30
0
11
5.788582
21
-46.1
31
0
39
0
210
0
220
0
230
1
0
LINE
5
9A
100
AcDbEntity
8
1
62
256
6
ByLayer
370
18
48
1
60
0
100
AcDbLine
10
4.520579
20
-42.155836
30
0
11
7.632576
21
-42.28598
31
0
39
0
210
0
220
0
230
1
0
LINE
5
9B
100
AcDbEntity
8
1
62
256
6
ByLayer
370
18
48
1
60
0
100
AcDbLine
10
5.83375
20
-46.1
30
0
11
5.788582
21
-46.1
31
0
39
0
210
0
220
0
230
1
0
LINE
5
9C
100
AcDbEntity
8
1
62
256
6
ByLayer
370
13
48
1
60
0
100
AcDbLine
10
5.014629
20
-33.52152
30
0
11
8.197676
21
-33.52152
31
0
39
0
210
0
220
0
230
1
0
LINE
5
9D
100
AcDbEntity
8
1
62
256
6
ByLayer
370
18
48
1
60
0
100
AcDbLine
10
8.497643
20
-0.810143
30
0
11
12.960738
21
-5.273238
31
0
39
0
210
0
220
0
230
1
0
LINE
5
9E
100
AcDbEntity
8
1
62
256
6
ByLayer
370
18
48
1
60
0
100
AcDbLine
10
6.65
20
12.5
30
0
11
7.65
21
11.5
31
0
39
0
210
0
220
0
230
1
0
LINE
5
9F
100
AcDbEntity
8
1
62
256
6
ByLayer
370
18
48
1
60
0
100
AcDbLine
10
8.000305
20
-39.216197
30
0
11
8.000305
21
-39.36634
31
0
39
0
210
0
220
0
230
1
0
LINE
5
A0
100
AcDbEntity
8
1
62
256
6
ByLayer
370
18
48
1
60
0
100
AcDbLine
10
5.97296
20
-46.1
30
0
11
5.83375
21
-46.1
31
0
39
0
210
0
220
0
230
1
0
LINE
5
A1
100
AcDbEntity
8
1
62
256
6
ByLayer
370
13
48
1
60
0
100
AcDbLine
10
5.728775
20
-46.1
30
0
11
5.898465
21
-42.213464
31
0
39
0
210
0
220
0
230
1
0
LINE
5
A2
100
AcDbEntity
8
1
62
256
6
ByLayer
370
18
48
1
60
0
100
AcDbLine
10
6.255079
20
-46.1
30
0
11
6.314886
21
-46.1
31
0
39
0
210
0
220
0
230
1
0
LINE
5
A3
100
AcDbEntity
8
1
62
256
6
ByLayer
370
18
48
1
60
0
100
AcDbLine
10
4.254173
20
-34.91225
30
0
11
4.254173
21
-34.28775
31
0
39
0
210
0
220
0
230
1
0
LINE
5
A4
100
AcDbEntity
8
1
62
256
6
ByLayer
370
13
48
1
60
0
100
AcDbLine
10
7.997605
20
-0.295502
30
0
11
7.997605
21
-27.093644
31
0
39
0
210
0
220
0
230
1
0
LINE
5
A5
100
AcDbEntity
8
1
62
256
6
ByLayer
370
13
48
1
60
0
100
AcDbLine
10
6.070701
20
-46.1
30
0
11
6.239767
21
-42.227737
31
0
39
0
210
0
220
0
230
1
0
LINE
5
A6
100
AcDbEntity
8
1
62
256
6
ByLayer
370
13
48
1
60
0
100
AcDbLine
10
4.395047
20
-31.488728
30
0
11
4.282405
21
-31.488728
31
0
39
0
210
0
220
0
230
1
0
LINE
5
A7
100
AcDbEntity
8
1
62
256
6
ByLayer
370
13
48
1
60
0
100
AcDbLine
10
6.255079
20
-46.1
30
0
11
6.423809
21
-42.235447
31
0
39
0
210
0
220
0
230
1
0
LINE
5
A8
100
AcDbEntity
8
1
62
256
6
ByLayer
370
18
48
1
60
0
100
AcDbLine
10
4.687556
20
-27.009806
30
0
11
4.611804
21
-27.009806
31
0
39
0
210
0
220
0
230
1
0
LINE
5
A9
100
AcDbEntity
8
1
62
256
6
ByLayer
370
18
48
1
60
0
100
AcDbLine
10
6.65
20
12.5
30
0
11
-0.1
21
12.5
31
0
39
0
210
0
220
0
230
1
0
LINE
5
AA
100
AcDbEntity
8
1
62
256
6
ByLayer
370
13
48
1
60
0
100
AcDbLine
10
8.000305
20
-39.216197
30
0
11
7.719148
21
-39.203921
31
0
39
0
210
0
220
0
230
1
0
LINE
5
AB
100
AcDbEntity
8
1
62
256
6
ByLayer
370
13
48
1
60
0
100
AcDbLine
10
4.25
20
-14.6
30
0
11
5.584619
21
-14.6
31
0
39
0
210
0
220
0
230
1
0
LINE
5
AC
100
AcDbEntity
8
1
62
256
6
ByLayer
370
13
48
1
60
0
100
AcDbLine
10
0.233133
20
-13
30
0
11
0.233133
21
11.452837
31
0
39
0
210
0
220
0
230
1
0
LINE
5
AD
100
AcDbEntity
8
1
62
256
6
ByLayer
370
13
48
1
60
0
100
AcDbLine
10
4.688883
20
-27.095141
30
0
11
4.625574
21
-27.095141
31
0
39
0
210
0
220
0
230
1
0
LINE
5
AE
100
AcDbEntity
8
1
62
256
6
ByLayer
370
18
48
1
60
0
100
AcDbLine
10
5.584619
20
-27.093644
30
0
11
5.584619
21
-14.6
31
0
39
0
210
0
220
0
230
1
0
LINE
5
AF
100
AcDbEntity
8
1
62
256
6
ByLayer
370
18
48
1
60
0
100
AcDbLine
10
1.731654
20
-13
30
0
11
3.926187
21
-13
31
0
39
0
210
0
220
0
230
1
0
LINE
5
B0
100
AcDbEntity
8
1
62
256
6
ByLayer
370
13
48
1
60
0
100
AcDbLine
10
6.483505
20
-42.237989
30
0
11
6.314886
21
-46.1
31
0
39
0
210
0
220
0
230
1
0
LINE
5
B1
100
AcDbEntity
8
1
62
256
6
ByLayer
370
18
48
1
60
0
100
AcDbLine
10
6.070701
20
-46.1
30
0
11
5.97296
21
-46.1
31
0
39
0
210
0
220
0
230
1
0
LINE
5
B2
100
AcDbEntity
8
1
62
256
6
ByLayer
370
18
48
1
60
0
100
AcDbLine
10
8.497605
20
-0.810105
30
0
11
8.118629
21
-0.431129
31
0
39
0
210
0
220
0
230
1
0
LINE
5
B3
100
AcDbEntity
8
1
62
256
6
ByLayer
370
18
48
1
60
0
100
AcDbLine
10
7.755764
20
-46.1
30
0
11
6.314886
21
-46.1
31
0
39
0
210
0
220
0
230
1
0
LINE
5
B4
100
AcDbEntity
8
1
62
256
6
ByLayer
370
18
48
1
60
0
100
AcDbLine
10
0.233133
20
-13
30
0
11
1.731654
21
-13
31
0
39
0
210
0
220
0
230
1
0
LINE
5
B5
100
AcDbEntity
8
SK2
62
256
6
ByLayer
370
13
48
1
60
0
100
AcDbLine
10
-93.60005
20
-12.5
30
0
11
-93.60005
21
12.5
31
0
39
0
210
0
220
0
230
1
0
LINE
5
B7
100
AcDbEntity
8
SK2
62
256
6
ByLayer
370
13
48
1
60
0
100
AcDbLine
10
-2
20
12.5
30
0
11
-95.60005
21
12.5
31
0
39
0
210
0
220
0
230
1
0
LINE
5
B8
100
AcDbEntity
8
SK2
62
256
6
ByLayer
370
13
48
1
60
0
100
AcDbLine
10
-2
20
-12.5
30
0
11
-95.60005
21
-12.5
31
0
39
0
210
0
220
0
230
1
0
LINE
5
B9
100
AcDbEntity
8
SK2
62
256
6
ByLayer
370
18
48
1
60
0
100
AcDbLine
10
-93.60005
20
12.5
30
0
11
-93.182053
21
9.325002
31
0
39
0
210
0
220
0
230
1
0
LINE
5
BA
100
AcDbEntity
8
SK2
62
256
6
ByLayer
370
18
48
1
60
0
100
AcDbLine
10
-93.60005
20
12.5
30
0
11
-94.018047
21
9.324998
31
0
39
0
210
0
220
0
230
1
0
LINE
5
BB
100
AcDbEntity
8
SK2
62
256
6
ByLayer
370
18
48
1
60
0
100
AcDbLine
10
-93.182053
20
9.325002
30
0
11
-94.018047
21
9.324998
31
0
39
0
210
0
220
0
230
1
0
LINE
5
BC
100
AcDbEntity
8
SK2
62
256
6
ByLayer
370
18
48
1
60
0
100
AcDbLine
10
-93.60005
20
-12.5
30
0
11
-94.018047
21
-9.325002
31
0
39
0
210
0
220
0
230
1
0
LINE
5
BD
100
AcDbEntity
8
SK2
62
256
6
ByLayer
370
18
48
1
60
0
100
AcDbLine
10
-93.60005
20
-12.5
30
0
11
-93.182053
21
-9.324998
31
0
39
0
210
0
220
0
230
1
0
LINE
5
BE
100
AcDbEntity
8
SK2
62
256
6
ByLayer
370
18
48
1
60
0
100
AcDbLine
10
-94.018047
20
-9.325002
30
0
11
-93.182053
21
-9.324998
31
0
39
0
210
0
220
0
230
1
0
MTEXT
5
E0
100
AcDbEntity
8
SK6
62
256
6
ByLayer
370
18
48
1
60
0
100
AcDbMText
10
-69.367526
20
-70.424975
30
0
210
0
220
0
230
1
1
\W0.7885;QFT-LGH32C2525-065B
40
3.5
41
0
44
1.084337
50
0
71
7
72
5
7
iso_b_vert
0
MTEXT
5
E4
100
AcDbEntity
8
SK2
62
256
6
ByLayer
370
18
48
1
60
0
100
AcDbMText
10
-94.47505
20
-1.169737
30
0
210
0
220
0
230
1
1
\W0.6740;25
40
3.5
41
0
44
1.084337
50
89.9999999999999
71
7
72
5
7
iso_b_vert
0
DIMENSION
5
F3
100
AcDbEntity
8
2
62
256
6
ByLayer
370
13
48
1
60
0
100
AcDbDimension
2
DimnDraft3D1
10
8
20
29.10005
30
0
11
3.217105
21
29.10005
31
0
70
32
71
5
72
1
41
1
210
0
220
0
230
1
3
Standard
100
AcDbAlignedDimension
13
0
23
14.5
33
0
14
8
24
-44.6
34
0
50
0
100
AcDbRotatedDimension
1001
ACAD
1000
DSTYLE
1002
{
1070
   279
1070
     0
1070
   172
1070
     1
1070
   173
1070
     1
1070
   340
1005
E1
1070
   271
1070
     1
1070
    77
1070
     1
1070
    73
1070
     0
1070
   171
1070
     3
1070
   274
1070
     4
1070
   177
1070
     2
1070
   176
1070
     2
1070
   178
1070
     7
1070
    78
1070
     8
1070
    41
1041
3.175
1070
   147
1041
1.75
1070
    42
1041
2.0
1070
    44
1041
2.0
1070
   140
1041
3.5
1070
   343
1005
F4
1070
   344
1005
F4
1002
}
0
DIMENSION
5
108
100
AcDbEntity
8
SK2
62
256
6
ByLayer
370
13
48
1
60
0
100
AcDbDimension
2
DimnDraft3D2
10
8
20
35.10005
30
0
11
-40.090789
21
35.10005
31
0
70
32
71
5
72
1
41
1
210
0
220
0
230
1
3
Standard
100
AcDbAlignedDimension
13
-84
23
14.5
33
0
14
8
24
-44.6
34
0
50
0
100
AcDbRotatedDimension
1001
ACAD
1000
DSTYLE
1002
{
1070
   279
1070
     0
1070
   172
1070
     1
1070
   173
1070
     1
1070
   340
1005
E1
1070
   271
1070
     1
1070
    77
1070
     1
1070
    73
1070
     0
1070
   171
1070
     3
1070
   274
1070
     4
1070
   177
1070
     2
1070
   176
1070
     2
1070
   178
1070
     7
1070
    78
1070
     8
1070
    41
1041
3.175
1070
   147
1041
1.75
1070
    42
1041
2.0
1070
    44
1041
2.0
1070
   140
1041
3.5
1070
   343
1005
F4
1070
   344
1005
F4
1002
}
0
DIMENSION
5
116
100
AcDbEntity
8
2
62
256
6
ByLayer
370
13
48
1
60
0
100
AcDbDimension
2
DimnDraft3D3
10
4
20
-64.7
30
0
11
-8.189211
21
-64.7
31
0
70
32
71
5
72
1
41
1
210
0
220
0
230
1
3
Standard
100
AcDbAlignedDimension
13
8
23
-48.6
33
0
14
4
24
-48.6
34
0
50
0
100
AcDbRotatedDimension
1001
ACAD
1000
DSTYLE
1002
{
1070
   279
1070
     0
1070
   172
1070
     1
1070
   173
1070
     1
1070
   340
1005
E1
1070
   271
1070
     1
1070
    77
1070
     1
1070
    73
1070
     0
1070
   171
1070
     3
1070
   274
1070
     4
1070
   177
1070
     2
1070
   176
1070
     2
1070
   178
1070
     7
1070
    78
1070
     8
1070
    41
1041
3.175
1070
   147
1041
1.75
1070
    42
1041
2.0
1070
    44
1041
2.0
1070
   140
1041
3.5
1070
   343
1005
F4
1070
   344
1005
F4
1002
}
0
DIMENSION
5
124
100
AcDbEntity
8
SK2
62
256
6
ByLayer
370
13
48
1
60
0
100
AcDbDimension
2
DimnDraft3D4
10
-81
20
-64.7
30
0
11
-83.259868
21
-64.7
31
0
70
32
71
5
72
1
41
1
210
0
220
0
230
1
3
Standard
100
AcDbAlignedDimension
13
-84
23
10.5
33
0
14
-81
24
-14.5
34
0
50
0
100
AcDbRotatedDimension
1001
ACAD
1000
DSTYLE
1002
{
1070
   279
1070
     0
1070
   172
1070
     1
1070
   173
1070
     1
1070
   340
1005
E1
1070
    77
1070
     1
1070
    73
1070
     0
1070
   171
1070
     3
1070
   274
1070
     4
1070
   177
1070
     2
1070
   176
1070
     2
1070
   178
1070
     7
1070
    78
1070
     8
1070
    41
1041
3.175
1070
   147
1041
1.75
1070
    42
1041
2.0
1070
    44
1041
2.0
1070
   140
1041
3.5
1070
   343
1005
F4
1070
   344
1005
F4
1002
}
0
DIMENSION
5
132
100
AcDbEntity
8
2
62
256
6
ByLayer
370
13
48
1
60
0
100
AcDbDimension
2
DimnDraft3D5
10
33.614998
20
-46.6
30
0
11
33.614998
21
-20.720395
31
0
70
32
71
5
72
1
41
1
210
0
220
0
230
1
3
Standard
100
AcDbAlignedDimension
13
2
23
12.5
33
0
14
10
24
-46.6
34
0
50
90
100
AcDbRotatedDimension
1001
ACAD
1000
DSTYLE
1002
{
1070
    74
1070
     0
1070
   279
1070
     0
1070
   172
1070
     1
1070
   173
1070
     1
1070
   340
1005
E1
1070
   271
1070
     1
1070
    77
1070
     1
1070
    73
1070
     0
1070
   171
1070
     3
1070
   274
1070
     4
1070
   177
1070
     2
1070
   176
1070
     2
1070
   178
1070
     7
1070
    78
1070
     8
1070
    41
1041
3.175
1070
   147
1041
1.75
1070
    42
1041
2.0
1070
    44
1041
2.0
1070
   140
1041
3.5
1070
   343
1005
F4
1070
   344
1005
F4
1002
}
0
DIMENSION
5
140
100
AcDbEntity
8
2
62
256
6
ByLayer
370
13
48
1
60
0
100
AcDbDimension
2
DimnDraft3D6
10
26.614998
20
-14.6
30
0
11
26.614998
21
-32.690789
31
0
70
32
71
5
72
1
41
1
210
0
220
0
230
1
3
Standard
100
AcDbAlignedDimension
13
10
23
-46.6
33
0
14
6
24
-14.6
34
0
50
90
100
AcDbRotatedDimension
1001
ACAD
1000
DSTYLE
1002
{
1070
    74
1070
     0
1070
   279
1070
     0
1070
   172
1070
     1
1070
   173
1070
     1
1070
   340
1005
E1
1070
   271
1070
     1
1070
    77
1070
     1
1070
    73
1070
     0
1070
   171
1070
     3
1070
   274
1070
     4
1070
   177
1070
     2
1070
   176
1070
     2
1070
   178
1070
     7
1070
    78
1070
     8
1070
    41
1041
3.175
1070
   147
1041
1.75
1070
    42
1041
2.0
1070
    44
1041
2.0
1070
   140
1041
3.5
1070
   343
1005
F4
1070
   344
1005
F4
1002
}
0
ENDSEC
0
SECTION
2
OBJECTS
0
DICTIONARY
5
1aa
330
0
100
AcDbDictionary
280
0
281
1
3
ACAD_GROUP
350
1ab
3
ACAD_MLINESTYLE
350
1ac
0
DICTIONARY
5
1ab
330
0
100
AcDbDictionary
280
0
281
1
0
DICTIONARY
5
1ac
330
0
100
AcDbDictionary
280
0
281
1
3
Standard
350
18
0
MLINESTYLE
5
18
330
1ac
100
AcDbMlineStyle
2
Standard
70
0
3

62
256
51
90
52
90
71
2
49
-0.5
62
256
6
ByLayer
49
0.5
62
256
6
ByLayer
0
RASTERVARIABLES
5
199
330

100
AcDbRasterVariables
90
0
70
1
71
1
72
1
0
ENDSEC
0
EOF
