0
SECTION
2
HEADER
9
$ACADVER
1
AC1015
9
$DWGCODEPAGE
3
ANSI_1252
9
$HANDSEED
5
1b4
9
$ANGBASE
50
0
9
$ANGDIR
70
0
9
$ATTMODE
70
1
9
$AUNITS
70
0
9
$AUPREC
70
0
9
$CECOLOR
62
256
9
$CELTSCALE
40
1
9
$CELTYPE
6
ByLayer
9
$CELWEIGHT
370
18
9
$CLAYER
8
0
9
$CMLJUST
70
0
9
$CMLSCALE
40
1
9
$CMLSTYLE
2
Standard
9
$DIMSTYLE
2
Standard
9
$TEXTSIZE
40
0.2
9
$TEXTSTYLE
7
Standard
9
$LUNITS
70
2
9
$LUPREC
70
4
9
$EXTNAMES
290
1
9
$INSUNITS
70
4
9
$LTSCALE
40
1
9
$LWDISPLAY
290
1
9
$PDMODE
70
0
9
$PDSIZE
40
0
9
$PLINEGEN
70
0
0
ENDSEC
0
SECTION
2
CLASSES
0
CLASS
1
RASTERVARIABLES
2
AcDbRasterVariables
3
ISM
90
0
280
0
281
0
0
ENDSEC
0
SECTION
2
TABLES
0
TABLE
2
VPORT
5
1aa
100
AcDbSymbolTable
0
VPORT
5
1
100
AcDbSymbolTableRecord
100
AcDbViewportTableRecord
2
*Active
70
0
10
0
20
0
11
1
21
1
12
-1
22
1
13
0
23
0
14
0.5
24
0.5
15
10
25
10
16
0
26
0
36
1
17
0
27
0
37
0
0
ENDTAB
0
TABLE
2
LTYPE
5
1ab
100
AcDbSymbolTable
0
LTYPE
5
14
100
AcDbSymbolTableRecord
100
AcDbLinetypeTableRecord
70
0
2
ByBlock
3

72
65
73
0
40
0
0
LTYPE
5
15
100
AcDbSymbolTableRecord
100
AcDbLinetypeTableRecord
70
0
2
ByLayer
3

72
65
73
0
40
0
0
LTYPE
5
16
100
AcDbSymbolTableRecord
100
AcDbLinetypeTableRecord
70
0
2
CONTINUOUS
3
Solid line
72
65
73
0
40
0
0
LTYPE
5
6A
100
AcDbSymbolTableRecord
100
AcDbLinetypeTableRecord
70
0
2
CENTER
3
____ _ ____ _ ____ _ ____
72
65
73
4
40
47.5
49
22
74
0
49
-8.5
74
0
49
8.5
74
0
49
-8.5
74
0
0
LTYPE
5
6B
100
AcDbSymbolTableRecord
100
AcDbLinetypeTableRecord
70
0
2
DASHED
3
__ __ __ __ __ __ __ __ __
72
65
73
2
40
25.72
49
12.86
74
0
49
-12.86
74
0
0
ENDTAB
0
TABLE
2
LAYER
5
1ac
100
AcDbSymbolTable
0
LAYER
5
10
100
AcDbSymbolTableRecord
100
AcDbLayerTableRecord
2
0
70
0
62
7
6
CONTINUOUS
290
1
370
-3
390
0
0
LAYER
5
6D
100
AcDbSymbolTableRecord
100
AcDbLayerTableRecord
2
81
70
0
62
-3
6
CONTINUOUS
290
1
370
-3
390
0
0
LAYER
5
6F
100
AcDbSymbolTableRecord
100
AcDbLayerTableRecord
2
80
70
0
62
-6
6
CONTINUOUS
290
1
370
-3
390
0
0
LAYER
5
71
100
AcDbSymbolTableRecord
100
AcDbLayerTableRecord
2
1
70
0
62
4
6
CONTINUOUS
290
1
370
-3
390
0
0
LAYER
5
E4
100
AcDbSymbolTableRecord
100
AcDbLayerTableRecord
2
2
70
0
62
7
6
CONTINUOUS
290
1
370
-3
390
0
0
LAYER
5
197
100
AcDbSymbolTableRecord
100
AcDbLayerTableRecord
2
SK1
70
0
62
4
6
CONTINUOUS
290
1
370
-3
390
0
0
LAYER
5
198
100
AcDbSymbolTableRecord
100
AcDbLayerTableRecord
2
SK2
70
0
62
7
6
CONTINUOUS
290
1
370
-3
390
0
0
LAYER
5
199
100
AcDbSymbolTableRecord
100
AcDbLayerTableRecord
2
SK6
70
0
62
5
6
CONTINUOUS
290
1
370
-3
390
0
0
ENDTAB
0
TABLE
2
STYLE
5
1ad
100
AcDbSymbolTable
0
STYLE
5
11
100
AcDbSymbolTableRecord
100
AcDbTextStyleTableRecord
2
Standard
3
txt
70
0
71
0
40
0
41
1
42
0
50
0
0
STYLE
5
DE
100
AcDbSymbolTableRecord
100
AcDbTextStyleTableRecord
2
iso_b_vert
3
simplex.shx
70
0
71
0
40
0
41
1
42
0
50
0
0
STYLE
5
DF
100
AcDbSymbolTableRecord
100
AcDbTextStyleTableRecord
2
DWGDirectTextStyle
3
simplex
70
0
71
0
40
0
41
1
42
0
50
0
0
ENDTAB
0
TABLE
2
DIMSTYLE
5
1ae
100
AcDbSymbolTable
100
AcDbDimStyleTable
0
DIMSTYLE
105
27
100
AcDbSymbolTableRecord
100
AcDbDimStyleTableRecord
2
Standard
70
0
3
<>
41
0.18
42
0.0625
44
0.18
140
0.18
147
0.09
73
0
74
0
77
1
271
2
275
0
278
52
280
0
340
11
0
ENDTAB
0
TABLE
2
VIEW
5
1af
100
AcDbSymbolTable
0
ENDTAB
0
TABLE
2
UCS
5
1b0
100
AcDbSymbolTable
0
ENDTAB
0
TABLE
2
APPID
5
1b1
100
AcDbSymbolTable
0
APPID
5
12
100
AcDbSymbolTableRecord
100
AcDbRegAppTableRecord
2
ACAD
70
0
0
ENDTAB
0
TABLE
2
BLOCK_RECORD
5
1b2
100
AcDbSymbolTable
0
BLOCK_RECORD
5
1F
100
AcDbSymbolTableRecord
100
AcDbBlockTableRecord
2
*Model_Space
340
0
70
0
0
BLOCK_RECORD
5
1B
100
AcDbSymbolTableRecord
100
AcDbBlockTableRecord
2
*Paper_Space
340
0
70
0
0
BLOCK_RECORD
5
23
100
AcDbSymbolTableRecord
100
AcDbBlockTableRecord
2
*Paper_Space0
340
0
70
0
0
BLOCK_RECORD
5
E2
100
AcDbSymbolTableRecord
100
AcDbBlockTableRecord
2
DimnDraft3D1
340
0
70
0
0
BLOCK_RECORD
5
F1
100
AcDbSymbolTableRecord
100
AcDbBlockTableRecord
2
_CLOSED
340
0
70
0
0
BLOCK_RECORD
5
F8
100
AcDbSymbolTableRecord
100
AcDbBlockTableRecord
2
DimnDraft3D2
340
0
70
0
0
BLOCK_RECORD
5
106
100
AcDbSymbolTableRecord
100
AcDbBlockTableRecord
2
DimnDraft3D3
340
0
70
0
0
BLOCK_RECORD
5
114
100
AcDbSymbolTableRecord
100
AcDbBlockTableRecord
2
DimnDraft3D4
340
0
70
0
0
BLOCK_RECORD
5
122
100
AcDbSymbolTableRecord
100
AcDbBlockTableRecord
2
DimnDraft3D5
340
0
70
0
0
BLOCK_RECORD
5
130
100
AcDbSymbolTableRecord
100
AcDbBlockTableRecord
2
DimnDraft3D6
340
0
70
0
0
ENDTAB
0
ENDSEC
0
SECTION
2
BLOCKS
0
BLOCK
5
20
100
AcDbEntity
8
0
100
AcDbBlockBegin
2
*Model_Space
70
0
10
0
20
0
30
0
3
*Model_Space
0
ENDBLK
5
21
100
AcDbEntity
8
0
100
AcDbBlockEnd
0
BLOCK
5
1C
100
AcDbEntity
8
0
100
AcDbBlockBegin
2
*Paper_Space
70
0
10
0
20
0
30
0
3
*Paper_Space
0
ENDBLK
5
1D
100
AcDbEntity
8
0
100
AcDbBlockEnd
0
BLOCK
5
24
100
AcDbEntity
8
0
100
AcDbBlockBegin
2
*Paper_Space0
70
0
10
0
20
0
30
0
3
*Paper_Space0
0
ENDBLK
5
25
100
AcDbEntity
8
0
100
AcDbBlockEnd
0
BLOCK
5
EE
100
AcDbEntity
8
0
100
AcDbBlockBegin
2
DimnDraft3D1
70
0
10
0
20
0
30
0
3
DimnDraft3D1
0
MTEXT
5
E3
100
AcDbEntity
8
2
62
256
6
ByLayer
370
18
48
1
60
0
100
AcDbMText
10
55.8238
20
-2.982895
30
0
210
0
220
0
230
1
1
\W0.7346;25.5
40
3.5
41
0
44
1.084337
50
90
71
7
72
5
7
iso_b_vert
0
LINE
5
E5
100
AcDbEntity
8
2
62
256
6
ByLayer
370
13
48
1
60
0
100
AcDbLine
10
11.5988
20
-12.5
30
0
11
58.6988
21
-12.5
31
0
39
0
210
0
220
0
230
1
0
LINE
5
E6
100
AcDbEntity
8
2
62
256
6
ByLayer
370
13
48
1
60
0
100
AcDbLine
10
33.5988
20
13
30
0
11
58.6988
21
13
31
0
39
0
210
0
220
0
230
1
0
LINE
5
E7
100
AcDbEntity
8
2
62
256
6
ByLayer
370
13
48
1
60
0
100
AcDbLine
10
56.6988
20
-12.5
30
0
11
56.6988
21
13
31
0
39
0
210
0
220
0
230
1
0
LINE
5
E8
100
AcDbEntity
8
2
62
256
6
ByLayer
370
13
48
1
60
0
100
AcDbLine
10
56.6988
20
-12.5
30
0
11
56.280803
21
-9.325002
31
0
39
0
210
0
220
0
230
1
0
LINE
5
E9
100
AcDbEntity
8
2
62
256
6
ByLayer
370
13
48
1
60
0
100
AcDbLine
10
56.6988
20
-12.5
30
0
11
57.116797
21
-9.324998
31
0
39
0
210
0
220
0
230
1
0
LINE
5
EA
100
AcDbEntity
8
2
62
256
6
ByLayer
370
13
48
1
60
0
100
AcDbLine
10
56.280803
20
-9.325002
30
0
11
57.116797
21
-9.324998
31
0
39
0
210
0
220
0
230
1
0
LINE
5
EB
100
AcDbEntity
8
2
62
256
6
ByLayer
370
13
48
1
60
0
100
AcDbLine
10
56.6988
20
13
30
0
11
57.116797
21
9.825002
31
0
39
0
210
0
220
0
230
1
0
LINE
5
EC
100
AcDbEntity
8
2
62
256
6
ByLayer
370
13
48
1
60
0
100
AcDbLine
10
56.6988
20
13
30
0
11
56.280803
21
9.824998
31
0
39
0
210
0
220
0
230
1
0
LINE
5
ED
100
AcDbEntity
8
2
62
256
6
ByLayer
370
13
48
1
60
0
100
AcDbLine
10
57.116797
20
9.825002
30
0
11
56.280803
21
9.824998
31
0
39
0
210
0
220
0
230
1
0
ENDBLK
5
EF
100
AcDbEntity
8
0
100
AcDbBlockEnd
0
BLOCK
5
F2
100
AcDbEntity
8
0
100
AcDbBlockBegin
2
_CLOSED
70
0
10
0
20
0
30
0
3
_CLOSED
0
LINE
5
F4
100
AcDbEntity
8
0
62
256
6
ByLayer
370
-2
48
1
60
0
100
AcDbLine
10
-1
20
0.166667
30
0
11
0
21
0
31
0
39
0
210
0
220
0
230
1
0
LINE
5
F5
100
AcDbEntity
8
0
62
256
6
ByLayer
370
-2
48
1
60
0
100
AcDbLine
10
0
20
0
30
0
11
-1
21
-0.166667
31
0
39
0
210
0
220
0
230
1
0
LINE
5
F6
100
AcDbEntity
8
0
62
256
6
ByLayer
370
-2
48
1
60
0
100
AcDbLine
10
-1
20
0.166667
30
0
11
-1
21
-0.166667
31
0
39
0
210
0
220
0
230
1
0
LINE
5
F7
100
AcDbEntity
8
0
62
256
6
ByLayer
370
-2
48
1
60
0
100
AcDbLine
10
0
20
0
30
0
11
-1
21
0
31
0
39
0
210
0
220
0
230
1
0
ENDBLK
5
F3
100
AcDbEntity
8
0
100
AcDbBlockEnd
0
BLOCK
5
103
100
AcDbEntity
8
0
100
AcDbBlockBegin
2
DimnDraft3D2
70
0
10
0
20
0
30
0
3
DimnDraft3D2
0
MTEXT
5
F9
100
AcDbEntity
8
SK2
62
256
6
ByLayer
370
18
48
1
60
0
100
AcDbMText
10
-82.384868
20
-24.72505
30
0
210
0
220
0
230
1
1
\W0.5404;3
40
3.5
41
0
44
1.084337
50
0
71
7
72
5
7
iso_b_vert
0
LINE
5
FA
100
AcDbEntity
8
SK2
62
256
6
ByLayer
370
13
48
1
60
0
100
AcDbLine
10
-84
20
-14.5
30
0
11
-84
21
-27.60005
31
0
39
0
210
0
220
0
230
1
0
LINE
5
FB
100
AcDbEntity
8
SK2
62
256
6
ByLayer
370
13
48
1
60
0
100
AcDbLine
10
-81
20
-14.5
30
0
11
-81
21
-27.60005
31
0
39
0
210
0
220
0
230
1
0
LINE
5
FC
100
AcDbEntity
8
SK2
62
256
6
ByLayer
370
13
48
1
60
0
100
AcDbLine
10
-92.75
20
-25.60005
30
0
11
-72.25
21
-25.60005
31
0
39
0
210
0
220
0
230
1
0
LINE
5
FD
100
AcDbEntity
8
SK2
62
256
6
ByLayer
370
13
48
1
60
0
100
AcDbLine
10
-84
20
-25.60005
30
0
11
-87.174998
21
-26.018047
31
0
39
0
210
0
220
0
230
1
0
LINE
5
FE
100
AcDbEntity
8
SK2
62
256
6
ByLayer
370
13
48
1
60
0
100
AcDbLine
10
-84
20
-25.60005
30
0
11
-87.175002
21
-25.182053
31
0
39
0
210
0
220
0
230
1
0
LINE
5
FF
100
AcDbEntity
8
SK2
62
256
6
ByLayer
370
13
48
1
60
0
100
AcDbLine
10
-87.174998
20
-26.018047
30
0
11
-87.175002
21
-25.182053
31
0
39
0
210
0
220
0
230
1
0
LINE
5
100
100
AcDbEntity
8
SK2
62
256
6
ByLayer
370
13
48
1
60
0
100
AcDbLine
10
-81
20
-25.60005
30
0
11
-77.825002
21
-25.182053
31
0
39
0
210
0
220
0
230
1
0
LINE
5
101
100
AcDbEntity
8
SK2
62
256
6
ByLayer
370
13
48
1
60
0
100
AcDbLine
10
-81
20
-25.60005
30
0
11
-77.824998
21
-26.018047
31
0
39
0
210
0
220
0
230
1
0
LINE
5
102
100
AcDbEntity
8
SK2
62
256
6
ByLayer
370
13
48
1
60
0
100
AcDbLine
10
-77.825002
20
-25.182053
30
0
11
-77.824998
21
-26.018047
31
0
39
0
210
0
220
0
230
1
0
ENDBLK
5
104
100
AcDbEntity
8
0
100
AcDbBlockEnd
0
BLOCK
5
111
100
AcDbEntity
8
0
100
AcDbBlockBegin
2
DimnDraft3D3
70
0
10
0
20
0
30
0
3
DimnDraft3D3
0
MTEXT
5
107
100
AcDbEntity
8
SK2
62
256
6
ByLayer
370
18
48
1
60
0
100
AcDbMText
10
-29.866389
20
45.306187
30
0
210
0
220
0
230
1
1
\W0.6261;115.6
40
3.5
41
0
44
1.084337
50
0
71
7
72
5
7
iso_b_vert
0
LINE
5
108
100
AcDbEntity
8
SK2
62
256
6
ByLayer
370
13
48
1
60
0
100
AcDbLine
10
-84
20
-10.5
30
0
11
-84
21
46.431187
31
0
39
0
210
0
220
0
230
1
0
LINE
5
109
100
AcDbEntity
8
SK2
62
256
6
ByLayer
370
13
48
1
60
0
100
AcDbLine
10
31.5988
20
15
30
0
11
31.5988
21
46.431187
31
0
39
0
210
0
220
0
230
1
0
LINE
5
10A
100
AcDbEntity
8
SK2
62
256
6
ByLayer
370
13
48
1
60
0
100
AcDbLine
10
-84
20
44.431187
30
0
11
31.5988
21
44.431187
31
0
39
0
210
0
220
0
230
1
0
LINE
5
10B
100
AcDbEntity
8
SK2
62
256
6
ByLayer
370
13
48
1
60
0
100
AcDbLine
10
-84
20
44.431187
30
0
11
-80.825002
21
44.849184
31
0
39
0
210
0
220
0
230
1
0
LINE
5
10C
100
AcDbEntity
8
SK2
62
256
6
ByLayer
370
13
48
1
60
0
100
AcDbLine
10
-84
20
44.431187
30
0
11
-80.824998
21
44.01319
31
0
39
0
210
0
220
0
230
1
0
LINE
5
10D
100
AcDbEntity
8
SK2
62
256
6
ByLayer
370
13
48
1
60
0
100
AcDbLine
10
-80.825002
20
44.849184
30
0
11
-80.824998
21
44.01319
31
0
39
0
210
0
220
0
230
1
0
LINE
5
10E
100
AcDbEntity
8
SK2
62
256
6
ByLayer
370
13
48
1
60
0
100
AcDbLine
10
31.5988
20
44.431187
30
0
11
28.423802
21
44.01319
31
0
39
0
210
0
220
0
230
1
0
LINE
5
10F
100
AcDbEntity
8
SK2
62
256
6
ByLayer
370
13
48
1
60
0
100
AcDbLine
10
31.5988
20
44.431187
30
0
11
28.423798
21
44.849184
31
0
39
0
210
0
220
0
230
1
0
LINE
5
110
100
AcDbEntity
8
SK2
62
256
6
ByLayer
370
13
48
1
60
0
100
AcDbLine
10
28.423802
20
44.01319
30
0
11
28.423798
21
44.849184
31
0
39
0
210
0
220
0
230
1
0
ENDBLK
5
112
100
AcDbEntity
8
0
100
AcDbBlockEnd
0
BLOCK
5
11F
100
AcDbEntity
8
0
100
AcDbBlockBegin
2
DimnDraft3D4
70
0
10
0
20
0
30
0
3
DimnDraft3D4
0
MTEXT
5
115
100
AcDbEntity
8
2
62
256
6
ByLayer
370
18
48
1
60
0
100
AcDbMText
10
13.004005
20
39.306187
30
0
210
0
220
0
230
1
1
\W0.6563;31.6
40
3.5
41
0
44
1.084337
50
0
71
7
72
5
7
iso_b_vert
0
LINE
5
116
100
AcDbEntity
8
2
62
256
6
ByLayer
370
13
48
1
60
0
100
AcDbLine
10
0
20
14.5
30
0
11
0
21
40.431187
31
0
39
0
210
0
220
0
230
1
0
LINE
5
117
100
AcDbEntity
8
2
62
256
6
ByLayer
370
13
48
1
60
0
100
AcDbLine
10
31.5988
20
15
30
0
11
31.5988
21
40.431187
31
0
39
0
210
0
220
0
230
1
0
LINE
5
118
100
AcDbEntity
8
2
62
256
6
ByLayer
370
13
48
1
60
0
100
AcDbLine
10
0
20
38.431187
30
0
11
31.5988
21
38.431187
31
0
39
0
210
0
220
0
230
1
0
LINE
5
119
100
AcDbEntity
8
2
62
256
6
ByLayer
370
13
48
1
60
0
100
AcDbLine
10
0
20
38.431187
30
0
11
3.174998
21
38.849184
31
0
39
0
210
0
220
0
230
1
0
LINE
5
11A
100
AcDbEntity
8
2
62
256
6
ByLayer
370
13
48
1
60
0
100
AcDbLine
10
0
20
38.431187
30
0
11
3.175002
21
38.01319
31
0
39
0
210
0
220
0
230
1
0
LINE
5
11B
100
AcDbEntity
8
2
62
256
6
ByLayer
370
13
48
1
60
0
100
AcDbLine
10
3.174998
20
38.849184
30
0
11
3.175002
21
38.01319
31
0
39
0
210
0
220
0
230
1
0
LINE
5
11C
100
AcDbEntity
8
2
62
256
6
ByLayer
370
13
48
1
60
0
100
AcDbLine
10
31.5988
20
38.431187
30
0
11
28.423802
21
38.01319
31
0
39
0
210
0
220
0
230
1
0
LINE
5
11D
100
AcDbEntity
8
2
62
256
6
ByLayer
370
13
48
1
60
0
100
AcDbLine
10
31.5988
20
38.431187
30
0
11
28.423798
21
38.849184
31
0
39
0
210
0
220
0
230
1
0
LINE
5
11E
100
AcDbEntity
8
2
62
256
6
ByLayer
370
13
48
1
60
0
100
AcDbLine
10
28.423802
20
38.01319
30
0
11
28.423798
21
38.849184
31
0
39
0
210
0
220
0
230
1
0
ENDBLK
5
120
100
AcDbEntity
8
0
100
AcDbBlockEnd
0
BLOCK
5
12D
100
AcDbEntity
8
0
100
AcDbBlockBegin
2
DimnDraft3D5
70
0
10
0
20
0
30
0
3
DimnDraft3D5
0
MTEXT
5
123
100
AcDbEntity
8
2
62
256
6
ByLayer
370
18
48
1
60
0
100
AcDbMText
10
19.383011
20
-24.72505
30
0
210
0
220
0
230
1
1
\W0.6740;22
40
3.5
41
0
44
1.084337
50
0
71
7
72
5
7
iso_b_vert
0
LINE
5
124
100
AcDbEntity
8
2
62
256
6
ByLayer
370
13
48
1
60
0
100
AcDbLine
10
31.5988
20
11
30
0
11
31.5988
21
-27.60005
31
0
39
0
210
0
220
0
230
1
0
LINE
5
125
100
AcDbEntity
8
2
62
256
6
ByLayer
370
13
48
1
60
0
100
AcDbLine
10
9.5988
20
-14.5
30
0
11
9.5988
21
-27.60005
31
0
39
0
210
0
220
0
230
1
0
LINE
5
126
100
AcDbEntity
8
2
62
256
6
ByLayer
370
13
48
1
60
0
100
AcDbLine
10
31.5988
20
-25.60005
30
0
11
9.5988
21
-25.60005
31
0
39
0
210
0
220
0
230
1
0
LINE
5
127
100
AcDbEntity
8
2
62
256
6
ByLayer
370
13
48
1
60
0
100
AcDbLine
10
31.5988
20
-25.60005
30
0
11
28.423802
21
-26.018047
31
0
39
0
210
0
220
0
230
1
0
LINE
5
128
100
AcDbEntity
8
2
62
256
6
ByLayer
370
13
48
1
60
0
100
AcDbLine
10
31.5988
20
-25.60005
30
0
11
28.423798
21
-25.182053
31
0
39
0
210
0
220
0
230
1
0
LINE
5
129
100
AcDbEntity
8
2
62
256
6
ByLayer
370
13
48
1
60
0
100
AcDbLine
10
28.423802
20
-26.018047
30
0
11
28.423798
21
-25.182053
31
0
39
0
210
0
220
0
230
1
0
LINE
5
12A
100
AcDbEntity
8
2
62
256
6
ByLayer
370
13
48
1
60
0
100
AcDbLine
10
9.5988
20
-25.60005
30
0
11
12.773798
21
-25.182053
31
0
39
0
210
0
220
0
230
1
0
LINE
5
12B
100
AcDbEntity
8
2
62
256
6
ByLayer
370
13
48
1
60
0
100
AcDbLine
10
9.5988
20
-25.60005
30
0
11
12.773802
21
-26.018047
31
0
39
0
210
0
220
0
230
1
0
LINE
5
12C
100
AcDbEntity
8
2
62
256
6
ByLayer
370
13
48
1
60
0
100
AcDbLine
10
12.773798
20
-25.182053
30
0
11
12.773802
21
-26.018047
31
0
39
0
210
0
220
0
230
1
0
ENDBLK
5
12E
100
AcDbEntity
8
0
100
AcDbBlockEnd
0
BLOCK
5
13B
100
AcDbEntity
8
0
100
AcDbBlockBegin
2
DimnDraft3D6
70
0
10
0
20
0
30
0
3
DimnDraft3D6
0
MTEXT
5
131
100
AcDbEntity
8
2
62
256
6
ByLayer
370
18
48
1
60
0
100
AcDbMText
10
48.8238
20
-2.314211
30
0
210
0
220
0
230
1
1
\W0.6380;4
40
3.5
41
0
44
1.084337
50
90
71
7
72
5
7
iso_b_vert
0
LINE
5
132
100
AcDbEntity
8
2
62
256
6
ByLayer
370
13
48
1
60
0
100
AcDbLine
10
33.5988
20
13
30
0
11
51.6988
21
13
31
0
39
0
210
0
220
0
230
1
0
LINE
5
133
100
AcDbEntity
8
2
62
256
6
ByLayer
370
13
48
1
60
0
100
AcDbLine
10
33.5988
20
9
30
0
11
51.6988
21
9
31
0
39
0
210
0
220
0
230
1
0
LINE
5
134
100
AcDbEntity
8
2
62
256
6
ByLayer
370
13
48
1
60
0
100
AcDbLine
10
49.6988
20
-3.189211
30
0
11
49.6988
21
21.75
31
0
39
0
210
0
220
0
230
1
0
LINE
5
135
100
AcDbEntity
8
2
62
256
6
ByLayer
370
13
48
1
60
0
100
AcDbLine
10
49.6988
20
13
30
0
11
49.280803
21
16.174998
31
0
39
0
210
0
220
0
230
1
0
LINE
5
136
100
AcDbEntity
8
2
62
256
6
ByLayer
370
13
48
1
60
0
100
AcDbLine
10
49.6988
20
13
30
0
11
50.116797
21
16.175002
31
0
39
0
210
0
220
0
230
1
0
LINE
5
137
100
AcDbEntity
8
2
62
256
6
ByLayer
370
13
48
1
60
0
100
AcDbLine
10
49.280803
20
16.174998
30
0
11
50.116797
21
16.175002
31
0
39
0
210
0
220
0
230
1
0
LINE
5
138
100
AcDbEntity
8
2
62
256
6
ByLayer
370
13
48
1
60
0
100
AcDbLine
10
49.6988
20
9
30
0
11
50.116797
21
5.825002
31
0
39
0
210
0
220
0
230
1
0
LINE
5
139
100
AcDbEntity
8
2
62
256
6
ByLayer
370
13
48
1
60
0
100
AcDbLine
10
49.6988
20
9
30
0
11
49.280803
21
5.824998
31
0
39
0
210
0
220
0
230
1
0
LINE
5
13A
100
AcDbEntity
8
2
62
256
6
ByLayer
370
13
48
1
60
0
100
AcDbLine
10
50.116797
20
5.825002
30
0
11
49.280803
21
5.824998
31
0
39
0
210
0
220
0
230
1
0
ENDBLK
5
13C
100
AcDbEntity
8
0
100
AcDbBlockEnd
0
ENDSEC
0
SECTION
2
ENTITIES
0
ARC
5
BB
100
AcDbEntity
8
1
62
256
6
ByLayer
370
18
48
1
60
0
100
AcDbCircle
39
0
10
-9.5988
20
7.65
30
0
40
1.6
210
0
220
0
230
-1
100
AcDbArc
50
0
51
90
0
ARC
5
BC
100
AcDbEntity
8
SK1
62
256
6
ByLayer
370
18
48
1
60
0
100
AcDbCircle
39
0
10
1.227723
20
14.025
30
0
40
1.59999999999488
210
0
220
0
230
-1
100
AcDbArc
50
239.213253
51
270
0
ARC
5
BD
100
AcDbEntity
8
SK1
62
256
6
ByLayer
370
18
48
1
60
0
100
AcDbCircle
39
0
10
0.1012
20
-13.1
30
0
40
1.6
210
0
220
0
230
-1
100
AcDbArc
50
22.024313
51
45.244977
0
ELLIPSE
5
BE
100
AcDbEntity
8
1
62
256
6
ByLayer
370
18
48
1
60
0
100
AcDbEllipse
10
71.773462
20
36.5
30
0
11
79.4662616822047
21
8.03117076174311E-14
31
0
210
0
220
0
230
-1
40
0.300127
41
2.18292901599761
42
2.35114625808187
0
ELLIPSE
5
BF
100
AcDbEntity
8
1
62
256
6
ByLayer
370
18
48
1
60
0
100
AcDbEllipse
10
24.010362
20
11.130325
30
0
11
0.830994909422364
21
0.0273652035304079
31
0
210
0
220
0
230
-1
40
0.901972
41
0
42
6.28318530717959
0
ELLIPSE
5
C0
100
AcDbEntity
8
1
62
256
6
ByLayer
370
18
48
1
60
0
100
AcDbEllipse
10
27.346619
20
36.5
30
0
11
28.423323183388
21
2.87257204843599E-14
31
0
210
0
220
0
230
-1
40
0.8391
41
1.57312378850415
42
1.88654704586357
0
ELLIPSE
5
C1
100
AcDbEntity
8
1
62
256
6
ByLayer
370
18
48
1
60
0
100
AcDbEllipse
10
66.947627
20
36.5
30
0
11
73.561596551852
21
9.45470506620619
31
0
210
0
220
0
230
-1
40
0.297654
41
2.11765689631107
42
2.20894600026841
0
ELLIPSE
5
C2
100
AcDbEntity
8
1
62
256
6
ByLayer
370
18
48
1
60
0
100
AcDbEllipse
10
0.020096
20
36.5
30
0
11
3.83542075052547E-15
21
23.8499999999792
31
0
210
0
220
0
230
-1
40
0.267949
41
2.7521204426181
42
3.09499761775896
0
ELLIPSE
5
C3
100
AcDbEntity
8
1
62
256
6
ByLayer
370
18
48
1
60
0
100
AcDbEllipse
10
39.570733
20
30.500005
30
0
11
27.7824971470147
21
14.3404892759355
31
0
210
0
220
0
230
-1
40
0.564442
41
2.30081449983419
42
2.31155258998449
0
ELLIPSE
5
C4
100
AcDbEntity
8
1
62
256
6
ByLayer
370
18
48
1
60
0
100
AcDbEllipse
10
24.239921
20
10.132324
30
0
11
0.658634162323041
21
3.69395366144468
31
0
210
0
220
0
230
-1
40
0.323001
41
0.49545258595804
42
0.746844002653113
0
ELLIPSE
5
C5
100
AcDbEntity
8
1
62
256
6
ByLayer
370
18
48
1
60
0
100
AcDbEllipse
10
2.497474
20
13.973581
30
0
11
8.04071436169483E-17
21
0.499999999999951
31
0
210
0
220
0
230
-1
40
0.267949
41
-0.389472210971519
42
1.5707963267949
0
ELLIPSE
5
C6
100
AcDbEntity
8
1
62
256
6
ByLayer
370
18
48
1
60
0
100
AcDbEllipse
10
27.346619
20
30.5
30
0
11
25.3247638426071
21
2.55941954000764E-14
31
0
210
0
220
0
230
-1
40
0.8391
41
1.58153467179115
42
1.9267927058031
0
ELLIPSE
5
C7
100
AcDbEntity
8
1
62
256
6
ByLayer
370
18
48
1
60
0
100
AcDbEllipse
10
19.693827
20
30.5
30
0
11
59.3141678611234
21
-8.00492772395009
31
0
210
0
220
0
230
-1
40
0.33187
41
1.33274814444989
42
1.39988897989241
0
POINT
5
6C
100
AcDbEntity
8
81
62
256
6
ByLayer
370
18
48
1
60
0
100
AcDbPoint
10
31.5988
20
13
30
0
39
0
210
0
220
0
230
1
50
360
0
POINT
5
6E
100
AcDbEntity
8
80
62
256
6
ByLayer
370
18
48
1
60
0
100
AcDbPoint
10
0
20
0
30
0
39
0
210
0
220
0
230
1
50
360
0
SPLINE
5
C8
100
AcDbEntity
8
SK1
62
256
6
ByLayer
370
18
48
1
60
0
100
AcDbSpline
70
4
71
3
72
8
73
4
40
0
40
0
40
0
40
0
40
1
40
1
40
1
40
1
41
1
10
-0.409485086719002
20
12.6500072570656
30
0
41
1
10
-0.40943937198827
20
12.649358649082
30
0
41
1
10
-0.26054557795004
20
12.730477885926
30
0
41
1
10
-0.0999999999998522
20
12.8899932037374
30
0
0
SPLINE
5
C9
100
AcDbEntity
8
SK1
62
256
6
ByLayer
370
18
48
1
60
0
100
AcDbSpline
70
4
71
3
72
14
73
10
40
0
40
0
40
0
40
0
40
0.312259698363549
40
0.312259698363549
40
0.626254013507715
40
0.626254013507715
40
0.921775909167498
40
0.921775909167498
40
1
40
1
40
1
40
1
41
1
10
-1.22772318076633
20
-11.9638021637074
30
0
41
1
10
-1.12691191262974
20
-11.8638492973924
30
0
41
1
10
-1.01083152014266
20
-11.7763557183186
30
0
41
1
10
-0.767595850199712
20
-11.6386599083221
30
0
41
1
10
-0.637193031411812
20
-11.5869979759265
30
0
41
1
10
-0.396169967621603
20
-11.5227670583598
30
0
41
1
10
-0.281992422160727
20
-11.5069965094968
30
0
41
1
10
-0.153205218482668
20
-11.5006135788319
30
0
41
1
10
-0.126764194613543
20
-11.5
30
0
41
1
10
-0.101200000000006
20
-11.5
30
0
0
SPLINE
5
CA
100
AcDbEntity
8
SK1
62
256
6
ByLayer
370
18
48
1
60
0
100
AcDbSpline
70
4
71
3
72
10
73
6
40
0
40
0
40
0
40
0
40
0.600467179294654
40
0.600467179294654
40
1
40
1
40
1
40
1
41
1
10
-0.0999999999999943
20
12.6531887812849
30
0
41
1
10
-0.155524522629832
20
12.6522865547326
30
0
41
1
10
-0.215270356453715
20
12.6516409986355
30
0
41
1
10
-0.320307111480332
20
12.6508709613827
30
0
41
1
10
-0.36391073599944
20
12.6506433348748
30
0
41
1
10
-0.408772522570303
20
12.6504746930521
30
0
0
SPLINE
5
CB
100
AcDbEntity
8
1
62
256
6
ByLayer
370
18
48
1
60
0
100
AcDbSpline
70
4
71
3
72
12
73
8
40
0
40
0
40
0
40
0
40
0.142219995441575
40
0.142219995441575
40
0.750690867613036
40
0.750690867613036
40
1
40
1
40
1
40
1
41
1
10
17.404941044473
20
9.25001790153053
30
0
41
1
10
17.3615010710055
20
9.24996410143035
30
0
41
1
10
17.3206756530393
20
9.25021004049253
30
0
41
1
10
17.1202192824389
20
9.25335703603594
30
0
41
1
10
17.0059530949426
20
9.26260069245197
30
0
41
1
10
16.925744417366
20
9.28747176879318
30
0
41
1
10
16.9117085393487
20
9.29619976792796
30
0
41
1
10
16.9073169613316
20
9.30629404862248
30
0
0
SPLINE
5
CC
100
AcDbEntity
8
1
62
256
6
ByLayer
370
18
48
1
60
0
100
AcDbSpline
70
4
71
3
72
20
73
16
40
0
40
0
40
0
40
0
40
0.126469163713321
40
0.126469163713321
40
0.291366208649326
40
0.291366208649326
40
0.459694241079615
40
0.459694241079615
40
0.630666143028509
40
0.630666143028509
40
0.801199455210606
40
0.801199455210606
40
0.967576049274106
40
0.967576049274106
40
1
40
1
40
1
40
1
41
1
10
23.0046089767484
20
12.9839811237859
30
0
41
1
10
22.9536169880063
20
13.0015491118494
30
0
41
1
10
22.9160649621554
20
13.021087889697
30
0
41
1
10
22.8642519883884
20
13.0688378511678
30
0
41
1
10
22.8600358414243
20
13.0985688584884
30
0
41
1
10
22.9019288655987
20
13.1594239110374
30
0
41
1
10
22.949618179012
20
13.1913884338197
30
0
41
1
10
23.0911458217431
20
13.2522969083549
30
0
41
1
10
23.1876805229475
20
13.2820134590451
30
0
41
1
10
23.4154587861585
20
13.3329280380069
30
0
41
1
10
23.5499104577318
20
13.3548292226938
30
0
41
1
10
23.8343292816215
20
13.3856538354356
30
0
41
1
10
23.9879158683668
20
13.3952700523276
30
0
41
1
10
24.1715726653012
20
13.3984482848798
30
0
41
1
10
24.201991338375
20
13.3987117397158
30
0
41
1
10
24.2323917126021
20
13.3987117397158
30
0
0
SPLINE
5
CD
100
AcDbEntity
8
1
62
256
6
ByLayer
370
18
48
1
60
0
100
AcDbSpline
70
4
71
3
72
8
73
4
40
0
40
0
40
0
40
0
40
1
40
1
40
1
40
1
41
1
10
-0.0999999999998522
20
12.8899932037374
30
0
41
1
10
0.0612606085416303
20
13.0502189636144
30
0
41
1
10
0.231424160965418
20
13.2886867268219
30
0
41
1
10
0.317758141296167
20
13.610889527836
30
0
0
SPLINE
5
CE
100
AcDbEntity
8
1
62
256
6
ByLayer
370
18
48
1
60
0
100
AcDbSpline
70
4
71
3
72
12
73
8
40
0
40
0
40
0
40
0
40
0.368092153520752
40
0.368092153520752
40
0.735981376201018
40
0.735981376201018
40
1
40
1
40
1
40
1
41
1
10
24.3825346153766
20
13.3987117397158
30
0
41
1
10
24.523997613321
20
13.3987117397158
30
0
41
1
10
24.6674193391487
20
13.3925823359947
30
0
41
1
10
24.9342607545285
20
13.3695083492238
30
0
41
1
10
25.0613177539655
20
13.3522848391513
30
0
41
1
10
25.2514800628316
20
13.3163607108639
30
0
41
1
10
25.3239546597524
20
13.2992330647489
30
0
41
1
10
25.38661672563
20
13.2809501663209
30
0
0
SPLINE
5
CF
100
AcDbEntity
8
1
62
256
6
ByLayer
370
18
48
1
60
0
100
AcDbSpline
70
4
71
3
72
8
73
4
40
0
40
0
40
0
40
0
40
1
40
1
40
1
40
1
41
1
10
18.5203198876897
20
13.8290599077948
30
0
41
1
10
17.68773862487
20
14.0572846950856
30
0
41
1
10
16.7645701289276
20
14.271643541694
30
0
41
1
10
15.742253222731
20
14.4361362713369
30
0
0
SPLINE
5
D0
100
AcDbEntity
8
1
62
256
6
ByLayer
370
18
48
1
60
0
100
AcDbSpline
70
4
71
3
72
19
73
15
40
0
40
0
40
0
40
0
40
0.185590602021364
40
0.185590602021364
40
0.370967670781314
40
0.370967670781314
40
0.559399278669002
40
0.559399278669002
40
0.747737352971541
40
0.747737352971541
40
0.930321614286099
40
0.930321614286099
40
0.930321614286099
40
1
40
1
40
1
40
1
41
1
10
16.9073169613316
20
9.30629404862248
30
0
41
1
10
16.8922083548235
20
9.34102200162704
30
0
41
1
10
16.7946807859115
20
9.39293941625539
30
0
41
1
10
16.4537725902723
20
9.51646881491948
30
0
41
1
10
16.2060685182547
20
9.58951007052153
30
0
41
1
10
15.5911496100976
20
9.73445391341767
30
0
41
1
10
15.213360319275
20
9.80802173711191
30
0
41
1
10
14.3823005054746
20
9.92747865507977
30
0
41
1
10
13.9169593692859
20
9.97466618736118
30
0
41
1
10
12.980338934999
20
10.0227550579594
30
0
41
1
10
12.496657568044
20
10.0254763040616
30
0
41
1
10
12.0322269753981
20
10.0066487329936
30
0
41
1
10
11.852712523926
20
9.99937138919589
30
0
41
1
10
11.6746426203841
20
9.98896636323201
30
0
41
1
10
11.5003011820832
20
9.97578524781531
30
0
0
SPLINE
5
D1
100
AcDbEntity
8
1
62
256
6
ByLayer
370
18
48
1
60
0
100
AcDbSpline
70
4
71
3
72
10
73
6
40
0
40
0
40
0
40
0
40
0.5
40
0.5
40
1
40
1
40
1
40
1
41
1
10
12.0924437908243
20
13.9735814761867
30
0
41
1
10
12.7095892442182
20
14.1115781461048
30
0
41
1
10
13.3206210692906
20
14.2495201196941
30
0
41
1
10
14.5387815207842
20
14.4493027837208
30
0
41
1
10
15.154378147171
20
14.5307264862513
30
0
41
1
10
15.742253222731
20
14.4361362713368
30
0
0
SPLINE
5
D2
100
AcDbEntity
8
1
62
256
6
ByLayer
370
18
48
1
60
0
100
AcDbSpline
70
4
71
3
72
12
73
8
40
0
40
0
40
0
40
0
40
0.396856059959157
40
0.396856059959157
40
0.793705874069593
40
0.793705874069593
40
1
40
1
40
1
40
1
41
1
10
19.2865501000801
20
9.25711883947946
30
0
41
1
10
19.1074898970586
20
9.25711883947946
30
0
41
1
10
18.9259607429151
20
9.25625829546468
30
0
41
1
10
18.5880339498985
20
9.25369297528434
30
0
41
1
10
18.4269744243915
20
9.25198620620171
30
0
41
1
10
18.2138629032032
20
9.25038601523011
30
0
41
1
10
18.1454458999839
20
9.25001776682643
30
0
41
1
10
18.0834426854081
20
9.25000102627087
30
0
0
SPLINE
5
D3
100
AcDbEntity
8
1
62
256
6
ByLayer
370
18
48
1
60
0
100
AcDbSpline
70
4
71
3
72
10
73
6
40
0
40
0
40
0
40
0
40
0.544530051877255
40
0.544530051877255
40
1
40
1
40
1
40
1
41
1
10
16.487528234296
20
9.30532676729945
30
0
41
1
10
16.4995191543723
20
9.27800373996459
30
0
41
1
10
16.5762085728474
20
9.26110063173388
30
0
41
1
10
16.8249611787348
20
9.24828959926757
30
0
41
1
10
16.9819508694364
20
9.24915503043295
30
0
41
1
10
17.173093091983
20
9.25407767121786
30
0
0
SPLINE
5
D4
100
AcDbEntity
8
1
62
256
6
ByLayer
370
18
48
1
60
0
100
AcDbSpline
70
4
71
3
72
16
73
12
40
0
40
0
40
0
40
0
40
0.124541735298592
40
0.124541735298592
40
0.372343335060652
40
0.372343335060652
40
0.615554178653937
40
0.615554178653937
40
0.837115586243773
40
0.837115586243773
40
1
40
1
40
1
40
1
41
1
10
7.99879999999999
20
9.8325417259403
30
0
41
1
10
7.99879999999999
20
9.94282960251329
30
0
41
1
10
8.0081804455927
20
10.0535093088608
30
0
41
1
10
8.06352743912046
20
10.3775436188642
30
0
41
1
10
8.13783189547468
20
10.5898504087662
30
0
41
1
10
8.35064569743949
20
10.9664000328438
30
0
41
1
10
8.49154700576588
20
11.1372885823024
30
0
41
1
10
8.80862355560103
20
11.3959402539271
30
0
41
1
10
8.98580839456838
20
11.4934202303681
30
0
41
1
10
9.30948809579334
20
11.5941365605455
30
0
41
1
10
9.45491751735946
20
11.6165725698432
30
0
41
1
10
9.59879999999998
20
11.6165725698432
30
0
0
SPLINE
5
D5
100
AcDbEntity
8
1
62
256
6
ByLayer
370
18
48
1
60
0
100
AcDbSpline
70
4
71
3
72
8
73
4
40
0
40
0
40
0
40
0
40
1
40
1
40
1
40
1
41
1
10
12.6374333469787
20
21.3496639511202
30
0
41
1
10
13.5168457633673
20
20.5392520839664
30
0
41
1
10
14.6033396010084
20
19.925945563578
30
0
41
1
10
15.8667100053136
20
19.5505826287706
30
0
0
SPLINE
5
D6
100
AcDbEntity
8
1
62
256
6
ByLayer
370
18
48
1
60
0
100
AcDbSpline
70
4
71
3
72
10
73
6
40
0
40
0
40
0
40
0
40
0.639248046879146
40
0.639248046879146
40
1
40
1
40
1
40
1
41
1
10
0.317758141296167
20
12.6758856522023
30
0
41
1
10
0.271511195413865
20
12.6678377125172
30
0
41
1
10
0.194858355473912
20
12.6620131625527
30
0
41
1
10
0.037078513872757
20
12.655963993039
30
0
41
1
10
-0.0282049614628761
20
12.6543553899656
30
0
41
1
10
-0.0999999999999943
20
12.6531887812849
30
0
0
SPLINE
5
D7
100
AcDbEntity
8
1
62
256
6
ByLayer
370
18
48
1
60
0
100
AcDbSpline
70
4
71
3
72
16
73
12
40
0
40
0
40
0
40
0
40
0.193890305939433
40
0.193890305939433
40
0.387642855288739
40
0.387642855288739
40
0.583729688184485
40
0.583729688184485
40
0.785197994896471
40
0.785197994896471
40
1
40
1
40
1
40
1
41
1
10
12.0939412647664
20
9.89722196229565
30
0
41
1
10
12.5073938911711
20
9.91265318922765
30
0
41
1
10
12.9375142416801
20
9.91065696845953
30
0
41
1
10
13.759156943603
20
9.87264045803934
30
0
41
1
10
14.1618129897197
20
9.83629073871614
30
0
41
1
10
14.8916994882162
20
9.74261278410225
30
0
41
1
10
15.2279224427054
20
9.68405849313726
30
0
41
1
10
15.7953121959356
20
9.56380033051795
30
0
41
1
10
16.0312970606507
20
9.50065629789393
30
0
41
1
10
16.3723037005304
20
9.38822534798291
30
0
41
1
10
16.4729080375197
20
9.33864097785349
30
0
41
1
10
16.487528234296
20
9.30532676729945
30
0
0
SPLINE
5
D8
100
AcDbEntity
8
1
62
256
6
ByLayer
370
18
48
1
60
0
100
AcDbSpline
70
4
71
3
72
14
73
10
40
0
40
0
40
0
40
0
40
0.250842646718306
40
0.250842646718306
40
0.501912346089444
40
0.501912346089444
40
0.749226184910782
40
0.749226184910782
40
1
40
1
40
1
40
1
41
1
10
12.0086056552114
20
9.8732556035441
30
0
41
1
10
12.0089623415906
20
9.8760885974331
30
0
41
1
10
12.0113397257344
20
9.87895615715703
30
0
41
1
10
12.019787339812
20
9.88428483112247
30
0
41
1
10
12.0259828046415
20
9.88682028670507
30
0
41
1
10
12.0412299053682
20
9.89114439061402
30
0
41
1
10
12.0504588958557
20
9.89300426231338
30
0
41
1
10
12.0708275247319
20
9.8958116238482
30
0
41
1
10
12.0823080038346
20
9.89678777593926
30
0
41
1
10
12.0939412647664
20
9.89722196229565
30
0
0
SPLINE
5
D9
100
AcDbEntity
8
1
62
256
6
ByLayer
370
18
48
1
60
0
100
AcDbSpline
70
4
71
3
72
8
73
4
40
0
40
0
40
0
40
0
40
1
40
1
40
1
40
1
41
1
10
18.5203198876897
20
10.5823815513914
30
0
41
1
10
16.7497676273703
20
11.134811289097
30
0
41
1
10
14.4727081651362
20
11.6165725698432
30
0
41
1
10
12.0924437908243
20
11.6165725698432
30
0
0
SPLINE
5
DA
100
AcDbEntity
8
1
62
256
6
ByLayer
370
18
48
1
60
0
100
AcDbSpline
70
4
71
3
72
12
73
8
40
0
40
0
40
0
40
0
40
0.342133370085668
40
0.342133370085668
40
0.74039811055241
40
0.74039811055241
40
1
40
1
40
1
40
1
41
1
10
21.1112282936274
20
9.25000261524008
30
0
41
1
10
21.0090764373998
20
9.25004997786553
30
0
41
1
10
20.8891665170828
20
9.25104042107697
30
0
41
1
10
20.6068763199428
20
9.25358824687191
30
0
41
1
10
20.4365657281313
20
9.25520198382526
30
0
41
1
10
20.1470849260876
20
9.25676707756696
30
0
41
1
10
20.0287126381612
20
9.25711883947946
30
0
41
1
10
19.9110498999199
20
9.25711883947946
30
0
0
SPLINE
5
DB
100
AcDbEntity
8
1
62
256
6
ByLayer
370
18
48
1
60
0
100
AcDbSpline
70
4
71
3
72
32
73
28
40
0
40
0
40
0
40
0
40
0.0749894894261366
40
0.0749894894261366
40
0.149862401229395
40
0.149862401229395
40
0.226490103492727
40
0.226490103492727
40
0.305397711635046
40
0.305397711635046
40
0.38541857775005
40
0.38541857775005
40
0.464928429343414
40
0.464928429343414
40
0.542675395652371
40
0.542675395652371
40
0.618313155278343
40
0.618313155278343
40
0.692363571359138
40
0.692363571359138
40
0.765847011345884
40
0.765847011345884
40
0.839897353428435
40
0.839897353428435
40
0.915459704371215
40
0.915459704371215
40
1
40
1
40
1
40
1
41
1
10
11.5003011820832
20
9.97578524781531
30
0
41
1
10
11.4575426961516
20
9.97255248488986
30
0
41
1
10
11.4164050614581
20
9.96732812867342
30
0
41
1
10
11.3441527278472
20
9.95398264514904
30
0
41
1
10
11.3120313162449
20
9.94569253164568
30
0
41
1
10
11.2599124272133
20
9.92718036187787
30
0
41
1
10
11.2395002828735
20
9.91667330325174
30
0
41
1
10
11.2130948156807
20
9.89484157355164
30
0
41
1
10
11.2071778153324
20
9.88320365504788
30
0
41
1
10
11.2112339953777
20
9.86055955013259
30
0
41
1
10
11.2214948442632
20
9.84924649198001
30
0
41
1
10
11.256864065405
20
9.82870988820989
30
0
41
1
10
11.2823939305881
20
9.81918091889301
30
0
41
1
10
11.3445052899263
20
9.80327617334015
30
0
41
1
10
11.3817228153533
20
9.79660898447978
30
0
41
1
10
11.4618228129344
20
9.78689114020887
30
0
41
1
10
11.5056516353652
20
9.78361083744826
30
0
41
1
10
11.5935451442757
20
9.78063421382032
30
0
41
1
10
11.6387967670691
20
9.78082310835177
30
0
41
1
10
11.7249059300754
20
9.78448155840161
30
0
41
1
10
11.7669638965626
20
9.78797589501681
30
0
41
1
10
11.8429220790691
20
9.79781619404514
30
0
41
1
10
11.8777837890801
20
9.80431672036843
30
0
41
1
10
11.9362393749813
20
9.81962599516848
30
0
41
1
10
11.9603851456768
20
9.828685511598
30
0
41
1
10
11.9964083182729
20
9.84923284197342
30
0
41
1
10
12.0070896719583
20
9.86121485418593
30
0
41
1
10
12.0086056552114
20
9.8732556035441
30
0
0
SPLINE
5
DC
100
AcDbEntity
8
1
62
256
6
ByLayer
370
18
48
1
60
0
100
AcDbSpline
70
4
71
3
72
10
73
6
40
0
40
0
40
0
40
0
40
0.5
40
0.5
40
1
40
1
40
1
40
1
41
1
10
26.1110186238078
20
16.9805779050419
30
0
41
1
10
27.6209768166644
20
16.662401249046
30
0
41
1
10
28.8538419528247
20
16.0491492777992
30
0
41
1
10
30.6056097948066
20
14.7934513208712
30
0
41
1
10
31.0988000000045
20
14.1715431576204
30
0
41
1
10
31.0988
20
13.7003837751534
30
0
0
LINE
5
70
100
AcDbEntity
8
1
62
256
6
ByLayer
370
18
48
1
60
0
100
AcDbLine
10
21.103844
20
9.25
30
0
11
26.795128
21
9.25
31
0
39
0
210
0
220
0
230
1
0
LINE
5
72
100
AcDbEntity
8
1
62
256
6
ByLayer
370
18
48
1
60
0
100
AcDbLine
10
17.421782
20
9.25
30
0
11
18.087574
21
9.25
31
0
39
0
210
0
220
0
230
1
0
LINE
5
73
100
AcDbEntity
8
1
62
256
6
ByLayer
370
18
48
1
60
0
100
AcDbLine
10
9.5988
20
9.25
30
0
11
16.912757
21
9.25
31
0
39
0
210
0
220
0
230
1
0
LINE
5
74
100
AcDbEntity
8
1
62
256
6
ByLayer
370
18
48
1
60
0
100
AcDbLine
10
15.211713
20
14.473581
30
0
11
2.497474
21
14.473581
31
0
39
0
210
0
220
0
230
1
0
LINE
5
75
100
AcDbEntity
8
80
62
256
6
ByLayer
370
18
48
1
60
0
100
AcDbLine
10
0
20
0
30
0
11
-5
21
0
31
0
39
0
210
0
220
0
230
1
0
LINE
5
76
100
AcDbEntity
8
81
62
256
6
ByLayer
370
18
48
1
60
0
100
AcDbLine
10
31.5988
20
13
30
0
11
36.5988
21
13
31
0
39
0
210
0
220
0
230
1
0
LINE
5
77
100
AcDbEntity
8
SK1
62
256
6
ByLayer
370
18
48
1
60
0
100
AcDbLine
10
-0.1
20
12.653189
30
0
11
-0.1
21
12.889993
31
0
39
0
210
0
220
0
230
1
0
LINE
5
79
100
AcDbEntity
8
SK1
62
256
6
ByLayer
370
18
48
1
60
0
100
AcDbLine
10
-81
20
-12.5
30
0
11
-84
21
-9.5
31
0
39
0
210
0
220
0
230
1
0
LINE
5
7A
100
AcDbEntity
8
SK1
62
256
6
ByLayer
370
18
48
1
60
0
100
AcDbLine
10
-0.1
20
-11.5
30
0
11
-0.1
21
12.653189
31
0
39
0
210
0
220
0
230
1
0
LINE
5
7B
100
AcDbEntity
8
SK1
62
256
6
ByLayer
370
18
48
1
60
0
100
AcDbLine
10
-81
20
12.425
30
0
11
-1.227723
21
12.425
31
0
39
0
210
0
220
0
230
1
0
LINE
5
7C
100
AcDbEntity
8
SK1
62
256
6
ByLayer
370
13
48
1
60
0
100
AcDbLine
10
-1.227723
20
12.425
30
0
11
-1.227723
21
-11.963802
31
0
39
0
210
0
220
0
230
1
0
LINE
5
7D
100
AcDbEntity
8
SK1
62
256
6
ByLayer
370
18
48
1
60
0
100
AcDbLine
10
-84
20
9.425
30
0
11
-84
21
-9.5
31
0
39
0
210
0
220
0
230
1
0
LINE
5
7E
100
AcDbEntity
8
SK1
62
256
6
ByLayer
370
18
48
1
60
0
100
AcDbLine
10
-0.1012
20
-11.5
30
0
11
-0.1
21
-11.5
31
0
39
0
210
0
220
0
230
1
0
LINE
5
7F
100
AcDbEntity
8
SK1
62
256
6
ByLayer
370
18
48
1
60
0
100
AcDbLine
10
-81
20
-12.5
30
0
11
-1.58444
21
-12.5
31
0
39
0
210
0
220
0
230
1
0
LINE
5
80
100
AcDbEntity
8
SK1
62
256
6
ByLayer
370
18
48
1
60
0
100
AcDbLine
10
-81
20
12.425
30
0
11
-84
21
9.425
31
0
39
0
210
0
220
0
230
1
0
LINE
5
81
100
AcDbEntity
8
1
62
256
6
ByLayer
370
18
48
1
60
0
100
AcDbLine
10
31.0988
20
11.070701
30
0
11
31.0988
21
10.97296
31
0
39
0
210
0
220
0
230
1
0
LINE
5
82
100
AcDbEntity
8
1
62
256
6
ByLayer
370
18
48
1
60
0
100
AcDbLine
10
31.0988
20
11.209911
30
0
11
31.0988
21
11.070701
31
0
39
0
210
0
220
0
230
1
0
LINE
5
83
100
AcDbEntity
8
1
62
256
6
ByLayer
370
18
48
1
60
0
100
AcDbLine
10
19.91105
20
9.257119
30
0
11
19.28655
21
9.257119
31
0
39
0
210
0
220
0
230
1
0
LINE
5
84
100
AcDbEntity
8
1
62
256
6
ByLayer
370
18
48
1
60
0
100
AcDbLine
10
31.0988
20
10.83375
30
0
11
31.0988
21
10.788582
31
0
39
0
210
0
220
0
230
1
0
LINE
5
85
100
AcDbEntity
8
1
62
256
6
ByLayer
370
18
48
1
60
0
100
AcDbLine
10
2.631449
20
-8.5
30
0
11
1.827601
21
-11.5
31
0
39
0
210
0
220
0
230
1
0
LINE
5
86
100
AcDbEntity
8
1
62
256
6
ByLayer
370
13
48
1
60
0
100
AcDbLine
10
12.093941
20
10.00776
30
0
11
12.093941
21
9.897222
31
0
39
0
210
0
220
0
230
1
0
LINE
5
87
100
AcDbEntity
8
1
62
256
6
ByLayer
370
13
48
1
60
0
100
AcDbLine
10
27.222506
20
11.142203
30
0
11
31.0988
21
10.97296
31
0
39
0
210
0
220
0
230
1
0
LINE
5
88
100
AcDbEntity
8
1
62
256
6
ByLayer
370
13
48
1
60
0
100
AcDbLine
10
18.52032
20
10.582382
30
0
11
18.52032
21
13.82906
31
0
39
0
210
0
220
0
230
1
0
LINE
5
89
100
AcDbEntity
8
1
62
256
6
ByLayer
370
18
48
1
60
0
100
AcDbLine
10
12.008606
20
10.005324
30
0
11
12.008606
21
9.873256
31
0
39
0
210
0
220
0
230
1
0
LINE
5
8A
100
AcDbEntity
8
1
62
256
6
ByLayer
370
18
48
1
60
0
100
AcDbLine
10
7.9988
20
-8.5
30
0
11
7.9988
21
9.832542
31
0
39
0
210
0
220
0
230
1
0
LINE
5
8B
100
AcDbEntity
8
1
62
256
6
ByLayer
370
13
48
1
60
0
100
AcDbLine
10
9.5988
20
9.25
30
0
11
9.5988
21
11.616573
31
0
39
0
210
0
220
0
230
1
0
LINE
5
8C
100
AcDbEntity
8
1
62
256
6
ByLayer
370
13
48
1
60
0
100
AcDbLine
10
27.236789
20
11.483505
30
0
11
31.0988
21
11.314886
31
0
39
0
210
0
220
0
230
1
0
LINE
5
8D
100
AcDbEntity
8
1
62
256
6
ByLayer
370
18
48
1
60
0
100
AcDbLine
10
31.0988
20
12.880834
30
0
11
31.0988
21
11.314886
31
0
39
0
210
0
220
0
230
1
0
LINE
5
8E
100
AcDbEntity
8
1
62
256
6
ByLayer
370
18
48
1
60
0
100
AcDbLine
10
6.9988
20
-11.5
30
0
11
1.827601
21
-11.5
31
0
39
0
210
0
220
0
230
1
0
LINE
5
8F
100
AcDbEntity
8
1
62
256
6
ByLayer
370
13
48
1
60
0
100
AcDbLine
10
31.0988
20
11.255079
30
0
11
27.234247
21
11.423809
31
0
39
0
210
0
220
0
230
1
0
LINE
5
90
100
AcDbEntity
8
1
62
256
6
ByLayer
370
18
48
1
60
0
100
AcDbLine
10
7.9988
20
-8.5
30
0
11
2.631449
21
-8.5
31
0
39
0
210
0
220
0
230
1
0
LINE
5
91
100
AcDbEntity
8
1
62
256
6
ByLayer
370
18
48
1
60
0
100
AcDbLine
10
31.0988
20
10.728775
30
0
11
31.0988
21
9.482888
31
0
39
0
210
0
220
0
230
1
0
LINE
5
92
100
AcDbEntity
8
1
62
256
6
ByLayer
370
18
48
1
60
0
100
AcDbLine
10
0.317758
20
-11.5
30
0
11
1.827601
21
-11.5
31
0
39
0
210
0
220
0
230
1
0
LINE
5
93
100
AcDbEntity
8
1
62
256
6
ByLayer
370
18
48
1
60
0
100
AcDbLine
10
6.9988
20
-11.5
30
0
11
7.9988
21
-10.5
31
0
39
0
210
0
220
0
230
1
0
LINE
5
94
100
AcDbEntity
8
1
62
256
6
ByLayer
370
13
48
1
60
0
100
AcDbLine
10
24.232392
20
13.398712
30
0
11
24.206076
21
12.795994
31
0
39
0
210
0
220
0
230
1
0
LINE
5
95
100
AcDbEntity
8
1
62
256
6
ByLayer
370
18
48
1
60
0
100
AcDbLine
10
31.0988
20
10.97296
30
0
11
31.0988
21
10.83375
31
0
39
0
210
0
220
0
230
1
0
LINE
5
96
100
AcDbEntity
8
1
62
256
6
ByLayer
370
18
48
1
60
0
100
AcDbLine
10
31.0988
20
12.880834
30
0
11
31.0988
21
13.700384
31
0
39
0
210
0
220
0
230
1
0
LINE
5
97
100
AcDbEntity
8
1
62
256
6
ByLayer
370
18
48
1
60
0
100
AcDbLine
10
27.280465
20
12.650065
30
0
11
27.28478
21
12.632576
31
0
39
0
210
0
220
0
230
1
0
LINE
5
98
100
AcDbEntity
8
1
62
256
6
ByLayer
370
18
48
1
60
0
100
AcDbLine
10
12.092444
20
11.616573
30
0
11
9.5988
21
11.616573
31
0
39
0
210
0
220
0
230
1
0
LINE
5
99
100
AcDbEntity
8
1
62
256
6
ByLayer
370
18
48
1
60
0
100
AcDbLine
10
2.631449
20
13.973581
30
0
11
2.631449
21
-8.5
31
0
39
0
210
0
220
0
230
1
0
LINE
5
9A
100
AcDbEntity
8
1
62
256
6
ByLayer
370
18
48
1
60
0
100
AcDbLine
10
31.0988
20
10.728775
30
0
11
31.0988
21
10.788582
31
0
39
0
210
0
220
0
230
1
0
LINE
5
9B
100
AcDbEntity
8
1
62
256
6
ByLayer
370
13
48
1
60
0
100
AcDbLine
10
27.232423
20
11.37872
30
0
11
31.0988
21
11.209911
31
0
39
0
210
0
220
0
230
1
0
LINE
5
9C
100
AcDbEntity
8
1
62
256
6
ByLayer
370
18
48
1
60
0
100
AcDbLine
10
27.154636
20
9.520579
30
0
11
27.28478
21
12.632576
31
0
39
0
210
0
220
0
230
1
0
LINE
5
9D
100
AcDbEntity
8
1
62
256
6
ByLayer
370
13
48
1
60
0
100
AcDbLine
10
12.092444
20
13.973581
30
0
11
12.092444
21
11.616573
31
0
39
0
210
0
220
0
230
1
0
LINE
5
9E
100
AcDbEntity
8
1
62
256
6
ByLayer
370
13
48
1
60
0
100
AcDbLine
10
27.214835
20
10.958159
30
0
11
31.0988
21
10.788582
31
0
39
0
210
0
220
0
230
1
0
LINE
5
9F
100
AcDbEntity
8
1
62
256
6
ByLayer
370
13
48
1
60
0
100
AcDbLine
10
31.0988
20
10.83375
30
0
11
27.216681
21
11.003247
31
0
39
0
210
0
220
0
230
1
0
LINE
5
A0
100
AcDbEntity
8
1
62
256
6
ByLayer
370
18
48
1
60
0
100
AcDbLine
10
24.232392
20
13.398712
30
0
11
24.382535
21
13.398712
31
0
39
0
210
0
220
0
230
1
0
LINE
5
A1
100
AcDbEntity
8
1
62
256
6
ByLayer
370
18
48
1
60
0
100
AcDbLine
10
31.0988
20
11.255079
30
0
11
31.0988
21
11.314886
31
0
39
0
210
0
220
0
230
1
0
LINE
5
A2
100
AcDbEntity
8
1
62
256
6
ByLayer
370
18
48
1
60
0
100
AcDbLine
10
-0.1
20
-11.5
30
0
11
-0.1
21
12.653189
31
0
39
0
210
0
220
0
230
1
0
LINE
5
A3
100
AcDbEntity
8
1
62
256
6
ByLayer
370
13
48
1
60
0
100
AcDbLine
10
2.631449
20
13.973581
30
0
11
12.092444
21
13.973581
31
0
39
0
210
0
220
0
230
1
0
LINE
5
A4
100
AcDbEntity
8
1
62
256
6
ByLayer
370
18
48
1
60
0
100
AcDbLine
10
27.154636
20
9.520579
30
0
11
27.074678
21
9.251225
31
0
39
0
210
0
220
0
230
1
0
LINE
5
A5
100
AcDbEntity
8
1
62
256
6
ByLayer
370
13
48
1
60
0
100
AcDbLine
10
31.0988
20
11.070701
30
0
11
27.226537
21
11.239767
31
0
39
0
210
0
220
0
230
1
0
LINE
5
A6
100
AcDbEntity
8
1
62
256
6
ByLayer
370
13
48
1
60
0
100
AcDbLine
10
0.317758
20
-11.5
30
0
11
0.317758
21
12.675886
31
0
39
0
210
0
220
0
230
1
0
LINE
5
A7
100
AcDbEntity
8
1
62
256
6
ByLayer
370
18
48
1
60
0
100
AcDbLine
10
2.391356
20
21.349664
30
0
11
0.317758
21
13.61089
31
0
39
0
210
0
220
0
230
1
0
LINE
5
A8
100
AcDbEntity
8
1
62
256
6
ByLayer
370
18
48
1
60
0
100
AcDbLine
10
-0.1
20
12.653189
30
0
11
-0.1
21
12.889993
31
0
39
0
210
0
220
0
230
1
0
LINE
5
A9
100
AcDbEntity
8
1
62
256
6
ByLayer
370
18
48
1
60
0
100
AcDbLine
10
-0.1
20
-11.5
30
0
11
0.317758
21
-11.5
31
0
39
0
210
0
220
0
230
1
0
LINE
5
AA
100
AcDbEntity
8
1
62
256
6
ByLayer
370
18
48
1
60
0
100
AcDbLine
10
7.9988
20
-10.5
30
0
11
7.9988
21
-8.5
31
0
39
0
210
0
220
0
230
1
0
LINE
5
AB
100
AcDbEntity
8
1
62
256
6
ByLayer
370
18
48
1
60
0
100
AcDbLine
10
31.0988
20
11.255079
30
0
11
31.0988
21
11.209911
31
0
39
0
210
0
220
0
230
1
0
LINE
5
AC
100
AcDbEntity
8
1
62
256
6
ByLayer
370
18
48
1
60
0
100
AcDbLine
10
23.021537
20
12.927734
30
0
11
23.004609
21
12.983981
31
0
39
0
210
0
220
0
230
1
0
LINE
5
AD
100
AcDbEntity
8
1
62
256
6
ByLayer
370
18
48
1
60
0
100
AcDbLine
10
2.391356
20
21.349664
30
0
11
12.637433
21
21.349664
31
0
39
0
210
0
220
0
230
1
0
LINE
5
AE
100
AcDbEntity
8
1
62
256
6
ByLayer
370
13
48
1
60
0
100
AcDbLine
10
16.487528
20
9.498464
30
0
11
16.487528
21
9.305327
31
0
39
0
210
0
220
0
230
1
0
LINE
5
AF
100
AcDbEntity
8
1
62
256
6
ByLayer
370
13
48
1
60
0
100
AcDbLine
10
24.382535
20
13.398712
30
0
11
24.355626
21
12.782413
31
0
39
0
210
0
220
0
230
1
0
LINE
5
B0
100
AcDbEntity
8
1
62
256
6
ByLayer
370
13
48
1
60
0
100
AcDbLine
10
31.0988
20
10.728775
30
0
11
27.212264
21
10.898465
31
0
39
0
210
0
220
0
230
1
0
LINE
5
B1
100
AcDbEntity
8
SK2
62
256
6
ByLayer
370
13
48
1
60
0
100
AcDbLine
10
-93.60005
20
12.5
30
0
11
-93.60005
21
-12.5
31
0
39
0
210
0
220
0
230
1
0
LINE
5
B3
100
AcDbEntity
8
SK2
62
256
6
ByLayer
370
13
48
1
60
0
100
AcDbLine
10
-2
20
-12.5
30
0
11
-95.60005
21
-12.5
31
0
39
0
210
0
220
0
230
1
0
LINE
5
B4
100
AcDbEntity
8
SK2
62
256
6
ByLayer
370
13
48
1
60
0
100
AcDbLine
10
-2
20
12.5
30
0
11
-95.60005
21
12.5
31
0
39
0
210
0
220
0
230
1
0
LINE
5
B5
100
AcDbEntity
8
SK2
62
256
6
ByLayer
370
18
48
1
60
0
100
AcDbLine
10
-93.60005
20
-12.5
30
0
11
-94.018047
21
-9.325002
31
0
39
0
210
0
220
0
230
1
0
LINE
5
B6
100
AcDbEntity
8
SK2
62
256
6
ByLayer
370
18
48
1
60
0
100
AcDbLine
10
-93.60005
20
-12.5
30
0
11
-93.182053
21
-9.324998
31
0
39
0
210
0
220
0
230
1
0
LINE
5
B7
100
AcDbEntity
8
SK2
62
256
6
ByLayer
370
18
48
1
60
0
100
AcDbLine
10
-94.018047
20
-9.325002
30
0
11
-93.182053
21
-9.324998
31
0
39
0
210
0
220
0
230
1
0
LINE
5
B8
100
AcDbEntity
8
SK2
62
256
6
ByLayer
370
18
48
1
60
0
100
AcDbLine
10
-93.60005
20
12.5
30
0
11
-93.182053
21
9.325002
31
0
39
0
210
0
220
0
230
1
0
LINE
5
B9
100
AcDbEntity
8
SK2
62
256
6
ByLayer
370
18
48
1
60
0
100
AcDbLine
10
-93.60005
20
12.5
30
0
11
-94.018047
21
9.324998
31
0
39
0
210
0
220
0
230
1
0
LINE
5
BA
100
AcDbEntity
8
SK2
62
256
6
ByLayer
370
18
48
1
60
0
100
AcDbLine
10
-93.182053
20
9.325002
30
0
11
-94.018047
21
9.324998
31
0
39
0
210
0
220
0
230
1
0
MTEXT
5
DD
100
AcDbEntity
8
SK6
62
256
6
ByLayer
370
18
48
1
60
0
100
AcDbMText
10
-57.825625
20
-46.209431
30
0
210
0
220
0
230
1
1
\W0.7865;QFT-RFH22C2525-035B
40
3.5
41
0
44
1.084337
50
0
71
7
72
5
7
iso_b_vert
0
MTEXT
5
E1
100
AcDbEntity
8
SK2
62
256
6
ByLayer
370
18
48
1
60
0
100
AcDbMText
10
-94.47505
20
-1.169737
30
0
210
0
220
0
230
1
1
\W0.6740;25
40
3.5
41
0
44
1.084337
50
89.9999999999999
71
7
72
5
7
iso_b_vert
0
DIMENSION
5
F0
100
AcDbEntity
8
2
62
256
6
ByLayer
370
13
48
1
60
0
100
AcDbDimension
2
DimnDraft3D1
10
56.6988
20
13
30
0
11
56.6988
21
-3.857895
31
0
70
32
71
5
72
1
41
1
210
0
220
0
230
1
3
Standard
100
AcDbAlignedDimension
13
11.5988
23
-12.5
33
0
14
33.5988
24
13
34
0
50
90
100
AcDbRotatedDimension
1001
ACAD
1000
DSTYLE
1002
{
1070
    74
1070
     0
1070
   279
1070
     0
1070
   172
1070
     1
1070
   173
1070
     1
1070
   340
1005
DE
1070
   271
1070
     1
1070
    77
1070
     1
1070
    73
1070
     0
1070
   171
1070
     3
1070
   274
1070
     4
1070
   177
1070
     2
1070
   176
1070
     2
1070
   178
1070
     7
1070
    78
1070
     8
1070
    41
1041
3.175
1070
   147
1041
1.75
1070
    42
1041
2.0
1070
    44
1041
2.0
1070
   140
1041
3.5
1070
   343
1005
F1
1070
   344
1005
F1
1002
}
0
DIMENSION
5
105
100
AcDbEntity
8
SK2
62
256
6
ByLayer
370
13
48
1
60
0
100
AcDbDimension
2
DimnDraft3D2
10
-81
20
-25.60005
30
0
11
-83.259868
21
-25.60005
31
0
70
32
71
5
72
1
41
1
210
0
220
0
230
1
3
Standard
100
AcDbAlignedDimension
13
-84
23
-14.5
33
0
14
-81
24
-14.5
34
0
50
0
100
AcDbRotatedDimension
1001
ACAD
1000
DSTYLE
1002
{
1070
   279
1070
     0
1070
   172
1070
     1
1070
   173
1070
     1
1070
   340
1005
DE
1070
    77
1070
     1
1070
    73
1070
     0
1070
   171
1070
     3
1070
   274
1070
     4
1070
   177
1070
     2
1070
   176
1070
     2
1070
   178
1070
     7
1070
    78
1070
     8
1070
    41
1041
3.175
1070
   147
1041
1.75
1070
    42
1041
2.0
1070
    44
1041
2.0
1070
   140
1041
3.5
1070
   343
1005
F1
1070
   344
1005
F1
1002
}
0
DIMENSION
5
113
100
AcDbEntity
8
SK2
62
256
6
ByLayer
370
13
48
1
60
0
100
AcDbDimension
2
DimnDraft3D3
10
31.5988
20
44.431187
30
0
11
-30.741389
21
44.431187
31
0
70
32
71
5
72
1
41
1
210
0
220
0
230
1
3
Standard
100
AcDbAlignedDimension
13
-84
23
-10.5
33
0
14
31.5988
24
15
34
0
50
0
100
AcDbRotatedDimension
1001
ACAD
1000
DSTYLE
1002
{
1070
   279
1070
     0
1070
   172
1070
     1
1070
   173
1070
     1
1070
   340
1005
DE
1070
   271
1070
     1
1070
    77
1070
     1
1070
    73
1070
     0
1070
   171
1070
     3
1070
   274
1070
     4
1070
   177
1070
     2
1070
   176
1070
     2
1070
   178
1070
     7
1070
    78
1070
     8
1070
    41
1041
3.175
1070
   147
1041
1.75
1070
    42
1041
2.0
1070
    44
1041
2.0
1070
   140
1041
3.5
1070
   343
1005
F1
1070
   344
1005
F1
1002
}
0
DIMENSION
5
121
100
AcDbEntity
8
2
62
256
6
ByLayer
370
13
48
1
60
0
100
AcDbDimension
2
DimnDraft3D4
10
31.5988
20
38.431187
30
0
11
12.129005
21
38.431187
31
0
70
32
71
5
72
1
41
1
210
0
220
0
230
1
3
Standard
100
AcDbAlignedDimension
13
0
23
14.5
33
0
14
31.5988
24
15
34
0
50
0
100
AcDbRotatedDimension
1001
ACAD
1000
DSTYLE
1002
{
1070
   279
1070
     0
1070
   172
1070
     1
1070
   173
1070
     1
1070
   340
1005
DE
1070
   271
1070
     1
1070
    77
1070
     1
1070
    73
1070
     0
1070
   171
1070
     3
1070
   274
1070
     4
1070
   177
1070
     2
1070
   176
1070
     2
1070
   178
1070
     7
1070
    78
1070
     8
1070
    41
1041
3.175
1070
   147
1041
1.75
1070
    42
1041
2.0
1070
    44
1041
2.0
1070
   140
1041
3.5
1070
   343
1005
F1
1070
   344
1005
F1
1002
}
0
DIMENSION
5
12F
100
AcDbEntity
8
2
62
256
6
ByLayer
370
13
48
1
60
0
100
AcDbDimension
2
DimnDraft3D5
10
9.5988
20
-25.60005
30
0
11
18.508011
21
-25.60005
31
0
70
32
71
5
72
1
41
1
210
0
220
0
230
1
3
Standard
100
AcDbAlignedDimension
13
31.5988
23
11
33
0
14
9.5988
24
-14.5
34
0
50
0
100
AcDbRotatedDimension
1001
ACAD
1000
DSTYLE
1002
{
1070
   279
1070
     0
1070
   172
1070
     1
1070
   173
1070
     1
1070
   340
1005
DE
1070
   271
1070
     1
1070
    77
1070
     1
1070
    73
1070
     0
1070
   171
1070
     3
1070
   274
1070
     4
1070
   177
1070
     2
1070
   176
1070
     2
1070
   178
1070
     7
1070
    78
1070
     8
1070
    41
1041
3.175
1070
   147
1041
1.75
1070
    42
1041
2.0
1070
    44
1041
2.0
1070
   140
1041
3.5
1070
   343
1005
F1
1070
   344
1005
F1
1002
}
0
DIMENSION
5
13D
100
AcDbEntity
8
2
62
256
6
ByLayer
370
13
48
1
60
0
100
AcDbDimension
2
DimnDraft3D6
10
49.6988
20
9
30
0
11
49.6988
21
-3.189211
31
0
70
32
71
5
72
1
41
1
210
0
220
0
230
1
3
Standard
100
AcDbAlignedDimension
13
33.5988
23
13
33
0
14
33.5988
24
9
34
0
50
90
100
AcDbRotatedDimension
1001
ACAD
1000
DSTYLE
1002
{
1070
    74
1070
     0
1070
   279
1070
     0
1070
   172
1070
     1
1070
   173
1070
     1
1070
   340
1005
DE
1070
   271
1070
     1
1070
    77
1070
     1
1070
    73
1070
     0
1070
   171
1070
     3
1070
   274
1070
     4
1070
   177
1070
     2
1070
   176
1070
     2
1070
   178
1070
     7
1070
    78
1070
     8
1070
    41
1041
3.175
1070
   147
1041
1.75
1070
    42
1041
2.0
1070
    44
1041
2.0
1070
   140
1041
3.5
1070
   343
1005
F1
1070
   344
1005
F1
1002
}
0
ENDSEC
0
SECTION
2
OBJECTS
0
DICTIONARY
5
1a7
330
0
100
AcDbDictionary
280
0
281
1
3
ACAD_GROUP
350
1a8
3
ACAD_MLINESTYLE
350
1a9
0
DICTIONARY
5
1a8
330
0
100
AcDbDictionary
280
0
281
1
0
DICTIONARY
5
1a9
330
0
100
AcDbDictionary
280
0
281
1
3
Standard
350
18
0
MLINESTYLE
5
18
330
1a9
100
AcDbMlineStyle
2
Standard
70
0
3

62
256
51
90
52
90
71
2
49
-0.5
62
256
6
ByLayer
49
0.5
62
256
6
ByLayer
0
RASTERVARIABLES
5
196
330

100
AcDbRasterVariables
90
0
70
1
71
1
72
1
0
ENDSEC
0
EOF
