0
SECTION
2
HEADER
9
$ACADVER
1
AC1015
9
$DWGCODEPAGE
3
ANSI_1252
9
$HANDSEED
5
1b9
9
$ANGBASE
50
0
9
$ANGDIR
70
0
9
$ATTMODE
70
1
9
$AUNITS
70
0
9
$AUPREC
70
0
9
$CECOLOR
62
256
9
$CELTSCALE
40
1
9
$CELTYPE
6
ByLayer
9
$CELWEIGHT
370
18
9
$CLAYER
8
0
9
$CMLJUST
70
0
9
$CMLSCALE
40
1
9
$CMLSTYLE
2
Standard
9
$DIMSTYLE
2
Standard
9
$TEXTSIZE
40
0.2
9
$TEXTSTYLE
7
Standard
9
$LUNITS
70
2
9
$LUPREC
70
4
9
$EXTNAMES
290
1
9
$INSUNITS
70
4
9
$LTSCALE
40
1
9
$LWDISPLAY
290
1
9
$PDMODE
70
0
9
$PDSIZE
40
0
9
$PLINEGEN
70
0
0
ENDSEC
0
SECTION
2
CLASSES
0
CLASS
1
RASTERVARIABLES
2
AcDbRasterVariables
3
ISM
90
0
280
0
281
0
0
ENDSEC
0
SECTION
2
TABLES
0
TABLE
2
VPORT
5
1af
100
AcDbSymbolTable
0
VPORT
5
1
100
AcDbSymbolTableRecord
100
AcDbViewportTableRecord
2
*Active
70
0
10
0
20
0
11
1
21
1
12
-1
22
1
13
0
23
0
14
0.5
24
0.5
15
10
25
10
16
0
26
0
36
1
17
0
27
0
37
0
0
ENDTAB
0
TABLE
2
LTYPE
5
1b0
100
AcDbSymbolTable
0
LTYPE
5
14
100
AcDbSymbolTableRecord
100
AcDbLinetypeTableRecord
70
0
2
ByBlock
3

72
65
73
0
40
0
0
LTYPE
5
15
100
AcDbSymbolTableRecord
100
AcDbLinetypeTableRecord
70
0
2
ByLayer
3

72
65
73
0
40
0
0
LTYPE
5
16
100
AcDbSymbolTableRecord
100
AcDbLinetypeTableRecord
70
0
2
CONTINUOUS
3
Solid line
72
65
73
0
40
0
0
LTYPE
5
6A
100
AcDbSymbolTableRecord
100
AcDbLinetypeTableRecord
70
0
2
CENTER
3
____ _ ____ _ ____ _ ____
72
65
73
4
40
47.5
49
22
74
0
49
-8.5
74
0
49
8.5
74
0
49
-8.5
74
0
0
LTYPE
5
6B
100
AcDbSymbolTableRecord
100
AcDbLinetypeTableRecord
70
0
2
DASHED
3
__ __ __ __ __ __ __ __ __
72
65
73
2
40
25.72
49
12.86
74
0
49
-12.86
74
0
0
ENDTAB
0
TABLE
2
LAYER
5
1b1
100
AcDbSymbolTable
0
LAYER
5
10
100
AcDbSymbolTableRecord
100
AcDbLayerTableRecord
2
0
70
0
62
7
6
CONTINUOUS
290
1
370
-3
390
0
0
LAYER
5
6D
100
AcDbSymbolTableRecord
100
AcDbLayerTableRecord
2
81
70
0
62
-3
6
CONTINUOUS
290
1
370
-3
390
0
0
LAYER
5
6F
100
AcDbSymbolTableRecord
100
AcDbLayerTableRecord
2
80
70
0
62
-6
6
CONTINUOUS
290
1
370
-3
390
0
0
LAYER
5
71
100
AcDbSymbolTableRecord
100
AcDbLayerTableRecord
2
1
70
0
62
4
6
CONTINUOUS
290
1
370
-3
390
0
0
LAYER
5
E9
100
AcDbSymbolTableRecord
100
AcDbLayerTableRecord
2
2
70
0
62
7
6
CONTINUOUS
290
1
370
-3
390
0
0
LAYER
5
19c
100
AcDbSymbolTableRecord
100
AcDbLayerTableRecord
2
SK1
70
0
62
4
6
CONTINUOUS
290
1
370
-3
390
0
0
LAYER
5
19d
100
AcDbSymbolTableRecord
100
AcDbLayerTableRecord
2
SK2
70
0
62
7
6
CONTINUOUS
290
1
370
-3
390
0
0
LAYER
5
19e
100
AcDbSymbolTableRecord
100
AcDbLayerTableRecord
2
SK6
70
0
62
5
6
CONTINUOUS
290
1
370
-3
390
0
0
ENDTAB
0
TABLE
2
STYLE
5
1b2
100
AcDbSymbolTable
0
STYLE
5
11
100
AcDbSymbolTableRecord
100
AcDbTextStyleTableRecord
2
Standard
3
txt
70
0
71
0
40
0
41
1
42
0
50
0
0
STYLE
5
E3
100
AcDbSymbolTableRecord
100
AcDbTextStyleTableRecord
2
iso_b_vert
3
simplex.shx
70
0
71
0
40
0
41
1
42
0
50
0
0
STYLE
5
E4
100
AcDbSymbolTableRecord
100
AcDbTextStyleTableRecord
2
DWGDirectTextStyle
3
simplex
70
0
71
0
40
0
41
1
42
0
50
0
0
ENDTAB
0
TABLE
2
DIMSTYLE
5
1b3
100
AcDbSymbolTable
100
AcDbDimStyleTable
0
DIMSTYLE
105
27
100
AcDbSymbolTableRecord
100
AcDbDimStyleTableRecord
2
Standard
70
0
3
<>
41
0.18
42
0.0625
44
0.18
140
0.18
147
0.09
73
0
74
0
77
1
271
2
275
0
278
52
280
0
340
11
0
ENDTAB
0
TABLE
2
VIEW
5
1b4
100
AcDbSymbolTable
0
ENDTAB
0
TABLE
2
UCS
5
1b5
100
AcDbSymbolTable
0
ENDTAB
0
TABLE
2
APPID
5
1b6
100
AcDbSymbolTable
0
APPID
5
12
100
AcDbSymbolTableRecord
100
AcDbRegAppTableRecord
2
ACAD
70
0
0
ENDTAB
0
TABLE
2
BLOCK_RECORD
5
1b7
100
AcDbSymbolTable
0
BLOCK_RECORD
5
1F
100
AcDbSymbolTableRecord
100
AcDbBlockTableRecord
2
*Model_Space
340
0
70
0
0
BLOCK_RECORD
5
1B
100
AcDbSymbolTableRecord
100
AcDbBlockTableRecord
2
*Paper_Space
340
0
70
0
0
BLOCK_RECORD
5
23
100
AcDbSymbolTableRecord
100
AcDbBlockTableRecord
2
*Paper_Space0
340
0
70
0
0
BLOCK_RECORD
5
E7
100
AcDbSymbolTableRecord
100
AcDbBlockTableRecord
2
DimnDraft3D1
340
0
70
0
0
BLOCK_RECORD
5
F6
100
AcDbSymbolTableRecord
100
AcDbBlockTableRecord
2
_CLOSED
340
0
70
0
0
BLOCK_RECORD
5
FD
100
AcDbSymbolTableRecord
100
AcDbBlockTableRecord
2
DimnDraft3D2
340
0
70
0
0
BLOCK_RECORD
5
10B
100
AcDbSymbolTableRecord
100
AcDbBlockTableRecord
2
DimnDraft3D3
340
0
70
0
0
BLOCK_RECORD
5
119
100
AcDbSymbolTableRecord
100
AcDbBlockTableRecord
2
DimnDraft3D4
340
0
70
0
0
BLOCK_RECORD
5
127
100
AcDbSymbolTableRecord
100
AcDbBlockTableRecord
2
DimnDraft3D5
340
0
70
0
0
BLOCK_RECORD
5
135
100
AcDbSymbolTableRecord
100
AcDbBlockTableRecord
2
DimnDraft3D6
340
0
70
0
0
ENDTAB
0
ENDSEC
0
SECTION
2
BLOCKS
0
BLOCK
5
20
100
AcDbEntity
8
0
100
AcDbBlockBegin
2
*Model_Space
70
0
10
0
20
0
30
0
3
*Model_Space
0
ENDBLK
5
21
100
AcDbEntity
8
0
100
AcDbBlockEnd
0
BLOCK
5
1C
100
AcDbEntity
8
0
100
AcDbBlockBegin
2
*Paper_Space
70
0
10
0
20
0
30
0
3
*Paper_Space
0
ENDBLK
5
1D
100
AcDbEntity
8
0
100
AcDbBlockEnd
0
BLOCK
5
24
100
AcDbEntity
8
0
100
AcDbBlockBegin
2
*Paper_Space0
70
0
10
0
20
0
30
0
3
*Paper_Space0
0
ENDBLK
5
25
100
AcDbEntity
8
0
100
AcDbBlockEnd
0
BLOCK
5
F3
100
AcDbEntity
8
0
100
AcDbBlockBegin
2
DimnDraft3D1
70
0
10
0
20
0
30
0
3
DimnDraft3D1
0
MTEXT
5
E8
100
AcDbEntity
8
2
62
256
6
ByLayer
370
18
48
1
60
0
100
AcDbMText
10
63.8238
20
-2.982895
30
0
210
0
220
0
230
1
1
\W0.7346;25.5
40
3.5
41
0
44
1.084337
50
90
71
7
72
5
7
iso_b_vert
0
LINE
5
EA
100
AcDbEntity
8
2
62
256
6
ByLayer
370
13
48
1
60
0
100
AcDbLine
10
11.5988
20
-12.5
30
0
11
66.6988
21
-12.5
31
0
39
0
210
0
220
0
230
1
0
LINE
5
EB
100
AcDbEntity
8
2
62
256
6
ByLayer
370
13
48
1
60
0
100
AcDbLine
10
41.5988
20
13
30
0
11
66.6988
21
13
31
0
39
0
210
0
220
0
230
1
0
LINE
5
EC
100
AcDbEntity
8
2
62
256
6
ByLayer
370
13
48
1
60
0
100
AcDbLine
10
64.6988
20
-12.5
30
0
11
64.6988
21
13
31
0
39
0
210
0
220
0
230
1
0
LINE
5
ED
100
AcDbEntity
8
2
62
256
6
ByLayer
370
13
48
1
60
0
100
AcDbLine
10
64.6988
20
-12.5
30
0
11
64.280803
21
-9.325002
31
0
39
0
210
0
220
0
230
1
0
LINE
5
EE
100
AcDbEntity
8
2
62
256
6
ByLayer
370
13
48
1
60
0
100
AcDbLine
10
64.6988
20
-12.5
30
0
11
65.116797
21
-9.324998
31
0
39
0
210
0
220
0
230
1
0
LINE
5
EF
100
AcDbEntity
8
2
62
256
6
ByLayer
370
13
48
1
60
0
100
AcDbLine
10
64.280803
20
-9.325002
30
0
11
65.116797
21
-9.324998
31
0
39
0
210
0
220
0
230
1
0
LINE
5
F0
100
AcDbEntity
8
2
62
256
6
ByLayer
370
13
48
1
60
0
100
AcDbLine
10
64.6988
20
13
30
0
11
65.116797
21
9.825002
31
0
39
0
210
0
220
0
230
1
0
LINE
5
F1
100
AcDbEntity
8
2
62
256
6
ByLayer
370
13
48
1
60
0
100
AcDbLine
10
64.6988
20
13
30
0
11
64.280803
21
9.824998
31
0
39
0
210
0
220
0
230
1
0
LINE
5
F2
100
AcDbEntity
8
2
62
256
6
ByLayer
370
13
48
1
60
0
100
AcDbLine
10
65.116797
20
9.825002
30
0
11
64.280803
21
9.824998
31
0
39
0
210
0
220
0
230
1
0
ENDBLK
5
F4
100
AcDbEntity
8
0
100
AcDbBlockEnd
0
BLOCK
5
F7
100
AcDbEntity
8
0
100
AcDbBlockBegin
2
_CLOSED
70
0
10
0
20
0
30
0
3
_CLOSED
0
LINE
5
F9
100
AcDbEntity
8
0
62
256
6
ByLayer
370
-2
48
1
60
0
100
AcDbLine
10
-1
20
0.166667
30
0
11
0
21
0
31
0
39
0
210
0
220
0
230
1
0
LINE
5
FA
100
AcDbEntity
8
0
62
256
6
ByLayer
370
-2
48
1
60
0
100
AcDbLine
10
0
20
0
30
0
11
-1
21
-0.166667
31
0
39
0
210
0
220
0
230
1
0
LINE
5
FB
100
AcDbEntity
8
0
62
256
6
ByLayer
370
-2
48
1
60
0
100
AcDbLine
10
-1
20
0.166667
30
0
11
-1
21
-0.166667
31
0
39
0
210
0
220
0
230
1
0
LINE
5
FC
100
AcDbEntity
8
0
62
256
6
ByLayer
370
-2
48
1
60
0
100
AcDbLine
10
0
20
0
30
0
11
-1
21
0
31
0
39
0
210
0
220
0
230
1
0
ENDBLK
5
F8
100
AcDbEntity
8
0
100
AcDbBlockEnd
0
BLOCK
5
108
100
AcDbEntity
8
0
100
AcDbBlockBegin
2
DimnDraft3D2
70
0
10
0
20
0
30
0
3
DimnDraft3D2
0
MTEXT
5
FE
100
AcDbEntity
8
SK2
62
256
6
ByLayer
370
18
48
1
60
0
100
AcDbMText
10
-82.384868
20
-24.72505
30
0
210
0
220
0
230
1
1
\W0.5404;3
40
3.5
41
0
44
1.084337
50
0
71
7
72
5
7
iso_b_vert
0
LINE
5
FF
100
AcDbEntity
8
SK2
62
256
6
ByLayer
370
13
48
1
60
0
100
AcDbLine
10
-84
20
-14.5
30
0
11
-84
21
-27.60005
31
0
39
0
210
0
220
0
230
1
0
LINE
5
100
100
AcDbEntity
8
SK2
62
256
6
ByLayer
370
13
48
1
60
0
100
AcDbLine
10
-81
20
-14.5
30
0
11
-81
21
-27.60005
31
0
39
0
210
0
220
0
230
1
0
LINE
5
101
100
AcDbEntity
8
SK2
62
256
6
ByLayer
370
13
48
1
60
0
100
AcDbLine
10
-92.75
20
-25.60005
30
0
11
-72.25
21
-25.60005
31
0
39
0
210
0
220
0
230
1
0
LINE
5
102
100
AcDbEntity
8
SK2
62
256
6
ByLayer
370
13
48
1
60
0
100
AcDbLine
10
-84
20
-25.60005
30
0
11
-87.174998
21
-26.018047
31
0
39
0
210
0
220
0
230
1
0
LINE
5
103
100
AcDbEntity
8
SK2
62
256
6
ByLayer
370
13
48
1
60
0
100
AcDbLine
10
-84
20
-25.60005
30
0
11
-87.175002
21
-25.182053
31
0
39
0
210
0
220
0
230
1
0
LINE
5
104
100
AcDbEntity
8
SK2
62
256
6
ByLayer
370
13
48
1
60
0
100
AcDbLine
10
-87.174998
20
-26.018047
30
0
11
-87.175002
21
-25.182053
31
0
39
0
210
0
220
0
230
1
0
LINE
5
105
100
AcDbEntity
8
SK2
62
256
6
ByLayer
370
13
48
1
60
0
100
AcDbLine
10
-81
20
-25.60005
30
0
11
-77.825002
21
-25.182053
31
0
39
0
210
0
220
0
230
1
0
LINE
5
106
100
AcDbEntity
8
SK2
62
256
6
ByLayer
370
13
48
1
60
0
100
AcDbLine
10
-81
20
-25.60005
30
0
11
-77.824998
21
-26.018047
31
0
39
0
210
0
220
0
230
1
0
LINE
5
107
100
AcDbEntity
8
SK2
62
256
6
ByLayer
370
13
48
1
60
0
100
AcDbLine
10
-77.825002
20
-25.182053
30
0
11
-77.824998
21
-26.018047
31
0
39
0
210
0
220
0
230
1
0
ENDBLK
5
109
100
AcDbEntity
8
0
100
AcDbBlockEnd
0
BLOCK
5
116
100
AcDbEntity
8
0
100
AcDbBlockBegin
2
DimnDraft3D3
70
0
10
0
20
0
30
0
3
DimnDraft3D3
0
MTEXT
5
10C
100
AcDbEntity
8
SK2
62
256
6
ByLayer
370
18
48
1
60
0
100
AcDbMText
10
-26.303889
20
41.830794
30
0
210
0
220
0
230
1
1
\W0.6864;123.6
40
3.5
41
0
44
1.084337
50
0
71
7
72
5
7
iso_b_vert
0
LINE
5
10D
100
AcDbEntity
8
SK2
62
256
6
ByLayer
370
13
48
1
60
0
100
AcDbLine
10
-84
20
-10.5
30
0
11
-84
21
42.955794
31
0
39
0
210
0
220
0
230
1
0
LINE
5
10E
100
AcDbEntity
8
SK2
62
256
6
ByLayer
370
13
48
1
60
0
100
AcDbLine
10
39.5988
20
15
30
0
11
39.5988
21
42.955794
31
0
39
0
210
0
220
0
230
1
0
LINE
5
10F
100
AcDbEntity
8
SK2
62
256
6
ByLayer
370
13
48
1
60
0
100
AcDbLine
10
-84
20
40.955794
30
0
11
39.5988
21
40.955794
31
0
39
0
210
0
220
0
230
1
0
LINE
5
110
100
AcDbEntity
8
SK2
62
256
6
ByLayer
370
13
48
1
60
0
100
AcDbLine
10
-84
20
40.955794
30
0
11
-80.825002
21
41.37379
31
0
39
0
210
0
220
0
230
1
0
LINE
5
111
100
AcDbEntity
8
SK2
62
256
6
ByLayer
370
13
48
1
60
0
100
AcDbLine
10
-84
20
40.955794
30
0
11
-80.824998
21
40.537797
31
0
39
0
210
0
220
0
230
1
0
LINE
5
112
100
AcDbEntity
8
SK2
62
256
6
ByLayer
370
13
48
1
60
0
100
AcDbLine
10
-80.825002
20
41.37379
30
0
11
-80.824998
21
40.537797
31
0
39
0
210
0
220
0
230
1
0
LINE
5
113
100
AcDbEntity
8
SK2
62
256
6
ByLayer
370
13
48
1
60
0
100
AcDbLine
10
39.5988
20
40.955794
30
0
11
36.423802
21
40.537797
31
0
39
0
210
0
220
0
230
1
0
LINE
5
114
100
AcDbEntity
8
SK2
62
256
6
ByLayer
370
13
48
1
60
0
100
AcDbLine
10
39.5988
20
40.955794
30
0
11
36.423798
21
41.37379
31
0
39
0
210
0
220
0
230
1
0
LINE
5
115
100
AcDbEntity
8
SK2
62
256
6
ByLayer
370
13
48
1
60
0
100
AcDbLine
10
36.423802
20
40.537797
30
0
11
36.423798
21
41.37379
31
0
39
0
210
0
220
0
230
1
0
ENDBLK
5
117
100
AcDbEntity
8
0
100
AcDbBlockEnd
0
BLOCK
5
124
100
AcDbEntity
8
0
100
AcDbBlockBegin
2
DimnDraft3D4
70
0
10
0
20
0
30
0
3
DimnDraft3D4
0
MTEXT
5
11A
100
AcDbEntity
8
2
62
256
6
ByLayer
370
18
48
1
60
0
100
AcDbMText
10
16.566505
20
35.830794
30
0
210
0
220
0
230
1
1
\W0.7346;39.6
40
3.5
41
0
44
1.084337
50
0
71
7
72
5
7
iso_b_vert
0
LINE
5
11B
100
AcDbEntity
8
2
62
256
6
ByLayer
370
13
48
1
60
0
100
AcDbLine
10
0
20
14.5
30
0
11
0
21
36.955794
31
0
39
0
210
0
220
0
230
1
0
LINE
5
11C
100
AcDbEntity
8
2
62
256
6
ByLayer
370
13
48
1
60
0
100
AcDbLine
10
39.5988
20
15
30
0
11
39.5988
21
36.955794
31
0
39
0
210
0
220
0
230
1
0
LINE
5
11D
100
AcDbEntity
8
2
62
256
6
ByLayer
370
13
48
1
60
0
100
AcDbLine
10
0
20
34.955794
30
0
11
39.5988
21
34.955794
31
0
39
0
210
0
220
0
230
1
0
LINE
5
11E
100
AcDbEntity
8
2
62
256
6
ByLayer
370
13
48
1
60
0
100
AcDbLine
10
0
20
34.955794
30
0
11
3.174998
21
35.37379
31
0
39
0
210
0
220
0
230
1
0
LINE
5
11F
100
AcDbEntity
8
2
62
256
6
ByLayer
370
13
48
1
60
0
100
AcDbLine
10
0
20
34.955794
30
0
11
3.175002
21
34.537797
31
0
39
0
210
0
220
0
230
1
0
LINE
5
120
100
AcDbEntity
8
2
62
256
6
ByLayer
370
13
48
1
60
0
100
AcDbLine
10
3.174998
20
35.37379
30
0
11
3.175002
21
34.537797
31
0
39
0
210
0
220
0
230
1
0
LINE
5
121
100
AcDbEntity
8
2
62
256
6
ByLayer
370
13
48
1
60
0
100
AcDbLine
10
39.5988
20
34.955794
30
0
11
36.423802
21
34.537797
31
0
39
0
210
0
220
0
230
1
0
LINE
5
122
100
AcDbEntity
8
2
62
256
6
ByLayer
370
13
48
1
60
0
100
AcDbLine
10
39.5988
20
34.955794
30
0
11
36.423798
21
35.37379
31
0
39
0
210
0
220
0
230
1
0
LINE
5
123
100
AcDbEntity
8
2
62
256
6
ByLayer
370
13
48
1
60
0
100
AcDbLine
10
36.423802
20
34.537797
30
0
11
36.423798
21
35.37379
31
0
39
0
210
0
220
0
230
1
0
ENDBLK
5
125
100
AcDbEntity
8
0
100
AcDbBlockEnd
0
BLOCK
5
132
100
AcDbEntity
8
0
100
AcDbBlockBegin
2
DimnDraft3D5
70
0
10
0
20
0
30
0
3
DimnDraft3D5
0
MTEXT
5
128
100
AcDbEntity
8
2
62
256
6
ByLayer
370
18
48
1
60
0
100
AcDbMText
10
23.383011
20
-24.72505
30
0
210
0
220
0
230
1
1
\W0.6740;30
40
3.5
41
0
44
1.084337
50
0
71
7
72
5
7
iso_b_vert
0
LINE
5
129
100
AcDbEntity
8
2
62
256
6
ByLayer
370
13
48
1
60
0
100
AcDbLine
10
39.5988
20
11
30
0
11
39.5988
21
-27.60005
31
0
39
0
210
0
220
0
230
1
0
LINE
5
12A
100
AcDbEntity
8
2
62
256
6
ByLayer
370
13
48
1
60
0
100
AcDbLine
10
9.5988
20
-14.5
30
0
11
9.5988
21
-27.60005
31
0
39
0
210
0
220
0
230
1
0
LINE
5
12B
100
AcDbEntity
8
2
62
256
6
ByLayer
370
13
48
1
60
0
100
AcDbLine
10
39.5988
20
-25.60005
30
0
11
9.5988
21
-25.60005
31
0
39
0
210
0
220
0
230
1
0
LINE
5
12C
100
AcDbEntity
8
2
62
256
6
ByLayer
370
13
48
1
60
0
100
AcDbLine
10
39.5988
20
-25.60005
30
0
11
36.423802
21
-26.018047
31
0
39
0
210
0
220
0
230
1
0
LINE
5
12D
100
AcDbEntity
8
2
62
256
6
ByLayer
370
13
48
1
60
0
100
AcDbLine
10
39.5988
20
-25.60005
30
0
11
36.423798
21
-25.182053
31
0
39
0
210
0
220
0
230
1
0
LINE
5
12E
100
AcDbEntity
8
2
62
256
6
ByLayer
370
13
48
1
60
0
100
AcDbLine
10
36.423802
20
-26.018047
30
0
11
36.423798
21
-25.182053
31
0
39
0
210
0
220
0
230
1
0
LINE
5
12F
100
AcDbEntity
8
2
62
256
6
ByLayer
370
13
48
1
60
0
100
AcDbLine
10
9.5988
20
-25.60005
30
0
11
12.773798
21
-25.182053
31
0
39
0
210
0
220
0
230
1
0
LINE
5
130
100
AcDbEntity
8
2
62
256
6
ByLayer
370
13
48
1
60
0
100
AcDbLine
10
9.5988
20
-25.60005
30
0
11
12.773802
21
-26.018047
31
0
39
0
210
0
220
0
230
1
0
LINE
5
131
100
AcDbEntity
8
2
62
256
6
ByLayer
370
13
48
1
60
0
100
AcDbLine
10
12.773798
20
-25.182053
30
0
11
12.773802
21
-26.018047
31
0
39
0
210
0
220
0
230
1
0
ENDBLK
5
133
100
AcDbEntity
8
0
100
AcDbBlockEnd
0
BLOCK
5
140
100
AcDbEntity
8
0
100
AcDbBlockBegin
2
DimnDraft3D6
70
0
10
0
20
0
30
0
3
DimnDraft3D6
0
MTEXT
5
136
100
AcDbEntity
8
2
62
256
6
ByLayer
370
18
48
1
60
0
100
AcDbMText
10
56.8238
20
-0.945789
30
0
210
0
220
0
230
1
1
\W0.5404;3
40
3.5
41
0
44
1.084337
50
90
71
7
72
5
7
iso_b_vert
0
LINE
5
137
100
AcDbEntity
8
2
62
256
6
ByLayer
370
13
48
1
60
0
100
AcDbLine
10
41.5988
20
13
30
0
11
59.6988
21
13
31
0
39
0
210
0
220
0
230
1
0
LINE
5
138
100
AcDbEntity
8
2
62
256
6
ByLayer
370
13
48
1
60
0
100
AcDbLine
10
41.5988
20
10
30
0
11
59.6988
21
10
31
0
39
0
210
0
220
0
230
1
0
LINE
5
139
100
AcDbEntity
8
2
62
256
6
ByLayer
370
13
48
1
60
0
100
AcDbLine
10
57.6988
20
-1.820789
30
0
11
57.6988
21
21.75
31
0
39
0
210
0
220
0
230
1
0
LINE
5
13A
100
AcDbEntity
8
2
62
256
6
ByLayer
370
13
48
1
60
0
100
AcDbLine
10
57.6988
20
13
30
0
11
57.280803
21
16.174998
31
0
39
0
210
0
220
0
230
1
0
LINE
5
13B
100
AcDbEntity
8
2
62
256
6
ByLayer
370
13
48
1
60
0
100
AcDbLine
10
57.6988
20
13
30
0
11
58.116797
21
16.175002
31
0
39
0
210
0
220
0
230
1
0
LINE
5
13C
100
AcDbEntity
8
2
62
256
6
ByLayer
370
13
48
1
60
0
100
AcDbLine
10
57.280803
20
16.174998
30
0
11
58.116797
21
16.175002
31
0
39
0
210
0
220
0
230
1
0
LINE
5
13D
100
AcDbEntity
8
2
62
256
6
ByLayer
370
13
48
1
60
0
100
AcDbLine
10
57.6988
20
10
30
0
11
58.116797
21
6.825002
31
0
39
0
210
0
220
0
230
1
0
LINE
5
13E
100
AcDbEntity
8
2
62
256
6
ByLayer
370
13
48
1
60
0
100
AcDbLine
10
57.6988
20
10
30
0
11
57.280803
21
6.824998
31
0
39
0
210
0
220
0
230
1
0
LINE
5
13F
100
AcDbEntity
8
2
62
256
6
ByLayer
370
13
48
1
60
0
100
AcDbLine
10
58.116797
20
6.825002
30
0
11
57.280803
21
6.824998
31
0
39
0
210
0
220
0
230
1
0
ENDBLK
5
141
100
AcDbEntity
8
0
100
AcDbBlockEnd
0
ENDSEC
0
SECTION
2
ENTITIES
0
ARC
5
BD
100
AcDbEntity
8
1
62
256
6
ByLayer
370
18
48
1
60
0
100
AcDbCircle
39
0
10
-9.5988
20
8.65
30
0
40
1.6
210
0
220
0
230
-1
100
AcDbArc
50
0
51
90
0
ARC
5
BE
100
AcDbEntity
8
SK1
62
256
6
ByLayer
370
18
48
1
60
0
100
AcDbCircle
39
0
10
0.1012
20
-13.1
30
0
40
1.6
210
0
220
0
230
-1
100
AcDbArc
50
22.024313
51
45.244977
0
ARC
5
BF
100
AcDbEntity
8
SK1
62
256
6
ByLayer
370
18
48
1
60
0
100
AcDbCircle
39
0
10
1.227723
20
14.025
30
0
40
1.59999999999822
210
0
220
0
230
-1
100
AcDbArc
50
239.229793
51
270
0
ELLIPSE
5
C0
100
AcDbEntity
8
1
62
256
6
ByLayer
370
18
48
1
60
0
100
AcDbEllipse
10
11.50846
20
48
30
0
11
105.369874294721
21
-14.2205185396094
31
0
210
0
220
0
230
-1
40
0.33187
41
1.26137827761751
42
1.29533238161687
0
ELLIPSE
5
C1
100
AcDbEntity
8
1
62
256
6
ByLayer
370
18
48
1
60
0
100
AcDbEllipse
10
100.27322
20
59.999999
30
0
11
146.043671339818
21
18.7706613064564
31
0
210
0
220
0
230
-1
40
0.297654
41
2.04090619257729
42
2.07737869799047
0
ELLIPSE
5
C2
100
AcDbEntity
8
1
62
256
6
ByLayer
370
18
48
1
60
0
100
AcDbEllipse
10
51.046889
20
48.090843
30
0
11
16.5369181724595
21
37.6483764183417
31
0
210
0
220
0
230
-1
40
0.230497
41
3.03281623928083
42
3.03506704349077
0
ELLIPSE
5
C3
100
AcDbEntity
8
1
62
256
6
ByLayer
370
18
48
1
60
0
100
AcDbEllipse
10
77.332365
20
60
30
0
11
149.322618493084
21
1.50911270056275E-13
31
0
210
0
220
0
230
-1
40
0.317099
41
1.86372287450806
42
1.9961481594425
0
ELLIPSE
5
C4
100
AcDbEntity
8
1
62
256
6
ByLayer
370
18
48
1
60
0
100
AcDbEllipse
10
2.396136
20
12.978835
30
0
11
8.04071436169586E-17
21
0.500000000000015
31
0
210
0
220
0
230
-1
40
0.267949
41
-0.186396174456755
42
1.5707963267949
0
ELLIPSE
5
C5
100
AcDbEntity
8
1
62
256
6
ByLayer
370
18
48
1
60
0
100
AcDbEllipse
10
32.479791
20
11.5492
30
0
11
0.676936475072591
21
0.00771763845195639
31
0
210
0
220
0
230
-1
40
0.886279
41
0
42
6.28318530717959
0
ELLIPSE
5
C6
100
AcDbEntity
8
1
62
256
6
ByLayer
370
18
48
1
60
0
100
AcDbEllipse
10
35.90451
20
60
30
0
11
56.4295326063579
21
5.70298895120289E-14
31
0
210
0
220
0
230
-1
40
0.8391
41
1.57369411610826
42
1.71977220955876
0
ELLIPSE
5
C7
100
AcDbEntity
8
1
62
256
6
ByLayer
370
18
48
1
60
0
100
AcDbEllipse
10
0.020096
20
60
30
0
11
7.61455650073443E-15
21
47.3500000012976
31
0
210
0
220
0
230
-1
40
0.267949
41
2.95519647913557
42
3.11812926469535
0
ELLIPSE
5
C8
100
AcDbEntity
8
1
62
256
6
ByLayer
370
18
48
1
60
0
100
AcDbEllipse
10
33.353825
20
10.156391
30
0
11
0.557305832066924
21
3.12565310484201
31
0
210
0
220
0
230
-1
40
0.323001
41
0.457114892896246
42
0.564971517167439
0
ELLIPSE
5
C9
100
AcDbEntity
8
1
62
256
6
ByLayer
370
18
48
1
60
0
100
AcDbEllipse
10
35.90451
20
48
30
0
11
44.9886981202032
21
4.54673353575878E-14
31
0
210
0
220
0
230
-1
40
0.8391
41
1.57868097822636
42
1.75805959962032
0
ELLIPSE
5
CA
100
AcDbEntity
8
1
62
256
6
ByLayer
370
18
48
1
60
0
100
AcDbEllipse
10
58.893452
20
48.000536
30
0
11
53.3598713637045
21
23.897200131982
31
0
210
0
220
0
230
-1
40
0.547673
41
2.25062555298932
42
2.25625661798222
0
POINT
5
6C
100
AcDbEntity
8
81
62
256
6
ByLayer
370
18
48
1
60
0
100
AcDbPoint
10
39.5988
20
13
30
0
39
0
210
0
220
0
230
1
50
360
0
POINT
5
6E
100
AcDbEntity
8
80
62
256
6
ByLayer
370
18
48
1
60
0
100
AcDbPoint
10
0
20
0
30
0
39
0
210
0
220
0
230
1
50
360
0
SPLINE
5
CB
100
AcDbEntity
8
1
62
256
6
ByLayer
370
18
48
1
60
0
100
AcDbSpline
70
4
71
3
72
8
73
4
40
0
40
0
40
0
40
0
40
1
40
1
40
1
40
1
41
1
10
-0.0999999999999943
20
12.8899932037374
30
0
41
1
10
0.0611551296999835
20
13.0501141616563
30
0
41
1
10
0.231623130240308
20
13.2894292902649
30
0
41
1
10
0.317758141296196
20
13.610889527836
30
0
0
SPLINE
5
CC
100
AcDbEntity
8
SK1
62
256
6
ByLayer
370
18
48
1
60
0
100
AcDbSpline
70
4
71
3
72
10
73
6
40
0
40
0
40
0
40
0
40
0.602883593566094
40
0.602883593566094
40
1
40
1
40
1
40
1
41
1
10
-0.0999999999999943
20
12.651606095866
30
0
41
1
10
-0.155814027235806
20
12.6511493241621
30
0
41
1
10
-0.215892731668049
20
12.650823166774
30
0
41
1
10
-0.32111129043787
20
12.6504364522187
30
0
41
1
10
-0.364517571522896
20
12.6503227057229
30
0
41
1
10
-0.409169332807181
20
12.6502383486613
30
0
0
SPLINE
5
CD
100
AcDbEntity
8
SK1
62
256
6
ByLayer
370
18
48
1
60
0
100
AcDbSpline
70
4
71
3
72
8
73
4
40
0
40
0
40
0
40
0
40
1
40
1
40
1
40
1
41
1
10
-0.40952899897772
20
12.6500028843951
30
0
41
1
10
-0.409503993211587
20
12.649537782597
30
0
41
1
10
-0.260724588485175
20
12.7303000241453
30
0
41
1
10
-0.0999999999999943
20
12.8899932037374
30
0
0
SPLINE
5
CE
100
AcDbEntity
8
SK1
62
256
6
ByLayer
370
18
48
1
60
0
100
AcDbSpline
70
4
71
3
72
14
73
10
40
0
40
0
40
0
40
0
40
0.312259698363551
40
0.312259698363551
40
0.626254013507721
40
0.626254013507721
40
0.921775909167507
40
0.921775909167507
40
1
40
1
40
1
40
1
41
1
10
-1.22772318076633
20
-11.9638021637074
30
0
41
1
10
-1.12691191262974
20
-11.8638492973924
30
0
41
1
10
-1.01083152014266
20
-11.7763557183186
30
0
41
1
10
-0.767595850199712
20
-11.6386599083221
30
0
41
1
10
-0.637193031411783
20
-11.5869979759265
30
0
41
1
10
-0.396169967621603
20
-11.5227670583598
30
0
41
1
10
-0.281992422160727
20
-11.5069965094968
30
0
41
1
10
-0.153205218482668
20
-11.5006135788319
30
0
41
1
10
-0.126764194613543
20
-11.5
30
0
41
1
10
-0.101200000000034
20
-11.5
30
0
0
SPLINE
5
CF
100
AcDbEntity
8
1
62
256
6
ByLayer
370
18
48
1
60
0
100
AcDbSpline
70
4
71
3
72
12
73
8
40
0
40
0
40
0
40
0
40
0.377128460916962
40
0.377128460916962
40
0.754252289495248
40
0.754252289495248
40
1
40
1
40
1
40
1
41
1
10
28.6865501000801
20
10.259570749659
30
0
41
1
10
28.5074911409878
20
10.259570749659
30
0
41
1
10
28.3259630374409
20
10.2588406649231
30
0
41
1
10
27.9880368004239
20
10.2564545687377
30
0
41
1
10
27.8269780734469
20
10.2547844522998
30
0
41
1
10
27.5952887666353
20
10.2523322571642
30
0
41
1
10
27.5110731873596
20
10.2514359813971
30
0
41
1
10
27.4375505004004
20
10.2508278236463
30
0
0
SPLINE
5
D0
100
AcDbEntity
8
1
62
256
6
ByLayer
370
18
48
1
60
0
100
AcDbSpline
70
4
71
3
72
18
73
14
40
0
40
0
40
0
40
0
40
0.181936463552772
40
0.181936463552772
40
0.363876615280694
40
0.363876615280694
40
0.545862317935487
40
0.545862317935487
40
0.728853799429908
40
0.728853799429908
40
0.91245389704511
40
0.91245389704511
40
1
40
1
40
1
40
1
41
1
10
20.681996808762
20
10.469856718464
30
0
41
1
10
21.0652864733355
20
10.4836356586193
30
0
41
1
10
21.4759120381353
20
10.4909685816175
30
0
41
1
10
22.2839322038222
20
10.4895733119604
30
0
41
1
10
22.6924204806639
20
10.4808308381628
30
0
41
1
10
23.4509824348563
20
10.4510248806192
30
0
41
1
10
23.8114511293801
20
10.4296549425186
30
0
41
1
10
24.437697313481
20
10.3828648041598
30
0
41
1
10
24.7115967173934
20
10.3569270160177
30
0
41
1
10
25.1350663850018
20
10.3106223361084
30
0
41
1
10
25.2900757055336
20
10.2897681464593
30
0
41
1
10
25.4158943750909
20
10.2681767297081
30
0
41
1
10
25.4412690670294
20
10.2624951350551
30
0
41
1
10
25.4505670558821
20
10.2583625657581
30
0
0
SPLINE
5
D1
100
AcDbEntity
8
1
62
256
6
ByLayer
370
18
48
1
60
0
100
AcDbSpline
70
4
71
3
72
20
73
16
40
0
40
0
40
0
40
0
40
0.122091785315723
40
0.122091785315723
40
0.273390482882466
40
0.273390482882466
40
0.425291911103384
40
0.425291911103384
40
0.578028240002737
40
0.578028240002737
40
0.731353276633101
40
0.731353276633101
40
0.884571480013669
40
0.884571480013669
40
1
40
1
40
1
40
1
41
1
10
32.4044564526189
20
12.7666437376099
30
0
41
1
10
32.3460625605088
20
12.7721065414291
30
0
41
1
10
32.2978992712593
20
12.7783830123063
30
0
41
1
10
32.2187758892269
20
12.7937163932302
30
0
41
1
10
32.1937558033346
20
12.8033078407903
30
0
41
1
10
32.1851262146503
20
12.8233438834969
30
0
41
1
10
32.2015532898229
20
12.8340671089164
30
0
41
1
10
32.2732148748576
20
12.8550687491674
30
0
41
1
10
32.3296411567766
20
12.8656276030047
30
0
41
1
10
32.4744310429
20
12.8847397897346
30
0
41
1
10
32.5649220584612
20
12.8935393652232
30
0
41
1
10
32.7668333450293
20
12.9076532183682
30
0
41
1
10
32.8810499078695
20
12.9131547334407
30
0
41
1
10
33.0885153684499
20
12.9189579065624
30
0
41
1
10
33.1817879703223
20
12.9202567809406
30
0
41
1
10
33.2743073020314
20
12.9202567809406
30
0
0
SPLINE
5
D2
100
AcDbEntity
8
1
62
256
6
ByLayer
370
18
48
1
60
0
100
AcDbSpline
70
4
71
3
72
18
73
14
40
0
40
0
40
0
40
0
40
0.170173069466798
40
0.170173069466798
40
0.340296169669591
40
0.340296169669591
40
0.511130454272154
40
0.511130454272154
40
0.682075276985072
40
0.682075276985072
40
0.851931463895531
40
0.851931463895531
40
1
40
1
40
1
40
1
41
1
10
25.870096702855
20
10.2587861385208
30
0
41
1
10
25.8486783051477
20
10.2685439181986
30
0
41
1
10
25.7489937304829
20
10.286918699844
30
0
41
1
10
25.4101559657013
20
10.3345306348078
30
0
41
1
10
25.1664250615742
20
10.3642877933049
30
0
41
1
10
24.5692057516968
20
10.423894382314
30
0
41
1
10
24.2069919750948
20
10.4543829418933
30
0
41
1
10
23.4157445487387
20
10.5036755552171
30
0
41
1
10
22.9756323782767
20
10.5229831307467
30
0
41
1
10
22.0828751785565
20
10.5423555861672
30
0
41
1
10
21.6180019214064
20
10.5427366543814
30
0
41
1
10
20.7819545590303
20
10.5259056137733
30
0
41
1
10
20.3974018271471
20
10.5108394187398
30
0
41
1
10
20.0428183835723
20
10.4911109759793
30
0
0
SPLINE
5
D3
100
AcDbEntity
8
1
62
256
6
ByLayer
370
18
48
1
60
0
100
AcDbSpline
70
4
71
3
72
32
73
28
40
0
40
0
40
0
40
0
40
0.0832799509826846
40
0.0832799509826846
40
0.166534630133176
40
0.166534630133176
40
0.250155563214385
40
0.250155563214385
40
0.334105929374334
40
0.334105929374334
40
0.418075905787081
40
0.418075905787081
40
0.501788733316699
40
0.501788733316699
40
0.585113044521232
40
0.585113044521232
40
0.668081376464046
40
0.668081376464046
40
0.750844410552259
40
0.750844410552259
40
0.833608478493284
40
0.833608478493284
40
0.916578366499833
40
0.916578366499833
40
0.999901894062693
40
0.999901894062693
40
1
40
1
40
1
40
1
41
1
10
20.0428183835723
20
10.4911109759793
30
0
41
1
10
20.0025765792632
20
10.4888719878166
30
0
41
1
10
19.9652234841619
20
10.4858299750368
30
0
41
1
10
19.9024538993646
20
10.4787282851313
30
0
41
1
10
19.8761675609377
20
10.4745733818601
30
0
41
1
10
19.8379559235721
20
10.4657953444888
30
0
41
1
10
19.8255663379119
20
10.4610509408154
30
0
41
1
10
19.8162933253276
20
10.4516735492125
30
0
41
1
10
19.8193432093458
20
10.4469118861342
30
0
41
1
10
19.8403561558706
20
10.438038096968
30
0
41
1
10
19.858615937177
20
10.4338024037122
30
0
41
1
10
19.9075796648743
20
10.4263964779948
30
0
41
1
10
19.9389263804425
20
10.4231188096876
30
0
41
1
10
20.0100721217491
20
10.4178882910213
30
0
41
1
10
20.0508173640491
20
10.4158553169272
30
0
41
1
10
20.1358559060671
20
10.4132260726363
30
0
41
1
10
20.1813077516155
20
10.4125863943376
30
0
41
1
10
20.2705870804167
20
10.4127361093821
30
0
41
1
10
20.3156476108829
20
10.4135241065131
30
0
41
1
10
20.3992629559742
20
10.4164224237112
30
0
41
1
10
20.4389669195593
20
10.4185736793891
30
0
41
1
10
20.5077344259383
20
10.423994935081
30
0
41
1
10
20.5377165374787
20
10.4273437364679
30
0
41
1
10
20.5840175710432
20
10.4348488192177
30
0
41
1
10
20.6009159838118
20
10.4391130246769
30
0
41
1
10
20.6101652583195
20
10.4435616946701
30
0
41
1
10
20.6101761093242
20
10.4435669190874
30
0
41
1
10
20.6101869500719
20
10.4435721439257
30
0
0
SPLINE
5
D4
100
AcDbEntity
8
1
62
256
6
ByLayer
370
18
48
1
60
0
100
AcDbSpline
70
4
71
3
72
8
73
4
40
0
40
0
40
0
40
0
40
1
40
1
40
1
40
1
41
1
10
27.4375505004004
20
10.2508278236463
30
0
41
1
10
27.3778550120234
20
10.2503340403605
30
0
41
1
10
27.3232999575722
20
10.2500416542642
30
0
41
1
10
27.2746049229274
20
10.2500152797153
30
0
0
SPLINE
5
D5
100
AcDbEntity
8
1
62
256
6
ByLayer
370
18
48
1
60
0
100
AcDbSpline
70
4
71
3
72
16
73
12
40
0
40
0
40
0
40
0
40
0.154692205084423
40
0.154692205084423
40
0.426492942321381
40
0.426492942321381
40
0.697929100722191
40
0.697929100722191
40
0.968078028065418
40
0.968078028065418
40
1
40
1
40
1
40
1
41
1
10
20.6134840428351
20
10.4596887259068
30
0
41
1
10
20.6134858330134
20
10.4603711543851
30
0
41
1
10
20.6141030225477
20
10.4610559597047
30
0
41
1
10
20.6174898039796
20
10.462898914919
30
0
41
1
10
20.6215951727106
20
10.4640554133329
30
0
41
1
10
20.6330222816584
20
10.4661351003321
30
0
41
1
10
20.6404988990354
20
10.467087309822
30
0
41
1
10
20.6577112838073
20
10.4686486733694
30
0
41
1
10
20.6676754386153
20
10.4692808884397
30
0
41
1
10
20.6794482856558
20
10.4697619992538
30
0
41
1
10
20.6807183487246
20
10.469810758904
30
0
41
1
10
20.681996808762
20
10.469856718464
30
0
0
SPLINE
5
D6
100
AcDbEntity
8
1
62
256
6
ByLayer
370
18
48
1
60
0
100
AcDbSpline
70
4
71
3
72
16
73
12
40
0
40
0
40
0
40
0
40
0.223061974146146
40
0.223061974146146
40
0.446973226820202
40
0.446973226820202
40
0.667230998705876
40
0.667230998705876
40
0.880977160622668
40
0.880977160622668
40
1
40
1
40
1
40
1
41
1
10
7.99879999999999
20
9.78125533524164
30
0
41
1
10
7.99879999999999
20
9.97012932845891
30
0
41
1
10
8.03118785338199
20
10.1616133850014
30
0
41
1
10
8.15607755000264
20
10.5187960549761
30
0
41
1
10
8.25061770242297
20
10.6894435702784
30
0
41
1
10
8.4869101659805
20
10.9818077825333
30
0
41
1
10
8.63130506019462
20
11.1083979821516
30
0
41
1
10
8.94579439373635
20
11.2982447007604
30
0
41
1
10
9.11948717500059
20
11.3658724932052
30
0
41
1
10
9.39614100208672
20
11.4207267714865
30
0
41
1
10
9.49770918276764
20
11.4307172103417
30
0
41
1
10
9.59879999999998
20
11.4307172103417
30
0
0
SPLINE
5
D7
100
AcDbEntity
8
1
62
256
6
ByLayer
370
18
48
1
60
0
100
AcDbSpline
70
4
71
3
72
12
73
8
40
0
40
0
40
0
40
0
40
0.39503912160403
40
0.39503912160403
40
0.790086888047699
40
0.790086888047699
40
1
40
1
40
1
40
1
41
1
10
33.474497839064
20
12.9202567809406
30
0
41
1
10
33.5969273902408
20
12.9202567809406
30
0
41
1
10
33.7210488622994
20
12.9179920731916
30
0
41
1
10
33.9521125270915
20
12.909451191336
30
0
41
1
10
34.0622324607325
20
12.9030646070024
30
0
41
1
10
34.2089257794269
20
12.8911380431303
30
0
41
1
10
34.2565206807897
20
12.8865530133511
30
0
41
1
10
34.2995054790095
20
12.8816821444905
30
0
0
SPLINE
5
D8
100
AcDbEntity
8
1
62
256
6
ByLayer
370
18
48
1
60
0
100
AcDbSpline
70
4
71
3
72
8
73
4
40
0
40
0
40
0
40
0
40
1
40
1
40
1
40
1
41
1
10
21.1010563138726
20
12.9788351510727
30
0
41
1
10
22.2437581359545
20
13.2343487383863
30
0
41
1
10
23.3866455812519
20
13.5453587414773
30
0
41
1
10
24.4925076160676
20
13.4701743866937
30
0
0
SPLINE
5
D9
100
AcDbEntity
8
1
62
256
6
ByLayer
370
18
48
1
60
0
100
AcDbSpline
70
4
71
3
72
8
73
4
40
0
40
0
40
0
40
0
40
1
40
1
40
1
40
1
41
1
10
27.528932410738
20
13.1744674662199
30
0
41
1
10
26.6226297056436
20
13.2886060291452
30
0
41
1
10
25.6052302980317
20
13.3945235963936
30
0
41
1
10
24.4925076160677
20
13.4701743866937
30
0
0
SPLINE
5
DA
100
AcDbEntity
8
1
62
256
6
ByLayer
370
18
48
1
60
0
100
AcDbSpline
70
4
71
3
72
10
73
6
40
0
40
0
40
0
40
0
40
0.640012153344571
40
0.640012153344571
40
1
40
1
40
1
40
1
41
1
10
0.317758141296167
20
12.6630332144429
30
0
41
1
10
0.271435190674481
20
12.6589761284883
30
0
41
1
10
0.194633338605911
20
12.6560419653127
30
0
41
1
10
0.0367722681851888
20
12.6529999540904
30
0
41
1
10
-0.0283743444446145
20
12.6521922670196
30
0
41
1
10
-0.0999999999999943
20
12.651606095866
30
0
0
SPLINE
5
DB
100
AcDbEntity
8
1
62
256
6
ByLayer
370
18
48
1
60
0
100
AcDbSpline
70
4
71
3
72
8
73
4
40
0
40
0
40
0
40
0
40
1
40
1
40
1
40
1
41
1
10
12.2067672941438
20
17.8013449531738
30
0
41
1
10
13.2162103283236
20
17.3662245202652
30
0
41
1
10
14.3997870992818
20
17.0582140255665
30
0
41
1
10
15.7156875638983
20
16.8691876298048
30
0
0
SPLINE
5
DC
100
AcDbEntity
8
1
62
256
6
ByLayer
370
18
48
1
60
0
100
AcDbSpline
70
4
71
3
72
10
73
6
40
0
40
0
40
0
40
0
40
0.582993291308251
40
0.582993291308251
40
1
40
1
40
1
40
1
41
1
10
25.4505670558821
20
10.2583625657581
30
0
41
1
10
25.4633594882342
20
10.2526768616764
30
0
41
1
10
25.5228851394446
20
10.250013881769
30
0
41
1
10
25.6967383865735
20
10.2499901687767
30
0
41
1
10
25.7920643808678
20
10.2513111361552
30
0
41
1
10
25.9057981757308
20
10.2534201033473
30
0
0
SPLINE
5
DD
100
AcDbEntity
8
1
62
256
6
ByLayer
370
18
48
1
60
0
100
AcDbSpline
70
4
71
3
72
12
73
8
40
0
40
0
40
0
40
0
40
0.0481421686187556
40
0.0481421686187556
40
0.838614882639381
40
0.838614882639381
40
1
40
1
40
1
40
1
41
1
10
26.0887966412595
20
10.2500008718251
30
0
41
1
10
26.0825550780555
20
10.2499990044106
30
0
41
1
10
26.0764447489209
20
10.2500031256877
30
0
41
1
10
25.9723353511317
20
10.250183359067
30
0
41
1
10
25.9075548603457
20
10.2520732988885
30
0
41
1
10
25.876087572933
20
10.2568763278065
30
0
41
1
10
25.8722873987545
20
10.2577881027097
30
0
41
1
10
25.870096702855
20
10.2587861385208
30
0
0
SPLINE
5
DE
100
AcDbEntity
8
1
62
256
6
ByLayer
370
18
48
1
60
0
100
AcDbSpline
70
4
71
3
72
12
73
8
40
0
40
0
40
0
40
0
40
0.377179221352732
40
0.377179221352732
40
0.754357841218632
40
0.754357841218632
40
1
40
1
40
1
40
1
41
1
10
30.5600494995996
20
10.2508278236463
30
0
41
1
10
30.4481239452439
20
10.251753638469
30
0
41
1
10
30.3105216213884
20
10.2533556126773
30
0
41
1
10
30.0067506845394
20
10.2564070170972
30
0
41
1
10
29.8363913381493
20
10.2578715705699
30
0
41
1
10
29.546934197401
20
10.2592687187457
30
0
41
1
10
29.4286379565638
20
10.259570749659
30
0
41
1
10
29.3110498999199
20
10.259570749659
30
0
0
SPLINE
5
DF
100
AcDbEntity
8
1
62
256
6
ByLayer
370
18
48
1
60
0
100
AcDbSpline
70
4
71
3
72
10
73
6
40
0
40
0
40
0
40
0
40
0.5
40
0.5
40
1
40
1
40
1
40
1
41
1
10
34.2146614757607
20
14.6669717211866
30
0
41
1
10
35.6475514037958
20
14.5299332524074
30
0
41
1
10
36.8804591605656
20
14.2645603177102
30
0
41
1
10
38.6189466438307
20
13.6894167308461
30
0
41
1
10
39.0988000000044
20
13.3933318060889
30
0
41
1
10
39.0988
20
13.170281871441
30
0
0
SPLINE
5
E0
100
AcDbEntity
8
1
62
256
6
ByLayer
370
18
48
1
60
0
100
AcDbSpline
70
4
71
3
72
8
73
4
40
0
40
0
40
0
40
0
40
1
40
1
40
1
40
1
41
1
10
27.528932410738
20
10.9099676857501
30
0
41
1
10
25.7347793412667
20
11.1952298217895
30
0
41
1
10
23.4616635825269
20
11.4307172103417
30
0
41
1
10
21.1010563138726
20
11.4307172103417
30
0
0
SPLINE
5
E1
100
AcDbEntity
8
1
62
256
6
ByLayer
370
18
48
1
60
0
100
AcDbSpline
70
4
71
3
72
8
73
4
40
0
40
0
40
0
40
0
40
1
40
1
40
1
40
1
41
1
10
30.7229960774191
20
10.250015366737
30
0
41
1
10
30.6743004410365
20
10.2500416965634
30
0
41
1
10
30.6197451765161
20
10.250334038801
30
0
41
1
10
30.5600494995996
20
10.2508278236463
30
0
0
LINE
5
70
100
AcDbEntity
8
1
62
256
6
ByLayer
370
18
48
1
60
0
100
AcDbLine
10
30.698677
20
10.25
30
0
11
35.246743
21
10.25
31
0
39
0
210
0
220
0
230
1
0
LINE
5
72
100
AcDbEntity
8
1
62
256
6
ByLayer
370
18
48
1
60
0
100
AcDbLine
10
26.093367
20
10.25
30
0
11
27.298824
21
10.25
31
0
39
0
210
0
220
0
230
1
0
LINE
5
73
100
AcDbEntity
8
1
62
256
6
ByLayer
370
18
48
1
60
0
100
AcDbLine
10
9.5988
20
10.25
30
0
11
25.625523
21
10.25
31
0
39
0
210
0
220
0
230
1
0
LINE
5
74
100
AcDbEntity
8
1
62
256
6
ByLayer
370
18
48
1
60
0
100
AcDbLine
10
24.195401
20
13.478835
30
0
11
2.396136
21
13.478835
31
0
39
0
210
0
220
0
230
1
0
LINE
5
75
100
AcDbEntity
8
1
62
256
6
ByLayer
370
18
48
1
60
0
100
AcDbLine
10
20.613474
20
10.517481
30
0
11
20.613474
21
10.459689
31
0
39
0
210
0
220
0
230
1
0
LINE
5
76
100
AcDbEntity
8
80
62
256
6
ByLayer
370
18
48
1
60
0
100
AcDbLine
10
0
20
0
30
0
11
-5
21
0
31
0
39
0
210
0
220
0
230
1
0
LINE
5
77
100
AcDbEntity
8
81
62
256
6
ByLayer
370
18
48
1
60
0
100
AcDbLine
10
39.5988
20
13
30
0
11
44.5988
21
13
31
0
39
0
210
0
220
0
230
1
0
LINE
5
78
100
AcDbEntity
8
SK1
62
256
6
ByLayer
370
18
48
1
60
0
100
AcDbLine
10
-0.1
20
-11.5
30
0
11
-0.1
21
12.651606
31
0
39
0
210
0
220
0
230
1
0
LINE
5
7A
100
AcDbEntity
8
SK1
62
256
6
ByLayer
370
18
48
1
60
0
100
AcDbLine
10
-81
20
12.425
30
0
11
-84
21
9.425
31
0
39
0
210
0
220
0
230
1
0
LINE
5
7B
100
AcDbEntity
8
SK1
62
256
6
ByLayer
370
18
48
1
60
0
100
AcDbLine
10
-81
20
12.425
30
0
11
-1.227723
21
12.425
31
0
39
0
210
0
220
0
230
1
0
LINE
5
7C
100
AcDbEntity
8
SK1
62
256
6
ByLayer
370
18
48
1
60
0
100
AcDbLine
10
-81
20
-12.5
30
0
11
-84
21
-9.5
31
0
39
0
210
0
220
0
230
1
0
LINE
5
7D
100
AcDbEntity
8
SK1
62
256
6
ByLayer
370
18
48
1
60
0
100
AcDbLine
10
-84
20
9.425
30
0
11
-84
21
-9.5
31
0
39
0
210
0
220
0
230
1
0
LINE
5
7E
100
AcDbEntity
8
SK1
62
256
6
ByLayer
370
18
48
1
60
0
100
AcDbLine
10
-81
20
-12.5
30
0
11
-1.58444
21
-12.5
31
0
39
0
210
0
220
0
230
1
0
LINE
5
7F
100
AcDbEntity
8
SK1
62
256
6
ByLayer
370
13
48
1
60
0
100
AcDbLine
10
-1.227723
20
12.425
30
0
11
-1.227723
21
-11.963802
31
0
39
0
210
0
220
0
230
1
0
LINE
5
80
100
AcDbEntity
8
SK1
62
256
6
ByLayer
370
18
48
1
60
0
100
AcDbLine
10
-0.1012
20
-11.5
30
0
11
-0.1
21
-11.5
31
0
39
0
210
0
220
0
230
1
0
LINE
5
81
100
AcDbEntity
8
SK1
62
256
6
ByLayer
370
18
48
1
60
0
100
AcDbLine
10
-0.1
20
12.651606
30
0
11
-0.1
21
12.889993
31
0
39
0
210
0
220
0
230
1
0
LINE
5
82
100
AcDbEntity
8
1
62
256
6
ByLayer
370
18
48
1
60
0
100
AcDbLine
10
39.0988
20
11.755079
30
0
11
39.0988
21
11.709911
31
0
39
0
210
0
220
0
230
1
0
LINE
5
83
100
AcDbEntity
8
1
62
256
6
ByLayer
370
18
48
1
60
0
100
AcDbLine
10
32.412246
20
12.740763
30
0
11
32.404456
21
12.766644
31
0
39
0
210
0
220
0
230
1
0
LINE
5
84
100
AcDbEntity
8
1
62
256
6
ByLayer
370
18
48
1
60
0
100
AcDbLine
10
-0.1
20
12.651606
30
0
11
-0.1
21
12.889993
31
0
39
0
210
0
220
0
230
1
0
LINE
5
85
100
AcDbEntity
8
1
62
256
6
ByLayer
370
13
48
1
60
0
100
AcDbLine
10
39.0988
20
11.570701
30
0
11
35.703149
21
11.718958
31
0
39
0
210
0
220
0
230
1
0
LINE
5
86
100
AcDbEntity
8
1
62
256
6
ByLayer
370
13
48
1
60
0
100
AcDbLine
10
20.681997
20
10.519464
30
0
11
20.681997
21
10.469857
31
0
39
0
210
0
220
0
230
1
0
LINE
5
87
100
AcDbEntity
8
1
62
256
6
ByLayer
370
18
48
1
60
0
100
AcDbLine
10
7.9988
20
-10.5
30
0
11
7.9988
21
-8.5
31
0
39
0
210
0
220
0
230
1
0
LINE
5
88
100
AcDbEntity
8
1
62
256
6
ByLayer
370
18
48
1
60
0
100
AcDbLine
10
39.0988
20
12.742426
30
0
11
39.0988
21
13.170282
31
0
39
0
210
0
220
0
230
1
0
LINE
5
89
100
AcDbEntity
8
1
62
256
6
ByLayer
370
13
48
1
60
0
100
AcDbLine
10
0.317758
20
-11.5
30
0
11
0.317758
21
12.663033
31
0
39
0
210
0
220
0
230
1
0
LINE
5
8A
100
AcDbEntity
8
1
62
256
6
ByLayer
370
13
48
1
60
0
100
AcDbLine
10
35.713055
20
11.96271
30
0
11
39.0988
21
11.814886
31
0
39
0
210
0
220
0
230
1
0
LINE
5
8B
100
AcDbEntity
8
1
62
256
6
ByLayer
370
13
48
1
60
0
100
AcDbLine
10
35.699162
20
11.621392
30
0
11
39.0988
21
11.47296
31
0
39
0
210
0
220
0
230
1
0
LINE
5
8C
100
AcDbEntity
8
1
62
256
6
ByLayer
370
18
48
1
60
0
100
AcDbLine
10
2.53011
20
-8.5
30
0
11
1.726263
21
-11.5
31
0
39
0
210
0
220
0
230
1
0
LINE
5
8D
100
AcDbEntity
8
1
62
256
6
ByLayer
370
13
48
1
60
0
100
AcDbLine
10
33.274307
20
12.920257
30
0
11
33.26477
21
12.701825
31
0
39
0
210
0
220
0
230
1
0
LINE
5
8E
100
AcDbEntity
8
1
62
256
6
ByLayer
370
18
48
1
60
0
100
AcDbLine
10
39.0988
20
11.570701
30
0
11
39.0988
21
11.47296
31
0
39
0
210
0
220
0
230
1
0
LINE
5
8F
100
AcDbEntity
8
1
62
256
6
ByLayer
370
18
48
1
60
0
100
AcDbLine
10
1.440587
20
17.801345
30
0
11
12.206767
21
17.801345
31
0
39
0
210
0
220
0
230
1
0
LINE
5
90
100
AcDbEntity
8
1
62
256
6
ByLayer
370
18
48
1
60
0
100
AcDbLine
10
33.274307
20
12.920257
30
0
11
33.474498
21
12.920257
31
0
39
0
210
0
220
0
230
1
0
LINE
5
91
100
AcDbEntity
8
1
62
256
6
ByLayer
370
13
48
1
60
0
100
AcDbLine
10
39.0988
20
11.33375
30
0
11
35.693554
21
11.482426
31
0
39
0
210
0
220
0
230
1
0
LINE
5
92
100
AcDbEntity
8
1
62
256
6
ByLayer
370
18
48
1
60
0
100
AcDbLine
10
20.618755
20
10.452064
30
0
11
20.614539
21
10.458151
31
0
39
0
210
0
220
0
230
1
0
LINE
5
93
100
AcDbEntity
8
1
62
256
6
ByLayer
370
18
48
1
60
0
100
AcDbLine
10
39.0988
20
11.228775
30
0
11
39.0988
21
11.288582
31
0
39
0
210
0
220
0
230
1
0
LINE
5
94
100
AcDbEntity
8
1
62
256
6
ByLayer
370
18
48
1
60
0
100
AcDbLine
10
21.101056
20
11.430717
30
0
11
9.5988
21
11.430717
31
0
39
0
210
0
220
0
230
1
0
LINE
5
95
100
AcDbEntity
8
1
62
256
6
ByLayer
370
13
48
1
60
0
100
AcDbLine
10
35.691721
20
11.437338
30
0
11
39.0988
21
11.288582
31
0
39
0
210
0
220
0
230
1
0
LINE
5
96
100
AcDbEntity
8
1
62
256
6
ByLayer
370
18
48
1
60
0
100
AcDbLine
10
-0.1
20
-11.5
30
0
11
0.317758
21
-11.5
31
0
39
0
210
0
220
0
230
1
0
LINE
5
97
100
AcDbEntity
8
1
62
256
6
ByLayer
370
18
48
1
60
0
100
AcDbLine
10
29.31105
20
10.259571
30
0
11
28.68655
21
10.259571
31
0
39
0
210
0
220
0
230
1
0
LINE
5
98
100
AcDbEntity
8
1
62
256
6
ByLayer
370
13
48
1
60
0
100
AcDbLine
10
39.0988
20
11.755079
30
0
11
35.710637
21
11.90301
31
0
39
0
210
0
220
0
230
1
0
LINE
5
99
100
AcDbEntity
8
1
62
256
6
ByLayer
370
18
48
1
60
0
100
AcDbLine
10
6.9988
20
-11.5
30
0
11
7.9988
21
-10.5
31
0
39
0
210
0
220
0
230
1
0
LINE
5
9A
100
AcDbEntity
8
1
62
256
6
ByLayer
370
13
48
1
60
0
100
AcDbLine
10
27.528932
20
10.909968
30
0
11
27.528932
21
13.174467
31
0
39
0
210
0
220
0
230
1
0
LINE
5
9B
100
AcDbEntity
8
1
62
256
6
ByLayer
370
13
48
1
60
0
100
AcDbLine
10
34.365054
20
12.699953
30
0
11
34.363643
21
12.667654
31
0
39
0
210
0
220
0
230
1
0
LINE
5
9C
100
AcDbEntity
8
1
62
256
6
ByLayer
370
18
48
1
60
0
100
AcDbLine
10
35.65635
20
10.569179
30
0
11
35.74099
21
12.650199
31
0
39
0
210
0
220
0
230
1
0
LINE
5
9D
100
AcDbEntity
8
1
62
256
6
ByLayer
370
18
48
1
60
0
100
AcDbLine
10
39.0988
20
11.755079
30
0
11
39.0988
21
11.814886
31
0
39
0
210
0
220
0
230
1
0
LINE
5
9E
100
AcDbEntity
8
1
62
256
6
ByLayer
370
18
48
1
60
0
100
AcDbLine
10
39.0988
20
12.742426
30
0
11
39.0988
21
11.814886
31
0
39
0
210
0
220
0
230
1
0
LINE
5
9F
100
AcDbEntity
8
1
62
256
6
ByLayer
370
18
48
1
60
0
100
AcDbLine
10
2.53011
20
12.978835
30
0
11
2.53011
21
-8.5
31
0
39
0
210
0
220
0
230
1
0
LINE
5
A0
100
AcDbEntity
8
1
62
256
6
ByLayer
370
18
48
1
60
0
100
AcDbLine
10
34.374941
20
12.667394
30
0
11
34.365054
21
12.699953
31
0
39
0
210
0
220
0
230
1
0
LINE
5
A1
100
AcDbEntity
8
1
62
256
6
ByLayer
370
18
48
1
60
0
100
AcDbLine
10
-0.1
20
-11.5
30
0
11
-0.1
21
12.651606
31
0
39
0
210
0
220
0
230
1
0
LINE
5
A2
100
AcDbEntity
8
1
62
256
6
ByLayer
370
18
48
1
60
0
100
AcDbLine
10
39.0988
20
11.709911
30
0
11
39.0988
21
11.570701
31
0
39
0
210
0
220
0
230
1
0
LINE
5
A3
100
AcDbEntity
8
1
62
256
6
ByLayer
370
13
48
1
60
0
100
AcDbLine
10
21.101056
20
12.978835
30
0
11
21.101056
21
11.430717
31
0
39
0
210
0
220
0
230
1
0
LINE
5
A4
100
AcDbEntity
8
1
62
256
6
ByLayer
370
18
48
1
60
0
100
AcDbLine
10
1.440587
20
17.801345
30
0
11
0.317758
21
13.61089
31
0
39
0
210
0
220
0
230
1
0
LINE
5
A5
100
AcDbEntity
8
1
62
256
6
ByLayer
370
18
48
1
60
0
100
AcDbLine
10
39.0988
20
11.33375
30
0
11
39.0988
21
11.288582
31
0
39
0
210
0
220
0
230
1
0
LINE
5
A6
100
AcDbEntity
8
1
62
256
6
ByLayer
370
18
48
1
60
0
100
AcDbLine
10
35.65635
20
10.569179
30
0
11
35.549794
21
10.251173
31
0
39
0
210
0
220
0
230
1
0
LINE
5
A7
100
AcDbEntity
8
1
62
256
6
ByLayer
370
18
48
1
60
0
100
AcDbLine
10
7.9988
20
-8.5
30
0
11
2.53011
21
-8.5
31
0
39
0
210
0
220
0
230
1
0
LINE
5
A8
100
AcDbEntity
8
1
62
256
6
ByLayer
370
18
48
1
60
0
100
AcDbLine
10
6.9988
20
-11.5
30
0
11
1.726263
21
-11.5
31
0
39
0
210
0
220
0
230
1
0
LINE
5
A9
100
AcDbEntity
8
1
62
256
6
ByLayer
370
18
48
1
60
0
100
AcDbLine
10
7.9988
20
-8.5
30
0
11
7.9988
21
9.781255
31
0
39
0
210
0
220
0
230
1
0
LINE
5
AA
100
AcDbEntity
8
1
62
256
6
ByLayer
370
13
48
1
60
0
100
AcDbLine
10
25.450567
20
10.327276
30
0
11
25.450567
21
10.258363
31
0
39
0
210
0
220
0
230
1
0
LINE
5
AB
100
AcDbEntity
8
1
62
256
6
ByLayer
370
13
48
1
60
0
100
AcDbLine
10
2.53011
20
12.978835
30
0
11
21.101056
21
12.978835
31
0
39
0
210
0
220
0
230
1
0
LINE
5
AC
100
AcDbEntity
8
1
62
256
6
ByLayer
370
13
48
1
60
0
100
AcDbLine
10
39.0988
20
11.228775
30
0
11
35.689251
21
11.37764
31
0
39
0
210
0
220
0
230
1
0
LINE
5
AD
100
AcDbEntity
8
1
62
256
6
ByLayer
370
18
48
1
60
0
100
AcDbLine
10
39.0988
20
11.228775
30
0
11
39.0988
21
10.361321
31
0
39
0
210
0
220
0
230
1
0
LINE
5
AE
100
AcDbEntity
8
1
62
256
6
ByLayer
370
13
48
1
60
0
100
AcDbLine
10
35.70883
20
11.85792
30
0
11
39.0988
21
11.709911
31
0
39
0
210
0
220
0
230
1
0
LINE
5
AF
100
AcDbEntity
8
1
62
256
6
ByLayer
370
13
48
1
60
0
100
AcDbLine
10
9.5988
20
10.25
30
0
11
9.5988
21
11.430717
31
0
39
0
210
0
220
0
230
1
0
LINE
5
B0
100
AcDbEntity
8
1
62
256
6
ByLayer
370
18
48
1
60
0
100
AcDbLine
10
0.317758
20
-11.5
30
0
11
1.726263
21
-11.5
31
0
39
0
210
0
220
0
230
1
0
LINE
5
B1
100
AcDbEntity
8
1
62
256
6
ByLayer
370
13
48
1
60
0
100
AcDbLine
10
33.474498
20
12.920257
30
0
11
33.46463
21
12.69425
31
0
39
0
210
0
220
0
230
1
0
LINE
5
B2
100
AcDbEntity
8
1
62
256
6
ByLayer
370
18
48
1
60
0
100
AcDbLine
10
39.0988
20
11.47296
30
0
11
39.0988
21
11.33375
31
0
39
0
210
0
220
0
230
1
0
LINE
5
B3
100
AcDbEntity
8
SK2
62
256
6
ByLayer
370
13
48
1
60
0
100
AcDbLine
10
-93.60005
20
12.5
30
0
11
-93.60005
21
-12.5
31
0
39
0
210
0
220
0
230
1
0
LINE
5
B5
100
AcDbEntity
8
SK2
62
256
6
ByLayer
370
13
48
1
60
0
100
AcDbLine
10
-2
20
-12.5
30
0
11
-95.60005
21
-12.5
31
0
39
0
210
0
220
0
230
1
0
LINE
5
B6
100
AcDbEntity
8
SK2
62
256
6
ByLayer
370
13
48
1
60
0
100
AcDbLine
10
-2
20
12.5
30
0
11
-95.60005
21
12.5
31
0
39
0
210
0
220
0
230
1
0
LINE
5
B7
100
AcDbEntity
8
SK2
62
256
6
ByLayer
370
18
48
1
60
0
100
AcDbLine
10
-93.60005
20
-12.5
30
0
11
-94.018047
21
-9.325002
31
0
39
0
210
0
220
0
230
1
0
LINE
5
B8
100
AcDbEntity
8
SK2
62
256
6
ByLayer
370
18
48
1
60
0
100
AcDbLine
10
-93.60005
20
-12.5
30
0
11
-93.182053
21
-9.324998
31
0
39
0
210
0
220
0
230
1
0
LINE
5
B9
100
AcDbEntity
8
SK2
62
256
6
ByLayer
370
18
48
1
60
0
100
AcDbLine
10
-94.018047
20
-9.325002
30
0
11
-93.182053
21
-9.324998
31
0
39
0
210
0
220
0
230
1
0
LINE
5
BA
100
AcDbEntity
8
SK2
62
256
6
ByLayer
370
18
48
1
60
0
100
AcDbLine
10
-93.60005
20
12.5
30
0
11
-93.182053
21
9.325002
31
0
39
0
210
0
220
0
230
1
0
LINE
5
BB
100
AcDbEntity
8
SK2
62
256
6
ByLayer
370
18
48
1
60
0
100
AcDbLine
10
-93.60005
20
12.5
30
0
11
-94.018047
21
9.324998
31
0
39
0
210
0
220
0
230
1
0
LINE
5
BC
100
AcDbEntity
8
SK2
62
256
6
ByLayer
370
18
48
1
60
0
100
AcDbLine
10
-93.182053
20
9.325002
30
0
11
-94.018047
21
9.324998
31
0
39
0
210
0
220
0
230
1
0
MTEXT
5
E2
100
AcDbEntity
8
SK6
62
256
6
ByLayer
370
18
48
1
60
0
100
AcDbMText
10
-53.825625
20
-47.947128
30
0
210
0
220
0
230
1
1
\W0.7885;QFT-RFG30C2525-070B
40
3.5
41
0
44
1.084337
50
0
71
7
72
5
7
iso_b_vert
0
MTEXT
5
E6
100
AcDbEntity
8
SK2
62
256
6
ByLayer
370
18
48
1
60
0
100
AcDbMText
10
-94.47505
20
-1.169737
30
0
210
0
220
0
230
1
1
\W0.6740;25
40
3.5
41
0
44
1.084337
50
89.9999999999999
71
7
72
5
7
iso_b_vert
0
DIMENSION
5
F5
100
AcDbEntity
8
2
62
256
6
ByLayer
370
13
48
1
60
0
100
AcDbDimension
2
DimnDraft3D1
10
64.6988
20
13
30
0
11
64.6988
21
-3.857895
31
0
70
32
71
5
72
1
41
1
210
0
220
0
230
1
3
Standard
100
AcDbAlignedDimension
13
11.5988
23
-12.5
33
0
14
41.5988
24
13
34
0
50
90
100
AcDbRotatedDimension
1001
ACAD
1000
DSTYLE
1002
{
1070
    74
1070
     0
1070
   279
1070
     0
1070
   172
1070
     1
1070
   173
1070
     1
1070
   340
1005
E3
1070
   271
1070
     1
1070
    77
1070
     1
1070
    73
1070
     0
1070
   171
1070
     3
1070
   274
1070
     4
1070
   177
1070
     2
1070
   176
1070
     2
1070
   178
1070
     7
1070
    78
1070
     8
1070
    41
1041
3.175
1070
   147
1041
1.75
1070
    42
1041
2.0
1070
    44
1041
2.0
1070
   140
1041
3.5
1070
   343
1005
F6
1070
   344
1005
F6
1002
}
0
DIMENSION
5
10A
100
AcDbEntity
8
SK2
62
256
6
ByLayer
370
13
48
1
60
0
100
AcDbDimension
2
DimnDraft3D2
10
-81
20
-25.60005
30
0
11
-83.259868
21
-25.60005
31
0
70
32
71
5
72
1
41
1
210
0
220
0
230
1
3
Standard
100
AcDbAlignedDimension
13
-84
23
-14.5
33
0
14
-81
24
-14.5
34
0
50
0
100
AcDbRotatedDimension
1001
ACAD
1000
DSTYLE
1002
{
1070
   279
1070
     0
1070
   172
1070
     1
1070
   173
1070
     1
1070
   340
1005
E3
1070
    77
1070
     1
1070
    73
1070
     0
1070
   171
1070
     3
1070
   274
1070
     4
1070
   177
1070
     2
1070
   176
1070
     2
1070
   178
1070
     7
1070
    78
1070
     8
1070
    41
1041
3.175
1070
   147
1041
1.75
1070
    42
1041
2.0
1070
    44
1041
2.0
1070
   140
1041
3.5
1070
   343
1005
F6
1070
   344
1005
F6
1002
}
0
DIMENSION
5
118
100
AcDbEntity
8
SK2
62
256
6
ByLayer
370
13
48
1
60
0
100
AcDbDimension
2
DimnDraft3D3
10
39.5988
20
40.955794
30
0
11
-27.178889
21
40.955794
31
0
70
32
71
5
72
1
41
1
210
0
220
0
230
1
3
Standard
100
AcDbAlignedDimension
13
-84
23
-10.5
33
0
14
39.5988
24
15
34
0
50
0
100
AcDbRotatedDimension
1001
ACAD
1000
DSTYLE
1002
{
1070
   279
1070
     0
1070
   172
1070
     1
1070
   173
1070
     1
1070
   340
1005
E3
1070
   271
1070
     1
1070
    77
1070
     1
1070
    73
1070
     0
1070
   171
1070
     3
1070
   274
1070
     4
1070
   177
1070
     2
1070
   176
1070
     2
1070
   178
1070
     7
1070
    78
1070
     8
1070
    41
1041
3.175
1070
   147
1041
1.75
1070
    42
1041
2.0
1070
    44
1041
2.0
1070
   140
1041
3.5
1070
   343
1005
F6
1070
   344
1005
F6
1002
}
0
DIMENSION
5
126
100
AcDbEntity
8
2
62
256
6
ByLayer
370
13
48
1
60
0
100
AcDbDimension
2
DimnDraft3D4
10
39.5988
20
34.955794
30
0
11
15.691505
21
34.955794
31
0
70
32
71
5
72
1
41
1
210
0
220
0
230
1
3
Standard
100
AcDbAlignedDimension
13
0
23
14.5
33
0
14
39.5988
24
15
34
0
50
0
100
AcDbRotatedDimension
1001
ACAD
1000
DSTYLE
1002
{
1070
   279
1070
     0
1070
   172
1070
     1
1070
   173
1070
     1
1070
   340
1005
E3
1070
   271
1070
     1
1070
    77
1070
     1
1070
    73
1070
     0
1070
   171
1070
     3
1070
   274
1070
     4
1070
   177
1070
     2
1070
   176
1070
     2
1070
   178
1070
     7
1070
    78
1070
     8
1070
    41
1041
3.175
1070
   147
1041
1.75
1070
    42
1041
2.0
1070
    44
1041
2.0
1070
   140
1041
3.5
1070
   343
1005
F6
1070
   344
1005
F6
1002
}
0
DIMENSION
5
134
100
AcDbEntity
8
2
62
256
6
ByLayer
370
13
48
1
60
0
100
AcDbDimension
2
DimnDraft3D5
10
9.5988
20
-25.60005
30
0
11
22.508011
21
-25.60005
31
0
70
32
71
5
72
1
41
1
210
0
220
0
230
1
3
Standard
100
AcDbAlignedDimension
13
39.5988
23
11
33
0
14
9.5988
24
-14.5
34
0
50
0
100
AcDbRotatedDimension
1001
ACAD
1000
DSTYLE
1002
{
1070
   279
1070
     0
1070
   172
1070
     1
1070
   173
1070
     1
1070
   340
1005
E3
1070
   271
1070
     1
1070
    77
1070
     1
1070
    73
1070
     0
1070
   171
1070
     3
1070
   274
1070
     4
1070
   177
1070
     2
1070
   176
1070
     2
1070
   178
1070
     7
1070
    78
1070
     8
1070
    41
1041
3.175
1070
   147
1041
1.75
1070
    42
1041
2.0
1070
    44
1041
2.0
1070
   140
1041
3.5
1070
   343
1005
F6
1070
   344
1005
F6
1002
}
0
DIMENSION
5
142
100
AcDbEntity
8
2
62
256
6
ByLayer
370
13
48
1
60
0
100
AcDbDimension
2
DimnDraft3D6
10
57.6988
20
10
30
0
11
57.6988
21
-1.820789
31
0
70
32
71
5
72
1
41
1
210
0
220
0
230
1
3
Standard
100
AcDbAlignedDimension
13
41.5988
23
13
33
0
14
41.5988
24
10
34
0
50
90
100
AcDbRotatedDimension
1001
ACAD
1000
DSTYLE
1002
{
1070
    74
1070
     0
1070
   279
1070
     0
1070
   172
1070
     1
1070
   173
1070
     1
1070
   340
1005
E3
1070
   271
1070
     1
1070
    77
1070
     1
1070
    73
1070
     0
1070
   171
1070
     3
1070
   274
1070
     4
1070
   177
1070
     2
1070
   176
1070
     2
1070
   178
1070
     7
1070
    78
1070
     8
1070
    41
1041
3.175
1070
   147
1041
1.75
1070
    42
1041
2.0
1070
    44
1041
2.0
1070
   140
1041
3.5
1070
   343
1005
F6
1070
   344
1005
F6
1002
}
0
ENDSEC
0
SECTION
2
OBJECTS
0
DICTIONARY
5
1ac
330
0
100
AcDbDictionary
280
0
281
1
3
ACAD_GROUP
350
1ad
3
ACAD_MLINESTYLE
350
1ae
0
DICTIONARY
5
1ad
330
0
100
AcDbDictionary
280
0
281
1
0
DICTIONARY
5
1ae
330
0
100
AcDbDictionary
280
0
281
1
3
Standard
350
18
0
MLINESTYLE
5
18
330
1ae
100
AcDbMlineStyle
2
Standard
70
0
3

62
256
51
90
52
90
71
2
49
-0.5
62
256
6
ByLayer
49
0.5
62
256
6
ByLayer
0
RASTERVARIABLES
5
19b
330

100
AcDbRasterVariables
90
0
70
1
71
1
72
1
0
ENDSEC
0
EOF
