  0
SECTION
  2
HEADER
  9
$ACADVER
  1
AC1015
  9
$ACADMAINTVER
 70
    20
  9
$DWGCODEPAGE
  3
ANSI_1252
  9
$INSBASE
 10
0.0
 20
0.0
 30
0.0
  9
$EXTMIN
 10
-47.18474628571427
 20
-31.76963097146807
 30
0.0
  9
$EXTMAX
 10
79.79998951740616
 20
45.29696000000001
 30
0.0
  9
$LIMMIN
 10
0.0
 20
0.0
  9
$LIMMAX
 10
12.0
 20
9.0
  9
$ORTHOMODE
 70
     0
  9
$REGENMODE
 70
     1
  9
$FILLMODE
 70
     1
  9
$QTEXTMODE
 70
     0
  9
$MIRRTEXT
 70
     1
  9
$LTSCALE
 40
1.0
  9
$ATTMODE
 70
     1
  9
$TEXTSIZE
 40
3.0
  9
$TRACEWID
 40
10.0
  9
$TEXTSTYLE
  7
SANDVIK_STYLE
  9
$CLAYER
  8
2
  9
$CELTYPE
  6
ByLayer
  9
$CECOLOR
 62
   256
  9
$CELTSCALE
 40
1.0
  9
$DISPSILH
 70
     0
  9
$DIMSCALE
 40
0.0
  9
$DIMASZ
 40
2.5
  9
$DIMEXO
 40
0.0
  9
$DIMDLI
 40
0.38
  9
$DIMRND
 40
0.0
  9
$DIMDLE
 40
0.0
  9
$DIMEXE
 40
1.0
  9
$DIMTP
 40
0.0
  9
$DIMTM
 40
0.0
  9
$DIMTXT
 40
3.0
  9
$DIMCEN
 40
0.0
  9
$DIMTSZ
 40
0.0
  9
$DIMTOL
 70
     0
  9
$DIMLIM
 70
     0
  9
$DIMTIH
 70
     1
  9
$DIMTOH
 70
     1
  9
$DIMSE1
 70
     0
  9
$DIMSE2
 70
     0
  9
$DIMTAD
 70
     2
  9
$DIMZIN
 70
     8
  9
$DIMBLK
  1

  9
$DIMASO
 70
     1
  9
$DIMSHO
 70
     1
  9
$DIMPOST
  1

  9
$DIMAPOST
  1
 
  9
$DIMALT
 70
     0
  9
$DIMALTD
 70
     2
  9
$DIMALTF
 40
25.4
  9
$DIMLFAC
 40
1.0
  9
$DIMTOFL
 70
     0
  9
$DIMTVP
 40
0.0
  9
$DIMTIX
 70
     0
  9
$DIMSOXD
 70
     0
  9
$DIMSAH
 70
     0
  9
$DIMBLK1
  1

  9
$DIMBLK2
  1

  9
$DIMSTYLE
  2
SANDVIK_DIM
  9
$DIMCLRD
 70
   256
  9
$DIMCLRE
 70
   256
  9
$DIMCLRT
 70
   256
  9
$DIMTFAC
 40
1.0
  9
$DIMGAP
 40
1.0
  9
$DIMJUST
 70
     0
  9
$DIMSD1
 70
     0
  9
$DIMSD2
 70
     0
  9
$DIMTOLJ
 70
     1
  9
$DIMTZIN
 70
     0
  9
$DIMALTZ
 70
     0
  9
$DIMALTTZ
 70
     0
  9
$DIMUPT
 70
     0
  9
$DIMDEC
 70
     2
  9
$DIMTDEC
 70
     2
  9
$DIMALTU
 70
     2
  9
$DIMALTTD
 70
     2
  9
$DIMTXSTY
  7
SANDVIK_STYLE
  9
$DIMAUNIT
 70
     0
  9
$DIMADEC
 70
     0
  9
$DIMALTRND
 40
0.0
  9
$DIMAZIN
 70
     0
  9
$DIMDSEP
 70
    46
  9
$DIMATFIT
 70
     3
  9
$DIMFRAC
 70
     0
  9
$DIMLDRBLK
  1

  9
$DIMLUNIT
 70
     2
  9
$DIMLWD
 70
    -2
  9
$DIMLWE
 70
    -2
  9
$DIMTMOVE
 70
     0
  9
$LUNITS
 70
     2
  9
$LUPREC
 70
     2
  9
$SKETCHINC
 40
0.0
  9
$FILLETRAD
 40
2.0
  9
$AUNITS
 70
     0
  9
$AUPREC
 70
     2
  9
$MENU
  1
acad
  9
$ELEVATION
 40
0.0
  9
$PELEVATION
 40
0.0
  9
$THICKNESS
 40
0.0
  9
$LIMCHECK
 70
     0
  9
$CHAMFERA
 40
0.0
  9
$CHAMFERB
 40
0.0
  9
$CHAMFERC
 40
0.0
  9
$CHAMFERD
 40
0.0
  9
$SKPOLY
 70
     0
  9
$TDCREATE
 40
2456818.642430556
  9
$TDUCREATE
 40
2456818.559101204
  9
$TDUPDATE
 40
2458078.570844907
  9
$TDUUPDATE
 40
2458078.529178241
  9
$TDINDWG
 40
0.1065163426
  9
$TDUSRTIMER
 40
0.1065162500
  9
$USRTIMER
 70
     1
  9
$ANGBASE
 50
0.0
  9
$ANGDIR
 70
     0
  9
$PDMODE
 70
     0
  9
$PDSIZE
 40
0.0
  9
$PLINEWID
 40
0.0
  9
$SPLFRAME
 70
     0
  9
$SPLINETYPE
 70
     6
  9
$SPLINESEGS
 70
     8
  9
$HANDSEED
  5
CB3
  9
$SURFTAB1
 70
     6
  9
$SURFTAB2
 70
     6
  9
$SURFTYPE
 70
     6
  9
$SURFU
 70
     6
  9
$SURFV
 70
     6
  9
$UCSBASE
  2

  9
$UCSNAME
  2

  9
$UCSORG
 10
0.0
 20
0.0
 30
0.0
  9
$UCSXDIR
 10
1.0
 20
0.0
 30
0.0
  9
$UCSYDIR
 10
0.0
 20
1.0
 30
0.0
  9
$UCSORTHOREF
  2

  9
$UCSORTHOVIEW
 70
     0
  9
$UCSORGTOP
 10
0.0
 20
0.0
 30
0.0
  9
$UCSORGBOTTOM
 10
0.0
 20
0.0
 30
0.0
  9
$UCSORGLEFT
 10
0.0
 20
0.0
 30
0.0
  9
$UCSORGRIGHT
 10
0.0
 20
0.0
 30
0.0
  9
$UCSORGFRONT
 10
0.0
 20
0.0
 30
0.0
  9
$UCSORGBACK
 10
0.0
 20
0.0
 30
0.0
  9
$PUCSBASE
  2

  9
$PUCSNAME
  2

  9
$PUCSORG
 10
0.0
 20
0.0
 30
0.0
  9
$PUCSXDIR
 10
1.0
 20
0.0
 30
0.0
  9
$PUCSYDIR
 10
0.0
 20
1.0
 30
0.0
  9
$PUCSORTHOREF
  2

  9
$PUCSORTHOVIEW
 70
     0
  9
$PUCSORGTOP
 10
0.0
 20
0.0
 30
0.0
  9
$PUCSORGBOTTOM
 10
0.0
 20
0.0
 30
0.0
  9
$PUCSORGLEFT
 10
0.0
 20
0.0
 30
0.0
  9
$PUCSORGRIGHT
 10
0.0
 20
0.0
 30
0.0
  9
$PUCSORGFRONT
 10
0.0
 20
0.0
 30
0.0
  9
$PUCSORGBACK
 10
0.0
 20
0.0
 30
0.0
  9
$USERI1
 70
     0
  9
$USERI2
 70
     0
  9
$USERI3
 70
     0
  9
$USERI4
 70
     0
  9
$USERI5
 70
     0
  9
$USERR1
 40
0.0
  9
$USERR2
 40
0.0
  9
$USERR3
 40
0.0
  9
$USERR4
 40
0.0
  9
$USERR5
 40
0.0
  9
$WORLDVIEW
 70
     1
  9
$SHADEDGE
 70
     3
  9
$SHADEDIF
 70
    70
  9
$TILEMODE
 70
     1
  9
$MAXACTVP
 70
    16
  9
$PINSBASE
 10
0.0
 20
0.0
 30
0.0
  9
$PLIMCHECK
 70
     0
  9
$PEXTMIN
 10
1.000000000000000E+20
 20
1.000000000000000E+20
 30
1.000000000000000E+20
  9
$PEXTMAX
 10
-1.000000000000000E+20
 20
-1.000000000000000E+20
 30
-1.000000000000000E+20
  9
$PLIMMIN
 10
0.0
 20
0.0
  9
$PLIMMAX
 10
12.0
 20
9.0
  9
$UNITMODE
 70
     0
  9
$VISRETAIN
 70
     0
  9
$PLINEGEN
 70
     0
  9
$PSLTSCALE
 70
     1
  9
$TREEDEPTH
 70
  3020
  9
$CMLSTYLE
  2
Standard
  9
$CMLJUST
 70
     0
  9
$CMLSCALE
 40
1.0
  9
$PROXYGRAPHICS
 70
     1
  9
$MEASUREMENT
 70
     0
  9
$CELWEIGHT
370
    -1
  9
$ENDCAPS
280
     0
  9
$JOINSTYLE
280
     0
  9
$LWDISPLAY
290
     0
  9
$INSUNITS
 70
     0
  9
$HYPERLINKBASE
  1

  9
$STYLESHEET
  1

  9
$XEDIT
290
     1
  9
$CEPSNTYPE
380
     0
  9
$PSTYLEMODE
290
     1
  9
$FINGERPRINTGUID
  2
{8B513BBE-47D5-4A0A-83E5-F64489AFC9DC}
  9
$VERSIONGUID
  2
{3BC8C94D-9EF2-6B4A-884F-DEA8BF31C523}
  9
$EXTNAMES
290
     1
  9
$PSVPSCALE
 40
0.0
  9
$OLESTARTUP
290
     0
  0
ENDSEC
  0
SECTION
  2
CLASSES
  0
CLASS
  1
ACDBDICTIONARYWDFLT
  2
AcDbDictionaryWithDefault
  3
ObjectDBX Classes
 90
        0
280
     0
281
     0
  0
CLASS
  1
MATERIAL
  2
AcDbMaterial
  3
ObjectDBX Classes
 90
     1153
280
     0
281
     0
  0
CLASS
  1
VISUALSTYLE
  2
AcDbVisualStyle
  3
ObjectDBX Classes
 90
     4095
280
     0
281
     0
  0
CLASS
  1
SCALE
  2
AcDbScale
  3
ObjectDBX Classes
 90
     1153
280
     0
281
     0
  0
CLASS
  1
TABLESTYLE
  2
AcDbTableStyle
  3
ObjectDBX Classes
 90
     4095
280
     0
281
     0
  0
CLASS
  1
MLEADERSTYLE
  2
AcDbMLeaderStyle
  3
ACDB_MLEADERSTYLE_CLASS
 90
     4095
280
     0
281
     0
  0
CLASS
  1
ACDBSECTIONVIEWSTYLE
  2
AcDbSectionViewStyle
  3
ObjectDBX Classes
 90
     1025
280
     0
281
     0
  0
CLASS
  1
ACDBDETAILVIEWSTYLE
  2
AcDbDetailViewStyle
  3
ObjectDBX Classes
 90
     1025
280
     0
281
     0
  0
CLASS
  1
EXACXREFPANELOBJECT
  2
ExAcXREFPanelObject
  3
EXAC_ESW
 90
    33793
280
     0
281
     0
  0
CLASS
  1
NPOCOLLECTION
  2
AcDbImpNonPersistentObjectsCollection
  3
ObjectDBX Classes
 90
    33921
280
     0
281
     0
  0
CLASS
  1
DICTIONARYVAR
  2
AcDbDictionaryVar
  3
ObjectDBX Classes
 90
        0
280
     0
281
     0
  0
CLASS
  1
CELLSTYLEMAP
  2
AcDbCellStyleMap
  3
ObjectDBX Classes
 90
     1152
280
     0
281
     0
  0
CLASS
  1
SORTENTSTABLE
  2
AcDbSortentsTable
  3
ObjectDBX Classes
 90
        0
280
     0
281
     0
  0
CLASS
  1
ACDBPLACEHOLDER
  2
AcDbPlaceHolder
  3
ObjectDBX Classes
 90
        0
280
     0
281
     0
  0
CLASS
  1
LAYOUT
  2
AcDbLayout
  3
ObjectDBX Classes
 90
        0
280
     0
281
     0
  0
ENDSEC
  0
SECTION
  2
TABLES
  0
TABLE
  2
VPORT
  5
E9
330
0
100
AcDbSymbolTable
 70
     1
  0
VPORT
  5
180
330
E9
100
AcDbSymbolTableRecord
100
AcDbViewportTableRecord
  2
*Active
 70
     0
 10
0.0
 20
0.0
 11
1.0
 21
1.0
 12
16.30728625053382
 22
8.730643120146332
 13
0.0
 23
0.0
 14
1.0
 24
1.0
 15
0.0
 25
0.0
 16
0.0
 26
0.0
 36
1.0
 17
0.0
 27
0.0
 37
0.0
 40
78.85356745181022
 41
2.283154121863799
 42
50.0
 43
0.0
 44
0.0
 50
0.0
 51
0.0
 71
     0
 72
   100
 73
     1
 74
     1
 75
     0
 76
     0
 77
     0
 78
     0
281
     0
 65
     1
110
0.0
120
0.0
130
0.0
111
1.0
121
0.0
131
0.0
112
0.0
122
1.0
132
0.0
 79
     0
146
0.0
1001
ACAD_NAV_VCDISPLAY
1070
     3
  0
ENDTAB
  0
TABLE
  2
LTYPE
  5
E6
330
0
100
AcDbSymbolTable
 70
     4
  0
LTYPE
  5
13B
330
E6
100
AcDbSymbolTableRecord
100
AcDbLinetypeTableRecord
  2
ByBlock
 70
     0
  3

 72
    65
 73
     0
 40
0.0
  0
LTYPE
  5
13C
330
E6
100
AcDbSymbolTableRecord
100
AcDbLinetypeTableRecord
  2
ByLayer
 70
     0
  3

 72
    65
 73
     0
 40
0.0
  0
LTYPE
  5
13D
330
E6
100
AcDbSymbolTableRecord
100
AcDbLinetypeTableRecord
  2
CONTINUOUS
 70
     0
  3
Solid line
 72
    65
 73
     0
 40
0.0
  0
LTYPE
  5
149
330
E6
100
AcDbSymbolTableRecord
100
AcDbLinetypeTableRecord
  2
PHANTOM2
 70
     0
  3
Phantom (.5x) ___ _ _ ___ _ _ ___ _ _ ___ _ _
 72
    65
 73
     6
 40
1.25
 49
0.625
 74
     0
 49
-0.125
 74
     0
 49
0.125
 74
     0
 49
-0.125
 74
     0
 49
0.125
 74
     0
 49
-0.125
 74
     0
  0
LTYPE
  5
157
330
E6
100
AcDbSymbolTableRecord
100
AcDbLinetypeTableRecord
  2
CENTER
 70
     0
  3
____ _ ____ _ ____ _ ____ _ ____ _ ____ _ ____
 72
    65
 73
     4
 40
5.059897
 49
3.162434999999998
 74
     0
 49
-0.6324870000000004
 74
     0
 49
0.6324870000000004
 74
     0
 49
-0.6324870000000004
 74
     0
  0
LTYPE
  5
158
330
E6
100
AcDbSymbolTableRecord
100
AcDbLinetypeTableRecord
  2
DASHED
 70
     0
  3
__ __ __ __ __ __ __ __ __ __ __ __ __ __ __ __
 72
    65
 73
     2
 40
7.589844999999997
 49
5.059897
 74
     0
 49
-2.529948
 74
     0
  0
ENDTAB
  0
TABLE
  2
LAYER
  5
E3
102
{ACAD_XDICTIONARY
360
26A
102
}
330
0
100
AcDbSymbolTable
 70
    39
  0
LAYER
  5
135
102
{ACAD_XDICTIONARY
360
18C
102
}
330
E3
100
AcDbSymbolTableRecord
100
AcDbLayerTableRecord
  2
0
 70
     0
 62
     7
  6
CONTINUOUS
370
    -3
390
F0
  0
LAYER
  5
155
102
{ACAD_XDICTIONARY
360
18E
102
}
330
E3
100
AcDbSymbolTableRecord
100
AcDbLayerTableRecord
  2
1
 70
     0
 62
     4
  6
CONTINUOUS
370
    -3
390
F0
  0
LAYER
  5
159
102
{ACAD_XDICTIONARY
360
190
102
}
330
E3
100
AcDbSymbolTableRecord
100
AcDbLayerTableRecord
  2
61
 70
     0
 62
     5
  6
CONTINUOUS
370
    -3
390
F0
  0
LAYER
  5
15A
102
{ACAD_XDICTIONARY
360
192
102
}
330
E3
100
AcDbSymbolTableRecord
100
AcDbLayerTableRecord
  2
62
 70
     0
 62
    -5
  6
CONTINUOUS
370
    -3
390
F0
  0
LAYER
  5
15B
102
{ACAD_XDICTIONARY
360
194
102
}
330
E3
100
AcDbSymbolTableRecord
100
AcDbLayerTableRecord
  2
63
 70
     0
 62
    -5
  6
CONTINUOUS
370
    -3
390
F0
  0
LAYER
  5
15C
102
{ACAD_XDICTIONARY
360
196
102
}
330
E3
100
AcDbSymbolTableRecord
100
AcDbLayerTableRecord
  2
64
 70
     0
 62
    -5
  6
CONTINUOUS
370
    -3
390
F0
  0
LAYER
  5
15D
102
{ACAD_XDICTIONARY
360
198
102
}
330
E3
100
AcDbSymbolTableRecord
100
AcDbLayerTableRecord
  2
65
 70
     0
 62
    -5
  6
CONTINUOUS
370
    -3
390
F0
  0
LAYER
  5
15E
102
{ACAD_XDICTIONARY
360
19A
102
}
330
E3
100
AcDbSymbolTableRecord
100
AcDbLayerTableRecord
  2
66
 70
     0
 62
    -5
  6
CONTINUOUS
370
    -3
390
F0
  0
LAYER
  5
15F
102
{ACAD_XDICTIONARY
360
19C
102
}
330
E3
100
AcDbSymbolTableRecord
100
AcDbLayerTableRecord
  2
67
 70
     0
 62
    -5
  6
CONTINUOUS
370
    -3
390
F0
  0
LAYER
  5
160
102
{ACAD_XDICTIONARY
360
19E
102
}
330
E3
100
AcDbSymbolTableRecord
100
AcDbLayerTableRecord
  2
68
 70
     0
 62
    -5
  6
CONTINUOUS
370
    -3
390
F0
  0
LAYER
  5
161
102
{ACAD_XDICTIONARY
360
1A0
102
}
330
E3
100
AcDbSymbolTableRecord
100
AcDbLayerTableRecord
  2
69
 70
     0
 62
    -5
  6
CONTINUOUS
370
    -3
390
F0
  0
LAYER
  5
162
102
{ACAD_XDICTIONARY
360
1A2
102
}
330
E3
100
AcDbSymbolTableRecord
100
AcDbLayerTableRecord
  2
70
 70
     0
 62
     5
  6
CONTINUOUS
370
    -3
390
F0
  0
LAYER
  5
163
102
{ACAD_XDICTIONARY
360
1A4
102
}
330
E3
100
AcDbSymbolTableRecord
100
AcDbLayerTableRecord
  2
2
 70
     0
 62
     7
  6
CONTINUOUS
370
    -3
390
F0
  0
LAYER
  5
164
102
{ACAD_XDICTIONARY
360
1A6
102
}
330
E3
100
AcDbSymbolTableRecord
100
AcDbLayerTableRecord
  2
3
 70
     0
 62
     1
  6
DASHED
370
    -3
390
F0
  0
LAYER
  5
165
102
{ACAD_XDICTIONARY
360
1A8
102
}
330
E3
100
AcDbSymbolTableRecord
100
AcDbLayerTableRecord
  2
4
 70
     0
 62
     2
  6
CENTER
370
    -3
390
F0
  0
LAYER
  5
166
102
{ACAD_XDICTIONARY
360
1AA
102
}
330
E3
100
AcDbSymbolTableRecord
100
AcDbLayerTableRecord
  2
5
 70
     0
 62
    -7
  6
CONTINUOUS
370
    -3
390
F0
  0
LAYER
  5
167
102
{ACAD_XDICTIONARY
360
1AC
102
}
330
E3
100
AcDbSymbolTableRecord
100
AcDbLayerTableRecord
  2
SK1
 70
     0
 62
     4
  6
CONTINUOUS
370
    -3
390
F0
  0
LAYER
  5
168
102
{ACAD_XDICTIONARY
360
1AE
102
}
330
E3
100
AcDbSymbolTableRecord
100
AcDbLayerTableRecord
  2
6
 70
     0
 62
     5
  6
CONTINUOUS
370
    -3
390
F0
  0
LAYER
  5
169
102
{ACAD_XDICTIONARY
360
1B0
102
}
330
E3
100
AcDbSymbolTableRecord
100
AcDbLayerTableRecord
  2
SK2
 70
     0
 62
     7
  6
CONTINUOUS
370
    -3
390
F0
  0
LAYER
  5
16A
102
{ACAD_XDICTIONARY
360
1B2
102
}
330
E3
100
AcDbSymbolTableRecord
100
AcDbLayerTableRecord
  2
SK3
 70
     0
 62
     1
  6
DASHED
370
    -3
390
F0
  0
LAYER
  5
16B
102
{ACAD_XDICTIONARY
360
1B4
102
}
330
E3
100
AcDbSymbolTableRecord
100
AcDbLayerTableRecord
  2
SK4
 70
     0
 62
     2
  6
CENTER
370
    -3
390
F0
  0
LAYER
  5
16C
102
{ACAD_XDICTIONARY
360
1B6
102
}
330
E3
100
AcDbSymbolTableRecord
100
AcDbLayerTableRecord
  2
CUT
 70
     0
 62
    -1
  6
CONTINUOUS
370
    -3
390
F0
  0
LAYER
  5
16D
102
{ACAD_XDICTIONARY
360
1B8
102
}
330
E3
100
AcDbSymbolTableRecord
100
AcDbLayerTableRecord
  2
SK6
 70
     0
 62
    -5
  6
CONTINUOUS
370
    -3
390
F0
  0
LAYER
  5
16E
102
{ACAD_XDICTIONARY
360
1BA
102
}
330
E3
100
AcDbSymbolTableRecord
100
AcDbLayerTableRecord
  2
80
 70
     0
 62
    -2
  6
CENTER
370
    -3
390
F0
  0
LAYER
  5
16F
102
{ACAD_XDICTIONARY
360
1BC
102
}
330
E3
100
AcDbSymbolTableRecord
100
AcDbLayerTableRecord
  2
81
 70
     0
 62
    -2
  6
CENTER
370
    -3
390
F0
  0
LAYER
  5
170
102
{ACAD_XDICTIONARY
360
1BE
102
}
330
E3
100
AcDbSymbolTableRecord
100
AcDbLayerTableRecord
  2
82
 70
     0
 62
    -2
  6
CENTER
370
    -3
390
F0
  0
LAYER
  5
171
102
{ACAD_XDICTIONARY
360
1C0
102
}
330
E3
100
AcDbSymbolTableRecord
100
AcDbLayerTableRecord
  2
NOCUT
 70
     0
 62
     7
  6
CONTINUOUS
370
    -3
390
F0
  0
LAYER
  5
172
102
{ACAD_XDICTIONARY
360
1C2
102
}
330
E3
100
AcDbSymbolTableRecord
100
AcDbLayerTableRecord
  2
50
 70
     0
 62
    -7
  6
CONTINUOUS
370
    -3
390
F0
  0
LAYER
  5
173
102
{ACAD_XDICTIONARY
360
1C4
102
}
330
E3
100
AcDbSymbolTableRecord
100
AcDbLayerTableRecord
  2
51
 70
     0
 62
     7
  6
CONTINUOUS
370
    -3
390
F0
  0
LAYER
  5
174
102
{ACAD_XDICTIONARY
360
1C6
102
}
330
E3
100
AcDbSymbolTableRecord
100
AcDbLayerTableRecord
  2
52
 70
     0
 62
    -7
  6
CONTINUOUS
370
    -3
390
F0
  0
LAYER
  5
175
102
{ACAD_XDICTIONARY
360
1C8
102
}
330
E3
100
AcDbSymbolTableRecord
100
AcDbLayerTableRecord
  2
53
 70
     0
 62
    -7
  6
CONTINUOUS
370
    -3
390
F0
  0
LAYER
  5
176
102
{ACAD_XDICTIONARY
360
1CA
102
}
330
E3
100
AcDbSymbolTableRecord
100
AcDbLayerTableRecord
  2
54
 70
     0
 62
    -7
  6
CONTINUOUS
370
    -3
390
F0
  0
LAYER
  5
177
102
{ACAD_XDICTIONARY
360
1CC
102
}
330
E3
100
AcDbSymbolTableRecord
100
AcDbLayerTableRecord
  2
55
 70
     0
 62
    -7
  6
CONTINUOUS
370
    -3
390
F0
  0
LAYER
  5
178
102
{ACAD_XDICTIONARY
360
1CE
102
}
330
E3
100
AcDbSymbolTableRecord
100
AcDbLayerTableRecord
  2
56
 70
     0
 62
    -7
  6
CONTINUOUS
370
    -3
390
F0
  0
LAYER
  5
179
102
{ACAD_XDICTIONARY
360
1D0
102
}
330
E3
100
AcDbSymbolTableRecord
100
AcDbLayerTableRecord
  2
57
 70
     0
 62
    -7
  6
CONTINUOUS
370
    -3
390
F0
  0
LAYER
  5
17A
102
{ACAD_XDICTIONARY
360
1D2
102
}
330
E3
100
AcDbSymbolTableRecord
100
AcDbLayerTableRecord
  2
58
 70
     0
 62
    -7
  6
CONTINUOUS
370
    -3
390
F0
  0
LAYER
  5
17B
102
{ACAD_XDICTIONARY
360
1D4
102
}
330
E3
100
AcDbSymbolTableRecord
100
AcDbLayerTableRecord
  2
2L
 70
     0
 62
     7
  6
CONTINUOUS
370
    -3
390
F0
  0
LAYER
  5
17C
102
{ACAD_XDICTIONARY
360
1D6
102
}
330
E3
100
AcDbSymbolTableRecord
100
AcDbLayerTableRecord
  2
59
 70
     0
 62
    -7
  6
CONTINUOUS
370
    -3
390
F0
  0
LAYER
  5
268
330
E3
100
AcDbSymbolTableRecord
100
AcDbLayerTableRecord
  2
Defpoints
 70
     0
 62
     7
  6
CONTINUOUS
290
     0
370
    -3
390
F0
  0
ENDTAB
  0
TABLE
  2
STYLE
  5
E4
330
0
100
AcDbSymbolTable
 70
     4
  0
STYLE
  5
136
330
E4
100
AcDbSymbolTableRecord
100
AcDbTextStyleTableRecord
  2
STANDARD
 70
     0
 40
0.0
 41
1.0
 50
0.0
 71
     0
 42
4.5
  3
simplex.shx
  4

  0
STYLE
  5
13A
330
E4
100
AcDbSymbolTableRecord
100
AcDbTextStyleTableRecord
  2
Annotative
 70
     0
 40
0.0
 41
1.0
 50
0.0
 71
     0
 42
0.2
  3
txt
  4

1001
AcadAnnotative
1000
AnnotativeData
1002
{
1070
     1
1070
     1
1002
}
  0
STYLE
  5
156
330
E4
100
AcDbSymbolTableRecord
100
AcDbTextStyleTableRecord
  2
SANDVIK_STYLE
 70
     0
 40
3.0
 41
1.0
 50
0.0
 71
     0
 42
3.0
  3
simplex.shx
  4

  0
STYLE
  5
987
330
E4
100
AcDbSymbolTableRecord
100
AcDbTextStyleTableRecord
  2
SIMPLEX
 70
     0
 40
0.0
 41
1.0
 50
0.0
 71
     0
 42
3.5
  3
simplex
  4

  0
ENDTAB
  0
TABLE
  2
VIEW
  5
E7
330
0
100
AcDbSymbolTable
 70
     0
  0
ENDTAB
  0
TABLE
  2
UCS
  5
E8
330
0
100
AcDbSymbolTable
 70
     0
  0
ENDTAB
  0
TABLE
  2
APPID
  5
EA
330
0
100
AcDbSymbolTable
 70
     9
  0
APPID
  5
137
330
EA
100
AcDbSymbolTableRecord
100
AcDbRegAppTableRecord
  2
ACAD
 70
     0
  0
APPID
  5
13E
330
EA
100
AcDbSymbolTableRecord
100
AcDbRegAppTableRecord
  2
AcadAnnotative
 70
     0
  0
APPID
  5
1E2
330
EA
100
AcDbSymbolTableRecord
100
AcDbRegAppTableRecord
  2
ACAD_NAV_VCDISPLAY
 70
     0
  0
APPID
  5
21C
330
EA
100
AcDbSymbolTableRecord
100
AcDbRegAppTableRecord
  2
ACAD_MLEADERVER
 70
     0
  0
APPID
  5
269
330
EA
100
AcDbSymbolTableRecord
100
AcDbRegAppTableRecord
  2
ACAD_DSTYLE_DIMRADIAL_EXTENSION
 70
     0
  0
APPID
  5
3DA
330
EA
100
AcDbSymbolTableRecord
100
AcDbRegAppTableRecord
  2
ACAD_EXEMPT_FROM_CAD_STANDARDS
 70
     0
  0
APPID
  5
698
330
EA
100
AcDbSymbolTableRecord
100
AcDbRegAppTableRecord
  2
ACAD_DSTYLE_DIMJAG
 70
     0
  0
APPID
  5
699
330
EA
100
AcDbSymbolTableRecord
100
AcDbRegAppTableRecord
  2
ACAD_DSTYLE_DIMTALN
 70
     0
  0
APPID
  5
8DC
330
EA
100
AcDbSymbolTableRecord
100
AcDbRegAppTableRecord
  2
AcadAnnoMonitorAlertIconDisabled
 70
     0
  0
ENDTAB
  0
TABLE
  2
DIMSTYLE
  5
EB
330
0
100
AcDbSymbolTable
 70
     3
100
AcDbDimStyleTable
 71
     2
340
17D
340
138
  0
DIMSTYLE
105
138
330
EB
100
AcDbSymbolTableRecord
100
AcDbDimStyleTableRecord
  2
STANDARD
 70
     0
  4
 
 41
3.0
 42
2.5
 43
10.0
 44
2.5
 46
1.25
 73
     0
 74
     0
140
3.0
141
-3.0
143
0.039
145
1.5
146
0.75
147
1.5
271
     2
272
     2
279
     2
340
156
  0
DIMSTYLE
105
139
330
EB
100
AcDbSymbolTableRecord
100
AcDbDimStyleTableRecord
  2
Annotative
 70
     0
340
136
1001
AcadAnnotative
1000
AnnotativeData
1002
{
1070
     1
1070
     1
1002
}
  0
DIMSTYLE
105
17D
102
{ACAD_REACTORS
330
5F
330
60
330
61
330
364
330
7AB
102
}
330
EB
100
AcDbSymbolTableRecord
100
AcDbDimStyleTableRecord
  2
SANDVIK_DIM
 70
     0
  4
 
 40
0.0
 41
2.5
 42
0.0
 44
1.0
 77
     2
 78
     8
140
3.0
141
0.0
147
1.0
176
   256
177
   256
178
   256
271
     2
272
     2
340
156
1001
ACAD_DSTYLE_DIMJAG
1070
   388
1040
3.5
1001
ACAD_DSTYLE_DIMTALN
1070
   392
1070
     0
  0
ENDTAB
  0
TABLE
  2
BLOCK_RECORD
  5
E2
330
0
100
AcDbSymbolTable
 70
     8
  0
BLOCK_RECORD
  5
151
102
{ACAD_XDICTIONARY
360
511
102
}
330
E2
100
AcDbSymbolTableRecord
100
AcDbBlockTableRecord
  2
*Model_Space
340
154
  0
BLOCK_RECORD
  5
14D
330
E2
100
AcDbSymbolTableRecord
100
AcDbBlockTableRecord
  2
*Paper_Space
340
150
  0
BLOCK_RECORD
  5
366
330
E2
100
AcDbSymbolTableRecord
100
AcDbBlockTableRecord
  2
*D0
340
0
  0
BLOCK_RECORD
  5
372
330
E2
100
AcDbSymbolTableRecord
100
AcDbBlockTableRecord
  2
*D1
340
0
  0
BLOCK_RECORD
  5
3FC
330
E2
100
AcDbSymbolTableRecord
100
AcDbBlockTableRecord
  2
*D2
340
0
  0
BLOCK_RECORD
  5
408
330
E2
100
AcDbSymbolTableRecord
100
AcDbBlockTableRecord
  2
*D3
340
0
  0
BLOCK_RECORD
  5
436
330
E2
100
AcDbSymbolTableRecord
100
AcDbBlockTableRecord
  2
*D4
340
0
  0
BLOCK_RECORD
  5
6C5
330
E2
100
AcDbSymbolTableRecord
100
AcDbBlockTableRecord
  2
*D5
340
0
  0
BLOCK_RECORD
  5
7AC
330
E2
100
AcDbSymbolTableRecord
100
AcDbBlockTableRecord
  2
*D6
340
0
  0
BLOCK_RECORD
  5
7F8
330
E2
100
AcDbSymbolTableRecord
100
AcDbBlockTableRecord
  2
*D7
340
0
  0
ENDTAB
  0
ENDSEC
  0
SECTION
  2
BLOCKS
  0
BLOCK
  5
152
330
151
100
AcDbEntity
  8
0
100
AcDbBlockBegin
  2
*Model_Space
 70
     0
 10
0.0
 20
0.0
 30
0.0
  3
*Model_Space
  1

  0
ENDBLK
  5
153
330
151
100
AcDbEntity
  8
0
100
AcDbBlockEnd
  0
BLOCK
  5
14E
330
14D
100
AcDbEntity
 67
     1
  8
0
100
AcDbBlockBegin
  2
*Paper_Space
 70
     0
 10
0.0
 20
0.0
 30
0.0
  3
*Paper_Space
  1

  0
ENDBLK
  5
14F
330
14D
100
AcDbEntity
 67
     1
  8
0
100
AcDbBlockEnd
  0
BLOCK
  5
367
330
366
100
AcDbEntity
  8
0
100
AcDbBlockBegin
  2
*D0
 70
     1
 10
0.0
 20
0.0
 30
0.0
  3
*D0
  1

  0
LINE
  5
95F
330
366
100
AcDbEntity
  8
2
370
    -2
100
AcDbLine
 10
50.48040778890864
 20
12.50490240401809
 30
0.0
 11
72.04998951740617
 21
12.5049024040181
 31
0.0
  0
LINE
  5
960
330
366
100
AcDbEntity
  8
2
370
    -2
100
AcDbLine
 10
51.51894961880362
 20
-12.50169786990133
 30
0.0
 11
72.04998951740617
 21
-12.50169786990132
 31
0.0
  0
LINE
  5
961
330
366
100
AcDbEntity
  8
2
370
    -2
100
AcDbLine
 10
70.79998951740617
 20
10.0049024040181
 30
0.0
 11
70.79998951740617
 21
-10.00169786990132
 31
0.0
  0
SOLID
  5
962
330
366
100
AcDbEntity
  8
2
100
AcDbTrace
 10
70.3833228507395
 20
10.0049024040181
 30
0.0
 11
71.21665618407284
 21
10.0049024040181
 31
0.0
 12
70.79998951740617
 22
12.5049024040181
 32
0.0
 13
70.79998951740617
 23
12.5049024040181
 33
0.0
  0
SOLID
  5
963
330
366
100
AcDbEntity
  8
2
100
AcDbTrace
 10
70.3833228507395
 20
-10.00169786990132
 30
0.0
 11
71.21665618407284
 21
-10.00169786990132
 31
0.0
 12
70.79998951740617
 22
-12.50169786990132
 32
0.0
 13
70.79998951740617
 23
-12.50169786990132
 33
0.0
  0
MTEXT
  5
964
330
366
100
AcDbEntity
  8
2
100
AcDbMText
 10
75.79998951740616
 20
0.001602267058367
 30
0.0
 40
3.0
 41
0.0
 71
     5
 72
     1
  1
\A1;Ø25
  7
SANDVIK_STYLE
 73
     1
 44
1.0
1001
ACAD
1000
MTEXTBEGIN
1070
    73
1070
     1
1070
    44
1040
1.0
1070
    74
1070
     0
1000
MTEXTEND
  0
POINT
  5
965
330
366
100
AcDbEntity
  8
Defpoints
 62
     0
100
AcDbPoint
 10
50.48040778890864
 20
12.50490240401809
 30
0.0
  0
POINT
  5
966
330
366
100
AcDbEntity
  8
Defpoints
 62
     0
100
AcDbPoint
 10
51.51894961880362
 20
-12.50169786990133
 30
0.0
  0
POINT
  5
967
330
366
100
AcDbEntity
  8
Defpoints
 62
     0
100
AcDbPoint
 10
70.79998951740617
 20
-12.50169786990132
 30
0.0
  0
ENDBLK
  5
368
330
366
100
AcDbEntity
  8
0
100
AcDbBlockEnd
  0
BLOCK
  5
373
330
372
100
AcDbEntity
  8
0
100
AcDbBlockBegin
  2
*D1
 70
     1
 10
0.0
 20
0.0
 30
0.0
  3
*D1
  1

  0
LINE
  5
6B5
330
372
100
AcDbEntity
  8
2
370
    -2
100
AcDbLine
 10
57.47991187772114
 20
15.66518917407378
 30
0.0
 11
45.05134044914972
 21
15.66518917407378
 31
0.0
  0
LINE
  5
6B6
330
372
100
AcDbEntity
  8
2
370
    -2
100
AcDbLine
 10
45.05134044914972
 20
15.66518917407378
 30
0.0
 11
43.29224136215206
 21
13.88879664928541
 31
0.0
  0
MTEXT
  5
6B7
330
372
100
AcDbEntity
  8
2
100
AcDbMText
 10
51.76562616343542
 20
18.16518917407378
 30
0.0
 40
3.0
 41
0.0
 71
     5
 72
     1
  1
\A1;R1.36
  7
SANDVIK_STYLE
 73
     1
 44
1.0
1001
ACAD
1000
MTEXTBEGIN
1070
    73
1070
     1
1070
    44
1040
1.0
1070
    74
1070
     0
1000
MTEXTEND
  0
SOLID
  5
6B8
330
372
100
AcDbEntity
  8
2
100
AcDbTrace
 10
42.996175941354
 20
14.18197983045169
 30
0.0
 11
43.58830678295013
 21
13.59561346811914
 31
0.0
 12
41.5331422751544
 22
12.11240412449704
 32
0.0
 13
41.5331422751544
 23
12.11240412449704
 33
0.0
  0
POINT
  5
6B9
330
372
100
AcDbEntity
  8
Defpoints
 62
     0
100
AcDbPoint
 10
41.5331422751544
 20
12.11240412449704
 30
0.0
  0
POINT
  5
6BA
330
372
100
AcDbEntity
  8
Defpoints
 62
     0
100
AcDbPoint
 10
40.57897390513892
 20
11.14885546915783
 30
0.0
  0
ENDBLK
  5
374
330
372
100
AcDbEntity
  8
0
100
AcDbBlockEnd
  0
BLOCK
  5
3FD
330
3FC
100
AcDbEntity
  8
0
100
AcDbBlockBegin
  2
*D2
 70
     1
 10
0.0
 20
0.0
 30
0.0
  3
*D2
  1

  0
LINE
  5
974
330
3FC
100
AcDbEntity
  8
2
370
    -2
100
AcDbLine
 10
0.0
 20
13.6875
 30
0.0
 11
0.0000000000000018
 21
43.79696
 31
0.0
  0
LINE
  5
975
330
3FC
100
AcDbEntity
  8
2
370
    -2
100
AcDbLine
 10
51.00377083999926
 20
13.86671895053899
 30
0.0
 11
51.00377083999926
 21
43.79696
 31
0.0
  0
LINE
  5
976
330
3FC
100
AcDbEntity
  8
2
370
    -2
100
AcDbLine
 10
2.5
 20
41.29696
 30
0.0
 11
48.50377083999926
 21
41.29696
 31
0.0
  0
SOLID
  5
977
330
3FC
100
AcDbEntity
  8
2
100
AcDbTrace
 10
2.5
 20
41.71362666666666
 30
0.0
 11
2.5
 21
40.88029333333333
 31
0.0
 12
0.0000000000000017
 22
41.29696
 32
0.0
 13
0.0000000000000017
 23
41.29696
 33
0.0
  0
SOLID
  5
978
330
3FC
100
AcDbEntity
  8
2
100
AcDbTrace
 10
48.50377083999926
 20
41.71362666666666
 30
0.0
 11
48.50377083999926
 21
40.88029333333333
 31
0.0
 12
51.00377083999926
 22
41.29696
 32
0.0
 13
51.00377083999926
 23
41.29696
 33
0.0
  0
MTEXT
  5
979
330
3FC
100
AcDbEntity
  8
2
100
AcDbMText
 10
25.50188541999963
 20
43.79696
 30
0.0
 40
3.0
 41
0.0
 71
     5
 72
     1
  1
\A1;51
  7
SANDVIK_STYLE
 73
     1
 44
1.0
1001
ACAD
1000
MTEXTBEGIN
1070
    73
1070
     1
1070
    44
1040
1.0
1070
    74
1070
     0
1000
MTEXTEND
  0
POINT
  5
97A
330
3FC
100
AcDbEntity
  8
Defpoints
 62
     0
100
AcDbPoint
 10
0.0
 20
13.6875
 30
0.0
  0
POINT
  5
97B
330
3FC
100
AcDbEntity
  8
Defpoints
 62
     0
100
AcDbPoint
 10
51.00377083999926
 20
13.86671895053899
 30
0.0
  0
POINT
  5
97C
330
3FC
100
AcDbEntity
  8
Defpoints
 62
     0
100
AcDbPoint
 10
51.00377083999926
 20
41.29696
 30
0.0
  0
ENDBLK
  5
3FE
330
3FC
100
AcDbEntity
  8
0
100
AcDbBlockEnd
  0
BLOCK
  5
409
330
408
100
AcDbEntity
  8
0
100
AcDbBlockBegin
  2
*D3
 70
     1
 10
0.0
 20
0.0
 30
0.0
  3
*D3
  1

  0
LINE
  5
BE3
330
408
100
AcDbEntity
  8
2
370
    -2
100
AcDbLine
 10
51.00377083999926
 20
13.86671895053899
 30
0.0
 11
51.00377083999926
 21
30.645808
 31
0.0
  0
LINE
  5
BE4
330
408
100
AcDbEntity
  8
2
370
    -2
100
AcDbLine
 10
13.50377165236865
 20
13.6875
 30
0.0
 11
13.50377165236865
 21
30.645808
 31
0.0
  0
LINE
  5
BE5
330
408
100
AcDbEntity
  8
2
370
    -2
100
AcDbLine
 10
48.50377083999926
 20
28.145808
 30
0.0
 11
16.00377165236865
 21
28.145808
 31
0.0
  0
SOLID
  5
BE6
330
408
100
AcDbEntity
  8
2
100
AcDbTrace
 10
48.50377083999926
 20
28.56247466666667
 30
0.0
 11
48.50377083999926
 21
27.72914133333334
 31
0.0
 12
51.00377083999926
 22
28.145808
 32
0.0
 13
51.00377083999926
 23
28.145808
 33
0.0
  0
SOLID
  5
BE7
330
408
100
AcDbEntity
  8
2
100
AcDbTrace
 10
16.00377165236865
 20
28.56247466666667
 30
0.0
 11
16.00377165236865
 21
27.72914133333334
 31
0.0
 12
13.50377165236865
 22
28.145808
 32
0.0
 13
13.50377165236865
 23
28.145808
 33
0.0
  0
MTEXT
  5
BE8
330
408
100
AcDbEntity
  8
2
100
AcDbMText
 10
32.25377124618395
 20
30.645808
 30
0.0
 40
3.0
 41
0.0
 71
     5
 72
     1
  1
\A1;37.5
  7
SANDVIK_STYLE
 73
     1
 44
1.0
1001
ACAD
1000
MTEXTBEGIN
1070
    73
1070
     1
1070
    44
1040
1.0
1070
    74
1070
     0
1000
MTEXTEND
  0
POINT
  5
BE9
330
408
100
AcDbEntity
  8
Defpoints
 62
     0
100
AcDbPoint
 10
51.00377083999926
 20
13.86671895053899
 30
0.0
  0
POINT
  5
BEA
330
408
100
AcDbEntity
  8
Defpoints
 62
     0
100
AcDbPoint
 10
13.50377165236865
 20
13.6875
 30
0.0
  0
POINT
  5
BEB
330
408
100
AcDbEntity
  8
Defpoints
 62
     0
100
AcDbPoint
 10
13.50377165236865
 20
28.145808
 30
0.0
  0
ENDBLK
  5
40A
330
408
100
AcDbEntity
  8
0
100
AcDbBlockEnd
  0
BLOCK
  5
437
330
436
100
AcDbEntity
  8
0
100
AcDbBlockBegin
  2
*D4
 70
     1
 10
0.0
 20
0.0
 30
0.0
  3
*D4
  1

  0
LINE
  5
8E7
330
436
100
AcDbEntity
  8
SK2
370
    -2
100
AcDbLine
 10
-1.587499999999999
 20
12.1
 30
0.0
 11
-36.399032
 21
12.10000000000001
 31
0.0
  0
LINE
  5
8E8
330
436
100
AcDbEntity
  8
SK2
370
    -2
100
AcDbLine
 10
-1.587499999999999
 20
-12.1
 30
0.0
 11
-36.399032
 21
-12.09999999999999
 31
0.0
  0
LINE
  5
8E9
330
436
100
AcDbEntity
  8
SK2
370
    -2
100
AcDbLine
 10
-33.899032
 20
9.600000000000008
 30
0.0
 11
-33.899032
 21
-9.59999999999999
 31
0.0
  0
SOLID
  5
8EA
330
436
100
AcDbEntity
  8
SK2
100
AcDbTrace
 10
-34.31569866666666
 20
9.600000000000008
 30
0.0
 11
-33.48236533333333
 21
9.600000000000008
 31
0.0
 12
-33.899032
 22
12.10000000000001
 32
0.0
 13
-33.899032
 23
12.10000000000001
 33
0.0
  0
SOLID
  5
8EB
330
436
100
AcDbEntity
  8
SK2
100
AcDbTrace
 10
-34.31569866666666
 20
-9.59999999999999
 30
0.0
 11
-33.48236533333333
 21
-9.59999999999999
 31
0.0
 12
-33.899032
 22
-12.09999999999999
 32
0.0
 13
-33.899032
 23
-12.09999999999999
 33
0.0
  0
MTEXT
  5
8EC
330
436
100
AcDbEntity
  8
SK2
100
AcDbMText
 10
-41.04188914285713
 20
0.0000000000000047
 30
0.0
 40
3.0
 41
0.0
 71
     5
 72
     1
  1
\A1;Ø24.2
  7
SANDVIK_STYLE
 73
     1
 44
1.0
1001
ACAD
1000
MTEXTBEGIN
1070
    73
1070
     1
1070
    44
1040
1.0
1070
    74
1070
     0
1000
MTEXTEND
  0
POINT
  5
8ED
330
436
100
AcDbEntity
  8
Defpoints
 62
     0
100
AcDbPoint
 10
-1.587499999999999
 20
12.1
 30
0.0
  0
POINT
  5
8EE
330
436
100
AcDbEntity
  8
Defpoints
 62
     0
100
AcDbPoint
 10
-1.587499999999999
 20
-12.1
 30
0.0
  0
POINT
  5
8EF
330
436
100
AcDbEntity
  8
Defpoints
 62
     0
100
AcDbPoint
 10
-33.899032
 20
-12.09999999999999
 30
0.0
  0
ENDBLK
  5
438
330
436
100
AcDbEntity
  8
0
100
AcDbBlockEnd
  0
BLOCK
  5
6C6
330
6C5
100
AcDbEntity
  8
0
100
AcDbBlockBegin
  2
*D5
 70
     1
 10
0.0
 20
0.0
 30
0.0
  3
*D5
  1

  0
LINE
  5
6C8
330
6C5
100
AcDbEntity
  8
2
370
    -2
100
AcDbLine
 10
54.76562616343548
 20
15.66518917407378
 30
0.0
 11
45.05134044914977
 21
15.66518917407379
 31
0.0
  0
LINE
  5
6C9
330
6C5
100
AcDbEntity
  8
2
370
    -2
100
AcDbLine
 10
45.05134044914977
 20
15.66518917407379
 30
0.0
 11
43.22835875210643
 21
13.83725520006448
 31
0.0
  0
MTEXT
  5
6CA
330
6C5
100
AcDbEntity
  8
2
100
AcDbMText
 10
50.40848330629263
 20
18.16518917407378
 30
0.0
 40
3.0
 41
0.0
 71
     5
 72
     1
  1
\A1;R1.5
  7
SANDVIK_STYLE
 73
     1
 44
1.0
1001
ACAD
1000
MTEXTBEGIN
1070
    73
1070
     1
1070
    44
1040
1.0
1070
    74
1070
     0
1000
MTEXTEND
  0
SOLID
  5
6CB
330
6C5
100
AcDbEntity
  8
2
100
AcDbTrace
 10
42.93333155072881
 20
14.13148310757564
 30
0.0
 11
43.52338595348405
 21
13.54302729255331
 31
0.0
 12
41.46299130703943
 22
12.06709199179874
 32
0.0
 13
41.46299130703943
 23
12.06709199179874
 33
0.0
  0
POINT
  5
6CC
330
6C5
100
AcDbEntity
  8
Defpoints
 62
     0
100
AcDbPoint
 10
41.46299130703943
 20
12.06709199179874
 30
0.0
  0
POINT
  5
6CD
330
6C5
100
AcDbEntity
  8
Defpoints
 62
     0
100
AcDbPoint
 10
40.40377083999922
 20
11.00499406683929
 30
0.0
  0
ENDBLK
  5
6C7
330
6C5
100
AcDbEntity
  8
0
100
AcDbBlockEnd
  0
BLOCK
  5
7AD
330
7AC
100
AcDbEntity
  8
0
100
AcDbBlockBegin
  2
*D6
 70
     1
 10
0.0
 20
0.0
 30
0.0
  3
*D6
  1

  0
LINE
  5
968
330
7AC
100
AcDbEntity
  8
2
370
    -2
100
AcDbLine
 10
59.9340966806001
 20
15.47597903850185
 30
0.0
 11
53.9340966806001
 21
15.47597903850185
 31
0.0
  0
LINE
  5
969
330
7AC
100
AcDbEntity
  8
2
370
    -2
100
AcDbLine
 10
53.9340966806001
 20
15.47597903850185
 30
0.0
 11
52.17326602324265
 21
13.70130290012895
 31
0.0
  0
MTEXT
  5
96A
330
7AC
100
AcDbEntity
  8
2
100
AcDbMText
 10
57.4340966806001
 20
17.97597903850185
 30
0.0
 40
3.0
 41
0.0
 71
     5
 72
     1
  1
\A1;R2
  7
SANDVIK_STYLE
 73
     1
 44
1.0
1001
ACAD
1000
MTEXTBEGIN
1070
    73
1070
     1
1070
    44
1040
1.0
1070
    74
1070
     0
1000
MTEXTEND
  0
SOLID
  5
96B
330
7AC
100
AcDbEntity
  8
2
100
AcDbTrace
 10
51.87748666684719
 20
13.99477467635519
 30
0.0
 11
52.46904537963814
 21
13.40783112390271
 31
0.0
 12
50.4124353658852
 22
11.92662676175605
 32
0.0
 13
50.4124353658852
 23
11.92662676175605
 33
0.0
  0
POINT
  5
96C
330
7AC
100
AcDbEntity
  8
Defpoints
 62
     0
100
AcDbPoint
 10
50.4124353658852
 20
11.92662676175605
 30
0.0
  0
POINT
  5
96D
330
7AC
100
AcDbEntity
  8
Defpoints
 62
     0
100
AcDbPoint
 10
49.00377083999924
 20
10.50688585105774
 30
0.0
  0
ENDBLK
  5
7AE
330
7AC
100
AcDbEntity
  8
0
100
AcDbBlockEnd
  0
BLOCK
  5
7F9
330
7F8
100
AcDbEntity
  8
0
100
AcDbBlockBegin
  2
*D7
 70
     1
 10
0.0
 20
0.0
 30
0.0
  3
*D7
  1

  0
LINE
  5
831
330
7F8
100
AcDbEntity
  8
2
370
    -2
100
AcDbLine
 10
41.90377083999925
 20
-10.501856396984
 30
0.0
 11
41.90377083999925
 21
-20.42625682746765
 31
0.0
  0
LINE
  5
832
330
7F8
100
AcDbEntity
  8
2
370
    -2
100
AcDbLine
 10
61.69998951740615
 20
-12.50169786990133
 30
0.0
 11
61.69998951740615
 21
-20.42625682746765
 31
0.0
  0
LINE
  5
833
330
7F8
100
AcDbEntity
  8
2
370
    -2
100
AcDbLine
 10
44.40377083999925
 20
-19.42625682746765
 30
0.0
 11
59.19998951740615
 21
-19.42625682746765
 31
0.0
  0
SOLID
  5
834
330
7F8
100
AcDbEntity
  8
2
100
AcDbTrace
 10
44.40377083999925
 20
-19.00959016080098
 30
0.0
 11
44.40377083999925
 21
-19.84292349413432
 31
0.0
 12
41.90377083999925
 22
-19.42625682746765
 32
0.0
 13
41.90377083999925
 23
-19.42625682746765
 33
0.0
  0
SOLID
  5
835
330
7F8
100
AcDbEntity
  8
2
100
AcDbTrace
 10
59.19998951740615
 20
-19.00959016080098
 30
0.0
 11
59.19998951740615
 21
-19.84292349413432
 31
0.0
 12
61.69998951740615
 22
-19.42625682746765
 32
0.0
 13
61.69998951740615
 23
-19.42625682746765
 33
0.0
  0
MTEXT
  5
836
330
7F8
100
AcDbEntity
  8
2
100
AcDbMText
 10
51.80188017870271
 20
-21.92625682746765
 30
0.0
 40
3.0
 41
0.0
 71
     5
 72
     1
  1
\A1;19.8
  7
SANDVIK_STYLE
 73
     1
 44
1.0
1001
ACAD
1000
MTEXTBEGIN
1070
    73
1070
     1
1070
    44
1040
1.0
1070
    74
1070
     0
1000
MTEXTEND
  0
POINT
  5
837
330
7F8
100
AcDbEntity
  8
Defpoints
 62
     0
100
AcDbPoint
 10
41.90377083999925
 20
-10.501856396984
 30
0.0
  0
POINT
  5
838
330
7F8
100
AcDbEntity
  8
Defpoints
 62
     0
100
AcDbPoint
 10
61.69998951740615
 20
-12.50169786990133
 30
0.0
  0
POINT
  5
839
330
7F8
100
AcDbEntity
  8
Defpoints
 62
     0
100
AcDbPoint
 10
61.69998951740615
 20
-19.42625682746765
 30
0.0
  0
ENDBLK
  5
7FA
330
7F8
100
AcDbEntity
  8
0
100
AcDbBlockEnd
  0
ENDSEC
  0
SECTION
  2
ENTITIES
  0
LINE
  5
36
330
151
100
AcDbEntity
  8
SK4
100
AcDbLine
 10
-28.145699
 20
0.0
 30
0.0
 11
0.0
 21
0.0
 31
0.0
  0
LINE
  5
37
330
151
100
AcDbEntity
  8
1
100
AcDbLine
 10
0.0
 20
12.1
 30
0.0
 11
0.0
 21
0.0
 31
0.0
  0
LINE
  5
38
330
151
100
AcDbEntity
  8
SK1
100
AcDbLine
 10
-4.5
 20
8.733959999999997
 30
0.0
 11
0.0
 21
8.906832000000003
 31
0.0
  0
LINE
  5
39
330
151
100
AcDbEntity
  8
SK1
100
AcDbLine
 10
-4.5
 20
8.733959999999997
 30
0.0
 11
-19.5
 21
7.157396
 31
0.0
  0
LINE
  5
3A
330
151
100
AcDbEntity
  8
1
100
AcDbLine
 10
0.0
 20
-12.1
 30
0.0
 11
0.0
 21
0.0
 31
0.0
  0
LINE
  5
3B
330
151
100
AcDbEntity
  8
SK1
100
AcDbLine
 10
-19.5
 20
4.599999999999996
 30
0.0
 11
-19.5
 21
0.0
 31
0.0
  0
LINE
  5
41
330
151
100
AcDbEntity
  8
1
100
AcDbLine
 10
11.42043837111861
 20
12.1
 30
0.0
 11
0.0
 21
12.1
 31
0.0
  0
LINE
  5
42
330
151
100
AcDbEntity
  8
1
100
AcDbLine
 10
11.42043837111861
 20
-12.1
 30
0.0
 11
0.0
 21
-12.1
 31
0.0
  0
LINE
  5
43
330
151
100
AcDbEntity
  8
SK1
100
AcDbLine
 10
-4.5
 20
8.733959999999997
 30
0.0
 11
-4.5
 21
0.0
 31
0.0
  0
LINE
  5
44
330
151
100
AcDbEntity
  8
SK1
100
AcDbLine
 10
-24.0
 20
5.099999999999996
 30
0.0
 11
-24.0
 21
0.0
 31
0.0
  0
LINE
  5
45
330
151
100
AcDbEntity
  8
SK1
100
AcDbLine
 10
-24.0
 20
5.099999999999996
 30
0.0
 11
-19.5
 21
5.099999999999996
 31
0.0
  0
LINE
  5
46
330
151
100
AcDbEntity
  8
SK1
100
AcDbLine
 10
-19.5
 20
7.157396
 30
0.0
 11
-19.5
 21
0.0
 31
0.0
  0
LINE
  5
47
330
151
100
AcDbEntity
  8
SK1
100
AcDbLine
 10
-19.5
 20
-7.157396
 30
0.0
 11
-19.5
 21
0.0
 31
0.0
  0
LINE
  5
48
330
151
100
AcDbEntity
  8
SK1
100
AcDbLine
 10
-24.0
 20
-5.099999999999996
 30
0.0
 11
-19.5
 21
-5.099999999999996
 31
0.0
  0
LINE
  5
49
330
151
100
AcDbEntity
  8
SK1
100
AcDbLine
 10
-24.0
 20
-5.099999999999996
 30
0.0
 11
-24.0
 21
0.0
 31
0.0
  0
LINE
  5
4A
330
151
100
AcDbEntity
  8
SK1
100
AcDbLine
 10
-4.5
 20
-8.733959999999997
 30
0.0
 11
-4.5
 21
0.0
 31
0.0
  0
LINE
  5
4B
330
151
100
AcDbEntity
  8
SK1
100
AcDbLine
 10
-19.5
 20
-4.599999999999996
 30
0.0
 11
-19.5
 21
0.0
 31
0.0
  0
LINE
  5
4C
330
151
100
AcDbEntity
  8
SK1
100
AcDbLine
 10
-4.5
 20
-8.733959999999997
 30
0.0
 11
-19.5
 21
-7.157396
 31
0.0
  0
LINE
  5
4D
330
151
100
AcDbEntity
  8
SK1
100
AcDbLine
 10
-4.5
 20
-8.733959999999997
 30
0.0
 11
0.0
 21
-8.906832000000003
 31
0.0
  0
LINE
  5
51
330
151
100
AcDbEntity
  8
80
100
AcDbLine
 10
0.0
 20
0.0
 30
0.0
 11
-2.5
 21
0.0
 31
0.0
  0
LINE
  5
52
330
151
100
AcDbEntity
  8
81
100
AcDbLine
 10
25.6
 20
0.0
 30
0.0
 11
28.1
 21
0.0
 31
0.0
  0
POINT
  5
54
330
151
100
AcDbEntity
  8
80
100
AcDbPoint
 10
0.0
 20
0.0
 30
0.0
  0
POINT
  5
55
330
151
100
AcDbEntity
  8
81
100
AcDbPoint
 10
25.6
 20
0.0
 30
0.0
  0
DIMENSION
  5
5F
330
151
100
AcDbEntity
  8
2
100
AcDbDimension
  2
*D3
 10
13.50377165236865
 20
28.145808
 30
0.0
 11
32.25377124618395
 21
30.645808
 31
0.0
 70
    32
 71
     5
 42
37.49999918763061
  3
SANDVIK_DIM
100
AcDbAlignedDimension
 13
51.00377083999926
 23
13.86671895053899
 33
0.0
 14
13.50377165236865
 24
13.6875
 34
0.0
100
AcDbRotatedDimension
1001
ACAD
1000
DSTYLE
1002
{
1070
    44
1040
2.5
1070
    74
1070
     1
1070
   147
1040
1.0
1070
   140
1040
3.0
1070
    41
1040
2.5
1070
    40
1040
1.0
1002
}
  0
DIMENSION
  5
60
330
151
100
AcDbEntity
  8
2
100
AcDbDimension
  2
*D2
 10
51.00377083999926
 20
41.29696
 30
0.0
 11
25.50188541999963
 21
43.79696
 31
0.0
 70
    32
 71
     5
 42
51.00377083999926
  3
SANDVIK_DIM
100
AcDbAlignedDimension
 13
0.0
 23
13.6875
 33
0.0
 14
51.00377083999926
 24
13.86671895053899
 34
0.0
100
AcDbRotatedDimension
1001
ACAD
1000
DSTYLE
1002
{
1070
    44
1040
2.5
1070
    74
1070
     1
1070
   147
1040
1.0
1070
   140
1040
3.0
1070
    41
1040
2.5
1070
    40
1040
1.0
1002
}
  0
DIMENSION
  5
61
330
151
100
AcDbEntity
  8
SK2
100
AcDbDimension
  2
*D4
 10
-33.899032
 20
-12.09999999999999
 30
0.0
 11
-41.04188914285713
 21
0.0000000000000047
 31
0.0
 70
    32
  1
Ø<>
 71
     5
 42
24.2
  3
SANDVIK_DIM
100
AcDbAlignedDimension
 13
-1.587499999999999
 23
12.1
 33
0.0
 14
-1.587499999999999
 24
-12.1
 34
0.0
 50
90.0
100
AcDbRotatedDimension
1001
ACAD
1000
DSTYLE
1002
{
1070
    44
1040
2.5
1070
    74
1070
     1
1070
   147
1040
1.0
1070
   140
1040
3.0
1070
    40
1040
1.0
1070
    41
1040
2.5
1002
}
  0
DIMENSION
  5
364
330
151
100
AcDbEntity
  8
2
100
AcDbDimension
  2
*D0
 10
70.79998951740617
 20
-12.50169786990132
 30
0.0
 11
75.79998951740616
 21
0.001602267058367
 31
0.0
 70
    32
  1
Ø<>
 71
     5
 42
25.00660027391942
  3
SANDVIK_DIM
100
AcDbAlignedDimension
 13
50.48040778890864
 23
12.50490240401809
 33
0.0
 14
51.51894961880359
 24
-12.50169786990132
 34
0.0
 50
90.0
100
AcDbRotatedDimension
1001
ACAD
1000
DSTYLE
1002
{
1070
    40
1040
1.0
1070
    44
1040
1.25
1070
   140
1040
3.0
1070
   271
1070
     1
1002
}
  0
TEXT
  5
3D9
330
151
100
AcDbEntity
  8
SK6
100
AcDbText
 10
-10.01826790861079
 20
-31.76963097146807
 30
0.0
 40
3.174999999999998
  1
316-25FL642-25020L  1745
 41
0.5541666666666672
  7
SANDVIK_STYLE
 72
     5
 11
29.19298209138922
 21
-31.76963097146807
 31
0.0
100
AcDbText
  0
LINE
  5
65B
330
151
100
AcDbEntity
  8
4
100
AcDbLine
 10
0.0
 20
0.0
 30
0.0
 11
57.3578268815001
 21
0.0
 31
0.0
  0
DIMENSION
  5
7AB
330
151
100
AcDbEntity
  8
2
100
AcDbDimension
  2
*D6
 10
49.00377083999924
 20
10.50688585105774
 30
0.0
 11
57.4340966806001
 21
17.97597903850185
 31
0.0
 70
    36
 71
     5
 42
1.999999999999992
  3
SANDVIK_DIM
100
AcDbRadialDimension
 15
50.4124353658852
 25
11.92662676175605
 35
0.0
 40
0.0
1001
ACAD_DSTYLE_DIMRADIAL_EXTENSION
1070
   387
1070
     1
1070
   388
1040
0.0
1070
   390
1040
1.720034207684349
1001
ACAD
1000
DSTYLE
1002
{
1070
   140
1040
3.0
1070
    40
1040
1.0
1070
   288
1070
     1
1002
}
  0
ARC
  5
A8B
330
151
100
AcDbEntity
  8
1
 62
     1
100
AcDbCircle
 10
47.14774784372361
 20
8.889750259921296
 30
0.0
 40
21.39001934029906
100
AcDbArc
 50
270.0612131837618
 51
275.4927923407465
  0
LINE
  5
A8D
330
151
100
AcDbEntity
  8
1
 62
     1
100
AcDbLine
 10
48.60659347128013
 20
-4.850254586327971
 30
0.0
 11
45.9616165607673
 21
-2.963626175221259
 31
0.0
  0
LINE
  5
A8E
330
151
100
AcDbEntity
  8
1
 62
     1
100
AcDbLine
 10
45.9616165607673
 20
-2.963626175221259
 30
0.0
 11
41.16949531295189
 21
0.7131063746712952
 31
0.0
  0
LINE
  5
A8F
330
151
100
AcDbEntity
  8
1
 62
     1
100
AcDbLine
 10
41.16949531295189
 20
0.7131063746712952
 30
0.0
 11
36.37734934945257
 21
4.327644162820138
 31
0.0
  0
LINE
  5
A90
330
151
100
AcDbEntity
  8
1
 62
     1
100
AcDbLine
 10
36.37734934945257
 20
4.327644162820138
 30
0.0
 11
33.98125195042168
 21
6.012082456807012
 31
0.0
  0
LINE
  5
A91
330
151
100
AcDbEntity
  8
1
 62
     1
100
AcDbLine
 10
33.98125195042168
 20
6.012082456807012
 30
0.0
 11
31.58517972659848
 21
7.564649511839764
 31
0.0
  0
LINE
  5
A92
330
151
100
AcDbEntity
  8
1
 62
     1
100
AcDbLine
 10
48.60377083999924
 20
-8.878806177508547
 30
0.0
 11
47.01995869591612
 21
-7.985014503849686
 31
0.0
  0
LINE
  5
A93
330
151
100
AcDbEntity
  8
1
 62
     1
100
AcDbLine
 10
47.01995869591612
 20
-7.985014503849686
 30
0.0
 11
45.15307612781203
 21
-6.823618927469967
 31
0.0
  0
LINE
  5
A94
330
151
100
AcDbEntity
  8
1
 62
     1
100
AcDbLine
 10
45.15307612781203
 20
-6.823618927469967
 30
0.0
 11
41.41922154657897
 21
-4.2447186671537
 31
0.0
  0
LINE
  5
A95
330
151
100
AcDbEntity
  8
1
 62
     1
100
AcDbLine
 10
41.41922154657897
 20
-4.2447186671537
 30
0.0
 11
35.8185441113541
 21
-0.0000000000001322
 31
0.0
  0
LINE
  5
A96
330
151
100
AcDbEntity
  8
1
 62
     1
100
AcDbLine
 10
13.50377083999925
 20
12.5
 30
0.0
 11
16.70014609790095
 21
12.5
 31
0.0
  0
LINE
  5
A97
330
151
100
AcDbEntity
  8
1
 62
     1
100
AcDbLine
 10
47.31877198213026
 20
10.04494163577852
 30
0.0
 11
45.60128431934455
 21
10.77725674919415
 31
0.0
  0
LINE
  5
A98
330
151
100
AcDbEntity
  8
1
 62
     1
100
AcDbLine
 10
45.60128431934455
 20
10.77725674919415
 30
0.0
 11
43.88376857860115
 21
11.38803698568149
 31
0.0
  0
LINE
  5
A99
330
151
100
AcDbEntity
  8
1
 62
     1
100
AcDbLine
 10
43.88376857860115
 20
11.38803698568149
 30
0.0
 11
43.02501847676498
 21
11.64563723624934
 31
0.0
  0
LINE
  5
A9A
330
151
100
AcDbEntity
  8
1
 62
     1
100
AcDbLine
 10
43.02501847676498
 20
11.64563723624934
 30
0.0
 11
42.16624603433802
 21
11.8703854899948
 31
0.0
  0
LINE
  5
A9B
330
151
100
AcDbEntity
  8
1
 62
     1
100
AcDbLine
 10
42.16624603433802
 20
11.8703854899948
 30
0.0
 11
41.30748732822389
 21
12.06163519541879
 31
0.0
  0
LINE
  5
A9C
330
151
100
AcDbEntity
  8
1
 62
     1
100
AcDbLine
 10
41.30748732822389
 20
12.06163519541879
 30
0.0
 11
40.44874247530096
 21
12.21885167668944
 31
0.0
  0
LINE
  5
A9D
330
151
100
AcDbEntity
  8
1
 62
     1
100
AcDbLine
 10
40.44874247530096
 20
12.21885167668944
 30
0.0
 11
39.58998719079198
 21
12.34159568602221
 31
0.0
  0
LINE
  5
A9E
330
151
100
AcDbEntity
  8
1
 62
     1
100
AcDbLine
 10
39.58998719079198
 20
12.34159568602221
 30
0.0
 11
38.73126712688558
 21
12.42951357517427
 31
0.0
  0
LINE
  5
A9F
330
151
100
AcDbEntity
  8
1
 62
     1
100
AcDbLine
 10
38.73126712688558
 20
12.42951357517427
 30
0.0
 11
37.87249280180454
 21
12.48236708271688
 31
0.0
  0
LINE
  5
AA0
330
151
100
AcDbEntity
  8
1
 62
     1
100
AcDbLine
 10
37.87249280180454
 20
12.48236708271688
 30
0.0
 11
37.01378039567064
 21
12.5
 31
0.0
  0
LINE
  5
AA1
330
151
100
AcDbEntity
  8
1
 62
     1
100
AcDbLine
 10
50.75377083999924
 20
4.082664976117466
 30
0.0
 11
48.25205793625396
 21
5.854991389766594
 31
0.0
  0
LINE
  5
AA2
330
151
100
AcDbEntity
  8
1
 62
     1
100
AcDbLine
 10
48.25205793625396
 20
5.854991389766594
 30
0.0
 11
45.75039305324469
 21
7.487337828901499
 31
0.0
  0
LINE
  5
AA3
330
151
100
AcDbEntity
  8
1
 62
     1
100
AcDbLine
 10
45.75039305324469
 20
7.487337828901499
 30
0.0
 11
43.24868187808163
 21
8.940746988929543
 31
0.0
  0
LINE
  5
AA4
330
151
100
AcDbEntity
  8
1
 62
     1
100
AcDbLine
 10
43.24868187808163
 20
8.940746988929543
 30
0.0
 11
41.99782647136331
 21
9.589290670323544
 31
0.0
  0
LINE
  5
AA5
330
151
100
AcDbEntity
  8
1
 62
     1
100
AcDbLine
 10
41.99782647136331
 20
9.589290670323544
 30
0.0
 11
40.74696951544339
 21
10.18044608623097
 31
0.0
  0
LINE
  5
AA6
330
151
100
AcDbEntity
  8
1
 62
     1
100
AcDbLine
 10
40.74696951544339
 20
10.18044608623097
 30
0.0
 11
39.49611410970753
 21
10.71067411010049
 31
0.0
  0
LINE
  5
AA7
330
151
100
AcDbEntity
  8
1
 62
     1
100
AcDbLine
 10
39.49611410970753
 20
10.71067411010049
 30
0.0
 11
38.24527545096465
 21
11.17679480620886
 31
0.0
  0
LINE
  5
AA8
330
151
100
AcDbEntity
  8
1
 62
     1
100
AcDbLine
 10
38.24527545096465
 20
11.17679480620886
 30
0.0
 11
36.99441308739917
 21
11.57603586506682
 31
0.0
  0
LINE
  5
AA9
330
151
100
AcDbEntity
  8
1
 62
     1
100
AcDbLine
 10
36.99441308739917
 20
11.57603586506682
 30
0.0
 11
35.74355131444536
 21
11.90599710242862
 31
0.0
  0
LINE
  5
AAA
330
151
100
AcDbEntity
  8
1
 62
     1
100
AcDbLine
 10
35.74355131444536
 20
11.90599710242862
 30
0.0
 11
34.49269036167608
 21
12.16470379896159
 31
0.0
  0
LINE
  5
AAB
330
151
100
AcDbEntity
  8
1
 62
     1
100
AcDbLine
 10
34.49269036167608
 20
12.16470379896159
 30
0.0
 11
33.24183030548654
 21
12.35060770076852
 31
0.0
  0
LINE
  5
AAC
330
151
100
AcDbEntity
  8
1
 62
     1
100
AcDbLine
 10
33.24183030548654
 20
12.35060770076852
 30
0.0
 11
31.99097156181677
 21
12.462596399322
 31
0.0
  0
LINE
  5
AAD
330
151
100
AcDbEntity
  8
1
 62
     1
100
AcDbLine
 10
31.99097156181677
 20
12.462596399322
 30
0.0
 11
30.74013519345189
 21
12.5
 31
0.0
  0
LINE
  5
AAE
330
151
100
AcDbEntity
  8
1
 62
     1
100
AcDbLine
 10
30.74013519345189
 20
12.5
 30
0.0
 11
29.86262086692807
 21
12.48158595517928
 31
0.0
  0
LINE
  5
AAF
330
151
100
AcDbEntity
  8
1
 62
     1
100
AcDbLine
 10
29.86262086692807
 20
12.48158595517928
 30
0.0
 11
28.98512613559814
 21
12.4264019833543
 31
0.0
  0
LINE
  5
AB0
330
151
100
AcDbEntity
  8
1
 62
     1
100
AcDbLine
 10
28.98512613559814
 20
12.4264019833543
 30
0.0
 11
28.10762959752587
 21
12.33461164996901
 31
0.0
  0
LINE
  5
AB1
330
151
100
AcDbEntity
  8
1
 62
     1
100
AcDbLine
 10
28.10762959752587
 20
12.33461164996901
 30
0.0
 11
27.2301114370591
 21
12.20648008932169
 31
0.0
  0
LINE
  5
AB2
330
151
100
AcDbEntity
  8
1
 62
     1
100
AcDbLine
 10
27.2301114370591
 20
12.20648008932169
 30
0.0
 11
26.3526018591799
 21
12.04238682599361
 31
0.0
  0
LINE
  5
AB3
330
151
100
AcDbEntity
  8
1
 62
     1
100
AcDbLine
 10
26.3526018591799
 20
12.04238682599361
 30
0.0
 11
25.47512738980151
 21
11.84282661162868
 31
0.0
  0
LINE
  5
AB4
330
151
100
AcDbEntity
  8
1
 62
     1
100
AcDbLine
 10
25.47512738980151
 20
11.84282661162868
 30
0.0
 11
24.59763665217487
 21
11.60837271215472
 31
0.0
  0
LINE
  5
AB5
330
151
100
AcDbEntity
  8
1
 62
     1
100
AcDbLine
 10
24.59763665217487
 20
11.60837271215472
 30
0.0
 11
23.72014170016531
 21
11.33972187349962
 31
0.0
  0
LINE
  5
AB6
330
151
100
AcDbEntity
  8
1
 62
     1
100
AcDbLine
 10
30.74013519345188
 20
12.5
 30
0.0
 11
37.01378039567064
 21
12.5
 31
0.0
  0
LINE
  5
AB7
330
151
100
AcDbEntity
  8
1
 62
     1
100
AcDbLine
 10
48.62460715650771
 20
12.47114480263528
 30
0.0
 11
46.59499862982982
 21
12.07926103752265
 31
0.0
  0
LINE
  5
AB9
330
151
100
AcDbEntity
  8
1
 62
     1
100
AcDbLine
 10
46.59499862982982
 20
12.07926103752265
 30
0.0
 11
45.75502751401026
 21
11.8846313233782
 31
0.0
  0
LINE
  5
ABA
330
151
100
AcDbEntity
  8
1
 62
     1
100
AcDbLine
 10
45.75502751401026
 20
11.8846313233782
 30
0.0
 11
44.91501970364553
 21
11.65807078850592
 31
0.0
  0
LINE
  5
ABB
330
151
100
AcDbEntity
  8
1
 62
     1
100
AcDbLine
 10
44.91501970364553
 20
11.65807078850592
 30
0.0
 11
43.95401170891553
 21
11.36305723456347
 31
0.0
  0
LINE
  5
ABC
330
151
100
AcDbEntity
  8
1
 62
     1
100
AcDbLine
 10
51.00377083999926
 20
10.50741495840489
 30
0.0
 11
51.00377083999925
 21
3.821476575651773
 31
0.0
  0
LINE
  5
ABD
330
151
100
AcDbEntity
  8
1
 62
     1
100
AcDbLine
 10
51.00377083999926
 20
2.363077792963173
 30
0.0
 11
51.00377083999928
 21
3.821476575651681
 31
0.0
  0
LINE
  5
ABE
330
151
100
AcDbEntity
  8
1
 62
     1
100
AcDbLine
 10
51.00377083999926
 20
-6.252699969361032
 30
0.0
 11
51.00377083999926
 21
2.363077792963173
 31
0.0
  0
LINE
  5
ABF
330
151
100
AcDbEntity
  8
1
 62
     1
100
AcDbLine
 10
51.00377083999926
 20
-6.252699969361034
 30
0.0
 11
51.00377083999926
 21
-10.41123491323677
 31
0.0
  0
LINE
  5
AC0
330
151
100
AcDbEntity
  8
1
 62
     1
100
AcDbLine
 10
51.00377083999926
 20
8.086287865082582
 30
0.0
 11
51.00377083999926
 21
9.5000065124289
 31
0.0
  0
LINE
  5
AC1
330
151
100
AcDbEntity
  8
1
 62
     1
100
AcDbLine
 10
51.00377083999926
 20
2.36307779296318
 30
0.0
 11
46.14912310294582
 21
4.386343088754998
 31
0.0
  0
LINE
  5
AC2
330
151
100
AcDbEntity
  8
1
 62
     1
100
AcDbLine
 10
46.14912310294582
 20
4.386343088754998
 30
0.0
 11
43.72179923441911
 21
5.26085340288991
 31
0.0
  0
LINE
  5
AC3
330
151
100
AcDbEntity
  8
1
 62
     1
100
AcDbLine
 10
43.72179923441911
 20
5.26085340288991
 30
0.0
 11
41.2944753658924
 21
6.016967814905525
 31
0.0
  0
LINE
  5
AC4
330
151
100
AcDbEntity
  8
1
 62
     1
100
AcDbLine
 10
41.2944753658924
 20
6.016967814905525
 30
0.0
 11
38.86715149736568
 21
6.63766999378849
 31
0.0
  0
LINE
  5
AC5
330
151
100
AcDbEntity
  8
1
 62
     1
100
AcDbLine
 10
38.86715149736568
 20
6.63766999378849
 30
0.0
 11
36.43982762883898
 21
7.108987010579258
 31
0.0
  0
LINE
  5
AC6
330
151
100
AcDbEntity
  8
1
 62
     1
100
AcDbLine
 10
36.43982762883898
 20
7.108987010579258
 30
0.0
 11
34.01250376031228
 21
7.420318612937027
 31
0.0
  0
LINE
  5
AC7
330
151
100
AcDbEntity
  8
1
 62
     1
100
AcDbLine
 10
34.01250376031228
 20
7.420318612937027
 30
0.0
 11
31.58517989178556
 21
7.564649780176912
 31
0.0
  0
LINE
  5
AC8
330
151
100
AcDbEntity
  8
1
 62
     1
100
AcDbLine
 10
51.00377083999926
 20
3.821476575651706
 30
0.0
 11
50.75377083999924
 21
4.082664976117466
 31
0.0
  0
LINE
  5
AC9
330
151
100
AcDbEntity
  8
1
 62
     1
100
AcDbLine
 10
20.58331733776931
 20
-12.49999999998081
 30
0.0
 11
19.23459942310542
 21
-12.45651724338729
 31
0.0
  0
LINE
  5
ACA
330
151
100
AcDbEntity
  8
1
 62
     1
100
AcDbLine
 10
19.23459942310542
 20
-12.45651724338729
 30
0.0
 11
17.88587307209267
 21
-12.32637049770613
 31
0.0
  0
LINE
  5
ACB
330
151
100
AcDbEntity
  8
1
 62
     1
100
AcDbLine
 10
17.88587307209267
 20
-12.32637049770613
 30
0.0
 11
16.53714116559774
 21
-12.11046462497897
 31
0.0
  0
LINE
  5
ACC
330
151
100
AcDbEntity
  8
1
 62
     1
100
AcDbLine
 10
16.53714116559774
 20
-12.11046462497897
 30
0.0
 11
15.18843337882002
 21
-11.81030993280309
 31
0.0
  0
LINE
  5
ACD
330
151
100
AcDbEntity
  8
1
 62
     1
100
AcDbLine
 10
15.18843337882002
 20
-11.81030993280309
 30
0.0
 11
13.83971546023228
 21
-11.42798541267272
 31
0.0
  0
LINE
  5
ACE
330
151
100
AcDbEntity
  8
1
 62
     1
100
AcDbLine
 10
13.83971546023228
 20
-11.42798541267272
 30
0.0
 11
13.50377165236853
 21
-11.30568836843454
 31
0.0
  0
LINE
  5
ACF
330
151
100
AcDbEntity
  8
1
 62
     1
100
AcDbLine
 10
26.856963311052
 20
-12.49999999999986
 30
0.0
 11
26.85541576741429
 21
-12.49999994271984
 31
0.0
  0
LINE
  5
AD0
330
151
100
AcDbEntity
  8
1
 62
     1
100
AcDbLine
 10
26.85541576741429
 20
-12.49999994271984
 30
0.0
 11
25.98503854651604
 21
-12.48181975342585
 31
0.0
  0
LINE
  5
AD1
330
151
100
AcDbEntity
  8
1
 62
     1
100
AcDbLine
 10
25.98503854651604
 20
-12.48181975342585
 30
0.0
 11
25.11468221221358
 21
-12.42746464991993
 31
0.0
  0
LINE
  5
AD2
330
151
100
AcDbEntity
  8
1
 62
     1
100
AcDbLine
 10
25.11468221221358
 20
-12.42746464991993
 30
0.0
 11
24.24432200652244
 21
-12.33709309649894
 31
0.0
  0
LINE
  5
AD3
330
151
100
AcDbEntity
  8
1
 62
     1
100
AcDbLine
 10
24.24432200652244
 20
-12.33709309649894
 30
0.0
 11
23.37394027148696
 21
-12.2109611037661
 31
0.0
  0
LINE
  5
AD4
330
151
100
AcDbEntity
  8
1
 62
     1
100
AcDbLine
 10
23.37394027148696
 20
-12.2109611037661
 30
0.0
 11
22.50357059307768
 21
-12.04943786656274
 31
0.0
  0
LINE
  5
AD5
330
151
100
AcDbEntity
  8
1
 62
     1
100
AcDbLine
 10
22.50357059307768
 20
-12.04943786656274
 30
0.0
 11
21.63321567402338
 21
-11.85299576889952
 31
0.0
  0
LINE
  5
AD6
330
151
100
AcDbEntity
  8
1
 62
     1
100
AcDbLine
 10
21.63321567402338
 20
-11.85299576889952
 30
0.0
 11
20.76285339284436
 21
-11.62220093357534
 31
0.0
  0
LINE
  5
AD7
330
151
100
AcDbEntity
  8
1
 62
     1
100
AcDbLine
 10
20.76285339284436
 20
-11.62220093357534
 30
0.0
 11
19.89252253775816
 21
-11.35772942432241
 31
0.0
  0
LINE
  5
AD8
330
151
100
AcDbEntity
  8
1
 62
     1
100
AcDbLine
 10
19.89252253775816
 20
-11.35772942432241
 30
0.0
 11
18.15177045361295
 21
-10.73086767892649
 31
0.0
  0
LINE
  5
AD9
330
151
100
AcDbEntity
  8
1
 62
     1
100
AcDbLine
 10
18.15177045361295
 20
-10.73086767892649
 30
0.0
 11
16.41105237961685
 21
-9.979704556483916
 31
0.0
  0
LINE
  5
ADA
330
151
100
AcDbEntity
  8
1
 62
     1
100
AcDbLine
 10
16.41105237961685
 20
-9.979704556483916
 30
0.0
 11
14.67030396583838
 21
-9.112913255455735
 31
0.0
  0
LINE
  5
ADB
330
151
100
AcDbEntity
  8
1
 62
     1
100
AcDbLine
 10
14.67030396583838
 20
-9.112913255455735
 30
0.0
 11
13.50377165236865
 21
-8.461301574958053
 31
0.0
  0
LINE
  5
ADC
330
151
100
AcDbEntity
  8
1
 62
     1
100
AcDbLine
 10
20.58331733776931
 20
-12.5
 30
0.0
 11
26.856963311052
 21
-12.5
 31
0.0
  0
LINE
  5
ADD
330
151
100
AcDbEntity
  8
1
 62
     1
100
AcDbLine
 10
40.89695302919972
 20
-12.49999999999713
 30
0.0
 11
40.1034448191995
 21
-12.48494146897303
 31
0.0
  0
LINE
  5
ADE
330
151
100
AcDbEntity
  8
1
 62
     1
100
AcDbLine
 10
40.1034448191995
 20
-12.48494146897303
 30
0.0
 11
39.30995940497715
 21
-12.43980946652942
 31
0.0
  0
LINE
  5
ADF
330
151
100
AcDbEntity
  8
1
 62
     1
100
AcDbLine
 10
39.30995940497715
 20
-12.43980946652942
 30
0.0
 11
38.51648029603829
 21
-12.36470886987911
 31
0.0
  0
LINE
  5
AE0
330
151
100
AcDbEntity
  8
1
 62
     1
100
AcDbLine
 10
38.51648029603829
 20
-12.36470886987911
 30
0.0
 11
37.72296018670765
 21
-12.25981786887832
 31
0.0
  0
LINE
  5
AE1
330
151
100
AcDbEntity
  8
1
 62
     1
100
AcDbLine
 10
37.72296018670765
 20
-12.25981786887832
 30
0.0
 11
36.92945029429715
 21
-12.1253900869441
 31
0.0
  0
LINE
  5
AE2
330
151
100
AcDbEntity
  8
1
 62
     1
100
AcDbLine
 10
36.92945029429715
 20
-12.1253900869441
 30
0.0
 11
36.1359569859208
 21
-11.96175588026881
 31
0.0
  0
LINE
  5
AE3
330
151
100
AcDbEntity
  8
1
 62
     1
100
AcDbLine
 10
36.1359569859208
 20
-11.96175588026881
 30
0.0
 11
34.54892699909326
 21
-11.54848843708125
 31
0.0
  0
LINE
  5
AE4
330
151
100
AcDbEntity
  8
1
 62
     1
100
AcDbLine
 10
34.54892699909326
 20
-11.54848843708125
 30
0.0
 11
32.96191532878758
 21
-11.02400714125688
 31
0.0
  0
LINE
  5
AE5
330
151
100
AcDbEntity
  8
1
 62
     1
100
AcDbLine
 10
32.96191532878758
 20
-11.02400714125688
 30
0.0
 11
31.37493286955822
 21
-10.39336756620703
 31
0.0
  0
LINE
  5
AE6
330
151
100
AcDbEntity
  8
1
 62
     1
100
AcDbLine
 10
31.37493286955822
 20
-10.39336756620703
 30
0.0
 11
29.78792292566451
 21
-9.662625569154174
 31
0.0
  0
LINE
  5
AE7
330
151
100
AcDbEntity
  8
1
 62
     1
100
AcDbLine
 10
29.78792292566451
 20
-9.662625569154174
 30
0.0
 11
28.20091692774161
 21
-8.838826472699185
 31
0.0
  0
LINE
  5
AE8
330
151
100
AcDbEntity
  8
1
 62
     1
100
AcDbLine
 10
28.20091692774161
 20
-8.838826472699185
 30
0.0
 11
26.61388715005768
 21
-7.929890976870048
 31
0.0
  0
LINE
  5
AE9
330
151
100
AcDbEntity
  8
1
 62
     1
100
AcDbLine
 10
26.61388715005768
 20
-7.929890976870048
 30
0.0
 11
23.4398717107593
 21
-5.892424174488867
 31
0.0
  0
LINE
  5
AEA
330
151
100
AcDbEntity
  8
1
 62
     1
100
AcDbLine
 10
23.4398717107593
 20
-5.892424174488867
 30
0.0
 11
20.26589165150011
 21
-3.628539903305187
 31
0.0
  0
LINE
  5
AEB
330
151
100
AcDbEntity
  8
1
 62
     1
100
AcDbLine
 10
20.26589165150011
 20
-3.628539903305187
 30
0.0
 11
15.50490839938975
 21
-0.0000000000020097
 31
0.0
  0
LINE
  5
AEC
330
151
100
AcDbEntity
  8
1
 62
     1
100
AcDbLine
 10
47.17060005417578
 20
-12.49999999999284
 30
0.0
 11
46.04874538691041
 21
-12.46990968077892
 31
0.0
  0
LINE
  5
AED
330
151
100
AcDbEntity
  8
1
 62
     1
100
AcDbLine
 10
46.04874538691041
 20
-12.46990968077892
 30
0.0
 11
44.92688992861226
 21
-12.37978442911158
 31
0.0
  0
LINE
  5
AEE
330
151
100
AcDbEntity
  8
1
 62
     1
100
AcDbLine
 10
44.92688992861226
 20
-12.37978442911158
 30
0.0
 11
43.80509260494815
 21
-12.23006684318303
 31
0.0
  0
LINE
  5
AEF
330
151
100
AcDbEntity
  8
1
 62
     1
100
AcDbLine
 10
43.80509260494815
 20
-12.23006684318303
 30
0.0
 11
42.68323849192698
 21
-12.02146259993287
 31
0.0
  0
LINE
  5
AF0
330
151
100
AcDbEntity
  8
1
 62
     1
100
AcDbLine
 10
42.68323849192698
 20
-12.02146259993287
 30
0.0
 11
41.56138113872684
 21
-11.75498230161779
 31
0.0
  0
LINE
  5
AF1
330
151
100
AcDbEntity
  8
1
 62
     1
100
AcDbLine
 10
41.56138113872684
 20
-11.75498230161779
 30
0.0
 11
40.43952512934489
 21
-11.43190733827071
 31
0.0
  0
LINE
  5
AF2
330
151
100
AcDbEntity
  8
1
 62
     1
100
AcDbLine
 10
40.43952512934489
 20
-11.43190733827071
 30
0.0
 11
39.31767031158805
 21
-11.05379477068899
 31
0.0
  0
LINE
  5
AF3
330
151
100
AcDbEntity
  8
1
 62
     1
100
AcDbLine
 10
39.31767031158805
 20
-11.05379477068899
 30
0.0
 11
38.19581534295312
 21
-10.62246618394282
 31
0.0
  0
LINE
  5
AF4
330
151
100
AcDbEntity
  8
1
 62
     1
100
AcDbLine
 10
38.19581534295312
 20
-10.62246618394282
 30
0.0
 11
37.07401843556361
 21
-10.14002083189305
 31
0.0
  0
LINE
  5
AF5
330
151
100
AcDbEntity
  8
1
 62
     1
100
AcDbLine
 10
37.07401843556361
 20
-10.14002083189305
 30
0.0
 11
34.83030812792538
 21
-9.031189398618296
 31
0.0
  0
LINE
  5
AF6
330
151
100
AcDbEntity
  8
1
 62
     1
100
AcDbLine
 10
34.83030812792538
 20
-9.031189398618296
 30
0.0
 11
32.58659727805504
 21
-7.748644199362606
 31
0.0
  0
LINE
  5
AF7
330
151
100
AcDbEntity
  8
1
 62
     1
100
AcDbLine
 10
32.58659727805504
 20
-7.748644199362606
 30
0.0
 11
30.3428907832519
 21
-6.317061616480846
 31
0.0
  0
LINE
  5
AF8
330
151
100
AcDbEntity
  8
1
 62
     1
100
AcDbLine
 10
30.3428907832519
 20
-6.317061616480846
 30
0.0
 11
25.85552625715371
 21
-3.119292328659758
 31
0.0
  0
LINE
  5
AF9
330
151
100
AcDbEntity
  8
1
 62
     1
100
AcDbLine
 10
25.85552625715371
 20
-3.119292328659758
 30
0.0
 11
21.368174099599
 21
0.3173000846929439
 31
0.0
  0
LINE
  5
AFA
330
151
100
AcDbEntity
  8
1
 62
     1
100
AcDbLine
 10
21.368174099599
 20
0.3173000846929439
 30
0.0
 11
16.88076498700177
 21
3.729642580834562
 31
0.0
  0
LINE
  5
AFB
330
151
100
AcDbEntity
  8
1
 62
     1
100
AcDbLine
 10
16.88076498700177
 20
3.729642580834562
 30
0.0
 11
14.07615470823702
 21
5.733218074765957
 31
0.0
  0
LINE
  5
AFC
330
151
100
AcDbEntity
  8
1
 62
     1
100
AcDbLine
 10
14.07615470823702
 20
5.733218074765957
 30
0.0
 11
13.50377165236865
 21
6.148873443791528
 31
0.0
  0
LINE
  5
AFD
330
151
100
AcDbEntity
  8
1
 62
     1
100
AcDbLine
 10
40.89695302919972
 20
-12.5
 30
0.0
 11
47.17060005417573
 21
-12.5
 31
0.0
  0
LINE
  5
AFE
330
151
100
AcDbEntity
  8
1
 62
     1
100
AcDbLine
 10
31.58517972659848
 20
7.564649511839764
 30
0.0
 11
29.72457790854384
 21
8.657450877838643
 31
0.0
  0
LINE
  5
AFF
330
151
100
AcDbEntity
  8
1
 62
     1
100
AcDbLine
 10
29.72457790854384
 20
8.657450877838643
 30
0.0
 11
27.86392843586282
 21
9.635709198100244
 31
0.0
  0
LINE
  5
B00
330
151
100
AcDbEntity
  8
1
 62
     1
100
AcDbLine
 10
27.86392843586282
 20
9.635709198100244
 30
0.0
 11
26.00328583074033
 21
10.48644340803254
 31
0.0
  0
LINE
  5
B01
330
151
100
AcDbEntity
  8
1
 62
     1
100
AcDbLine
 10
26.00328583074033
 20
10.48644340803254
 30
0.0
 11
24.14265543200276
 21
11.19839783122703
 31
0.0
  0
LINE
  5
B02
330
151
100
AcDbEntity
  8
1
 62
     1
100
AcDbLine
 10
24.14265543200276
 20
11.19839783122703
 30
0.0
 11
23.2123705588271
 21
11.49930405275959
 31
0.0
  0
LINE
  5
B03
330
151
100
AcDbEntity
  8
1
 62
     1
100
AcDbLine
 10
23.2123705588271
 20
11.49930405275959
 30
0.0
 11
22.28204316549415
 21
11.76214906366899
 31
0.0
  0
LINE
  5
B04
330
151
100
AcDbEntity
  8
1
 62
     1
100
AcDbLine
 10
22.28204316549415
 20
11.76214906366899
 30
0.0
 11
21.35170906915047
 21
11.98604571046382
 31
0.0
  0
LINE
  5
B05
330
151
100
AcDbEntity
  8
1
 62
     1
100
AcDbLine
 10
21.35170906915047
 20
11.98604571046382
 30
0.0
 11
20.42139323449935
 21
12.17024999593732
 31
0.0
  0
LINE
  5
B06
330
151
100
AcDbEntity
  8
1
 62
     1
100
AcDbLine
 10
20.42139323449935
 20
12.17024999593732
 30
0.0
 11
19.49108136901633
 21
12.31415574365005
 31
0.0
  0
LINE
  5
B07
330
151
100
AcDbEntity
  8
1
 62
     1
100
AcDbLine
 10
19.49108136901633
 20
12.31415574365005
 30
0.0
 11
18.5607656857257
 21
12.41728906807922
 31
0.0
  0
LINE
  5
B08
330
151
100
AcDbEntity
  8
1
 62
     1
100
AcDbLine
 10
18.5607656857257
 20
12.41728906807922
 30
0.0
 11
17.63043118960851
 21
12.47930618800806
 31
0.0
  0
LINE
  5
B09
330
151
100
AcDbEntity
  8
1
 62
     1
100
AcDbLine
 10
17.63043118960851
 20
12.47930618800806
 30
0.0
 11
16.70014609790097
 21
12.5
 31
0.0
  0
LINE
  5
B0A
330
151
100
AcDbEntity
  8
1
 62
     1
100
AcDbLine
 10
35.8185441113541
 20
-0.0000000000001322
 30
0.0
 11
29.47052405892316
 21
4.783548771612704
 31
0.0
  0
LINE
  5
B0B
330
151
100
AcDbEntity
  8
1
 62
     1
100
AcDbLine
 10
29.47052405892316
 20
4.783548771612704
 30
0.0
 11
26.29651392514997
 21
6.944635654363527
 31
0.0
  0
LINE
  5
B0C
330
151
100
AcDbEntity
  8
1
 62
     1
100
AcDbLine
 10
26.29651392514997
 20
6.944635654363527
 30
0.0
 11
24.70948716933455
 21
7.92993758082675
 31
0.0
  0
LINE
  5
B0D
330
151
100
AcDbEntity
  8
1
 62
     1
100
AcDbLine
 10
24.70948716933455
 20
7.92993758082675
 30
0.0
 11
23.12252608722944
 21
8.838831258890397
 31
0.0
  0
LINE
  5
B0E
330
151
100
AcDbEntity
  8
1
 62
     1
100
AcDbLine
 10
23.12252608722944
 20
8.838831258890397
 30
0.0
 11
21.53549970149772
 21
9.662639166279676
 31
0.0
  0
LINE
  5
B0F
330
151
100
AcDbEntity
  8
1
 62
     1
100
AcDbLine
 10
21.53549970149772
 20
9.662639166279676
 30
0.0
 11
19.94850101203877
 21
10.3933764891045
 31
0.0
  0
LINE
  5
B10
330
151
100
AcDbEntity
  8
1
 62
     1
100
AcDbLine
 10
19.94850101203877
 20
10.3933764891045
 30
0.0
 11
18.36148985952771
 21
11.0240230141123
 31
0.0
  0
LINE
  5
B11
330
151
100
AcDbEntity
  8
1
 62
     1
100
AcDbLine
 10
18.36148985952771
 20
11.0240230141123
 30
0.0
 11
16.7744642543844
 21
11.54850690916509
 31
0.0
  0
LINE
  5
B12
330
151
100
AcDbEntity
  8
1
 62
     1
100
AcDbLine
 10
16.7744642543844
 20
11.54850690916509
 30
0.0
 11
15.18746799270996
 21
11.96176297863708
 31
0.0
  0
LINE
  5
B13
330
151
100
AcDbEntity
  8
1
 62
     1
100
AcDbLine
 10
15.18746799270996
 20
11.96176297863708
 30
0.0
 11
14.39394690320708
 21
12.12540093993128
 31
0.0
  0
LINE
  5
B14
330
151
100
AcDbEntity
  8
1
 62
     1
100
AcDbLine
 10
14.39394690320708
 20
12.12540093993128
 30
0.0
 11
13.60047180275685
 21
12.25982073688494
 31
0.0
  0
LINE
  5
B15
330
151
100
AcDbEntity
  8
1
 62
     1
100
AcDbLine
 10
13.60047180275685
 20
12.25982073688494
 30
0.0
 11
13.50377083999925
 21
12.27260304677683
 31
0.0
  0
LINE
  5
B16
330
151
100
AcDbEntity
  8
1
 62
     1
100
AcDbLine
 10
35.81854411135419
 20
-0.0000000000000039
 30
0.0
 11
29.68179409657897
 21
2.807119254229195
 31
0.0
  0
LINE
  5
B17
330
151
100
AcDbEntity
  8
1
 62
     1
100
AcDbLine
 10
29.68179409657897
 20
2.807119254229195
 30
0.0
 11
26.61341908919136
 21
4.084172616433468
 31
0.0
  0
LINE
  5
B18
330
151
100
AcDbEntity
  8
1
 62
     1
100
AcDbLine
 10
26.61341908919136
 20
4.084172616433468
 30
0.0
 11
23.54504408180373
 21
5.214516310804102
 31
0.0
  0
LINE
  5
B19
330
151
100
AcDbEntity
  8
1
 62
     1
100
AcDbLine
 10
23.54504408180373
 20
5.214516310804102
 30
0.0
 11
20.47666907441612
 21
6.157544676823781
 31
0.0
  0
LINE
  5
B1A
330
151
100
AcDbEntity
  8
1
 62
     1
100
AcDbLine
 10
20.47666907441612
 20
6.157544676823781
 30
0.0
 11
18.94248157072231
 21
6.547931452943463
 31
0.0
  0
LINE
  5
B1B
330
151
100
AcDbEntity
  8
1
 62
     1
100
AcDbLine
 10
18.94248157072231
 20
6.547931452943463
 30
0.0
 11
17.40829406702849
 21
6.879382363838622
 31
0.0
  0
LINE
  5
B1C
330
151
100
AcDbEntity
  8
1
 62
     1
100
AcDbLine
 10
17.40829406702849
 20
6.879382363838622
 30
0.0
 11
15.8741065633347
 21
7.148914368909057
 31
0.0
  0
LINE
  5
B1D
330
151
100
AcDbEntity
  8
1
 62
     1
100
AcDbLine
 10
15.8741065633347
 20
7.148914368909057
 30
0.0
 11
14.33991905964088
 21
7.354101656946227
 31
0.0
  0
LINE
  5
B1E
330
151
100
AcDbEntity
  8
1
 62
     1
100
AcDbLine
 10
14.33991905964088
 20
7.354101656946227
 30
0.0
 11
13.50377165236864
 21
7.440207875141346
 31
0.0
  0
LINE
  5
B1F
330
151
100
AcDbEntity
  8
1
 62
     1
100
AcDbLine
 10
15.50490839938975
 20
-0.0000000000020097
 30
0.0
 11
13.50377165236858
 21
1.56003231467734
 31
0.0
  0
LINE
  5
B20
330
151
100
AcDbEntity
  8
1
 62
     1
100
AcDbLine
 10
15.50490839938983
 20
-0.0000000000011663
 30
0.0
 11
13.50377165236865
 21
0.9102855341301747
 31
0.0
  0
LINE
  5
B21
330
151
100
AcDbEntity
  8
1
 62
     1
100
AcDbLine
 10
13.58767444756096
 20
-11.3362323570873
 30
0.0
 11
13.50377083999925
 21
-11.37070465149922
 31
0.0
  0
LINE
  5
B22
330
151
100
AcDbEntity
  8
1
 62
     1
100
AcDbLine
 10
33.8769594051332
 20
-11.33972207128845
 30
0.0
 11
32.99945114170175
 21
-11.60837545979707
 31
0.0
  0
LINE
  5
B23
330
151
100
AcDbEntity
  8
1
 62
     1
100
AcDbLine
 10
32.99945114170175
 20
-11.60837545979707
 30
0.0
 11
32.12195631555052
 21
-11.84282906223823
 31
0.0
  0
LINE
  5
B24
330
151
100
AcDbEntity
  8
1
 62
     1
100
AcDbLine
 10
32.12195631555052
 20
-11.84282906223823
 30
0.0
 11
31.24445195330505
 21
-12.04239625640355
 31
0.0
  0
LINE
  5
B25
330
151
100
AcDbEntity
  8
1
 62
     1
100
AcDbLine
 10
31.24445195330505
 20
-12.04239625640355
 30
0.0
 11
30.36692956482525
 21
-12.20648948912293
 31
0.0
  0
LINE
  5
B26
330
151
100
AcDbEntity
  8
1
 62
     1
100
AcDbLine
 10
30.36692956482525
 20
-12.20648948912293
 30
0.0
 11
29.48942348290929
 21
-12.33461644938687
 31
0.0
  0
LINE
  5
B27
330
151
100
AcDbEntity
  8
1
 62
     1
100
AcDbLine
 10
29.48942348290929
 20
-12.33461644938687
 30
0.0
 11
28.61192883158419
 21
-12.42640589564267
 31
0.0
  0
LINE
  5
B28
330
151
100
AcDbEntity
  8
1
 62
     1
100
AcDbLine
 10
28.61192883158419
 20
-12.42640589564267
 30
0.0
 11
27.73442375041922
 21
-12.4815889894944
 31
0.0
  0
LINE
  5
B29
330
151
100
AcDbEntity
  8
1
 62
     1
100
AcDbLine
 10
27.73442375041922
 20
-12.4815889894944
 30
0.0
 11
26.856963311052
 21
-12.49999999999986
 31
0.0
  0
LINE
  5
B2A
330
151
100
AcDbEntity
  8
1
 62
     1
100
AcDbLine
 10
51.00377083999926
 20
-3.448363320201806
 30
0.0
 11
50.99926131473272
 21
-3.700255539385084
 31
0.0
  0
LINE
  5
B2B
330
151
100
AcDbEntity
  8
1
 62
     1
100
AcDbLine
 10
50.99926131473272
 20
-3.700255539385084
 30
0.0
 11
50.97714967800457
 21
-3.948677708100475
 31
0.0
  0
LINE
  5
B2C
330
151
100
AcDbEntity
  8
1
 62
     1
100
AcDbLine
 10
50.97714967800457
 20
-3.948677708100475
 30
0.0
 11
50.95963917178691
 21
-4.070964522226037
 31
0.0
  0
LINE
  5
B2D
330
151
100
AcDbEntity
  8
1
 62
     1
100
AcDbLine
 10
50.95963917178691
 20
-4.070964522226037
 30
0.0
 11
50.93737057053818
 21
-4.191540236644319
 31
0.0
  0
LINE
  5
B2E
330
151
100
AcDbEntity
  8
1
 62
     1
100
AcDbLine
 10
50.93737057053818
 20
-4.191540236644319
 30
0.0
 11
50.90997673898412
 21
-4.309977948821558
 31
0.0
  0
LINE
  5
B2F
330
151
100
AcDbEntity
  8
1
 62
     1
100
AcDbLine
 10
50.90997673898412
 20
-4.309977948821558
 30
0.0
 11
50.87706929618937
 21
-4.425776375996377
 31
0.0
  0
LINE
  5
B30
330
151
100
AcDbEntity
  8
1
 62
     1
100
AcDbLine
 10
50.87706929618937
 20
-4.425776375996377
 30
0.0
 11
50.83823806878019
 21
-4.5383739515623
 31
0.0
  0
LINE
  5
B31
330
151
100
AcDbEntity
  8
1
 62
     1
100
AcDbLine
 10
50.83823806878019
 20
-4.5383739515623
 30
0.0
 11
50.7931034878181
 21
-4.647026186563945
 31
0.0
  0
LINE
  5
B32
330
151
100
AcDbEntity
  8
1
 62
     1
100
AcDbLine
 10
50.7931034878181
 20
-4.647026186563945
 30
0.0
 11
50.76803921059759
 21
-4.699656390602251
 31
0.0
  0
LINE
  5
B33
330
151
100
AcDbEntity
  8
1
 62
     1
100
AcDbLine
 10
50.76803921059759
 20
-4.699656390602251
 30
0.0
 11
50.74126248493431
 21
-4.750993510469434
 31
0.0
  0
LINE
  5
B34
330
151
100
AcDbEntity
  8
1
 62
     1
100
AcDbLine
 10
50.74126248493431
 20
-4.750993510469434
 30
0.0
 11
50.71274672270796
 21
-4.800896146946391
 31
0.0
  0
LINE
  5
B35
330
151
100
AcDbEntity
  8
1
 62
     1
100
AcDbLine
 10
50.71274672270796
 20
-4.800896146946391
 30
0.0
 11
50.682441636653
 21
-4.849270945753993
 31
0.0
  0
LINE
  5
B36
330
151
100
AcDbEntity
  8
1
 62
     1
100
AcDbLine
 10
50.682441636653
 20
-4.849270945753993
 30
0.0
 11
50.6503296367491
 21
-4.895982675823358
 31
0.0
  0
LINE
  5
B37
330
151
100
AcDbEntity
  8
1
 62
     1
100
AcDbLine
 10
50.6503296367491
 20
-4.895982675823358
 30
0.0
 11
50.61639113538568
 21
-4.940896573743403
 31
0.0
  0
LINE
  5
B38
330
151
100
AcDbEntity
  8
1
 62
     1
100
AcDbLine
 10
50.61639113538568
 20
-4.940896573743403
 30
0.0
 11
50.58061236041027
 21
-4.983891243931148
 31
0.0
  0
LINE
  5
B39
330
151
100
AcDbEntity
  8
1
 62
     1
100
AcDbLine
 10
50.58061236041027
 20
-4.983891243931148
 30
0.0
 11
50.54301257397797
 21
-5.024808459959761
 31
0.0
  0
LINE
  5
B3A
330
151
100
AcDbEntity
  8
1
 62
     1
100
AcDbLine
 10
50.54301257397797
 20
-5.024808459959761
 30
0.0
 11
50.50358361682501
 21
-5.063541253808574
 31
0.0
  0
LINE
  5
B3B
330
151
100
AcDbEntity
  8
1
 62
     1
100
AcDbLine
 10
50.50358361682501
 20
-5.063541253808574
 30
0.0
 11
50.46238203369457
 21
-5.099935349634367
 31
0.0
  0
LINE
  5
B3C
330
151
100
AcDbEntity
  8
1
 62
     1
100
AcDbLine
 10
50.46238203369457
 20
-5.099935349634367
 30
0.0
 11
50.41942304846259
 21
-5.133885576533971
 31
0.0
  0
LINE
  5
B3D
330
151
100
AcDbEntity
  8
1
 62
     1
100
AcDbLine
 10
50.41942304846259
 20
-5.133885576533971
 30
0.0
 11
50.37478068298717
 21
-5.165273347910638
 31
0.0
  0
LINE
  5
B3E
330
151
100
AcDbEntity
  8
1
 62
     1
100
AcDbLine
 10
50.37478068298717
 20
-5.165273347910638
 30
0.0
 11
50.3285224402996
 21
-5.193989758768521
 31
0.0
  0
LINE
  5
B3F
330
151
100
AcDbEntity
  8
1
 62
     1
100
AcDbLine
 10
50.3285224402996
 20
-5.193989758768521
 30
0.0
 11
50.28071498079526
 21
-5.219966764611887
 31
0.0
  0
LINE
  5
B40
330
151
100
AcDbEntity
  8
1
 62
     1
100
AcDbLine
 10
50.28071498079526
 20
-5.219966764611887
 30
0.0
 11
50.23148104083482
 21
-5.24311359250582
 31
0.0
  0
LINE
  5
B41
330
151
100
AcDbEntity
  8
1
 62
     1
100
AcDbLine
 10
50.23148104083482
 20
-5.24311359250582
 30
0.0
 11
50.18088377869601
 21
-5.263398843281704
 31
0.0
  0
LINE
  5
B42
330
151
100
AcDbEntity
  8
1
 62
     1
100
AcDbLine
 10
50.18088377869601
 20
-5.263398843281704
 30
0.0
 11
50.12907265504777
 21
-5.280776734876829
 31
0.0
  0
LINE
  5
B43
330
151
100
AcDbEntity
  8
1
 62
     1
100
AcDbLine
 10
50.12907265504777
 20
-5.280776734876829
 30
0.0
 11
50.07612939381488
 21
-5.295239092326117
 31
0.0
  0
LINE
  5
B44
330
151
100
AcDbEntity
  8
1
 62
     1
100
AcDbLine
 10
50.07612939381488
 20
-5.295239092326117
 30
0.0
 11
50.02218924014847
 21
-5.306793358466205
 31
0.0
  0
LINE
  5
B45
330
151
100
AcDbEntity
  8
1
 62
     1
100
AcDbLine
 10
50.02218924014847
 20
-5.306793358466205
 30
0.0
 11
49.96737383051106
 21
-5.315453960744488
 31
0.0
  0
LINE
  5
B46
330
151
100
AcDbEntity
  8
1
 62
     1
100
AcDbLine
 10
49.96737383051106
 20
-5.315453960744488
 30
0.0
 11
49.91177854442387
 21
-5.321268529296181
 31
0.0
  0
LINE
  5
B47
330
151
100
AcDbEntity
  8
1
 62
     1
100
AcDbLine
 10
49.91177854442387
 20
-5.321268529296181
 30
0.0
 11
49.85555023522082
 21
-5.324282317744538
 31
0.0
  0
LINE
  5
B48
330
151
100
AcDbEntity
  8
1
 62
     1
100
AcDbLine
 10
49.85555023522082
 20
-5.324282317744538
 30
0.0
 11
49.7987594844324
 21
-5.324562535686623
 31
0.0
  0
LINE
  5
B49
330
151
100
AcDbEntity
  8
1
 62
     1
100
AcDbLine
 10
49.7987594844324
 20
-5.324562535686623
 30
0.0
 11
49.7415442718346
 21
-5.322183789019027
 31
0.0
  0
LINE
  5
B4A
330
151
100
AcDbEntity
  8
1
 62
     1
100
AcDbLine
 10
49.7415442718346
 20
-5.322183789019027
 30
0.0
 11
49.68397484063789
 21
-5.317224009966428
 31
0.0
  0
LINE
  5
B4B
330
151
100
AcDbEntity
  8
1
 62
     1
100
AcDbLine
 10
49.68397484063789
 20
-5.317224009966428
 30
0.0
 11
49.62615344530472
 21
-5.309774079941893
 31
0.0
  0
LINE
  5
B4C
330
151
100
AcDbEntity
  8
1
 62
     1
100
AcDbLine
 10
49.62615344530472
 20
-5.309774079941893
 30
0.0
 11
49.56816575921743
 21
-5.299922621233351
 31
0.0
  0
LINE
  5
B4D
330
151
100
AcDbEntity
  8
1
 62
     1
100
AcDbLine
 10
49.56816575921743
 20
-5.299922621233351
 30
0.0
 11
49.51007093863204
 21
-5.287762046445973
 31
0.0
  0
LINE
  5
B4E
330
151
100
AcDbEntity
  8
1
 62
     1
100
AcDbLine
 10
49.51007093863204
 20
-5.287762046445973
 30
0.0
 11
49.45196072082268
 21
-5.273389987930523
 31
0.0
  0
LINE
  5
B4F
330
151
100
AcDbEntity
  8
1
 62
     1
100
AcDbLine
 10
49.45196072082268
 20
-5.273389987930523
 30
0.0
 11
49.33587718435185
 21
-5.238372770007386
 31
0.0
  0
LINE
  5
B50
330
151
100
AcDbEntity
  8
1
 62
     1
100
AcDbLine
 10
49.33587718435185
 20
-5.238372770007386
 30
0.0
 11
49.22029544497378
 21
-5.19558426393969
 31
0.0
  0
LINE
  5
B51
330
151
100
AcDbEntity
  8
1
 62
     1
100
AcDbLine
 10
49.22029544497378
 20
-5.19558426393969
 30
0.0
 11
49.10561440481623
 21
-5.145741066758014
 31
0.0
  0
LINE
  5
B52
330
151
100
AcDbEntity
  8
1
 62
     1
100
AcDbLine
 10
49.10561440481623
 20
-5.145741066758014
 30
0.0
 11
48.99204413412322
 21
-5.089460997121186
 31
0.0
  0
LINE
  5
B53
330
151
100
AcDbEntity
  8
1
 62
     1
100
AcDbLine
 10
48.99204413412322
 20
-5.089460997121186
 30
0.0
 11
48.87984223782703
 21
-5.027358914732516
 31
0.0
  0
LINE
  5
B54
330
151
100
AcDbEntity
  8
1
 62
     1
100
AcDbLine
 10
48.87984223782703
 20
-5.027358914732516
 30
0.0
 11
48.76912374880728
 21
-4.959944458357432
 31
0.0
  0
LINE
  5
B55
330
151
100
AcDbEntity
  8
1
 62
     1
100
AcDbLine
 10
48.76886925304014
 20
-4.959789500554587
 30
0.0
 11
48.60589962488486
 21
-4.849786245306495
 31
0.0
  0
LINE
  5
B56
330
151
100
AcDbEntity
  8
1
 62
     1
100
AcDbLine
 10
51.00377083999926
 20
-8.150926869714217
 30
0.0
 11
51.0028487657269
 21
-8.20418997323569
 31
0.0
  0
LINE
  5
B57
330
151
100
AcDbEntity
  8
1
 62
     1
100
AcDbLine
 10
51.0028487657269
 20
-8.20418997323569
 30
0.0
 11
51.00008812737758
 21
-8.256732402394858
 31
0.0
  0
LINE
  5
B58
330
151
100
AcDbEntity
  8
1
 62
     1
100
AcDbLine
 10
51.00008812737758
 20
-8.256732402394858
 30
0.0
 11
50.99549730165322
 21
-8.308456474314038
 31
0.0
  0
LINE
  5
B59
330
151
100
AcDbEntity
  8
1
 62
     1
100
AcDbLine
 10
50.99549730165322
 20
-8.308456474314038
 30
0.0
 11
50.98908381295096
 21
-8.359272477796125
 31
0.0
  0
LINE
  5
B5A
330
151
100
AcDbEntity
  8
1
 62
     1
100
AcDbLine
 10
50.98908381295096
 20
-8.359272477796125
 30
0.0
 11
50.98085376698348
 21
-8.409158357006031
 31
0.0
  0
LINE
  5
B5B
330
151
100
AcDbEntity
  8
1
 62
     1
100
AcDbLine
 10
50.98085376698348
 20
-8.409158357006031
 30
0.0
 11
50.9708295936096
 21
-8.458041177092415
 31
0.0
  0
LINE
  5
B5C
330
151
100
AcDbEntity
  8
1
 62
     1
100
AcDbLine
 10
50.9708295936096
 20
-8.458041177092415
 30
0.0
 11
50.95903662628835
 21
-8.505830757311612
 31
0.0
  0
LINE
  5
B5D
330
151
100
AcDbEntity
  8
1
 62
     1
100
AcDbLine
 10
50.95903662628835
 20
-8.505830757311612
 30
0.0
 11
50.9454934333791
 21
-8.552467862656337
 31
0.0
  0
LINE
  5
B5E
330
151
100
AcDbEntity
  8
1
 62
     1
100
AcDbLine
 10
50.9454934333791
 20
-8.552467862656337
 30
0.0
 11
50.93022021482395
 21
-8.597931529400224
 31
0.0
  0
LINE
  5
B5F
330
151
100
AcDbEntity
  8
1
 62
     1
100
AcDbLine
 10
50.93022021482395
 20
-8.597931529400224
 30
0.0
 11
50.91325729467303
 21
-8.642146407317992
 31
0.0
  0
LINE
  5
B60
330
151
100
AcDbEntity
  8
1
 62
     1
100
AcDbLine
 10
50.91325729467303
 20
-8.642146407317992
 30
0.0
 11
50.8946446351765
 21
-8.685037477602397
 31
0.0
  0
LINE
  5
B61
330
151
100
AcDbEntity
  8
1
 62
     1
100
AcDbLine
 10
50.8946446351765
 20
-8.685037477602397
 30
0.0
 11
50.87440276308569
 21
-8.72658727091586
 31
0.0
  0
LINE
  5
B62
330
151
100
AcDbEntity
  8
1
 62
     1
100
AcDbLine
 10
50.87440276308569
 20
-8.72658727091586
 30
0.0
 11
50.85257273408526
 21
-8.766759163897667
 31
0.0
  0
LINE
  5
B63
330
151
100
AcDbEntity
  8
1
 62
     1
100
AcDbLine
 10
50.85257273408526
 20
-8.766759163897667
 30
0.0
 11
50.82920735857239
 21
-8.805493198442814
 31
0.0
  0
LINE
  5
B64
330
151
100
AcDbEntity
  8
1
 62
     1
100
AcDbLine
 10
50.82920735857239
 20
-8.805493198442814
 30
0.0
 11
50.80435089605501
 21
-8.842744106137445
 31
0.0
  0
LINE
  5
B65
330
151
100
AcDbEntity
  8
1
 62
     1
100
AcDbLine
 10
50.80435089605501
 20
-8.842744106137445
 30
0.0
 11
50.77802855020159
 21
-8.878513287530251
 31
0.0
  0
LINE
  5
B66
330
151
100
AcDbEntity
  8
1
 62
     1
100
AcDbLine
 10
50.77802855020159
 20
-8.878513287530251
 30
0.0
 11
50.75029760964586
 21
-8.912763634873851
 31
0.0
  0
LINE
  5
B67
330
151
100
AcDbEntity
  8
1
 62
     1
100
AcDbLine
 10
50.75029760964586
 20
-8.912763634873851
 30
0.0
 11
50.72121824965821
 21
-8.945453724595894
 31
0.0
  0
LINE
  5
B68
330
151
100
AcDbEntity
  8
1
 62
     1
100
AcDbLine
 10
50.72121824965821
 20
-8.945453724595894
 30
0.0
 11
50.69082390173921
 21
-8.97657608461156
 31
0.0
  0
LINE
  5
B69
330
151
100
AcDbEntity
  8
1
 62
     1
100
AcDbLine
 10
50.69082390173921
 20
-8.97657608461156
 30
0.0
 11
50.65915522383832
 21
-9.006128870150636
 31
0.0
  0
LINE
  5
B6A
330
151
100
AcDbEntity
  8
1
 62
     1
100
AcDbLine
 10
50.65915522383832
 20
-9.006128870150636
 30
0.0
 11
50.62627530516932
 21
-9.034088053601866
 31
0.0
  0
LINE
  5
B6B
330
151
100
AcDbEntity
  8
1
 62
     1
100
AcDbLine
 10
50.62627530516932
 20
-9.034088053601866
 30
0.0
 11
50.59224115846539
 21
-9.060434757021877
 31
0.0
  0
LINE
  5
B6C
330
151
100
AcDbEntity
  8
1
 62
     1
100
AcDbLine
 10
50.59224115846539
 20
-9.060434757021877
 30
0.0
 11
50.55707608255104
 21
-9.085183819972801
 31
0.0
  0
LINE
  5
B6D
330
151
100
AcDbEntity
  8
1
 62
     1
100
AcDbLine
 10
50.55707608255104
 20
-9.085183819972801
 30
0.0
 11
50.52083514508407
 21
-9.108331463156098
 31
0.0
  0
LINE
  5
B6E
330
151
100
AcDbEntity
  8
1
 62
     1
100
AcDbLine
 10
50.52083514508407
 20
-9.108331463156098
 30
0.0
 11
50.48358046525224
 21
-9.129868564412422
 31
0.0
  0
LINE
  5
B6F
330
151
100
AcDbEntity
  8
1
 62
     1
100
AcDbLine
 10
50.48358046525224
 20
-9.129868564412422
 30
0.0
 11
50.44535178368144
 21
-9.149799939567063
 31
0.0
  0
LINE
  5
B70
330
151
100
AcDbEntity
  8
1
 62
     1
100
AcDbLine
 10
50.44535178368144
 20
-9.149799939567063
 30
0.0
 11
50.4061774131983
 21
-9.168143221555251
 31
0.0
  0
LINE
  5
B71
330
151
100
AcDbEntity
  8
1
 62
     1
100
AcDbLine
 10
50.4061774131983
 20
-9.168143221555251
 30
0.0
 11
50.36611566902696
 21
-9.18490103404896
 31
0.0
  0
LINE
  5
B72
330
151
100
AcDbEntity
  8
1
 62
     1
100
AcDbLine
 10
50.36611566902696
 20
-9.18490103404896
 30
0.0
 11
50.32522205061426
 21
-9.200077082838726
 31
0.0
  0
LINE
  5
B73
330
151
100
AcDbEntity
  8
1
 62
     1
100
AcDbLine
 10
50.32522205061426
 20
-9.200077082838726
 30
0.0
 11
50.2835153813401
 21
-9.213691556176382
 31
0.0
  0
LINE
  5
B74
330
151
100
AcDbEntity
  8
1
 62
     1
100
AcDbLine
 10
50.2835153813401
 20
-9.213691556176382
 30
0.0
 11
50.24103803446688
 21
-9.225759286490823
 31
0.0
  0
LINE
  5
B75
330
151
100
AcDbEntity
  8
1
 62
     1
100
AcDbLine
 10
50.24103803446688
 20
-9.225759286490823
 30
0.0
 11
50.19784353494038
 21
-9.236291137548723
 31
0.0
  0
LINE
  5
B76
330
151
100
AcDbEntity
  8
1
 62
     1
100
AcDbLine
 10
50.19784353494038
 20
-9.236291137548723
 30
0.0
 11
50.15396997304417
 21
-9.245301873316119
 31
0.0
  0
LINE
  5
B77
330
151
100
AcDbEntity
  8
1
 62
     1
100
AcDbLine
 10
50.15396997304417
 20
-9.245301873316119
 30
0.0
 11
50.0642796947917
 21
-9.258844510721496
 31
0.0
  0
LINE
  5
B78
330
151
100
AcDbEntity
  8
1
 62
     1
100
AcDbLine
 10
50.0642796947917
 20
-9.258844510721496
 30
0.0
 11
49.97227875350592
 21
-9.266530284355193
 31
0.0
  0
LINE
  5
B79
330
151
100
AcDbEntity
  8
1
 62
     1
100
AcDbLine
 10
49.97227875350592
 20
-9.266530284355193
 30
0.0
 11
49.87818542110098
 21
-9.268520842389966
 31
0.0
  0
LINE
  5
B7A
330
151
100
AcDbEntity
  8
1
 62
     1
100
AcDbLine
 10
49.87818542110098
 20
-9.268520842389966
 30
0.0
 11
49.78226156066392
 21
-9.264976912057797
 31
0.0
  0
LINE
  5
B7B
330
151
100
AcDbEntity
  8
1
 62
     1
100
AcDbLine
 10
49.78226156066392
 20
-9.264976912057797
 30
0.0
 11
49.68470353070784
 21
-9.256066824159633
 31
0.0
  0
LINE
  5
B7C
330
151
100
AcDbEntity
  8
1
 62
     1
100
AcDbLine
 10
49.68470353070784
 20
-9.256066824159633
 30
0.0
 11
49.58571217360781
 21
-9.241955120275395
 31
0.0
  0
LINE
  5
B7D
330
151
100
AcDbEntity
  8
1
 62
     1
100
AcDbLine
 10
49.58571217360781
 20
-9.241955120275395
 30
0.0
 11
49.48547798202636
 21
-9.222811053567667
 31
0.0
  0
LINE
  5
B7E
330
151
100
AcDbEntity
  8
1
 62
     1
100
AcDbLine
 10
49.48547798202636
 20
-9.222811053567667
 30
0.0
 11
49.38414883435966
 21
-9.198792595844702
 31
0.0
  0
LINE
  5
B7F
330
151
100
AcDbEntity
  8
1
 62
     1
100
AcDbLine
 10
49.38414883435966
 20
-9.198792595844702
 30
0.0
 11
49.28190202965437
 21
-9.170065193961416
 31
0.0
  0
LINE
  5
B80
330
151
100
AcDbEntity
  8
1
 62
     1
100
AcDbLine
 10
49.28190202965437
 20
-9.170065193961416
 30
0.0
 11
49.17882595019692
 21
-9.136766483708152
 31
0.0
  0
LINE
  5
B81
330
151
100
AcDbEntity
  8
1
 62
     1
100
AcDbLine
 10
49.17882595019692
 20
-9.136766483708152
 30
0.0
 11
49.07511341585625
 21
-9.099067916969872
 31
0.0
  0
LINE
  5
B82
330
151
100
AcDbEntity
  8
1
 62
     1
100
AcDbLine
 10
49.07511341585625
 20
-9.099067916969872
 30
0.0
 11
48.86625806183116
 21
-9.011040427381439
 31
0.0
  0
LINE
  5
B83
330
151
100
AcDbEntity
  8
1
 62
     1
100
AcDbLine
 10
48.86625806183116
 20
-9.011040427381439
 30
0.0
 11
48.73511920126829
 21
-8.947893345692293
 31
0.0
  0
LINE
  5
B84
330
151
100
AcDbEntity
  8
1
 62
     1
100
AcDbLine
 10
48.73511920126829
 20
-8.947893345692293
 30
0.0
 11
48.60377083999924
 21
-8.878806177508547
 31
0.0
  0
ARC
  5
B85
330
151
100
AcDbEntity
  8
1
 62
     1
100
AcDbCircle
 10
41.4033424403899
 20
-1.788538670188918
 30
0.0
 40
13.22964711604258
100
AcDbArc
 50
43.47494451108611
 51
63.44002566034031
  0
ARC
  5
B86
330
151
100
AcDbEntity
  8
1
 62
     1
100
AcDbCircle
 10
49.00377083999924
 20
-10.41123491323677
 30
0.0
 40
2.0
100
AcDbArc
 50
275.4927923407464
 51
0.0
  0
ARC
  5
B89
330
151
100
AcDbEntity
  8
1
 62
     1
100
AcDbCircle
 10
49.00377083999924
 20
10.50741495840489
 30
0.0
 40
2.0
100
AcDbArc
 50
359.9999999999998
 51
100.9283819736242
  0
LINE
  5
BBE
330
151
100
AcDbEntity
  8
1
100
AcDbLine
 10
13.50377165236865
 20
12.5
 30
0.0
 11
13.50377165236865
 21
11.4603567570314
 31
0.0
  0
LINE
  5
BBF
330
151
100
AcDbEntity
  8
1
100
AcDbLine
 10
13.50377165236865
 20
3.587895607606412
 30
0.0
 11
13.50377165236865
 21
6.94630331123087
 31
0.0
  0
LINE
  5
BC0
330
151
100
AcDbEntity
  8
1
100
AcDbLine
 10
13.50377165236865
 20
-10.27786265647652
 30
0.0
 11
13.50377165236865
 21
-1.210376361400242
 31
0.0
  0
LINE
  5
BC1
330
151
100
AcDbEntity
  8
1
100
AcDbLine
 10
13.50377165236865
 20
3.587895607606412
 30
0.0
 11
13.50377165236865
 21
-1.210375620120649
 31
0.0
  0
LINE
  5
BC2
330
151
100
AcDbEntity
  8
1
 62
     1
100
AcDbLine
 10
13.50377165236865
 20
3.587895607606412
 30
0.0
 11
13.50377165236865
 21
-1.210375620120649
 31
0.0
  0
LINE
  5
BC3
330
151
100
AcDbEntity
  8
1
100
AcDbLine
 10
13.50377165236865
 20
3.587895607606412
 30
0.0
 11
13.50377165236865
 21
-1.210375620120649
 31
0.0
  0
LINE
  5
BC4
330
151
100
AcDbEntity
  8
1
100
AcDbLine
 10
13.50377165236865
 20
6.94630331123087
 30
0.0
 11
13.50377165236865
 21
11.46034911403336
 31
0.0
  0
LINE
  5
BC5
330
151
100
AcDbEntity
  8
1
100
AcDbLine
 10
13.50377165236865
 20
-10.27786265647652
 30
0.0
 11
13.50377165236865
 21
-11.37070440278773
 31
0.0
  0
LINE
  5
BC6
330
151
100
AcDbEntity
  8
1
 62
     1
100
AcDbLine
 10
13.50377165236865
 20
6.94630331123087
 30
0.0
 11
13.50377165236865
 21
11.46034911403336
 31
0.0
  0
LINE
  5
BC7
330
151
100
AcDbEntity
  8
1
 62
     1
100
AcDbLine
 10
13.50377165236865
 20
-10.27786265647652
 30
0.0
 11
13.50377165236865
 21
-11.37070440278773
 31
0.0
  0
LINE
  5
BC8
330
151
100
AcDbEntity
  8
1
 62
     4
100
AcDbLine
 10
13.50377165236865
 20
-11.37070440278773
 30
0.0
 11
11.42043837111861
 21
-12.1
 31
0.0
  0
ARC
  5
BC9
330
151
100
AcDbEntity
  8
1
100
AcDbCircle
 10
22.16340760980677
 20
12.19509706126968
 30
0.0
 40
25.00946475052178
100
AcDbArc
 50
244.5606047813473
 51
247.0721074070027
  0
ARC
  5
BCA
330
151
100
AcDbEntity
  8
1
100
AcDbCircle
 10
-58.24361368167604
 20
-130.9329732479286
 30
0.0
 40
141.9731430134086
100
AcDbArc
 50
60.15018057458224
 51
60.61440376881424
  0
LINE
  5
BCB
330
151
100
AcDbEntity
  8
1
100
AcDbLine
 10
11.42045841147924
 20
3.167260074083444
 30
0.0
 11
11.93221635483588
 21
2.791242935362099
 31
0.0
  0
LINE
  5
BCC
330
151
100
AcDbEntity
  8
1
100
AcDbLine
 10
11.42043837111861
 20
7.598678764939847
 30
0.0
 11
12.40013089140951
 21
6.930674368915624
 31
0.0
  0
LINE
  5
BCD
330
151
100
AcDbEntity
  8
1
100
AcDbLine
 10
12.40013089140951
 20
6.930674368916406
 30
0.0
 11
12.42045838647924
 21
2.432503248509739
 31
0.0
  0
ARC
  5
BCE
330
151
100
AcDbEntity
  8
1
100
AcDbCircle
 10
2.56618273207568
 20
-10.91047178468452
 30
0.0
 40
16.58747490974786
100
AcDbArc
 50
48.74675288993254
 51
53.55277206775872
  0
ARC
  5
BCF
330
151
100
AcDbEntity
  8
1
100
AcDbCircle
 10
3.694698534615345
 20
-23.19551286720006
 30
0.0
 40
17.70070369239743
100
AcDbArc
 50
56.3469239189431
 51
60.46467641713693
  0
LINE
  5
BD0
330
151
100
AcDbEntity
  8
1
100
AcDbLine
 10
11.42043837111861
 20
3.16723279922634
 30
0.0
 11
11.42043837111865
 21
-7.22649326934674
 31
0.0
  0
LINE
  5
BD1
330
151
100
AcDbEntity
  8
1
100
AcDbLine
 10
11.42043837111861
 20
12.1
 30
0.0
 11
13.25508754904339
 21
12.47731677839847
 31
0.0
  0
ARC
  5
BD2
330
151
100
AcDbEntity
  8
1
100
AcDbCircle
 10
13.47219436189331
 20
-0.0055619758461132
 30
0.0
 40
12.27820562609745
100
AcDbArc
 50
89.85264940360439
 51
99.61957056756334
  0
ARC
  5
BD3
330
151
100
AcDbEntity
  8
1
100
AcDbCircle
 10
7.121745279132655
 20
-62.68745195859548
 30
0.0
 40
70.41746185702084
100
AcDbArc
 50
84.80007343863812
 51
86.50015497543913
  0
ARC
  5
BD4
330
151
100
AcDbEntity
  8
1
100
AcDbCircle
 10
-25.75817382217773
 20
-48.10594285180378
 30
0.0
 40
66.97078059657844
100
AcDbArc
 50
54.10831046581161
 51
55.26543333304798
  0
LINE
  5
BD5
330
151
100
AcDbEntity
  8
1
100
AcDbLine
 10
11.42043837111865
 20
12.1
 30
0.0
 11
11.42043837111865
 21
7.598678764939847
 31
0.0
  0
LINE
  5
BD6
330
151
100
AcDbEntity
  8
1
100
AcDbLine
 10
13.50377165236865
 20
12.5
 30
0.0
 11
13.25508754904339
 21
12.47731677839847
 31
0.0
  0
ARC
  5
BD7
330
151
100
AcDbEntity
  8
1
100
AcDbCircle
 10
1.054883060906937
 20
-38.69125834099887
 30
0.0
 40
30.08229163286666
100
AcDbArc
 50
65.55448081099244
 51
67.80387689720909
  0
LINE
  5
BD8
330
151
100
AcDbEntity
  8
1
100
AcDbLine
 10
12.42043834611864
 20
-7.794981189754728
 30
0.0
 11
12.42043834611864
 21
-10.83841186080465
 31
0.0
  0
LINE
  5
BD9
330
151
100
AcDbEntity
  8
1
100
AcDbLine
 10
11.42043837111861
 20
-10.38945383185616
 30
0.0
 11
11.42043837111861
 21
-12.1
 31
0.0
  0
LINE
  5
BDA
330
151
100
AcDbEntity
  8
1
100
AcDbLine
 10
13.50377165236865
 20
11.46034911403336
 30
0.0
 11
13.50377165236865
 21
11.4603567570314
 31
0.0
  0
LINE
  5
BDB
330
151
100
AcDbEntity
  8
1
100
AcDbLine
 10
13.50377165236865
 20
0.9102855341301747
 30
0.0
 11
11.42043837111861
 21
1.892522288833113
 31
0.0
  0
LINE
  5
BDC
330
151
100
AcDbEntity
  8
1
100
AcDbLine
 10
11.93221635483588
 20
2.791242935362099
 30
0.0
 11
12.42045838647924
 21
2.432503248509739
 31
0.0
  0
LINE
  5
BDD
330
151
100
AcDbEntity
  8
1
 62
     1
100
AcDbLine
 10
13.50377165236865
 20
11.46034911403336
 30
0.0
 11
13.50377165236865
 21
11.4603567570314
 31
0.0
  0
ARC
  5
BDE
330
151
100
AcDbEntity
  8
1
100
AcDbCircle
 10
2.566182732075745
 20
-10.91047178468447
 30
0.0
 40
16.58747490974779
100
AcDbArc
 50
48.74675288993281
 51
53.55277206775872
  0
LINE
  5
BDF
330
151
100
AcDbEntity
  8
1
 62
     1
100
AcDbLine
 10
13.5037716523686
 20
12.5
 30
0.0
 11
13.5037716523686
 21
11.4603567570314
 31
0.0
  0
LINE
  5
BE0
330
151
100
AcDbEntity
  8
1
 62
     1
100
AcDbLine
 10
13.50377165236865
 20
3.587895607606412
 30
0.0
 11
13.50377165236865
 21
6.94630331123087
 31
0.0
  0
LINE
  5
BE1
330
151
100
AcDbEntity
  8
1
 62
     1
100
AcDbLine
 10
13.50377165236865
 20
3.587895607606412
 30
0.0
 11
13.50377165236865
 21
-1.210375620120649
 31
0.0
  0
LINE
  5
BE2
330
151
100
AcDbEntity
  8
1
 62
     1
100
AcDbLine
 10
13.50377165236865
 20
-10.27786265647652
 30
0.0
 11
13.50377165236865
 21
-1.210376361400242
 31
0.0
  0
ENDSEC
  0
SECTION
  2
OBJECTS
  0
DICTIONARY
  5
ED
330
0
100
AcDbDictionary
281
     1
  3
ACAD_CIP_PREVIOUS_PRODUCT_INFO
350
189
  3
ACAD_COLOR
350
143
  3
ACAD_DETAILVIEWSTYLE
350
14B
  3
ACAD_GROUP
350
EE
  3
ACAD_LAYOUT
350
142
  3
ACAD_MATERIAL
350
F1
  3
ACAD_MLEADERSTYLE
350
146
  3
ACAD_MLINESTYLE
350
13F
  3
ACAD_PLOTSETTINGS
350
141
  3
ACAD_PLOTSTYLENAME
350
EF
  3
ACAD_SCALELIST
350
123
  3
ACAD_SECTIONVIEWSTYLE
350
148
  3
ACAD_TABLESTYLE
350
144
  3
ACAD_VISUALSTYLE
350
10A
  3
ACDB_RECOMPOSE_DATA
350
C74
  3
AcDbVariableDictionary
350
1D8
  3
DWGPROPS
350
C75
  0
DICTIONARY
  5
26A
330
E3
100
AcDbDictionary
280
     1
281
     1
  3
ACAD_LAYERSTATES
360
26B
  0
DICTIONARY
  5
18C
330
135
100
AcDbDictionary
280
     1
281
     1
  3
ADSK_XREC_LAYER_RECONCILED
360
18D
  0
DICTIONARY
  5
18E
330
155
100
AcDbDictionary
280
     1
281
     1
  3
ADSK_XREC_LAYER_RECONCILED
360
18F
  0
DICTIONARY
  5
190
330
159
100
AcDbDictionary
280
     1
281
     1
  3
ADSK_XREC_LAYER_RECONCILED
360
191
  0
DICTIONARY
  5
192
330
15A
100
AcDbDictionary
280
     1
281
     1
  3
ADSK_XREC_LAYER_RECONCILED
360
193
  0
DICTIONARY
  5
194
330
15B
100
AcDbDictionary
280
     1
281
     1
  3
ADSK_XREC_LAYER_RECONCILED
360
195
  0
DICTIONARY
  5
196
330
15C
100
AcDbDictionary
280
     1
281
     1
  3
ADSK_XREC_LAYER_RECONCILED
360
197
  0
DICTIONARY
  5
198
330
15D
100
AcDbDictionary
280
     1
281
     1
  3
ADSK_XREC_LAYER_RECONCILED
360
199
  0
DICTIONARY
  5
19A
330
15E
100
AcDbDictionary
280
     1
281
     1
  3
ADSK_XREC_LAYER_RECONCILED
360
19B
  0
DICTIONARY
  5
19C
330
15F
100
AcDbDictionary
280
     1
281
     1
  3
ADSK_XREC_LAYER_RECONCILED
360
19D
  0
DICTIONARY
  5
19E
330
160
100
AcDbDictionary
280
     1
281
     1
  3
ADSK_XREC_LAYER_RECONCILED
360
19F
  0
DICTIONARY
  5
1A0
330
161
100
AcDbDictionary
280
     1
281
     1
  3
ADSK_XREC_LAYER_RECONCILED
360
1A1
  0
DICTIONARY
  5
1A2
330
162
100
AcDbDictionary
280
     1
281
     1
  3
ADSK_XREC_LAYER_RECONCILED
360
1A3
  0
DICTIONARY
  5
1A4
330
163
100
AcDbDictionary
280
     1
281
     1
  3
ADSK_XREC_LAYER_RECONCILED
360
1A5
  0
DICTIONARY
  5
1A6
330
164
100
AcDbDictionary
280
     1
281
     1
  3
ADSK_XREC_LAYER_RECONCILED
360
1A7
  0
DICTIONARY
  5
1A8
330
165
100
AcDbDictionary
280
     1
281
     1
  3
ADSK_XREC_LAYER_RECONCILED
360
1A9
  0
DICTIONARY
  5
1AA
330
166
100
AcDbDictionary
280
     1
281
     1
  3
ADSK_XREC_LAYER_RECONCILED
360
1AB
  0
DICTIONARY
  5
1AC
330
167
100
AcDbDictionary
280
     1
281
     1
  3
ADSK_XREC_LAYER_RECONCILED
360
1AD
  0
DICTIONARY
  5
1AE
330
168
100
AcDbDictionary
280
     1
281
     1
  3
ADSK_XREC_LAYER_RECONCILED
360
1AF
  0
DICTIONARY
  5
1B0
330
169
100
AcDbDictionary
280
     1
281
     1
  3
ADSK_XREC_LAYER_RECONCILED
360
1B1
  0
DICTIONARY
  5
1B2
330
16A
100
AcDbDictionary
280
     1
281
     1
  3
ADSK_XREC_LAYER_RECONCILED
360
1B3
  0
DICTIONARY
  5
1B4
330
16B
100
AcDbDictionary
280
     1
281
     1
  3
ADSK_XREC_LAYER_RECONCILED
360
1B5
  0
DICTIONARY
  5
1B6
330
16C
100
AcDbDictionary
280
     1
281
     1
  3
ADSK_XREC_LAYER_RECONCILED
360
1B7
  0
DICTIONARY
  5
1B8
330
16D
100
AcDbDictionary
280
     1
281
     1
  3
ADSK_XREC_LAYER_RECONCILED
360
1B9
  0
DICTIONARY
  5
1BA
330
16E
100
AcDbDictionary
280
     1
281
     1
  3
ADSK_XREC_LAYER_RECONCILED
360
1BB
  0
DICTIONARY
  5
1BC
330
16F
100
AcDbDictionary
280
     1
281
     1
  3
ADSK_XREC_LAYER_RECONCILED
360
1BD
  0
DICTIONARY
  5
1BE
330
170
100
AcDbDictionary
280
     1
281
     1
  3
ADSK_XREC_LAYER_RECONCILED
360
1BF
  0
DICTIONARY
  5
1C0
330
171
100
AcDbDictionary
280
     1
281
     1
  3
ADSK_XREC_LAYER_RECONCILED
360
1C1
  0
DICTIONARY
  5
1C2
330
172
100
AcDbDictionary
280
     1
281
     1
  3
ADSK_XREC_LAYER_RECONCILED
360
1C3
  0
DICTIONARY
  5
1C4
330
173
100
AcDbDictionary
280
     1
281
     1
  3
ADSK_XREC_LAYER_RECONCILED
360
1C5
  0
DICTIONARY
  5
1C6
330
174
100
AcDbDictionary
280
     1
281
     1
  3
ADSK_XREC_LAYER_RECONCILED
360
1C7
  0
DICTIONARY
  5
1C8
330
175
100
AcDbDictionary
280
     1
281
     1
  3
ADSK_XREC_LAYER_RECONCILED
360
1C9
  0
DICTIONARY
  5
1CA
330
176
100
AcDbDictionary
280
     1
281
     1
  3
ADSK_XREC_LAYER_RECONCILED
360
1CB
  0
DICTIONARY
  5
1CC
330
177
100
AcDbDictionary
280
     1
281
     1
  3
ADSK_XREC_LAYER_RECONCILED
360
1CD
  0
DICTIONARY
  5
1CE
330
178
100
AcDbDictionary
280
     1
281
     1
  3
ADSK_XREC_LAYER_RECONCILED
360
1CF
  0
DICTIONARY
  5
1D0
330
179
100
AcDbDictionary
280
     1
281
     1
  3
ADSK_XREC_LAYER_RECONCILED
360
1D1
  0
DICTIONARY
  5
1D2
330
17A
100
AcDbDictionary
280
     1
281
     1
  3
ADSK_XREC_LAYER_RECONCILED
360
1D3
  0
DICTIONARY
  5
1D4
330
17B
100
AcDbDictionary
280
     1
281
     1
  3
ADSK_XREC_LAYER_RECONCILED
360
1D5
  0
DICTIONARY
  5
1D6
330
17C
100
AcDbDictionary
280
     1
281
     1
  3
ADSK_XREC_LAYER_RECONCILED
360
1D7
  0
DICTIONARY
  5
511
330
151
100
AcDbDictionary
280
     1
281
     1
  3
ACAD_SORTENTS
360
512
  0
XRECORD
  5
189
102
{ACAD_REACTORS
330
ED
102
}
330
ED
100
AcDbXrecord
280
     1
300
AMECH_PP
300
2017
300
86690PDSP_2017_0F
  0
DICTIONARY
  5
143
102
{ACAD_REACTORS
330
ED
102
}
330
ED
100
AcDbDictionary
281
     1
  0
DICTIONARY
  5
14B
102
{ACAD_REACTORS
330
ED
102
}
330
ED
100
AcDbDictionary
281
     1
  3
Imperial24
350
14C
  3
Metric50
350
989
  0
DICTIONARY
  5
EE
102
{ACAD_REACTORS
330
ED
102
}
330
ED
100
AcDbDictionary
281
     1
  0
DICTIONARY
  5
142
102
{ACAD_REACTORS
330
ED
102
}
330
ED
100
AcDbDictionary
281
     1
  3
Layout1
350
150
  3
Model
350
154
  0
DICTIONARY
  5
F1
102
{ACAD_REACTORS
330
ED
102
}
330
ED
100
AcDbDictionary
281
     1
  3
ByBlock
350
FA
  3
ByLayer
350
F2
  3
Global
350
102
  0
DICTIONARY
  5
146
102
{ACAD_REACTORS
330
ED
102
}
330
ED
100
AcDbDictionary
281
     1
  3
Standard
350
147
  0
DICTIONARY
  5
13F
102
{ACAD_REACTORS
330
ED
102
}
330
ED
100
AcDbDictionary
281
     1
  3
Standard
350
140
  0
DICTIONARY
  5
141
102
{ACAD_REACTORS
330
ED
102
}
330
ED
100
AcDbDictionary
281
     1
  0
ACDBDICTIONARYWDFLT
  5
EF
102
{ACAD_REACTORS
330
ED
102
}
330
ED
100
AcDbDictionary
281
     1
  3
Normal
350
F0
100
AcDbDictionaryWithDefault
340
F0
  0
DICTIONARY
  5
123
102
{ACAD_REACTORS
330
ED
102
}
330
ED
100
AcDbDictionary
281
     1
  3
A0
350
124
  3
A1
350
125
  3
A2
350
126
  3
A3
350
127
  3
A4
350
128
  3
A5
350
129
  3
A6
350
12A
  3
A7
350
12B
  3
A8
350
12C
  3
A9
350
12D
  3
B0
350
12E
  3
B1
350
12F
  3
B2
350
130
  3
B3
350
131
  3
B4
350
132
  3
B5
350
133
  3
B6
350
134
  0
DICTIONARY
  5
148
102
{ACAD_REACTORS
330
ED
102
}
330
ED
100
AcDbDictionary
281
     1
  3
Imperial24
350
14A
  3
Metric50
350
988
  0
DICTIONARY
  5
144
102
{ACAD_REACTORS
330
ED
102
}
330
ED
100
AcDbDictionary
281
     1
  3
Standard
350
145
  0
DICTIONARY
  5
10A
102
{ACAD_REACTORS
330
ED
102
}
330
ED
100
AcDbDictionary
281
     1
  3
2dWireframe
350
110
  3
Basic
350
10F
  3
Brighten
350
116
  3
ColorChange
350
11A
  3
Conceptual
350
113
  3
Dim
350
115
  3
EdgeColorOff
350
122
  3
Facepattern
350
119
  3
Flat
350
10B
  3
FlatWithEdges
350
10C
  3
Gouraud
350
10D
  3
GouraudWithEdges
350
10E
  3
Hidden
350
112
  3
JitterOff
350
120
  3
Linepattern
350
118
  3
OverhangOff
350
121
  3
Realistic
350
114
  3
Shaded
350
11F
  3
Shaded with edges
350
11E
  3
Shades of Gray
350
11B
  3
Sketchy
350
11C
  3
Thicken
350
117
  3
Wireframe
350
111
  3
X-Ray
350
11D
  0
XRECORD
  5
C74
102
{ACAD_REACTORS
330
ED
102
}
330
ED
100
AcDbXrecord
280
     1
 90
        1
330
145
  0
DICTIONARY
  5
1D8
102
{ACAD_REACTORS
330
ED
102
}
330
ED
100
AcDbDictionary
281
     1
  3
CANNOSCALE
350
1DD
  3
CMLEADERSTYLE
350
1DA
  3
CTABLESTYLE
350
1D9
  3
CVIEWDETAILSTYLE
350
1DB
  3
CVIEWSECTIONSTYLE
350
1DC
  3
DIMASSOC
350
1E0
  3
INDEXCTL
350
1DF
  3
LAYEREVAL
350
5F5
  3
LAYERNOTIFY
350
5F6
  3
LIGHTINGUNITS
350
5F4
  3
MSLTSCALE
350
5F3
  3
SORTENTS
350
1DE
  3
XCLIPFRAME
350
C72
  0
XRECORD
  5
C75
102
{ACAD_REACTORS
330
ED
102
}
330
ED
100
AcDbXrecord
280
     1
  1
DWGPROPS COOKIE
  2

  3

  4

  6

  7

  8
titadi
  9

300
=
301
=
302
=
303
=
304
=
305
=
306
=
307
=
308
=
309
=
 40
0.1065163425925926
 41
2456818.642430556
 42
2458078.570844907
  1

 90
        0
  0
DICTIONARY
  5
26B
102
{ACAD_REACTORS
330
26A
102
}
330
26A
100
AcDbDictionary
281
     1
  0
XRECORD
  5
18D
102
{ACAD_REACTORS
330
18C
102
}
330
18C
100
AcDbXrecord
280
     1
290
     1
  0
XRECORD
  5
18F
102
{ACAD_REACTORS
330
18E
102
}
330
18E
100
AcDbXrecord
280
     1
290
     1
  0
XRECORD
  5
191
102
{ACAD_REACTORS
330
190
102
}
330
190
100
AcDbXrecord
280
     1
290
     1
  0
XRECORD
  5
193
102
{ACAD_REACTORS
330
192
102
}
330
192
100
AcDbXrecord
280
     1
290
     1
  0
XRECORD
  5
195
102
{ACAD_REACTORS
330
194
102
}
330
194
100
AcDbXrecord
280
     1
290
     1
  0
XRECORD
  5
197
102
{ACAD_REACTORS
330
196
102
}
330
196
100
AcDbXrecord
280
     1
290
     1
  0
XRECORD
  5
199
102
{ACAD_REACTORS
330
198
102
}
330
198
100
AcDbXrecord
280
     1
290
     1
  0
XRECORD
  5
19B
102
{ACAD_REACTORS
330
19A
102
}
330
19A
100
AcDbXrecord
280
     1
290
     1
  0
XRECORD
  5
19D
102
{ACAD_REACTORS
330
19C
102
}
330
19C
100
AcDbXrecord
280
     1
290
     1
  0
XRECORD
  5
19F
102
{ACAD_REACTORS
330
19E
102
}
330
19E
100
AcDbXrecord
280
     1
290
     1
  0
XRECORD
  5
1A1
102
{ACAD_REACTORS
330
1A0
102
}
330
1A0
100
AcDbXrecord
280
     1
290
     1
  0
XRECORD
  5
1A3
102
{ACAD_REACTORS
330
1A2
102
}
330
1A2
100
AcDbXrecord
280
     1
290
     1
  0
XRECORD
  5
1A5
102
{ACAD_REACTORS
330
1A4
102
}
330
1A4
100
AcDbXrecord
280
     1
290
     1
  0
XRECORD
  5
1A7
102
{ACAD_REACTORS
330
1A6
102
}
330
1A6
100
AcDbXrecord
280
     1
290
     1
  0
XRECORD
  5
1A9
102
{ACAD_REACTORS
330
1A8
102
}
330
1A8
100
AcDbXrecord
280
     1
290
     1
  0
XRECORD
  5
1AB
102
{ACAD_REACTORS
330
1AA
102
}
330
1AA
100
AcDbXrecord
280
     1
290
     1
  0
XRECORD
  5
1AD
102
{ACAD_REACTORS
330
1AC
102
}
330
1AC
100
AcDbXrecord
280
     1
290
     1
  0
XRECORD
  5
1AF
102
{ACAD_REACTORS
330
1AE
102
}
330
1AE
100
AcDbXrecord
280
     1
290
     1
  0
XRECORD
  5
1B1
102
{ACAD_REACTORS
330
1B0
102
}
330
1B0
100
AcDbXrecord
280
     1
290
     1
  0
XRECORD
  5
1B3
102
{ACAD_REACTORS
330
1B2
102
}
330
1B2
100
AcDbXrecord
280
     1
290
     1
  0
XRECORD
  5
1B5
102
{ACAD_REACTORS
330
1B4
102
}
330
1B4
100
AcDbXrecord
280
     1
290
     1
  0
XRECORD
  5
1B7
102
{ACAD_REACTORS
330
1B6
102
}
330
1B6
100
AcDbXrecord
280
     1
290
     1
  0
XRECORD
  5
1B9
102
{ACAD_REACTORS
330
1B8
102
}
330
1B8
100
AcDbXrecord
280
     1
290
     1
  0
XRECORD
  5
1BB
102
{ACAD_REACTORS
330
1BA
102
}
330
1BA
100
AcDbXrecord
280
     1
290
     1
  0
XRECORD
  5
1BD
102
{ACAD_REACTORS
330
1BC
102
}
330
1BC
100
AcDbXrecord
280
     1
290
     1
  0
XRECORD
  5
1BF
102
{ACAD_REACTORS
330
1BE
102
}
330
1BE
100
AcDbXrecord
280
     1
290
     1
  0
XRECORD
  5
1C1
102
{ACAD_REACTORS
330
1C0
102
}
330
1C0
100
AcDbXrecord
280
     1
290
     1
  0
XRECORD
  5
1C3
102
{ACAD_REACTORS
330
1C2
102
}
330
1C2
100
AcDbXrecord
280
     1
290
     1
  0
XRECORD
  5
1C5
102
{ACAD_REACTORS
330
1C4
102
}
330
1C4
100
AcDbXrecord
280
     1
290
     1
  0
XRECORD
  5
1C7
102
{ACAD_REACTORS
330
1C6
102
}
330
1C6
100
AcDbXrecord
280
     1
290
     1
  0
XRECORD
  5
1C9
102
{ACAD_REACTORS
330
1C8
102
}
330
1C8
100
AcDbXrecord
280
     1
290
     1
  0
XRECORD
  5
1CB
102
{ACAD_REACTORS
330
1CA
102
}
330
1CA
100
AcDbXrecord
280
     1
290
     1
  0
XRECORD
  5
1CD
102
{ACAD_REACTORS
330
1CC
102
}
330
1CC
100
AcDbXrecord
280
     1
290
     1
  0
XRECORD
  5
1CF
102
{ACAD_REACTORS
330
1CE
102
}
330
1CE
100
AcDbXrecord
280
     1
290
     1
  0
XRECORD
  5
1D1
102
{ACAD_REACTORS
330
1D0
102
}
330
1D0
100
AcDbXrecord
280
     1
290
     1
  0
XRECORD
  5
1D3
102
{ACAD_REACTORS
330
1D2
102
}
330
1D2
100
AcDbXrecord
280
     1
290
     1
  0
XRECORD
  5
1D5
102
{ACAD_REACTORS
330
1D4
102
}
330
1D4
100
AcDbXrecord
280
     1
290
     1
  0
XRECORD
  5
1D7
102
{ACAD_REACTORS
330
1D6
102
}
330
1D6
100
AcDbXrecord
280
     1
290
     1
  0
SORTENTSTABLE
  5
512
102
{ACAD_REACTORS
330
511
102
}
330
511
100
AcDbSortentsTable
330
151
331
B3F
  5
B41
331
ACB
  5
ACD
331
B00
  5
B02
331
3D9
  5
66B
331
B04
  5
B06
331
B43
  5
B45
331
ACF
  5
AD1
331
B47
  5
B49
331
B73
  5
B75
331
B77
  5
B79
331
B7B
  5
B7D
331
B7F
  5
B81
331
A90
  5
A91
331
AD3
  5
AD5
331
B08
  5
B0A
331
A94
  5
A95
331
B4B
  5
B4D
331
AD7
  5
AD9
331
B0C
  5
B0E
331
A98
  5
A99
331
B4F
  5
B51
331
B10
  5
B12
331
A9C
  5
A9D
331
B14
  5
B16
331
38
  5
38
331
B83
  5
B85
331
AA0
  5
AA1
331
41
  5
41
331
B18
  5
B1A
331
AA4
  5
AA5
331
AD9
  5
ADB
331
45
  5
45
331
B1C
  5
B1E
331
AA8
  5
AA9
331
ADD
  5
ADF
331
49
  5
49
331
AE1
  5
AE3
331
B20
  5
B22
331
4D
  5
4D
331
AAC
  5
AAD
331
AE5
  5
AE7
331
B24
  5
B26
331
B50
  5
B52
331
B54
  5
B56
331
B58
  5
B5A
331
B5C
  5
B5E
331
AB0
  5
AB1
331
51
  5
51
331
B28
  5
B2A
331
AB4
  5
AB5
331
AE9
  5
AEB
331
55
  5
55
331
B2C
  5
B2E
331
AED
  5
AEF
331
B30
  5
B32
331
ABC
  5
ABD
331
AF1
  5
AF3
331
AF5
  5
AF7
331
B34
  5
B36
331
B60
  5
B62
331
B64
  5
B66
331
B68
  5
B6A
331
B6C
  5
B6E
331
AC0
  5
AC2
331
B38
  5
B3A
331
AC4
  5
AC6
331
AF9
  5
AFB
331
B3C
  5
B3E
331
AC8
  5
ACA
331
AFD
  5
AFF
331
B40
  5
B42
331
A8D
  5
A8E
331
ACC
  5
ACE
331
B01
  5
B03
331
B05
  5
B07
331
B44
  5
B46
331
B70
  5
B72
331
B74
  5
B76
331
B78
  5
B7A
331
B7C
  5
B7E
331
AD0
  5
AD2
331
A91
  5
A92
331
B48
  5
B4A
331
AD4
  5
AD6
331
B09
  5
B0B
331
A95
  5
A96
331
B4C
  5
B4E
331
B0D
  5
B0F
331
A99
  5
A9A
331
A9D
  5
A9E
331
B11
  5
B13
331
B15
  5
B17
331
39
  5
39
331
B80
  5
B82
331
B84
  5
B86
331
AA1
  5
AA2
331
42
  5
42
331
B19
  5
B1B
331
AA5
  5
AA6
331
ADA
  5
ADC
331
46
  5
46
331
B1D
  5
B1F
331
4A
  5
4A
331
AA9
  5
AAA
331
ADE
  5
AE0
331
AE2
  5
AE4
331
B21
  5
B23
331
AAD
  5
AAE
331
B25
  5
B27
331
AE6
  5
AE8
331
5F
  5
5F
331
B51
  5
B53
331
B55
  5
B57
331
B59
  5
B5B
331
B5D
  5
B5F
331
AB1
  5
AB2
331
52
  5
52
331
B29
  5
B2B
331
AB5
  5
AB6
331
AEA
  5
AEC
331
B2D
  5
B2F
331
AB9
  5
ABA
331
AEE
  5
AF0
331
AF2
  5
AF4
331
B31
  5
B33
331
ABD
  5
ABF
331
AF6
  5
AF8
331
B35
  5
B37
331
B61
  5
B63
331
B65
  5
B67
331
B69
  5
B6B
331
B6D
  5
B6F
331
AC1
  5
AC3
331
B39
  5
B3B
331
AC5
  5
AC7
331
AFA
  5
AFC
331
B3D
  5
B3F
331
AC9
  5
ACB
331
AFE
  5
B00
331
B41
  5
B43
331
A8E
  5
A8F
331
ACD
  5
ACF
331
B02
  5
B04
331
B06
  5
B08
331
B45
  5
B47
331
7AB
  5
7AB
331
36
  5
36
331
B71
  5
B73
331
B75
  5
B77
331
B79
  5
B7B
331
B7D
  5
B7F
331
AD1
  5
AD3
331
A92
  5
A93
331
B49
  5
B4B
331
AD5
  5
AD7
331
B0A
  5
B0C
331
A96
  5
A97
331
B4D
  5
B4F
331
B0E
  5
B10
331
A9A
  5
A9B
331
A9E
  5
A9F
331
B12
  5
B14
331
B16
  5
B18
331
3A
  5
3A
331
B81
  5
B83
331
B85
  5
B87
331
B89
  5
ABE
331
AA2
  5
AA3
331
43
  5
43
331
B1A
  5
B1C
331
AA6
  5
AA7
331
ADB
  5
ADD
331
47
  5
47
331
B1E
  5
B20
331
4B
  5
4B
331
AAA
  5
AAB
331
ADF
  5
AE1
331
AAE
  5
AAF
331
AE3
  5
AE5
331
B22
  5
B24
331
B26
  5
B28
331
AE7
  5
AE9
331
B52
  5
B54
331
B56
  5
B58
331
B5A
  5
B5C
331
B5E
  5
B60
331
AB2
  5
AB3
331
B2A
  5
B2C
331
AB6
  5
AB7
331
AEB
  5
AED
331
B2E
  5
B30
331
ABA
  5
ABB
331
AEF
  5
AF1
331
AF3
  5
AF5
331
B32
  5
B34
331
ABE
  5
AC0
331
B36
  5
B38
331
AF7
  5
AF9
331
60
  5
60
331
364
  5
65B
331
B62
  5
B64
331
B66
  5
B68
331
B6A
  5
B6C
331
B6E
  5
B70
331
AC2
  5
AC4
331
65B
  5
7A7
331
B3A
  5
B3C
331
AC6
  5
AC8
331
AFB
  5
AFD
331
B3E
  5
B40
331
ACA
  5
ACC
331
AFF
  5
B01
331
A8B
  5
A8B
331
B03
  5
B05
331
B42
  5
B44
331
A8F
  5
A90
331
ACE
  5
AD0
331
B07
  5
B09
331
B46
  5
B48
331
37
  5
37
331
B72
  5
B74
331
B76
  5
B78
331
B7A
  5
B7C
331
B7E
  5
B80
331
AD2
  5
AD4
331
A93
  5
A94
331
B4A
  5
B4C
331
AD6
  5
AD8
331
B0B
  5
B0D
331
A97
  5
A98
331
B4E
  5
B50
331
B0F
  5
B11
331
A9B
  5
A9C
331
A9F
  5
AA0
331
B13
  5
B15
331
B17
  5
B19
331
3B
  5
3B
331
B82
  5
B84
331
B86
  5
A8D
331
AA3
  5
AA4
331
AD8
  5
ADA
331
44
  5
44
331
B1B
  5
B1D
331
AA7
  5
AA8
331
ADC
  5
ADE
331
48
  5
48
331
B1F
  5
B21
331
4C
  5
4C
331
AAB
  5
AAC
331
AE0
  5
AE2
331
AAF
  5
AB0
331
AE4
  5
AE6
331
B23
  5
B25
331
B27
  5
B29
331
B53
  5
B55
331
B57
  5
B59
331
B5B
  5
B5D
331
B5F
  5
B61
331
AB3
  5
AB4
331
AE8
  5
AEA
331
54
  5
54
331
B2B
  5
B2D
331
AB7
  5
AB8
331
AEC
  5
AEE
331
B2F
  5
B31
331
ABB
  5
ABC
331
AF0
  5
AF2
331
ABF
  5
AC1
331
AF4
  5
AF6
331
B33
  5
B35
331
B37
  5
B39
331
61
  5
61
331
B63
  5
B65
331
B67
  5
B69
331
B6B
  5
B6D
331
B6F
  5
B71
331
AC3
  5
AC5
331
AF8
  5
AFA
331
B3B
  5
B3D
331
AC7
  5
AC9
331
AFC
  5
AFE
  0
ACDBDETAILVIEWSTYLE
  5
14C
102
{ACAD_XDICTIONARY
360
CA9
102
}
102
{ACAD_REACTORS
330
14B
102
}
330
14B
100
AcDbModelDocViewStyle
 70
     0
  3
Imperial24
290
     0
100
AcDbDetailViewStyle
 70
     0
 71
     0
 90
        3
 71
     1
340
136
 40
0.24
340
0
 40
0.24
300

 40
0.36
280
     3
 71
     2
340
13D
 90
       25
 71
     3
340
136
 40
0.24
 90
        1
 40
0.75
 90
        1
300
%<\AcVar ViewType \f "%tc1">% %<\AcVar ViewDetailId>%\PSCALE %<\AcVar ViewScale \f "%sn">%
 71
     4
340
13D
 90
       25
340
13D
 90
       25
280
     0
  0
ACDBDETAILVIEWSTYLE
  5
989
102
{ACAD_XDICTIONARY
360
CB1
102
}
102
{ACAD_REACTORS
330
14B
102
}
330
14B
100
AcDbModelDocViewStyle
 70
     0
  3
Metric50
290
     0
100
AcDbDetailViewStyle
 70
     0
 71
     0
 90
        3
 71
     1
340
136
 40
5.0
340
0
 40
5.0
300

 40
0.0
280
     1
 71
     2
340
13D
 90
       25
 71
     3
340
136
 40
5.0
 90
        0
 40
15.0
 90
        1
300
%<\AcVar ViewDetailId>% (%<\AcVar ViewScale \f "%sn">%)
 71
     4
340
13D
 90
       25
340
13D
 90
       25
280
     0
  0
LAYOUT
  5
150
102
{ACAD_XDICTIONARY
360
CAB
102
}
102
{ACAD_REACTORS
330
142
102
}
330
142
100
AcDbPlotSettings
  1

  2
Brother DCP-9020CDW Printer
  4

  6

 40
0.0
 41
0.0
 42
0.0
 43
0.0
 44
0.0
 45
0.0
 46
0.0
 47
0.0
 48
0.0
 49
0.0
140
0.0
141
0.0
142
1.0
143
1.0
 70
   688
 72
     0
 73
     0
 74
     5
  7

 75
    16
147
1.0
148
0.0
149
0.0
100
AcDbLayout
  1
Layout1
 70
     1
 71
     1
 10
0.0
 20
0.0
 11
12.0
 21
9.0
 12
0.0
 22
0.0
 32
0.0
 14
1.000000000000000E+20
 24
1.000000000000000E+20
 34
1.000000000000000E+20
 15
-1.000000000000000E+20
 25
-1.000000000000000E+20
 35
-1.000000000000000E+20
146
0.0
 13
0.0
 23
0.0
 33
0.0
 16
1.0
 26
0.0
 36
0.0
 17
0.0
 27
1.0
 37
0.0
 76
     0
330
14D
  0
LAYOUT
  5
154
102
{ACAD_XDICTIONARY
360
CAD
102
}
102
{ACAD_REACTORS
330
142
102
}
330
142
100
AcDbPlotSettings
  1

  2
Brother DCP-9020CDW Printer
  4

  6

 40
0.0
 41
0.0
 42
0.0
 43
0.0
 44
0.0
 45
0.0
 46
0.0
 47
0.0
 48
0.0
 49
0.0
140
0.0
141
0.0
142
1.0
143
1.0
 70
  1712
 72
     0
 73
     0
 74
     0
  7

 75
     0
147
1.0
148
0.0
149
0.0
100
AcDbLayout
  1
Model
 70
     1
 71
     0
 10
0.0
 20
0.0
 11
12.0
 21
9.0
 12
0.0
 22
0.0
 32
0.0
 14
0.0
 24
0.0
 34
0.0
 15
0.0
 25
0.0
 35
0.0
146
0.0
 13
0.0
 23
0.0
 33
0.0
 16
1.0
 26
0.0
 36
0.0
 17
0.0
 27
1.0
 37
0.0
 76
     0
330
151
331
180
  0
MATERIAL
  5
FA
102
{ACAD_XDICTIONARY
360
FB
102
}
102
{ACAD_REACTORS
330
F1
102
}
330
F1
100
AcDbMaterial
  1
ByBlock
 72
     0
 43
0.0208333333333333
 43
0.0
 43
0.0
 43
0.0
 43
0.0
 43
0.0208333333333333
 43
0.0
 43
0.0
 43
0.0
 43
0.0
 43
1.0
 43
0.0
 43
0.0
 43
0.0
 43
0.0
 43
1.0
 77
     0
 47
0.0208333333333333
 47
0.0
 47
0.0
 47
0.0
 47
0.0
 47
0.0208333333333333
 47
0.0
 47
0.0
 47
0.0
 47
0.0
 47
1.0
 47
0.0
 47
0.0
 47
0.0
 47
0.0
 47
1.0
171
     0
 49
0.0208333333333333
 49
0.0
 49
0.0
 49
0.0
 49
0.0
 49
0.0208333333333333
 49
0.0
 49
0.0
 49
0.0
 49
0.0
 49
1.0
 49
0.0
 49
0.0
 49
0.0
 49
0.0
 49
1.0
175
     0
142
0.0208333333333333
142
0.0
142
0.0
142
0.0
142
0.0
142
0.0208333333333333
142
0.0
142
0.0
142
0.0
142
0.0
142
1.0
142
0.0
142
0.0
142
0.0
142
0.0
142
1.0
179
     0
144
0.0208333333333333
144
0.0
144
0.0
144
0.0
144
0.0
144
0.0208333333333333
144
0.0
144
0.0
144
0.0
144
0.0
144
1.0
144
0.0
144
0.0
144
0.0
144
0.0
144
1.0
147
0.0208333333333333
147
0.0
147
0.0
147
0.0
147
0.0
147
0.0208333333333333
147
0.0
147
0.0
147
0.0
147
0.0
147
1.0
147
0.0
147
0.0
147
0.0
147
0.0
147
1.0
  0
MATERIAL
  5
F2
102
{ACAD_XDICTIONARY
360
F3
102
}
102
{ACAD_REACTORS
330
F1
102
}
330
F1
100
AcDbMaterial
  1
ByLayer
 72
     0
 43
0.0208333333333333
 43
0.0
 43
0.0
 43
0.0
 43
0.0
 43
0.0208333333333333
 43
0.0
 43
0.0
 43
0.0
 43
0.0
 43
1.0
 43
0.0
 43
0.0
 43
0.0
 43
0.0
 43
1.0
 77
     0
 47
0.0208333333333333
 47
0.0
 47
0.0
 47
0.0
 47
0.0
 47
0.0208333333333333
 47
0.0
 47
0.0
 47
0.0
 47
0.0
 47
1.0
 47
0.0
 47
0.0
 47
0.0
 47
0.0
 47
1.0
171
     0
 49
0.0208333333333333
 49
0.0
 49
0.0
 49
0.0
 49
0.0
 49
0.0208333333333333
 49
0.0
 49
0.0
 49
0.0
 49
0.0
 49
1.0
 49
0.0
 49
0.0
 49
0.0
 49
0.0
 49
1.0
175
     0
142
0.0208333333333333
142
0.0
142
0.0
142
0.0
142
0.0
142
0.0208333333333333
142
0.0
142
0.0
142
0.0
142
0.0
142
1.0
142
0.0
142
0.0
142
0.0
142
0.0
142
1.0
179
     0
144
0.0208333333333333
144
0.0
144
0.0
144
0.0
144
0.0
144
0.0208333333333333
144
0.0
144
0.0
144
0.0
144
0.0
144
1.0
144
0.0
144
0.0
144
0.0
144
0.0
144
1.0
147
0.0208333333333333
147
0.0
147
0.0
147
0.0
147
0.0
147
0.0208333333333333
147
0.0
147
0.0
147
0.0
147
0.0
147
1.0
147
0.0
147
0.0
147
0.0
147
0.0
147
1.0
  0
MATERIAL
  5
102
102
{ACAD_XDICTIONARY
360
103
102
}
102
{ACAD_REACTORS
330
F1
102
}
330
F1
100
AcDbMaterial
  1
Global
 72
     0
 43
0.0208333333333333
 43
0.0
 43
0.0
 43
0.0
 43
0.0
 43
0.0208333333333333
 43
0.0
 43
0.0
 43
0.0
 43
0.0
 43
1.0
 43
0.0
 43
0.0
 43
0.0
 43
0.0
 43
1.0
 77
     0
 47
0.0208333333333333
 47
0.0
 47
0.0
 47
0.0
 47
0.0
 47
0.0208333333333333
 47
0.0
 47
0.0
 47
0.0
 47
0.0
 47
1.0
 47
0.0
 47
0.0
 47
0.0
 47
0.0
 47
1.0
171
     0
 49
0.0208333333333333
 49
0.0
 49
0.0
 49
0.0
 49
0.0
 49
0.0208333333333333
 49
0.0
 49
0.0
 49
0.0
 49
0.0
 49
1.0
 49
0.0
 49
0.0
 49
0.0
 49
0.0
 49
1.0
175
     0
142
0.0208333333333333
142
0.0
142
0.0
142
0.0
142
0.0
142
0.0208333333333333
142
0.0
142
0.0
142
0.0
142
0.0
142
1.0
142
0.0
142
0.0
142
0.0
142
0.0
142
1.0
179
     0
144
0.0208333333333333
144
0.0
144
0.0
144
0.0
144
0.0
144
0.0208333333333333
144
0.0
144
0.0
144
0.0
144
0.0
144
1.0
144
0.0
144
0.0
144
0.0
144
0.0
144
1.0
147
0.0208333333333333
147
0.0
147
0.0
147
0.0
147
0.0
147
0.0208333333333333
147
0.0
147
0.0
147
0.0
147
0.0
147
1.0
147
0.0
147
0.0
147
0.0
147
0.0
147
1.0
  0
MLEADERSTYLE
  5
147
102
{ACAD_REACTORS
330
146
102
}
330
146
100
AcDbMLeaderStyle
170
     2
171
     1
172
     0
 90
        2
 40
0.0
 41
0.0
173
     1
 91
-1056964608
340
13B
 92
       -2
290
     1
 42
0.09
291
     1
 43
0.36
  3
Standard
 44
0.18
300

342
136
174
     1
178
     6
175
     1
176
     0
 93
-1056964608
 45
0.18
292
     0
297
     0
 46
0.18
 94
-1056964608
 47
1.0
 49
1.0
140
1.0
293
     1
141
0.0
294
     1
177
     0
142
1.0
295
     0
296
     0
143
0.125
1001
ACAD_MLEADERVER
1070
     2
  0
MLINESTYLE
  5
140
102
{ACAD_REACTORS
330
13F
102
}
330
13F
100
AcDbMlineStyle
  2
STANDARD
 70
     0
  3

 62
   256
 51
90.0
 52
90.0
 71
     2
 49
0.5
 62
   256
  6
BYLAYER
 49
-0.5
 62
   256
  6
BYLAYER
  0
ACDBPLACEHOLDER
  5
F0
102
{ACAD_REACTORS
330
EF
102
}
330
EF
  0
SCALE
  5
124
102
{ACAD_REACTORS
330
123
102
}
330
123
100
AcDbScale
 70
     0
300
1:1
140
1.0
141
1.0
290
     1
  0
SCALE
  5
125
102
{ACAD_REACTORS
330
123
102
}
330
123
100
AcDbScale
 70
     0
300
1/128" = 1'-0"
140
0.0078125
141
12.0
290
     0
  0
SCALE
  5
126
102
{ACAD_REACTORS
330
123
102
}
330
123
100
AcDbScale
 70
     0
300
1/64" = 1'-0"
140
0.015625
141
12.0
290
     0
  0
SCALE
  5
127
102
{ACAD_REACTORS
330
123
102
}
330
123
100
AcDbScale
 70
     0
300
1/32" = 1'-0"
140
0.03125
141
12.0
290
     0
  0
SCALE
  5
128
102
{ACAD_REACTORS
330
123
102
}
330
123
100
AcDbScale
 70
     0
300
1/16" = 1'-0"
140
0.0625
141
12.0
290
     0
  0
SCALE
  5
129
102
{ACAD_REACTORS
330
123
102
}
330
123
100
AcDbScale
 70
     0
300
3/32" = 1'-0"
140
0.09375
141
12.0
290
     0
  0
SCALE
  5
12A
102
{ACAD_REACTORS
330
123
102
}
330
123
100
AcDbScale
 70
     0
300
1/8" = 1'-0"
140
0.125
141
12.0
290
     0
  0
SCALE
  5
12B
102
{ACAD_REACTORS
330
123
102
}
330
123
100
AcDbScale
 70
     0
300
3/16" = 1'-0"
140
0.1875
141
12.0
290
     0
  0
SCALE
  5
12C
102
{ACAD_REACTORS
330
123
102
}
330
123
100
AcDbScale
 70
     0
300
1/4" = 1'-0"
140
0.25
141
12.0
290
     0
  0
SCALE
  5
12D
102
{ACAD_REACTORS
330
123
102
}
330
123
100
AcDbScale
 70
     0
300
3/8" = 1'-0"
140
0.375
141
12.0
290
     0
  0
SCALE
  5
12E
102
{ACAD_REACTORS
330
123
102
}
330
123
100
AcDbScale
 70
     0
300
1/2" = 1'-0"
140
0.5
141
12.0
290
     0
  0
SCALE
  5
12F
102
{ACAD_REACTORS
330
123
102
}
330
123
100
AcDbScale
 70
     0
300
3/4" = 1'-0"
140
0.75
141
12.0
290
     0
  0
SCALE
  5
130
102
{ACAD_REACTORS
330
123
102
}
330
123
100
AcDbScale
 70
     0
300
1" = 1'-0"
140
1.0
141
12.0
290
     0
  0
SCALE
  5
131
102
{ACAD_REACTORS
330
123
102
}
330
123
100
AcDbScale
 70
     0
300
1-1/2" = 1'-0"
140
1.5
141
12.0
290
     0
  0
SCALE
  5
132
102
{ACAD_REACTORS
330
123
102
}
330
123
100
AcDbScale
 70
     0
300
3" = 1'-0"
140
3.0
141
12.0
290
     0
  0
SCALE
  5
133
102
{ACAD_REACTORS
330
123
102
}
330
123
100
AcDbScale
 70
     0
300
6" = 1'-0"
140
6.0
141
12.0
290
     0
  0
SCALE
  5
134
102
{ACAD_REACTORS
330
123
102
}
330
123
100
AcDbScale
 70
     0
300
1'-0" = 1'-0"
140
12.0
141
12.0
290
     0
  0
ACDBSECTIONVIEWSTYLE
  5
14A
102
{ACAD_XDICTIONARY
360
CA7
102
}
102
{ACAD_REACTORS
330
148
102
}
330
148
100
AcDbModelDocViewStyle
 70
     0
  3
Imperial24
290
     0
100
AcDbSectionViewStyle
 70
     0
 71
     0
 90
       78
 71
     1
340
136
 40
0.24
340
0
340
0
 40
0.24
300
I, O, Q, S, X, Z
 40
0.48
 90
        3
 40
0.18
 90
        1
 71
     2
340
149
 90
       25
340
13D
 90
       50
 40
0.24
 40
0.0
 40
0.24
 71
     3
340
136
 40
0.24
 90
        1
 40
0.75
 90
        1
300
%<\AcVar ViewType \f "%tc1">% %<\AcVar ViewSectionStartId>%-%<\AcVar ViewSectionEndId>%\PSCALE %<\AcVar ViewScale \f "%sn">%
 71
     4
300
ANSI31
 40
1.0
 90
        0
290
     0
290
     0
 90
        6
 40
0.0
 40
1.570796326794896
 40
0.2617993877991494
 40
1.308996938995747
 40
-0.2617993877991494
 40
1.832595714594044
  0
ACDBSECTIONVIEWSTYLE
  5
988
102
{ACAD_XDICTIONARY
360
CAF
102
}
102
{ACAD_REACTORS
330
148
102
}
330
148
100
AcDbModelDocViewStyle
 70
     0
  3
Metric50
290
     0
100
AcDbSectionViewStyle
 70
     0
 71
     0
 90
      102
 71
     1
340
136
 40
5.0
340
0
340
0
 40
5.0
300
I, O, Q, S, X, Z
 40
10.0
 90
        0
 40
2.5
 90
        0
 71
     2
340
13D
 90
       25
340
13D
 90
       50
 40
5.0
 40
2.5
 40
5.0
 71
     3
340
136
 40
5.0
 90
        0
 40
15.0
 90
        1
300
%<\AcVar ViewSectionStartId>%-%<\AcVar ViewSectionEndId>% (%<\AcVar ViewScale \f "%sn">%)
 71
     4
300
ANSI31
 40
1.0
 90
        0
290
     0
290
     0
 90
        6
 40
0.0
 40
1.570796326794896
 40
0.2617993877991494
 40
1.308996938995747
 40
-0.2617993877991494
 40
1.832595714594044
  0
TABLESTYLE
  5
145
102
{ACAD_XDICTIONARY
360
1E3
102
}
102
{ACAD_REACTORS
330
144
102
}
330
144
100
AcDbTableStyle
  3
Standard
 70
     0
 71
     0
 40
0.06
 41
0.06
280
     0
281
     0
  7
STANDARD
140
0.18
170
     2
 62
     0
 63
     7
283
     0
274
    -2
284
     1
 64
     0
275
    -2
285
     1
 65
     0
276
    -2
286
     1
 66
     0
277
    -2
287
     1
 67
     0
278
    -2
288
     1
 68
     0
279
    -2
289
     1
 69
     0
  7
STANDARD
140
0.25
170
     5
 62
     0
 63
     7
283
     0
274
    -2
284
     1
 64
     0
275
    -2
285
     1
 65
     0
276
    -2
286
     1
 66
     0
277
    -2
287
     1
 67
     0
278
    -2
288
     1
 68
     0
279
    -2
289
     1
 69
     0
  7
STANDARD
140
0.18
170
     5
 62
     0
 63
     7
283
     0
274
    -2
284
     1
 64
     0
275
    -2
285
     1
 65
     0
276
    -2
286
     1
 66
     0
277
    -2
287
     1
 67
     0
278
    -2
288
     1
 68
     0
279
    -2
289
     1
 69
     0
  0
VISUALSTYLE
  5
110
102
{ACAD_XDICTIONARY
360
C80
102
}
102
{ACAD_REACTORS
330
10A
102
}
330
10A
100
AcDbVisualStyle
  2

 70
     4
 71
     0
 72
     2
 73
     0
 90
        0
 40
-0.6
 41
-30.0
 62
     5
 63
     7
 74
     1
 91
        4
 64
     7
 65
   257
 75
     1
175
     1
 42
1.0
 92
        0
 66
   257
 43
1.0
 76
     1
 77
     6
 78
     2
 67
     7
 79
     5
170
     0
171
     0
290
     0
174
     0
 93
        1
 44
0.0
173
     0
291
     0
 45
0.0
1001
ACAD
1000
AcDbSavedByObjectVersion
1070
     0
  0
VISUALSTYLE
  5
10F
102
{ACAD_XDICTIONARY
360
C7E
102
}
102
{ACAD_REACTORS
330
10A
102
}
330
10A
100
AcDbVisualStyle
  2

 70
     7
 71
     1
 72
     0
 73
     1
 90
        0
 40
-0.6
 41
-30.0
 62
     5
 63
     7
 74
     0
 91
        4
 64
     7
 65
   257
 75
     1
175
     1
 42
1.0
 92
        8
 66
     7
 43
1.0
 76
     1
 77
     6
 78
     2
 67
     7
 79
     5
170
     0
171
     0
290
     0
174
     0
 93
        1
 44
0.0
173
     0
291
     1
 45
0.0
1001
ACAD
1000
AcDbSavedByObjectVersion
1070
     0
  0
VISUALSTYLE
  5
116
102
{ACAD_XDICTIONARY
360
C8C
102
}
102
{ACAD_REACTORS
330
10A
102
}
330
10A
100
AcDbVisualStyle
  2

 70
    12
 71
     2
 72
     2
 73
     0
 90
        0
 40
-0.6
 41
-30.0
 62
     5
 63
     7
 74
     1
 91
        4
 64
     7
 65
   257
 75
     1
175
     1
 42
1.0
 92
        8
 66
     7
 43
1.0
 76
     1
 77
     6
 78
     2
 67
     7
 79
     5
170
     0
171
     0
290
     0
174
     0
 93
        1
 44
50.0
173
     0
291
     1
 45
0.0
1001
ACAD
1000
AcDbSavedByObjectVersion
1070
     0
  0
VISUALSTYLE
  5
11A
102
{ACAD_XDICTIONARY
360
C94
102
}
102
{ACAD_REACTORS
330
10A
102
}
330
10A
100
AcDbVisualStyle
  2

 70
    16
 71
     2
 72
     2
 73
     3
 90
        0
 40
-0.6
 41
-30.0
 62
     5
 63
     8
 74
     1
 91
        4
 64
     7
 65
   257
 75
     1
175
     1
 42
1.0
 92
        8
 66
     8
 43
1.0
 76
     1
 77
     6
 78
     2
 67
     7
 79
     5
170
     0
171
     0
290
     0
174
     0
 93
        1
 44
0.0
173
     0
291
     1
 45
0.0
1001
ACAD
1000
AcDbSavedByObjectVersion
1070
     0
  0
VISUALSTYLE
  5
113
102
{ACAD_XDICTIONARY
360
C86
102
}
102
{ACAD_REACTORS
330
10A
102
}
330
10A
100
AcDbVisualStyle
  2

 70
     9
 71
     3
 72
     2
 73
     0
 90
        0
 40
-0.6
 41
-30.0
 62
     5
 63
     7
 74
     2
 91
        2
 64
     7
 65
   257
 75
     1
175
     1
 42
179.0
 92
        8
 66
     7
 43
1.0
 76
     1
 77
     6
 78
     2
 67
     7
 79
     3
170
     0
171
     0
290
     0
174
     0
 93
        1
 44
0.0
173
     0
291
     0
 45
0.0
1001
ACAD
1000
AcDbSavedByObjectVersion
1070
     0
  0
VISUALSTYLE
  5
115
102
{ACAD_XDICTIONARY
360
C8A
102
}
102
{ACAD_REACTORS
330
10A
102
}
330
10A
100
AcDbVisualStyle
  2

 70
    11
 71
     2
 72
     2
 73
     0
 90
        0
 40
-0.6
 41
-30.0
 62
     5
 63
     7
 74
     1
 91
        4
 64
     7
 65
   257
 75
     1
175
     1
 42
1.0
 92
        8
 66
     7
 43
1.0
 76
     1
 77
     6
 78
     2
 67
     7
 79
     5
170
     0
171
     0
290
     0
174
     0
 93
        1
 44
-50.0
173
     0
291
     1
 45
0.0
1001
ACAD
1000
AcDbSavedByObjectVersion
1070
     0
  0
VISUALSTYLE
  5
122
102
{ACAD_XDICTIONARY
360
CA4
102
}
102
{ACAD_REACTORS
330
10A
102
}
330
10A
100
AcDbVisualStyle
  2

 70
    22
 71
     2
 72
     2
 73
     0
 90
        0
 40
-0.6
 41
-30.0
 62
     5
 63
     7
 74
     1
 91
        4
 64
     7
 65
   257
 75
     1
175
     1
 42
1.0
 92
        8
 66
     7
 43
1.0
 76
     1
 77
     6
 78
     2
 67
     7
 79
     5
170
     0
171
     0
290
     0
174
     0
 93
        1
 44
0.0
173
     0
291
     1
 45
0.0
1001
ACAD
1000
AcDbSavedByObjectVersion
1070
     0
  0
VISUALSTYLE
  5
119
102
{ACAD_XDICTIONARY
360
C92
102
}
102
{ACAD_REACTORS
330
10A
102
}
330
10A
100
AcDbVisualStyle
  2

 70
    15
 71
     2
 72
     2
 73
     0
 90
        0
 40
-0.6
 41
-30.0
 62
     5
 63
     7
 74
     1
 91
        4
 64
     7
 65
   257
 75
     1
175
     1
 42
1.0
 92
        8
 66
     7
 43
1.0
 76
     1
 77
     6
 78
     2
 67
     7
 79
     5
170
     0
171
     0
290
     0
174
     0
 93
        1
 44
0.0
173
     0
291
     1
 45
0.0
1001
ACAD
1000
AcDbSavedByObjectVersion
1070
     0
  0
VISUALSTYLE
  5
10B
102
{ACAD_XDICTIONARY
360
C76
102
}
102
{ACAD_REACTORS
330
10A
102
}
330
10A
100
AcDbVisualStyle
  2

 70
     0
 71
     2
 72
     1
 73
     1
 90
        2
 40
-0.6
 41
30.0
 62
     5
 63
     7
 74
     0
 91
        0
 64
     7
 65
   257
 75
     1
175
     1
 42
1.0
 92
        8
 66
     7
 43
1.0
 76
     1
 77
     6
 78
     2
 67
     7
 79
     5
170
     0
171
     0
290
     0
174
     0
 93
       13
 44
0.0
173
     0
291
     1
 45
0.0
1001
ACAD
1000
AcDbSavedByObjectVersion
1070
     0
  0
VISUALSTYLE
  5
10C
102
{ACAD_XDICTIONARY
360
C78
102
}
102
{ACAD_REACTORS
330
10A
102
}
330
10A
100
AcDbVisualStyle
  2

 70
     1
 71
     2
 72
     1
 73
     1
 90
        2
 40
-0.6
 41
30.0
 62
     5
 63
     7
 74
     1
 91
        0
 64
     7
 65
   257
 75
     1
175
     1
 42
1.0
 92
        0
 66
   257
 43
1.0
 76
     1
 77
     6
 78
     2
 67
     7
 79
     5
170
     0
171
     0
290
     0
174
     0
 93
       13
 44
0.0
173
     0
291
     1
 45
0.0
1001
ACAD
1000
AcDbSavedByObjectVersion
1070
     0
  0
VISUALSTYLE
  5
10D
102
{ACAD_XDICTIONARY
360
C7A
102
}
102
{ACAD_REACTORS
330
10A
102
}
330
10A
100
AcDbVisualStyle
  2

 70
     2
 71
     2
 72
     2
 73
     1
 90
        2
 40
-0.6
 41
30.0
 62
     5
 63
     7
 74
     0
 91
        0
 64
     7
 65
   257
 75
     1
175
     1
 42
1.0
 92
        0
 66
     7
 43
1.0
 76
     1
 77
     6
 78
     2
 67
     7
 79
     5
170
     0
171
     0
290
     0
174
     0
 93
       13
 44
0.0
173
     0
291
     1
 45
0.0
1001
ACAD
1000
AcDbSavedByObjectVersion
1070
     0
  0
VISUALSTYLE
  5
10E
102
{ACAD_XDICTIONARY
360
C7C
102
}
102
{ACAD_REACTORS
330
10A
102
}
330
10A
100
AcDbVisualStyle
  2

 70
     3
 71
     2
 72
     2
 73
     1
 90
        2
 40
-0.6
 41
30.0
 62
     5
 63
     7
 74
     1
 91
        0
 64
     7
 65
   257
 75
     1
175
     1
 42
1.0
 92
        0
 66
   257
 43
1.0
 76
     1
 77
     6
 78
     2
 67
     7
 79
     5
170
     0
171
     0
290
     0
174
     0
 93
       13
 44
0.0
173
     0
291
     1
 45
0.0
1001
ACAD
1000
AcDbSavedByObjectVersion
1070
     0
  0
VISUALSTYLE
  5
112
102
{ACAD_XDICTIONARY
360
C84
102
}
102
{ACAD_REACTORS
330
10A
102
}
330
10A
100
AcDbVisualStyle
  2

 70
     6
 71
     1
 72
     2
 73
     2
 90
        0
 40
-0.6
 41
-30.0
 62
     5
 63
     7
 74
     2
 91
        2
 64
     7
 65
   257
 75
     2
175
     1
 42
40.0
 92
        0
 66
   257
 43
1.0
 76
     1
 77
     6
 78
     2
 67
     7
 79
     3
170
     0
171
     0
290
     0
174
     0
 93
        1
 44
0.0
173
     0
291
     0
 45
0.0
1001
ACAD
1000
AcDbSavedByObjectVersion
1070
     0
  0
VISUALSTYLE
  5
120
102
{ACAD_XDICTIONARY
360
CA0
102
}
102
{ACAD_REACTORS
330
10A
102
}
330
10A
100
AcDbVisualStyle
  2

 70
    20
 71
     2
 72
     2
 73
     0
 90
        0
 40
-0.6
 41
-30.0
 62
     5
 63
     7
 74
     1
 91
        4
 64
     7
 65
   257
 75
     1
175
     1
 42
1.0
 92
       10
 66
     7
 43
1.0
 76
     1
 77
     6
 78
     2
 67
     7
 79
     5
170
     0
171
     0
290
     0
174
     0
 93
        1
 44
0.0
173
     0
291
     1
 45
0.0
1001
ACAD
1000
AcDbSavedByObjectVersion
1070
     0
  0
VISUALSTYLE
  5
118
102
{ACAD_XDICTIONARY
360
C90
102
}
102
{ACAD_REACTORS
330
10A
102
}
330
10A
100
AcDbVisualStyle
  2

 70
    14
 71
     2
 72
     2
 73
     0
 90
        0
 40
-0.6
 41
-30.0
 62
     5
 63
     7
 74
     1
 91
        4
 64
     7
 65
   257
 75
     7
175
     7
 42
1.0
 92
        8
 66
     7
 43
1.0
 76
     1
 77
     6
 78
     2
 67
     7
 79
     5
170
     0
171
     0
290
     0
174
     0
 93
        1
 44
0.0
173
     0
291
     1
 45
0.0
1001
ACAD
1000
AcDbSavedByObjectVersion
1070
     0
  0
VISUALSTYLE
  5
121
102
{ACAD_XDICTIONARY
360
CA2
102
}
102
{ACAD_REACTORS
330
10A
102
}
330
10A
100
AcDbVisualStyle
  2

 70
    21
 71
     2
 72
     2
 73
     0
 90
        0
 40
-0.6
 41
-30.0
 62
     5
 63
     7
 74
     1
 91
        4
 64
     7
 65
   257
 75
     1
175
     1
 42
1.0
 92
        9
 66
     7
 43
1.0
 76
     1
 77
     6
 78
     2
 67
     7
 79
     5
170
     0
171
     0
290
     0
174
     0
 93
        1
 44
0.0
173
     0
291
     1
 45
0.0
1001
ACAD
1000
AcDbSavedByObjectVersion
1070
     0
  0
VISUALSTYLE
  5
114
102
{ACAD_XDICTIONARY
360
C88
102
}
102
{ACAD_REACTORS
330
10A
102
}
330
10A
100
AcDbVisualStyle
  2

 70
     8
 71
     2
 72
     3
 73
     0
 90
        2
 40
-0.6
 41
30.0
 62
     5
 63
     7
 74
     0
 91
        0
 64
     7
 65
   257
 75
     1
175
     1
 42
1.0
 92
        8
 66
   257
 43
1.0
 76
     1
 77
     6
 78
     2
 67
     7
 79
     3
170
     0
171
     0
290
     0
174
     0
 93
       13
 44
0.0
173
     0
291
     0
 45
0.0
1001
ACAD
1000
AcDbSavedByObjectVersion
1070
     0
  0
VISUALSTYLE
  5
11F
102
{ACAD_XDICTIONARY
360
C9E
102
}
102
{ACAD_REACTORS
330
10A
102
}
330
10A
100
AcDbVisualStyle
  2

 70
    27
 71
     2
 72
     2
 73
     1
 90
        2
 40
-0.6
 41
30.0
 62
     5
 63
     7
 74
     0
 91
        4
 64
     7
 65
   257
 75
     1
175
     1
 42
1.0
 92
        8
 66
   257
 43
1.0
 76
     1
 77
     6
 78
     2
 67
     8
 79
     3
170
     0
171
     0
290
     0
174
     0
 93
        5
 44
0.0
173
     0
291
     0
 45
0.0
1001
ACAD
1000
AcDbSavedByObjectVersion
1070
     0
  0
VISUALSTYLE
  5
11E
102
{ACAD_XDICTIONARY
360
C9C
102
}
102
{ACAD_REACTORS
330
10A
102
}
330
10A
100
AcDbVisualStyle
  2

 70
    26
 71
     2
 72
     2
 73
     1
 90
        2
 40
-0.6
 41
30.0
 62
     5
 63
     7
 74
     1
 91
       10
 64
     7
 65
   257
 75
     2
175
     1
 42
1.0
 92
        8
 66
   257
 43
1.0
 76
     1
 77
     6
 78
     2
 67
     7
 79
     3
170
     0
171
     0
290
     0
174
     0
 93
        5
 44
0.0
173
     0
291
     0
 45
0.0
1001
ACAD
1000
AcDbSavedByObjectVersion
1070
     0
  0
VISUALSTYLE
  5
11B
102
{ACAD_XDICTIONARY
360
C96
102
}
102
{ACAD_REACTORS
330
10A
102
}
330
10A
100
AcDbVisualStyle
  2

 70
    23
 71
     2
 72
     2
 73
     3
 90
        0
 40
-0.6
 41
-30.0
 62
     5
 63
     7
 74
     2
 91
        2
 64
     7
 65
     7
 75
     1
175
     1
 42
40.0
 92
        8
 66
     7
 43
1.0
 76
     1
 77
     6
 78
     2
 67
     7
 79
     3
170
     0
171
     0
290
     0
174
     0
 93
        1
 44
0.0
173
     0
291
     0
 45
0.0
1001
ACAD
1000
AcDbSavedByObjectVersion
1070
     0
  0
VISUALSTYLE
  5
11C
102
{ACAD_XDICTIONARY
360
C98
102
}
102
{ACAD_REACTORS
330
10A
102
}
330
10A
100
AcDbVisualStyle
  2

 70
    24
 71
     1
 72
     2
 73
     2
 90
        0
 40
-0.6
 41
-30.0
 62
     5
 63
     7
 74
     2
 91
        2
 64
     7
 65
     7
 75
     1
175
     1
 42
40.0
 92
       11
 66
     7
 43
1.0
 76
     1
 77
     6
 78
     2
 67
     7
 79
     6
170
     0
171
     0
290
     0
174
     0
 93
        1
 44
0.0
173
     0
291
     0
 45
0.0
1001
ACAD
1000
AcDbSavedByObjectVersion
1070
     0
  0
VISUALSTYLE
  5
117
102
{ACAD_XDICTIONARY
360
C8E
102
}
102
{ACAD_REACTORS
330
10A
102
}
330
10A
100
AcDbVisualStyle
  2

 70
    13
 71
     2
 72
     2
 73
     0
 90
        0
 40
-0.6
 41
-30.0
 62
     5
 63
     7
 74
     1
 91
        4
 64
     7
 65
   257
 75
     1
175
     1
 42
1.0
 92
       12
 66
     7
 43
1.0
 76
     1
 77
     6
 78
     2
 67
     7
 79
     5
170
     0
171
     0
290
     0
174
     0
 93
        1
 44
0.0
173
     0
291
     1
 45
0.0
1001
ACAD
1000
AcDbSavedByObjectVersion
1070
     0
  0
VISUALSTYLE
  5
111
102
{ACAD_XDICTIONARY
360
C82
102
}
102
{ACAD_REACTORS
330
10A
102
}
330
10A
100
AcDbVisualStyle
  2

 70
     5
 71
     0
 72
     2
 73
     0
 90
        0
 40
-0.6
 41
-30.0
 62
     5
 63
     7
 74
     1
 91
        4
 64
     7
 65
   257
 75
     1
175
     1
 42
1.0
 92
        0
 66
   257
 43
1.0
 76
     1
 77
     6
 78
     2
 67
     7
 79
     3
170
     0
171
     0
290
     0
174
     0
 93
        1
 44
0.0
173
     0
291
     0
 45
0.0
1001
ACAD
1000
AcDbSavedByObjectVersion
1070
     0
  0
VISUALSTYLE
  5
11D
102
{ACAD_XDICTIONARY
360
C9A
102
}
102
{ACAD_REACTORS
330
10A
102
}
330
10A
100
AcDbVisualStyle
  2

 70
    25
 71
     2
 72
     2
 73
     1
 90
        1
 40
0.5
 41
-30.0
 62
     5
 63
     7
 74
     1
 91
        0
 64
     7
 65
   257
 75
     1
175
     1
 42
1.0
 92
        8
 66
     7
 43
1.0
 76
     1
 77
     6
 78
     2
 67
     7
 79
     3
170
     0
171
     0
290
     0
174
     0
 93
       13
 44
0.0
173
     0
291
     0
 45
0.0
1001
ACAD
1000
AcDbSavedByObjectVersion
1070
     0
  0
DICTIONARYVAR
  5
1DD
102
{ACAD_REACTORS
330
1D8
102
}
330
1D8
100
DictionaryVariables
280
     0
  1
1:1
  0
DICTIONARYVAR
  5
1DA
102
{ACAD_REACTORS
330
1D8
102
}
330
1D8
100
DictionaryVariables
280
     0
  1
STANDARD
  0
DICTIONARYVAR
  5
1D9
102
{ACAD_REACTORS
330
1D8
102
}
330
1D8
100
DictionaryVariables
280
     0
  1
STANDARD
  0
DICTIONARYVAR
  5
1DB
102
{ACAD_REACTORS
330
1D8
102
}
330
1D8
100
DictionaryVariables
280
     0
  1
Imperial24
  0
DICTIONARYVAR
  5
1DC
102
{ACAD_REACTORS
330
1D8
102
}
330
1D8
100
DictionaryVariables
280
     0
  1
Imperial24
  0
DICTIONARYVAR
  5
1E0
102
{ACAD_REACTORS
330
1D8
102
}
330
1D8
100
DictionaryVariables
280
     0
  1
1
  0
DICTIONARYVAR
  5
1DF
102
{ACAD_REACTORS
330
1D8
102
}
330
1D8
100
DictionaryVariables
280
     0
  1
0
  0
DICTIONARYVAR
  5
5F5
102
{ACAD_REACTORS
330
1D8
102
}
330
1D8
100
DictionaryVariables
280
     0
  1
1
  0
DICTIONARYVAR
  5
5F6
102
{ACAD_REACTORS
330
1D8
102
}
330
1D8
100
DictionaryVariables
280
     0
  1
15
  0
DICTIONARYVAR
  5
5F4
102
{ACAD_REACTORS
330
1D8
102
}
330
1D8
100
DictionaryVariables
280
     0
  1
0
  0
DICTIONARYVAR
  5
5F3
102
{ACAD_REACTORS
330
1D8
102
}
330
1D8
100
DictionaryVariables
280
     0
  1
0
  0
DICTIONARYVAR
  5
1DE
102
{ACAD_REACTORS
330
1D8
102
}
330
1D8
100
DictionaryVariables
280
     0
  1
127
  0
DICTIONARYVAR
  5
C72
102
{ACAD_REACTORS
330
1D8
102
}
330
1D8
100
DictionaryVariables
280
     0
  1
2
  0
DICTIONARY
  5
CA9
330
14C
100
AcDbDictionary
280
     1
281
     1
  3
ACAD_XREC_ROUNDTRIP
360
CAA
  0
DICTIONARY
  5
CB1
330
989
100
AcDbDictionary
280
     1
281
     1
  3
ACAD_XREC_ROUNDTRIP
360
CB2
  0
DICTIONARY
  5
CAB
330
150
100
AcDbDictionary
280
     1
281
     1
  3
ACAD_XREC_ROUNDTRIP
360
CAC
  0
DICTIONARY
  5
CAD
330
154
100
AcDbDictionary
280
     1
281
     1
  3
ACAD_XREC_ROUNDTRIP
360
CAE
  0
DICTIONARY
  5
FB
330
FA
100
AcDbDictionary
280
     1
281
     1
  3
ACAD_XREC_ROUNDTRIP
360
1E9
  3
BUMPTILE
360
FD
  3
DIFFUSETILE
360
FC
  3
OPACITYTILE
360
100
  3
REFLECTIONTILE
360
FF
  3
REFRACTIONTILE
360
101
  3
SPECULARTILE
360
FE
  0
DICTIONARY
  5
F3
330
F2
100
AcDbDictionary
280
     1
281
     1
  3
ACAD_XREC_ROUNDTRIP
360
1E8
  3
BUMPTILE
360
F5
  3
DIFFUSETILE
360
F4
  3
OPACITYTILE
360
F8
  3
REFLECTIONTILE
360
F7
  3
REFRACTIONTILE
360
F9
  3
SPECULARTILE
360
F6
  0
DICTIONARY
  5
103
330
102
100
AcDbDictionary
280
     1
281
     1
  3
ACAD_XREC_ROUNDTRIP
360
1EA
  3
BUMPTILE
360
105
  3
DIFFUSETILE
360
104
  3
OPACITYTILE
360
108
  3
REFLECTIONTILE
360
107
  3
REFRACTIONTILE
360
109
  3
SPECULARTILE
360
106
  0
DICTIONARY
  5
CA7
330
14A
100
AcDbDictionary
280
     1
281
     1
  3
ACAD_XREC_ROUNDTRIP
360
CA8
  0
DICTIONARY
  5
CAF
330
988
100
AcDbDictionary
280
     1
281
     1
  3
ACAD_XREC_ROUNDTRIP
360
CB0
  0
DICTIONARY
  5
1E3
330
145
100
AcDbDictionary
280
     1
281
     1
  3
ACAD_ROUNDTRIP_2008_TABLESTYLE_CELLSTYLEMAP
360
C73
  3
ACAD_XREC_ROUNDTRIP
360
CA6
  0
DICTIONARY
  5
C80
330
110
100
AcDbDictionary
280
     1
281
     1
  3
ACAD_XREC_ROUNDTRIP
360
C81
  0
DICTIONARY
  5
C7E
330
10F
100
AcDbDictionary
280
     1
281
     1
  3
ACAD_XREC_ROUNDTRIP
360
C7F
  0
DICTIONARY
  5
C8C
330
116
100
AcDbDictionary
280
     1
281
     1
  3
ACAD_XREC_ROUNDTRIP
360
C8D
  0
DICTIONARY
  5
C94
330
11A
100
AcDbDictionary
280
     1
281
     1
  3
ACAD_XREC_ROUNDTRIP
360
C95
  0
DICTIONARY
  5
C86
330
113
100
AcDbDictionary
280
     1
281
     1
  3
ACAD_XREC_ROUNDTRIP
360
C87
  0
DICTIONARY
  5
C8A
330
115
100
AcDbDictionary
280
     1
281
     1
  3
ACAD_XREC_ROUNDTRIP
360
C8B
  0
DICTIONARY
  5
CA4
330
122
100
AcDbDictionary
280
     1
281
     1
  3
ACAD_XREC_ROUNDTRIP
360
CA5
  0
DICTIONARY
  5
C92
330
119
100
AcDbDictionary
280
     1
281
     1
  3
ACAD_XREC_ROUNDTRIP
360
C93
  0
DICTIONARY
  5
C76
330
10B
100
AcDbDictionary
280
     1
281
     1
  3
ACAD_XREC_ROUNDTRIP
360
C77
  0
DICTIONARY
  5
C78
330
10C
100
AcDbDictionary
280
     1
281
     1
  3
ACAD_XREC_ROUNDTRIP
360
C79
  0
DICTIONARY
  5
C7A
330
10D
100
AcDbDictionary
280
     1
281
     1
  3
ACAD_XREC_ROUNDTRIP
360
C7B
  0
DICTIONARY
  5
C7C
330
10E
100
AcDbDictionary
280
     1
281
     1
  3
ACAD_XREC_ROUNDTRIP
360
C7D
  0
DICTIONARY
  5
C84
330
112
100
AcDbDictionary
280
     1
281
     1
  3
ACAD_XREC_ROUNDTRIP
360
C85
  0
DICTIONARY
  5
CA0
330
120
100
AcDbDictionary
280
     1
281
     1
  3
ACAD_XREC_ROUNDTRIP
360
CA1
  0
DICTIONARY
  5
C90
330
118
100
AcDbDictionary
280
     1
281
     1
  3
ACAD_XREC_ROUNDTRIP
360
C91
  0
DICTIONARY
  5
CA2
330
121
100
AcDbDictionary
280
     1
281
     1
  3
ACAD_XREC_ROUNDTRIP
360
CA3
  0
DICTIONARY
  5
C88
330
114
100
AcDbDictionary
280
     1
281
     1
  3
ACAD_XREC_ROUNDTRIP
360
C89
  0
DICTIONARY
  5
C9E
330
11F
100
AcDbDictionary
280
     1
281
     1
  3
ACAD_XREC_ROUNDTRIP
360
C9F
  0
DICTIONARY
  5
C9C
330
11E
100
AcDbDictionary
280
     1
281
     1
  3
ACAD_XREC_ROUNDTRIP
360
C9D
  0
DICTIONARY
  5
C96
330
11B
100
AcDbDictionary
280
     1
281
     1
  3
ACAD_XREC_ROUNDTRIP
360
C97
  0
DICTIONARY
  5
C98
330
11C
100
AcDbDictionary
280
     1
281
     1
  3
ACAD_XREC_ROUNDTRIP
360
C99
  0
DICTIONARY
  5
C8E
330
117
100
AcDbDictionary
280
     1
281
     1
  3
ACAD_XREC_ROUNDTRIP
360
C8F
  0
DICTIONARY
  5
C82
330
111
100
AcDbDictionary
280
     1
281
     1
  3
ACAD_XREC_ROUNDTRIP
360
C83
  0
DICTIONARY
  5
C9A
330
11D
100
AcDbDictionary
280
     1
281
     1
  3
ACAD_XREC_ROUNDTRIP
360
C9B
  0
XRECORD
  5
CAA
102
{ACAD_REACTORS
330
CA9
102
}
330
CA9
100
AcDbXrecord
280
     1
102
DISPLAYNAME
  1
Imperial24
102
FLAGS
 90
        0
  0
XRECORD
  5
CB2
102
{ACAD_REACTORS
330
CB1
102
}
330
CB1
100
AcDbXrecord
280
     1
102
DISPLAYNAME
  1
Metric50
102
FLAGS
 90
        0
  0
XRECORD
  5
CAC
102
{ACAD_REACTORS
330
CAB
102
}
330
CAB
100
AcDbXrecord
280
     1
102
SHADEPLOT
 70
     0
102
SHADEPLOTRESLEVEL
 70
     2
102
SHADEPLOTCUSTOMDPI
 70
   300
  0
XRECORD
  5
CAE
102
{ACAD_REACTORS
330
CAD
102
}
330
CAD
100
AcDbXrecord
280
     1
102
SHADEPLOT
 70
     0
102
SHADEPLOTRESLEVEL
 70
     2
102
SHADEPLOTCUSTOMDPI
 70
   300
  0
XRECORD
  5
1E9
102
{ACAD_REACTORS
330
FB
102
}
330
FB
100
AcDbXrecord
280
     1
102
MATERIAL
148
0.0
149
0.0
149
0.0
 93
        0
 94
      127
282
     0
 72
     0
 77
     0
171
     0
175
     0
179
     0
273
     0
  0
XRECORD
  5
FD
102
{ACAD_REACTORS
330
FB
102
}
330
FB
100
AcDbXrecord
280
     1
270
     1
271
     1
  0
XRECORD
  5
FC
102
{ACAD_REACTORS
330
FB
102
}
330
FB
100
AcDbXrecord
280
     1
270
     1
271
     1
  0
XRECORD
  5
100
102
{ACAD_REACTORS
330
FB
102
}
330
FB
100
AcDbXrecord
280
     1
270
     1
271
     1
  0
XRECORD
  5
FF
102
{ACAD_REACTORS
330
FB
102
}
330
FB
100
AcDbXrecord
280
     1
270
     1
271
     1
  0
XRECORD
  5
101
102
{ACAD_REACTORS
330
FB
102
}
330
FB
100
AcDbXrecord
280
     1
270
     1
271
     1
  0
XRECORD
  5
FE
102
{ACAD_REACTORS
330
FB
102
}
330
FB
100
AcDbXrecord
280
     1
270
     1
271
     1
  0
XRECORD
  5
1E8
102
{ACAD_REACTORS
330
F3
102
}
330
F3
100
AcDbXrecord
280
     1
102
MATERIAL
148
0.0
149
0.0
149
0.0
 93
        0
 94
      127
282
     0
 72
     0
 77
     0
171
     0
175
     0
179
     0
273
     0
  0
XRECORD
  5
F5
102
{ACAD_REACTORS
330
F3
102
}
330
F3
100
AcDbXrecord
280
     1
270
     1
271
     1
  0
XRECORD
  5
F4
102
{ACAD_REACTORS
330
F3
102
}
330
F3
100
AcDbXrecord
280
     1
270
     1
271
     1
  0
XRECORD
  5
F8
102
{ACAD_REACTORS
330
F3
102
}
330
F3
100
AcDbXrecord
280
     1
270
     1
271
     1
  0
XRECORD
  5
F7
102
{ACAD_REACTORS
330
F3
102
}
330
F3
100
AcDbXrecord
280
     1
270
     1
271
     1
  0
XRECORD
  5
F9
102
{ACAD_REACTORS
330
F3
102
}
330
F3
100
AcDbXrecord
280
     1
270
     1
271
     1
  0
XRECORD
  5
F6
102
{ACAD_REACTORS
330
F3
102
}
330
F3
100
AcDbXrecord
280
     1
270
     1
271
     1
  0
XRECORD
  5
1EA
102
{ACAD_REACTORS
330
103
102
}
330
103
100
AcDbXrecord
280
     1
102
MATERIAL
148
0.0
149
0.0
149
0.0
 93
        0
 94
      127
282
     0
 72
     0
 77
     0
171
     0
175
     0
179
     0
273
     0
  0
XRECORD
  5
105
102
{ACAD_REACTORS
330
103
102
}
330
103
100
AcDbXrecord
280
     1
270
     1
271
     1
  0
XRECORD
  5
104
102
{ACAD_REACTORS
330
103
102
}
330
103
100
AcDbXrecord
280
     1
270
     1
271
     1
  0
XRECORD
  5
108
102
{ACAD_REACTORS
330
103
102
}
330
103
100
AcDbXrecord
280
     1
270
     1
271
     1
  0
XRECORD
  5
107
102
{ACAD_REACTORS
330
103
102
}
330
103
100
AcDbXrecord
280
     1
270
     1
271
     1
  0
XRECORD
  5
109
102
{ACAD_REACTORS
330
103
102
}
330
103
100
AcDbXrecord
280
     1
270
     1
271
     1
  0
XRECORD
  5
106
102
{ACAD_REACTORS
330
103
102
}
330
103
100
AcDbXrecord
280
     1
270
     1
271
     1
  0
XRECORD
  5
CA8
102
{ACAD_REACTORS
330
CA7
102
}
330
CA7
100
AcDbXrecord
280
     1
102
DISPLAYNAME
  1
Imperial24
102
FLAGS
 90
        0
  0
XRECORD
  5
CB0
102
{ACAD_REACTORS
330
CAF
102
}
330
CAF
100
AcDbXrecord
280
     1
102
DISPLAYNAME
  1
Metric50
102
FLAGS
 90
        0
  0
CELLSTYLEMAP
  5
C73
102
{ACAD_REACTORS
330
1E3
102
}
330
1E3
100
AcDbCellStyleMap
 90
        3
300
CELLSTYLE
  1
TABLEFORMAT_BEGIN
 90
        5
170
     1
 91
        0
 92
    32768
 62
   257
 93
        1
300
CONTENTFORMAT
  1
CONTENTFORMAT_BEGIN
 90
        0
 91
        0
 92
      512
 93
        0
300

 40
0.0
140
1.0
 94
        5
 62
     0
340
136
144
0.25
309
CONTENTFORMAT_END
171
     1
301
MARGIN
  1
CELLMARGIN_BEGIN
 40
0.06
 40
0.06
 40
0.06
 40
0.06
 40
0.18
 40
0.18
309
CELLMARGIN_END
 94
        6
 95
        1
302
GRIDFORMAT
  1
GRIDFORMAT_BEGIN
 90
        0
 91
        1
 62
     0
 92
       -2
340
0
 93
        0
 40
0.045
309
GRIDFORMAT_END
 95
        2
302
GRIDFORMAT
  1
GRIDFORMAT_BEGIN
 90
        0
 91
        1
 62
     0
 92
       -2
340
0
 93
        0
 40
0.045
309
GRIDFORMAT_END
 95
        4
302
GRIDFORMAT
  1
GRIDFORMAT_BEGIN
 90
        0
 91
        1
 62
     0
 92
       -2
340
0
 93
        0
 40
0.045
309
GRIDFORMAT_END
 95
        8
302
GRIDFORMAT
  1
GRIDFORMAT_BEGIN
 90
        0
 91
        1
 62
     0
 92
       -2
340
0
 93
        0
 40
0.045
309
GRIDFORMAT_END
 95
       16
302
GRIDFORMAT
  1
GRIDFORMAT_BEGIN
 90
        0
 91
        1
 62
     0
 92
       -2
340
0
 93
        0
 40
0.045
309
GRIDFORMAT_END
 95
       32
302
GRIDFORMAT
  1
GRIDFORMAT_BEGIN
 90
        0
 91
        1
 62
     0
 92
       -2
340
0
 93
        0
 40
0.045
309
GRIDFORMAT_END
309
TABLEFORMAT_END
  1
CELLSTYLE_BEGIN
 90
        1
 91
        1
300
_TITLE
309
CELLSTYLE_END
300
CELLSTYLE
  1
TABLEFORMAT_BEGIN
 90
        5
170
     1
 91
        0
 92
        0
 62
   257
 93
        1
300
CONTENTFORMAT
  1
CONTENTFORMAT_BEGIN
 90
        0
 91
        0
 92
      512
 93
        0
300

 40
0.0
140
1.0
 94
        5
 62
     0
340
136
144
0.18
309
CONTENTFORMAT_END
171
     1
301
MARGIN
  1
CELLMARGIN_BEGIN
 40
0.06
 40
0.06
 40
0.06
 40
0.06
 40
0.18
 40
0.18
309
CELLMARGIN_END
 94
        6
 95
        1
302
GRIDFORMAT
  1
GRIDFORMAT_BEGIN
 90
        0
 91
        1
 62
     0
 92
       -2
340
0
 93
        0
 40
0.045
309
GRIDFORMAT_END
 95
        2
302
GRIDFORMAT
  1
GRIDFORMAT_BEGIN
 90
        0
 91
        1
 62
     0
 92
       -2
340
0
 93
        0
 40
0.045
309
GRIDFORMAT_END
 95
        4
302
GRIDFORMAT
  1
GRIDFORMAT_BEGIN
 90
        0
 91
        1
 62
     0
 92
       -2
340
0
 93
        0
 40
0.045
309
GRIDFORMAT_END
 95
        8
302
GRIDFORMAT
  1
GRIDFORMAT_BEGIN
 90
        0
 91
        1
 62
     0
 92
       -2
340
0
 93
        0
 40
0.045
309
GRIDFORMAT_END
 95
       16
302
GRIDFORMAT
  1
GRIDFORMAT_BEGIN
 90
        0
 91
        1
 62
     0
 92
       -2
340
0
 93
        0
 40
0.045
309
GRIDFORMAT_END
 95
       32
302
GRIDFORMAT
  1
GRIDFORMAT_BEGIN
 90
        0
 91
        1
 62
     0
 92
       -2
340
0
 93
        0
 40
0.045
309
GRIDFORMAT_END
309
TABLEFORMAT_END
  1
CELLSTYLE_BEGIN
 90
        2
 91
        1
300
_HEADER
309
CELLSTYLE_END
300
CELLSTYLE
  1
TABLEFORMAT_BEGIN
 90
        5
170
     1
 91
        0
 92
        0
 62
   257
 93
        1
300
CONTENTFORMAT
  1
CONTENTFORMAT_BEGIN
 90
        0
 91
        0
 92
      512
 93
        0
300

 40
0.0
140
1.0
 94
        2
 62
     0
340
136
144
0.18
309
CONTENTFORMAT_END
171
     1
301
MARGIN
  1
CELLMARGIN_BEGIN
 40
0.06
 40
0.06
 40
0.06
 40
0.06
 40
0.18
 40
0.18
309
CELLMARGIN_END
 94
        6
 95
        1
302
GRIDFORMAT
  1
GRIDFORMAT_BEGIN
 90
        0
 91
        1
 62
     0
 92
       -2
340
0
 93
        0
 40
0.045
309
GRIDFORMAT_END
 95
        2
302
GRIDFORMAT
  1
GRIDFORMAT_BEGIN
 90
        0
 91
        1
 62
     0
 92
       -2
340
0
 93
        0
 40
0.045
309
GRIDFORMAT_END
 95
        4
302
GRIDFORMAT
  1
GRIDFORMAT_BEGIN
 90
        0
 91
        1
 62
     0
 92
       -2
340
0
 93
        0
 40
0.045
309
GRIDFORMAT_END
 95
        8
302
GRIDFORMAT
  1
GRIDFORMAT_BEGIN
 90
        0
 91
        1
 62
     0
 92
       -2
340
0
 93
        0
 40
0.045
309
GRIDFORMAT_END
 95
       16
302
GRIDFORMAT
  1
GRIDFORMAT_BEGIN
 90
        0
 91
        1
 62
     0
 92
       -2
340
0
 93
        0
 40
0.045
309
GRIDFORMAT_END
 95
       32
302
GRIDFORMAT
  1
GRIDFORMAT_BEGIN
 90
        0
 91
        1
 62
     0
 92
       -2
340
0
 93
        0
 40
0.045
309
GRIDFORMAT_END
309
TABLEFORMAT_END
  1
CELLSTYLE_BEGIN
 90
        3
 91
        2
300
_DATA
309
CELLSTYLE_END
  0
XRECORD
  5
CA6
102
{ACAD_REACTORS
330
1E3
102
}
330
1E3
100
AcDbXrecord
280
     1
102
ACAD_ROUNDTRIP_PRE2007_TABLESTYLE
 90
      512
 91
        0
  1

 92
      512
 93
        0
  2

 94
      512
 95
        0
  3

  0
XRECORD
  5
C81
102
{ACAD_REACTORS
330
C80
102
}
330
C80
100
AcDbXrecord
280
     1
102
RTVSPost2010Prop28
280
     1
102
RTVSPost2010PropOp28
 70
     1
102
RTVSPost2010Prop29
280
     1
102
RTVSPost2010PropOp29
 70
     1
102
RTVSPost2010Prop30
280
     0
102
RTVSPost2010PropOp30
 70
     1
102
RTVSPost2010Prop31
280
     0
102
RTVSPost2010PropOp31
 70
     1
102
RTVSPost2010Prop32
280
     0
102
RTVSPost2010PropOp32
 70
     1
102
RTVSPost2010Prop33
280
     0
102
RTVSPost2010PropOp33
 70
     1
102
RTVSPost2010Prop34
280
     0
102
RTVSPost2010PropOp34
 70
     1
102
RTVSPost2010Prop35
280
     0
102
RTVSPost2010PropOp35
 70
     1
102
RTVSPost2010Prop36
280
     0
102
RTVSPost2010PropOp36
 70
     1
102
RTVSPost2010Prop37
 90
       50
102
RTVSPost2010PropOp37
 70
     1
102
RTVSPost2010Prop38
140
0.0
102
RTVSPost2010PropOp38
 70
     1
102
RTVSPost2010Prop39
140
1.0
102
RTVSPost2010PropOp39
 70
     1
102
RTVSPost2010Prop40
 90
        0
102
RTVSPost2010PropOp40
 70
     1
102
RTVSPost2010Prop41ColorIndex
 90
       18
102
RTVSPost2010Prop41ColorRGB
 90
        0
102
RTVSPost2010PropOp41
 70
     1
102
RTVSPost2010Prop42
 90
       50
102
RTVSPost2010PropOp42
 70
     1
102
RTVSPost2010Prop43
 90
        3
102
RTVSPost2010PropOp43
 70
     1
102
RTVSPost2010Prop44ColorIndex
 90
        5
102
RTVSPost2010Prop44ColorRGB
 90
      255
102
RTVSPost2010PropOp44
 70
     1
102
RTVSPost2010Prop45
280
     0
102
RTVSPost2010PropOp45
 70
     1
102
RTVSPost2010Prop46
 90
       50
102
RTVSPost2010PropOp46
 70
     1
102
RTVSPost2010Prop47
 90
       50
102
RTVSPost2010PropOp47
 70
     1
102
RTVSPost2010Prop48
 90
       50
102
RTVSPost2010PropOp48
 70
     1
102
RTVSPost2010Prop49
280
     0
102
RTVSPost2010PropOp49
 70
     1
102
RTVSPost2010Prop50
 90
       50
102
RTVSPost2010PropOp50
 70
     1
102
RTVSPost2010Prop51ColorIndex
 90
      256
102
RTVSPost2010Prop51ColorRGB
 90
-16777216
102
RTVSPost2010PropOp51
 70
     0
102
RTVSPost2010Prop52
140
1.0
102
RTVSPost2010PropOp52
 70
     0
102
RTVSPost2010Prop53
 90
        2
102
RTVSPost2010PropOp53
 70
     1
102
RTVSPost2010Prop54
  1
strokes_ogs.tif
102
RTVSPost2010PropOp54
 70
     1
102
RTVSPost2010Prop55
280
     0
102
RTVSPost2010PropOp55
 70
     1
102
RTVSPost2010Prop56
140
1.0
102
RTVSPost2010PropOp56
 70
     1
102
RTVSPost2010Prop57
140
1.0
102
RTVSPost2010PropOp57
 70
     1
102
RTVSPropertyOp0
 70
     1
102
RTVSPropertyOp1
 70
     1
102
RTVSPropertyOp2
 70
     1
102
RTVSPropertyOp3
 70
     1
102
RTVSPropertyOp4
 70
     1
102
RTVSPropertyOp5
 70
     1
102
RTVSPropertyOp6
 70
     1
102
RTVSPropertyOp7
 70
     1
102
RTVSPropertyOp8
 70
     1
102
RTVSPropertyOp9
 70
     1
102
RTVSPropertyOp10
 70
     1
102
RTVSPropertyOp11
 70
     1
102
RTVSPropertyOp12
 70
     1
102
RTVSPropertyOp13
 70
     1
102
RTVSPropertyOp14
 70
     1
102
RTVSPropertyOp15
 70
     1
102
RTVSPropertyOp16
 70
     1
102
RTVSPropertyOp17
 70
     1
102
RTVSPropertyOp18
 70
     1
102
RTVSPropertyOp19
 70
     1
102
RTVSPropertyOp20
 70
     1
102
RTVSPropertyOp21
 70
     1
102
RTVSPropertyOp22
 70
     1
102
RTVSPropertyOp23
 70
     1
102
RTVSPropertyOp24
 70
     1
102
RTVSPropertyOp25
 70
     1
102
RTVSPropertyOp26
 70
     1
102
RTVSPropertyOp27
 70
     1
102
RTVSPropertyOp28
 70
     1
102
RTVSPropertyOp29
 70
     1
102
RTVSPropertyOp30
 70
     1
102
RTVSPropertyOp31
 70
     1
102
RTVSPropertyOp32
 70
     1
102
RTVSPropertyOp33
 70
     1
102
RTVSPropertyOp34
 70
     1
102
RTVSPropertyOp35
 70
     1
102
RTVSPropertyOp36
 70
     1
102
RTVSPropertyOp37
 70
     1
102
RTVSPropertyOp38
 70
     1
102
RTVSPropertyOp39
 70
     1
102
RTVSPropertyOp40
 70
     1
102
RTVSPropertyOp41
 70
     1
102
RTVSPropertyOp42
 70
     1
102
RTVSPropertyOp43
 70
     1
102
RTVSPropertyOp44
 70
     1
102
RTVSPropertyOp45
 70
     1
102
RTVSPropertyOp46
 70
     1
102
RTVSPropertyOp47
 70
     1
102
RTVSPropertyOp48
 70
     1
102
RTVSPropertyOp49
 70
     1
102
RTVSPropertyOp50
 70
     1
102
RTVSPropertyOp51
 70
     0
102
RTVSPropertyOp52
 70
     0
102
RTVSPropertyOp53
 70
     1
102
RTVSPropertyOp54
 70
     1
102
RTVSPropertyOp55
 70
     1
102
RTVSPropertyOp56
 70
     1
102
RTVSPropertyOp57
 70
     1
102
RTVSPropertyOp58
 70
     1
102
RTVSPropertyOp59
 70
     1
102
RTVSPropertyOp60
 70
     1
102
RTVSPropertyOp61
 70
     1
102
RTVSPropertyOp62
 70
     1
  0
XRECORD
  5
C7F
102
{ACAD_REACTORS
330
C7E
102
}
330
C7E
100
AcDbXrecord
280
     1
102
RTVSPost2010Prop28
280
     0
102
RTVSPost2010PropOp28
 70
     1
102
RTVSPost2010Prop29
280
     1
102
RTVSPost2010PropOp29
 70
     1
102
RTVSPost2010Prop30
280
     1
102
RTVSPost2010PropOp30
 70
     1
102
RTVSPost2010Prop31
280
     0
102
RTVSPost2010PropOp31
 70
     1
102
RTVSPost2010Prop32
280
     0
102
RTVSPost2010PropOp32
 70
     1
102
RTVSPost2010Prop33
280
     0
102
RTVSPost2010PropOp33
 70
     1
102
RTVSPost2010Prop34
280
     0
102
RTVSPost2010PropOp34
 70
     1
102
RTVSPost2010Prop35
280
     0
102
RTVSPost2010PropOp35
 70
     1
102
RTVSPost2010Prop36
280
     0
102
RTVSPost2010PropOp36
 70
     1
102
RTVSPost2010Prop37
 90
       50
102
RTVSPost2010PropOp37
 70
     1
102
RTVSPost2010Prop38
140
0.0
102
RTVSPost2010PropOp38
 70
     1
102
RTVSPost2010Prop39
140
1.0
102
RTVSPost2010PropOp39
 70
     1
102
RTVSPost2010Prop40
 90
        0
102
RTVSPost2010PropOp40
 70
     1
102
RTVSPost2010Prop41ColorIndex
 90
       18
102
RTVSPost2010Prop41ColorRGB
 90
        0
102
RTVSPost2010PropOp41
 70
     1
102
RTVSPost2010Prop42
 90
       50
102
RTVSPost2010PropOp42
 70
     1
102
RTVSPost2010Prop43
 90
        3
102
RTVSPost2010PropOp43
 70
     1
102
RTVSPost2010Prop44ColorIndex
 90
        5
102
RTVSPost2010Prop44ColorRGB
 90
      255
102
RTVSPost2010PropOp44
 70
     1
102
RTVSPost2010Prop45
280
     0
102
RTVSPost2010PropOp45
 70
     1
102
RTVSPost2010Prop46
 90
       50
102
RTVSPost2010PropOp46
 70
     1
102
RTVSPost2010Prop47
 90
       50
102
RTVSPost2010PropOp47
 70
     1
102
RTVSPost2010Prop48
 90
       50
102
RTVSPost2010PropOp48
 70
     1
102
RTVSPost2010Prop49
280
     0
102
RTVSPost2010PropOp49
 70
     1
102
RTVSPost2010Prop50
 90
       50
102
RTVSPost2010PropOp50
 70
     1
102
RTVSPost2010Prop51ColorIndex
 90
      256
102
RTVSPost2010Prop51ColorRGB
 90
-16777216
102
RTVSPost2010PropOp51
 70
     0
102
RTVSPost2010Prop52
140
1.0
102
RTVSPost2010PropOp52
 70
     0
102
RTVSPost2010Prop53
 90
        2
102
RTVSPost2010PropOp53
 70
     1
102
RTVSPost2010Prop54
  1
strokes_ogs.tif
102
RTVSPost2010PropOp54
 70
     1
102
RTVSPost2010Prop55
280
     0
102
RTVSPost2010PropOp55
 70
     1
102
RTVSPost2010Prop56
140
1.0
102
RTVSPost2010PropOp56
 70
     1
102
RTVSPost2010Prop57
140
1.0
102
RTVSPost2010PropOp57
 70
     1
102
RTVSPropertyOp0
 70
     1
102
RTVSPropertyOp1
 70
     1
102
RTVSPropertyOp2
 70
     1
102
RTVSPropertyOp3
 70
     1
102
RTVSPropertyOp4
 70
     1
102
RTVSPropertyOp5
 70
     1
102
RTVSPropertyOp6
 70
     1
102
RTVSPropertyOp7
 70
     1
102
RTVSPropertyOp8
 70
     1
102
RTVSPropertyOp9
 70
     1
102
RTVSPropertyOp10
 70
     1
102
RTVSPropertyOp11
 70
     1
102
RTVSPropertyOp12
 70
     1
102
RTVSPropertyOp13
 70
     1
102
RTVSPropertyOp14
 70
     1
102
RTVSPropertyOp15
 70
     1
102
RTVSPropertyOp16
 70
     1
102
RTVSPropertyOp17
 70
     1
102
RTVSPropertyOp18
 70
     1
102
RTVSPropertyOp19
 70
     1
102
RTVSPropertyOp20
 70
     1
102
RTVSPropertyOp21
 70
     1
102
RTVSPropertyOp22
 70
     1
102
RTVSPropertyOp23
 70
     1
102
RTVSPropertyOp24
 70
     1
102
RTVSPropertyOp25
 70
     1
102
RTVSPropertyOp26
 70
     1
102
RTVSPropertyOp27
 70
     1
102
RTVSPropertyOp28
 70
     1
102
RTVSPropertyOp29
 70
     1
102
RTVSPropertyOp30
 70
     1
102
RTVSPropertyOp31
 70
     1
102
RTVSPropertyOp32
 70
     1
102
RTVSPropertyOp33
 70
     1
102
RTVSPropertyOp34
 70
     1
102
RTVSPropertyOp35
 70
     1
102
RTVSPropertyOp36
 70
     1
102
RTVSPropertyOp37
 70
     1
102
RTVSPropertyOp38
 70
     1
102
RTVSPropertyOp39
 70
     1
102
RTVSPropertyOp40
 70
     1
102
RTVSPropertyOp41
 70
     1
102
RTVSPropertyOp42
 70
     1
102
RTVSPropertyOp43
 70
     1
102
RTVSPropertyOp44
 70
     1
102
RTVSPropertyOp45
 70
     1
102
RTVSPropertyOp46
 70
     1
102
RTVSPropertyOp47
 70
     1
102
RTVSPropertyOp48
 70
     1
102
RTVSPropertyOp49
 70
     1
102
RTVSPropertyOp50
 70
     1
102
RTVSPropertyOp51
 70
     0
102
RTVSPropertyOp52
 70
     0
102
RTVSPropertyOp53
 70
     1
102
RTVSPropertyOp54
 70
     1
102
RTVSPropertyOp55
 70
     1
102
RTVSPropertyOp56
 70
     1
102
RTVSPropertyOp57
 70
     1
102
RTVSPropertyOp58
 70
     1
102
RTVSPropertyOp59
 70
     1
102
RTVSPropertyOp60
 70
     1
102
RTVSPropertyOp61
 70
     1
102
RTVSPropertyOp62
 70
     1
  0
XRECORD
  5
C8D
102
{ACAD_REACTORS
330
C8C
102
}
330
C8C
100
AcDbXrecord
280
     1
102
RTVSPost2010Prop28
280
     0
102
RTVSPost2010PropOp28
 70
     1
102
RTVSPost2010Prop29
280
     1
102
RTVSPost2010PropOp29
 70
     1
102
RTVSPost2010Prop30
280
     1
102
RTVSPost2010PropOp30
 70
     1
102
RTVSPost2010Prop31
280
     0
102
RTVSPost2010PropOp31
 70
     1
102
RTVSPost2010Prop32
280
     0
102
RTVSPost2010PropOp32
 70
     1
102
RTVSPost2010Prop33
280
     0
102
RTVSPost2010PropOp33
 70
     1
102
RTVSPost2010Prop34
280
     0
102
RTVSPost2010PropOp34
 70
     1
102
RTVSPost2010Prop35
280
     0
102
RTVSPost2010PropOp35
 70
     1
102
RTVSPost2010Prop36
280
     0
102
RTVSPost2010PropOp36
 70
     1
102
RTVSPost2010Prop37
 90
       50
102
RTVSPost2010PropOp37
 70
     1
102
RTVSPost2010Prop38
140
0.0
102
RTVSPost2010PropOp38
 70
     1
102
RTVSPost2010Prop39
140
1.0
102
RTVSPost2010PropOp39
 70
     1
102
RTVSPost2010Prop40
 90
        0
102
RTVSPost2010PropOp40
 70
     1
102
RTVSPost2010Prop41ColorIndex
 90
       18
102
RTVSPost2010Prop41ColorRGB
 90
        0
102
RTVSPost2010PropOp41
 70
     1
102
RTVSPost2010Prop42
 90
       50
102
RTVSPost2010PropOp42
 70
     1
102
RTVSPost2010Prop43
 90
        3
102
RTVSPost2010PropOp43
 70
     1
102
RTVSPost2010Prop44ColorIndex
 90
        5
102
RTVSPost2010Prop44ColorRGB
 90
      255
102
RTVSPost2010PropOp44
 70
     1
102
RTVSPost2010Prop45
280
     0
102
RTVSPost2010PropOp45
 70
     1
102
RTVSPost2010Prop46
 90
       50
102
RTVSPost2010PropOp46
 70
     1
102
RTVSPost2010Prop47
 90
       50
102
RTVSPost2010PropOp47
 70
     1
102
RTVSPost2010Prop48
 90
       50
102
RTVSPost2010PropOp48
 70
     1
102
RTVSPost2010Prop49
280
     0
102
RTVSPost2010PropOp49
 70
     1
102
RTVSPost2010Prop50
 90
       50
102
RTVSPost2010PropOp50
 70
     1
102
RTVSPost2010Prop51ColorIndex
 90
      256
102
RTVSPost2010Prop51ColorRGB
 90
-16777216
102
RTVSPost2010PropOp51
 70
     0
102
RTVSPost2010Prop52
140
1.0
102
RTVSPost2010PropOp52
 70
     0
102
RTVSPost2010Prop53
 90
        2
102
RTVSPost2010PropOp53
 70
     1
102
RTVSPost2010Prop54
  1
strokes_ogs.tif
102
RTVSPost2010PropOp54
 70
     1
102
RTVSPost2010Prop55
280
     0
102
RTVSPost2010PropOp55
 70
     1
102
RTVSPost2010Prop56
140
1.0
102
RTVSPost2010PropOp56
 70
     1
102
RTVSPost2010Prop57
140
1.0
102
RTVSPost2010PropOp57
 70
     1
102
RTVSPropertyOp0
 70
     1
102
RTVSPropertyOp1
 70
     1
102
RTVSPropertyOp2
 70
     1
102
RTVSPropertyOp3
 70
     1
102
RTVSPropertyOp4
 70
     1
102
RTVSPropertyOp5
 70
     1
102
RTVSPropertyOp6
 70
     1
102
RTVSPropertyOp7
 70
     1
102
RTVSPropertyOp8
 70
     1
102
RTVSPropertyOp9
 70
     1
102
RTVSPropertyOp10
 70
     1
102
RTVSPropertyOp11
 70
     1
102
RTVSPropertyOp12
 70
     1
102
RTVSPropertyOp13
 70
     1
102
RTVSPropertyOp14
 70
     1
102
RTVSPropertyOp15
 70
     1
102
RTVSPropertyOp16
 70
     1
102
RTVSPropertyOp17
 70
     1
102
RTVSPropertyOp18
 70
     1
102
RTVSPropertyOp19
 70
     1
102
RTVSPropertyOp20
 70
     1
102
RTVSPropertyOp21
 70
     1
102
RTVSPropertyOp22
 70
     1
102
RTVSPropertyOp23
 70
     1
102
RTVSPropertyOp24
 70
     1
102
RTVSPropertyOp25
 70
     1
102
RTVSPropertyOp26
 70
     1
102
RTVSPropertyOp27
 70
     1
102
RTVSPropertyOp28
 70
     1
102
RTVSPropertyOp29
 70
     1
102
RTVSPropertyOp30
 70
     1
102
RTVSPropertyOp31
 70
     1
102
RTVSPropertyOp32
 70
     1
102
RTVSPropertyOp33
 70
     1
102
RTVSPropertyOp34
 70
     1
102
RTVSPropertyOp35
 70
     1
102
RTVSPropertyOp36
 70
     1
102
RTVSPropertyOp37
 70
     1
102
RTVSPropertyOp38
 70
     1
102
RTVSPropertyOp39
 70
     1
102
RTVSPropertyOp40
 70
     1
102
RTVSPropertyOp41
 70
     1
102
RTVSPropertyOp42
 70
     1
102
RTVSPropertyOp43
 70
     1
102
RTVSPropertyOp44
 70
     1
102
RTVSPropertyOp45
 70
     1
102
RTVSPropertyOp46
 70
     1
102
RTVSPropertyOp47
 70
     1
102
RTVSPropertyOp48
 70
     1
102
RTVSPropertyOp49
 70
     1
102
RTVSPropertyOp50
 70
     1
102
RTVSPropertyOp51
 70
     0
102
RTVSPropertyOp52
 70
     0
102
RTVSPropertyOp53
 70
     1
102
RTVSPropertyOp54
 70
     1
102
RTVSPropertyOp55
 70
     1
102
RTVSPropertyOp56
 70
     1
102
RTVSPropertyOp57
 70
     1
102
RTVSPropertyOp58
 70
     1
102
RTVSPropertyOp59
 70
     1
102
RTVSPropertyOp60
 70
     1
102
RTVSPropertyOp61
 70
     1
102
RTVSPropertyOp62
 70
     1
  0
XRECORD
  5
C95
102
{ACAD_REACTORS
330
C94
102
}
330
C94
100
AcDbXrecord
280
     1
102
RTVSPost2010Prop28
280
     0
102
RTVSPost2010PropOp28
 70
     1
102
RTVSPost2010Prop29
280
     1
102
RTVSPost2010PropOp29
 70
     1
102
RTVSPost2010Prop30
280
     1
102
RTVSPost2010PropOp30
 70
     1
102
RTVSPost2010Prop31
280
     0
102
RTVSPost2010PropOp31
 70
     1
102
RTVSPost2010Prop32
280
     0
102
RTVSPost2010PropOp32
 70
     1
102
RTVSPost2010Prop33
280
     0
102
RTVSPost2010PropOp33
 70
     1
102
RTVSPost2010Prop34
280
     0
102
RTVSPost2010PropOp34
 70
     1
102
RTVSPost2010Prop35
280
     0
102
RTVSPost2010PropOp35
 70
     1
102
RTVSPost2010Prop36
280
     0
102
RTVSPost2010PropOp36
 70
     1
102
RTVSPost2010Prop37
 90
       50
102
RTVSPost2010PropOp37
 70
     1
102
RTVSPost2010Prop38
140
0.0
102
RTVSPost2010PropOp38
 70
     1
102
RTVSPost2010Prop39
140
1.0
102
RTVSPost2010PropOp39
 70
     1
102
RTVSPost2010Prop40
 90
        0
102
RTVSPost2010PropOp40
 70
     1
102
RTVSPost2010Prop41ColorIndex
 90
       18
102
RTVSPost2010Prop41ColorRGB
 90
        0
102
RTVSPost2010PropOp41
 70
     1
102
RTVSPost2010Prop42
 90
       50
102
RTVSPost2010PropOp42
 70
     1
102
RTVSPost2010Prop43
 90
        3
102
RTVSPost2010PropOp43
 70
     1
102
RTVSPost2010Prop44ColorIndex
 90
        5
102
RTVSPost2010Prop44ColorRGB
 90
      255
102
RTVSPost2010PropOp44
 70
     1
102
RTVSPost2010Prop45
280
     0
102
RTVSPost2010PropOp45
 70
     1
102
RTVSPost2010Prop46
 90
       50
102
RTVSPost2010PropOp46
 70
     1
102
RTVSPost2010Prop47
 90
       50
102
RTVSPost2010PropOp47
 70
     1
102
RTVSPost2010Prop48
 90
       50
102
RTVSPost2010PropOp48
 70
     1
102
RTVSPost2010Prop49
280
     0
102
RTVSPost2010PropOp49
 70
     1
102
RTVSPost2010Prop50
 90
       50
102
RTVSPost2010PropOp50
 70
     1
102
RTVSPost2010Prop51ColorIndex
 90
      256
102
RTVSPost2010Prop51ColorRGB
 90
-16777216
102
RTVSPost2010PropOp51
 70
     0
102
RTVSPost2010Prop52
140
1.0
102
RTVSPost2010PropOp52
 70
     0
102
RTVSPost2010Prop53
 90
        2
102
RTVSPost2010PropOp53
 70
     1
102
RTVSPost2010Prop54
  1
strokes_ogs.tif
102
RTVSPost2010PropOp54
 70
     1
102
RTVSPost2010Prop55
280
     0
102
RTVSPost2010PropOp55
 70
     1
102
RTVSPost2010Prop56
140
1.0
102
RTVSPost2010PropOp56
 70
     1
102
RTVSPost2010Prop57
140
1.0
102
RTVSPost2010PropOp57
 70
     1
102
RTVSPropertyOp0
 70
     1
102
RTVSPropertyOp1
 70
     1
102
RTVSPropertyOp2
 70
     1
102
RTVSPropertyOp3
 70
     1
102
RTVSPropertyOp4
 70
     1
102
RTVSPropertyOp5
 70
     1
102
RTVSPropertyOp6
 70
     1
102
RTVSPropertyOp7
 70
     1
102
RTVSPropertyOp8
 70
     1
102
RTVSPropertyOp9
 70
     1
102
RTVSPropertyOp10
 70
     1
102
RTVSPropertyOp11
 70
     1
102
RTVSPropertyOp12
 70
     1
102
RTVSPropertyOp13
 70
     1
102
RTVSPropertyOp14
 70
     1
102
RTVSPropertyOp15
 70
     1
102
RTVSPropertyOp16
 70
     1
102
RTVSPropertyOp17
 70
     1
102
RTVSPropertyOp18
 70
     1
102
RTVSPropertyOp19
 70
     1
102
RTVSPropertyOp20
 70
     1
102
RTVSPropertyOp21
 70
     1
102
RTVSPropertyOp22
 70
     1
102
RTVSPropertyOp23
 70
     1
102
RTVSPropertyOp24
 70
     1
102
RTVSPropertyOp25
 70
     1
102
RTVSPropertyOp26
 70
     1
102
RTVSPropertyOp27
 70
     1
102
RTVSPropertyOp28
 70
     1
102
RTVSPropertyOp29
 70
     1
102
RTVSPropertyOp30
 70
     1
102
RTVSPropertyOp31
 70
     1
102
RTVSPropertyOp32
 70
     1
102
RTVSPropertyOp33
 70
     1
102
RTVSPropertyOp34
 70
     1
102
RTVSPropertyOp35
 70
     1
102
RTVSPropertyOp36
 70
     1
102
RTVSPropertyOp37
 70
     1
102
RTVSPropertyOp38
 70
     1
102
RTVSPropertyOp39
 70
     1
102
RTVSPropertyOp40
 70
     1
102
RTVSPropertyOp41
 70
     1
102
RTVSPropertyOp42
 70
     1
102
RTVSPropertyOp43
 70
     1
102
RTVSPropertyOp44
 70
     1
102
RTVSPropertyOp45
 70
     1
102
RTVSPropertyOp46
 70
     1
102
RTVSPropertyOp47
 70
     1
102
RTVSPropertyOp48
 70
     1
102
RTVSPropertyOp49
 70
     1
102
RTVSPropertyOp50
 70
     1
102
RTVSPropertyOp51
 70
     0
102
RTVSPropertyOp52
 70
     0
102
RTVSPropertyOp53
 70
     1
102
RTVSPropertyOp54
 70
     1
102
RTVSPropertyOp55
 70
     1
102
RTVSPropertyOp56
 70
     1
102
RTVSPropertyOp57
 70
     1
102
RTVSPropertyOp58
 70
     1
102
RTVSPropertyOp59
 70
     1
102
RTVSPropertyOp60
 70
     1
102
RTVSPropertyOp61
 70
     1
102
RTVSPropertyOp62
 70
     1
  0
XRECORD
  5
C87
102
{ACAD_REACTORS
330
C86
102
}
330
C86
100
AcDbXrecord
280
     1
102
RTVSPost2010Prop28
280
     0
102
RTVSPost2010PropOp28
 70
     1
102
RTVSPost2010Prop29
280
     1
102
RTVSPost2010PropOp29
 70
     1
102
RTVSPost2010Prop30
280
     1
102
RTVSPost2010PropOp30
 70
     1
102
RTVSPost2010Prop31
280
     0
102
RTVSPost2010PropOp31
 70
     1
102
RTVSPost2010Prop32
280
     0
102
RTVSPost2010PropOp32
 70
     1
102
RTVSPost2010Prop33
280
     0
102
RTVSPost2010PropOp33
 70
     1
102
RTVSPost2010Prop34
280
     0
102
RTVSPost2010PropOp34
 70
     1
102
RTVSPost2010Prop35
280
     0
102
RTVSPost2010PropOp35
 70
     1
102
RTVSPost2010Prop36
280
     0
102
RTVSPost2010PropOp36
 70
     1
102
RTVSPost2010Prop37
 90
       50
102
RTVSPost2010PropOp37
 70
     1
102
RTVSPost2010Prop38
140
0.0
102
RTVSPost2010PropOp38
 70
     1
102
RTVSPost2010Prop39
140
1.0
102
RTVSPost2010PropOp39
 70
     1
102
RTVSPost2010Prop40
 90
        0
102
RTVSPost2010PropOp40
 70
     1
102
RTVSPost2010Prop41ColorIndex
 90
       18
102
RTVSPost2010Prop41ColorRGB
 90
        0
102
RTVSPost2010PropOp41
 70
     1
102
RTVSPost2010Prop42
 90
       50
102
RTVSPost2010PropOp42
 70
     1
102
RTVSPost2010Prop43
 90
        3
102
RTVSPost2010PropOp43
 70
     1
102
RTVSPost2010Prop44ColorIndex
 90
        5
102
RTVSPost2010Prop44ColorRGB
 90
      255
102
RTVSPost2010PropOp44
 70
     1
102
RTVSPost2010Prop45
280
     0
102
RTVSPost2010PropOp45
 70
     1
102
RTVSPost2010Prop46
 90
       50
102
RTVSPost2010PropOp46
 70
     1
102
RTVSPost2010Prop47
 90
       50
102
RTVSPost2010PropOp47
 70
     1
102
RTVSPost2010Prop48
 90
       50
102
RTVSPost2010PropOp48
 70
     1
102
RTVSPost2010Prop49
280
     0
102
RTVSPost2010PropOp49
 70
     1
102
RTVSPost2010Prop50
 90
       50
102
RTVSPost2010PropOp50
 70
     1
102
RTVSPost2010Prop51ColorIndex
 90
      256
102
RTVSPost2010Prop51ColorRGB
 90
-16777216
102
RTVSPost2010PropOp51
 70
     0
102
RTVSPost2010Prop52
140
1.0
102
RTVSPost2010PropOp52
 70
     0
102
RTVSPost2010Prop53
 90
        2
102
RTVSPost2010PropOp53
 70
     1
102
RTVSPost2010Prop54
  1
strokes_ogs.tif
102
RTVSPost2010PropOp54
 70
     1
102
RTVSPost2010Prop55
280
     0
102
RTVSPost2010PropOp55
 70
     1
102
RTVSPost2010Prop56
140
1.0
102
RTVSPost2010PropOp56
 70
     1
102
RTVSPost2010Prop57
140
1.0
102
RTVSPost2010PropOp57
 70
     1
102
RTVSPropertyOp0
 70
     1
102
RTVSPropertyOp1
 70
     1
102
RTVSPropertyOp2
 70
     1
102
RTVSPropertyOp3
 70
     1
102
RTVSPropertyOp4
 70
     1
102
RTVSPropertyOp5
 70
     1
102
RTVSPropertyOp6
 70
     1
102
RTVSPropertyOp7
 70
     1
102
RTVSPropertyOp8
 70
     1
102
RTVSPropertyOp9
 70
     1
102
RTVSPropertyOp10
 70
     1
102
RTVSPropertyOp11
 70
     1
102
RTVSPropertyOp12
 70
     1
102
RTVSPropertyOp13
 70
     1
102
RTVSPropertyOp14
 70
     1
102
RTVSPropertyOp15
 70
     1
102
RTVSPropertyOp16
 70
     1
102
RTVSPropertyOp17
 70
     1
102
RTVSPropertyOp18
 70
     1
102
RTVSPropertyOp19
 70
     1
102
RTVSPropertyOp20
 70
     1
102
RTVSPropertyOp21
 70
     1
102
RTVSPropertyOp22
 70
     1
102
RTVSPropertyOp23
 70
     1
102
RTVSPropertyOp24
 70
     1
102
RTVSPropertyOp25
 70
     1
102
RTVSPropertyOp26
 70
     1
102
RTVSPropertyOp27
 70
     1
102
RTVSPropertyOp28
 70
     1
102
RTVSPropertyOp29
 70
     1
102
RTVSPropertyOp30
 70
     1
102
RTVSPropertyOp31
 70
     1
102
RTVSPropertyOp32
 70
     1
102
RTVSPropertyOp33
 70
     1
102
RTVSPropertyOp34
 70
     1
102
RTVSPropertyOp35
 70
     1
102
RTVSPropertyOp36
 70
     1
102
RTVSPropertyOp37
 70
     1
102
RTVSPropertyOp38
 70
     1
102
RTVSPropertyOp39
 70
     1
102
RTVSPropertyOp40
 70
     1
102
RTVSPropertyOp41
 70
     1
102
RTVSPropertyOp42
 70
     1
102
RTVSPropertyOp43
 70
     1
102
RTVSPropertyOp44
 70
     1
102
RTVSPropertyOp45
 70
     1
102
RTVSPropertyOp46
 70
     1
102
RTVSPropertyOp47
 70
     1
102
RTVSPropertyOp48
 70
     1
102
RTVSPropertyOp49
 70
     1
102
RTVSPropertyOp50
 70
     1
102
RTVSPropertyOp51
 70
     0
102
RTVSPropertyOp52
 70
     0
102
RTVSPropertyOp53
 70
     1
102
RTVSPropertyOp54
 70
     1
102
RTVSPropertyOp55
 70
     1
102
RTVSPropertyOp56
 70
     1
102
RTVSPropertyOp57
 70
     1
102
RTVSPropertyOp58
 70
     1
102
RTVSPropertyOp59
 70
     1
102
RTVSPropertyOp60
 70
     1
102
RTVSPropertyOp61
 70
     1
102
RTVSPropertyOp62
 70
     1
  0
XRECORD
  5
C8B
102
{ACAD_REACTORS
330
C8A
102
}
330
C8A
100
AcDbXrecord
280
     1
102
RTVSPost2010Prop28
280
     0
102
RTVSPost2010PropOp28
 70
     1
102
RTVSPost2010Prop29
280
     1
102
RTVSPost2010PropOp29
 70
     1
102
RTVSPost2010Prop30
280
     1
102
RTVSPost2010PropOp30
 70
     1
102
RTVSPost2010Prop31
280
     0
102
RTVSPost2010PropOp31
 70
     1
102
RTVSPost2010Prop32
280
     0
102
RTVSPost2010PropOp32
 70
     1
102
RTVSPost2010Prop33
280
     0
102
RTVSPost2010PropOp33
 70
     1
102
RTVSPost2010Prop34
280
     0
102
RTVSPost2010PropOp34
 70
     1
102
RTVSPost2010Prop35
280
     0
102
RTVSPost2010PropOp35
 70
     1
102
RTVSPost2010Prop36
280
     0
102
RTVSPost2010PropOp36
 70
     1
102
RTVSPost2010Prop37
 90
       50
102
RTVSPost2010PropOp37
 70
     1
102
RTVSPost2010Prop38
140
0.0
102
RTVSPost2010PropOp38
 70
     1
102
RTVSPost2010Prop39
140
1.0
102
RTVSPost2010PropOp39
 70
     1
102
RTVSPost2010Prop40
 90
        0
102
RTVSPost2010PropOp40
 70
     1
102
RTVSPost2010Prop41ColorIndex
 90
       18
102
RTVSPost2010Prop41ColorRGB
 90
        0
102
RTVSPost2010PropOp41
 70
     1
102
RTVSPost2010Prop42
 90
       50
102
RTVSPost2010PropOp42
 70
     1
102
RTVSPost2010Prop43
 90
        3
102
RTVSPost2010PropOp43
 70
     1
102
RTVSPost2010Prop44ColorIndex
 90
        5
102
RTVSPost2010Prop44ColorRGB
 90
      255
102
RTVSPost2010PropOp44
 70
     1
102
RTVSPost2010Prop45
280
     0
102
RTVSPost2010PropOp45
 70
     1
102
RTVSPost2010Prop46
 90
       50
102
RTVSPost2010PropOp46
 70
     1
102
RTVSPost2010Prop47
 90
       50
102
RTVSPost2010PropOp47
 70
     1
102
RTVSPost2010Prop48
 90
       50
102
RTVSPost2010PropOp48
 70
     1
102
RTVSPost2010Prop49
280
     0
102
RTVSPost2010PropOp49
 70
     1
102
RTVSPost2010Prop50
 90
       50
102
RTVSPost2010PropOp50
 70
     1
102
RTVSPost2010Prop51ColorIndex
 90
      256
102
RTVSPost2010Prop51ColorRGB
 90
-16777216
102
RTVSPost2010PropOp51
 70
     0
102
RTVSPost2010Prop52
140
1.0
102
RTVSPost2010PropOp52
 70
     0
102
RTVSPost2010Prop53
 90
        2
102
RTVSPost2010PropOp53
 70
     1
102
RTVSPost2010Prop54
  1
strokes_ogs.tif
102
RTVSPost2010PropOp54
 70
     1
102
RTVSPost2010Prop55
280
     0
102
RTVSPost2010PropOp55
 70
     1
102
RTVSPost2010Prop56
140
1.0
102
RTVSPost2010PropOp56
 70
     1
102
RTVSPost2010Prop57
140
1.0
102
RTVSPost2010PropOp57
 70
     1
102
RTVSPropertyOp0
 70
     1
102
RTVSPropertyOp1
 70
     1
102
RTVSPropertyOp2
 70
     1
102
RTVSPropertyOp3
 70
     1
102
RTVSPropertyOp4
 70
     1
102
RTVSPropertyOp5
 70
     1
102
RTVSPropertyOp6
 70
     1
102
RTVSPropertyOp7
 70
     1
102
RTVSPropertyOp8
 70
     1
102
RTVSPropertyOp9
 70
     1
102
RTVSPropertyOp10
 70
     1
102
RTVSPropertyOp11
 70
     1
102
RTVSPropertyOp12
 70
     1
102
RTVSPropertyOp13
 70
     1
102
RTVSPropertyOp14
 70
     1
102
RTVSPropertyOp15
 70
     1
102
RTVSPropertyOp16
 70
     1
102
RTVSPropertyOp17
 70
     1
102
RTVSPropertyOp18
 70
     1
102
RTVSPropertyOp19
 70
     1
102
RTVSPropertyOp20
 70
     1
102
RTVSPropertyOp21
 70
     1
102
RTVSPropertyOp22
 70
     1
102
RTVSPropertyOp23
 70
     1
102
RTVSPropertyOp24
 70
     1
102
RTVSPropertyOp25
 70
     1
102
RTVSPropertyOp26
 70
     1
102
RTVSPropertyOp27
 70
     1
102
RTVSPropertyOp28
 70
     1
102
RTVSPropertyOp29
 70
     1
102
RTVSPropertyOp30
 70
     1
102
RTVSPropertyOp31
 70
     1
102
RTVSPropertyOp32
 70
     1
102
RTVSPropertyOp33
 70
     1
102
RTVSPropertyOp34
 70
     1
102
RTVSPropertyOp35
 70
     1
102
RTVSPropertyOp36
 70
     1
102
RTVSPropertyOp37
 70
     1
102
RTVSPropertyOp38
 70
     1
102
RTVSPropertyOp39
 70
     1
102
RTVSPropertyOp40
 70
     1
102
RTVSPropertyOp41
 70
     1
102
RTVSPropertyOp42
 70
     1
102
RTVSPropertyOp43
 70
     1
102
RTVSPropertyOp44
 70
     1
102
RTVSPropertyOp45
 70
     1
102
RTVSPropertyOp46
 70
     1
102
RTVSPropertyOp47
 70
     1
102
RTVSPropertyOp48
 70
     1
102
RTVSPropertyOp49
 70
     1
102
RTVSPropertyOp50
 70
     1
102
RTVSPropertyOp51
 70
     0
102
RTVSPropertyOp52
 70
     0
102
RTVSPropertyOp53
 70
     1
102
RTVSPropertyOp54
 70
     1
102
RTVSPropertyOp55
 70
     1
102
RTVSPropertyOp56
 70
     1
102
RTVSPropertyOp57
 70
     1
102
RTVSPropertyOp58
 70
     1
102
RTVSPropertyOp59
 70
     1
102
RTVSPropertyOp60
 70
     1
102
RTVSPropertyOp61
 70
     1
102
RTVSPropertyOp62
 70
     1
  0
XRECORD
  5
CA5
102
{ACAD_REACTORS
330
CA4
102
}
330
CA4
100
AcDbXrecord
280
     1
102
RTVSPost2010Prop28
280
     0
102
RTVSPost2010PropOp28
 70
     1
102
RTVSPost2010Prop29
280
     1
102
RTVSPost2010PropOp29
 70
     1
102
RTVSPost2010Prop30
280
     1
102
RTVSPost2010PropOp30
 70
     1
102
RTVSPost2010Prop31
280
     0
102
RTVSPost2010PropOp31
 70
     1
102
RTVSPost2010Prop32
280
     0
102
RTVSPost2010PropOp32
 70
     1
102
RTVSPost2010Prop33
280
     0
102
RTVSPost2010PropOp33
 70
     1
102
RTVSPost2010Prop34
280
     0
102
RTVSPost2010PropOp34
 70
     1
102
RTVSPost2010Prop35
280
     0
102
RTVSPost2010PropOp35
 70
     1
102
RTVSPost2010Prop36
280
     0
102
RTVSPost2010PropOp36
 70
     1
102
RTVSPost2010Prop37
 90
       50
102
RTVSPost2010PropOp37
 70
     0
102
RTVSPost2010Prop38
140
0.0
102
RTVSPost2010PropOp38
 70
     0
102
RTVSPost2010Prop39
140
1.0
102
RTVSPost2010PropOp39
 70
     0
102
RTVSPost2010Prop40
 90
        0
102
RTVSPost2010PropOp40
 70
     0
102
RTVSPost2010Prop41ColorIndex
 90
       18
102
RTVSPost2010Prop41ColorRGB
 90
        0
102
RTVSPost2010PropOp41
 70
     0
102
RTVSPost2010Prop42
 90
       50
102
RTVSPost2010PropOp42
 70
     0
102
RTVSPost2010Prop43
 90
        3
102
RTVSPost2010PropOp43
 70
     0
102
RTVSPost2010Prop44ColorIndex
 90
        5
102
RTVSPost2010Prop44ColorRGB
 90
      255
102
RTVSPost2010PropOp44
 70
     0
102
RTVSPost2010Prop45
280
     0
102
RTVSPost2010PropOp45
 70
     1
102
RTVSPost2010Prop46
 90
       50
102
RTVSPost2010PropOp46
 70
     0
102
RTVSPost2010Prop47
 90
       50
102
RTVSPost2010PropOp47
 70
     0
102
RTVSPost2010Prop48
 90
       50
102
RTVSPost2010PropOp48
 70
     0
102
RTVSPost2010Prop49
280
     0
102
RTVSPost2010PropOp49
 70
     1
102
RTVSPost2010Prop50
 90
       50
102
RTVSPost2010PropOp50
 70
     0
102
RTVSPost2010Prop51ColorIndex
 90
      256
102
RTVSPost2010Prop51ColorRGB
 90
-16777216
102
RTVSPost2010PropOp51
 70
     0
102
RTVSPost2010Prop52
140
1.0
102
RTVSPost2010PropOp52
 70
     0
102
RTVSPost2010Prop53
 90
        2
102
RTVSPost2010PropOp53
 70
     0
102
RTVSPost2010Prop54
  1
strokes_ogs.tif
102
RTVSPost2010PropOp54
 70
     0
102
RTVSPost2010Prop55
280
     0
102
RTVSPost2010PropOp55
 70
     1
102
RTVSPost2010Prop56
140
1.0
102
RTVSPost2010PropOp56
 70
     0
102
RTVSPost2010Prop57
140
1.0
102
RTVSPost2010PropOp57
 70
     0
102
RTVSPropertyOp0
 70
     0
102
RTVSPropertyOp1
 70
     0
102
RTVSPropertyOp2
 70
     0
102
RTVSPropertyOp3
 70
     0
102
RTVSPropertyOp4
 70
     0
102
RTVSPropertyOp5
 70
     0
102
RTVSPropertyOp6
 70
     0
102
RTVSPropertyOp7
 70
     0
102
RTVSPropertyOp8
 70
     0
102
RTVSPropertyOp9
 70
     0
102
RTVSPropertyOp10
 70
     0
102
RTVSPropertyOp11
 70
     0
102
RTVSPropertyOp12
 70
     0
102
RTVSPropertyOp13
 70
     0
102
RTVSPropertyOp14
 70
     2
102
RTVSPropertyOp15
 70
     0
102
RTVSPropertyOp16
 70
     0
102
RTVSPropertyOp17
 70
     0
102
RTVSPropertyOp18
 70
     0
102
RTVSPropertyOp19
 70
     0
102
RTVSPropertyOp20
 70
     0
102
RTVSPropertyOp21
 70
     0
102
RTVSPropertyOp22
 70
     0
102
RTVSPropertyOp23
 70
     0
102
RTVSPropertyOp24
 70
     0
102
RTVSPropertyOp25
 70
     0
102
RTVSPropertyOp26
 70
     0
102
RTVSPropertyOp27
 70
     0
102
RTVSPropertyOp28
 70
     1
102
RTVSPropertyOp29
 70
     1
102
RTVSPropertyOp30
 70
     1
102
RTVSPropertyOp31
 70
     1
102
RTVSPropertyOp32
 70
     1
102
RTVSPropertyOp33
 70
     1
102
RTVSPropertyOp34
 70
     1
102
RTVSPropertyOp35
 70
     1
102
RTVSPropertyOp36
 70
     1
102
RTVSPropertyOp37
 70
     0
102
RTVSPropertyOp38
 70
     0
102
RTVSPropertyOp39
 70
     0
102
RTVSPropertyOp40
 70
     0
102
RTVSPropertyOp41
 70
     0
102
RTVSPropertyOp42
 70
     0
102
RTVSPropertyOp43
 70
     0
102
RTVSPropertyOp44
 70
     0
102
RTVSPropertyOp45
 70
     1
102
RTVSPropertyOp46
 70
     0
102
RTVSPropertyOp47
 70
     0
102
RTVSPropertyOp48
 70
     0
102
RTVSPropertyOp49
 70
     1
102
RTVSPropertyOp50
 70
     0
102
RTVSPropertyOp51
 70
     0
102
RTVSPropertyOp52
 70
     0
102
RTVSPropertyOp53
 70
     0
102
RTVSPropertyOp54
 70
     0
102
RTVSPropertyOp55
 70
     1
102
RTVSPropertyOp56
 70
     0
102
RTVSPropertyOp57
 70
     0
102
RTVSPropertyOp58
 70
     1
102
RTVSPropertyOp59
 70
     1
102
RTVSPropertyOp60
 70
     1
102
RTVSPropertyOp61
 70
     1
102
RTVSPropertyOp62
 70
     1
  0
XRECORD
  5
C93
102
{ACAD_REACTORS
330
C92
102
}
330
C92
100
AcDbXrecord
280
     1
102
RTVSPost2010Prop28
280
     0
102
RTVSPost2010PropOp28
 70
     1
102
RTVSPost2010Prop29
280
     1
102
RTVSPost2010PropOp29
 70
     1
102
RTVSPost2010Prop30
280
     1
102
RTVSPost2010PropOp30
 70
     1
102
RTVSPost2010Prop31
280
     0
102
RTVSPost2010PropOp31
 70
     1
102
RTVSPost2010Prop32
280
     0
102
RTVSPost2010PropOp32
 70
     1
102
RTVSPost2010Prop33
280
     0
102
RTVSPost2010PropOp33
 70
     1
102
RTVSPost2010Prop34
280
     0
102
RTVSPost2010PropOp34
 70
     1
102
RTVSPost2010Prop35
280
     0
102
RTVSPost2010PropOp35
 70
     1
102
RTVSPost2010Prop36
280
     0
102
RTVSPost2010PropOp36
 70
     1
102
RTVSPost2010Prop37
 90
       50
102
RTVSPost2010PropOp37
 70
     1
102
RTVSPost2010Prop38
140
0.0
102
RTVSPost2010PropOp38
 70
     1
102
RTVSPost2010Prop39
140
1.0
102
RTVSPost2010PropOp39
 70
     1
102
RTVSPost2010Prop40
 90
        0
102
RTVSPost2010PropOp40
 70
     1
102
RTVSPost2010Prop41ColorIndex
 90
       18
102
RTVSPost2010Prop41ColorRGB
 90
        0
102
RTVSPost2010PropOp41
 70
     1
102
RTVSPost2010Prop42
 90
       50
102
RTVSPost2010PropOp42
 70
     1
102
RTVSPost2010Prop43
 90
        3
102
RTVSPost2010PropOp43
 70
     1
102
RTVSPost2010Prop44ColorIndex
 90
        5
102
RTVSPost2010Prop44ColorRGB
 90
      255
102
RTVSPost2010PropOp44
 70
     1
102
RTVSPost2010Prop45
280
     0
102
RTVSPost2010PropOp45
 70
     1
102
RTVSPost2010Prop46
 90
       50
102
RTVSPost2010PropOp46
 70
     1
102
RTVSPost2010Prop47
 90
       50
102
RTVSPost2010PropOp47
 70
     1
102
RTVSPost2010Prop48
 90
       50
102
RTVSPost2010PropOp48
 70
     1
102
RTVSPost2010Prop49
280
     0
102
RTVSPost2010PropOp49
 70
     1
102
RTVSPost2010Prop50
 90
       50
102
RTVSPost2010PropOp50
 70
     1
102
RTVSPost2010Prop51ColorIndex
 90
      256
102
RTVSPost2010Prop51ColorRGB
 90
-16777216
102
RTVSPost2010PropOp51
 70
     0
102
RTVSPost2010Prop52
140
1.0
102
RTVSPost2010PropOp52
 70
     0
102
RTVSPost2010Prop53
 90
        2
102
RTVSPost2010PropOp53
 70
     1
102
RTVSPost2010Prop54
  1
strokes_ogs.tif
102
RTVSPost2010PropOp54
 70
     1
102
RTVSPost2010Prop55
280
     0
102
RTVSPost2010PropOp55
 70
     1
102
RTVSPost2010Prop56
140
1.0
102
RTVSPost2010PropOp56
 70
     1
102
RTVSPost2010Prop57
140
1.0
102
RTVSPost2010PropOp57
 70
     1
102
RTVSPropertyOp0
 70
     1
102
RTVSPropertyOp1
 70
     1
102
RTVSPropertyOp2
 70
     1
102
RTVSPropertyOp3
 70
     1
102
RTVSPropertyOp4
 70
     1
102
RTVSPropertyOp5
 70
     1
102
RTVSPropertyOp6
 70
     1
102
RTVSPropertyOp7
 70
     1
102
RTVSPropertyOp8
 70
     1
102
RTVSPropertyOp9
 70
     1
102
RTVSPropertyOp10
 70
     1
102
RTVSPropertyOp11
 70
     1
102
RTVSPropertyOp12
 70
     1
102
RTVSPropertyOp13
 70
     1
102
RTVSPropertyOp14
 70
     1
102
RTVSPropertyOp15
 70
     1
102
RTVSPropertyOp16
 70
     1
102
RTVSPropertyOp17
 70
     1
102
RTVSPropertyOp18
 70
     1
102
RTVSPropertyOp19
 70
     1
102
RTVSPropertyOp20
 70
     1
102
RTVSPropertyOp21
 70
     1
102
RTVSPropertyOp22
 70
     1
102
RTVSPropertyOp23
 70
     1
102
RTVSPropertyOp24
 70
     1
102
RTVSPropertyOp25
 70
     1
102
RTVSPropertyOp26
 70
     1
102
RTVSPropertyOp27
 70
     1
102
RTVSPropertyOp28
 70
     1
102
RTVSPropertyOp29
 70
     1
102
RTVSPropertyOp30
 70
     1
102
RTVSPropertyOp31
 70
     1
102
RTVSPropertyOp32
 70
     1
102
RTVSPropertyOp33
 70
     1
102
RTVSPropertyOp34
 70
     1
102
RTVSPropertyOp35
 70
     1
102
RTVSPropertyOp36
 70
     1
102
RTVSPropertyOp37
 70
     1
102
RTVSPropertyOp38
 70
     1
102
RTVSPropertyOp39
 70
     1
102
RTVSPropertyOp40
 70
     1
102
RTVSPropertyOp41
 70
     1
102
RTVSPropertyOp42
 70
     1
102
RTVSPropertyOp43
 70
     1
102
RTVSPropertyOp44
 70
     1
102
RTVSPropertyOp45
 70
     1
102
RTVSPropertyOp46
 70
     1
102
RTVSPropertyOp47
 70
     1
102
RTVSPropertyOp48
 70
     1
102
RTVSPropertyOp49
 70
     1
102
RTVSPropertyOp50
 70
     1
102
RTVSPropertyOp51
 70
     0
102
RTVSPropertyOp52
 70
     0
102
RTVSPropertyOp53
 70
     1
102
RTVSPropertyOp54
 70
     1
102
RTVSPropertyOp55
 70
     1
102
RTVSPropertyOp56
 70
     1
102
RTVSPropertyOp57
 70
     1
102
RTVSPropertyOp58
 70
     1
102
RTVSPropertyOp59
 70
     1
102
RTVSPropertyOp60
 70
     1
102
RTVSPropertyOp61
 70
     1
102
RTVSPropertyOp62
 70
     1
  0
XRECORD
  5
C77
102
{ACAD_REACTORS
330
C76
102
}
330
C76
100
AcDbXrecord
280
     1
102
RTVSPost2010Prop28
280
     0
102
RTVSPost2010PropOp28
 70
     1
102
RTVSPost2010Prop29
280
     1
102
RTVSPost2010PropOp29
 70
     1
102
RTVSPost2010Prop30
280
     1
102
RTVSPost2010PropOp30
 70
     1
102
RTVSPost2010Prop31
280
     0
102
RTVSPost2010PropOp31
 70
     1
102
RTVSPost2010Prop32
280
     0
102
RTVSPost2010PropOp32
 70
     1
102
RTVSPost2010Prop33
280
     0
102
RTVSPost2010PropOp33
 70
     1
102
RTVSPost2010Prop34
280
     0
102
RTVSPost2010PropOp34
 70
     1
102
RTVSPost2010Prop35
280
     0
102
RTVSPost2010PropOp35
 70
     1
102
RTVSPost2010Prop36
280
     0
102
RTVSPost2010PropOp36
 70
     1
102
RTVSPost2010Prop37
 90
       50
102
RTVSPost2010PropOp37
 70
     1
102
RTVSPost2010Prop38
140
0.0
102
RTVSPost2010PropOp38
 70
     1
102
RTVSPost2010Prop39
140
1.0
102
RTVSPost2010PropOp39
 70
     1
102
RTVSPost2010Prop40
 90
        0
102
RTVSPost2010PropOp40
 70
     1
102
RTVSPost2010Prop41ColorIndex
 90
       18
102
RTVSPost2010Prop41ColorRGB
 90
        0
102
RTVSPost2010PropOp41
 70
     1
102
RTVSPost2010Prop42
 90
       50
102
RTVSPost2010PropOp42
 70
     1
102
RTVSPost2010Prop43
 90
        3
102
RTVSPost2010PropOp43
 70
     1
102
RTVSPost2010Prop44ColorIndex
 90
        5
102
RTVSPost2010Prop44ColorRGB
 90
      255
102
RTVSPost2010PropOp44
 70
     1
102
RTVSPost2010Prop45
280
     0
102
RTVSPost2010PropOp45
 70
     1
102
RTVSPost2010Prop46
 90
       50
102
RTVSPost2010PropOp46
 70
     1
102
RTVSPost2010Prop47
 90
       50
102
RTVSPost2010PropOp47
 70
     1
102
RTVSPost2010Prop48
 90
       50
102
RTVSPost2010PropOp48
 70
     1
102
RTVSPost2010Prop49
280
     0
102
RTVSPost2010PropOp49
 70
     1
102
RTVSPost2010Prop50
 90
       50
102
RTVSPost2010PropOp50
 70
     1
102
RTVSPost2010Prop51ColorIndex
 90
      256
102
RTVSPost2010Prop51ColorRGB
 90
-16777216
102
RTVSPost2010PropOp51
 70
     0
102
RTVSPost2010Prop52
140
1.0
102
RTVSPost2010PropOp52
 70
     0
102
RTVSPost2010Prop53
 90
        2
102
RTVSPost2010PropOp53
 70
     1
102
RTVSPost2010Prop54
  1
strokes_ogs.tif
102
RTVSPost2010PropOp54
 70
     1
102
RTVSPost2010Prop55
280
     0
102
RTVSPost2010PropOp55
 70
     1
102
RTVSPost2010Prop56
140
1.0
102
RTVSPost2010PropOp56
 70
     1
102
RTVSPost2010Prop57
140
1.0
102
RTVSPost2010PropOp57
 70
     1
102
RTVSPropertyOp0
 70
     1
102
RTVSPropertyOp1
 70
     1
102
RTVSPropertyOp2
 70
     1
102
RTVSPropertyOp3
 70
     1
102
RTVSPropertyOp4
 70
     1
102
RTVSPropertyOp5
 70
     1
102
RTVSPropertyOp6
 70
     1
102
RTVSPropertyOp7
 70
     1
102
RTVSPropertyOp8
 70
     1
102
RTVSPropertyOp9
 70
     1
102
RTVSPropertyOp10
 70
     1
102
RTVSPropertyOp11
 70
     1
102
RTVSPropertyOp12
 70
     1
102
RTVSPropertyOp13
 70
     1
102
RTVSPropertyOp14
 70
     1
102
RTVSPropertyOp15
 70
     1
102
RTVSPropertyOp16
 70
     1
102
RTVSPropertyOp17
 70
     1
102
RTVSPropertyOp18
 70
     1
102
RTVSPropertyOp19
 70
     1
102
RTVSPropertyOp20
 70
     1
102
RTVSPropertyOp21
 70
     1
102
RTVSPropertyOp22
 70
     1
102
RTVSPropertyOp23
 70
     1
102
RTVSPropertyOp24
 70
     1
102
RTVSPropertyOp25
 70
     1
102
RTVSPropertyOp26
 70
     1
102
RTVSPropertyOp27
 70
     1
102
RTVSPropertyOp28
 70
     1
102
RTVSPropertyOp29
 70
     1
102
RTVSPropertyOp30
 70
     1
102
RTVSPropertyOp31
 70
     1
102
RTVSPropertyOp32
 70
     1
102
RTVSPropertyOp33
 70
     1
102
RTVSPropertyOp34
 70
     1
102
RTVSPropertyOp35
 70
     1
102
RTVSPropertyOp36
 70
     1
102
RTVSPropertyOp37
 70
     1
102
RTVSPropertyOp38
 70
     1
102
RTVSPropertyOp39
 70
     1
102
RTVSPropertyOp40
 70
     1
102
RTVSPropertyOp41
 70
     1
102
RTVSPropertyOp42
 70
     1
102
RTVSPropertyOp43
 70
     1
102
RTVSPropertyOp44
 70
     1
102
RTVSPropertyOp45
 70
     1
102
RTVSPropertyOp46
 70
     1
102
RTVSPropertyOp47
 70
     1
102
RTVSPropertyOp48
 70
     1
102
RTVSPropertyOp49
 70
     1
102
RTVSPropertyOp50
 70
     1
102
RTVSPropertyOp51
 70
     0
102
RTVSPropertyOp52
 70
     0
102
RTVSPropertyOp53
 70
     1
102
RTVSPropertyOp54
 70
     1
102
RTVSPropertyOp55
 70
     1
102
RTVSPropertyOp56
 70
     1
102
RTVSPropertyOp57
 70
     1
102
RTVSPropertyOp58
 70
     1
102
RTVSPropertyOp59
 70
     1
102
RTVSPropertyOp60
 70
     1
102
RTVSPropertyOp61
 70
     1
102
RTVSPropertyOp62
 70
     1
  0
XRECORD
  5
C79
102
{ACAD_REACTORS
330
C78
102
}
330
C78
100
AcDbXrecord
280
     1
102
RTVSPost2010Prop28
280
     0
102
RTVSPost2010PropOp28
 70
     1
102
RTVSPost2010Prop29
280
     1
102
RTVSPost2010PropOp29
 70
     1
102
RTVSPost2010Prop30
280
     1
102
RTVSPost2010PropOp30
 70
     1
102
RTVSPost2010Prop31
280
     0
102
RTVSPost2010PropOp31
 70
     1
102
RTVSPost2010Prop32
280
     0
102
RTVSPost2010PropOp32
 70
     1
102
RTVSPost2010Prop33
280
     0
102
RTVSPost2010PropOp33
 70
     1
102
RTVSPost2010Prop34
280
     0
102
RTVSPost2010PropOp34
 70
     1
102
RTVSPost2010Prop35
280
     0
102
RTVSPost2010PropOp35
 70
     1
102
RTVSPost2010Prop36
280
     0
102
RTVSPost2010PropOp36
 70
     1
102
RTVSPost2010Prop37
 90
       50
102
RTVSPost2010PropOp37
 70
     1
102
RTVSPost2010Prop38
140
0.0
102
RTVSPost2010PropOp38
 70
     1
102
RTVSPost2010Prop39
140
1.0
102
RTVSPost2010PropOp39
 70
     1
102
RTVSPost2010Prop40
 90
        0
102
RTVSPost2010PropOp40
 70
     1
102
RTVSPost2010Prop41ColorIndex
 90
       18
102
RTVSPost2010Prop41ColorRGB
 90
        0
102
RTVSPost2010PropOp41
 70
     1
102
RTVSPost2010Prop42
 90
       50
102
RTVSPost2010PropOp42
 70
     1
102
RTVSPost2010Prop43
 90
        3
102
RTVSPost2010PropOp43
 70
     1
102
RTVSPost2010Prop44ColorIndex
 90
        5
102
RTVSPost2010Prop44ColorRGB
 90
      255
102
RTVSPost2010PropOp44
 70
     1
102
RTVSPost2010Prop45
280
     0
102
RTVSPost2010PropOp45
 70
     1
102
RTVSPost2010Prop46
 90
       50
102
RTVSPost2010PropOp46
 70
     1
102
RTVSPost2010Prop47
 90
       50
102
RTVSPost2010PropOp47
 70
     1
102
RTVSPost2010Prop48
 90
       50
102
RTVSPost2010PropOp48
 70
     1
102
RTVSPost2010Prop49
280
     0
102
RTVSPost2010PropOp49
 70
     1
102
RTVSPost2010Prop50
 90
       50
102
RTVSPost2010PropOp50
 70
     1
102
RTVSPost2010Prop51ColorIndex
 90
      256
102
RTVSPost2010Prop51ColorRGB
 90
-16777216
102
RTVSPost2010PropOp51
 70
     0
102
RTVSPost2010Prop52
140
1.0
102
RTVSPost2010PropOp52
 70
     0
102
RTVSPost2010Prop53
 90
        2
102
RTVSPost2010PropOp53
 70
     1
102
RTVSPost2010Prop54
  1
strokes_ogs.tif
102
RTVSPost2010PropOp54
 70
     1
102
RTVSPost2010Prop55
280
     0
102
RTVSPost2010PropOp55
 70
     1
102
RTVSPost2010Prop56
140
1.0
102
RTVSPost2010PropOp56
 70
     1
102
RTVSPost2010Prop57
140
1.0
102
RTVSPost2010PropOp57
 70
     1
102
RTVSPropertyOp0
 70
     1
102
RTVSPropertyOp1
 70
     1
102
RTVSPropertyOp2
 70
     1
102
RTVSPropertyOp3
 70
     1
102
RTVSPropertyOp4
 70
     1
102
RTVSPropertyOp5
 70
     1
102
RTVSPropertyOp6
 70
     1
102
RTVSPropertyOp7
 70
     1
102
RTVSPropertyOp8
 70
     1
102
RTVSPropertyOp9
 70
     1
102
RTVSPropertyOp10
 70
     1
102
RTVSPropertyOp11
 70
     1
102
RTVSPropertyOp12
 70
     1
102
RTVSPropertyOp13
 70
     1
102
RTVSPropertyOp14
 70
     1
102
RTVSPropertyOp15
 70
     1
102
RTVSPropertyOp16
 70
     1
102
RTVSPropertyOp17
 70
     1
102
RTVSPropertyOp18
 70
     1
102
RTVSPropertyOp19
 70
     1
102
RTVSPropertyOp20
 70
     1
102
RTVSPropertyOp21
 70
     1
102
RTVSPropertyOp22
 70
     1
102
RTVSPropertyOp23
 70
     1
102
RTVSPropertyOp24
 70
     1
102
RTVSPropertyOp25
 70
     1
102
RTVSPropertyOp26
 70
     1
102
RTVSPropertyOp27
 70
     1
102
RTVSPropertyOp28
 70
     1
102
RTVSPropertyOp29
 70
     1
102
RTVSPropertyOp30
 70
     1
102
RTVSPropertyOp31
 70
     1
102
RTVSPropertyOp32
 70
     1
102
RTVSPropertyOp33
 70
     1
102
RTVSPropertyOp34
 70
     1
102
RTVSPropertyOp35
 70
     1
102
RTVSPropertyOp36
 70
     1
102
RTVSPropertyOp37
 70
     1
102
RTVSPropertyOp38
 70
     1
102
RTVSPropertyOp39
 70
     1
102
RTVSPropertyOp40
 70
     1
102
RTVSPropertyOp41
 70
     1
102
RTVSPropertyOp42
 70
     1
102
RTVSPropertyOp43
 70
     1
102
RTVSPropertyOp44
 70
     1
102
RTVSPropertyOp45
 70
     1
102
RTVSPropertyOp46
 70
     1
102
RTVSPropertyOp47
 70
     1
102
RTVSPropertyOp48
 70
     1
102
RTVSPropertyOp49
 70
     1
102
RTVSPropertyOp50
 70
     1
102
RTVSPropertyOp51
 70
     0
102
RTVSPropertyOp52
 70
     0
102
RTVSPropertyOp53
 70
     1
102
RTVSPropertyOp54
 70
     1
102
RTVSPropertyOp55
 70
     1
102
RTVSPropertyOp56
 70
     1
102
RTVSPropertyOp57
 70
     1
102
RTVSPropertyOp58
 70
     1
102
RTVSPropertyOp59
 70
     1
102
RTVSPropertyOp60
 70
     1
102
RTVSPropertyOp61
 70
     1
102
RTVSPropertyOp62
 70
     1
  0
XRECORD
  5
C7B
102
{ACAD_REACTORS
330
C7A
102
}
330
C7A
100
AcDbXrecord
280
     1
102
RTVSPost2010Prop28
280
     0
102
RTVSPost2010PropOp28
 70
     1
102
RTVSPost2010Prop29
280
     1
102
RTVSPost2010PropOp29
 70
     1
102
RTVSPost2010Prop30
280
     1
102
RTVSPost2010PropOp30
 70
     1
102
RTVSPost2010Prop31
280
     0
102
RTVSPost2010PropOp31
 70
     1
102
RTVSPost2010Prop32
280
     0
102
RTVSPost2010PropOp32
 70
     1
102
RTVSPost2010Prop33
280
     0
102
RTVSPost2010PropOp33
 70
     1
102
RTVSPost2010Prop34
280
     0
102
RTVSPost2010PropOp34
 70
     1
102
RTVSPost2010Prop35
280
     0
102
RTVSPost2010PropOp35
 70
     1
102
RTVSPost2010Prop36
280
     0
102
RTVSPost2010PropOp36
 70
     1
102
RTVSPost2010Prop37
 90
       50
102
RTVSPost2010PropOp37
 70
     1
102
RTVSPost2010Prop38
140
0.0
102
RTVSPost2010PropOp38
 70
     1
102
RTVSPost2010Prop39
140
1.0
102
RTVSPost2010PropOp39
 70
     1
102
RTVSPost2010Prop40
 90
        0
102
RTVSPost2010PropOp40
 70
     1
102
RTVSPost2010Prop41ColorIndex
 90
       18
102
RTVSPost2010Prop41ColorRGB
 90
        0
102
RTVSPost2010PropOp41
 70
     1
102
RTVSPost2010Prop42
 90
       50
102
RTVSPost2010PropOp42
 70
     1
102
RTVSPost2010Prop43
 90
        3
102
RTVSPost2010PropOp43
 70
     1
102
RTVSPost2010Prop44ColorIndex
 90
        5
102
RTVSPost2010Prop44ColorRGB
 90
      255
102
RTVSPost2010PropOp44
 70
     1
102
RTVSPost2010Prop45
280
     0
102
RTVSPost2010PropOp45
 70
     1
102
RTVSPost2010Prop46
 90
       50
102
RTVSPost2010PropOp46
 70
     1
102
RTVSPost2010Prop47
 90
       50
102
RTVSPost2010PropOp47
 70
     1
102
RTVSPost2010Prop48
 90
       50
102
RTVSPost2010PropOp48
 70
     1
102
RTVSPost2010Prop49
280
     0
102
RTVSPost2010PropOp49
 70
     1
102
RTVSPost2010Prop50
 90
       50
102
RTVSPost2010PropOp50
 70
     1
102
RTVSPost2010Prop51ColorIndex
 90
      256
102
RTVSPost2010Prop51ColorRGB
 90
-16777216
102
RTVSPost2010PropOp51
 70
     0
102
RTVSPost2010Prop52
140
1.0
102
RTVSPost2010PropOp52
 70
     0
102
RTVSPost2010Prop53
 90
        2
102
RTVSPost2010PropOp53
 70
     1
102
RTVSPost2010Prop54
  1
strokes_ogs.tif
102
RTVSPost2010PropOp54
 70
     1
102
RTVSPost2010Prop55
280
     0
102
RTVSPost2010PropOp55
 70
     1
102
RTVSPost2010Prop56
140
1.0
102
RTVSPost2010PropOp56
 70
     1
102
RTVSPost2010Prop57
140
1.0
102
RTVSPost2010PropOp57
 70
     1
102
RTVSPropertyOp0
 70
     1
102
RTVSPropertyOp1
 70
     1
102
RTVSPropertyOp2
 70
     1
102
RTVSPropertyOp3
 70
     1
102
RTVSPropertyOp4
 70
     1
102
RTVSPropertyOp5
 70
     1
102
RTVSPropertyOp6
 70
     1
102
RTVSPropertyOp7
 70
     1
102
RTVSPropertyOp8
 70
     1
102
RTVSPropertyOp9
 70
     1
102
RTVSPropertyOp10
 70
     1
102
RTVSPropertyOp11
 70
     1
102
RTVSPropertyOp12
 70
     1
102
RTVSPropertyOp13
 70
     1
102
RTVSPropertyOp14
 70
     1
102
RTVSPropertyOp15
 70
     1
102
RTVSPropertyOp16
 70
     1
102
RTVSPropertyOp17
 70
     1
102
RTVSPropertyOp18
 70
     1
102
RTVSPropertyOp19
 70
     1
102
RTVSPropertyOp20
 70
     1
102
RTVSPropertyOp21
 70
     1
102
RTVSPropertyOp22
 70
     1
102
RTVSPropertyOp23
 70
     1
102
RTVSPropertyOp24
 70
     1
102
RTVSPropertyOp25
 70
     1
102
RTVSPropertyOp26
 70
     1
102
RTVSPropertyOp27
 70
     1
102
RTVSPropertyOp28
 70
     1
102
RTVSPropertyOp29
 70
     1
102
RTVSPropertyOp30
 70
     1
102
RTVSPropertyOp31
 70
     1
102
RTVSPropertyOp32
 70
     1
102
RTVSPropertyOp33
 70
     1
102
RTVSPropertyOp34
 70
     1
102
RTVSPropertyOp35
 70
     1
102
RTVSPropertyOp36
 70
     1
102
RTVSPropertyOp37
 70
     1
102
RTVSPropertyOp38
 70
     1
102
RTVSPropertyOp39
 70
     1
102
RTVSPropertyOp40
 70
     1
102
RTVSPropertyOp41
 70
     1
102
RTVSPropertyOp42
 70
     1
102
RTVSPropertyOp43
 70
     1
102
RTVSPropertyOp44
 70
     1
102
RTVSPropertyOp45
 70
     1
102
RTVSPropertyOp46
 70
     1
102
RTVSPropertyOp47
 70
     1
102
RTVSPropertyOp48
 70
     1
102
RTVSPropertyOp49
 70
     1
102
RTVSPropertyOp50
 70
     1
102
RTVSPropertyOp51
 70
     0
102
RTVSPropertyOp52
 70
     0
102
RTVSPropertyOp53
 70
     1
102
RTVSPropertyOp54
 70
     1
102
RTVSPropertyOp55
 70
     1
102
RTVSPropertyOp56
 70
     1
102
RTVSPropertyOp57
 70
     1
102
RTVSPropertyOp58
 70
     1
102
RTVSPropertyOp59
 70
     1
102
RTVSPropertyOp60
 70
     1
102
RTVSPropertyOp61
 70
     1
102
RTVSPropertyOp62
 70
     1
  0
XRECORD
  5
C7D
102
{ACAD_REACTORS
330
C7C
102
}
330
C7C
100
AcDbXrecord
280
     1
102
RTVSPost2010Prop28
280
     0
102
RTVSPost2010PropOp28
 70
     1
102
RTVSPost2010Prop29
280
     1
102
RTVSPost2010PropOp29
 70
     1
102
RTVSPost2010Prop30
280
     1
102
RTVSPost2010PropOp30
 70
     1
102
RTVSPost2010Prop31
280
     0
102
RTVSPost2010PropOp31
 70
     1
102
RTVSPost2010Prop32
280
     0
102
RTVSPost2010PropOp32
 70
     1
102
RTVSPost2010Prop33
280
     0
102
RTVSPost2010PropOp33
 70
     1
102
RTVSPost2010Prop34
280
     0
102
RTVSPost2010PropOp34
 70
     1
102
RTVSPost2010Prop35
280
     0
102
RTVSPost2010PropOp35
 70
     1
102
RTVSPost2010Prop36
280
     0
102
RTVSPost2010PropOp36
 70
     1
102
RTVSPost2010Prop37
 90
       50
102
RTVSPost2010PropOp37
 70
     1
102
RTVSPost2010Prop38
140
0.0
102
RTVSPost2010PropOp38
 70
     1
102
RTVSPost2010Prop39
140
1.0
102
RTVSPost2010PropOp39
 70
     1
102
RTVSPost2010Prop40
 90
        0
102
RTVSPost2010PropOp40
 70
     1
102
RTVSPost2010Prop41ColorIndex
 90
       18
102
RTVSPost2010Prop41ColorRGB
 90
        0
102
RTVSPost2010PropOp41
 70
     1
102
RTVSPost2010Prop42
 90
       50
102
RTVSPost2010PropOp42
 70
     1
102
RTVSPost2010Prop43
 90
        3
102
RTVSPost2010PropOp43
 70
     1
102
RTVSPost2010Prop44ColorIndex
 90
        5
102
RTVSPost2010Prop44ColorRGB
 90
      255
102
RTVSPost2010PropOp44
 70
     1
102
RTVSPost2010Prop45
280
     0
102
RTVSPost2010PropOp45
 70
     1
102
RTVSPost2010Prop46
 90
       50
102
RTVSPost2010PropOp46
 70
     1
102
RTVSPost2010Prop47
 90
       50
102
RTVSPost2010PropOp47
 70
     1
102
RTVSPost2010Prop48
 90
       50
102
RTVSPost2010PropOp48
 70
     1
102
RTVSPost2010Prop49
280
     0
102
RTVSPost2010PropOp49
 70
     1
102
RTVSPost2010Prop50
 90
       50
102
RTVSPost2010PropOp50
 70
     1
102
RTVSPost2010Prop51ColorIndex
 90
      256
102
RTVSPost2010Prop51ColorRGB
 90
-16777216
102
RTVSPost2010PropOp51
 70
     0
102
RTVSPost2010Prop52
140
1.0
102
RTVSPost2010PropOp52
 70
     0
102
RTVSPost2010Prop53
 90
        2
102
RTVSPost2010PropOp53
 70
     1
102
RTVSPost2010Prop54
  1
strokes_ogs.tif
102
RTVSPost2010PropOp54
 70
     1
102
RTVSPost2010Prop55
280
     0
102
RTVSPost2010PropOp55
 70
     1
102
RTVSPost2010Prop56
140
1.0
102
RTVSPost2010PropOp56
 70
     1
102
RTVSPost2010Prop57
140
1.0
102
RTVSPost2010PropOp57
 70
     1
102
RTVSPropertyOp0
 70
     1
102
RTVSPropertyOp1
 70
     1
102
RTVSPropertyOp2
 70
     1
102
RTVSPropertyOp3
 70
     1
102
RTVSPropertyOp4
 70
     1
102
RTVSPropertyOp5
 70
     1
102
RTVSPropertyOp6
 70
     1
102
RTVSPropertyOp7
 70
     1
102
RTVSPropertyOp8
 70
     1
102
RTVSPropertyOp9
 70
     1
102
RTVSPropertyOp10
 70
     1
102
RTVSPropertyOp11
 70
     1
102
RTVSPropertyOp12
 70
     1
102
RTVSPropertyOp13
 70
     1
102
RTVSPropertyOp14
 70
     1
102
RTVSPropertyOp15
 70
     1
102
RTVSPropertyOp16
 70
     1
102
RTVSPropertyOp17
 70
     1
102
RTVSPropertyOp18
 70
     1
102
RTVSPropertyOp19
 70
     1
102
RTVSPropertyOp20
 70
     1
102
RTVSPropertyOp21
 70
     1
102
RTVSPropertyOp22
 70
     1
102
RTVSPropertyOp23
 70
     1
102
RTVSPropertyOp24
 70
     1
102
RTVSPropertyOp25
 70
     1
102
RTVSPropertyOp26
 70
     1
102
RTVSPropertyOp27
 70
     1
102
RTVSPropertyOp28
 70
     1
102
RTVSPropertyOp29
 70
     1
102
RTVSPropertyOp30
 70
     1
102
RTVSPropertyOp31
 70
     1
102
RTVSPropertyOp32
 70
     1
102
RTVSPropertyOp33
 70
     1
102
RTVSPropertyOp34
 70
     1
102
RTVSPropertyOp35
 70
     1
102
RTVSPropertyOp36
 70
     1
102
RTVSPropertyOp37
 70
     1
102
RTVSPropertyOp38
 70
     1
102
RTVSPropertyOp39
 70
     1
102
RTVSPropertyOp40
 70
     1
102
RTVSPropertyOp41
 70
     1
102
RTVSPropertyOp42
 70
     1
102
RTVSPropertyOp43
 70
     1
102
RTVSPropertyOp44
 70
     1
102
RTVSPropertyOp45
 70
     1
102
RTVSPropertyOp46
 70
     1
102
RTVSPropertyOp47
 70
     1
102
RTVSPropertyOp48
 70
     1
102
RTVSPropertyOp49
 70
     1
102
RTVSPropertyOp50
 70
     1
102
RTVSPropertyOp51
 70
     0
102
RTVSPropertyOp52
 70
     0
102
RTVSPropertyOp53
 70
     1
102
RTVSPropertyOp54
 70
     1
102
RTVSPropertyOp55
 70
     1
102
RTVSPropertyOp56
 70
     1
102
RTVSPropertyOp57
 70
     1
102
RTVSPropertyOp58
 70
     1
102
RTVSPropertyOp59
 70
     1
102
RTVSPropertyOp60
 70
     1
102
RTVSPropertyOp61
 70
     1
102
RTVSPropertyOp62
 70
     1
  0
XRECORD
  5
C85
102
{ACAD_REACTORS
330
C84
102
}
330
C84
100
AcDbXrecord
280
     1
102
RTVSPost2010Prop28
280
     0
102
RTVSPost2010PropOp28
 70
     1
102
RTVSPost2010Prop29
280
     1
102
RTVSPost2010PropOp29
 70
     1
102
RTVSPost2010Prop30
280
     1
102
RTVSPost2010PropOp30
 70
     1
102
RTVSPost2010Prop31
280
     0
102
RTVSPost2010PropOp31
 70
     1
102
RTVSPost2010Prop32
280
     0
102
RTVSPost2010PropOp32
 70
     1
102
RTVSPost2010Prop33
280
     0
102
RTVSPost2010PropOp33
 70
     1
102
RTVSPost2010Prop34
280
     0
102
RTVSPost2010PropOp34
 70
     1
102
RTVSPost2010Prop35
280
     0
102
RTVSPost2010PropOp35
 70
     1
102
RTVSPost2010Prop36
280
     0
102
RTVSPost2010PropOp36
 70
     1
102
RTVSPost2010Prop37
 90
       50
102
RTVSPost2010PropOp37
 70
     1
102
RTVSPost2010Prop38
140
0.0
102
RTVSPost2010PropOp38
 70
     1
102
RTVSPost2010Prop39
140
1.0
102
RTVSPost2010PropOp39
 70
     1
102
RTVSPost2010Prop40
 90
        0
102
RTVSPost2010PropOp40
 70
     1
102
RTVSPost2010Prop41ColorIndex
 90
       18
102
RTVSPost2010Prop41ColorRGB
 90
        0
102
RTVSPost2010PropOp41
 70
     1
102
RTVSPost2010Prop42
 90
       50
102
RTVSPost2010PropOp42
 70
     1
102
RTVSPost2010Prop43
 90
        3
102
RTVSPost2010PropOp43
 70
     1
102
RTVSPost2010Prop44ColorIndex
 90
        5
102
RTVSPost2010Prop44ColorRGB
 90
      255
102
RTVSPost2010PropOp44
 70
     1
102
RTVSPost2010Prop45
280
     0
102
RTVSPost2010PropOp45
 70
     1
102
RTVSPost2010Prop46
 90
       50
102
RTVSPost2010PropOp46
 70
     1
102
RTVSPost2010Prop47
 90
       50
102
RTVSPost2010PropOp47
 70
     1
102
RTVSPost2010Prop48
 90
       50
102
RTVSPost2010PropOp48
 70
     1
102
RTVSPost2010Prop49
280
     0
102
RTVSPost2010PropOp49
 70
     1
102
RTVSPost2010Prop50
 90
       50
102
RTVSPost2010PropOp50
 70
     1
102
RTVSPost2010Prop51ColorIndex
 90
      256
102
RTVSPost2010Prop51ColorRGB
 90
-16777216
102
RTVSPost2010PropOp51
 70
     0
102
RTVSPost2010Prop52
140
1.0
102
RTVSPost2010PropOp52
 70
     0
102
RTVSPost2010Prop53
 90
        2
102
RTVSPost2010PropOp53
 70
     1
102
RTVSPost2010Prop54
  1
strokes_ogs.tif
102
RTVSPost2010PropOp54
 70
     1
102
RTVSPost2010Prop55
280
     0
102
RTVSPost2010PropOp55
 70
     1
102
RTVSPost2010Prop56
140
1.0
102
RTVSPost2010PropOp56
 70
     1
102
RTVSPost2010Prop57
140
1.0
102
RTVSPost2010PropOp57
 70
     1
102
RTVSPropertyOp0
 70
     1
102
RTVSPropertyOp1
 70
     1
102
RTVSPropertyOp2
 70
     1
102
RTVSPropertyOp3
 70
     1
102
RTVSPropertyOp4
 70
     1
102
RTVSPropertyOp5
 70
     1
102
RTVSPropertyOp6
 70
     1
102
RTVSPropertyOp7
 70
     1
102
RTVSPropertyOp8
 70
     1
102
RTVSPropertyOp9
 70
     1
102
RTVSPropertyOp10
 70
     1
102
RTVSPropertyOp11
 70
     1
102
RTVSPropertyOp12
 70
     1
102
RTVSPropertyOp13
 70
     1
102
RTVSPropertyOp14
 70
     1
102
RTVSPropertyOp15
 70
     1
102
RTVSPropertyOp16
 70
     1
102
RTVSPropertyOp17
 70
     1
102
RTVSPropertyOp18
 70
     1
102
RTVSPropertyOp19
 70
     1
102
RTVSPropertyOp20
 70
     1
102
RTVSPropertyOp21
 70
     1
102
RTVSPropertyOp22
 70
     1
102
RTVSPropertyOp23
 70
     1
102
RTVSPropertyOp24
 70
     1
102
RTVSPropertyOp25
 70
     1
102
RTVSPropertyOp26
 70
     1
102
RTVSPropertyOp27
 70
     1
102
RTVSPropertyOp28
 70
     1
102
RTVSPropertyOp29
 70
     1
102
RTVSPropertyOp30
 70
     1
102
RTVSPropertyOp31
 70
     1
102
RTVSPropertyOp32
 70
     1
102
RTVSPropertyOp33
 70
     1
102
RTVSPropertyOp34
 70
     1
102
RTVSPropertyOp35
 70
     1
102
RTVSPropertyOp36
 70
     1
102
RTVSPropertyOp37
 70
     1
102
RTVSPropertyOp38
 70
     1
102
RTVSPropertyOp39
 70
     1
102
RTVSPropertyOp40
 70
     1
102
RTVSPropertyOp41
 70
     1
102
RTVSPropertyOp42
 70
     1
102
RTVSPropertyOp43
 70
     1
102
RTVSPropertyOp44
 70
     1
102
RTVSPropertyOp45
 70
     1
102
RTVSPropertyOp46
 70
     1
102
RTVSPropertyOp47
 70
     1
102
RTVSPropertyOp48
 70
     1
102
RTVSPropertyOp49
 70
     1
102
RTVSPropertyOp50
 70
     1
102
RTVSPropertyOp51
 70
     0
102
RTVSPropertyOp52
 70
     0
102
RTVSPropertyOp53
 70
     1
102
RTVSPropertyOp54
 70
     1
102
RTVSPropertyOp55
 70
     1
102
RTVSPropertyOp56
 70
     1
102
RTVSPropertyOp57
 70
     1
102
RTVSPropertyOp58
 70
     1
102
RTVSPropertyOp59
 70
     1
102
RTVSPropertyOp60
 70
     1
102
RTVSPropertyOp61
 70
     1
102
RTVSPropertyOp62
 70
     1
  0
XRECORD
  5
CA1
102
{ACAD_REACTORS
330
CA0
102
}
330
CA0
100
AcDbXrecord
280
     1
102
RTVSPost2010Prop28
280
     0
102
RTVSPost2010PropOp28
 70
     1
102
RTVSPost2010Prop29
280
     1
102
RTVSPost2010PropOp29
 70
     1
102
RTVSPost2010Prop30
280
     1
102
RTVSPost2010PropOp30
 70
     1
102
RTVSPost2010Prop31
280
     0
102
RTVSPost2010PropOp31
 70
     1
102
RTVSPost2010Prop32
280
     0
102
RTVSPost2010PropOp32
 70
     1
102
RTVSPost2010Prop33
280
     0
102
RTVSPost2010PropOp33
 70
     1
102
RTVSPost2010Prop34
280
     0
102
RTVSPost2010PropOp34
 70
     1
102
RTVSPost2010Prop35
280
     0
102
RTVSPost2010PropOp35
 70
     1
102
RTVSPost2010Prop36
280
     0
102
RTVSPost2010PropOp36
 70
     1
102
RTVSPost2010Prop37
 90
       50
102
RTVSPost2010PropOp37
 70
     0
102
RTVSPost2010Prop38
140
0.0
102
RTVSPost2010PropOp38
 70
     0
102
RTVSPost2010Prop39
140
1.0
102
RTVSPost2010PropOp39
 70
     0
102
RTVSPost2010Prop40
 90
        0
102
RTVSPost2010PropOp40
 70
     0
102
RTVSPost2010Prop41ColorIndex
 90
       18
102
RTVSPost2010Prop41ColorRGB
 90
        0
102
RTVSPost2010PropOp41
 70
     0
102
RTVSPost2010Prop42
 90
       50
102
RTVSPost2010PropOp42
 70
     0
102
RTVSPost2010Prop43
 90
        3
102
RTVSPost2010PropOp43
 70
     0
102
RTVSPost2010Prop44ColorIndex
 90
        5
102
RTVSPost2010Prop44ColorRGB
 90
      255
102
RTVSPost2010PropOp44
 70
     0
102
RTVSPost2010Prop45
280
     0
102
RTVSPost2010PropOp45
 70
     1
102
RTVSPost2010Prop46
 90
       50
102
RTVSPost2010PropOp46
 70
     0
102
RTVSPost2010Prop47
 90
       50
102
RTVSPost2010PropOp47
 70
     0
102
RTVSPost2010Prop48
 90
       50
102
RTVSPost2010PropOp48
 70
     0
102
RTVSPost2010Prop49
280
     0
102
RTVSPost2010PropOp49
 70
     1
102
RTVSPost2010Prop50
 90
       50
102
RTVSPost2010PropOp50
 70
     0
102
RTVSPost2010Prop51ColorIndex
 90
      256
102
RTVSPost2010Prop51ColorRGB
 90
-16777216
102
RTVSPost2010PropOp51
 70
     0
102
RTVSPost2010Prop52
140
1.0
102
RTVSPost2010PropOp52
 70
     0
102
RTVSPost2010Prop53
 90
        2
102
RTVSPost2010PropOp53
 70
     0
102
RTVSPost2010Prop54
  1
strokes_ogs.tif
102
RTVSPost2010PropOp54
 70
     0
102
RTVSPost2010Prop55
280
     0
102
RTVSPost2010PropOp55
 70
     1
102
RTVSPost2010Prop56
140
1.0
102
RTVSPost2010PropOp56
 70
     0
102
RTVSPost2010Prop57
140
1.0
102
RTVSPost2010PropOp57
 70
     0
102
RTVSPropertyOp0
 70
     0
102
RTVSPropertyOp1
 70
     0
102
RTVSPropertyOp2
 70
     0
102
RTVSPropertyOp3
 70
     0
102
RTVSPropertyOp4
 70
     0
102
RTVSPropertyOp5
 70
     0
102
RTVSPropertyOp6
 70
     0
102
RTVSPropertyOp7
 70
     0
102
RTVSPropertyOp8
 70
     0
102
RTVSPropertyOp9
 70
     0
102
RTVSPropertyOp10
 70
     0
102
RTVSPropertyOp11
 70
     0
102
RTVSPropertyOp12
 70
     0
102
RTVSPropertyOp13
 70
     0
102
RTVSPropertyOp14
 70
     2
102
RTVSPropertyOp15
 70
     0
102
RTVSPropertyOp16
 70
     0
102
RTVSPropertyOp17
 70
     0
102
RTVSPropertyOp18
 70
     0
102
RTVSPropertyOp19
 70
     0
102
RTVSPropertyOp20
 70
     0
102
RTVSPropertyOp21
 70
     0
102
RTVSPropertyOp22
 70
     0
102
RTVSPropertyOp23
 70
     0
102
RTVSPropertyOp24
 70
     0
102
RTVSPropertyOp25
 70
     0
102
RTVSPropertyOp26
 70
     0
102
RTVSPropertyOp27
 70
     0
102
RTVSPropertyOp28
 70
     1
102
RTVSPropertyOp29
 70
     1
102
RTVSPropertyOp30
 70
     1
102
RTVSPropertyOp31
 70
     1
102
RTVSPropertyOp32
 70
     1
102
RTVSPropertyOp33
 70
     1
102
RTVSPropertyOp34
 70
     1
102
RTVSPropertyOp35
 70
     1
102
RTVSPropertyOp36
 70
     1
102
RTVSPropertyOp37
 70
     0
102
RTVSPropertyOp38
 70
     0
102
RTVSPropertyOp39
 70
     0
102
RTVSPropertyOp40
 70
     0
102
RTVSPropertyOp41
 70
     0
102
RTVSPropertyOp42
 70
     0
102
RTVSPropertyOp43
 70
     0
102
RTVSPropertyOp44
 70
     0
102
RTVSPropertyOp45
 70
     1
102
RTVSPropertyOp46
 70
     0
102
RTVSPropertyOp47
 70
     0
102
RTVSPropertyOp48
 70
     0
102
RTVSPropertyOp49
 70
     1
102
RTVSPropertyOp50
 70
     0
102
RTVSPropertyOp51
 70
     0
102
RTVSPropertyOp52
 70
     0
102
RTVSPropertyOp53
 70
     0
102
RTVSPropertyOp54
 70
     0
102
RTVSPropertyOp55
 70
     1
102
RTVSPropertyOp56
 70
     0
102
RTVSPropertyOp57
 70
     0
102
RTVSPropertyOp58
 70
     1
102
RTVSPropertyOp59
 70
     1
102
RTVSPropertyOp60
 70
     1
102
RTVSPropertyOp61
 70
     1
102
RTVSPropertyOp62
 70
     1
  0
XRECORD
  5
C91
102
{ACAD_REACTORS
330
C90
102
}
330
C90
100
AcDbXrecord
280
     1
102
RTVSPost2010Prop28
280
     0
102
RTVSPost2010PropOp28
 70
     1
102
RTVSPost2010Prop29
280
     1
102
RTVSPost2010PropOp29
 70
     1
102
RTVSPost2010Prop30
280
     1
102
RTVSPost2010PropOp30
 70
     1
102
RTVSPost2010Prop31
280
     0
102
RTVSPost2010PropOp31
 70
     1
102
RTVSPost2010Prop32
280
     0
102
RTVSPost2010PropOp32
 70
     1
102
RTVSPost2010Prop33
280
     0
102
RTVSPost2010PropOp33
 70
     1
102
RTVSPost2010Prop34
280
     0
102
RTVSPost2010PropOp34
 70
     1
102
RTVSPost2010Prop35
280
     0
102
RTVSPost2010PropOp35
 70
     1
102
RTVSPost2010Prop36
280
     0
102
RTVSPost2010PropOp36
 70
     1
102
RTVSPost2010Prop37
 90
       50
102
RTVSPost2010PropOp37
 70
     1
102
RTVSPost2010Prop38
140
0.0
102
RTVSPost2010PropOp38
 70
     1
102
RTVSPost2010Prop39
140
1.0
102
RTVSPost2010PropOp39
 70
     1
102
RTVSPost2010Prop40
 90
        0
102
RTVSPost2010PropOp40
 70
     1
102
RTVSPost2010Prop41ColorIndex
 90
       18
102
RTVSPost2010Prop41ColorRGB
 90
        0
102
RTVSPost2010PropOp41
 70
     1
102
RTVSPost2010Prop42
 90
       50
102
RTVSPost2010PropOp42
 70
     1
102
RTVSPost2010Prop43
 90
        3
102
RTVSPost2010PropOp43
 70
     1
102
RTVSPost2010Prop44ColorIndex
 90
        5
102
RTVSPost2010Prop44ColorRGB
 90
      255
102
RTVSPost2010PropOp44
 70
     1
102
RTVSPost2010Prop45
280
     0
102
RTVSPost2010PropOp45
 70
     1
102
RTVSPost2010Prop46
 90
       50
102
RTVSPost2010PropOp46
 70
     1
102
RTVSPost2010Prop47
 90
       50
102
RTVSPost2010PropOp47
 70
     1
102
RTVSPost2010Prop48
 90
       50
102
RTVSPost2010PropOp48
 70
     1
102
RTVSPost2010Prop49
280
     0
102
RTVSPost2010PropOp49
 70
     1
102
RTVSPost2010Prop50
 90
       50
102
RTVSPost2010PropOp50
 70
     1
102
RTVSPost2010Prop51ColorIndex
 90
      256
102
RTVSPost2010Prop51ColorRGB
 90
-16777216
102
RTVSPost2010PropOp51
 70
     0
102
RTVSPost2010Prop52
140
1.0
102
RTVSPost2010PropOp52
 70
     0
102
RTVSPost2010Prop53
 90
        2
102
RTVSPost2010PropOp53
 70
     1
102
RTVSPost2010Prop54
  1
strokes_ogs.tif
102
RTVSPost2010PropOp54
 70
     1
102
RTVSPost2010Prop55
280
     0
102
RTVSPost2010PropOp55
 70
     1
102
RTVSPost2010Prop56
140
1.0
102
RTVSPost2010PropOp56
 70
     1
102
RTVSPost2010Prop57
140
1.0
102
RTVSPost2010PropOp57
 70
     1
102
RTVSPropertyOp0
 70
     1
102
RTVSPropertyOp1
 70
     1
102
RTVSPropertyOp2
 70
     1
102
RTVSPropertyOp3
 70
     1
102
RTVSPropertyOp4
 70
     1
102
RTVSPropertyOp5
 70
     1
102
RTVSPropertyOp6
 70
     1
102
RTVSPropertyOp7
 70
     1
102
RTVSPropertyOp8
 70
     1
102
RTVSPropertyOp9
 70
     1
102
RTVSPropertyOp10
 70
     1
102
RTVSPropertyOp11
 70
     1
102
RTVSPropertyOp12
 70
     1
102
RTVSPropertyOp13
 70
     1
102
RTVSPropertyOp14
 70
     1
102
RTVSPropertyOp15
 70
     1
102
RTVSPropertyOp16
 70
     1
102
RTVSPropertyOp17
 70
     1
102
RTVSPropertyOp18
 70
     1
102
RTVSPropertyOp19
 70
     1
102
RTVSPropertyOp20
 70
     1
102
RTVSPropertyOp21
 70
     1
102
RTVSPropertyOp22
 70
     1
102
RTVSPropertyOp23
 70
     1
102
RTVSPropertyOp24
 70
     1
102
RTVSPropertyOp25
 70
     1
102
RTVSPropertyOp26
 70
     1
102
RTVSPropertyOp27
 70
     1
102
RTVSPropertyOp28
 70
     1
102
RTVSPropertyOp29
 70
     1
102
RTVSPropertyOp30
 70
     1
102
RTVSPropertyOp31
 70
     1
102
RTVSPropertyOp32
 70
     1
102
RTVSPropertyOp33
 70
     1
102
RTVSPropertyOp34
 70
     1
102
RTVSPropertyOp35
 70
     1
102
RTVSPropertyOp36
 70
     1
102
RTVSPropertyOp37
 70
     1
102
RTVSPropertyOp38
 70
     1
102
RTVSPropertyOp39
 70
     1
102
RTVSPropertyOp40
 70
     1
102
RTVSPropertyOp41
 70
     1
102
RTVSPropertyOp42
 70
     1
102
RTVSPropertyOp43
 70
     1
102
RTVSPropertyOp44
 70
     1
102
RTVSPropertyOp45
 70
     1
102
RTVSPropertyOp46
 70
     1
102
RTVSPropertyOp47
 70
     1
102
RTVSPropertyOp48
 70
     1
102
RTVSPropertyOp49
 70
     1
102
RTVSPropertyOp50
 70
     1
102
RTVSPropertyOp51
 70
     0
102
RTVSPropertyOp52
 70
     0
102
RTVSPropertyOp53
 70
     1
102
RTVSPropertyOp54
 70
     1
102
RTVSPropertyOp55
 70
     1
102
RTVSPropertyOp56
 70
     1
102
RTVSPropertyOp57
 70
     1
102
RTVSPropertyOp58
 70
     1
102
RTVSPropertyOp59
 70
     1
102
RTVSPropertyOp60
 70
     1
102
RTVSPropertyOp61
 70
     1
102
RTVSPropertyOp62
 70
     1
  0
XRECORD
  5
CA3
102
{ACAD_REACTORS
330
CA2
102
}
330
CA2
100
AcDbXrecord
280
     1
102
RTVSPost2010Prop28
280
     0
102
RTVSPost2010PropOp28
 70
     1
102
RTVSPost2010Prop29
280
     1
102
RTVSPost2010PropOp29
 70
     1
102
RTVSPost2010Prop30
280
     1
102
RTVSPost2010PropOp30
 70
     1
102
RTVSPost2010Prop31
280
     0
102
RTVSPost2010PropOp31
 70
     1
102
RTVSPost2010Prop32
280
     0
102
RTVSPost2010PropOp32
 70
     1
102
RTVSPost2010Prop33
280
     0
102
RTVSPost2010PropOp33
 70
     1
102
RTVSPost2010Prop34
280
     0
102
RTVSPost2010PropOp34
 70
     1
102
RTVSPost2010Prop35
280
     0
102
RTVSPost2010PropOp35
 70
     1
102
RTVSPost2010Prop36
280
     0
102
RTVSPost2010PropOp36
 70
     1
102
RTVSPost2010Prop37
 90
       50
102
RTVSPost2010PropOp37
 70
     0
102
RTVSPost2010Prop38
140
0.0
102
RTVSPost2010PropOp38
 70
     0
102
RTVSPost2010Prop39
140
1.0
102
RTVSPost2010PropOp39
 70
     0
102
RTVSPost2010Prop40
 90
        0
102
RTVSPost2010PropOp40
 70
     0
102
RTVSPost2010Prop41ColorIndex
 90
       18
102
RTVSPost2010Prop41ColorRGB
 90
        0
102
RTVSPost2010PropOp41
 70
     0
102
RTVSPost2010Prop42
 90
       50
102
RTVSPost2010PropOp42
 70
     0
102
RTVSPost2010Prop43
 90
        3
102
RTVSPost2010PropOp43
 70
     0
102
RTVSPost2010Prop44ColorIndex
 90
        5
102
RTVSPost2010Prop44ColorRGB
 90
      255
102
RTVSPost2010PropOp44
 70
     0
102
RTVSPost2010Prop45
280
     0
102
RTVSPost2010PropOp45
 70
     1
102
RTVSPost2010Prop46
 90
       50
102
RTVSPost2010PropOp46
 70
     0
102
RTVSPost2010Prop47
 90
       50
102
RTVSPost2010PropOp47
 70
     0
102
RTVSPost2010Prop48
 90
       50
102
RTVSPost2010PropOp48
 70
     0
102
RTVSPost2010Prop49
280
     0
102
RTVSPost2010PropOp49
 70
     1
102
RTVSPost2010Prop50
 90
       50
102
RTVSPost2010PropOp50
 70
     0
102
RTVSPost2010Prop51ColorIndex
 90
      256
102
RTVSPost2010Prop51ColorRGB
 90
-16777216
102
RTVSPost2010PropOp51
 70
     0
102
RTVSPost2010Prop52
140
1.0
102
RTVSPost2010PropOp52
 70
     0
102
RTVSPost2010Prop53
 90
        2
102
RTVSPost2010PropOp53
 70
     0
102
RTVSPost2010Prop54
  1
strokes_ogs.tif
102
RTVSPost2010PropOp54
 70
     0
102
RTVSPost2010Prop55
280
     0
102
RTVSPost2010PropOp55
 70
     1
102
RTVSPost2010Prop56
140
1.0
102
RTVSPost2010PropOp56
 70
     0
102
RTVSPost2010Prop57
140
1.0
102
RTVSPost2010PropOp57
 70
     0
102
RTVSPropertyOp0
 70
     0
102
RTVSPropertyOp1
 70
     0
102
RTVSPropertyOp2
 70
     0
102
RTVSPropertyOp3
 70
     0
102
RTVSPropertyOp4
 70
     0
102
RTVSPropertyOp5
 70
     0
102
RTVSPropertyOp6
 70
     0
102
RTVSPropertyOp7
 70
     0
102
RTVSPropertyOp8
 70
     0
102
RTVSPropertyOp9
 70
     0
102
RTVSPropertyOp10
 70
     0
102
RTVSPropertyOp11
 70
     0
102
RTVSPropertyOp12
 70
     0
102
RTVSPropertyOp13
 70
     0
102
RTVSPropertyOp14
 70
     2
102
RTVSPropertyOp15
 70
     0
102
RTVSPropertyOp16
 70
     0
102
RTVSPropertyOp17
 70
     0
102
RTVSPropertyOp18
 70
     0
102
RTVSPropertyOp19
 70
     0
102
RTVSPropertyOp20
 70
     0
102
RTVSPropertyOp21
 70
     0
102
RTVSPropertyOp22
 70
     0
102
RTVSPropertyOp23
 70
     0
102
RTVSPropertyOp24
 70
     0
102
RTVSPropertyOp25
 70
     0
102
RTVSPropertyOp26
 70
     0
102
RTVSPropertyOp27
 70
     0
102
RTVSPropertyOp28
 70
     1
102
RTVSPropertyOp29
 70
     1
102
RTVSPropertyOp30
 70
     1
102
RTVSPropertyOp31
 70
     1
102
RTVSPropertyOp32
 70
     1
102
RTVSPropertyOp33
 70
     1
102
RTVSPropertyOp34
 70
     1
102
RTVSPropertyOp35
 70
     1
102
RTVSPropertyOp36
 70
     1
102
RTVSPropertyOp37
 70
     0
102
RTVSPropertyOp38
 70
     0
102
RTVSPropertyOp39
 70
     0
102
RTVSPropertyOp40
 70
     0
102
RTVSPropertyOp41
 70
     0
102
RTVSPropertyOp42
 70
     0
102
RTVSPropertyOp43
 70
     0
102
RTVSPropertyOp44
 70
     0
102
RTVSPropertyOp45
 70
     1
102
RTVSPropertyOp46
 70
     0
102
RTVSPropertyOp47
 70
     0
102
RTVSPropertyOp48
 70
     0
102
RTVSPropertyOp49
 70
     1
102
RTVSPropertyOp50
 70
     0
102
RTVSPropertyOp51
 70
     0
102
RTVSPropertyOp52
 70
     0
102
RTVSPropertyOp53
 70
     0
102
RTVSPropertyOp54
 70
     0
102
RTVSPropertyOp55
 70
     1
102
RTVSPropertyOp56
 70
     0
102
RTVSPropertyOp57
 70
     0
102
RTVSPropertyOp58
 70
     1
102
RTVSPropertyOp59
 70
     1
102
RTVSPropertyOp60
 70
     1
102
RTVSPropertyOp61
 70
     1
102
RTVSPropertyOp62
 70
     1
  0
XRECORD
  5
C89
102
{ACAD_REACTORS
330
C88
102
}
330
C88
100
AcDbXrecord
280
     1
102
RTVSPost2010Prop28
280
     0
102
RTVSPost2010PropOp28
 70
     1
102
RTVSPost2010Prop29
280
     1
102
RTVSPost2010PropOp29
 70
     1
102
RTVSPost2010Prop30
280
     1
102
RTVSPost2010PropOp30
 70
     1
102
RTVSPost2010Prop31
280
     0
102
RTVSPost2010PropOp31
 70
     1
102
RTVSPost2010Prop32
280
     0
102
RTVSPost2010PropOp32
 70
     1
102
RTVSPost2010Prop33
280
     0
102
RTVSPost2010PropOp33
 70
     1
102
RTVSPost2010Prop34
280
     0
102
RTVSPost2010PropOp34
 70
     1
102
RTVSPost2010Prop35
280
     0
102
RTVSPost2010PropOp35
 70
     1
102
RTVSPost2010Prop36
280
     0
102
RTVSPost2010PropOp36
 70
     1
102
RTVSPost2010Prop37
 90
       50
102
RTVSPost2010PropOp37
 70
     1
102
RTVSPost2010Prop38
140
0.0
102
RTVSPost2010PropOp38
 70
     1
102
RTVSPost2010Prop39
140
1.0
102
RTVSPost2010PropOp39
 70
     1
102
RTVSPost2010Prop40
 90
        0
102
RTVSPost2010PropOp40
 70
     1
102
RTVSPost2010Prop41ColorIndex
 90
       18
102
RTVSPost2010Prop41ColorRGB
 90
        0
102
RTVSPost2010PropOp41
 70
     1
102
RTVSPost2010Prop42
 90
       50
102
RTVSPost2010PropOp42
 70
     1
102
RTVSPost2010Prop43
 90
        3
102
RTVSPost2010PropOp43
 70
     1
102
RTVSPost2010Prop44ColorIndex
 90
        5
102
RTVSPost2010Prop44ColorRGB
 90
      255
102
RTVSPost2010PropOp44
 70
     1
102
RTVSPost2010Prop45
280
     0
102
RTVSPost2010PropOp45
 70
     1
102
RTVSPost2010Prop46
 90
       50
102
RTVSPost2010PropOp46
 70
     1
102
RTVSPost2010Prop47
 90
       50
102
RTVSPost2010PropOp47
 70
     1
102
RTVSPost2010Prop48
 90
       50
102
RTVSPost2010PropOp48
 70
     1
102
RTVSPost2010Prop49
280
     0
102
RTVSPost2010PropOp49
 70
     1
102
RTVSPost2010Prop50
 90
       50
102
RTVSPost2010PropOp50
 70
     1
102
RTVSPost2010Prop51ColorIndex
 90
      256
102
RTVSPost2010Prop51ColorRGB
 90
-16777216
102
RTVSPost2010PropOp51
 70
     0
102
RTVSPost2010Prop52
140
1.0
102
RTVSPost2010PropOp52
 70
     0
102
RTVSPost2010Prop53
 90
        2
102
RTVSPost2010PropOp53
 70
     1
102
RTVSPost2010Prop54
  1
strokes_ogs.tif
102
RTVSPost2010PropOp54
 70
     1
102
RTVSPost2010Prop55
280
     0
102
RTVSPost2010PropOp55
 70
     1
102
RTVSPost2010Prop56
140
1.0
102
RTVSPost2010PropOp56
 70
     1
102
RTVSPost2010Prop57
140
1.0
102
RTVSPost2010PropOp57
 70
     1
102
RTVSPropertyOp0
 70
     1
102
RTVSPropertyOp1
 70
     1
102
RTVSPropertyOp2
 70
     1
102
RTVSPropertyOp3
 70
     1
102
RTVSPropertyOp4
 70
     1
102
RTVSPropertyOp5
 70
     1
102
RTVSPropertyOp6
 70
     1
102
RTVSPropertyOp7
 70
     1
102
RTVSPropertyOp8
 70
     1
102
RTVSPropertyOp9
 70
     1
102
RTVSPropertyOp10
 70
     1
102
RTVSPropertyOp11
 70
     1
102
RTVSPropertyOp12
 70
     1
102
RTVSPropertyOp13
 70
     1
102
RTVSPropertyOp14
 70
     1
102
RTVSPropertyOp15
 70
     1
102
RTVSPropertyOp16
 70
     1
102
RTVSPropertyOp17
 70
     1
102
RTVSPropertyOp18
 70
     1
102
RTVSPropertyOp19
 70
     1
102
RTVSPropertyOp20
 70
     1
102
RTVSPropertyOp21
 70
     1
102
RTVSPropertyOp22
 70
     1
102
RTVSPropertyOp23
 70
     1
102
RTVSPropertyOp24
 70
     1
102
RTVSPropertyOp25
 70
     1
102
RTVSPropertyOp26
 70
     1
102
RTVSPropertyOp27
 70
     1
102
RTVSPropertyOp28
 70
     1
102
RTVSPropertyOp29
 70
     1
102
RTVSPropertyOp30
 70
     1
102
RTVSPropertyOp31
 70
     1
102
RTVSPropertyOp32
 70
     1
102
RTVSPropertyOp33
 70
     1
102
RTVSPropertyOp34
 70
     1
102
RTVSPropertyOp35
 70
     1
102
RTVSPropertyOp36
 70
     1
102
RTVSPropertyOp37
 70
     1
102
RTVSPropertyOp38
 70
     1
102
RTVSPropertyOp39
 70
     1
102
RTVSPropertyOp40
 70
     1
102
RTVSPropertyOp41
 70
     1
102
RTVSPropertyOp42
 70
     1
102
RTVSPropertyOp43
 70
     1
102
RTVSPropertyOp44
 70
     1
102
RTVSPropertyOp45
 70
     1
102
RTVSPropertyOp46
 70
     1
102
RTVSPropertyOp47
 70
     1
102
RTVSPropertyOp48
 70
     1
102
RTVSPropertyOp49
 70
     1
102
RTVSPropertyOp50
 70
     1
102
RTVSPropertyOp51
 70
     0
102
RTVSPropertyOp52
 70
     0
102
RTVSPropertyOp53
 70
     1
102
RTVSPropertyOp54
 70
     1
102
RTVSPropertyOp55
 70
     1
102
RTVSPropertyOp56
 70
     1
102
RTVSPropertyOp57
 70
     1
102
RTVSPropertyOp58
 70
     1
102
RTVSPropertyOp59
 70
     1
102
RTVSPropertyOp60
 70
     1
102
RTVSPropertyOp61
 70
     1
102
RTVSPropertyOp62
 70
     1
  0
XRECORD
  5
C9F
102
{ACAD_REACTORS
330
C9E
102
}
330
C9E
100
AcDbXrecord
280
     1
102
RTVSPost2010Prop28
280
     0
102
RTVSPost2010PropOp28
 70
     1
102
RTVSPost2010Prop29
280
     1
102
RTVSPost2010PropOp29
 70
     1
102
RTVSPost2010Prop30
280
     1
102
RTVSPost2010PropOp30
 70
     1
102
RTVSPost2010Prop31
280
     0
102
RTVSPost2010PropOp31
 70
     1
102
RTVSPost2010Prop32
280
     0
102
RTVSPost2010PropOp32
 70
     1
102
RTVSPost2010Prop33
280
     0
102
RTVSPost2010PropOp33
 70
     1
102
RTVSPost2010Prop34
280
     0
102
RTVSPost2010PropOp34
 70
     1
102
RTVSPost2010Prop35
280
     0
102
RTVSPost2010PropOp35
 70
     1
102
RTVSPost2010Prop36
280
     0
102
RTVSPost2010PropOp36
 70
     1
102
RTVSPost2010Prop37
 90
       50
102
RTVSPost2010PropOp37
 70
     1
102
RTVSPost2010Prop38
140
0.0
102
RTVSPost2010PropOp38
 70
     1
102
RTVSPost2010Prop39
140
1.0
102
RTVSPost2010PropOp39
 70
     1
102
RTVSPost2010Prop40
 90
        0
102
RTVSPost2010PropOp40
 70
     1
102
RTVSPost2010Prop41ColorIndex
 90
       18
102
RTVSPost2010Prop41ColorRGB
 90
        0
102
RTVSPost2010PropOp41
 70
     1
102
RTVSPost2010Prop42
 90
       50
102
RTVSPost2010PropOp42
 70
     1
102
RTVSPost2010Prop43
 90
        3
102
RTVSPost2010PropOp43
 70
     1
102
RTVSPost2010Prop44ColorIndex
 90
        5
102
RTVSPost2010Prop44ColorRGB
 90
      255
102
RTVSPost2010PropOp44
 70
     1
102
RTVSPost2010Prop45
280
     0
102
RTVSPost2010PropOp45
 70
     1
102
RTVSPost2010Prop46
 90
       50
102
RTVSPost2010PropOp46
 70
     1
102
RTVSPost2010Prop47
 90
       50
102
RTVSPost2010PropOp47
 70
     1
102
RTVSPost2010Prop48
 90
       50
102
RTVSPost2010PropOp48
 70
     1
102
RTVSPost2010Prop49
280
     0
102
RTVSPost2010PropOp49
 70
     1
102
RTVSPost2010Prop50
 90
       50
102
RTVSPost2010PropOp50
 70
     1
102
RTVSPost2010Prop51ColorIndex
 90
      256
102
RTVSPost2010Prop51ColorRGB
 90
-16777216
102
RTVSPost2010PropOp51
 70
     0
102
RTVSPost2010Prop52
140
1.0
102
RTVSPost2010PropOp52
 70
     0
102
RTVSPost2010Prop53
 90
        2
102
RTVSPost2010PropOp53
 70
     1
102
RTVSPost2010Prop54
  1
strokes_ogs.tif
102
RTVSPost2010PropOp54
 70
     1
102
RTVSPost2010Prop55
280
     0
102
RTVSPost2010PropOp55
 70
     1
102
RTVSPost2010Prop56
140
1.0
102
RTVSPost2010PropOp56
 70
     1
102
RTVSPost2010Prop57
140
1.0
102
RTVSPost2010PropOp57
 70
     1
102
RTVSPropertyOp0
 70
     1
102
RTVSPropertyOp1
 70
     1
102
RTVSPropertyOp2
 70
     1
102
RTVSPropertyOp3
 70
     1
102
RTVSPropertyOp4
 70
     1
102
RTVSPropertyOp5
 70
     1
102
RTVSPropertyOp6
 70
     1
102
RTVSPropertyOp7
 70
     1
102
RTVSPropertyOp8
 70
     1
102
RTVSPropertyOp9
 70
     1
102
RTVSPropertyOp10
 70
     1
102
RTVSPropertyOp11
 70
     1
102
RTVSPropertyOp12
 70
     1
102
RTVSPropertyOp13
 70
     1
102
RTVSPropertyOp14
 70
     1
102
RTVSPropertyOp15
 70
     1
102
RTVSPropertyOp16
 70
     1
102
RTVSPropertyOp17
 70
     1
102
RTVSPropertyOp18
 70
     1
102
RTVSPropertyOp19
 70
     1
102
RTVSPropertyOp20
 70
     1
102
RTVSPropertyOp21
 70
     1
102
RTVSPropertyOp22
 70
     1
102
RTVSPropertyOp23
 70
     1
102
RTVSPropertyOp24
 70
     1
102
RTVSPropertyOp25
 70
     1
102
RTVSPropertyOp26
 70
     1
102
RTVSPropertyOp27
 70
     1
102
RTVSPropertyOp28
 70
     1
102
RTVSPropertyOp29
 70
     1
102
RTVSPropertyOp30
 70
     1
102
RTVSPropertyOp31
 70
     1
102
RTVSPropertyOp32
 70
     1
102
RTVSPropertyOp33
 70
     1
102
RTVSPropertyOp34
 70
     1
102
RTVSPropertyOp35
 70
     1
102
RTVSPropertyOp36
 70
     1
102
RTVSPropertyOp37
 70
     1
102
RTVSPropertyOp38
 70
     1
102
RTVSPropertyOp39
 70
     1
102
RTVSPropertyOp40
 70
     1
102
RTVSPropertyOp41
 70
     1
102
RTVSPropertyOp42
 70
     1
102
RTVSPropertyOp43
 70
     1
102
RTVSPropertyOp44
 70
     1
102
RTVSPropertyOp45
 70
     1
102
RTVSPropertyOp46
 70
     1
102
RTVSPropertyOp47
 70
     1
102
RTVSPropertyOp48
 70
     1
102
RTVSPropertyOp49
 70
     1
102
RTVSPropertyOp50
 70
     1
102
RTVSPropertyOp51
 70
     0
102
RTVSPropertyOp52
 70
     0
102
RTVSPropertyOp53
 70
     1
102
RTVSPropertyOp54
 70
     1
102
RTVSPropertyOp55
 70
     1
102
RTVSPropertyOp56
 70
     1
102
RTVSPropertyOp57
 70
     1
102
RTVSPropertyOp58
 70
     1
102
RTVSPropertyOp59
 70
     1
102
RTVSPropertyOp60
 70
     1
102
RTVSPropertyOp61
 70
     1
102
RTVSPropertyOp62
 70
     1
  0
XRECORD
  5
C9D
102
{ACAD_REACTORS
330
C9C
102
}
330
C9C
100
AcDbXrecord
280
     1
102
RTVSPost2010Prop28
280
     0
102
RTVSPost2010PropOp28
 70
     1
102
RTVSPost2010Prop29
280
     1
102
RTVSPost2010PropOp29
 70
     1
102
RTVSPost2010Prop30
280
     1
102
RTVSPost2010PropOp30
 70
     1
102
RTVSPost2010Prop31
280
     0
102
RTVSPost2010PropOp31
 70
     1
102
RTVSPost2010Prop32
280
     0
102
RTVSPost2010PropOp32
 70
     1
102
RTVSPost2010Prop33
280
     0
102
RTVSPost2010PropOp33
 70
     1
102
RTVSPost2010Prop34
280
     0
102
RTVSPost2010PropOp34
 70
     1
102
RTVSPost2010Prop35
280
     0
102
RTVSPost2010PropOp35
 70
     1
102
RTVSPost2010Prop36
280
     0
102
RTVSPost2010PropOp36
 70
     1
102
RTVSPost2010Prop37
 90
       50
102
RTVSPost2010PropOp37
 70
     1
102
RTVSPost2010Prop38
140
0.0
102
RTVSPost2010PropOp38
 70
     1
102
RTVSPost2010Prop39
140
1.0
102
RTVSPost2010PropOp39
 70
     1
102
RTVSPost2010Prop40
 90
        0
102
RTVSPost2010PropOp40
 70
     1
102
RTVSPost2010Prop41ColorIndex
 90
       18
102
RTVSPost2010Prop41ColorRGB
 90
        0
102
RTVSPost2010PropOp41
 70
     1
102
RTVSPost2010Prop42
 90
       50
102
RTVSPost2010PropOp42
 70
     1
102
RTVSPost2010Prop43
 90
        3
102
RTVSPost2010PropOp43
 70
     1
102
RTVSPost2010Prop44ColorIndex
 90
        5
102
RTVSPost2010Prop44ColorRGB
 90
      255
102
RTVSPost2010PropOp44
 70
     1
102
RTVSPost2010Prop45
280
     0
102
RTVSPost2010PropOp45
 70
     1
102
RTVSPost2010Prop46
 90
       50
102
RTVSPost2010PropOp46
 70
     1
102
RTVSPost2010Prop47
 90
       50
102
RTVSPost2010PropOp47
 70
     1
102
RTVSPost2010Prop48
 90
       50
102
RTVSPost2010PropOp48
 70
     1
102
RTVSPost2010Prop49
280
     0
102
RTVSPost2010PropOp49
 70
     1
102
RTVSPost2010Prop50
 90
       50
102
RTVSPost2010PropOp50
 70
     1
102
RTVSPost2010Prop51ColorIndex
 90
      256
102
RTVSPost2010Prop51ColorRGB
 90
-16777216
102
RTVSPost2010PropOp51
 70
     0
102
RTVSPost2010Prop52
140
1.0
102
RTVSPost2010PropOp52
 70
     0
102
RTVSPost2010Prop53
 90
        2
102
RTVSPost2010PropOp53
 70
     1
102
RTVSPost2010Prop54
  1
strokes_ogs.tif
102
RTVSPost2010PropOp54
 70
     1
102
RTVSPost2010Prop55
280
     0
102
RTVSPost2010PropOp55
 70
     1
102
RTVSPost2010Prop56
140
1.0
102
RTVSPost2010PropOp56
 70
     1
102
RTVSPost2010Prop57
140
1.0
102
RTVSPost2010PropOp57
 70
     1
102
RTVSPropertyOp0
 70
     1
102
RTVSPropertyOp1
 70
     1
102
RTVSPropertyOp2
 70
     1
102
RTVSPropertyOp3
 70
     1
102
RTVSPropertyOp4
 70
     1
102
RTVSPropertyOp5
 70
     1
102
RTVSPropertyOp6
 70
     1
102
RTVSPropertyOp7
 70
     1
102
RTVSPropertyOp8
 70
     1
102
RTVSPropertyOp9
 70
     1
102
RTVSPropertyOp10
 70
     1
102
RTVSPropertyOp11
 70
     1
102
RTVSPropertyOp12
 70
     1
102
RTVSPropertyOp13
 70
     1
102
RTVSPropertyOp14
 70
     1
102
RTVSPropertyOp15
 70
     1
102
RTVSPropertyOp16
 70
     1
102
RTVSPropertyOp17
 70
     1
102
RTVSPropertyOp18
 70
     1
102
RTVSPropertyOp19
 70
     1
102
RTVSPropertyOp20
 70
     1
102
RTVSPropertyOp21
 70
     1
102
RTVSPropertyOp22
 70
     1
102
RTVSPropertyOp23
 70
     1
102
RTVSPropertyOp24
 70
     1
102
RTVSPropertyOp25
 70
     1
102
RTVSPropertyOp26
 70
     1
102
RTVSPropertyOp27
 70
     1
102
RTVSPropertyOp28
 70
     1
102
RTVSPropertyOp29
 70
     1
102
RTVSPropertyOp30
 70
     1
102
RTVSPropertyOp31
 70
     1
102
RTVSPropertyOp32
 70
     1
102
RTVSPropertyOp33
 70
     1
102
RTVSPropertyOp34
 70
     1
102
RTVSPropertyOp35
 70
     1
102
RTVSPropertyOp36
 70
     1
102
RTVSPropertyOp37
 70
     1
102
RTVSPropertyOp38
 70
     1
102
RTVSPropertyOp39
 70
     1
102
RTVSPropertyOp40
 70
     1
102
RTVSPropertyOp41
 70
     1
102
RTVSPropertyOp42
 70
     1
102
RTVSPropertyOp43
 70
     1
102
RTVSPropertyOp44
 70
     1
102
RTVSPropertyOp45
 70
     1
102
RTVSPropertyOp46
 70
     1
102
RTVSPropertyOp47
 70
     1
102
RTVSPropertyOp48
 70
     1
102
RTVSPropertyOp49
 70
     1
102
RTVSPropertyOp50
 70
     1
102
RTVSPropertyOp51
 70
     0
102
RTVSPropertyOp52
 70
     0
102
RTVSPropertyOp53
 70
     1
102
RTVSPropertyOp54
 70
     1
102
RTVSPropertyOp55
 70
     1
102
RTVSPropertyOp56
 70
     1
102
RTVSPropertyOp57
 70
     1
102
RTVSPropertyOp58
 70
     1
102
RTVSPropertyOp59
 70
     1
102
RTVSPropertyOp60
 70
     1
102
RTVSPropertyOp61
 70
     1
102
RTVSPropertyOp62
 70
     1
  0
XRECORD
  5
C97
102
{ACAD_REACTORS
330
C96
102
}
330
C96
100
AcDbXrecord
280
     1
102
RTVSPost2010Prop28
280
     0
102
RTVSPost2010PropOp28
 70
     1
102
RTVSPost2010Prop29
280
     1
102
RTVSPost2010PropOp29
 70
     1
102
RTVSPost2010Prop30
280
     1
102
RTVSPost2010PropOp30
 70
     1
102
RTVSPost2010Prop31
280
     0
102
RTVSPost2010PropOp31
 70
     1
102
RTVSPost2010Prop32
280
     0
102
RTVSPost2010PropOp32
 70
     1
102
RTVSPost2010Prop33
280
     0
102
RTVSPost2010PropOp33
 70
     1
102
RTVSPost2010Prop34
280
     0
102
RTVSPost2010PropOp34
 70
     1
102
RTVSPost2010Prop35
280
     0
102
RTVSPost2010PropOp35
 70
     1
102
RTVSPost2010Prop36
280
     0
102
RTVSPost2010PropOp36
 70
     1
102
RTVSPost2010Prop37
 90
       50
102
RTVSPost2010PropOp37
 70
     1
102
RTVSPost2010Prop38
140
0.0
102
RTVSPost2010PropOp38
 70
     1
102
RTVSPost2010Prop39
140
1.0
102
RTVSPost2010PropOp39
 70
     1
102
RTVSPost2010Prop40
 90
        0
102
RTVSPost2010PropOp40
 70
     1
102
RTVSPost2010Prop41ColorIndex
 90
       18
102
RTVSPost2010Prop41ColorRGB
 90
        0
102
RTVSPost2010PropOp41
 70
     1
102
RTVSPost2010Prop42
 90
       50
102
RTVSPost2010PropOp42
 70
     1
102
RTVSPost2010Prop43
 90
        3
102
RTVSPost2010PropOp43
 70
     1
102
RTVSPost2010Prop44ColorIndex
 90
        5
102
RTVSPost2010Prop44ColorRGB
 90
      255
102
RTVSPost2010PropOp44
 70
     1
102
RTVSPost2010Prop45
280
     0
102
RTVSPost2010PropOp45
 70
     1
102
RTVSPost2010Prop46
 90
       50
102
RTVSPost2010PropOp46
 70
     1
102
RTVSPost2010Prop47
 90
       50
102
RTVSPost2010PropOp47
 70
     1
102
RTVSPost2010Prop48
 90
       50
102
RTVSPost2010PropOp48
 70
     1
102
RTVSPost2010Prop49
280
     0
102
RTVSPost2010PropOp49
 70
     1
102
RTVSPost2010Prop50
 90
       50
102
RTVSPost2010PropOp50
 70
     1
102
RTVSPost2010Prop51ColorIndex
 90
      256
102
RTVSPost2010Prop51ColorRGB
 90
-16777216
102
RTVSPost2010PropOp51
 70
     0
102
RTVSPost2010Prop52
140
1.0
102
RTVSPost2010PropOp52
 70
     0
102
RTVSPost2010Prop53
 90
        2
102
RTVSPost2010PropOp53
 70
     1
102
RTVSPost2010Prop54
  1
strokes_ogs.tif
102
RTVSPost2010PropOp54
 70
     1
102
RTVSPost2010Prop55
280
     0
102
RTVSPost2010PropOp55
 70
     1
102
RTVSPost2010Prop56
140
1.0
102
RTVSPost2010PropOp56
 70
     1
102
RTVSPost2010Prop57
140
1.0
102
RTVSPost2010PropOp57
 70
     1
102
RTVSPropertyOp0
 70
     1
102
RTVSPropertyOp1
 70
     1
102
RTVSPropertyOp2
 70
     1
102
RTVSPropertyOp3
 70
     1
102
RTVSPropertyOp4
 70
     1
102
RTVSPropertyOp5
 70
     1
102
RTVSPropertyOp6
 70
     1
102
RTVSPropertyOp7
 70
     1
102
RTVSPropertyOp8
 70
     1
102
RTVSPropertyOp9
 70
     1
102
RTVSPropertyOp10
 70
     1
102
RTVSPropertyOp11
 70
     1
102
RTVSPropertyOp12
 70
     1
102
RTVSPropertyOp13
 70
     1
102
RTVSPropertyOp14
 70
     1
102
RTVSPropertyOp15
 70
     1
102
RTVSPropertyOp16
 70
     1
102
RTVSPropertyOp17
 70
     1
102
RTVSPropertyOp18
 70
     1
102
RTVSPropertyOp19
 70
     1
102
RTVSPropertyOp20
 70
     1
102
RTVSPropertyOp21
 70
     1
102
RTVSPropertyOp22
 70
     1
102
RTVSPropertyOp23
 70
     1
102
RTVSPropertyOp24
 70
     1
102
RTVSPropertyOp25
 70
     1
102
RTVSPropertyOp26
 70
     1
102
RTVSPropertyOp27
 70
     1
102
RTVSPropertyOp28
 70
     1
102
RTVSPropertyOp29
 70
     1
102
RTVSPropertyOp30
 70
     1
102
RTVSPropertyOp31
 70
     1
102
RTVSPropertyOp32
 70
     1
102
RTVSPropertyOp33
 70
     1
102
RTVSPropertyOp34
 70
     1
102
RTVSPropertyOp35
 70
     1
102
RTVSPropertyOp36
 70
     1
102
RTVSPropertyOp37
 70
     1
102
RTVSPropertyOp38
 70
     1
102
RTVSPropertyOp39
 70
     1
102
RTVSPropertyOp40
 70
     1
102
RTVSPropertyOp41
 70
     1
102
RTVSPropertyOp42
 70
     1
102
RTVSPropertyOp43
 70
     1
102
RTVSPropertyOp44
 70
     1
102
RTVSPropertyOp45
 70
     1
102
RTVSPropertyOp46
 70
     1
102
RTVSPropertyOp47
 70
     1
102
RTVSPropertyOp48
 70
     1
102
RTVSPropertyOp49
 70
     1
102
RTVSPropertyOp50
 70
     1
102
RTVSPropertyOp51
 70
     0
102
RTVSPropertyOp52
 70
     0
102
RTVSPropertyOp53
 70
     1
102
RTVSPropertyOp54
 70
     1
102
RTVSPropertyOp55
 70
     1
102
RTVSPropertyOp56
 70
     1
102
RTVSPropertyOp57
 70
     1
102
RTVSPropertyOp58
 70
     1
102
RTVSPropertyOp59
 70
     1
102
RTVSPropertyOp60
 70
     1
102
RTVSPropertyOp61
 70
     1
102
RTVSPropertyOp62
 70
     1
  0
XRECORD
  5
C99
102
{ACAD_REACTORS
330
C98
102
}
330
C98
100
AcDbXrecord
280
     1
102
RTVSPost2010Prop28
280
     0
102
RTVSPost2010PropOp28
 70
     1
102
RTVSPost2010Prop29
280
     1
102
RTVSPost2010PropOp29
 70
     1
102
RTVSPost2010Prop30
280
     1
102
RTVSPost2010PropOp30
 70
     1
102
RTVSPost2010Prop31
280
     0
102
RTVSPost2010PropOp31
 70
     1
102
RTVSPost2010Prop32
280
     0
102
RTVSPost2010PropOp32
 70
     1
102
RTVSPost2010Prop33
280
     0
102
RTVSPost2010PropOp33
 70
     1
102
RTVSPost2010Prop34
280
     0
102
RTVSPost2010PropOp34
 70
     1
102
RTVSPost2010Prop35
280
     0
102
RTVSPost2010PropOp35
 70
     1
102
RTVSPost2010Prop36
280
     0
102
RTVSPost2010PropOp36
 70
     1
102
RTVSPost2010Prop37
 90
       50
102
RTVSPost2010PropOp37
 70
     1
102
RTVSPost2010Prop38
140
0.0
102
RTVSPost2010PropOp38
 70
     1
102
RTVSPost2010Prop39
140
1.0
102
RTVSPost2010PropOp39
 70
     1
102
RTVSPost2010Prop40
 90
        0
102
RTVSPost2010PropOp40
 70
     1
102
RTVSPost2010Prop41ColorIndex
 90
       18
102
RTVSPost2010Prop41ColorRGB
 90
        0
102
RTVSPost2010PropOp41
 70
     1
102
RTVSPost2010Prop42
 90
       50
102
RTVSPost2010PropOp42
 70
     1
102
RTVSPost2010Prop43
 90
        3
102
RTVSPost2010PropOp43
 70
     1
102
RTVSPost2010Prop44ColorIndex
 90
        5
102
RTVSPost2010Prop44ColorRGB
 90
      255
102
RTVSPost2010PropOp44
 70
     1
102
RTVSPost2010Prop45
280
     0
102
RTVSPost2010PropOp45
 70
     1
102
RTVSPost2010Prop46
 90
       50
102
RTVSPost2010PropOp46
 70
     1
102
RTVSPost2010Prop47
 90
       50
102
RTVSPost2010PropOp47
 70
     1
102
RTVSPost2010Prop48
 90
       50
102
RTVSPost2010PropOp48
 70
     1
102
RTVSPost2010Prop49
280
     0
102
RTVSPost2010PropOp49
 70
     1
102
RTVSPost2010Prop50
 90
       50
102
RTVSPost2010PropOp50
 70
     1
102
RTVSPost2010Prop51ColorIndex
 90
      256
102
RTVSPost2010Prop51ColorRGB
 90
-16777216
102
RTVSPost2010PropOp51
 70
     0
102
RTVSPost2010Prop52
140
1.0
102
RTVSPost2010PropOp52
 70
     0
102
RTVSPost2010Prop53
 90
        2
102
RTVSPost2010PropOp53
 70
     1
102
RTVSPost2010Prop54
  1
strokes_ogs.tif
102
RTVSPost2010PropOp54
 70
     1
102
RTVSPost2010Prop55
280
     0
102
RTVSPost2010PropOp55
 70
     1
102
RTVSPost2010Prop56
140
1.0
102
RTVSPost2010PropOp56
 70
     1
102
RTVSPost2010Prop57
140
1.0
102
RTVSPost2010PropOp57
 70
     1
102
RTVSPropertyOp0
 70
     1
102
RTVSPropertyOp1
 70
     1
102
RTVSPropertyOp2
 70
     1
102
RTVSPropertyOp3
 70
     1
102
RTVSPropertyOp4
 70
     1
102
RTVSPropertyOp5
 70
     1
102
RTVSPropertyOp6
 70
     1
102
RTVSPropertyOp7
 70
     1
102
RTVSPropertyOp8
 70
     1
102
RTVSPropertyOp9
 70
     1
102
RTVSPropertyOp10
 70
     1
102
RTVSPropertyOp11
 70
     1
102
RTVSPropertyOp12
 70
     1
102
RTVSPropertyOp13
 70
     1
102
RTVSPropertyOp14
 70
     1
102
RTVSPropertyOp15
 70
     1
102
RTVSPropertyOp16
 70
     1
102
RTVSPropertyOp17
 70
     1
102
RTVSPropertyOp18
 70
     1
102
RTVSPropertyOp19
 70
     1
102
RTVSPropertyOp20
 70
     1
102
RTVSPropertyOp21
 70
     1
102
RTVSPropertyOp22
 70
     1
102
RTVSPropertyOp23
 70
     1
102
RTVSPropertyOp24
 70
     1
102
RTVSPropertyOp25
 70
     1
102
RTVSPropertyOp26
 70
     1
102
RTVSPropertyOp27
 70
     1
102
RTVSPropertyOp28
 70
     1
102
RTVSPropertyOp29
 70
     1
102
RTVSPropertyOp30
 70
     1
102
RTVSPropertyOp31
 70
     1
102
RTVSPropertyOp32
 70
     1
102
RTVSPropertyOp33
 70
     1
102
RTVSPropertyOp34
 70
     1
102
RTVSPropertyOp35
 70
     1
102
RTVSPropertyOp36
 70
     1
102
RTVSPropertyOp37
 70
     1
102
RTVSPropertyOp38
 70
     1
102
RTVSPropertyOp39
 70
     1
102
RTVSPropertyOp40
 70
     1
102
RTVSPropertyOp41
 70
     1
102
RTVSPropertyOp42
 70
     1
102
RTVSPropertyOp43
 70
     1
102
RTVSPropertyOp44
 70
     1
102
RTVSPropertyOp45
 70
     1
102
RTVSPropertyOp46
 70
     1
102
RTVSPropertyOp47
 70
     1
102
RTVSPropertyOp48
 70
     1
102
RTVSPropertyOp49
 70
     1
102
RTVSPropertyOp50
 70
     1
102
RTVSPropertyOp51
 70
     0
102
RTVSPropertyOp52
 70
     0
102
RTVSPropertyOp53
 70
     1
102
RTVSPropertyOp54
 70
     1
102
RTVSPropertyOp55
 70
     1
102
RTVSPropertyOp56
 70
     1
102
RTVSPropertyOp57
 70
     1
102
RTVSPropertyOp58
 70
     1
102
RTVSPropertyOp59
 70
     1
102
RTVSPropertyOp60
 70
     1
102
RTVSPropertyOp61
 70
     1
102
RTVSPropertyOp62
 70
     1
  0
XRECORD
  5
C8F
102
{ACAD_REACTORS
330
C8E
102
}
330
C8E
100
AcDbXrecord
280
     1
102
RTVSPost2010Prop28
280
     0
102
RTVSPost2010PropOp28
 70
     1
102
RTVSPost2010Prop29
280
     1
102
RTVSPost2010PropOp29
 70
     1
102
RTVSPost2010Prop30
280
     1
102
RTVSPost2010PropOp30
 70
     1
102
RTVSPost2010Prop31
280
     0
102
RTVSPost2010PropOp31
 70
     1
102
RTVSPost2010Prop32
280
     0
102
RTVSPost2010PropOp32
 70
     1
102
RTVSPost2010Prop33
280
     0
102
RTVSPost2010PropOp33
 70
     1
102
RTVSPost2010Prop34
280
     0
102
RTVSPost2010PropOp34
 70
     1
102
RTVSPost2010Prop35
280
     0
102
RTVSPost2010PropOp35
 70
     1
102
RTVSPost2010Prop36
280
     0
102
RTVSPost2010PropOp36
 70
     1
102
RTVSPost2010Prop37
 90
       50
102
RTVSPost2010PropOp37
 70
     1
102
RTVSPost2010Prop38
140
0.0
102
RTVSPost2010PropOp38
 70
     1
102
RTVSPost2010Prop39
140
1.0
102
RTVSPost2010PropOp39
 70
     1
102
RTVSPost2010Prop40
 90
        0
102
RTVSPost2010PropOp40
 70
     1
102
RTVSPost2010Prop41ColorIndex
 90
       18
102
RTVSPost2010Prop41ColorRGB
 90
        0
102
RTVSPost2010PropOp41
 70
     1
102
RTVSPost2010Prop42
 90
       50
102
RTVSPost2010PropOp42
 70
     1
102
RTVSPost2010Prop43
 90
        3
102
RTVSPost2010PropOp43
 70
     1
102
RTVSPost2010Prop44ColorIndex
 90
        5
102
RTVSPost2010Prop44ColorRGB
 90
      255
102
RTVSPost2010PropOp44
 70
     1
102
RTVSPost2010Prop45
280
     0
102
RTVSPost2010PropOp45
 70
     1
102
RTVSPost2010Prop46
 90
       50
102
RTVSPost2010PropOp46
 70
     1
102
RTVSPost2010Prop47
 90
       50
102
RTVSPost2010PropOp47
 70
     1
102
RTVSPost2010Prop48
 90
       50
102
RTVSPost2010PropOp48
 70
     1
102
RTVSPost2010Prop49
280
     0
102
RTVSPost2010PropOp49
 70
     1
102
RTVSPost2010Prop50
 90
       50
102
RTVSPost2010PropOp50
 70
     1
102
RTVSPost2010Prop51ColorIndex
 90
      256
102
RTVSPost2010Prop51ColorRGB
 90
-16777216
102
RTVSPost2010PropOp51
 70
     0
102
RTVSPost2010Prop52
140
1.0
102
RTVSPost2010PropOp52
 70
     0
102
RTVSPost2010Prop53
 90
        2
102
RTVSPost2010PropOp53
 70
     1
102
RTVSPost2010Prop54
  1
strokes_ogs.tif
102
RTVSPost2010PropOp54
 70
     1
102
RTVSPost2010Prop55
280
     0
102
RTVSPost2010PropOp55
 70
     1
102
RTVSPost2010Prop56
140
1.0
102
RTVSPost2010PropOp56
 70
     1
102
RTVSPost2010Prop57
140
1.0
102
RTVSPost2010PropOp57
 70
     1
102
RTVSPropertyOp0
 70
     1
102
RTVSPropertyOp1
 70
     1
102
RTVSPropertyOp2
 70
     1
102
RTVSPropertyOp3
 70
     1
102
RTVSPropertyOp4
 70
     1
102
RTVSPropertyOp5
 70
     1
102
RTVSPropertyOp6
 70
     1
102
RTVSPropertyOp7
 70
     1
102
RTVSPropertyOp8
 70
     1
102
RTVSPropertyOp9
 70
     1
102
RTVSPropertyOp10
 70
     1
102
RTVSPropertyOp11
 70
     1
102
RTVSPropertyOp12
 70
     1
102
RTVSPropertyOp13
 70
     1
102
RTVSPropertyOp14
 70
     1
102
RTVSPropertyOp15
 70
     1
102
RTVSPropertyOp16
 70
     1
102
RTVSPropertyOp17
 70
     1
102
RTVSPropertyOp18
 70
     1
102
RTVSPropertyOp19
 70
     1
102
RTVSPropertyOp20
 70
     1
102
RTVSPropertyOp21
 70
     1
102
RTVSPropertyOp22
 70
     1
102
RTVSPropertyOp23
 70
     1
102
RTVSPropertyOp24
 70
     1
102
RTVSPropertyOp25
 70
     1
102
RTVSPropertyOp26
 70
     1
102
RTVSPropertyOp27
 70
     1
102
RTVSPropertyOp28
 70
     1
102
RTVSPropertyOp29
 70
     1
102
RTVSPropertyOp30
 70
     1
102
RTVSPropertyOp31
 70
     1
102
RTVSPropertyOp32
 70
     1
102
RTVSPropertyOp33
 70
     1
102
RTVSPropertyOp34
 70
     1
102
RTVSPropertyOp35
 70
     1
102
RTVSPropertyOp36
 70
     1
102
RTVSPropertyOp37
 70
     1
102
RTVSPropertyOp38
 70
     1
102
RTVSPropertyOp39
 70
     1
102
RTVSPropertyOp40
 70
     1
102
RTVSPropertyOp41
 70
     1
102
RTVSPropertyOp42
 70
     1
102
RTVSPropertyOp43
 70
     1
102
RTVSPropertyOp44
 70
     1
102
RTVSPropertyOp45
 70
     1
102
RTVSPropertyOp46
 70
     1
102
RTVSPropertyOp47
 70
     1
102
RTVSPropertyOp48
 70
     1
102
RTVSPropertyOp49
 70
     1
102
RTVSPropertyOp50
 70
     1
102
RTVSPropertyOp51
 70
     0
102
RTVSPropertyOp52
 70
     0
102
RTVSPropertyOp53
 70
     1
102
RTVSPropertyOp54
 70
     1
102
RTVSPropertyOp55
 70
     1
102
RTVSPropertyOp56
 70
     1
102
RTVSPropertyOp57
 70
     1
102
RTVSPropertyOp58
 70
     1
102
RTVSPropertyOp59
 70
     1
102
RTVSPropertyOp60
 70
     1
102
RTVSPropertyOp61
 70
     1
102
RTVSPropertyOp62
 70
     1
  0
XRECORD
  5
C83
102
{ACAD_REACTORS
330
C82
102
}
330
C82
100
AcDbXrecord
280
     1
102
RTVSPost2010Prop28
280
     0
102
RTVSPost2010PropOp28
 70
     1
102
RTVSPost2010Prop29
280
     1
102
RTVSPost2010PropOp29
 70
     1
102
RTVSPost2010Prop30
280
     1
102
RTVSPost2010PropOp30
 70
     1
102
RTVSPost2010Prop31
280
     0
102
RTVSPost2010PropOp31
 70
     1
102
RTVSPost2010Prop32
280
     0
102
RTVSPost2010PropOp32
 70
     1
102
RTVSPost2010Prop33
280
     0
102
RTVSPost2010PropOp33
 70
     1
102
RTVSPost2010Prop34
280
     0
102
RTVSPost2010PropOp34
 70
     1
102
RTVSPost2010Prop35
280
     0
102
RTVSPost2010PropOp35
 70
     1
102
RTVSPost2010Prop36
280
     0
102
RTVSPost2010PropOp36
 70
     1
102
RTVSPost2010Prop37
 90
       50
102
RTVSPost2010PropOp37
 70
     1
102
RTVSPost2010Prop38
140
0.0
102
RTVSPost2010PropOp38
 70
     1
102
RTVSPost2010Prop39
140
1.0
102
RTVSPost2010PropOp39
 70
     1
102
RTVSPost2010Prop40
 90
        0
102
RTVSPost2010PropOp40
 70
     1
102
RTVSPost2010Prop41ColorIndex
 90
       18
102
RTVSPost2010Prop41ColorRGB
 90
        0
102
RTVSPost2010PropOp41
 70
     1
102
RTVSPost2010Prop42
 90
       50
102
RTVSPost2010PropOp42
 70
     1
102
RTVSPost2010Prop43
 90
        3
102
RTVSPost2010PropOp43
 70
     1
102
RTVSPost2010Prop44ColorIndex
 90
        5
102
RTVSPost2010Prop44ColorRGB
 90
      255
102
RTVSPost2010PropOp44
 70
     1
102
RTVSPost2010Prop45
280
     0
102
RTVSPost2010PropOp45
 70
     1
102
RTVSPost2010Prop46
 90
       50
102
RTVSPost2010PropOp46
 70
     1
102
RTVSPost2010Prop47
 90
       50
102
RTVSPost2010PropOp47
 70
     1
102
RTVSPost2010Prop48
 90
       50
102
RTVSPost2010PropOp48
 70
     1
102
RTVSPost2010Prop49
280
     0
102
RTVSPost2010PropOp49
 70
     1
102
RTVSPost2010Prop50
 90
       50
102
RTVSPost2010PropOp50
 70
     1
102
RTVSPost2010Prop51ColorIndex
 90
      256
102
RTVSPost2010Prop51ColorRGB
 90
-16777216
102
RTVSPost2010PropOp51
 70
     0
102
RTVSPost2010Prop52
140
1.0
102
RTVSPost2010PropOp52
 70
     0
102
RTVSPost2010Prop53
 90
        2
102
RTVSPost2010PropOp53
 70
     1
102
RTVSPost2010Prop54
  1
strokes_ogs.tif
102
RTVSPost2010PropOp54
 70
     1
102
RTVSPost2010Prop55
280
     0
102
RTVSPost2010PropOp55
 70
     1
102
RTVSPost2010Prop56
140
1.0
102
RTVSPost2010PropOp56
 70
     1
102
RTVSPost2010Prop57
140
1.0
102
RTVSPost2010PropOp57
 70
     1
102
RTVSPropertyOp0
 70
     1
102
RTVSPropertyOp1
 70
     1
102
RTVSPropertyOp2
 70
     1
102
RTVSPropertyOp3
 70
     1
102
RTVSPropertyOp4
 70
     1
102
RTVSPropertyOp5
 70
     1
102
RTVSPropertyOp6
 70
     1
102
RTVSPropertyOp7
 70
     1
102
RTVSPropertyOp8
 70
     1
102
RTVSPropertyOp9
 70
     1
102
RTVSPropertyOp10
 70
     1
102
RTVSPropertyOp11
 70
     1
102
RTVSPropertyOp12
 70
     1
102
RTVSPropertyOp13
 70
     1
102
RTVSPropertyOp14
 70
     1
102
RTVSPropertyOp15
 70
     1
102
RTVSPropertyOp16
 70
     1
102
RTVSPropertyOp17
 70
     1
102
RTVSPropertyOp18
 70
     1
102
RTVSPropertyOp19
 70
     1
102
RTVSPropertyOp20
 70
     1
102
RTVSPropertyOp21
 70
     1
102
RTVSPropertyOp22
 70
     1
102
RTVSPropertyOp23
 70
     1
102
RTVSPropertyOp24
 70
     1
102
RTVSPropertyOp25
 70
     1
102
RTVSPropertyOp26
 70
     1
102
RTVSPropertyOp27
 70
     1
102
RTVSPropertyOp28
 70
     1
102
RTVSPropertyOp29
 70
     1
102
RTVSPropertyOp30
 70
     1
102
RTVSPropertyOp31
 70
     1
102
RTVSPropertyOp32
 70
     1
102
RTVSPropertyOp33
 70
     1
102
RTVSPropertyOp34
 70
     1
102
RTVSPropertyOp35
 70
     1
102
RTVSPropertyOp36
 70
     1
102
RTVSPropertyOp37
 70
     1
102
RTVSPropertyOp38
 70
     1
102
RTVSPropertyOp39
 70
     1
102
RTVSPropertyOp40
 70
     1
102
RTVSPropertyOp41
 70
     1
102
RTVSPropertyOp42
 70
     1
102
RTVSPropertyOp43
 70
     1
102
RTVSPropertyOp44
 70
     1
102
RTVSPropertyOp45
 70
     1
102
RTVSPropertyOp46
 70
     1
102
RTVSPropertyOp47
 70
     1
102
RTVSPropertyOp48
 70
     1
102
RTVSPropertyOp49
 70
     1
102
RTVSPropertyOp50
 70
     1
102
RTVSPropertyOp51
 70
     0
102
RTVSPropertyOp52
 70
     0
102
RTVSPropertyOp53
 70
     1
102
RTVSPropertyOp54
 70
     1
102
RTVSPropertyOp55
 70
     1
102
RTVSPropertyOp56
 70
     1
102
RTVSPropertyOp57
 70
     1
102
RTVSPropertyOp58
 70
     1
102
RTVSPropertyOp59
 70
     1
102
RTVSPropertyOp60
 70
     1
102
RTVSPropertyOp61
 70
     1
102
RTVSPropertyOp62
 70
     1
  0
XRECORD
  5
C9B
102
{ACAD_REACTORS
330
C9A
102
}
330
C9A
100
AcDbXrecord
280
     1
102
RTVSPost2010Prop28
280
     0
102
RTVSPost2010PropOp28
 70
     1
102
RTVSPost2010Prop29
280
     1
102
RTVSPost2010PropOp29
 70
     1
102
RTVSPost2010Prop30
280
     1
102
RTVSPost2010PropOp30
 70
     1
102
RTVSPost2010Prop31
280
     0
102
RTVSPost2010PropOp31
 70
     1
102
RTVSPost2010Prop32
280
     0
102
RTVSPost2010PropOp32
 70
     1
102
RTVSPost2010Prop33
280
     0
102
RTVSPost2010PropOp33
 70
     1
102
RTVSPost2010Prop34
280
     0
102
RTVSPost2010PropOp34
 70
     1
102
RTVSPost2010Prop35
280
     0
102
RTVSPost2010PropOp35
 70
     1
102
RTVSPost2010Prop36
280
     0
102
RTVSPost2010PropOp36
 70
     1
102
RTVSPost2010Prop37
 90
       50
102
RTVSPost2010PropOp37
 70
     1
102
RTVSPost2010Prop38
140
0.0
102
RTVSPost2010PropOp38
 70
     1
102
RTVSPost2010Prop39
140
1.0
102
RTVSPost2010PropOp39
 70
     1
102
RTVSPost2010Prop40
 90
        0
102
RTVSPost2010PropOp40
 70
     1
102
RTVSPost2010Prop41ColorIndex
 90
       18
102
RTVSPost2010Prop41ColorRGB
 90
        0
102
RTVSPost2010PropOp41
 70
     1
102
RTVSPost2010Prop42
 90
       50
102
RTVSPost2010PropOp42
 70
     1
102
RTVSPost2010Prop43
 90
        3
102
RTVSPost2010PropOp43
 70
     1
102
RTVSPost2010Prop44ColorIndex
 90
        5
102
RTVSPost2010Prop44ColorRGB
 90
      255
102
RTVSPost2010PropOp44
 70
     1
102
RTVSPost2010Prop45
280
     0
102
RTVSPost2010PropOp45
 70
     1
102
RTVSPost2010Prop46
 90
       50
102
RTVSPost2010PropOp46
 70
     1
102
RTVSPost2010Prop47
 90
       50
102
RTVSPost2010PropOp47
 70
     1
102
RTVSPost2010Prop48
 90
       50
102
RTVSPost2010PropOp48
 70
     1
102
RTVSPost2010Prop49
280
     0
102
RTVSPost2010PropOp49
 70
     1
102
RTVSPost2010Prop50
 90
       50
102
RTVSPost2010PropOp50
 70
     1
102
RTVSPost2010Prop51ColorIndex
 90
      256
102
RTVSPost2010Prop51ColorRGB
 90
-16777216
102
RTVSPost2010PropOp51
 70
     0
102
RTVSPost2010Prop52
140
1.0
102
RTVSPost2010PropOp52
 70
     0
102
RTVSPost2010Prop53
 90
        2
102
RTVSPost2010PropOp53
 70
     1
102
RTVSPost2010Prop54
  1
strokes_ogs.tif
102
RTVSPost2010PropOp54
 70
     1
102
RTVSPost2010Prop55
280
     0
102
RTVSPost2010PropOp55
 70
     1
102
RTVSPost2010Prop56
140
1.0
102
RTVSPost2010PropOp56
 70
     1
102
RTVSPost2010Prop57
140
1.0
102
RTVSPost2010PropOp57
 70
     1
102
RTVSPropertyOp0
 70
     1
102
RTVSPropertyOp1
 70
     1
102
RTVSPropertyOp2
 70
     1
102
RTVSPropertyOp3
 70
     1
102
RTVSPropertyOp4
 70
     1
102
RTVSPropertyOp5
 70
     1
102
RTVSPropertyOp6
 70
     1
102
RTVSPropertyOp7
 70
     1
102
RTVSPropertyOp8
 70
     1
102
RTVSPropertyOp9
 70
     1
102
RTVSPropertyOp10
 70
     1
102
RTVSPropertyOp11
 70
     1
102
RTVSPropertyOp12
 70
     1
102
RTVSPropertyOp13
 70
     1
102
RTVSPropertyOp14
 70
     1
102
RTVSPropertyOp15
 70
     1
102
RTVSPropertyOp16
 70
     1
102
RTVSPropertyOp17
 70
     1
102
RTVSPropertyOp18
 70
     1
102
RTVSPropertyOp19
 70
     1
102
RTVSPropertyOp20
 70
     1
102
RTVSPropertyOp21
 70
     1
102
RTVSPropertyOp22
 70
     1
102
RTVSPropertyOp23
 70
     1
102
RTVSPropertyOp24
 70
     1
102
RTVSPropertyOp25
 70
     1
102
RTVSPropertyOp26
 70
     1
102
RTVSPropertyOp27
 70
     1
102
RTVSPropertyOp28
 70
     1
102
RTVSPropertyOp29
 70
     1
102
RTVSPropertyOp30
 70
     1
102
RTVSPropertyOp31
 70
     1
102
RTVSPropertyOp32
 70
     1
102
RTVSPropertyOp33
 70
     1
102
RTVSPropertyOp34
 70
     1
102
RTVSPropertyOp35
 70
     1
102
RTVSPropertyOp36
 70
     1
102
RTVSPropertyOp37
 70
     1
102
RTVSPropertyOp38
 70
     1
102
RTVSPropertyOp39
 70
     1
102
RTVSPropertyOp40
 70
     1
102
RTVSPropertyOp41
 70
     1
102
RTVSPropertyOp42
 70
     1
102
RTVSPropertyOp43
 70
     1
102
RTVSPropertyOp44
 70
     1
102
RTVSPropertyOp45
 70
     1
102
RTVSPropertyOp46
 70
     1
102
RTVSPropertyOp47
 70
     1
102
RTVSPropertyOp48
 70
     1
102
RTVSPropertyOp49
 70
     1
102
RTVSPropertyOp50
 70
     1
102
RTVSPropertyOp51
 70
     0
102
RTVSPropertyOp52
 70
     0
102
RTVSPropertyOp53
 70
     1
102
RTVSPropertyOp54
 70
     1
102
RTVSPropertyOp55
 70
     1
102
RTVSPropertyOp56
 70
     1
102
RTVSPropertyOp57
 70
     1
102
RTVSPropertyOp58
 70
     1
102
RTVSPropertyOp59
 70
     1
102
RTVSPropertyOp60
 70
     1
102
RTVSPropertyOp61
 70
     1
102
RTVSPropertyOp62
 70
     1
  0
ENDSEC
  0
EOF
