0
SECTION
2
HEADER
9
$ACADVER
1
AC1015
9
$DWGCODEPAGE
3
ANSI_1252
9
$HANDSEED
5
235
9
$ANGBASE
50
0
9
$ANGDIR
70
0
9
$ATTMODE
70
1
9
$AUNITS
70
0
9
$AUPREC
70
0
9
$CECOLOR
62
256
9
$CELTSCALE
40
1
9
$CELTYPE
6
ByLayer
9
$CELWEIGHT
370
18
9
$CLAYER
8
0
9
$CMLJUST
70
0
9
$CMLSCALE
40
1
9
$CMLSTYLE
2
Standard
9
$DIMSTYLE
2
Standard
9
$TEXTSIZE
40
0.2
9
$TEXTSTYLE
7
Standard
9
$LUNITS
70
2
9
$LUPREC
70
4
9
$EXTNAMES
290
1
9
$INSUNITS
70
4
9
$LTSCALE
40
1
9
$LWDISPLAY
290
1
9
$PDMODE
70
0
9
$PDSIZE
40
0
9
$PLINEGEN
70
0
0
ENDSEC
0
SECTION
2
CLASSES
0
CLASS
1
RASTERVARIABLES
2
AcDbRasterVariables
3
ISM
90
0
280
0
281
0
0
ENDSEC
0
SECTION
2
TABLES
0
TABLE
2
VPORT
5
22b
100
AcDbSymbolTable
0
VPORT
5
1
100
AcDbSymbolTableRecord
100
AcDbViewportTableRecord
2
*Active
70
0
10
0
20
0
11
1
21
1
12
-1
22
1
13
0
23
0
14
0.5
24
0.5
15
10
25
10
16
0
26
0
36
1
17
0
27
0
37
0
0
ENDTAB
0
TABLE
2
LTYPE
5
22c
100
AcDbSymbolTable
0
LTYPE
5
14
100
AcDbSymbolTableRecord
100
AcDbLinetypeTableRecord
70
0
2
ByBlock
3

72
65
73
0
40
0
0
LTYPE
5
15
100
AcDbSymbolTableRecord
100
AcDbLinetypeTableRecord
70
0
2
ByLayer
3

72
65
73
0
40
0
0
LTYPE
5
16
100
AcDbSymbolTableRecord
100
AcDbLinetypeTableRecord
70
0
2
Continuous
3
Solid line
72
65
73
0
40
0
0
LTYPE
5
6E
100
AcDbSymbolTableRecord
100
AcDbLinetypeTableRecord
70
0
2
CENTER
3
____ _ ____ _ ____ _ ____
72
65
73
4
40
47.5
49
22
74
0
49
-8.5
74
0
49
8.5
74
0
49
-8.5
74
0
0
LTYPE
5
6F
100
AcDbSymbolTableRecord
100
AcDbLinetypeTableRecord
70
0
2
DASHED
3
__ __ __ __ __ __ __ __ __
72
65
73
2
40
25.72
49
12.86
74
0
49
-12.86
74
0
0
ENDTAB
0
TABLE
2
LAYER
5
22d
100
AcDbSymbolTable
0
LAYER
5
10
100
AcDbSymbolTableRecord
100
AcDbLayerTableRecord
2
0
70
0
62
7
6
Continuous
290
1
370
-3
390
0
0
LAYER
5
71
100
AcDbSymbolTableRecord
100
AcDbLayerTableRecord
2
2
70
0
62
7
6
Continuous
290
1
370
-3
390
0
0
LAYER
5
7D
100
AcDbSymbolTableRecord
100
AcDbLayerTableRecord
2
81
70
0
62
-3
6
Continuous
290
1
370
-3
390
0
0
LAYER
5
7F
100
AcDbSymbolTableRecord
100
AcDbLayerTableRecord
2
80
70
0
62
-6
6
Continuous
290
1
370
-3
390
0
0
LAYER
5
81
100
AcDbSymbolTableRecord
100
AcDbLayerTableRecord
2
1
70
0
62
4
6
Continuous
290
1
370
-3
390
0
0
LAYER
5
12D
100
AcDbSymbolTableRecord
100
AcDbLayerTableRecord
2
Defpoints
70
0
62
7
6
Continuous
290
0
370
-3
390
0
0
LAYER
5
218
100
AcDbSymbolTableRecord
100
AcDbLayerTableRecord
2
SK2
70
0
62
7
6
Continuous
290
1
370
-3
390
0
0
LAYER
5
219
100
AcDbSymbolTableRecord
100
AcDbLayerTableRecord
2
SK1
70
0
62
4
6
Continuous
290
1
370
-3
390
0
0
LAYER
5
21a
100
AcDbSymbolTableRecord
100
AcDbLayerTableRecord
2
SK6
70
0
62
5
6
Continuous
290
1
370
-3
390
0
0
ENDTAB
0
TABLE
2
STYLE
5
22e
100
AcDbSymbolTable
0
STYLE
5
11
100
AcDbSymbolTableRecord
100
AcDbTextStyleTableRecord
2
Standard
3
txt
70
0
71
0
40
0
41
1
42
0
50
0
0
STYLE
5
11E
100
AcDbSymbolTableRecord
100
AcDbTextStyleTableRecord
2
iso_b_vert
3
simplex.shx
70
0
71
0
40
0
41
1
42
0
50
0
0
STYLE
5
11F
100
AcDbSymbolTableRecord
100
AcDbTextStyleTableRecord
2
DWGDirectTextStyle
3
simplex
70
0
71
0
40
0
41
1
42
0
50
0
0
ENDTAB
0
TABLE
2
DIMSTYLE
5
22f
100
AcDbSymbolTable
100
AcDbDimStyleTable
0
DIMSTYLE
105
27
100
AcDbSymbolTableRecord
100
AcDbDimStyleTableRecord
2
Standard
70
0
3
<>
41
0.18
42
0.0625
44
0.18
140
0.18
147
0.09
73
0
74
0
77
1
271
2
275
0
278
52
280
0
340
11
0
ENDTAB
0
TABLE
2
VIEW
5
230
100
AcDbSymbolTable
0
ENDTAB
0
TABLE
2
UCS
5
231
100
AcDbSymbolTable
0
ENDTAB
0
TABLE
2
APPID
5
232
100
AcDbSymbolTable
0
APPID
5
12
100
AcDbSymbolTableRecord
100
AcDbRegAppTableRecord
2
ACAD
70
0
0
APPID
5
122
100
AcDbSymbolTableRecord
100
AcDbRegAppTableRecord
2
ACAD_DSTYLE_DIMBREAK
70
0
0
APPID
5
1D7
100
AcDbSymbolTableRecord
100
AcDbRegAppTableRecord
2
ACAD_DSTYLE_DIM_LINETYPE
70
0
0
APPID
5
1D8
100
AcDbSymbolTableRecord
100
AcDbRegAppTableRecord
2
ACAD_DSTYLE_DIM_EXT1_LINETYPE
70
0
0
APPID
5
1D9
100
AcDbSymbolTableRecord
100
AcDbRegAppTableRecord
2
ACAD_DSTYLE_DIM_EXT2_LINETYPE
70
0
0
APPID
5
214
100
AcDbSymbolTableRecord
100
AcDbRegAppTableRecord
2
ACAD_MLEADERVER
70
0
0
ENDTAB
0
TABLE
2
BLOCK_RECORD
5
233
100
AcDbSymbolTable
0
BLOCK_RECORD
5
1F
100
AcDbSymbolTableRecord
100
AcDbBlockTableRecord
2
*Model_Space
340
0
70
0
0
BLOCK_RECORD
5
1B
100
AcDbSymbolTableRecord
100
AcDbBlockTableRecord
2
*Paper_Space
340
0
70
0
0
BLOCK_RECORD
5
23
100
AcDbSymbolTableRecord
100
AcDbBlockTableRecord
2
*Paper_Space0
340
0
70
0
0
BLOCK_RECORD
5
124
100
AcDbSymbolTableRecord
100
AcDbBlockTableRecord
2
_Closed
340
0
70
0
0
BLOCK_RECORD
5
12E
100
AcDbSymbolTableRecord
100
AcDbBlockTableRecord
2
*D2
340
0
70
0
0
BLOCK_RECORD
5
13A
100
AcDbSymbolTableRecord
100
AcDbBlockTableRecord
2
_U0
340
0
70
0
0
BLOCK_RECORD
5
14A
100
AcDbSymbolTableRecord
100
AcDbBlockTableRecord
2
*D4
340
0
70
0
0
BLOCK_RECORD
5
156
100
AcDbSymbolTableRecord
100
AcDbBlockTableRecord
2
_U1
340
0
70
0
0
BLOCK_RECORD
5
166
100
AcDbSymbolTableRecord
100
AcDbBlockTableRecord
2
*D6
340
0
70
0
0
BLOCK_RECORD
5
172
100
AcDbSymbolTableRecord
100
AcDbBlockTableRecord
2
_U2
340
0
70
0
0
BLOCK_RECORD
5
182
100
AcDbSymbolTableRecord
100
AcDbBlockTableRecord
2
*D8
340
0
70
0
0
BLOCK_RECORD
5
18E
100
AcDbSymbolTableRecord
100
AcDbBlockTableRecord
2
_U3
340
0
70
0
0
BLOCK_RECORD
5
19E
100
AcDbSymbolTableRecord
100
AcDbBlockTableRecord
2
*D10
340
0
70
0
0
BLOCK_RECORD
5
1AC
100
AcDbSymbolTableRecord
100
AcDbBlockTableRecord
2
_U4
340
0
70
0
0
ENDTAB
0
ENDSEC
0
SECTION
2
BLOCKS
0
BLOCK
5
20
100
AcDbEntity
8
0
100
AcDbBlockBegin
2
*Model_Space
70
0
10
0
20
0
30
0
3
*Model_Space
0
ENDBLK
5
21
100
AcDbEntity
8
0
100
AcDbBlockEnd
0
BLOCK
5
1C
100
AcDbEntity
8
0
100
AcDbBlockBegin
2
*Paper_Space
70
0
10
0
20
0
30
0
3
*Paper_Space
0
ENDBLK
5
1D
100
AcDbEntity
8
0
100
AcDbBlockEnd
0
BLOCK
5
24
100
AcDbEntity
8
0
100
AcDbBlockBegin
2
*Paper_Space0
70
0
10
0
20
0
30
0
3
*Paper_Space0
0
ENDBLK
5
25
100
AcDbEntity
8
0
100
AcDbBlockEnd
0
BLOCK
5
125
100
AcDbEntity
8
0
100
AcDbBlockBegin
2
_Closed
70
0
10
0
20
0
30
0
3
_Closed
0
LINE
5
127
100
AcDbEntity
8
0
62
256
6
ByLayer
370
-2
48
1
60
0
100
AcDbLine
10
-1
20
0.166667
30
0
11
0
21
0
31
0
39
0
210
0
220
0
230
1
0
LINE
5
128
100
AcDbEntity
8
0
62
256
6
ByLayer
370
-2
48
1
60
0
100
AcDbLine
10
0
20
0
30
0
11
-1
21
-0.166667
31
0
39
0
210
0
220
0
230
1
0
LINE
5
129
100
AcDbEntity
8
0
62
256
6
ByLayer
370
-2
48
1
60
0
100
AcDbLine
10
-1
20
0.166667
30
0
11
-1
21
-0.166667
31
0
39
0
210
0
220
0
230
1
0
LINE
5
12A
100
AcDbEntity
8
0
62
256
6
ByLayer
370
-2
48
1
60
0
100
AcDbLine
10
0
20
0
30
0
11
-1
21
0
31
0
39
0
210
0
220
0
230
1
0
ENDBLK
5
126
100
AcDbEntity
8
0
100
AcDbBlockEnd
0
BLOCK
5
12F
100
AcDbEntity
8
0
100
AcDbBlockBegin
2
*D2
70
1
10
0
20
0
30
0
3
*D2
0
LINE
5
131
100
AcDbEntity
8
0
62
256
6
ByLayer
370
-2
48
1
60
0
100
AcDbLine
10
24
20
-12.5
30
0
11
36.522884
21
-12.5
31
0
39
0
210
0
220
0
230
1
0
LINE
5
132
100
AcDbEntity
8
0
62
256
6
ByLayer
370
-2
48
1
60
0
100
AcDbLine
10
31
20
19.5
30
0
11
36.522884
21
19.5
31
0
39
0
210
0
220
0
230
1
0
LINE
5
133
100
AcDbEntity
8
0
62
256
6
ByLayer
370
-2
48
1
60
0
100
AcDbLine
10
34.522884
20
-9.325
30
0
11
34.522884
21
16.325
31
0
39
0
210
0
220
0
230
1
0
SOLID
5
134
100
AcDbEntity
8
0
62
256
6
ByLayer
370
-1
48
1
60
0
100
AcDbTrace
10
33.993718
20
-9.325
30
0
11
35.052051
21
-9.325
31
0
12
34.522884
22
-12.5
32
0
13
34.522884
23
-12.5
33
0
39
0
210
0
220
0
230
1
0
SOLID
5
135
100
AcDbEntity
8
0
62
256
6
ByLayer
370
-1
48
1
60
0
100
AcDbTrace
10
35.052051
20
16.325
30
0
11
33.993718
21
16.325
31
0
12
34.522884
22
19.5
32
0
13
34.522884
23
19.5
33
0
39
0
210
0
220
0
230
1
0
MTEXT
5
136
100
AcDbEntity
8
0
62
256
6
ByLayer
370
18
48
1
60
0
100
AcDbMText
10
25.772884
20
3.5
30
0
210
0
220
0
230
1
1
\A1;32
40
3.5
41
0
44
1
50
90
71
5
72
5
7
iso_b_vert
0
POINT
5
137
100
AcDbEntity
8
Defpoints
62
0
6
ByLayer
370
-1
48
1
60
0
100
AcDbPoint
10
22
20
-12.5
30
0
39
0
210
0
220
0
230
1
50
360
0
POINT
5
138
100
AcDbEntity
8
Defpoints
62
0
6
ByLayer
370
-1
48
1
60
0
100
AcDbPoint
10
29
20
19.5
30
0
39
0
210
0
220
0
230
1
50
360
0
POINT
5
139
100
AcDbEntity
8
Defpoints
62
0
6
ByLayer
370
-1
48
1
60
0
100
AcDbPoint
10
34.522884
20
19.5
30
0
39
0
210
0
220
0
230
1
50
360
0
ENDBLK
5
130
100
AcDbEntity
8
0
100
AcDbBlockEnd
0
BLOCK
5
145
100
AcDbEntity
8
0
100
AcDbBlockBegin
2
_U0
70
0
10
0
20
0
30
0
3
_U0
0
MTEXT
5
13B
100
AcDbEntity
8
2
62
256
6
ByLayer
370
18
48
1
60
0
100
AcDbMText
10
33.833251
20
-0.449699
30
0
210
0
220
0
230
1
1
\W0.7346;32.0
40
3.5
41
0
44
1.084337
50
90
71
7
72
5
7
iso_b_vert
0
LINE
5
13C
100
AcDbEntity
8
2
62
256
6
ByLayer
370
13
48
1
60
0
100
AcDbLine
10
24
20
-12.5
30
0
11
36.522884
21
-12.5
31
0
39
0
210
0
220
0
230
1
0
LINE
5
13D
100
AcDbEntity
8
2
62
256
6
ByLayer
370
13
48
1
60
0
100
AcDbLine
10
31
20
19.5
30
0
11
36.522884
21
19.5
31
0
39
0
210
0
220
0
230
1
0
LINE
5
13E
100
AcDbEntity
8
2
62
256
6
ByLayer
370
13
48
1
60
0
100
AcDbLine
10
34.522884
20
-12.5
30
0
11
34.522884
21
19.5
31
0
39
0
210
0
220
0
230
1
0
LINE
5
13F
100
AcDbEntity
8
2
62
256
6
ByLayer
370
13
48
1
60
0
100
AcDbLine
10
34.522884
20
-12.5
30
0
11
34.104888
21
-9.325002
31
0
39
0
210
0
220
0
230
1
0
LINE
5
140
100
AcDbEntity
8
2
62
256
6
ByLayer
370
13
48
1
60
0
100
AcDbLine
10
34.522884
20
-12.5
30
0
11
34.940881
21
-9.324998
31
0
39
0
210
0
220
0
230
1
0
LINE
5
141
100
AcDbEntity
8
2
62
256
6
ByLayer
370
13
48
1
60
0
100
AcDbLine
10
34.104888
20
-9.325002
30
0
11
34.940881
21
-9.324998
31
0
39
0
210
0
220
0
230
1
0
LINE
5
142
100
AcDbEntity
8
2
62
256
6
ByLayer
370
13
48
1
60
0
100
AcDbLine
10
34.522884
20
19.5
30
0
11
34.940881
21
16.325002
31
0
39
0
210
0
220
0
230
1
0
LINE
5
143
100
AcDbEntity
8
2
62
256
6
ByLayer
370
13
48
1
60
0
100
AcDbLine
10
34.522884
20
19.5
30
0
11
34.104888
21
16.324998
31
0
39
0
210
0
220
0
230
1
0
LINE
5
144
100
AcDbEntity
8
2
62
256
6
ByLayer
370
13
48
1
60
0
100
AcDbLine
10
34.940881
20
16.325002
30
0
11
34.104888
21
16.324998
31
0
39
0
210
0
220
0
230
1
0
ENDBLK
5
146
100
AcDbEntity
8
0
100
AcDbBlockEnd
0
BLOCK
5
14B
100
AcDbEntity
8
0
100
AcDbBlockBegin
2
*D4
70
1
10
0
20
0
30
0
3
*D4
0
LINE
5
14D
100
AcDbEntity
8
0
62
256
6
ByLayer
370
-2
48
1
60
0
100
AcDbLine
10
-2
20
12.5
30
0
11
-21.966021
21
12.5
31
0
39
0
210
0
220
0
230
1
0
LINE
5
14E
100
AcDbEntity
8
0
62
256
6
ByLayer
370
-2
48
1
60
0
100
AcDbLine
10
-82
20
-12.5
30
0
11
-17.966021
21
-12.5
31
0
39
0
210
0
220
0
230
1
0
LINE
5
14F
100
AcDbEntity
8
0
62
256
6
ByLayer
370
-2
48
1
60
0
100
AcDbLine
10
-19.966021
20
9.325
30
0
11
-19.966021
21
-9.325
31
0
39
0
210
0
220
0
230
1
0
SOLID
5
150
100
AcDbEntity
8
0
62
256
6
ByLayer
370
-1
48
1
60
0
100
AcDbTrace
10
-19.436854
20
9.325
30
0
11
-20.495187
21
9.325
31
0
12
-19.966021
22
12.5
32
0
13
-19.966021
23
12.5
33
0
39
0
210
0
220
0
230
1
0
SOLID
5
151
100
AcDbEntity
8
0
62
256
6
ByLayer
370
-1
48
1
60
0
100
AcDbTrace
10
-20.495187
20
-9.325
30
0
11
-19.436854
21
-9.325
31
0
12
-19.966021
22
-12.5
32
0
13
-19.966021
23
-12.5
33
0
39
0
210
0
220
0
230
1
0
MTEXT
5
152
100
AcDbEntity
8
0
62
256
6
ByLayer
370
18
48
1
60
0
100
AcDbMText
10
-28.716021
20
0
30
0
210
0
220
0
230
1
1
\A1;25
40
3.5
41
0
44
1
50
90
71
5
72
5
7
iso_b_vert
0
POINT
5
153
100
AcDbEntity
8
Defpoints
62
0
6
ByLayer
370
-1
48
1
60
0
100
AcDbPoint
10
0
20
12.5
30
0
39
0
210
0
220
0
230
1
50
360
0
POINT
5
154
100
AcDbEntity
8
Defpoints
62
0
6
ByLayer
370
-1
48
1
60
0
100
AcDbPoint
10
-84
20
-12.5
30
0
39
0
210
0
220
0
230
1
50
360
0
POINT
5
155
100
AcDbEntity
8
Defpoints
62
0
6
ByLayer
370
-1
48
1
60
0
100
AcDbPoint
10
-19.966021
20
-12.5
30
0
39
0
210
0
220
0
230
1
50
360
0
ENDBLK
5
14C
100
AcDbEntity
8
0
100
AcDbBlockEnd
0
BLOCK
5
161
100
AcDbEntity
8
0
100
AcDbBlockBegin
2
_U1
70
0
10
0
20
0
30
0
3
_U1
0
MTEXT
5
157
100
AcDbEntity
8
SK2
62
256
6
ByLayer
370
18
48
1
60
0
100
AcDbMText
10
-20.655654
20
-3.949699
30
0
210
0
220
0
230
1
1
\W0.7346;25.0
40
3.5
41
0
44
1.084337
50
90
71
7
72
5
7
iso_b_vert
0
LINE
5
158
100
AcDbEntity
8
SK2
62
256
6
ByLayer
370
13
48
1
60
0
100
AcDbLine
10
-2
20
12.5
30
0
11
-21.966021
21
12.5
31
0
39
0
210
0
220
0
230
1
0
LINE
5
159
100
AcDbEntity
8
SK2
62
256
6
ByLayer
370
13
48
1
60
0
100
AcDbLine
10
-82
20
-12.5
30
0
11
-17.966021
21
-12.5
31
0
39
0
210
0
220
0
230
1
0
LINE
5
15A
100
AcDbEntity
8
SK2
62
256
6
ByLayer
370
13
48
1
60
0
100
AcDbLine
10
-19.966021
20
12.5
30
0
11
-19.966021
21
-12.5
31
0
39
0
210
0
220
0
230
1
0
LINE
5
15B
100
AcDbEntity
8
SK2
62
256
6
ByLayer
370
13
48
1
60
0
100
AcDbLine
10
-19.966021
20
12.5
30
0
11
-19.548024
21
9.325002
31
0
39
0
210
0
220
0
230
1
0
LINE
5
15C
100
AcDbEntity
8
SK2
62
256
6
ByLayer
370
13
48
1
60
0
100
AcDbLine
10
-19.966021
20
12.5
30
0
11
-20.384017
21
9.324998
31
0
39
0
210
0
220
0
230
1
0
LINE
5
15D
100
AcDbEntity
8
SK2
62
256
6
ByLayer
370
13
48
1
60
0
100
AcDbLine
10
-19.548024
20
9.325002
30
0
11
-20.384017
21
9.324998
31
0
39
0
210
0
220
0
230
1
0
LINE
5
15E
100
AcDbEntity
8
SK2
62
256
6
ByLayer
370
13
48
1
60
0
100
AcDbLine
10
-19.966021
20
-12.5
30
0
11
-20.384017
21
-9.325002
31
0
39
0
210
0
220
0
230
1
0
LINE
5
15F
100
AcDbEntity
8
SK2
62
256
6
ByLayer
370
13
48
1
60
0
100
AcDbLine
10
-19.966021
20
-12.5
30
0
11
-19.548024
21
-9.324998
31
0
39
0
210
0
220
0
230
1
0
LINE
5
160
100
AcDbEntity
8
SK2
62
256
6
ByLayer
370
13
48
1
60
0
100
AcDbLine
10
-20.384017
20
-9.325002
30
0
11
-19.548024
21
-9.324998
31
0
39
0
210
0
220
0
230
1
0
ENDBLK
5
162
100
AcDbEntity
8
0
100
AcDbBlockEnd
0
BLOCK
5
167
100
AcDbEntity
8
0
100
AcDbBlockBegin
2
*D6
70
1
10
0
20
0
30
0
3
*D6
0
LINE
5
169
100
AcDbEntity
8
0
62
256
6
ByLayer
370
-2
48
1
60
0
100
AcDbLine
10
-84
20
-14.5
30
0
11
-84
21
-42.344955
31
0
39
0
210
0
220
0
230
1
0
LINE
5
16A
100
AcDbEntity
8
0
62
256
6
ByLayer
370
-2
48
1
60
0
100
AcDbLine
10
29
20
17.5
30
0
11
29
21
-42.344955
31
0
39
0
210
0
220
0
230
1
0
LINE
5
16B
100
AcDbEntity
8
0
62
256
6
ByLayer
370
-2
48
1
60
0
100
AcDbLine
10
-80.825
20
-40.344955
30
0
11
25.825
21
-40.344955
31
0
39
0
210
0
220
0
230
1
0
SOLID
5
16C
100
AcDbEntity
8
0
62
256
6
ByLayer
370
-1
48
1
60
0
100
AcDbTrace
10
-80.825
20
-39.815788
30
0
11
-80.825
21
-40.874121
31
0
12
-84
22
-40.344955
32
0
13
-84
23
-40.344955
33
0
39
0
210
0
220
0
230
1
0
SOLID
5
16D
100
AcDbEntity
8
0
62
256
6
ByLayer
370
-1
48
1
60
0
100
AcDbTrace
10
25.825
20
-40.874121
30
0
11
25.825
21
-39.815788
31
0
12
29
22
-40.344955
32
0
13
29
23
-40.344955
33
0
39
0
210
0
220
0
230
1
0
MTEXT
5
16E
100
AcDbEntity
8
0
62
256
6
ByLayer
370
18
48
1
60
0
100
AcDbMText
10
-27.5
20
-31.594955
30
0
210
0
220
0
230
1
1
\A1;113
40
3.5
41
0
44
1
50
0
71
5
72
5
7
iso_b_vert
0
POINT
5
16F
100
AcDbEntity
8
Defpoints
62
0
6
ByLayer
370
-1
48
1
60
0
100
AcDbPoint
10
-84
20
-12.5
30
0
39
0
210
0
220
0
230
1
50
360
0
POINT
5
170
100
AcDbEntity
8
Defpoints
62
0
6
ByLayer
370
-1
48
1
60
0
100
AcDbPoint
10
29
20
19.5
30
0
39
0
210
0
220
0
230
1
50
360
0
POINT
5
171
100
AcDbEntity
8
Defpoints
62
0
6
ByLayer
370
-1
48
1
60
0
100
AcDbPoint
10
29
20
-40.344955
30
0
39
0
210
0
220
0
230
1
50
360
0
ENDBLK
5
168
100
AcDbEntity
8
0
100
AcDbBlockEnd
0
BLOCK
5
17D
100
AcDbEntity
8
0
100
AcDbBlockBegin
2
_U2
70
0
10
0
20
0
30
0
3
_U2
0
MTEXT
5
173
100
AcDbEntity
8
SK2
62
256
6
ByLayer
370
18
48
1
60
0
100
AcDbMText
10
-31.854566
20
-39.312321
30
0
210
0
220
0
230
1
1
\W0.6261;113.0
40
3.5
41
0
44
1.084337
50
0
71
7
72
5
7
iso_b_vert
0
LINE
5
174
100
AcDbEntity
8
SK2
62
256
6
ByLayer
370
13
48
1
60
0
100
AcDbLine
10
-84
20
-14.5
30
0
11
-84
21
-42.344955
31
0
39
0
210
0
220
0
230
1
0
LINE
5
175
100
AcDbEntity
8
SK2
62
256
6
ByLayer
370
13
48
1
60
0
100
AcDbLine
10
29
20
17.5
30
0
11
29
21
-42.344955
31
0
39
0
210
0
220
0
230
1
0
LINE
5
176
100
AcDbEntity
8
SK2
62
256
6
ByLayer
370
13
48
1
60
0
100
AcDbLine
10
-84
20
-40.344955
30
0
11
29
21
-40.344955
31
0
39
0
210
0
220
0
230
1
0
LINE
5
177
100
AcDbEntity
8
SK2
62
256
6
ByLayer
370
13
48
1
60
0
100
AcDbLine
10
-84
20
-40.344955
30
0
11
-80.825002
21
-39.926958
31
0
39
0
210
0
220
0
230
1
0
LINE
5
178
100
AcDbEntity
8
SK2
62
256
6
ByLayer
370
13
48
1
60
0
100
AcDbLine
10
-84
20
-40.344955
30
0
11
-80.824998
21
-40.762951
31
0
39
0
210
0
220
0
230
1
0
LINE
5
179
100
AcDbEntity
8
SK2
62
256
6
ByLayer
370
13
48
1
60
0
100
AcDbLine
10
-80.825002
20
-39.926958
30
0
11
-80.824998
21
-40.762951
31
0
39
0
210
0
220
0
230
1
0
LINE
5
17A
100
AcDbEntity
8
SK2
62
256
6
ByLayer
370
13
48
1
60
0
100
AcDbLine
10
29
20
-40.344955
30
0
11
25.825002
21
-40.762951
31
0
39
0
210
0
220
0
230
1
0
LINE
5
17B
100
AcDbEntity
8
SK2
62
256
6
ByLayer
370
13
48
1
60
0
100
AcDbLine
10
29
20
-40.344955
30
0
11
25.824998
21
-39.926958
31
0
39
0
210
0
220
0
230
1
0
LINE
5
17C
100
AcDbEntity
8
SK2
62
256
6
ByLayer
370
13
48
1
60
0
100
AcDbLine
10
25.825002
20
-40.762951
30
0
11
25.824998
21
-39.926958
31
0
39
0
210
0
220
0
230
1
0
ENDBLK
5
17E
100
AcDbEntity
8
0
100
AcDbBlockEnd
0
BLOCK
5
183
100
AcDbEntity
8
0
100
AcDbBlockBegin
2
*D8
70
1
10
0
20
0
30
0
3
*D8
0
LINE
5
185
100
AcDbEntity
8
0
62
256
6
ByLayer
370
-2
48
1
60
0
100
AcDbLine
10
0
20
10.5
30
0
11
0
21
-27.6
31
0
39
0
210
0
220
0
230
1
0
LINE
5
186
100
AcDbEntity
8
0
62
256
6
ByLayer
370
-2
48
1
60
0
100
AcDbLine
10
29
20
17.5
30
0
11
29
21
-27.6
31
0
39
0
210
0
220
0
230
1
0
LINE
5
187
100
AcDbEntity
8
0
62
256
6
ByLayer
370
-2
48
1
60
0
100
AcDbLine
10
3.175
20
-25.6
30
0
11
25.825
21
-25.6
31
0
39
0
210
0
220
0
230
1
0
SOLID
5
188
100
AcDbEntity
8
0
62
256
6
ByLayer
370
-1
48
1
60
0
100
AcDbTrace
10
3.175
20
-25.070833
30
0
11
3.175
21
-26.129167
31
0
12
0
22
-25.6
32
0
13
0
23
-25.6
33
0
39
0
210
0
220
0
230
1
0
SOLID
5
189
100
AcDbEntity
8
0
62
256
6
ByLayer
370
-1
48
1
60
0
100
AcDbTrace
10
25.825
20
-26.129167
30
0
11
25.825
21
-25.070833
31
0
12
29
22
-25.6
32
0
13
29
23
-25.6
33
0
39
0
210
0
220
0
230
1
0
MTEXT
5
18A
100
AcDbEntity
8
0
62
256
6
ByLayer
370
18
48
1
60
0
100
AcDbMText
10
14.5
20
-16.85
30
0
210
0
220
0
230
1
1
\A1;29
40
3.5
41
0
44
1
50
0
71
5
72
5
7
iso_b_vert
0
POINT
5
18B
100
AcDbEntity
8
Defpoints
62
0
6
ByLayer
370
-1
48
1
60
0
100
AcDbPoint
10
0
20
12.5
30
0
39
0
210
0
220
0
230
1
50
360
0
POINT
5
18C
100
AcDbEntity
8
Defpoints
62
0
6
ByLayer
370
-1
48
1
60
0
100
AcDbPoint
10
29
20
19.5
30
0
39
0
210
0
220
0
230
1
50
360
0
POINT
5
18D
100
AcDbEntity
8
Defpoints
62
0
6
ByLayer
370
-1
48
1
60
0
100
AcDbPoint
10
29
20
-25.6
30
0
39
0
210
0
220
0
230
1
50
360
0
ENDBLK
5
184
100
AcDbEntity
8
0
100
AcDbBlockEnd
0
BLOCK
5
199
100
AcDbEntity
8
0
100
AcDbBlockBegin
2
_U3
70
0
10
0
20
0
30
0
3
_U3
0
MTEXT
5
18F
100
AcDbEntity
8
2
62
256
6
ByLayer
370
18
48
1
60
0
100
AcDbMText
10
10.578301
20
-24.567366
30
0
210
0
220
0
230
1
1
\W0.7346;29.0
40
3.5
41
0
44
1.084337
50
0
71
7
72
5
7
iso_b_vert
0
LINE
5
190
100
AcDbEntity
8
2
62
256
6
ByLayer
370
13
48
1
60
0
100
AcDbLine
10
0
20
10.5
30
0
11
0
21
-27.6
31
0
39
0
210
0
220
0
230
1
0
LINE
5
191
100
AcDbEntity
8
2
62
256
6
ByLayer
370
13
48
1
60
0
100
AcDbLine
10
29
20
17.5
30
0
11
29
21
-27.6
31
0
39
0
210
0
220
0
230
1
0
LINE
5
192
100
AcDbEntity
8
2
62
256
6
ByLayer
370
13
48
1
60
0
100
AcDbLine
10
0
20
-25.6
30
0
11
29
21
-25.6
31
0
39
0
210
0
220
0
230
1
0
LINE
5
193
100
AcDbEntity
8
2
62
256
6
ByLayer
370
13
48
1
60
0
100
AcDbLine
10
0
20
-25.6
30
0
11
3.174998
21
-25.182003
31
0
39
0
210
0
220
0
230
1
0
LINE
5
194
100
AcDbEntity
8
2
62
256
6
ByLayer
370
13
48
1
60
0
100
AcDbLine
10
0
20
-25.6
30
0
11
3.175002
21
-26.017997
31
0
39
0
210
0
220
0
230
1
0
LINE
5
195
100
AcDbEntity
8
2
62
256
6
ByLayer
370
13
48
1
60
0
100
AcDbLine
10
3.174998
20
-25.182003
30
0
11
3.175002
21
-26.017997
31
0
39
0
210
0
220
0
230
1
0
LINE
5
196
100
AcDbEntity
8
2
62
256
6
ByLayer
370
13
48
1
60
0
100
AcDbLine
10
29
20
-25.6
30
0
11
25.825002
21
-26.017997
31
0
39
0
210
0
220
0
230
1
0
LINE
5
197
100
AcDbEntity
8
2
62
256
6
ByLayer
370
13
48
1
60
0
100
AcDbLine
10
29
20
-25.6
30
0
11
25.824998
21
-25.182003
31
0
39
0
210
0
220
0
230
1
0
LINE
5
198
100
AcDbEntity
8
2
62
256
6
ByLayer
370
13
48
1
60
0
100
AcDbLine
10
25.825002
20
-26.017997
30
0
11
25.824998
21
-25.182003
31
0
39
0
210
0
220
0
230
1
0
ENDBLK
5
19A
100
AcDbEntity
8
0
100
AcDbBlockEnd
0
BLOCK
5
19F
100
AcDbEntity
8
0
100
AcDbBlockBegin
2
*D10
70
1
10
0
20
0
30
0
3
*D10
0
LINE
5
1A1
100
AcDbEntity
8
0
62
256
6
ByLayer
370
-2
48
1
60
0
100
AcDbLine
10
-84
20
-14.5
30
0
11
-84
21
-27.6
31
0
39
0
210
0
220
0
230
1
0
LINE
5
1A2
100
AcDbEntity
8
0
62
256
6
ByLayer
370
-2
48
1
60
0
100
AcDbLine
10
-81
20
-14.5
30
0
11
-81
21
-27.6
31
0
39
0
210
0
220
0
230
1
0
LINE
5
1A3
100
AcDbEntity
8
0
62
256
6
ByLayer
370
-2
48
1
60
0
100
AcDbLine
10
-81
20
-25.6
30
0
11
-58.316667
21
-25.6
31
0
39
0
210
0
220
0
230
1
0
LINE
5
1A4
100
AcDbEntity
8
0
62
256
6
ByLayer
370
-2
48
1
60
0
100
AcDbLine
10
-87.175
20
-25.6
30
0
11
-90.35
21
-25.6
31
0
39
0
210
0
220
0
230
1
0
LINE
5
1A5
100
AcDbEntity
8
0
62
256
6
ByLayer
370
-2
48
1
60
0
100
AcDbLine
10
-77.825
20
-25.6
30
0
11
-74.65
21
-25.6
31
0
39
0
210
0
220
0
230
1
0
SOLID
5
1A6
100
AcDbEntity
8
0
62
256
6
ByLayer
370
-1
48
1
60
0
100
AcDbTrace
10
-87.175
20
-26.129167
30
0
11
-87.175
21
-25.070833
31
0
12
-84
22
-25.6
32
0
13
-84
23
-25.6
33
0
39
0
210
0
220
0
230
1
0
SOLID
5
1A7
100
AcDbEntity
8
0
62
256
6
ByLayer
370
-1
48
1
60
0
100
AcDbTrace
10
-77.825
20
-25.070833
30
0
11
-77.825
21
-26.129167
31
0
12
-81
22
-25.6
32
0
13
-81
23
-25.6
33
0
39
0
210
0
220
0
230
1
0
MTEXT
5
1A8
100
AcDbEntity
8
0
62
256
6
ByLayer
370
18
48
1
60
0
100
AcDbMText
10
-66.483333
20
-16.85
30
0
210
0
220
0
230
1
1
\A1;3
40
3.5
41
0
44
1
50
0
71
5
72
5
7
iso_b_vert
0
POINT
5
1A9
100
AcDbEntity
8
Defpoints
62
0
6
ByLayer
370
-1
48
1
60
0
100
AcDbPoint
10
-84
20
-12.5
30
0
39
0
210
0
220
0
230
1
50
360
0
POINT
5
1AA
100
AcDbEntity
8
Defpoints
62
0
6
ByLayer
370
-1
48
1
60
0
100
AcDbPoint
10
-81
20
-12.5
30
0
39
0
210
0
220
0
230
1
50
360
0
POINT
5
1AB
100
AcDbEntity
8
Defpoints
62
0
6
ByLayer
370
-1
48
1
60
0
100
AcDbPoint
10
-81
20
-25.6
30
0
39
0
210
0
220
0
230
1
50
360
0
ENDBLK
5
1A0
100
AcDbEntity
8
0
100
AcDbBlockEnd
0
BLOCK
5
1B7
100
AcDbEntity
8
0
100
AcDbBlockBegin
2
_U4
70
0
10
0
20
0
30
0
3
_U4
0
MTEXT
5
1AD
100
AcDbEntity
8
SK2
62
256
6
ByLayer
370
18
48
1
60
0
100
AcDbMText
10
-70.5595
20
-24.567366
30
0
210
0
220
0
230
1
1
\W0.7121;3.0
40
3.5
41
0
44
1.084337
50
0
71
7
72
5
7
iso_b_vert
0
LINE
5
1AE
100
AcDbEntity
8
SK2
62
256
6
ByLayer
370
13
48
1
60
0
100
AcDbLine
10
-84
20
-14.5
30
0
11
-84
21
-27.6
31
0
39
0
210
0
220
0
230
1
0
LINE
5
1AF
100
AcDbEntity
8
SK2
62
256
6
ByLayer
370
13
48
1
60
0
100
AcDbLine
10
-81
20
-14.5
30
0
11
-81
21
-27.6
31
0
39
0
210
0
220
0
230
1
0
LINE
5
1B0
100
AcDbEntity
8
SK2
62
256
6
ByLayer
370
13
48
1
60
0
100
AcDbLine
10
-65.146068
20
-25.6
30
0
11
-92.75
21
-25.6
31
0
39
0
210
0
220
0
230
1
0
LINE
5
1B1
100
AcDbEntity
8
SK2
62
256
6
ByLayer
370
13
48
1
60
0
100
AcDbLine
10
-84
20
-25.6
30
0
11
-87.174998
21
-26.017997
31
0
39
0
210
0
220
0
230
1
0
LINE
5
1B2
100
AcDbEntity
8
SK2
62
256
6
ByLayer
370
13
48
1
60
0
100
AcDbLine
10
-84
20
-25.6
30
0
11
-87.175002
21
-25.182003
31
0
39
0
210
0
220
0
230
1
0
LINE
5
1B3
100
AcDbEntity
8
SK2
62
256
6
ByLayer
370
13
48
1
60
0
100
AcDbLine
10
-87.174998
20
-26.017997
30
0
11
-87.175002
21
-25.182003
31
0
39
0
210
0
220
0
230
1
0
LINE
5
1B4
100
AcDbEntity
8
SK2
62
256
6
ByLayer
370
13
48
1
60
0
100
AcDbLine
10
-81
20
-25.6
30
0
11
-77.825002
21
-25.182003
31
0
39
0
210
0
220
0
230
1
0
LINE
5
1B5
100
AcDbEntity
8
SK2
62
256
6
ByLayer
370
13
48
1
60
0
100
AcDbLine
10
-81
20
-25.6
30
0
11
-77.824998
21
-26.017997
31
0
39
0
210
0
220
0
230
1
0
LINE
5
1B6
100
AcDbEntity
8
SK2
62
256
6
ByLayer
370
13
48
1
60
0
100
AcDbLine
10
-77.825002
20
-25.182003
30
0
11
-77.824998
21
-26.017997
31
0
39
0
210
0
220
0
230
1
0
ENDBLK
5
1B8
100
AcDbEntity
8
0
100
AcDbBlockEnd
0
ENDSEC
0
SECTION
2
ENTITIES
0
ARC
5
C3
100
AcDbEntity
8
1
62
256
6
ByLayer
370
18
48
1
60
0
100
AcDbCircle
39
0
10
20.45681
20
14.304579
30
0
40
1.6764
210
0
220
0
230
1
100
AcDbArc
50
0.5
51
60.5
0
ARC
5
C4
100
AcDbEntity
8
1
62
256
6
ByLayer
370
18
48
1
60
0
100
AcDbCircle
39
0
10
20.45681
20
14.304579
30
0
40
1.6764
210
0
220
0
230
1
100
AcDbArc
50
300.5
51
0.5
0
ARC
5
C6
100
AcDbEntity
8
1
62
256
6
ByLayer
370
18
48
1
60
0
100
AcDbCircle
39
0
10
20.45681
20
14.304579
30
0
40
1.6764
210
0
220
0
230
1
100
AcDbArc
50
240.5
51
300.5
0
ARC
5
C7
100
AcDbEntity
8
1
62
256
6
ByLayer
370
18
48
1
60
0
100
AcDbCircle
39
0
10
20.45681
20
14.304579
30
0
40
1.6764
210
0
220
0
230
1
100
AcDbArc
50
180.5
51
240.5
0
ARC
5
C9
100
AcDbEntity
8
1
62
256
6
ByLayer
370
18
48
1
60
0
100
AcDbCircle
39
0
10
20.45681
20
14.304579
30
0
40
1.2903
210
0
220
0
230
1
100
AcDbArc
50
150.5
51
210.5
0
ARC
5
CA
100
AcDbEntity
8
1
62
256
6
ByLayer
370
18
48
1
60
0
100
AcDbCircle
39
0
10
20.45681
20
14.304579
30
0
40
1.6764
210
0
220
0
230
1
100
AcDbArc
50
60.5
51
120.5
0
ARC
5
CB
100
AcDbEntity
8
1
62
256
6
ByLayer
370
18
48
1
60
0
100
AcDbCircle
39
0
10
20.45681
20
14.304579
30
0
40
1.2903
210
0
220
0
230
1
100
AcDbArc
50
30.5
51
90.5
0
ARC
5
CC
100
AcDbEntity
8
1
62
256
6
ByLayer
370
18
48
1
60
0
100
AcDbCircle
39
0
10
20.45681
20
14.304579
30
0
40
1.2903
210
0
220
0
230
1
100
AcDbArc
50
90.5
51
150.5
0
ARC
5
CD
100
AcDbEntity
8
1
62
256
6
ByLayer
370
18
48
1
60
0
100
AcDbCircle
39
0
10
20.45681
20
14.304579
30
0
40
1.2903
210
0
220
0
230
1
100
AcDbArc
50
210.5
51
270.5
0
ARC
5
CE
100
AcDbEntity
8
1
62
256
6
ByLayer
370
18
48
1
60
0
100
AcDbCircle
39
0
10
20.45681
20
14.304579
30
0
40
1.2903
210
0
220
0
230
1
100
AcDbArc
50
330.5
51
30.5
0
ARC
5
CF
100
AcDbEntity
8
1
62
256
6
ByLayer
370
18
48
1
60
0
100
AcDbCircle
39
0
10
20.45681
20
14.304579
30
0
40
1.2903
210
0
220
0
230
1
100
AcDbArc
50
270.5
51
330.5
0
ARC
5
D0
100
AcDbEntity
8
1
62
256
6
ByLayer
370
18
48
1
60
0
100
AcDbCircle
39
0
10
20.45681
20
14.304579
30
0
40
1.6764
210
0
220
0
230
1
100
AcDbArc
50
120.5
51
180.5
0
ARC
5
D1
100
AcDbEntity
8
1
62
256
6
ByLayer
370
13
48
1
60
0
100
AcDbCircle
39
0
10
22.954775
20
10.063875
30
0
40
0.396874999999956
210
0
220
0
230
1
100
AcDbArc
50
273
51
328
0
ARC
5
D3
100
AcDbEntity
8
1
62
256
6
ByLayer
370
13
48
1
60
0
100
AcDbCircle
39
0
10
12.310494
20
9.506032
30
0
40
0.396874999999957
210
0
220
0
230
1
100
AcDbArc
50
148
51
273
0
ARC
5
D4
100
AcDbEntity
8
1
62
256
6
ByLayer
370
13
48
1
60
0
100
AcDbCircle
39
0
10
17.958845
20
18.545282
30
0
40
0.396874999999957
210
0
220
0
230
1
100
AcDbArc
50
93
51
148
0
ARC
5
D5
100
AcDbEntity
8
1
62
256
6
ByLayer
370
13
48
1
60
0
100
AcDbCircle
39
0
10
28.603125
20
19.103125
30
0
40
0.396874999999956
210
0
220
0
230
1
100
AcDbArc
50
328
51
93
0
ARC
5
D6
100
AcDbEntity
8
1
62
256
6
ByLayer
370
18
48
1
60
0
100
AcDbCircle
39
0
10
14.118996
20
9.776753
30
0
40
1.73876468136632
210
0
220
0
230
1
100
AcDbArc
50
270.820921
51
328
0
ARC
5
D7
100
AcDbEntity
8
1
62
256
6
ByLayer
370
18
48
1
60
0
100
AcDbCircle
39
0
10
14.118996
20
9.776753
30
0
40
1.63876468136632
210
0
220
0
230
1
100
AcDbArc
50
269.249547
51
328
0
ARC
5
D8
100
AcDbEntity
8
1
62
256
6
ByLayer
370
18
48
1
60
0
100
AcDbCircle
39
0
10
2.772277
20
14.025
30
0
40
1.6
210
0
220
0
230
1
100
AcDbArc
50
270
51
342.040908
0
ARC
5
DA
100
AcDbEntity
8
1
62
256
6
ByLayer
370
13
48
1
60
0
100
AcDbCircle
39
0
10
13.737235
20
1.053845
30
0
40
4.42238554666492
210
0
220
0
230
1
100
AcDbArc
50
351.077591
51
357.119072
0
ARC
5
DB
100
AcDbEntity
8
1
62
256
6
ByLayer
370
18
48
1
60
0
100
AcDbCircle
39
0
10
12.919365
20
9.106399
30
0
40
1.525
210
0
220
0
230
1
100
AcDbArc
50
105.538952
51
320.585078
0
ARC
5
DC
100
AcDbEntity
8
1
62
256
6
ByLayer
370
18
48
1
60
0
100
AcDbCircle
39
0
10
12.919365
20
9.106399
30
0
40
1.625
210
0
220
0
230
1
100
AcDbArc
50
101.816
51
318.900083
0
ARC
5
DD
100
AcDbEntity
8
1
62
256
6
ByLayer
370
18
48
1
60
0
100
AcDbCircle
39
0
10
31.029739
20
8.877058
30
0
40
8.1
210
0
220
0
230
1
100
AcDbArc
50
174.402345
51
187.007529
0
ARC
5
DE
100
AcDbEntity
8
1
62
256
6
ByLayer
370
13
48
1
60
0
100
AcDbCircle
39
0
10
37.846195
20
-23.675085
30
0
40
41.4223855466649
210
0
220
0
230
1
100
AcDbArc
50
134.487793
51
144.340699
0
ARC
5
DF
100
AcDbEntity
8
1
62
256
6
ByLayer
370
13
48
1
60
0
100
AcDbCircle
39
0
10
-14.817888
20
24.582656
30
0
40
41.4223855466649
210
0
220
0
230
1
100
AcDbArc
50
310.659301
51
317.060516
0
ARC
5
E0
100
AcDbEntity
8
1
62
256
6
ByLayer
370
13
48
1
60
0
100
AcDbCircle
39
0
10
-12.155235
20
-25.376819
30
0
40
39.9600682379628
210
0
220
0
230
1
100
AcDbArc
50
42.392444
51
52.607556
0
ARC
5
E1
100
AcDbEntity
8
1
62
256
6
ByLayer
370
13
48
1
60
0
100
AcDbCircle
39
0
10
8.619575
20
-2.705093
30
0
40
5.45106510908396
210
0
220
0
230
1
100
AcDbArc
50
144.340699
51
310.659301
0
ARC
5
E2
100
AcDbEntity
8
1
62
256
6
ByLayer
370
13
48
1
60
0
100
AcDbCircle
39
0
10
11.918175
20
2.720706
30
0
40
2.82847402971813
210
0
220
0
230
1
100
AcDbArc
50
49.410678
51
134.487793
0
ARC
5
E3
100
AcDbEntity
8
1
62
256
6
ByLayer
370
13
48
1
60
0
100
AcDbCircle
39
0
10
13.737235
20
1.053845
30
0
40
2.82847402971813
210
0
220
0
230
1
100
AcDbArc
50
320.512207
51
45.589322
0
ARC
5
E4
100
AcDbEntity
8
1
62
256
6
ByLayer
370
13
48
1
60
0
100
AcDbCircle
39
0
10
8.619575
20
-2.705093
30
0
40
3.85715359213716
210
0
220
0
230
1
100
AcDbArc
50
144.340699
51
310.659301
0
ARC
5
E5
100
AcDbEntity
8
1
62
256
6
ByLayer
370
13
48
1
60
0
100
AcDbCircle
39
0
10
37.846195
20
-23.675085
30
0
40
39.8284740297181
210
0
220
0
230
1
100
AcDbArc
50
134.487793
51
144.340699
0
ARC
5
E6
100
AcDbEntity
8
1
62
256
6
ByLayer
370
13
48
1
60
0
100
AcDbCircle
39
0
10
-14.817888
20
24.582656
30
0
40
39.8284740297182
210
0
220
0
230
1
100
AcDbArc
50
310.659301
51
320.512207
0
ARC
5
E8
100
AcDbEntity
8
1
62
256
6
ByLayer
370
13
48
1
60
0
100
AcDbCircle
39
0
10
-12.155235
20
-25.376819
30
0
40
40.4581655870087
210
0
220
0
230
1
100
AcDbArc
50
42.424003
51
52.575997
0
ARC
5
E9
100
AcDbEntity
8
1
62
256
6
ByLayer
370
13
48
1
60
0
100
AcDbCircle
39
0
10
11.918175
20
2.720706
30
0
40
4.42238554666492
210
0
220
0
230
1
100
AcDbArc
50
97.880928
51
134.487793
0
ARC
5
EA
100
AcDbEntity
8
2
62
256
6
ByLayer
370
13
48
1
60
0
100
AcDbCircle
39
0
10
29
20
19.5
30
0
40
7.1136912812076
210
0
220
0
230
1
100
AcDbArc
50
87
51
180
0
CIRCLE
5
C5
100
AcDbEntity
8
1
62
256
6
ByLayer
370
18
48
1
60
0
100
AcDbCircle
10
20.45681
20
14.304579
30
0
40
2.625
39
0
210
0
220
0
230
1
0
CIRCLE
5
C8
100
AcDbEntity
8
1
62
256
6
ByLayer
370
18
48
1
60
0
100
AcDbCircle
10
20.45681
20
14.304579
30
0
40
1.8
39
0
210
0
220
0
230
1
0
CIRCLE
5
D2
100
AcDbEntity
8
1
62
256
6
ByLayer
370
13
48
1
60
0
100
AcDbCircle
10
20.45681
20
14.304579
30
0
40
3.071325348182
39
0
210
0
220
0
230
1
0
CIRCLE
5
D9
100
AcDbEntity
8
1
62
256
6
ByLayer
370
13
48
1
60
0
100
AcDbCircle
10
20.45681
20
14.304579
30
0
40
2.92104776441548
39
0
210
0
220
0
230
1
0
CIRCLE
5
E7
100
AcDbEntity
8
1
62
256
6
ByLayer
370
13
48
1
60
0
100
AcDbCircle
10
20.45681
20
14.304579
30
0
40
3.00996076009734
39
0
210
0
220
0
230
1
0
POINT
5
70
100
AcDbEntity
8
2
62
256
6
ByLayer
370
18
48
1
60
0
100
AcDbPoint
10
14.064932
20
3.237472
30
0
39
0
210
0
220
0
230
1
50
360
0
POINT
5
72
100
AcDbEntity
8
2
62
256
6
ByLayer
370
18
48
1
60
0
100
AcDbPoint
10
20.129863
20
14.170022
30
0
39
0
210
0
220
0
230
1
50
360
0
POINT
5
73
100
AcDbEntity
8
SK2
62
256
6
ByLayer
370
18
48
1
60
0
100
AcDbPoint
10
26.483448
20
15.710933
30
0
39
0
210
0
220
0
230
1
50
360
0
POINT
5
75
100
AcDbEntity
8
SK2
62
256
6
ByLayer
370
18
48
1
60
0
100
AcDbPoint
10
27.543286
20
17.407029
30
0
39
0
210
0
220
0
230
1
50
360
0
POINT
5
76
100
AcDbEntity
8
SK2
62
256
6
ByLayer
370
18
48
1
60
0
100
AcDbPoint
10
24.608607
20
18.893781
30
0
39
0
210
0
220
0
230
1
50
360
0
POINT
5
77
100
AcDbEntity
8
SK2
62
256
6
ByLayer
370
18
48
1
60
0
100
AcDbPoint
10
26.605866
20
18.998453
30
0
39
0
210
0
220
0
230
1
50
360
0
POINT
5
78
100
AcDbEntity
8
SK2
62
256
6
ByLayer
370
18
48
1
60
0
100
AcDbPoint
10
28.603125
20
19.103125
30
0
39
0
210
0
220
0
230
1
50
360
0
POINT
5
79
100
AcDbEntity
8
2
62
256
6
ByLayer
370
18
48
1
60
0
100
AcDbPoint
10
20.45681
20
14.304579
30
0
39
0
210
0
220
0
230
1
50
360
0
POINT
5
7A
100
AcDbEntity
8
2
62
256
6
ByLayer
370
18
48
1
60
0
100
AcDbPoint
10
20.45681
20
14.304579
30
0
39
0
210
0
220
0
230
1
50
360
0
POINT
5
7B
100
AcDbEntity
8
2
62
256
6
ByLayer
370
18
48
1
60
0
100
AcDbPoint
10
0
20
-12.5
30
0
39
0
210
0
220
0
230
1
50
360
0
POINT
5
7C
100
AcDbEntity
8
81
62
256
6
ByLayer
370
18
48
1
60
0
100
AcDbPoint
10
29
20
19.5
30
0
39
0
210
0
220
0
230
1
50
360
0
POINT
5
7E
100
AcDbEntity
8
80
62
256
6
ByLayer
370
18
48
1
60
0
100
AcDbPoint
10
0
20
0
30
0
39
0
210
0
220
0
230
1
50
360
0
POINT
5
80
100
AcDbEntity
8
1
62
256
6
ByLayer
370
18
48
1
60
1
100
AcDbPoint
10
22
20
-12.5
30
0
39
0
210
0
220
0
230
1
50
360
0
POINT
5
82
100
AcDbEntity
8
1
62
256
6
ByLayer
370
18
48
1
60
1
100
AcDbPoint
10
29
20
19.5
30
0
39
0
210
0
220
0
230
1
50
360
0
POINT
5
83
100
AcDbEntity
8
1
62
256
6
ByLayer
370
18
48
1
60
1
100
AcDbPoint
10
0
20
12.5
30
0
39
0
210
0
220
0
230
1
50
360
0
POINT
5
84
100
AcDbEntity
8
1
62
256
6
ByLayer
370
18
48
1
60
1
100
AcDbPoint
10
-84
20
-12.5
30
0
39
0
210
0
220
0
230
1
50
360
0
POINT
5
85
100
AcDbEntity
8
1
62
256
6
ByLayer
370
18
48
1
60
1
100
AcDbPoint
10
-84
20
-12.5
30
0
39
0
210
0
220
0
230
1
50
360
0
POINT
5
86
100
AcDbEntity
8
1
62
256
6
ByLayer
370
18
48
1
60
1
100
AcDbPoint
10
29
20
19.5
30
0
39
0
210
0
220
0
230
1
50
360
0
POINT
5
87
100
AcDbEntity
8
1
62
256
6
ByLayer
370
18
48
1
60
1
100
AcDbPoint
10
0
20
12.5
30
0
39
0
210
0
220
0
230
1
50
360
0
POINT
5
88
100
AcDbEntity
8
1
62
256
6
ByLayer
370
18
48
1
60
1
100
AcDbPoint
10
29
20
19.5
30
0
39
0
210
0
220
0
230
1
50
360
0
POINT
5
89
100
AcDbEntity
8
1
62
256
6
ByLayer
370
18
48
1
60
1
100
AcDbPoint
10
-84
20
-12.5
30
0
39
0
210
0
220
0
230
1
50
360
0
POINT
5
8A
100
AcDbEntity
8
1
62
256
6
ByLayer
370
18
48
1
60
1
100
AcDbPoint
10
-81
20
-12.5
30
0
39
0
210
0
220
0
230
1
50
360
0
SPLINE
5
EB
100
AcDbEntity
8
1
62
256
6
ByLayer
370
18
48
1
60
0
100
AcDbSpline
70
4
71
3
72
8
73
4
40
0
40
0
40
0
40
0
40
1
40
1
40
1
40
1
41
1
10
20.0915242946971
20
12.8730277692648
30
0
41
1
10
20.0881137266288
20
12.8672966685
30
0
41
1
10
20.0847036110816
20
12.8615663281493
30
0
41
1
10
20.0812939310761
20
12.8558367196808
30
0
0
SPLINE
5
EC
100
AcDbEntity
8
1
62
256
6
ByLayer
370
18
48
1
60
0
100
AcDbSpline
70
4
71
3
72
8
73
4
40
0
40
0
40
0
40
0
40
1
40
1
40
1
40
1
41
1
10
21.8792117161694
20
14.7040075298501
30
0
41
1
10
21.8858802790574
20
14.7039194416439
30
0
41
1
10
21.8925479571471
20
14.7038313651255
30
0
41
1
10
21.8992147836373
20
14.7037432998563
30
0
0
SPLINE
5
ED
100
AcDbEntity
8
1
62
256
6
ByLayer
370
18
48
1
60
0
100
AcDbSpline
70
4
71
3
72
8
73
4
40
0
40
0
40
0
40
0
40
1
40
1
40
1
40
1
41
1
10
20.8220950585147
20
15.736129343864
30
0
41
1
10
20.825505626583
20
15.7418604446287
30
0
41
1
10
20.8289157421303
20
15.7475907849794
30
0
41
1
10
20.8323254221357
20
15.7533203934479
30
0
0
SPLINE
5
EE
100
AcDbEntity
8
1
62
256
6
ByLayer
370
18
48
1
60
0
100
AcDbSpline
70
4
71
3
72
28
73
24
40
0
40
0
40
0
40
0
40
0.0405984349492754
40
0.0405984349492754
40
0.136918028510118
40
0.136918028510118
40
0.284178405664747
40
0.284178405664747
40
0.50082292997443
40
0.50082292997443
40
0.566758824834791
40
0.566758824834791
40
0.63205009504476
40
0.63205009504476
40
0.73517583920839
40
0.73517583920839
40
0.797186106051223
40
0.797186106051223
40
0.859268321592035
40
0.859268321592035
40
0.921511331908833
40
0.921511331908833
40
1
40
1
40
1
40
1
41
1
10
20.8220950585147
20
15.736129343864
30
0
41
1
10
20.8167891438344
20
15.7272133125541
30
0
41
1
10
20.8103788764398
20
15.7188168106238
30
0
41
1
10
20.7864766754746
20
15.692643563655
30
0
41
1
10
20.7654910587266
20
15.677142572678
30
0
41
1
10
20.708609795722
20
15.6442947349964
30
0
41
1
10
20.6696649970443
20
15.629577591108
30
0
41
1
10
20.5708816466622
20
15.6030751342108
30
0
41
1
10
20.5077773980485
20
15.5953724776721
30
0
41
1
10
20.4263802717362
20
15.5946621357122
30
0
41
1
10
20.4071814153978
20
15.5951792370832
30
0
41
1
10
20.369190210001
20
15.5975872267556
30
0
41
1
10
20.3503493593901
20
15.5994673597953
30
0
41
1
10
20.3023405514579
20
15.606128826364
30
0
41
1
10
20.27330562765
20
15.6119742565796
30
0
41
1
10
20.2284146447948
20
15.624501484986
30
0
41
1
10
20.211844457092
20
15.6299466608038
30
0
41
1
10
20.1797433179067
20
15.642469719248
30
0
41
1
10
20.1641454623976
20
15.6495734729003
30
0
41
1
10
20.1345106401301
20
15.6657022752893
30
0
41
1
10
20.1203782134157
20
15.674782373277
30
0
41
1
10
20.0914263581171
20
15.6978106331439
30
0
41
1
10
20.0770190397266
20
15.7126971028754
30
0
41
1
10
20.0665959232545
20
15.7295362027945
30
0
0
SPLINE
5
EF
100
AcDbEntity
8
1
62
256
6
ByLayer
370
18
48
1
60
0
100
AcDbSpline
70
4
71
3
72
8
73
4
40
0
40
0
40
0
40
0
40
1
40
1
40
1
40
1
41
1
10
21.5052188996655
20
15.3726155812414
30
0
41
1
10
21.5020637816666
20
15.3667419485193
30
0
41
1
10
21.4989082606427
20
15.3608675655178
30
0
41
1
10
21.4957523208824
20
15.3549924029878
30
0
0
SPLINE
5
F0
100
AcDbEntity
8
1
62
256
6
ByLayer
370
18
48
1
60
0
100
AcDbSpline
70
4
71
3
72
8
73
4
40
0
40
0
40
0
40
0
40
1
40
1
40
1
40
1
41
1
10
19.3899203151043
20
15.354155650156
30
0
41
1
10
19.3931774615891
20
15.3483379764183
30
0
41
1
10
19.3964350241315
20
15.3425195595491
30
0
41
1
10
19.3996930189512
20
15.3367003705783
30
0
0
SPLINE
5
F1
100
AcDbEntity
8
1
62
256
6
ByLayer
370
18
48
1
60
0
100
AcDbSpline
70
4
71
3
72
8
73
4
40
0
40
0
40
0
40
0
40
1
40
1
40
1
40
1
41
1
10
21.5139263342606
20
13.2724567425505
30
0
41
1
10
21.5171843290804
20
13.2666375535796
30
0
41
1
10
21.5204418916228
20
13.2608191367105
30
0
41
1
10
21.5236990381075
20
13.2550014629727
30
0
0
SPLINE
5
F2
100
AcDbEntity
8
1
62
256
6
ByLayer
370
18
48
1
60
0
100
AcDbSpline
70
4
71
3
72
24
73
20
40
0
40
0
40
0
40
0
40
0.158126111966009
40
0.158126111966009
40
0.271563393607304
40
0.271563393607304
40
0.385066230469786
40
0.385066230469786
40
0.498714519310309
40
0.498714519310309
40
0.612721087896067
40
0.612721087896067
40
0.746221642583611
40
0.746221642583611
40
0.824913378297542
40
0.824913378297542
40
0.908986128606075
40
0.908986128606075
40
1
40
1
40
1
40
1
41
1
10
18.7804735087811
20
14.2899493924549
30
0
41
1
10
18.7802292826067
20
14.3179349401118
30
0
41
1
10
18.7814363575261
20
14.3459785007741
30
0
41
1
10
18.7861159817344
20
14.3938293336387
30
0
41
1
10
18.7888617341752
20
14.4137771131597
30
0
41
1
10
18.7960697970949
20
14.4532970753677
30
0
41
1
10
18.8005398292127
20
14.4729155600444
30
0
41
1
10
18.8114541445876
20
14.5114932343867
30
0
41
1
10
18.8179168702775
20
14.5305207155179
30
0
41
1
10
18.833240482375
20
14.5673971616433
30
0
41
1
10
18.8421530118881
20
14.5853638655486
30
0
41
1
10
18.864676425736
20
14.6216879456215
30
0
41
1
10
18.8790958196576
20
14.6400182029767
30
0
41
1
10
18.9058181296039
20
14.6632298385659
30
0
41
1
10
18.9167651617678
20
14.6706441327051
30
0
41
1
10
18.9405182912455
20
14.6816637437336
30
0
41
1
10
18.9537161935435
20
14.6850550355921
30
0
41
1
10
18.980655382217
20
14.6862500539379
30
0
41
1
10
18.9947437020011
20
14.6836112621107
30
0
41
1
10
19.0076578695234
20
14.6785090649573
30
0
0
SPLINE
5
F3
100
AcDbEntity
8
1
62
256
6
ByLayer
370
18
48
1
60
0
100
AcDbSpline
70
4
71
3
72
8
73
4
40
0
40
0
40
0
40
0
40
1
40
1
40
1
40
1
41
1
10
19.4084004535463
20
13.2365415318873
30
0
41
1
10
19.4115555715453
20
13.2424151646094
30
0
41
1
10
19.4147110925691
20
13.2482895476109
30
0
41
1
10
19.4178670323294
20
13.2541647101409
30
0
0
SPLINE
5
F4
100
AcDbEntity
8
1
62
256
6
ByLayer
370
18
48
1
60
0
100
AcDbSpline
70
4
71
3
72
8
73
4
40
0
40
0
40
0
40
0
40
1
40
1
40
1
40
1
41
1
10
19.0076578695234
20
14.6785090649573
30
0
41
1
10
19.0143221436728
20
14.6787134689794
30
0
41
1
10
19.0209872690956
20
14.6789178991113
30
0
41
1
10
19.027653278978
20
14.6791223563711
30
0
0
SPLINE
5
F5
100
AcDbEntity
8
1
62
256
6
ByLayer
370
18
48
1
60
0
100
AcDbSpline
70
4
71
3
72
26
73
22
40
0
40
0
40
0
40
0
40
0.0611212350797015
40
0.0611212350797015
40
0.145349009858789
40
0.145349009858789
40
0.228936526328737
40
0.228936526328737
40
0.391532191220693
40
0.391532191220693
40
0.475817926908325
40
0.475817926908325
40
0.589557559273583
40
0.589557559273583
40
0.703149060376426
40
0.703149060376426
40
0.816673845780327
40
0.816673845780327
40
0.930168712116182
40
0.930168712116182
40
1
40
1
40
1
40
1
41
1
10
21.5236990381075
20
13.2550014629727
30
0
41
1
10
21.5311967081375
20
13.2492603985997
30
0
41
1
10
21.5379853648533
20
13.2425262142949
30
0
41
1
10
21.55133433551
20
13.2245836706931
30
0
41
1
10
21.5570112548892
20
13.2123254938603
30
0
41
1
10
21.5631518867673
20
13.1864303619611
30
0
41
1
10
21.5637749616498
20
13.1724987734783
30
0
41
1
10
21.5597798701361
20
13.1322270007329
30
0
41
1
10
21.5499743418085
20
13.1053505240311
30
0
41
1
10
21.5302917064616
20
13.0677395137845
30
0
41
1
10
21.5225512930801
20
13.0551592351119
30
0
41
1
10
21.5028389272674
20
13.0266432547948
30
0
41
1
10
21.4902769681896
20
13.010979579893
30
0
41
1
10
21.4635605917001
20
12.9811385301022
30
0
41
1
10
21.4493523565996
20
12.9669028420015
30
0
41
1
10
21.4197370149895
20
12.939788122626
30
0
41
1
10
21.404291893761
20
12.9268755970248
30
0
41
1
10
21.3724416367995
20
12.9023441869046
30
0
41
1
10
21.3560059875198
20
12.8907024450508
30
0
41
1
10
21.3288151242907
20
12.8729428616675
30
0
41
1
10
21.3183017400246
20
12.8664195604205
30
0
41
1
10
21.3076469882732
20
12.8601434320002
30
0
0
SPLINE
5
F6
100
AcDbEntity
8
1
62
256
6
ByLayer
370
18
48
1
60
0
100
AcDbSpline
70
4
71
3
72
30
73
26
40
0
40
0
40
0
40
0
40
0.0728681126376383
40
0.0728681126376383
40
0.12781259347739
40
0.12781259347739
40
0.199092397893152
40
0.199092397893152
40
0.288874798003794
40
0.288874798003794
40
0.393641276926116
40
0.393641276926116
40
0.499915621932663
40
0.499915621932663
40
0.631623646297549
40
0.631623646297549
40
0.734868911743391
40
0.734868911743391
40
0.796951047610412
40
0.796951047610412
40
0.859105215562918
40
0.859105215562918
40
0.921420364650245
40
0.921420364650245
40
1
40
1
40
1
40
1
41
1
10
21.4957523208824
20
15.3549924029878
30
0
41
1
10
21.4870508538421
20
15.3387935725304
30
0
41
1
10
21.4815262048991
20
15.3204579580744
30
0
41
1
10
21.475943408335
20
15.2874267741874
30
0
41
1
10
21.4748417978185
20
15.2727251493569
30
0
41
1
10
21.4746327969069
20
15.2386907857589
30
0
41
1
10
21.4762085540398
20
15.2191335602497
30
0
41
1
10
21.4826344171167
20
15.1750377343928
30
0
41
1
10
21.4882541827012
20
15.1503314445913
30
0
41
1
10
21.5037524448797
20
15.0974445801206
30
0
41
1
10
21.5142523736504
20
15.0691531177885
30
0
41
1
10
21.5387762399862
20
15.0135131541527
30
0
41
1
10
21.5529375731644
20
14.9859935312557
30
0
41
1
10
21.5879103319018
20
14.9266215685662
30
0
41
1
10
21.6096743135979
20
14.894992805597
30
0
41
1
10
21.6520134889475
20
14.8425206188757
30
0
41
1
10
21.6719780918501
20
14.8206434507345
30
0
41
1
10
21.7058365877991
20
14.788616367737
30
0
41
1
10
21.7190382920324
20
14.7772174175425
30
0
41
1
10
21.746305957164
20
14.7561512226307
30
0
41
1
10
21.7604285519823
20
14.7464399545333
30
0
41
1
10
21.7895166958007
20
14.7293449012566
30
0
41
1
10
21.8045785967299
20
14.7219076433844
30
0
41
1
10
21.839228975898
20
14.7089514903582
30
0
41
1
10
21.8594094885031
20
14.7042691068558
30
0
41
1
10
21.8792117161694
20
14.7040075298501
30
0
0
SPLINE
5
F7
100
AcDbEntity
8
1
62
256
6
ByLayer
370
18
48
1
60
0
100
AcDbSpline
70
4
71
3
72
24
73
20
40
0
40
0
40
0
40
0
40
0.158126111966003
40
0.158126111966003
40
0.271563393607304
40
0.271563393607304
40
0.38506623046978
40
0.38506623046978
40
0.49871451931031
40
0.49871451931031
40
0.612721087896067
40
0.612721087896067
40
0.746221642583604
40
0.746221642583604
40
0.824913378297542
40
0.824913378297542
40
0.908986128606073
40
0.908986128606073
40
1
40
1
40
1
40
1
41
1
10
22.1331458444307
20
14.3192077206738
30
0
41
1
10
22.1333900706051
20
14.2912221730169
30
0
41
1
10
22.1321829956857
20
14.2631786123546
30
0
41
1
10
22.1275033714775
20
14.21532777949
30
0
41
1
10
22.1247576190367
20
14.195379999969
30
0
41
1
10
22.1175495561169
20
14.155860037761
30
0
41
1
10
22.1130795239991
20
14.1362415530843
30
0
41
1
10
22.1021652086242
20
14.097663878742
30
0
41
1
10
22.0957024829344
20
14.0786363976107
30
0
41
1
10
22.0803788708369
20
14.0417599514854
30
0
41
1
10
22.0714663413237
20
14.0237932475801
30
0
41
1
10
22.0489429274759
20
13.9874691675073
30
0
41
1
10
22.0345235335542
20
13.9691389101521
30
0
41
1
10
22.0078012236079
20
13.9459272745628
30
0
41
1
10
21.996854191444
20
13.9385129804237
30
0
41
1
10
21.9731010619664
20
13.9274933693951
30
0
41
1
10
21.9599031596683
20
13.9241020775366
30
0
41
1
10
21.9329639709948
20
13.9229070591908
30
0
41
1
10
21.9188756512107
20
13.9255458510181
30
0
41
1
10
21.9059614836884
20
13.9306480481714
30
0
0
SPLINE
5
F8
100
AcDbEntity
8
1
62
256
6
ByLayer
370
18
48
1
60
0
100
AcDbSpline
70
4
71
3
72
8
73
4
40
0
40
0
40
0
40
0
40
1
40
1
40
1
40
1
41
1
10
20.8575522606288
20
12.8626110234943
30
0
41
1
10
20.8540431044785
20
12.8682802521944
30
0
41
1
10
20.8505335000795
20
12.873950205064
30
0
41
1
10
20.8470234299573
20
12.8796209103342
30
0
0
SPLINE
5
F9
100
AcDbEntity
8
1
62
256
6
ByLayer
370
18
48
1
60
0
100
AcDbSpline
70
4
71
3
72
24
73
20
40
0
40
0
40
0
40
0
40
0.158126111965947
40
0.158126111965947
40
0.271563393607254
40
0.271563393607254
40
0.385066230469739
40
0.385066230469739
40
0.498714519310275
40
0.498714519310275
40
0.612721087896041
40
0.612721087896041
40
0.746221642583586
40
0.746221642583586
40
0.824913378297528
40
0.824913378297528
40
0.908986128606064
40
0.908986128606064
40
1
40
1
40
1
40
1
41
1
10
19.6059723649386
20
15.7490136811285
30
0
41
1
10
19.5818582828161
20
15.7348094012287
30
0
41
1
10
19.5584419491639
20
15.7193312345812
30
0
41
1
10
19.5198359645645
20
15.6906750128888
30
0
41
1
10
19.5041515472888
20
15.6780475777176
30
0
41
1
10
19.4739887548091
20
15.6515147766253
30
0
41
1
10
19.4594746679911
20
15.637578944681
30
0
41
1
10
19.4320284349874
20
15.6083545793043
30
0
41
1
10
19.4190472501455
20
15.5930150649166
30
0
41
1
10
19.3953302100362
20
15.560887391876
30
0
41
1
10
19.3845200309901
20
15.5439943264189
30
0
41
1
10
19.3649846330322
20
15.5059797082948
30
0
41
1
10
19.3566990727006
20
15.4841790948684
30
0
41
1
10
19.3505658247496
20
15.4493187284738
30
0
41
1
10
19.3498486726274
20
15.4361166466829
30
0
41
1
10
19.3526367884665
20
15.4100807215549
30
0
41
1
10
19.3565273061708
20
15.3970212668369
30
0
41
1
10
19.369377683395
20
15.3733143952502
30
0
41
1
10
19.3788955905631
20
15.3625974264722
30
0
41
1
10
19.3899203151043
20
15.354155650156
30
0
0
SPLINE
5
FA
100
AcDbEntity
8
1
62
256
6
ByLayer
370
18
48
1
60
0
100
AcDbSpline
70
4
71
3
72
26
73
22
40
0
40
0
40
0
40
0
40
0.0611212350797036
40
0.0611212350797036
40
0.145349009858792
40
0.145349009858792
40
0.228936526328736
40
0.228936526328736
40
0.391532191220704
40
0.391532191220704
40
0.475817926908329
40
0.475817926908329
40
0.589557559273587
40
0.589557559273587
40
0.703149060376431
40
0.703149060376431
40
0.816673845780332
40
0.816673845780332
40
0.930168712116183
40
0.930168712116183
40
1
40
1
40
1
40
1
41
1
10
21.8992147836373
20
14.7037432998563
30
0
41
1
10
21.9079355262441
20
14.707365940385
30
0
41
1
10
21.9171618292837
20
14.709877997406
30
0
41
1
10
21.9393750131798
20
14.7124672733082
30
0
41
1
10
21.9528293654107
20
14.7112545412894
30
0
41
1
10
21.9783255234087
20
14.7036249185415
30
0
41
1
10
21.9907021703911
20
14.6971987229768
30
0
41
1
10
22.0235810028873
20
14.6736029858628
30
0
41
1
10
22.0419539503114
20
14.6516729108826
30
0
41
1
10
22.0646847229736
20
14.6158217435356
30
0
41
1
10
22.0717093572
20
14.602828209575
30
0
41
1
10
22.086548737662
20
14.571498809854
30
0
41
1
10
22.0938328985047
20
14.5527879967204
30
0
41
1
10
22.1063178174543
20
14.5147304110881
30
0
41
1
10
22.1115421674397
20
14.4953078744978
30
0
41
1
10
22.1202165324303
20
14.4561028766339
30
0
41
1
10
22.1236765470138
20
14.4362707464849
30
0
41
1
10
22.1289962428877
20
14.396421909779
30
0
41
1
10
22.1308604624375
20
14.3763673490483
30
0
41
1
10
22.1326452811936
20
14.3439395790494
30
0
41
1
10
22.133037933657
20
14.3315730705717
30
0
41
1
10
22.1331458444307
20
14.3192077206738
30
0
0
SPLINE
5
FB
100
AcDbEntity
8
1
62
256
6
ByLayer
370
18
48
1
60
0
100
AcDbSpline
70
4
71
3
72
30
73
26
40
0
40
0
40
0
40
0
40
0.0728681126376411
40
0.0728681126376411
40
0.127812593477392
40
0.127812593477392
40
0.199092397893154
40
0.199092397893154
40
0.288874798003797
40
0.288874798003797
40
0.393641276926119
40
0.393641276926119
40
0.499915621932667
40
0.499915621932667
40
0.631623646297552
40
0.631623646297552
40
0.734868911743394
40
0.734868911743394
40
0.79695104761041
40
0.79695104761041
40
0.859105215562921
40
0.859105215562921
40
0.921420364650245
40
0.921420364650245
40
1
40
1
40
1
40
1
41
1
10
21.8859660742338
20
13.9300347567576
30
0
41
1
10
21.8675867420259
20
13.929471033036
30
0
41
1
10
21.8489453096416
20
13.9250877121397
30
0
41
1
10
21.8175480669963
20
13.9134069638449
30
0
41
1
10
21.8042652811579
20
13.907010174122
30
0
41
1
10
21.7746861572246
20
13.8901739924219
30
0
41
1
10
21.7585369816726
20
13.87903073396
30
0
41
1
10
21.7235618078181
20
13.8514178603656
30
0
41
1
10
21.7049754160089
20
13.8341978557054
30
0
41
1
10
21.6669231789401
20
13.794332534709
30
0
41
1
10
21.6476720182356
20
13.7710935984895
30
0
41
1
10
21.6117483294293
20
13.7220353254258
30
0
41
1
10
21.594996303487
20
13.6960114396936
30
0
41
1
10
21.561065054894
20
13.6360381608418
30
0
41
1
10
21.5445557335205
20
13.6013756183209
30
0
41
1
10
21.5202830745025
20
13.5384727235322
30
0
41
1
10
21.5113191925807
20
13.5102442861715
30
0
41
1
10
21.5005121730702
20
13.464908427047
30
0
41
1
10
21.497241244742
20
13.4477759407104
30
0
41
1
10
21.4926312173531
20
13.4136283525487
30
0
41
1
10
21.4912823098869
20
13.39654219262
30
0
41
1
10
21.4910216313795
20
13.3628035944859
30
0
41
1
10
21.4921117275922
20
13.3460409767159
30
0
41
1
10
21.4982165595202
20
13.3095547915924
30
0
41
1
10
21.5042517527595
20
13.2897367632638
30
0
41
1
10
21.5139263342606
20
13.2724567425505
30
0
0
SPLINE
5
FC
100
AcDbEntity
8
1
62
256
6
ByLayer
370
18
48
1
60
0
100
AcDbSpline
70
4
71
3
72
24
73
20
40
0
40
0
40
0
40
0
40
0.158126111966044
40
0.158126111966044
40
0.271563393607336
40
0.271563393607336
40
0.385066230469809
40
0.385066230469809
40
0.498714519310331
40
0.498714519310331
40
0.612721087896082
40
0.612721087896082
40
0.746221642583615
40
0.746221642583615
40
0.824913378297547
40
0.824913378297547
40
0.908986128606075
40
0.908986128606075
40
1
40
1
40
1
40
1
41
1
10
19.6313108204485
20
12.8455142678907
30
0
41
1
10
19.6069525121515
20
12.8592955356478
30
0
41
1
10
19.5832696136651
20
12.8743626735235
30
0
41
1
10
19.5441693889162
20
12.9023407634003
30
0
41
1
10
19.5282669813224
20
12.914692544527
30
0
41
1
10
19.4976457215536
20
12.9406948912316
30
0
41
1
10
19.4828906314987
20
12.9543752949397
30
0
41
1
10
19.4549385431868
20
12.9831162064904
30
0
41
1
10
19.441691624002
20
12.9982268316811
30
0
41
1
10
19.4174174909049
20
13.029935692098
30
0
41
1
10
19.4063141336572
20
13.0466375210211
30
0
41
1
10
19.3861182644689
20
13.0843054096296
30
0
41
1
10
19.3774534929023
20
13.1059580997506
30
0
41
1
10
19.3707127817917
20
13.1407061168065
30
0
41
1
10
19.369765330798
20
13.153893671826
30
0
41
1
10
19.3720986324463
20
13.1799742908873
30
0
41
1
10
19.3757606386942
20
13.1930996554834
30
0
41
1
10
19.3881953167855
20
13.2170271864048
30
0
41
1
10
19.3975247374353
20
13.2279086333209
30
0
41
1
10
19.4084004535463
20
13.2365415318873
30
0
0
SPLINE
5
FD
100
AcDbEntity
8
1
62
256
6
ByLayer
370
18
48
1
60
0
100
AcDbSpline
70
4
71
3
72
26
73
22
40
0
40
0
40
0
40
0
40
0.061121235079708
40
0.061121235079708
40
0.145349009858789
40
0.145349009858789
40
0.228936526328737
40
0.228936526328737
40
0.3915321912207
40
0.3915321912207
40
0.475817926908335
40
0.475817926908335
40
0.589557559273592
40
0.589557559273592
40
0.703149060376429
40
0.703149060376429
40
0.816673845780331
40
0.816673845780331
40
0.930168712116189
40
0.930168712116189
40
1
40
1
40
1
40
1
41
1
10
19.0144045695745
20
13.9054138132724
30
0
41
1
10
19.0056838269677
20
13.9017911727437
30
0
41
1
10
18.9964575239281
20
13.8992791157228
30
0
41
1
10
18.9742443400321
20
13.8966898398205
30
0
41
1
10
18.9607899878012
20
13.8979025718393
30
0
41
1
10
18.9352938298031
20
13.9055321945872
30
0
41
1
10
18.9229171828207
20
13.9119583901519
30
0
41
1
10
18.8900383503246
20
13.9355541272659
30
0
41
1
10
18.8716654029004
20
13.9574842022461
30
0
41
1
10
18.8489346302382
20
13.9933353695932
30
0
41
1
10
18.8419099960119
20
14.0063289035537
30
0
41
1
10
18.8270706155498
20
14.0376583032747
30
0
41
1
10
18.8197864547071
20
14.0563691164083
30
0
41
1
10
18.8073015357575
20
14.0944267020406
30
0
41
1
10
18.8020771857722
20
14.1138492386309
30
0
41
1
10
18.7934028207815
20
14.1530542364948
30
0
41
1
10
18.7899428061981
20
14.1728863666438
30
0
41
1
10
18.7846231103241
20
14.2127352033497
30
0
41
1
10
18.7827588907743
20
14.2327897640805
30
0
41
1
10
18.7809740720183
20
14.2652175340793
30
0
41
1
10
18.7805814195549
20
14.277584042557
30
0
41
1
10
18.7804735087811
20
14.2899493924549
30
0
0
SPLINE
5
FE
100
AcDbEntity
8
1
62
256
6
ByLayer
370
18
48
1
60
0
100
AcDbSpline
70
4
71
3
72
26
73
22
40
0
40
0
40
0
40
0
40
0.0611212350797136
40
0.0611212350797136
40
0.145349009858793
40
0.145349009858793
40
0.228936526328742
40
0.228936526328742
40
0.391532191220704
40
0.391532191220704
40
0.475817926908342
40
0.475817926908342
40
0.5895575592736
40
0.5895575592736
40
0.703149060376446
40
0.703149060376446
40
0.816673845780353
40
0.816673845780353
40
0.930168712116205
40
0.930168712116205
40
1
40
1
40
1
40
1
41
1
10
20.8323254221357
20
15.7533203934479
30
0
41
1
10
20.8335484947125
20
15.7626840983496
30
0
41
1
10
20.8359861410364
20
15.7719303396755
30
0
41
1
10
20.8448503542756
20
15.7924621591795
30
0
41
1
10
20.8526277871273
20
15.8035076039935
30
0
41
1
10
20.8719833132473
20
15.8217731131447
30
0
41
1
10
20.8837368853473
20
15.8292785060628
30
0
41
1
10
20.9206108093571
20
15.8459545416942
30
0
41
1
10
20.9487892851089
20
15.8509009434159
30
0
41
1
10
20.9912026931179
20
15.8526607863155
30
0
41
1
10
21.0059677407258
20
15.8522475310275
30
0
41
1
10
21.0405194870006
20
15.8494341116235
30
0
41
1
10
21.0603656069211
20
15.8463869733918
30
0
41
1
10
21.0995669023602
20
15.8381704375502
30
0
41
1
10
21.118999487446
20
15.8329835890606
30
0
41
1
10
21.1572891940467
20
15.8208933105723
30
0
41
1
10
21.1761943298587
20
15.8139737060245
30
0
41
1
10
21.2133642826942
20
15.7986562794388
30
0
41
1
10
21.2316641515237
20
15.7902434605618
30
0
41
1
10
21.2606398335088
20
15.7755752739462
30
0
41
1
10
21.2715458702382
20
15.7697320667155
30
0
41
1
10
21.2823085327633
20
15.763642845238
30
0
0
SPLINE
5
FF
100
AcDbEntity
8
1
62
256
6
ByLayer
370
18
48
1
60
0
100
AcDbSpline
70
4
71
3
72
24
73
20
40
0
40
0
40
0
40
0
40
0.158126111966022
40
0.158126111966022
40
0.271563393607316
40
0.271563393607316
40
0.385066230469792
40
0.385066230469792
40
0.498714519310322
40
0.498714519310322
40
0.612721087896076
40
0.612721087896076
40
0.746221642583612
40
0.746221642583612
40
0.824913378297543
40
0.824913378297543
40
0.908986128606069
40
0.908986128606069
40
1
40
1
40
1
40
1
41
1
10
21.2823085327633
20
15.763642845238
30
0
41
1
10
21.3066668410603
20
15.7498615774809
30
0
41
1
10
21.3303497395467
20
15.7347944396053
30
0
41
1
10
21.3694499642956
20
15.7068163497284
30
0
41
1
10
21.3853523718894
20
15.6944645686017
30
0
41
1
10
21.4159736316583
20
15.6684622218971
30
0
41
1
10
21.4307287217132
20
15.654781818189
30
0
41
1
10
21.4586808100251
20
15.6260409066383
30
0
41
1
10
21.4719277292099
20
15.6109302814476
30
0
41
1
10
21.4962018623069
20
15.5792214210308
30
0
41
1
10
21.5073052195547
20
15.5625195921077
30
0
41
1
10
21.5275010887429
20
15.5248517034991
30
0
41
1
10
21.5361658603096
20
15.5031990133782
30
0
41
1
10
21.5429065714201
20
15.4684509963223
30
0
41
1
10
21.5438540224138
20
15.4552634413027
30
0
41
1
10
21.5415207207656
20
15.4291828222414
30
0
41
1
10
21.5378587145176
20
15.4160574576453
30
0
41
1
10
21.5254240364263
20
15.3921299267239
30
0
41
1
10
21.5160946157765
20
15.3812484798078
30
0
41
1
10
21.5052188996655
20
15.3726155812414
30
0
0
SPLINE
5
100
100
AcDbEntity
8
1
62
256
6
ByLayer
370
18
48
1
60
0
100
AcDbSpline
70
4
71
3
72
26
73
22
40
0
40
0
40
0
40
0
40
0.0611212350797655
40
0.0611212350797655
40
0.145349009858833
40
0.145349009858833
40
0.228936526328772
40
0.228936526328772
40
0.39153219122067
40
0.39153219122067
40
0.475817926908279
40
0.475817926908279
40
0.589557559273534
40
0.589557559273534
40
0.703149060376377
40
0.703149060376377
40
0.816673845780278
40
0.816673845780278
40
0.930168712116128
40
0.930168712116128
40
1
40
1
40
1
40
1
41
1
10
20.056067092583
20
15.7465460896344
30
0
41
1
10
20.0546807871024
20
15.7558870228388
30
0
41
1
10
20.0520821428821
20
15.7650893131235
30
0
41
1
10
20.0428609500465
20
15.7854633036797
30
0
41
1
10
20.0348919321436
20
15.7963713312993
30
0
41
1
10
20.0152205768744
20
15.8142962580164
30
0
41
1
10
20.0033378077327
20
15.8215953797094
30
0
41
1
10
19.9661784628486
20
15.837625336791
30
0
41
1
10
19.9379179522019
20
15.8420792029401
30
0
41
1
10
19.8954802904669
20
15.8430985617721
30
0
41
1
10
19.8807247039465
20
15.842427683813
30
0
41
1
10
19.8462273210089
20
15.8390116817874
30
0
41
1
10
19.8264374036433
20
15.835618645099
30
0
41
1
10
19.7873854770743
20
15.8267192037348
30
0
41
1
10
19.7680463746536
20
15.8211939998538
30
0
41
1
10
19.7299735042147
20
15.8084373152515
30
0
41
1
10
19.7111920114975
20
15.801188824479
30
0
41
1
10
19.6742950457802
20
15.7852250256874
30
0
41
1
10
19.6561447880437
20
15.7764941113749
30
0
41
1
10
19.6274295143497
20
15.7613224634164
30
0
41
1
10
19.61662711669
20
15.7552898095489
30
0
41
1
10
19.6059723649386
20
15.7490136811285
30
0
0
SPLINE
5
101
100
AcDbEntity
8
1
62
256
6
ByLayer
370
18
48
1
60
0
100
AcDbSpline
70
4
71
3
72
26
73
22
40
0
40
0
40
0
40
0
40
0.0611212350797065
40
0.0611212350797065
40
0.145349009858791
40
0.145349009858791
40
0.228936526328743
40
0.228936526328743
40
0.391532191220711
40
0.391532191220711
40
0.475817926908352
40
0.475817926908352
40
0.589557559273613
40
0.589557559273613
40
0.703149060376461
40
0.703149060376461
40
0.816673845780371
40
0.816673845780371
40
0.930168712116227
40
0.930168712116227
40
1
40
1
40
1
40
1
41
1
10
20.0812939310761
20
12.8558367196808
30
0
41
1
10
20.0800708584993
20
12.8464730147791
30
0
41
1
10
20.0776332121755
20
12.8372267734532
30
0
41
1
10
20.0687689989362
20
12.8166949539493
30
0
41
1
10
20.0609915660845
20
12.8056495091352
30
0
41
1
10
20.0416360399645
20
12.787383999984
30
0
41
1
10
20.0298824678646
20
12.7798786070659
30
0
41
1
10
19.9930085438547
20
12.7632025714345
30
0
41
1
10
19.9648300681029
20
12.7582561697128
30
0
41
1
10
19.9224166600939
20
12.7564963268133
30
0
41
1
10
19.907651612486
20
12.7569095821012
30
0
41
1
10
19.8730998662113
20
12.7597230015052
30
0
41
1
10
19.8532537462908
20
12.7627701397369
30
0
41
1
10
19.8140524508517
20
12.7709866755785
30
0
41
1
10
19.7946198657659
20
12.7761735240681
30
0
41
1
10
19.7563301591651
20
12.7882638025565
30
0
41
1
10
19.7374250233532
20
12.7951834071042
30
0
41
1
10
19.7002550705176
20
12.8105008336899
30
0
41
1
10
19.6819552016882
20
12.8189136525669
30
0
41
1
10
19.652979519703
20
12.8335818391825
30
0
41
1
10
19.6420734829736
20
12.8394250464132
30
0
41
1
10
19.6313108204485
20
12.8455142678907
30
0
0
SPLINE
5
102
100
AcDbEntity
8
1
62
256
6
ByLayer
370
18
48
1
60
0
100
AcDbSpline
70
4
71
3
72
8
73
4
40
0
40
0
40
0
40
0
40
1
40
1
40
1
40
1
41
1
10
21.9059614836884
20
13.9306480481714
30
0
41
1
10
21.8992972095391
20
13.9304436441493
30
0
41
1
10
21.8926320841163
20
13.9302392140174
30
0
41
1
10
21.8859660742338
20
13.9300347567576
30
0
0
SPLINE
5
103
100
AcDbEntity
8
1
62
256
6
ByLayer
370
18
48
1
60
0
100
AcDbSpline
70
4
71
3
72
30
73
26
40
0
40
0
40
0
40
0
40
0.0728681126376404
40
0.0728681126376404
40
0.12781259347739
40
0.12781259347739
40
0.199092397893152
40
0.199092397893152
40
0.288874798003796
40
0.288874798003796
40
0.393641276926116
40
0.393641276926116
40
0.499915621932664
40
0.499915621932664
40
0.631623646297547
40
0.631623646297547
40
0.73486891174339
40
0.73486891174339
40
0.796951047610411
40
0.796951047610411
40
0.859105215562918
40
0.859105215562918
40
0.921420364650245
40
0.921420364650245
40
1
40
1
40
1
40
1
41
1
10
20.8470234299573
20
12.8796209103342
30
0
41
1
10
20.8373455647897
20
12.89525601707
30
0
41
1
10
20.8242287813484
20
12.9092083106296
30
0
41
1
10
20.7984143352672
20
12.9305587462218
30
0
41
1
10
20.7862331599453
20
12.9388635813295
30
0
41
1
10
20.7568630369237
20
12.9560617632273
30
0
41
1
10
20.7391381042387
20
12.9644757302746
30
0
41
1
10
20.6977370673073
20
12.9809586825372
30
0
41
1
10
20.6735309099136
20
12.9884449676785
30
0
41
1
10
20.6199804106663
20
13.0014665111528
30
0
41
1
10
20.5902293211911
20
13.0065190372654
30
0
41
1
10
20.529781766049
20
13.0131007278375
30
0
41
1
10
20.4988684069285
20
13.0145964650022
30
0
41
1
10
20.4299643995981
20
13.01399514884
30
0
41
1
10
20.3916910965285
20
13.0109613692882
30
0
41
1
10
20.3250792621609
20
13.0005306612209
30
0
41
1
10
20.2961507773365
20
12.9941793920014
30
0
41
1
10
20.251485261877
20
12.9808706158743
30
0
41
1
10
20.2350126293155
20
12.9751370797322
30
0
41
1
10
20.203134936795
20
12.9620556864824
30
0
41
1
10
20.1876634345105
20
12.954680794651
30
0
41
1
10
20.1583146121847
20
12.9380372497937
30
0
41
1
10
20.1443428074683
20
12.9287118898958
30
0
41
1
10
20.1157972602282
20
12.9051818577986
30
0
41
1
10
20.1016519408623
20
12.8900462129724
30
0
41
1
10
20.0915242946971
20
12.8730277692648
30
0
0
SPLINE
5
104
100
AcDbEntity
8
1
62
256
6
ByLayer
370
18
48
1
60
0
100
AcDbSpline
70
4
71
3
72
24
73
20
40
0
40
0
40
0
40
0
40
0.158126111966005
40
0.158126111966005
40
0.271563393607301
40
0.271563393607301
40
0.385066230469781
40
0.385066230469781
40
0.498714519310311
40
0.498714519310311
40
0.612721087896064
40
0.612721087896064
40
0.746221642583611
40
0.746221642583611
40
0.824913378297538
40
0.824913378297538
40
0.908986128606075
40
0.908986128606075
40
1
40
1
40
1
40
1
41
1
10
21.3076469882732
20
12.8601434320002
30
0
41
1
10
21.2835329061508
20
12.8459391521004
30
0
41
1
10
21.2586429327449
20
12.8329627293137
30
0
41
1
10
21.2148630837878
20
12.8130899863259
30
0
41
1
10
21.1962149237532
20
12.8054939879317
30
0
41
1
10
21.1583856010645
20
12.7919763724283
30
0
41
1
10
21.1391604788918
20
12.7860382914597
30
0
41
1
10
21.1002940752051
20
12.7762015286681
30
0
41
1
10
21.0805844303304
20
12.7722846727275
30
0
41
1
10
21.0409866851359
20
12.7671170870191
30
0
41
1
10
21.020970798375
20
12.7658522120368
30
0
41
1
10
20.9782515153389
20
12.7671960205725
30
0
41
1
10
20.9551673498505
20
12.7705184533383
30
0
41
1
10
20.9217043287937
20
12.7820548348049
30
0
41
1
10
20.9098098456362
20
12.7878280956853
30
0
41
1
10
20.8883900178068
20
12.8028891037181
30
0
41
1
10
20.8788541217566
20
12.8126231764556
30
0
41
1
10
20.8643496111745
20
12.8353556890313
30
0
41
1
10
20.8595907120401
20
12.8488759277746
30
0
41
1
10
20.8575522606288
20
12.8626110234943
30
0
0
SPLINE
5
105
100
AcDbEntity
8
1
62
256
6
ByLayer
370
18
48
1
60
0
100
AcDbSpline
70
4
71
3
72
8
73
4
40
0
40
0
40
0
40
0
40
1
40
1
40
1
40
1
41
1
10
20.0665959232545
20
15.7295362027945
30
0
41
1
10
20.0630858531324
20
15.7352069080647
30
0
41
1
10
20.0595762487334
20
15.7408768609343
30
0
41
1
10
20.056067092583
20
15.7465460896344
30
0
0
SPLINE
5
106
100
AcDbEntity
8
1
62
256
6
ByLayer
370
18
48
1
60
0
100
AcDbSpline
70
4
71
3
72
30
73
26
40
0
40
0
40
0
40
0
40
0.0728681126376387
40
0.0728681126376387
40
0.127812593477387
40
0.127812593477387
40
0.199092397893152
40
0.199092397893152
40
0.288874798003794
40
0.288874798003794
40
0.393641276926118
40
0.393641276926118
40
0.499915621932664
40
0.499915621932664
40
0.631623646297549
40
0.631623646297549
40
0.734868911743394
40
0.734868911743394
40
0.796951047610413
40
0.796951047610413
40
0.859105215562921
40
0.859105215562921
40
0.921420364650245
40
0.921420364650245
40
1
40
1
40
1
40
1
41
1
10
19.4178670323294
20
13.2541647101409
30
0
41
1
10
19.4265684993697
20
13.2703635405983
30
0
41
1
10
19.4320931483127
20
13.2886991550543
30
0
41
1
10
19.4376759448768
20
13.3217303389413
30
0
41
1
10
19.4387775553934
20
13.3364319637718
30
0
41
1
10
19.438986556305
20
13.3704663273698
30
0
41
1
10
19.437410799172
20
13.390023552879
30
0
41
1
10
19.4309849360951
20
13.4341193787359
30
0
41
1
10
19.4253651705106
20
13.4588256685375
30
0
41
1
10
19.4098669083322
20
13.5117125330081
30
0
41
1
10
19.3993669795614
20
13.5400039953403
30
0
41
1
10
19.3748431132256
20
13.595643958976
30
0
41
1
10
19.3606817800474
20
13.623163581873
30
0
41
1
10
19.32570902131
20
13.6825355445625
30
0
41
1
10
19.3039450396139
20
13.7141643075317
30
0
41
1
10
19.2616058642643
20
13.766636494253
30
0
41
1
10
19.2416412613618
20
13.7885136623942
30
0
41
1
10
19.2077827654127
20
13.8205407453917
30
0
41
1
10
19.1945810611794
20
13.8319396955862
30
0
41
1
10
19.1673133960478
20
13.853005890498
30
0
41
1
10
19.1531908012295
20
13.8627171585954
30
0
41
1
10
19.1241026574111
20
13.8798122118721
30
0
41
1
10
19.109040756482
20
13.8872494697443
30
0
41
1
10
19.0743903773138
20
13.9002056227706
30
0
41
1
10
19.0542098647087
20
13.904888006273
30
0
41
1
10
19.0344076370425
20
13.9051495832786
30
0
0
SPLINE
5
107
100
AcDbEntity
8
1
62
256
6
ByLayer
370
18
48
1
60
0
100
AcDbSpline
70
4
71
3
72
8
73
4
40
0
40
0
40
0
40
0
40
1
40
1
40
1
40
1
41
1
10
19.0344076370425
20
13.9051495832786
30
0
41
1
10
19.0277390741544
20
13.9052376714848
30
0
41
1
10
19.0210713960647
20
13.9053257480032
30
0
41
1
10
19.0144045695745
20
13.9054138132724
30
0
0
SPLINE
5
108
100
AcDbEntity
8
1
62
256
6
ByLayer
370
18
48
1
60
0
100
AcDbSpline
70
4
71
3
72
26
73
22
40
0
40
0
40
0
40
0
40
0.0727938302381876
40
0.0727938302381876
40
0.127682300187045
40
0.127682300187045
40
0.198889441338103
40
0.198889441338103
40
0.288580316474639
40
0.288580316474639
40
0.393239995518948
40
0.393239995518948
40
0.499406003515903
40
0.499406003515903
40
0.600539842293539
40
0.600539842293539
40
0.795411350083003
40
0.795411350083003
40
0.921875057553229
40
0.921875057553229
40
1
40
1
40
1
40
1
41
1
10
19.3996930189512
20
15.3367003705783
30
0
41
1
10
19.4086758692889
20
15.3206558688206
30
0
41
1
10
19.4145196773969
20
15.3024194653863
30
0
41
1
10
19.4206780973204
20
15.2694907455432
30
0
41
1
10
19.4220361187881
20
15.2548105855959
30
0
41
1
10
19.4228390694142
20
15.2207850531652
30
0
41
1
10
19.4216048729251
20
15.2012033055623
30
0
41
1
10
19.4159495668133
20
15.1570020489389
30
0
41
1
10
19.4107618413587
20
15.1322014435908
30
0
41
1
10
19.3961889426944
20
15.0790521520752
30
0
41
1
10
19.3861843672119
20
15.0505817496464
30
0
41
1
10
19.3626352872393
20
14.994522259764
30
0
41
1
10
19.3489563945445
20
14.9667596788966
30
0
41
1
10
19.3193377258044
20
14.9144088591293
30
0
41
1
10
19.3034482779688
20
14.8895801854377
30
0
41
1
10
19.2536663187295
20
14.8207724096235
30
0
41
1
10
19.2159198827245
20
14.7788742270887
30
0
41
1
10
19.1470494553779
20
14.7233670681669
30
0
41
1
10
19.1175548667991
20
14.7044646297352
30
0
41
1
10
19.0675436456762
20
14.6847633589237
30
0
41
1
10
19.0474479255209
20
14.6797294900629
30
0
41
1
10
19.0276532789781
20
14.6791223563711
30
0
0
SPLINE
5
109
100
AcDbEntity
8
1
62
256
6
ByLayer
370
18
48
1
60
0
100
AcDbSpline
70
4
71
3
72
22
73
18
40
0
40
0
40
0
40
0
40
0.0535364695073648
40
0.0535364695073648
40
0.228890578638208
40
0.228890578638208
40
0.396151736670638
40
0.396151736670638
40
0.491846194831912
40
0.491846194831912
40
0.647881434200702
40
0.647881434200702
40
0.803676806371389
40
0.803676806371389
40
0.963172489073412
40
0.963172489073412
40
1
40
1
40
1
40
1
41
1
10
15.5937889197884
20
2.94898831177798
30
0
41
1
10
15.5760677251108
20
2.97239501803361
30
0
41
1
10
15.5563603245186
20
2.99752679666386
30
0
41
1
10
15.4646834604846
20
3.11083781761911
30
0
41
1
10
15.3728935456852
20
3.2158750503684
30
0
41
1
10
15.1647162936779
20
3.438930143607
30
0
41
1
10
15.0465447710248
20
3.5593884535582
30
0
41
1
10
14.8499391751184
20
3.75015495718827
30
0
41
1
10
14.7748141734613
20
3.82115332985887
30
0
41
1
10
14.5766261283147
20
4.00356333086683
30
0
41
1
10
14.4496853115014
20
4.11544591679231
30
0
41
1
10
14.2084027452543
20
4.31907973569724
30
0
41
1
10
14.0908091048756
20
4.41362460243227
30
0
41
1
10
13.8774386940648
20
4.57678542622719
30
0
41
1
10
13.7794179184393
20
4.64694131828821
30
0
41
1
10
13.6794741775933
20
4.71297250713553
30
0
41
1
10
13.6614396930499
20
4.724602412134
30
0
41
1
10
13.6442980276689
20
4.73536758969007
30
0
0
SPLINE
5
10A
100
AcDbEntity
8
1
62
256
6
ByLayer
370
18
48
1
60
0
100
AcDbSpline
70
4
71
3
72
8
73
4
40
0
40
0
40
0
40
0
40
1
40
1
40
1
40
1
41
1
10
15.4980926811826
20
-0.397064113248035
30
0
41
1
10
14.0516772131978
20
-2.12991667025079
30
0
41
1
10
12.4675754527577
20
-3.72433173099645
30
0
41
1
10
10.7462029632869
20
-5.1810810502929
30
0
0
SPLINE
5
10B
100
AcDbEntity
8
1
62
256
6
ByLayer
370
18
48
1
60
0
100
AcDbSpline
70
4
71
3
72
10
73
6
40
0
40
0
40
0
40
0
40
0.556505820577626
40
0.556505820577626
40
1
40
1
40
1
40
1
41
1
10
4.2943182874497
20
13.5316546338109
30
0
41
1
10
4.29432144163411
20
13.5316641243916
30
0
41
1
10
4.29715754612513
20
13.5401976391141
30
0
41
1
10
4.30620773082828
20
13.5697582170708
30
0
41
1
10
4.31167266494839
20
13.5881782209178
30
0
41
1
10
4.31775814129617
20
13.610889527836
30
0
0
SPLINE
5
10C
100
AcDbEntity
8
1
62
256
6
ByLayer
370
18
48
1
60
0
100
AcDbSpline
70
4
71
3
72
11
73
7
40
0
40
0
40
0
40
0
40
0.208320254876602
40
0.208320254876602
40
0.208320254876602
40
1
40
1
40
1
40
1
41
1
10
11.311800798061
20
7.10132283664484
30
0
41
1
10
11.3904826921945
20
7.02922416421961
30
0
41
1
10
11.4692731766006
20
6.9570259871424
30
0
41
1
10
11.5474609131898
20
6.88538012667976
30
0
41
1
10
11.840723615047
20
6.61665437079142
30
0
41
1
10
12.129022576538
20
6.35247704494048
30
0
41
1
10
12.3976396127609
20
6.10633488077724
30
0
0
SPLINE
5
10D
100
AcDbEntity
8
1
62
256
6
ByLayer
370
18
48
1
60
0
100
AcDbSpline
70
4
71
3
72
8
73
4
40
0
40
0
40
0
40
0
40
1
40
1
40
1
40
1
41
1
10
18.1061067380464
20
0.367947021208494
30
0
41
1
10
17.6951332785626
20
-0.264896610108337
30
0
41
1
10
17.2842206738477
20
-0.897646533298598
30
0
41
1
10
16.8733860190396
20
-1.53027642415844
30
0
0
SPLINE
5
10E
100
AcDbEntity
8
1
62
256
6
ByLayer
370
18
48
1
60
0
100
AcDbSpline
70
4
71
3
72
8
73
4
40
0
40
0
40
0
40
0
40
1
40
1
40
1
40
1
41
1
10
15.7165914137166
20
3.07434334697283
30
0
41
1
10
16.1564097355267
20
2.69465614499487
30
0
41
1
10
16.5972565190819
20
2.29603499270033
30
0
41
1
10
17.0681927065302
20
1.82656148105289
30
0
0
SPLINE
5
10F
100
AcDbEntity
8
1
62
256
6
ByLayer
370
18
48
1
60
0
100
AcDbSpline
70
4
71
3
72
8
73
4
40
0
40
0
40
0
40
0
40
1
40
1
40
1
40
1
41
1
10
16.8733860190396
20
-1.53027642415844
30
0
41
1
10
16.4177816224204
20
-2.23184567187224
30
0
41
1
10
15.9621519228966
20
-2.93345388264231
30
0
41
1
10
15.5063478569232
20
-3.63533059419885
30
0
0
SPLINE
5
110
100
AcDbEntity
8
1
62
256
6
ByLayer
370
18
48
1
60
0
100
AcDbSpline
70
4
71
3
72
11
73
7
40
0
40
0
40
0
40
0
40
0.308620704605899
40
0.308620704605899
40
0.308620704605899
40
1
40
1
40
1
40
1
41
1
10
17.0681927065306
20
1.82656148105258
30
0
41
1
10
17.1739378214295
20
1.72966393577064
30
0
41
1
10
17.2821133290277
20
1.6305393458932
30
0
41
1
10
17.3923107138503
20
1.52956204688508
30
0
41
1
10
17.6367603912908
20
1.3055651869679
30
0
41
1
10
17.8963175653087
20
1.06772485697542
30
0
41
1
10
18.1540315212301
20
0.831573525185206
30
0
0
SPLINE
5
111
100
AcDbEntity
8
1
62
256
6
ByLayer
370
18
48
1
60
0
100
AcDbSpline
70
4
71
3
72
18
73
14
40
0
40
0
40
0
40
0
40
0.0315433937393509
40
0.0315433937393509
40
0.258126553373235
40
0.258126553373235
40
0.484499472729124
40
0.484499472729124
40
0.710270787220556
40
0.710270787220556
40
0.93542113746845
40
0.93542113746845
40
1
40
1
40
1
40
1
41
1
10
15.3374416900653
20
2.68731271402865
30
0
41
1
10
15.3631418224425
20
2.66224097470337
30
0
41
1
10
15.3882571481483
20
2.63655453089265
30
0
41
1
10
15.586800199205
20
2.42366230248263
30
0
41
1
10
15.731067465574
20
2.20437434562692
30
0
41
1
10
15.9358858279241
20
1.73702010773033
30
0
41
1
10
15.9993390614507
20
1.48251033621648
30
0
41
1
10
16.0376710186354
20
0.974614712222632
30
0
41
1
10
16.0133028904413
20
0.714209713019358
30
0
41
1
10
15.8817840491428
20
0.223872492516193
30
0
41
1
10
15.7730515578531
20
-0.012887790449895
30
0
41
1
10
15.5891577140663
20
-0.282430207801553
30
0
41
1
10
15.5449531350608
20
-0.340923772438316
30
0
41
1
10
15.4980926811826
20
-0.397064113248092
30
0
0
SPLINE
5
112
100
AcDbEntity
8
1
62
256
6
ByLayer
370
18
48
1
60
0
100
AcDbSpline
70
4
71
3
72
8
73
4
40
0
40
0
40
0
40
0
40
1
40
1
40
1
40
1
41
1
10
5.96766098862761
20
-0.802354072561769
30
0
41
1
10
7.26866320316708
20
1.03918268617352
30
0
41
1
10
8.7189065216391
20
2.75625228613154
30
0
41
1
10
10.3193188190744
20
4.34840781978795
30
0
0
SPLINE
5
113
100
AcDbEntity
8
1
62
256
6
ByLayer
370
18
48
1
60
0
100
AcDbSpline
70
4
71
3
72
8
73
4
40
0
40
0
40
0
40
0
40
1
40
1
40
1
40
1
41
1
10
13.4059603177786
20
4.45718930748885
30
0
41
1
10
14.0677214401033
20
3.88780201764686
30
0
41
1
10
14.7125448086262
20
3.2969302633345
30
0
41
1
10
15.3374416900653
20
2.68731271402865
30
0
0
SPLINE
5
114
100
AcDbEntity
8
1
62
256
6
ByLayer
370
18
48
1
60
0
100
AcDbSpline
70
4
71
3
72
18
73
14
40
0
40
0
40
0
40
0
40
0.0372883163336224
40
0.0372883163336224
40
0.263316820161001
40
0.263316820161001
40
0.488556377546507
40
0.488556377546507
40
0.713646505086804
40
0.713646505086804
40
0.939281522075084
40
0.939281522075084
40
1
40
1
40
1
40
1
41
1
10
10.3193188190744
20
4.34840781978795
30
0
41
1
10
10.349318308119
20
4.37825253703099
30
0
41
1
10
10.3801703969183
20
4.40727276929286
30
0
41
1
10
10.6016390680388
20
4.6041947176318
30
0
41
1
10
10.8234846530875
20
4.74266468200651
30
0
41
1
10
11.2935147992842
20
4.93525975363096
30
0
41
1
10
11.5480753674062
20
4.99232630472426
30
0
41
1
10
12.0546907698859
20
5.01882095574521
30
0
41
1
10
12.3137083808047
20
4.9886815342015
30
0
41
1
10
12.8012209973976
20
4.84657155616156
30
0
41
1
10
13.0363508473919
20
4.7324582242727
30
0
41
1
10
13.2993522244341
20
4.54478430672677
30
0
41
1
10
13.353705399687
20
4.50215007231679
30
0
41
1
10
13.4059603177786
20
4.45718930748885
30
0
0
SPLINE
5
115
100
AcDbEntity
8
1
62
256
6
ByLayer
370
18
48
1
60
0
100
AcDbSpline
70
4
71
3
72
26
73
22
40
0
40
0
40
0
40
0
40
0.0585516983745341
40
0.0585516983745341
40
0.175275170299091
40
0.175275170299091
40
0.292445669230853
40
0.292445669230853
40
0.409598401059318
40
0.409598401059318
40
0.526064442013779
40
0.526064442013779
40
0.641917060217419
40
0.641917060217419
40
0.757923441200854
40
0.757923441200854
40
0.874669501653762
40
0.874669501653762
40
0.991918820092212
40
0.991918820092212
40
1
40
1
40
1
40
1
41
1
10
10.7462029632869
20
-5.1810810502929
30
0
41
1
10
10.6060753750741
20
-5.29966710298763
30
0
41
1
10
10.4553830133473
20
-5.4066651696582
30
0
41
1
10
9.98339197844703
20
-5.68492924159261
30
0
41
1
10
9.63332050556579
20
-5.81818979808779
30
0
41
1
10
8.91701947310116
20
-5.95980166324506
30
0
41
1
10
8.54080813700818
20
-5.96963589456041
30
0
41
1
10
7.8157042928033
20
-5.865260167607
30
0
41
1
10
7.45673050645595
20
-5.74958006949464
30
0
41
1
10
6.80786735803605
20
-5.41107833147782
30
0
41
1
10
6.50862883148872
20
-5.18417795727928
30
0
41
1
10
6.01006402017222
20
-4.65327916868162
30
0
41
1
10
5.80337454171664
20
-4.34241835818418
30
0
41
1
10
5.50750363043201
20
-3.67951929784624
30
0
41
1
10
5.41438908758386
20
-3.31836404687826
30
0
41
1
10
5.35256635581447
20
-2.59377670852018
30
0
41
1
10
5.38377804360118
20
-2.22035858249364
30
0
41
1
10
5.56592335043956
20
-1.51308479470276
30
0
41
1
10
5.71991736013985
20
-1.16959709169785
30
0
41
1
10
5.93837863102172
20
-0.844326560267262
30
0
41
1
10
5.95289645386737
20
-0.823252909767945
30
0
41
1
10
5.96766098862759
20
-0.802354072561741
30
0
0
SPLINE
5
116
100
AcDbEntity
8
1
62
256
6
ByLayer
370
18
48
1
60
0
100
AcDbSpline
70
4
71
3
72
8
73
4
40
0
40
0
40
0
40
0
40
1
40
1
40
1
40
1
41
1
10
12.3976396127609
20
6.10633488077724
30
0
41
1
10
12.9063714291624
20
5.67810806030965
30
0
41
1
10
13.341898036525
20
5.27368095443705
30
0
41
1
10
13.7584731065393
20
4.86862819425357
30
0
0
SPLINE
5
117
100
AcDbEntity
8
1
62
256
6
ByLayer
370
18
48
1
60
0
100
AcDbSpline
70
4
71
3
72
18
73
14
40
0
40
0
40
0
40
0
40
0.0203676344849538
40
0.0203676344849538
40
0.0904676656910933
40
0.0904676656910933
40
0.318076695405388
40
0.318076695405388
40
0.545462898242904
40
0.545462898242904
40
0.772727523889698
40
0.772727523889698
40
1
40
1
40
1
40
1
41
1
10
12.4315400215889
20
6.7534417318108
30
0
41
1
10
12.4283208117836
20
6.7496000235038
30
0
41
1
10
12.4251012237324
20
6.7457578959112
30
0
41
1
10
12.4106650168813
20
6.72853001615962
30
0
41
1
10
12.3994490934407
20
6.71514476577451
30
0
41
1
10
12.3526799570009
20
6.65932816954597
30
0
41
1
10
12.3173764104026
20
6.61719102315251
30
0
41
1
10
12.2533272495857
20
6.54073788915173
30
0
41
1
10
12.2236943450465
20
6.50536285791836
30
0
41
1
10
12.1740972876052
20
6.44615171101691
30
0
41
1
10
12.1534457231771
20
6.42149503079949
30
0
41
1
10
12.1238464961306
20
6.38615443012
30
0
41
1
10
12.1144915764255
20
6.37498432959345
30
0
41
1
10
12.1113587296221
20
6.37124362336152
30
0
0
SPLINE
5
118
100
AcDbEntity
8
1
62
256
6
ByLayer
370
18
48
1
60
0
100
AcDbSpline
70
4
71
3
72
14
73
10
40
0
40
0
40
0
40
0
40
0.27386868957079
40
0.27386868957079
40
0.584706410751115
40
0.584706410751115
40
0.900400534459654
40
0.900400534459654
40
1
40
1
40
1
40
1
41
1
10
15.4900775100282
20
2.8431211831508
30
0
41
1
10
15.5576194674925
20
2.79395433401911
30
0
41
1
10
15.6089961542489
20
2.75690581082577
30
0
41
1
10
15.6839455254006
20
2.71634829483003
30
0
41
1
10
15.7039815708789
20
2.71771116810817
30
0
41
1
10
15.7043569749877
20
2.76663248964761
30
0
41
1
10
15.6841549818781
20
2.81530957383902
30
0
41
1
10
15.6279883311959
20
2.90207184300567
30
0
41
1
10
15.6121062111675
20
2.92479426241982
30
0
41
1
10
15.593788919788
20
2.94898831177829
30
0
0
SPLINE
5
119
100
AcDbEntity
8
1
62
256
6
ByLayer
370
18
48
1
60
0
100
AcDbSpline
70
4
71
3
72
8
73
4
40
0
40
0
40
0
40
0
40
1
40
1
40
1
40
1
41
1
10
14.143907484917
20
8.03816644841314
30
0
41
1
10
14.128509434779
20
8.07139867666083
30
0
41
1
10
14.113054972772
20
8.1047135897164
30
0
41
1
10
14.0975319920876
20
8.13812854687129
30
0
0
SPLINE
5
11A
100
AcDbEntity
8
1
62
256
6
ByLayer
370
18
48
1
60
0
100
AcDbSpline
70
4
71
3
72
14
73
10
40
0
40
0
40
0
40
0
40
0.174061546238231
40
0.174061546238231
40
0.483569780943407
40
0.483569780943407
40
0.806561214913147
40
0.806561214913147
40
1
40
1
40
1
40
1
41
1
10
13.644298027669
20
4.73536758968993
30
0
41
1
10
13.5995941021276
20
4.76344220701614
30
0
41
1
10
13.5599286514322
20
4.78460325913588
30
0
41
1
10
13.4681486046686
20
4.82594278060441
30
0
41
1
10
13.4294593835094
20
4.83321672446334
30
0
41
1
10
13.4019708659938
20
4.81276363907136
30
0
41
1
10
13.4153529701254
20
4.78314526462225
30
0
41
1
10
13.4768778492996
20
4.70443212795857
30
0
41
1
10
13.5090299559832
20
4.66742477299658
30
0
41
1
10
13.5478728003771
20
4.62282390492749
30
0
0
SPLINE
5
11B
100
AcDbEntity
8
1
62
256
6
ByLayer
370
18
48
1
60
0
100
AcDbSpline
70
4
71
3
72
20
73
16
40
0
40
0
40
0
40
0
40
0.105893667587059
40
0.105893667587059
40
0.276944832374723
40
0.276944832374723
40
0.441499844447215
40
0.441499844447215
40
0.601700663366426
40
0.601700663366426
40
0.760587905795264
40
0.760587905795264
40
0.921243639340629
40
0.921243639340629
40
1
40
1
40
1
40
1
41
1
10
13.5478728003771
20
4.62282390492751
30
0
41
1
10
13.5857688926802
20
4.57931013451457
30
0
41
1
10
13.6318131778909
20
4.52927988974616
30
0
41
1
10
13.7696246180038
20
4.38525619402179
30
0
41
1
10
13.8745446581918
20
4.28065071219987
30
0
41
1
10
14.1012727835434
20
4.06126567498384
30
0
41
1
10
14.2254760333944
20
3.9439108595673
30
0
41
1
10
14.4747800924177
20
3.71259095890488
30
0
41
1
10
14.6031952334863
20
3.59543331109455
30
0
41
1
10
14.8483388832204
20
3.3756996251185
30
0
41
1
10
14.9684741123235
20
3.27005037051774
30
0
41
1
10
15.1873480922566
20
3.08254652507443
30
0
41
1
10
15.2887846865302
20
2.99846571363094
30
0
41
1
10
15.4165023087001
20
2.89795751168705
30
0
41
1
10
15.455266432867
20
2.86846174245861
30
0
41
1
10
15.4900775100284
20
2.84312118315057
30
0
0
SPLINE
5
11C
100
AcDbEntity
8
1
62
256
6
ByLayer
370
18
48
1
60
0
100
AcDbSpline
70
4
71
3
72
18
73
14
40
0
40
0
40
0
40
0
40
0.0203676344849542
40
0.0203676344849542
40
0.0904676656911255
40
0.0904676656911255
40
0.318076695405413
40
0.318076695405413
40
0.545462898242926
40
0.545462898242926
40
0.772727523889711
40
0.772727523889711
40
1
40
1
40
1
40
1
41
1
10
17.7098825053179
20
1.91673196682936
30
0
41
1
10
17.7063359884925
20
1.91319018014841
30
0
41
1
10
17.7027890869433
20
1.90964798011765
30
0
41
1
10
17.6868849628061
20
1.89376519873633
30
0
41
1
10
17.6745281794778
20
1.88142535383139
30
0
41
1
10
17.6230001810734
20
1.82996945117387
30
0
41
1
10
17.584100286069
20
1.79112775093753
30
0
41
1
10
17.5135203315083
20
1.7206589868353
30
0
41
1
10
17.4808625907536
20
1.68805570732249
30
0
41
1
10
17.4261994285218
20
1.63348679017133
30
0
41
1
10
17.4034364768534
20
1.61076483990271
30
0
41
1
10
17.3708101004471
20
1.57819811055
30
0
41
1
10
17.3604978405006
20
1.56790525073075
30
0
41
1
10
17.3570444143753
20
1.5644583013252
30
0
0
LINE
5
8B
100
AcDbEntity
8
1
62
256
6
ByLayer
370
13
48
1
60
0
100
AcDbLine
10
23.291344
20
9.853564
30
0
11
28.939694
21
18.892813
31
0
39
0
210
0
220
0
230
1
0
LINE
5
8C
100
AcDbEntity
8
1
62
256
6
ByLayer
370
13
48
1
60
0
100
AcDbLine
10
28.582354
20
19.499456
30
0
11
17.938074
21
18.941613
31
0
39
0
210
0
220
0
230
1
0
LINE
5
8D
100
AcDbEntity
8
1
62
256
6
ByLayer
370
13
48
1
60
0
100
AcDbLine
10
17.622275
20
18.755594
30
0
11
11.973925
21
9.716344
31
0
39
0
210
0
220
0
230
1
0
LINE
5
8E
100
AcDbEntity
8
1
62
256
6
ByLayer
370
13
48
1
60
0
100
AcDbLine
10
12.331265
20
9.109701
30
0
11
22.975546
21
9.667544
31
0
39
0
210
0
220
0
230
1
0
LINE
5
8F
100
AcDbEntity
8
1
62
256
6
ByLayer
370
18
48
1
60
0
100
AcDbLine
10
9.749564
20
-12.5
30
0
11
15.506348
21
-3.635331
31
0
39
0
210
0
220
0
230
1
0
LINE
5
90
100
AcDbEntity
8
1
62
256
6
ByLayer
370
18
48
1
60
0
100
AcDbLine
10
0
20
12.425
30
0
11
2.772277
21
12.425
31
0
39
0
210
0
220
0
230
1
0
LINE
5
91
100
AcDbEntity
8
1
62
256
6
ByLayer
370
18
48
1
60
0
100
AcDbLine
10
18.106107
20
0.367947
30
0
11
18.312744
21
0.68614
31
0
39
0
210
0
220
0
230
1
0
LINE
5
92
100
AcDbEntity
8
1
62
256
6
ByLayer
370
18
48
1
60
0
100
AcDbLine
10
22.990244
20
7.88886
30
0
11
18.58885
21
1.111307
31
0
39
0
210
0
220
0
230
1
0
LINE
5
93
100
AcDbEntity
8
1
62
256
6
ByLayer
370
18
48
1
60
0
100
AcDbLine
10
18.312744
20
0.68614
30
0
11
18.154032
21
0.831574
31
0
39
0
210
0
220
0
230
1
0
LINE
5
94
100
AcDbEntity
8
1
62
256
6
ByLayer
370
18
48
1
60
0
100
AcDbLine
10
11.311801
20
7.101323
30
0
11
4.29432
21
13.531659
31
0
39
0
210
0
220
0
230
1
0
LINE
5
95
100
AcDbEntity
8
1
62
256
6
ByLayer
370
18
48
1
60
0
100
AcDbLine
10
4.441987
20
14.074518
30
0
11
4.317758
21
13.61089
31
0
39
0
210
0
220
0
230
1
0
LINE
5
96
100
AcDbEntity
8
1
62
256
6
ByLayer
370
18
48
1
60
0
100
AcDbLine
10
0
20
-12.5
30
0
11
9.749564
21
-12.5
31
0
39
0
210
0
220
0
230
1
0
LINE
5
97
100
AcDbEntity
8
1
62
256
6
ByLayer
370
18
48
1
60
0
100
AcDbLine
10
5.512605
20
18.07012
30
0
11
4.441987
21
14.074518
31
0
39
0
210
0
220
0
230
1
0
LINE
5
98
100
AcDbEntity
8
1
62
256
6
ByLayer
370
18
48
1
60
0
100
AcDbLine
10
0
20
12.425
30
0
11
0
21
-12.5
31
0
39
0
210
0
220
0
230
1
0
LINE
5
99
100
AcDbEntity
8
1
62
256
6
ByLayer
370
18
48
1
60
0
100
AcDbLine
10
18.58885
20
1.111307
30
0
11
18.312744
21
0.68614
31
0
39
0
210
0
220
0
230
1
0
LINE
5
9A
100
AcDbEntity
8
SK1
62
256
6
ByLayer
370
18
48
1
60
0
100
AcDbLine
10
-0.488028
20
-12.5
30
0
11
0
21
-12.5
31
0
39
0
210
0
220
0
230
1
0
LINE
5
9C
100
AcDbEntity
8
SK1
62
256
6
ByLayer
370
18
48
1
60
0
100
AcDbLine
10
-81
20
12.425
30
0
11
-84
21
9.425
31
0
39
0
210
0
220
0
230
1
0
LINE
5
9D
100
AcDbEntity
8
SK1
62
256
6
ByLayer
370
18
48
1
60
0
100
AcDbLine
10
-1.227723
20
-12.5
30
0
11
-0.488028
21
-12.5
31
0
39
0
210
0
220
0
230
1
0
LINE
5
9E
100
AcDbEntity
8
SK1
62
256
6
ByLayer
370
18
48
1
60
0
100
AcDbLine
10
-84
20
9.425
30
0
11
-84
21
-9.5
31
0
39
0
210
0
220
0
230
1
0
LINE
5
9F
100
AcDbEntity
8
SK1
62
256
6
ByLayer
370
18
48
1
60
0
100
AcDbLine
10
0
20
12.425
30
0
11
0
21
-12.5
31
0
39
0
210
0
220
0
230
1
0
LINE
5
A0
100
AcDbEntity
8
SK1
62
256
6
ByLayer
370
18
48
1
60
0
100
AcDbLine
10
-0.488028
20
12.425
30
0
11
0
21
12.425
31
0
39
0
210
0
220
0
230
1
0
LINE
5
A1
100
AcDbEntity
8
SK1
62
256
6
ByLayer
370
18
48
1
60
0
100
AcDbLine
10
-81
20
-12.5
30
0
11
-1.227723
21
-12.5
31
0
39
0
210
0
220
0
230
1
0
LINE
5
A2
100
AcDbEntity
8
SK1
62
256
6
ByLayer
370
18
48
1
60
0
100
AcDbLine
10
-81
20
12.425
30
0
11
-1.227723
21
12.425
31
0
39
0
210
0
220
0
230
1
0
LINE
5
A3
100
AcDbEntity
8
SK1
62
256
6
ByLayer
370
18
48
1
60
0
100
AcDbLine
10
-0.488028
20
12.425
30
0
11
-0.488028
21
-12.5
31
0
39
0
210
0
220
0
230
1
0
LINE
5
A4
100
AcDbEntity
8
SK1
62
256
6
ByLayer
370
18
48
1
60
0
100
AcDbLine
10
-81
20
-12.5
30
0
11
-84
21
-9.5
31
0
39
0
210
0
220
0
230
1
0
LINE
5
A5
100
AcDbEntity
8
SK1
62
256
6
ByLayer
370
18
48
1
60
0
100
AcDbLine
10
-1.227723
20
12.425
30
0
11
-0.488028
21
12.425
31
0
39
0
210
0
220
0
230
1
0
LINE
5
A6
100
AcDbEntity
8
SK1
62
256
6
ByLayer
370
13
48
1
60
0
100
AcDbLine
10
-1.227723
20
-12.5
30
0
11
-1.227723
21
12.425
31
0
39
0
210
0
220
0
230
1
0
LINE
5
A7
100
AcDbEntity
8
1
62
256
6
ByLayer
370
18
48
1
60
0
100
AcDbLine
10
15.508747
20
8.90834
30
0
11
15.746409
21
9.288678
31
0
39
0
210
0
220
0
230
1
0
LINE
5
A8
100
AcDbEntity
8
1
62
256
6
ByLayer
370
18
48
1
60
0
100
AcDbLine
10
15.593552
20
8.855348
30
0
11
15.868317
21
9.295064
31
0
39
0
210
0
220
0
230
1
0
LINE
5
A9
100
AcDbEntity
8
1
62
256
6
ByLayer
370
18
48
1
60
0
100
AcDbLine
10
5.512605
20
18.07012
30
0
11
17.589403
21
18.703038
31
0
39
0
210
0
220
0
230
1
0
LINE
5
AA
100
AcDbEntity
8
1
62
256
6
ByLayer
370
13
48
1
60
0
100
AcDbLine
10
9.936102
20
4.738539
30
0
11
8.819156
21
5.875635
31
0
39
0
210
0
220
0
230
1
0
LINE
5
AB
100
AcDbEntity
8
1
62
256
6
ByLayer
370
13
48
1
60
0
100
AcDbLine
10
15.920139
20
-0.744821
30
0
11
16.873386
21
-1.530276
31
0
39
0
210
0
220
0
230
1
0
LINE
5
AC
100
AcDbEntity
8
1
62
256
6
ByLayer
370
13
48
1
60
0
100
AcDbLine
10
11.132741
20
-5.631119
30
0
11
12.17127
21
-6.840256
31
0
39
0
210
0
220
0
230
1
0
LINE
5
AD
100
AcDbEntity
8
1
62
256
6
ByLayer
370
13
48
1
60
0
100
AcDbLine
10
5.485646
20
-0.45651
30
0
11
4.190597
21
0.472683
31
0
39
0
210
0
220
0
230
1
0
LINE
5
AE
100
AcDbEntity
8
1
62
256
6
ByLayer
370
13
48
1
60
0
100
AcDbLine
10
13.547873
20
4.622824
30
0
11
13.40596
21
4.457189
31
0
39
0
210
0
220
0
230
1
0
LINE
5
AF
100
AcDbEntity
8
1
62
256
6
ByLayer
370
13
48
1
60
0
100
AcDbLine
10
13.758473
20
4.868628
30
0
11
13.644298
21
4.735368
31
0
39
0
210
0
220
0
230
1
0
LINE
5
B0
100
AcDbEntity
8
1
62
256
6
ByLayer
370
13
48
1
60
0
100
AcDbLine
10
15.337442
20
2.687313
30
0
11
15.490078
21
2.843121
31
0
39
0
210
0
220
0
230
1
0
LINE
5
B1
100
AcDbEntity
8
1
62
256
6
ByLayer
370
13
48
1
60
0
100
AcDbLine
10
15.593789
20
2.948988
30
0
11
15.716591
21
3.074343
31
0
39
0
210
0
220
0
230
1
0
LINE
5
B2
100
AcDbEntity
8
1
62
256
6
ByLayer
370
13
48
1
60
0
100
AcDbLine
10
5.967661
20
-0.802354
30
0
11
5.485646
21
-0.45651
31
0
39
0
210
0
220
0
230
1
0
LINE
5
B3
100
AcDbEntity
8
1
62
256
6
ByLayer
370
13
48
1
60
0
100
AcDbLine
10
10.319319
20
4.348408
30
0
11
9.936102
21
4.738539
31
0
39
0
210
0
220
0
230
1
0
LINE
5
B4
100
AcDbEntity
8
1
62
256
6
ByLayer
370
13
48
1
60
0
100
AcDbLine
10
15.920139
20
-0.744821
30
0
11
15.498093
21
-0.397064
31
0
39
0
210
0
220
0
230
1
0
LINE
5
B5
100
AcDbEntity
8
1
62
256
6
ByLayer
370
13
48
1
60
0
100
AcDbLine
10
10.746203
20
-5.181081
30
0
11
11.132741
21
-5.631119
31
0
39
0
210
0
220
0
230
1
0
LINE
5
B6
100
AcDbEntity
8
1
62
256
6
ByLayer
370
13
48
1
60
0
100
AcDbLine
10
4.441987
20
14.074518
30
0
11
12.43154
21
6.753442
31
0
39
0
210
0
220
0
230
1
0
LINE
5
B7
100
AcDbEntity
8
1
62
256
6
ByLayer
370
13
48
1
60
0
100
AcDbLine
10
15.593552
20
8.855348
30
0
11
15.508747
21
8.90834
31
0
39
0
210
0
220
0
230
1
0
LINE
5
B8
100
AcDbEntity
8
1
62
256
6
ByLayer
370
13
48
1
60
0
100
AcDbLine
10
17.709883
20
1.916732
30
0
11
18.58885
21
1.111307
31
0
39
0
210
0
220
0
230
1
0
LINE
5
B9
100
AcDbEntity
8
80
62
256
6
ByLayer
370
18
48
1
60
0
100
AcDbLine
10
0
20
0
30
0
11
-5
21
0
31
0
39
0
210
0
220
0
230
1
0
LINE
5
BA
100
AcDbEntity
8
81
62
256
6
ByLayer
370
18
48
1
60
0
100
AcDbLine
10
29
20
19.5
30
0
11
34
21
19.5
31
0
39
0
210
0
220
0
230
1
0
LINE
5
BB
100
AcDbEntity
8
2
62
256
6
ByLayer
370
13
48
1
60
0
100
AcDbLine
10
27
20
19.5
30
0
11
19.886309
21
19.5
31
0
39
0
210
0
220
0
230
1
0
LINE
5
BC
100
AcDbEntity
8
2
62
256
6
ByLayer
370
13
48
1
60
0
100
AcDbLine
10
29.104672
20
21.497259
30
0
11
29.476974
21
28.601201
31
0
39
0
210
0
220
0
230
1
0
LINE
5
BD
100
AcDbEntity
8
1
62
256
6
ByLayer
370
13
48
1
60
0
100
AcDbLine
10
21.886309
20
19.5
30
0
11
21.818686
21
22.701681
31
0
39
0
210
0
220
0
230
1
0
LINE
5
BE
100
AcDbEntity
8
1
62
256
6
ByLayer
370
13
48
1
60
0
100
AcDbLine
10
21.886309
20
19.5
30
0
11
22.649647
21
22.610092
31
0
39
0
210
0
220
0
230
1
0
LINE
5
BF
100
AcDbEntity
8
1
62
256
6
ByLayer
370
13
48
1
60
0
100
AcDbLine
10
21.818686
20
22.701681
30
0
11
22.649647
21
22.610092
31
0
39
0
210
0
220
0
230
1
0
LINE
5
C0
100
AcDbEntity
8
1
62
256
6
ByLayer
370
13
48
1
60
0
100
AcDbLine
10
29.372302
20
26.603942
30
0
11
26.226525
21
26.00442
31
0
39
0
210
0
220
0
230
1
0
LINE
5
C1
100
AcDbEntity
8
1
62
256
6
ByLayer
370
13
48
1
60
0
100
AcDbLine
10
29.372302
20
26.603942
30
0
11
26.178544
21
26.839035
31
0
39
0
210
0
220
0
230
1
0
LINE
5
C2
100
AcDbEntity
8
1
62
256
6
ByLayer
370
13
48
1
60
0
100
AcDbLine
10
26.226525
20
26.00442
30
0
11
26.178544
21
26.839035
31
0
39
0
210
0
220
0
230
1
0
MTEXT
5
11D
100
AcDbEntity
8
2
62
256
6
ByLayer
370
18
48
1
60
0
100
AcDbMText
10
20.761776
20
22.896856
30
0
210
0
220
0
230
1
1
\W0.8292;93%%d0'
40
3
41
0
44
1.084337
50
39.5727452227697
71
7
72
5
7
iso_b_vert
0
MTEXT
5
120
100
AcDbEntity
8
SK6
62
256
6
ByLayer
370
18
48
1
60
0
100
AcDbMText
10
-43.928997
20
-50.967366
30
0
210
0
220
0
230
1
1
\W0.7520;QS-SDJCR252511C
40
3.5
41
0
44
1.084337
50
0
71
7
72
5
7
iso_b_vert
0
DIMENSION
5
123
100
AcDbEntity
8
2
62
256
6
ByLayer
370
18
48
1
60
0
100
AcDbDimension
2
_U0
10
34.522884
20
19.5
30
0
11
34.522884
21
3.5
31
0
70
32
71
1
72
1
41
1
210
0
220
0
230
1
3
Standard
100
AcDbAlignedDimension
13
22
23
-12.5
33
0
14
29
24
19.5
34
0
50
90
100
AcDbRotatedDimension
1001
ACAD
1000
DSTYLE
1002
{
1070
   371
1070
    13
1070
   372
1070
    13
1070
     3
1000

1070
   170
1070
     0
1070
   144
1040
1.0
1070
   277
1070
     2
1070
   284
1070
     8
1070
   278
1070
    46
1070
   146
1040
1.0
1070
   345
1005
16
1070
   347
1005
16
1070
   346
1005
16
1070
   344
1005
124
1070
   343
1005
124
1070
   172
1070
     1
1070
    76
1070
     0
1070
    75
1070
     0
1070
   282
1070
     0
1070
   281
1070
     0
1070
    71
1070
     0
1070
   272
1070
     4
1070
    74
1070
     0
1070
   279
1070
     0
1070
   173
1070
     1
1070
   340
1005
11E
1070
   271
1070
     1
1070
    77
1070
     1
1070
    73
1070
     0
1070
   171
1070
     3
1070
   274
1070
     4
1070
   177
1070
     2
1070
   176
1070
     2
1070
   178
1070
     7
1070
    78
1070
     8
1070
    41
1040
3.175
1070
   147
1040
1.75
1070
    42
1040
2.0
1070
    44
1040
2.0
1070
   140
1040
3.5
1002
}
1001
ACAD_DSTYLE_DIM_LINETYPE
1070
   380
1005
16
1001
ACAD_DSTYLE_DIM_EXT1_LINETYPE
1070
   381
1005
16
1001
ACAD_DSTYLE_DIM_EXT2_LINETYPE
1070
   382
1005
16
0
DIMENSION
5
147
100
AcDbEntity
8
SK2
62
256
6
ByLayer
370
18
48
1
60
0
100
AcDbDimension
2
_U1
10
-19.966021
20
-12.5
30
0
11
-19.966021
21
0
31
0
70
32
71
1
72
1
41
1
210
0
220
0
230
1
3
Standard
100
AcDbAlignedDimension
13
0
23
12.5
33
0
14
-84
24
-12.5
34
0
50
90
100
AcDbRotatedDimension
1001
ACAD
1000
DSTYLE
1002
{
1070
   371
1070
    13
1070
   372
1070
    13
1070
     3
1000

1070
   170
1070
     0
1070
   144
1040
1.0
1070
   277
1070
     2
1070
   284
1070
     8
1070
   278
1070
    46
1070
   146
1040
1.0
1070
   345
1005
16
1070
   347
1005
16
1070
   346
1005
16
1070
   344
1005
124
1070
   343
1005
124
1070
   172
1070
     1
1070
    76
1070
     0
1070
    75
1070
     0
1070
   282
1070
     0
1070
   281
1070
     0
1070
    71
1070
     0
1070
   272
1070
     4
1070
    74
1070
     0
1070
   279
1070
     0
1070
   173
1070
     1
1070
   340
1005
11E
1070
   271
1070
     1
1070
    77
1070
     1
1070
    73
1070
     0
1070
   171
1070
     3
1070
   274
1070
     4
1070
   177
1070
     2
1070
   176
1070
     2
1070
   178
1070
     7
1070
    78
1070
     8
1070
    41
1040
3.175
1070
   147
1040
1.75
1070
    42
1040
2.0
1070
    44
1040
2.0
1070
   140
1040
3.5
1002
}
1001
ACAD_DSTYLE_DIM_LINETYPE
1070
   380
1005
16
1001
ACAD_DSTYLE_DIM_EXT1_LINETYPE
1070
   381
1005
16
1001
ACAD_DSTYLE_DIM_EXT2_LINETYPE
1070
   382
1005
16
0
DIMENSION
5
163
100
AcDbEntity
8
SK2
62
256
6
ByLayer
370
18
48
1
60
0
100
AcDbDimension
2
_U2
10
29
20
-40.344955
30
0
11
-27.5
21
-40.344955
31
0
70
32
71
1
72
1
41
1
210
0
220
0
230
1
3
Standard
100
AcDbAlignedDimension
13
-84
23
-12.5
33
0
14
29
24
19.5
34
0
50
0
100
AcDbRotatedDimension
1001
ACAD
1000
DSTYLE
1002
{
1070
   371
1070
    13
1070
   372
1070
    13
1070
     3
1000

1070
   170
1070
     0
1070
   144
1040
1.0
1070
   277
1070
     2
1070
   284
1070
     8
1070
   278
1070
    46
1070
   146
1040
1.0
1070
   345
1005
16
1070
   347
1005
16
1070
   346
1005
16
1070
   344
1005
124
1070
   343
1005
124
1070
   172
1070
     1
1070
    76
1070
     0
1070
    75
1070
     0
1070
   282
1070
     0
1070
   281
1070
     0
1070
    71
1070
     0
1070
   272
1070
     4
1070
    74
1070
     0
1070
   279
1070
     0
1070
   173
1070
     1
1070
   340
1005
11E
1070
   271
1070
     1
1070
    77
1070
     1
1070
    73
1070
     1
1070
   171
1070
     3
1070
   274
1070
     4
1070
   177
1070
     2
1070
   176
1070
     2
1070
   178
1070
     7
1070
    78
1070
     8
1070
    41
1040
3.175
1070
   147
1040
1.75
1070
    42
1040
2.0
1070
    44
1040
2.0
1070
   140
1040
3.5
1002
}
1001
ACAD_DSTYLE_DIM_LINETYPE
1070
   380
1005
16
1001
ACAD_DSTYLE_DIM_EXT1_LINETYPE
1070
   381
1005
16
1001
ACAD_DSTYLE_DIM_EXT2_LINETYPE
1070
   382
1005
16
0
DIMENSION
5
17F
100
AcDbEntity
8
2
62
256
6
ByLayer
370
18
48
1
60
0
100
AcDbDimension
2
_U3
10
29
20
-25.6
30
0
11
14.5
21
-25.6
31
0
70
32
71
1
72
1
41
1
210
0
220
0
230
1
3
Standard
100
AcDbAlignedDimension
13
0
23
12.5
33
0
14
29
24
19.5
34
0
50
0
100
AcDbRotatedDimension
1001
ACAD
1000
DSTYLE
1002
{
1070
   371
1070
    13
1070
   372
1070
    13
1070
     3
1000

1070
   170
1070
     0
1070
   144
1040
1.0
1070
   277
1070
     2
1070
   284
1070
     8
1070
   278
1070
    46
1070
   146
1040
1.0
1070
   345
1005
16
1070
   347
1005
16
1070
   346
1005
16
1070
   344
1005
124
1070
   343
1005
124
1070
   172
1070
     1
1070
    76
1070
     0
1070
    75
1070
     0
1070
   282
1070
     0
1070
   281
1070
     0
1070
    71
1070
     0
1070
   272
1070
     4
1070
    74
1070
     0
1070
   279
1070
     0
1070
   173
1070
     1
1070
   340
1005
11E
1070
   271
1070
     1
1070
    77
1070
     1
1070
    73
1070
     1
1070
   171
1070
     3
1070
   274
1070
     4
1070
   177
1070
     2
1070
   176
1070
     2
1070
   178
1070
     7
1070
    78
1070
     8
1070
    41
1040
3.175
1070
   147
1040
1.75
1070
    42
1040
2.0
1070
    44
1040
2.0
1070
   140
1040
3.5
1002
}
1001
ACAD_DSTYLE_DIM_LINETYPE
1070
   380
1005
16
1001
ACAD_DSTYLE_DIM_EXT1_LINETYPE
1070
   381
1005
16
1001
ACAD_DSTYLE_DIM_EXT2_LINETYPE
1070
   382
1005
16
0
DIMENSION
5
19B
100
AcDbEntity
8
SK2
62
256
6
ByLayer
370
18
48
1
60
0
100
AcDbDimension
2
_U4
10
-81
20
-25.6
30
0
11
-66.483333
21
-25.6
31
0
70
32
71
1
72
1
41
1
210
0
220
0
230
1
3
Standard
100
AcDbAlignedDimension
13
-84
23
-12.5
33
0
14
-81
24
-12.5
34
0
50
0
100
AcDbRotatedDimension
1001
ACAD
1000
DSTYLE
1002
{
1070
   371
1070
    13
1070
   372
1070
    13
1070
     3
1000

1070
   170
1070
     0
1070
   144
1040
1.0
1070
   277
1070
     2
1070
   284
1070
     8
1070
   278
1070
    46
1070
   146
1040
1.0
1070
   345
1005
16
1070
   347
1005
16
1070
   346
1005
16
1070
   344
1005
124
1070
   343
1005
124
1070
   172
1070
     1
1070
    76
1070
     0
1070
    75
1070
     0
1070
   282
1070
     0
1070
   281
1070
     0
1070
    71
1070
     0
1070
   272
1070
     4
1070
   271
1070
     4
1070
    74
1070
     0
1070
   279
1070
     0
1070
   173
1070
     1
1070
   340
1005
11E
1070
    77
1070
     1
1070
    73
1070
     1
1070
   171
1070
     3
1070
   274
1070
     4
1070
   177
1070
     2
1070
   176
1070
     2
1070
   178
1070
     7
1070
    78
1070
     8
1070
    41
1040
3.175
1070
   147
1040
1.75
1070
    42
1040
2.0
1070
    44
1040
2.0
1070
   140
1040
3.5
1002
}
1001
ACAD_DSTYLE_DIM_LINETYPE
1070
   380
1005
16
1001
ACAD_DSTYLE_DIM_EXT1_LINETYPE
1070
   381
1005
16
1001
ACAD_DSTYLE_DIM_EXT2_LINETYPE
1070
   382
1005
16
0
ENDSEC
0
SECTION
2
OBJECTS
0
DICTIONARY
5
228
330
0
100
AcDbDictionary
280
0
281
1
3
ACAD_GROUP
350
229
3
ACAD_MLINESTYLE
350
22a
0
DICTIONARY
5
229
330
0
100
AcDbDictionary
280
0
281
1
0
DICTIONARY
5
22a
330
0
100
AcDbDictionary
280
0
281
1
3
Standard
350
18
0
MLINESTYLE
5
18
330
22a
100
AcDbMlineStyle
2
Standard
70
0
3

62
256
51
90
52
90
71
2
49
-0.5
62
256
6
ByLayer
49
0.5
62
256
6
ByLayer
0
RASTERVARIABLES
5
217
330

100
AcDbRasterVariables
90
0
70
1
71
1
72
1
0
ENDSEC
0
EOF
