0
SECTION
2
HEADER
9
$ACADVER
1
AC1015
9
$DWGCODEPAGE
3
ANSI_1252
9
$HANDSEED
5
236
9
$ANGBASE
50
0
9
$ANGDIR
70
0
9
$ATTMODE
70
1
9
$AUNITS
70
0
9
$AUPREC
70
0
9
$CECOLOR
62
256
9
$CELTSCALE
40
1
9
$CELTYPE
6
ByLayer
9
$CELWEIGHT
370
18
9
$CLAYER
8
0
9
$CMLJUST
70
0
9
$CMLSCALE
40
1
9
$CMLSTYLE
2
Standard
9
$DIMSTYLE
2
Standard
9
$TEXTSIZE
40
0.2
9
$TEXTSTYLE
7
Standard
9
$LUNITS
70
2
9
$LUPREC
70
4
9
$EXTNAMES
290
1
9
$INSUNITS
70
4
9
$LTSCALE
40
1
9
$LWDISPLAY
290
1
9
$PDMODE
70
0
9
$PDSIZE
40
0
9
$PLINEGEN
70
0
0
ENDSEC
0
SECTION
2
CLASSES
0
CLASS
1
RASTERVARIABLES
2
AcDbRasterVariables
3
ISM
90
0
280
0
281
0
0
ENDSEC
0
SECTION
2
TABLES
0
TABLE
2
VPORT
5
22c
100
AcDbSymbolTable
0
VPORT
5
1
100
AcDbSymbolTableRecord
100
AcDbViewportTableRecord
2
*Active
70
0
10
0
20
0
11
1
21
1
12
-1
22
1
13
0
23
0
14
0.5
24
0.5
15
10
25
10
16
0
26
0
36
1
17
0
27
0
37
0
0
ENDTAB
0
TABLE
2
LTYPE
5
22d
100
AcDbSymbolTable
0
LTYPE
5
14
100
AcDbSymbolTableRecord
100
AcDbLinetypeTableRecord
70
0
2
ByBlock
3

72
65
73
0
40
0
0
LTYPE
5
15
100
AcDbSymbolTableRecord
100
AcDbLinetypeTableRecord
70
0
2
ByLayer
3

72
65
73
0
40
0
0
LTYPE
5
16
100
AcDbSymbolTableRecord
100
AcDbLinetypeTableRecord
70
0
2
Continuous
3
Solid line
72
65
73
0
40
0
0
LTYPE
5
6E
100
AcDbSymbolTableRecord
100
AcDbLinetypeTableRecord
70
0
2
CENTER
3
____ _ ____ _ ____ _ ____
72
65
73
4
40
47.5
49
22
74
0
49
-8.5
74
0
49
8.5
74
0
49
-8.5
74
0
0
LTYPE
5
6F
100
AcDbSymbolTableRecord
100
AcDbLinetypeTableRecord
70
0
2
DASHED
3
__ __ __ __ __ __ __ __ __
72
65
73
2
40
25.72
49
12.86
74
0
49
-12.86
74
0
0
ENDTAB
0
TABLE
2
LAYER
5
22e
100
AcDbSymbolTable
0
LAYER
5
10
100
AcDbSymbolTableRecord
100
AcDbLayerTableRecord
2
0
70
0
62
7
6
Continuous
290
1
370
-3
390
0
0
LAYER
5
71
100
AcDbSymbolTableRecord
100
AcDbLayerTableRecord
2
2
70
0
62
7
6
Continuous
290
1
370
-3
390
0
0
LAYER
5
7D
100
AcDbSymbolTableRecord
100
AcDbLayerTableRecord
2
81
70
0
62
-3
6
Continuous
290
1
370
-3
390
0
0
LAYER
5
7F
100
AcDbSymbolTableRecord
100
AcDbLayerTableRecord
2
80
70
0
62
-6
6
Continuous
290
1
370
-3
390
0
0
LAYER
5
81
100
AcDbSymbolTableRecord
100
AcDbLayerTableRecord
2
1
70
0
62
4
6
Continuous
290
1
370
-3
390
0
0
LAYER
5
12D
100
AcDbSymbolTableRecord
100
AcDbLayerTableRecord
2
Defpoints
70
0
62
7
6
Continuous
290
0
370
-3
390
0
0
LAYER
5
219
100
AcDbSymbolTableRecord
100
AcDbLayerTableRecord
2
SK2
70
0
62
7
6
Continuous
290
1
370
-3
390
0
0
LAYER
5
21a
100
AcDbSymbolTableRecord
100
AcDbLayerTableRecord
2
SK1
70
0
62
4
6
Continuous
290
1
370
-3
390
0
0
LAYER
5
21b
100
AcDbSymbolTableRecord
100
AcDbLayerTableRecord
2
SK6
70
0
62
5
6
Continuous
290
1
370
-3
390
0
0
ENDTAB
0
TABLE
2
STYLE
5
22f
100
AcDbSymbolTable
0
STYLE
5
11
100
AcDbSymbolTableRecord
100
AcDbTextStyleTableRecord
2
Standard
3
txt
70
0
71
0
40
0
41
1
42
0
50
0
0
STYLE
5
11E
100
AcDbSymbolTableRecord
100
AcDbTextStyleTableRecord
2
iso_b_vert
3
simplex.shx
70
0
71
0
40
0
41
1
42
0
50
0
0
STYLE
5
11F
100
AcDbSymbolTableRecord
100
AcDbTextStyleTableRecord
2
DWGDirectTextStyle
3
simplex
70
0
71
0
40
0
41
1
42
0
50
0
0
ENDTAB
0
TABLE
2
DIMSTYLE
5
230
100
AcDbSymbolTable
100
AcDbDimStyleTable
0
DIMSTYLE
105
27
100
AcDbSymbolTableRecord
100
AcDbDimStyleTableRecord
2
Standard
70
0
3
<>
41
0.18
42
0.0625
44
0.18
140
0.18
147
0.09
73
0
74
0
77
1
271
2
275
0
278
52
280
0
340
11
0
ENDTAB
0
TABLE
2
VIEW
5
231
100
AcDbSymbolTable
0
ENDTAB
0
TABLE
2
UCS
5
232
100
AcDbSymbolTable
0
ENDTAB
0
TABLE
2
APPID
5
233
100
AcDbSymbolTable
0
APPID
5
12
100
AcDbSymbolTableRecord
100
AcDbRegAppTableRecord
2
ACAD
70
0
0
APPID
5
122
100
AcDbSymbolTableRecord
100
AcDbRegAppTableRecord
2
ACAD_DSTYLE_DIMBREAK
70
0
0
APPID
5
1D8
100
AcDbSymbolTableRecord
100
AcDbRegAppTableRecord
2
ACAD_DSTYLE_DIM_LINETYPE
70
0
0
APPID
5
1D9
100
AcDbSymbolTableRecord
100
AcDbRegAppTableRecord
2
ACAD_DSTYLE_DIM_EXT1_LINETYPE
70
0
0
APPID
5
1DA
100
AcDbSymbolTableRecord
100
AcDbRegAppTableRecord
2
ACAD_DSTYLE_DIM_EXT2_LINETYPE
70
0
0
APPID
5
215
100
AcDbSymbolTableRecord
100
AcDbRegAppTableRecord
2
ACAD_MLEADERVER
70
0
0
ENDTAB
0
TABLE
2
BLOCK_RECORD
5
234
100
AcDbSymbolTable
0
BLOCK_RECORD
5
1F
100
AcDbSymbolTableRecord
100
AcDbBlockTableRecord
2
*Model_Space
340
0
70
0
0
BLOCK_RECORD
5
1B
100
AcDbSymbolTableRecord
100
AcDbBlockTableRecord
2
*Paper_Space
340
0
70
0
0
BLOCK_RECORD
5
23
100
AcDbSymbolTableRecord
100
AcDbBlockTableRecord
2
*Paper_Space0
340
0
70
0
0
BLOCK_RECORD
5
124
100
AcDbSymbolTableRecord
100
AcDbBlockTableRecord
2
_Closed
340
0
70
0
0
BLOCK_RECORD
5
12E
100
AcDbSymbolTableRecord
100
AcDbBlockTableRecord
2
*D2
340
0
70
0
0
BLOCK_RECORD
5
13A
100
AcDbSymbolTableRecord
100
AcDbBlockTableRecord
2
_U0
340
0
70
0
0
BLOCK_RECORD
5
14A
100
AcDbSymbolTableRecord
100
AcDbBlockTableRecord
2
*D4
340
0
70
0
0
BLOCK_RECORD
5
157
100
AcDbSymbolTableRecord
100
AcDbBlockTableRecord
2
_U1
340
0
70
0
0
BLOCK_RECORD
5
167
100
AcDbSymbolTableRecord
100
AcDbBlockTableRecord
2
*D6
340
0
70
0
0
BLOCK_RECORD
5
173
100
AcDbSymbolTableRecord
100
AcDbBlockTableRecord
2
_U2
340
0
70
0
0
BLOCK_RECORD
5
183
100
AcDbSymbolTableRecord
100
AcDbBlockTableRecord
2
*D8
340
0
70
0
0
BLOCK_RECORD
5
18F
100
AcDbSymbolTableRecord
100
AcDbBlockTableRecord
2
_U3
340
0
70
0
0
BLOCK_RECORD
5
19F
100
AcDbSymbolTableRecord
100
AcDbBlockTableRecord
2
*D10
340
0
70
0
0
BLOCK_RECORD
5
1AD
100
AcDbSymbolTableRecord
100
AcDbBlockTableRecord
2
_U4
340
0
70
0
0
ENDTAB
0
ENDSEC
0
SECTION
2
BLOCKS
0
BLOCK
5
20
100
AcDbEntity
8
0
100
AcDbBlockBegin
2
*Model_Space
70
0
10
0
20
0
30
0
3
*Model_Space
0
ENDBLK
5
21
100
AcDbEntity
8
0
100
AcDbBlockEnd
0
BLOCK
5
1C
100
AcDbEntity
8
0
100
AcDbBlockBegin
2
*Paper_Space
70
0
10
0
20
0
30
0
3
*Paper_Space
0
ENDBLK
5
1D
100
AcDbEntity
8
0
100
AcDbBlockEnd
0
BLOCK
5
24
100
AcDbEntity
8
0
100
AcDbBlockBegin
2
*Paper_Space0
70
0
10
0
20
0
30
0
3
*Paper_Space0
0
ENDBLK
5
25
100
AcDbEntity
8
0
100
AcDbBlockEnd
0
BLOCK
5
125
100
AcDbEntity
8
0
100
AcDbBlockBegin
2
_Closed
70
0
10
0
20
0
30
0
3
_Closed
0
LINE
5
127
100
AcDbEntity
8
0
62
256
6
ByLayer
370
-2
48
1
60
0
100
AcDbLine
10
-1
20
0.166667
30
0
11
0
21
0
31
0
39
0
210
0
220
0
230
1
0
LINE
5
128
100
AcDbEntity
8
0
62
256
6
ByLayer
370
-2
48
1
60
0
100
AcDbLine
10
0
20
0
30
0
11
-1
21
-0.166667
31
0
39
0
210
0
220
0
230
1
0
LINE
5
129
100
AcDbEntity
8
0
62
256
6
ByLayer
370
-2
48
1
60
0
100
AcDbLine
10
-1
20
0.166667
30
0
11
-1
21
-0.166667
31
0
39
0
210
0
220
0
230
1
0
LINE
5
12A
100
AcDbEntity
8
0
62
256
6
ByLayer
370
-2
48
1
60
0
100
AcDbLine
10
0
20
0
30
0
11
-1
21
0
31
0
39
0
210
0
220
0
230
1
0
ENDBLK
5
126
100
AcDbEntity
8
0
100
AcDbBlockEnd
0
BLOCK
5
12F
100
AcDbEntity
8
0
100
AcDbBlockBegin
2
*D2
70
1
10
0
20
0
30
0
3
*D2
0
LINE
5
131
100
AcDbEntity
8
0
62
256
6
ByLayer
370
-2
48
1
60
0
100
AcDbLine
10
19
20
-10
30
0
11
36.522884
21
-10
31
0
39
0
210
0
220
0
230
1
0
LINE
5
132
100
AcDbEntity
8
0
62
256
6
ByLayer
370
-2
48
1
60
0
100
AcDbLine
10
26
20
15
30
0
11
36.522884
21
15
31
0
39
0
210
0
220
0
230
1
0
LINE
5
133
100
AcDbEntity
8
0
62
256
6
ByLayer
370
-2
48
1
60
0
100
AcDbLine
10
34.522884
20
-6.825
30
0
11
34.522884
21
11.825
31
0
39
0
210
0
220
0
230
1
0
SOLID
5
134
100
AcDbEntity
8
0
62
256
6
ByLayer
370
-1
48
1
60
0
100
AcDbTrace
10
33.993718
20
-6.825
30
0
11
35.052051
21
-6.825
31
0
12
34.522884
22
-10
32
0
13
34.522884
23
-10
33
0
39
0
210
0
220
0
230
1
0
SOLID
5
135
100
AcDbEntity
8
0
62
256
6
ByLayer
370
-1
48
1
60
0
100
AcDbTrace
10
35.052051
20
11.825
30
0
11
33.993718
21
11.825
31
0
12
34.522884
22
15
32
0
13
34.522884
23
15
33
0
39
0
210
0
220
0
230
1
0
MTEXT
5
136
100
AcDbEntity
8
0
62
256
6
ByLayer
370
18
48
1
60
0
100
AcDbMText
10
25.772884
20
2.5
30
0
210
0
220
0
230
1
1
\A1;25
40
3.5
41
0
44
1
50
90
71
5
72
5
7
iso_b_vert
0
POINT
5
137
100
AcDbEntity
8
Defpoints
62
0
6
ByLayer
370
-1
48
1
60
0
100
AcDbPoint
10
17
20
-10
30
0
39
0
210
0
220
0
230
1
50
360
0
POINT
5
138
100
AcDbEntity
8
Defpoints
62
0
6
ByLayer
370
-1
48
1
60
0
100
AcDbPoint
10
24
20
15
30
0
39
0
210
0
220
0
230
1
50
360
0
POINT
5
139
100
AcDbEntity
8
Defpoints
62
0
6
ByLayer
370
-1
48
1
60
0
100
AcDbPoint
10
34.522884
20
15
30
0
39
0
210
0
220
0
230
1
50
360
0
ENDBLK
5
130
100
AcDbEntity
8
0
100
AcDbBlockEnd
0
BLOCK
5
145
100
AcDbEntity
8
0
100
AcDbBlockBegin
2
_U0
70
0
10
0
20
0
30
0
3
_U0
0
MTEXT
5
13B
100
AcDbEntity
8
2
62
256
6
ByLayer
370
18
48
1
60
0
100
AcDbMText
10
33.833251
20
-1.449699
30
0
210
0
220
0
230
1
1
\W0.7346;25.0
40
3.5
41
0
44
1.084337
50
90
71
7
72
5
7
iso_b_vert
0
LINE
5
13C
100
AcDbEntity
8
2
62
256
6
ByLayer
370
13
48
1
60
0
100
AcDbLine
10
19
20
-10
30
0
11
36.522884
21
-10
31
0
39
0
210
0
220
0
230
1
0
LINE
5
13D
100
AcDbEntity
8
2
62
256
6
ByLayer
370
13
48
1
60
0
100
AcDbLine
10
26
20
15
30
0
11
36.522884
21
15
31
0
39
0
210
0
220
0
230
1
0
LINE
5
13E
100
AcDbEntity
8
2
62
256
6
ByLayer
370
13
48
1
60
0
100
AcDbLine
10
34.522884
20
-10
30
0
11
34.522884
21
15
31
0
39
0
210
0
220
0
230
1
0
LINE
5
13F
100
AcDbEntity
8
2
62
256
6
ByLayer
370
13
48
1
60
0
100
AcDbLine
10
34.522884
20
-10
30
0
11
34.104888
21
-6.825002
31
0
39
0
210
0
220
0
230
1
0
LINE
5
140
100
AcDbEntity
8
2
62
256
6
ByLayer
370
13
48
1
60
0
100
AcDbLine
10
34.522884
20
-10
30
0
11
34.940881
21
-6.824998
31
0
39
0
210
0
220
0
230
1
0
LINE
5
141
100
AcDbEntity
8
2
62
256
6
ByLayer
370
13
48
1
60
0
100
AcDbLine
10
34.104888
20
-6.825002
30
0
11
34.940881
21
-6.824998
31
0
39
0
210
0
220
0
230
1
0
LINE
5
142
100
AcDbEntity
8
2
62
256
6
ByLayer
370
13
48
1
60
0
100
AcDbLine
10
34.522884
20
15
30
0
11
34.940881
21
11.825002
31
0
39
0
210
0
220
0
230
1
0
LINE
5
143
100
AcDbEntity
8
2
62
256
6
ByLayer
370
13
48
1
60
0
100
AcDbLine
10
34.522884
20
15
30
0
11
34.104888
21
11.824998
31
0
39
0
210
0
220
0
230
1
0
LINE
5
144
100
AcDbEntity
8
2
62
256
6
ByLayer
370
13
48
1
60
0
100
AcDbLine
10
34.940881
20
11.825002
30
0
11
34.104888
21
11.824998
31
0
39
0
210
0
220
0
230
1
0
ENDBLK
5
146
100
AcDbEntity
8
0
100
AcDbBlockEnd
0
BLOCK
5
14B
100
AcDbEntity
8
0
100
AcDbBlockBegin
2
*D4
70
1
10
0
20
0
30
0
3
*D4
0
LINE
5
14D
100
AcDbEntity
8
0
62
256
6
ByLayer
370
-2
48
1
60
0
100
AcDbLine
10
-2
20
10
30
0
11
-21.966021
21
10
31
0
39
0
210
0
220
0
230
1
0
LINE
5
14E
100
AcDbEntity
8
0
62
256
6
ByLayer
370
-2
48
1
60
0
100
AcDbLine
10
-67
20
-10
30
0
11
-17.966021
21
-10
31
0
39
0
210
0
220
0
230
1
0
LINE
5
14F
100
AcDbEntity
8
0
62
256
6
ByLayer
370
-2
48
1
60
0
100
AcDbLine
10
-19.966021
20
13.175
30
0
11
-19.966021
21
16.35
31
0
39
0
210
0
220
0
230
1
0
LINE
5
150
100
AcDbEntity
8
0
62
256
6
ByLayer
370
-2
48
1
60
0
100
AcDbLine
10
-19.966021
20
-13.175
30
0
11
-19.966021
21
-16.35
31
0
39
0
210
0
220
0
230
1
0
SOLID
5
151
100
AcDbEntity
8
0
62
256
6
ByLayer
370
-1
48
1
60
0
100
AcDbTrace
10
-20.495187
20
13.175
30
0
11
-19.436854
21
13.175
31
0
12
-19.966021
22
10
32
0
13
-19.966021
23
10
33
0
39
0
210
0
220
0
230
1
0
SOLID
5
152
100
AcDbEntity
8
0
62
256
6
ByLayer
370
-1
48
1
60
0
100
AcDbTrace
10
-19.436854
20
-13.175
30
0
11
-20.495187
21
-13.175
31
0
12
-19.966021
22
-10
32
0
13
-19.966021
23
-10
33
0
39
0
210
0
220
0
230
1
0
MTEXT
5
153
100
AcDbEntity
8
0
62
256
6
ByLayer
370
18
48
1
60
0
100
AcDbMText
10
-28.716021
20
0
30
0
210
0
220
0
230
1
1
\A1;20
40
3.5
41
0
44
1
50
90
71
5
72
5
7
iso_b_vert
0
POINT
5
154
100
AcDbEntity
8
Defpoints
62
0
6
ByLayer
370
-1
48
1
60
0
100
AcDbPoint
10
0
20
10
30
0
39
0
210
0
220
0
230
1
50
360
0
POINT
5
155
100
AcDbEntity
8
Defpoints
62
0
6
ByLayer
370
-1
48
1
60
0
100
AcDbPoint
10
-69
20
-10
30
0
39
0
210
0
220
0
230
1
50
360
0
POINT
5
156
100
AcDbEntity
8
Defpoints
62
0
6
ByLayer
370
-1
48
1
60
0
100
AcDbPoint
10
-19.966021
20
-10
30
0
39
0
210
0
220
0
230
1
50
360
0
ENDBLK
5
14C
100
AcDbEntity
8
0
100
AcDbBlockEnd
0
BLOCK
5
162
100
AcDbEntity
8
0
100
AcDbBlockBegin
2
_U1
70
0
10
0
20
0
30
0
3
_U1
0
MTEXT
5
158
100
AcDbEntity
8
SK2
62
256
6
ByLayer
370
18
48
1
60
0
100
AcDbMText
10
-20.655654
20
-3.949699
30
0
210
0
220
0
230
1
1
\W0.7346;20.0
40
3.5
41
0
44
1.084337
50
90
71
7
72
5
7
iso_b_vert
0
LINE
5
159
100
AcDbEntity
8
SK2
62
256
6
ByLayer
370
13
48
1
60
0
100
AcDbLine
10
-2
20
10
30
0
11
-21.966021
21
10
31
0
39
0
210
0
220
0
230
1
0
LINE
5
15A
100
AcDbEntity
8
SK2
62
256
6
ByLayer
370
13
48
1
60
0
100
AcDbLine
10
-67
20
-10
30
0
11
-17.966021
21
-10
31
0
39
0
210
0
220
0
230
1
0
LINE
5
15B
100
AcDbEntity
8
SK2
62
256
6
ByLayer
370
13
48
1
60
0
100
AcDbLine
10
-19.966021
20
10
30
0
11
-19.966021
21
-10
31
0
39
0
210
0
220
0
230
1
0
LINE
5
15C
100
AcDbEntity
8
SK2
62
256
6
ByLayer
370
13
48
1
60
0
100
AcDbLine
10
-19.966021
20
10
30
0
11
-19.548024
21
6.825002
31
0
39
0
210
0
220
0
230
1
0
LINE
5
15D
100
AcDbEntity
8
SK2
62
256
6
ByLayer
370
13
48
1
60
0
100
AcDbLine
10
-19.966021
20
10
30
0
11
-20.384017
21
6.824998
31
0
39
0
210
0
220
0
230
1
0
LINE
5
15E
100
AcDbEntity
8
SK2
62
256
6
ByLayer
370
13
48
1
60
0
100
AcDbLine
10
-19.548024
20
6.825002
30
0
11
-20.384017
21
6.824998
31
0
39
0
210
0
220
0
230
1
0
LINE
5
15F
100
AcDbEntity
8
SK2
62
256
6
ByLayer
370
13
48
1
60
0
100
AcDbLine
10
-19.966021
20
-10
30
0
11
-20.384017
21
-6.825002
31
0
39
0
210
0
220
0
230
1
0
LINE
5
160
100
AcDbEntity
8
SK2
62
256
6
ByLayer
370
13
48
1
60
0
100
AcDbLine
10
-19.966021
20
-10
30
0
11
-19.548024
21
-6.824998
31
0
39
0
210
0
220
0
230
1
0
LINE
5
161
100
AcDbEntity
8
SK2
62
256
6
ByLayer
370
13
48
1
60
0
100
AcDbLine
10
-20.384017
20
-6.825002
30
0
11
-19.548024
21
-6.824998
31
0
39
0
210
0
220
0
230
1
0
ENDBLK
5
163
100
AcDbEntity
8
0
100
AcDbBlockEnd
0
BLOCK
5
168
100
AcDbEntity
8
0
100
AcDbBlockBegin
2
*D6
70
1
10
0
20
0
30
0
3
*D6
0
LINE
5
16A
100
AcDbEntity
8
0
62
256
6
ByLayer
370
-2
48
1
60
0
100
AcDbLine
10
-69
20
-12
30
0
11
-69
21
-39.844955
31
0
39
0
210
0
220
0
230
1
0
LINE
5
16B
100
AcDbEntity
8
0
62
256
6
ByLayer
370
-2
48
1
60
0
100
AcDbLine
10
24
20
13
30
0
11
24
21
-39.844955
31
0
39
0
210
0
220
0
230
1
0
LINE
5
16C
100
AcDbEntity
8
0
62
256
6
ByLayer
370
-2
48
1
60
0
100
AcDbLine
10
-65.825
20
-37.844955
30
0
11
20.825
21
-37.844955
31
0
39
0
210
0
220
0
230
1
0
SOLID
5
16D
100
AcDbEntity
8
0
62
256
6
ByLayer
370
-1
48
1
60
0
100
AcDbTrace
10
-65.825
20
-37.315788
30
0
11
-65.825
21
-38.374121
31
0
12
-69
22
-37.844955
32
0
13
-69
23
-37.844955
33
0
39
0
210
0
220
0
230
1
0
SOLID
5
16E
100
AcDbEntity
8
0
62
256
6
ByLayer
370
-1
48
1
60
0
100
AcDbTrace
10
20.825
20
-38.374121
30
0
11
20.825
21
-37.315788
31
0
12
24
22
-37.844955
32
0
13
24
23
-37.844955
33
0
39
0
210
0
220
0
230
1
0
MTEXT
5
16F
100
AcDbEntity
8
0
62
256
6
ByLayer
370
18
48
1
60
0
100
AcDbMText
10
-22.5
20
-29.094955
30
0
210
0
220
0
230
1
1
\A1;93
40
3.5
41
0
44
1
50
0
71
5
72
5
7
iso_b_vert
0
POINT
5
170
100
AcDbEntity
8
Defpoints
62
0
6
ByLayer
370
-1
48
1
60
0
100
AcDbPoint
10
-69
20
-10
30
0
39
0
210
0
220
0
230
1
50
360
0
POINT
5
171
100
AcDbEntity
8
Defpoints
62
0
6
ByLayer
370
-1
48
1
60
0
100
AcDbPoint
10
24
20
15
30
0
39
0
210
0
220
0
230
1
50
360
0
POINT
5
172
100
AcDbEntity
8
Defpoints
62
0
6
ByLayer
370
-1
48
1
60
0
100
AcDbPoint
10
24
20
-37.844955
30
0
39
0
210
0
220
0
230
1
50
360
0
ENDBLK
5
169
100
AcDbEntity
8
0
100
AcDbBlockEnd
0
BLOCK
5
17E
100
AcDbEntity
8
0
100
AcDbBlockBegin
2
_U2
70
0
10
0
20
0
30
0
3
_U2
0
MTEXT
5
174
100
AcDbEntity
8
SK2
62
256
6
ByLayer
370
18
48
1
60
0
100
AcDbMText
10
-26.421699
20
-36.812321
30
0
210
0
220
0
230
1
1
\W0.7346;93.0
40
3.5
41
0
44
1.084337
50
0
71
7
72
5
7
iso_b_vert
0
LINE
5
175
100
AcDbEntity
8
SK2
62
256
6
ByLayer
370
13
48
1
60
0
100
AcDbLine
10
-69
20
-12
30
0
11
-69
21
-39.844955
31
0
39
0
210
0
220
0
230
1
0
LINE
5
176
100
AcDbEntity
8
SK2
62
256
6
ByLayer
370
13
48
1
60
0
100
AcDbLine
10
24
20
13
30
0
11
24
21
-39.844955
31
0
39
0
210
0
220
0
230
1
0
LINE
5
177
100
AcDbEntity
8
SK2
62
256
6
ByLayer
370
13
48
1
60
0
100
AcDbLine
10
-69
20
-37.844955
30
0
11
24
21
-37.844955
31
0
39
0
210
0
220
0
230
1
0
LINE
5
178
100
AcDbEntity
8
SK2
62
256
6
ByLayer
370
13
48
1
60
0
100
AcDbLine
10
-69
20
-37.844955
30
0
11
-65.825002
21
-37.426958
31
0
39
0
210
0
220
0
230
1
0
LINE
5
179
100
AcDbEntity
8
SK2
62
256
6
ByLayer
370
13
48
1
60
0
100
AcDbLine
10
-69
20
-37.844955
30
0
11
-65.824998
21
-38.262951
31
0
39
0
210
0
220
0
230
1
0
LINE
5
17A
100
AcDbEntity
8
SK2
62
256
6
ByLayer
370
13
48
1
60
0
100
AcDbLine
10
-65.825002
20
-37.426958
30
0
11
-65.824998
21
-38.262951
31
0
39
0
210
0
220
0
230
1
0
LINE
5
17B
100
AcDbEntity
8
SK2
62
256
6
ByLayer
370
13
48
1
60
0
100
AcDbLine
10
24
20
-37.844955
30
0
11
20.825002
21
-38.262951
31
0
39
0
210
0
220
0
230
1
0
LINE
5
17C
100
AcDbEntity
8
SK2
62
256
6
ByLayer
370
13
48
1
60
0
100
AcDbLine
10
24
20
-37.844955
30
0
11
20.824998
21
-37.426958
31
0
39
0
210
0
220
0
230
1
0
LINE
5
17D
100
AcDbEntity
8
SK2
62
256
6
ByLayer
370
13
48
1
60
0
100
AcDbLine
10
20.825002
20
-38.262951
30
0
11
20.824998
21
-37.426958
31
0
39
0
210
0
220
0
230
1
0
ENDBLK
5
17F
100
AcDbEntity
8
0
100
AcDbBlockEnd
0
BLOCK
5
184
100
AcDbEntity
8
0
100
AcDbBlockBegin
2
*D8
70
1
10
0
20
0
30
0
3
*D8
0
LINE
5
186
100
AcDbEntity
8
0
62
256
6
ByLayer
370
-2
48
1
60
0
100
AcDbLine
10
0
20
8
30
0
11
0
21
-25.1
31
0
39
0
210
0
220
0
230
1
0
LINE
5
187
100
AcDbEntity
8
0
62
256
6
ByLayer
370
-2
48
1
60
0
100
AcDbLine
10
24
20
13
30
0
11
24
21
-25.1
31
0
39
0
210
0
220
0
230
1
0
LINE
5
188
100
AcDbEntity
8
0
62
256
6
ByLayer
370
-2
48
1
60
0
100
AcDbLine
10
3.175
20
-23.1
30
0
11
20.825
21
-23.1
31
0
39
0
210
0
220
0
230
1
0
SOLID
5
189
100
AcDbEntity
8
0
62
256
6
ByLayer
370
-1
48
1
60
0
100
AcDbTrace
10
3.175
20
-22.570833
30
0
11
3.175
21
-23.629167
31
0
12
0
22
-23.1
32
0
13
0
23
-23.1
33
0
39
0
210
0
220
0
230
1
0
SOLID
5
18A
100
AcDbEntity
8
0
62
256
6
ByLayer
370
-1
48
1
60
0
100
AcDbTrace
10
20.825
20
-23.629167
30
0
11
20.825
21
-22.570833
31
0
12
24
22
-23.1
32
0
13
24
23
-23.1
33
0
39
0
210
0
220
0
230
1
0
MTEXT
5
18B
100
AcDbEntity
8
0
62
256
6
ByLayer
370
18
48
1
60
0
100
AcDbMText
10
12
20
-14.35
30
0
210
0
220
0
230
1
1
\A1;24
40
3.5
41
0
44
1
50
0
71
5
72
5
7
iso_b_vert
0
POINT
5
18C
100
AcDbEntity
8
Defpoints
62
0
6
ByLayer
370
-1
48
1
60
0
100
AcDbPoint
10
0
20
10
30
0
39
0
210
0
220
0
230
1
50
360
0
POINT
5
18D
100
AcDbEntity
8
Defpoints
62
0
6
ByLayer
370
-1
48
1
60
0
100
AcDbPoint
10
24
20
15
30
0
39
0
210
0
220
0
230
1
50
360
0
POINT
5
18E
100
AcDbEntity
8
Defpoints
62
0
6
ByLayer
370
-1
48
1
60
0
100
AcDbPoint
10
24
20
-23.1
30
0
39
0
210
0
220
0
230
1
50
360
0
ENDBLK
5
185
100
AcDbEntity
8
0
100
AcDbBlockEnd
0
BLOCK
5
19A
100
AcDbEntity
8
0
100
AcDbBlockBegin
2
_U3
70
0
10
0
20
0
30
0
3
_U3
0
MTEXT
5
190
100
AcDbEntity
8
2
62
256
6
ByLayer
370
18
48
1
60
0
100
AcDbMText
10
7.894034
20
-22.067366
30
0
210
0
220
0
230
1
1
\W0.7640;24.0
40
3.5
41
0
44
1.084337
50
0
71
7
72
5
7
iso_b_vert
0
LINE
5
191
100
AcDbEntity
8
2
62
256
6
ByLayer
370
13
48
1
60
0
100
AcDbLine
10
0
20
8
30
0
11
0
21
-25.1
31
0
39
0
210
0
220
0
230
1
0
LINE
5
192
100
AcDbEntity
8
2
62
256
6
ByLayer
370
13
48
1
60
0
100
AcDbLine
10
24
20
13
30
0
11
24
21
-25.1
31
0
39
0
210
0
220
0
230
1
0
LINE
5
193
100
AcDbEntity
8
2
62
256
6
ByLayer
370
13
48
1
60
0
100
AcDbLine
10
0
20
-23.1
30
0
11
24
21
-23.1
31
0
39
0
210
0
220
0
230
1
0
LINE
5
194
100
AcDbEntity
8
2
62
256
6
ByLayer
370
13
48
1
60
0
100
AcDbLine
10
0
20
-23.1
30
0
11
3.174998
21
-22.682003
31
0
39
0
210
0
220
0
230
1
0
LINE
5
195
100
AcDbEntity
8
2
62
256
6
ByLayer
370
13
48
1
60
0
100
AcDbLine
10
0
20
-23.1
30
0
11
3.175002
21
-23.517997
31
0
39
0
210
0
220
0
230
1
0
LINE
5
196
100
AcDbEntity
8
2
62
256
6
ByLayer
370
13
48
1
60
0
100
AcDbLine
10
3.174998
20
-22.682003
30
0
11
3.175002
21
-23.517997
31
0
39
0
210
0
220
0
230
1
0
LINE
5
197
100
AcDbEntity
8
2
62
256
6
ByLayer
370
13
48
1
60
0
100
AcDbLine
10
24
20
-23.1
30
0
11
20.825002
21
-23.517997
31
0
39
0
210
0
220
0
230
1
0
LINE
5
198
100
AcDbEntity
8
2
62
256
6
ByLayer
370
13
48
1
60
0
100
AcDbLine
10
24
20
-23.1
30
0
11
20.824998
21
-22.682003
31
0
39
0
210
0
220
0
230
1
0
LINE
5
199
100
AcDbEntity
8
2
62
256
6
ByLayer
370
13
48
1
60
0
100
AcDbLine
10
20.825002
20
-23.517997
30
0
11
20.824998
21
-22.682003
31
0
39
0
210
0
220
0
230
1
0
ENDBLK
5
19B
100
AcDbEntity
8
0
100
AcDbBlockEnd
0
BLOCK
5
1A0
100
AcDbEntity
8
0
100
AcDbBlockBegin
2
*D10
70
1
10
0
20
0
30
0
3
*D10
0
LINE
5
1A2
100
AcDbEntity
8
0
62
256
6
ByLayer
370
-2
48
1
60
0
100
AcDbLine
10
-69
20
-12
30
0
11
-69
21
-25.1
31
0
39
0
210
0
220
0
230
1
0
LINE
5
1A3
100
AcDbEntity
8
0
62
256
6
ByLayer
370
-2
48
1
60
0
100
AcDbLine
10
-66
20
-12
30
0
11
-66
21
-25.1
31
0
39
0
210
0
220
0
230
1
0
LINE
5
1A4
100
AcDbEntity
8
0
62
256
6
ByLayer
370
-2
48
1
60
0
100
AcDbLine
10
-66
20
-23.1
30
0
11
-43.316667
21
-23.1
31
0
39
0
210
0
220
0
230
1
0
LINE
5
1A5
100
AcDbEntity
8
0
62
256
6
ByLayer
370
-2
48
1
60
0
100
AcDbLine
10
-72.175
20
-23.1
30
0
11
-75.35
21
-23.1
31
0
39
0
210
0
220
0
230
1
0
LINE
5
1A6
100
AcDbEntity
8
0
62
256
6
ByLayer
370
-2
48
1
60
0
100
AcDbLine
10
-62.825
20
-23.1
30
0
11
-59.65
21
-23.1
31
0
39
0
210
0
220
0
230
1
0
SOLID
5
1A7
100
AcDbEntity
8
0
62
256
6
ByLayer
370
-1
48
1
60
0
100
AcDbTrace
10
-72.175
20
-23.629167
30
0
11
-72.175
21
-22.570833
31
0
12
-69
22
-23.1
32
0
13
-69
23
-23.1
33
0
39
0
210
0
220
0
230
1
0
SOLID
5
1A8
100
AcDbEntity
8
0
62
256
6
ByLayer
370
-1
48
1
60
0
100
AcDbTrace
10
-62.825
20
-22.570833
30
0
11
-62.825
21
-23.629167
31
0
12
-66
22
-23.1
32
0
13
-66
23
-23.1
33
0
39
0
210
0
220
0
230
1
0
MTEXT
5
1A9
100
AcDbEntity
8
0
62
256
6
ByLayer
370
18
48
1
60
0
100
AcDbMText
10
-51.483333
20
-14.35
30
0
210
0
220
0
230
1
1
\A1;3
40
3.5
41
0
44
1
50
0
71
5
72
5
7
iso_b_vert
0
POINT
5
1AA
100
AcDbEntity
8
Defpoints
62
0
6
ByLayer
370
-1
48
1
60
0
100
AcDbPoint
10
-69
20
-10
30
0
39
0
210
0
220
0
230
1
50
360
0
POINT
5
1AB
100
AcDbEntity
8
Defpoints
62
0
6
ByLayer
370
-1
48
1
60
0
100
AcDbPoint
10
-66
20
-10
30
0
39
0
210
0
220
0
230
1
50
360
0
POINT
5
1AC
100
AcDbEntity
8
Defpoints
62
0
6
ByLayer
370
-1
48
1
60
0
100
AcDbPoint
10
-66
20
-23.1
30
0
39
0
210
0
220
0
230
1
50
360
0
ENDBLK
5
1A1
100
AcDbEntity
8
0
100
AcDbBlockEnd
0
BLOCK
5
1B8
100
AcDbEntity
8
0
100
AcDbBlockBegin
2
_U4
70
0
10
0
20
0
30
0
3
_U4
0
MTEXT
5
1AE
100
AcDbEntity
8
SK2
62
256
6
ByLayer
370
18
48
1
60
0
100
AcDbMText
10
-55.5595
20
-22.067366
30
0
210
0
220
0
230
1
1
\W0.7121;3.0
40
3.5
41
0
44
1.084337
50
0
71
7
72
5
7
iso_b_vert
0
LINE
5
1AF
100
AcDbEntity
8
SK2
62
256
6
ByLayer
370
13
48
1
60
0
100
AcDbLine
10
-69
20
-12
30
0
11
-69
21
-25.1
31
0
39
0
210
0
220
0
230
1
0
LINE
5
1B0
100
AcDbEntity
8
SK2
62
256
6
ByLayer
370
13
48
1
60
0
100
AcDbLine
10
-66
20
-12
30
0
11
-66
21
-25.1
31
0
39
0
210
0
220
0
230
1
0
LINE
5
1B1
100
AcDbEntity
8
SK2
62
256
6
ByLayer
370
13
48
1
60
0
100
AcDbLine
10
-50.146068
20
-23.1
30
0
11
-77.75
21
-23.1
31
0
39
0
210
0
220
0
230
1
0
LINE
5
1B2
100
AcDbEntity
8
SK2
62
256
6
ByLayer
370
13
48
1
60
0
100
AcDbLine
10
-69
20
-23.1
30
0
11
-72.174998
21
-23.517997
31
0
39
0
210
0
220
0
230
1
0
LINE
5
1B3
100
AcDbEntity
8
SK2
62
256
6
ByLayer
370
13
48
1
60
0
100
AcDbLine
10
-69
20
-23.1
30
0
11
-72.175002
21
-22.682003
31
0
39
0
210
0
220
0
230
1
0
LINE
5
1B4
100
AcDbEntity
8
SK2
62
256
6
ByLayer
370
13
48
1
60
0
100
AcDbLine
10
-72.174998
20
-23.517997
30
0
11
-72.175002
21
-22.682003
31
0
39
0
210
0
220
0
230
1
0
LINE
5
1B5
100
AcDbEntity
8
SK2
62
256
6
ByLayer
370
13
48
1
60
0
100
AcDbLine
10
-66
20
-23.1
30
0
11
-62.825002
21
-22.682003
31
0
39
0
210
0
220
0
230
1
0
LINE
5
1B6
100
AcDbEntity
8
SK2
62
256
6
ByLayer
370
13
48
1
60
0
100
AcDbLine
10
-66
20
-23.1
30
0
11
-62.824998
21
-23.517997
31
0
39
0
210
0
220
0
230
1
0
LINE
5
1B7
100
AcDbEntity
8
SK2
62
256
6
ByLayer
370
13
48
1
60
0
100
AcDbLine
10
-62.825002
20
-22.682003
30
0
11
-62.824998
21
-23.517997
31
0
39
0
210
0
220
0
230
1
0
ENDBLK
5
1B9
100
AcDbEntity
8
0
100
AcDbBlockEnd
0
ENDSEC
0
SECTION
2
ENTITIES
0
ARC
5
C4
100
AcDbEntity
8
1
62
256
6
ByLayer
370
18
48
1
60
0
100
AcDbCircle
39
0
10
15.367062
20
4.980025
30
0
40
1.61376468136631
210
0
220
0
230
1
100
AcDbArc
50
273.735287
51
355
0
ARC
5
C5
100
AcDbEntity
8
1
62
256
6
ByLayer
370
18
48
1
60
0
100
AcDbCircle
39
0
10
15.367062
20
4.980025
30
0
40
1.71376468136631
210
0
220
0
230
1
100
AcDbArc
50
274.581165
51
355
0
ARC
5
C6
100
AcDbEntity
8
1
62
256
6
ByLayer
370
18
48
1
60
0
100
AcDbCircle
39
0
10
6.337258
20
11.525
30
0
40
1.6
210
0
220
0
230
1
100
AcDbArc
50
270
51
315
0
ARC
5
C7
100
AcDbEntity
8
1
62
256
6
ByLayer
370
18
48
1
60
0
100
AcDbCircle
39
0
10
18.800663
20
9.800663
30
0
40
1.2903
210
0
220
0
230
1
100
AcDbArc
50
165
51
225
0
ARC
5
C8
100
AcDbEntity
8
1
62
256
6
ByLayer
370
18
48
1
60
0
100
AcDbCircle
39
0
10
18.800663
20
9.800663
30
0
40
1.6764
210
0
220
0
230
1
100
AcDbArc
50
75
51
135
0
ARC
5
C9
100
AcDbEntity
8
1
62
256
6
ByLayer
370
18
48
1
60
0
100
AcDbCircle
39
0
10
18.800663
20
9.800663
30
0
40
1.6764
210
0
220
0
230
1
100
AcDbArc
50
135
51
195
0
ARC
5
CA
100
AcDbEntity
8
1
62
256
6
ByLayer
370
18
48
1
60
0
100
AcDbCircle
39
0
10
18.800663
20
9.800663
30
0
40
1.6764
210
0
220
0
230
1
100
AcDbArc
50
195
51
255
0
ARC
5
CB
100
AcDbEntity
8
1
62
256
6
ByLayer
370
18
48
1
60
0
100
AcDbCircle
39
0
10
18.800663
20
9.800663
30
0
40
1.2903
210
0
220
0
230
1
100
AcDbArc
50
45
51
105
0
ARC
5
CC
100
AcDbEntity
8
1
62
256
6
ByLayer
370
18
48
1
60
0
100
AcDbCircle
39
0
10
18.800663
20
9.800663
30
0
40
1.6764
210
0
220
0
230
1
100
AcDbArc
50
15
51
75
0
ARC
5
CD
100
AcDbEntity
8
1
62
256
6
ByLayer
370
18
48
1
60
0
100
AcDbCircle
39
0
10
18.800663
20
9.800663
30
0
40
1.2903
210
0
220
0
230
1
100
AcDbArc
50
225
51
285
0
ARC
5
CE
100
AcDbEntity
8
1
62
256
6
ByLayer
370
18
48
1
60
0
100
AcDbCircle
39
0
10
18.800663
20
9.800663
30
0
40
1.2903
210
0
220
0
230
1
100
AcDbArc
50
345
51
45
0
ARC
5
CF
100
AcDbEntity
8
1
62
256
6
ByLayer
370
18
48
1
60
0
100
AcDbCircle
39
0
10
18.800663
20
9.800663
30
0
40
1.2903
210
0
220
0
230
1
100
AcDbArc
50
285
51
345
0
ARC
5
D0
100
AcDbEntity
8
1
62
256
6
ByLayer
370
18
48
1
60
0
100
AcDbCircle
39
0
10
18.800663
20
9.800663
30
0
40
1.6764
210
0
220
0
230
1
100
AcDbArc
50
315
51
15
0
ARC
5
D2
100
AcDbEntity
8
1
62
256
6
ByLayer
370
18
48
1
60
0
100
AcDbCircle
39
0
10
18.800663
20
9.800663
30
0
40
1.2903
210
0
220
0
230
1
100
AcDbArc
50
105
51
165
0
ARC
5
D3
100
AcDbEntity
8
1
62
256
6
ByLayer
370
18
48
1
60
0
100
AcDbCircle
39
0
10
18.800663
20
9.800663
30
0
40
1.6764
210
0
220
0
230
1
100
AcDbArc
50
255
51
315
0
ARC
5
D5
100
AcDbEntity
8
1
62
256
6
ByLayer
370
13
48
1
60
0
100
AcDbCircle
39
0
10
13.998201
20
4.998201
30
0
40
0.396875000000012
210
0
220
0
230
1
100
AcDbArc
50
175
51
275
0
ARC
5
D6
100
AcDbEntity
8
1
62
256
6
ByLayer
370
13
48
1
60
0
100
AcDbCircle
39
0
10
14.770919
20
13.830407
30
0
40
0.396875000000012
210
0
220
0
230
1
100
AcDbArc
50
95
51
175
0
ARC
5
D7
100
AcDbEntity
8
1
62
256
6
ByLayer
370
13
48
1
60
0
100
AcDbCircle
39
0
10
22.830407
20
5.770919
30
0
40
0.396875000000012
210
0
220
0
230
1
100
AcDbArc
50
275
51
355
0
ARC
5
D8
100
AcDbEntity
8
1
62
256
6
ByLayer
370
13
48
1
60
0
100
AcDbCircle
39
0
10
23.603125
20
14.603125
30
0
40
0.396875000000012
210
0
220
0
230
1
100
AcDbArc
50
355
51
95
0
ARC
5
DB
100
AcDbEntity
8
1
62
256
6
ByLayer
370
13
48
1
60
0
100
AcDbCircle
39
0
10
11.580274
20
-0.490289
30
0
40
4.42238554666492
210
0
220
0
230
1
100
AcDbArc
50
105.40426
51
142.951299
0
ARC
5
DC
100
AcDbEntity
8
1
62
256
6
ByLayer
370
18
48
1
60
0
100
AcDbCircle
39
0
10
14.672567
20
4.638781
30
0
40
1.5
210
0
220
0
230
1
100
AcDbArc
50
132.16734
51
302.214109
0
ARC
5
DD
100
AcDbEntity
8
1
62
256
6
ByLayer
370
18
48
1
60
0
100
AcDbCircle
39
0
10
14.672567
20
4.638781
30
0
40
1.6
210
0
220
0
230
1
100
AcDbArc
50
128.433759
51
301.306083
0
ARC
5
DE
100
AcDbEntity
8
1
62
256
6
ByLayer
370
13
48
1
60
0
100
AcDbCircle
39
0
10
41.11085
20
-22.782554
30
0
40
41.4223855466649
210
0
220
0
230
1
100
AcDbArc
50
142.951299
51
150.942758
0
ARC
5
DF
100
AcDbEntity
8
1
62
256
6
ByLayer
370
13
48
1
60
0
100
AcDbCircle
39
0
10
13.532013
20
-1.856911
30
0
40
4.42238554666492
210
0
220
0
230
1
100
AcDbArc
50
338.06679
51
4.59574
0
ARC
5
E0
100
AcDbEntity
8
1
62
256
6
ByLayer
370
13
48
1
60
0
100
AcDbCircle
39
0
10
9.660886
20
-5.308456
30
0
40
3.85008686049436
210
0
220
0
230
1
100
AcDbArc
50
150.942758
51
319.057242
0
ARC
5
E1
100
AcDbEntity
8
1
62
256
6
ByLayer
370
13
48
1
60
0
100
AcDbCircle
39
0
10
9.660886
20
-5.308456
30
0
40
5.44399837744115
210
0
220
0
230
1
100
AcDbArc
50
150.942758
51
239.517347
0
ARC
5
E2
100
AcDbEntity
8
1
62
256
6
ByLayer
370
13
48
1
60
0
100
AcDbCircle
39
0
10
-8.655182
20
-31.466511
30
0
40
39.9600682379628
210
0
220
0
230
1
100
AcDbArc
50
49.892444
51
60.107556
0
ARC
5
E3
100
AcDbEntity
8
1
62
256
6
ByLayer
370
13
48
1
60
0
100
AcDbCircle
39
0
10
11.580274
20
-0.490289
30
0
40
2.82847402971813
210
0
220
0
230
1
100
AcDbArc
50
56.845114
51
142.951299
0
ARC
5
E4
100
AcDbEntity
8
1
62
256
6
ByLayer
370
13
48
1
60
0
100
AcDbCircle
39
0
10
13.532013
20
-1.856911
30
0
40
2.82847402971813
210
0
220
0
230
1
100
AcDbArc
50
327.048701
51
53.154886
0
ARC
5
E5
100
AcDbEntity
8
1
62
256
6
ByLayer
370
13
48
1
60
0
100
AcDbCircle
39
0
10
-17.515916
20
18.26835
30
0
40
39.8284740297181
210
0
220
0
230
1
100
AcDbArc
50
319.057242
51
327.048701
0
ARC
5
E6
100
AcDbEntity
8
1
62
256
6
ByLayer
370
13
48
1
60
0
100
AcDbCircle
39
0
10
41.11085
20
-22.782554
30
0
40
39.8284740297181
210
0
220
0
230
1
100
AcDbArc
50
142.951299
51
150.942758
0
ARC
5
E7
100
AcDbEntity
8
1
62
256
6
ByLayer
370
13
48
1
60
0
100
AcDbCircle
39
0
10
-8.655182
20
-31.466511
30
0
40
40.4581655870087
210
0
220
0
230
1
100
AcDbArc
50
49.924003
51
60.075997
0
ARC
5
E9
100
AcDbEntity
8
2
62
256
6
ByLayer
370
13
48
1
60
0
100
AcDbCircle
39
0
10
24
20
15
30
0
40
7.1136912812076
210
0
220
0
230
1
100
AcDbArc
50
85
51
180
0
CIRCLE
5
D1
100
AcDbEntity
8
1
62
256
6
ByLayer
370
18
48
1
60
0
100
AcDbCircle
10
18.800663
20
9.800663
30
0
40
2.625
39
0
210
0
220
0
230
1
0
CIRCLE
5
D4
100
AcDbEntity
8
1
62
256
6
ByLayer
370
18
48
1
60
0
100
AcDbCircle
10
18.800663
20
9.800663
30
0
40
1.8
39
0
210
0
220
0
230
1
0
CIRCLE
5
D9
100
AcDbEntity
8
1
62
256
6
ByLayer
370
13
48
1
60
0
100
AcDbCircle
10
18.800663
20
9.800663
30
0
40
3.07132534818217
39
0
210
0
220
0
230
1
0
CIRCLE
5
DA
100
AcDbEntity
8
1
62
256
6
ByLayer
370
13
48
1
60
0
100
AcDbCircle
10
18.800663
20
9.800663
30
0
40
2.92104776441565
39
0
210
0
220
0
230
1
0
CIRCLE
5
E8
100
AcDbEntity
8
1
62
256
6
ByLayer
370
13
48
1
60
0
100
AcDbCircle
10
18.800663
20
9.800663
30
0
40
3.00996076009751
39
0
210
0
220
0
230
1
0
POINT
5
70
100
AcDbEntity
8
2
62
256
6
ByLayer
370
18
48
1
60
0
100
AcDbPoint
10
13.784883
20
0.581222
30
0
39
0
210
0
220
0
230
1
50
360
0
POINT
5
72
100
AcDbEntity
8
2
62
256
6
ByLayer
370
18
48
1
60
0
100
AcDbPoint
10
0
20
-10
30
0
39
0
210
0
220
0
230
1
50
360
0
POINT
5
73
100
AcDbEntity
8
2
62
256
6
ByLayer
370
18
48
1
60
0
100
AcDbPoint
10
18.51782
20
9.588531
30
0
39
0
210
0
220
0
230
1
50
360
0
POINT
5
74
100
AcDbEntity
8
SK2
62
256
6
ByLayer
370
18
48
1
60
0
100
AcDbPoint
10
23.254502
20
10.618346
30
0
39
0
210
0
220
0
230
1
50
360
0
POINT
5
76
100
AcDbEntity
8
SK2
62
256
6
ByLayer
370
18
48
1
60
0
100
AcDbPoint
10
23.446245
20
12.809975
30
0
39
0
210
0
220
0
230
1
50
360
0
POINT
5
77
100
AcDbEntity
8
SK2
62
256
6
ByLayer
370
18
48
1
60
0
100
AcDbPoint
10
19.618346
20
14.254502
30
0
39
0
210
0
220
0
230
1
50
360
0
POINT
5
78
100
AcDbEntity
8
SK2
62
256
6
ByLayer
370
18
48
1
60
0
100
AcDbPoint
10
21.809975
20
14.446245
30
0
39
0
210
0
220
0
230
1
50
360
0
POINT
5
79
100
AcDbEntity
8
SK2
62
256
6
ByLayer
370
18
48
1
60
0
100
AcDbPoint
10
23.603125
20
14.603125
30
0
39
0
210
0
220
0
230
1
50
360
0
POINT
5
7A
100
AcDbEntity
8
2
62
256
6
ByLayer
370
18
48
1
60
0
100
AcDbPoint
10
18.800663
20
9.800663
30
0
39
0
210
0
220
0
230
1
50
360
0
POINT
5
7B
100
AcDbEntity
8
2
62
256
6
ByLayer
370
18
48
1
60
0
100
AcDbPoint
10
18.800663
20
9.800663
30
0
39
0
210
0
220
0
230
1
50
360
0
POINT
5
7C
100
AcDbEntity
8
81
62
256
6
ByLayer
370
18
48
1
60
0
100
AcDbPoint
10
24
20
15
30
0
39
0
210
0
220
0
230
1
50
360
0
POINT
5
7E
100
AcDbEntity
8
80
62
256
6
ByLayer
370
18
48
1
60
0
100
AcDbPoint
10
0
20
0
30
0
39
0
210
0
220
0
230
1
50
360
0
POINT
5
80
100
AcDbEntity
8
1
62
256
6
ByLayer
370
18
48
1
60
1
100
AcDbPoint
10
17
20
-10
30
0
39
0
210
0
220
0
230
1
50
360
0
POINT
5
82
100
AcDbEntity
8
1
62
256
6
ByLayer
370
18
48
1
60
1
100
AcDbPoint
10
24
20
15
30
0
39
0
210
0
220
0
230
1
50
360
0
POINT
5
83
100
AcDbEntity
8
1
62
256
6
ByLayer
370
18
48
1
60
1
100
AcDbPoint
10
0
20
10
30
0
39
0
210
0
220
0
230
1
50
360
0
POINT
5
84
100
AcDbEntity
8
1
62
256
6
ByLayer
370
18
48
1
60
1
100
AcDbPoint
10
-69
20
-10
30
0
39
0
210
0
220
0
230
1
50
360
0
POINT
5
85
100
AcDbEntity
8
1
62
256
6
ByLayer
370
18
48
1
60
1
100
AcDbPoint
10
-69
20
-10
30
0
39
0
210
0
220
0
230
1
50
360
0
POINT
5
86
100
AcDbEntity
8
1
62
256
6
ByLayer
370
18
48
1
60
1
100
AcDbPoint
10
24
20
15
30
0
39
0
210
0
220
0
230
1
50
360
0
POINT
5
87
100
AcDbEntity
8
1
62
256
6
ByLayer
370
18
48
1
60
1
100
AcDbPoint
10
0
20
10
30
0
39
0
210
0
220
0
230
1
50
360
0
POINT
5
88
100
AcDbEntity
8
1
62
256
6
ByLayer
370
18
48
1
60
1
100
AcDbPoint
10
24
20
15
30
0
39
0
210
0
220
0
230
1
50
360
0
POINT
5
89
100
AcDbEntity
8
1
62
256
6
ByLayer
370
18
48
1
60
1
100
AcDbPoint
10
-69
20
-10
30
0
39
0
210
0
220
0
230
1
50
360
0
POINT
5
8A
100
AcDbEntity
8
1
62
256
6
ByLayer
370
18
48
1
60
1
100
AcDbPoint
10
-66
20
-10
30
0
39
0
210
0
220
0
230
1
50
360
0
SPLINE
5
EA
100
AcDbEntity
8
1
62
256
6
ByLayer
370
18
48
1
60
0
100
AcDbSpline
70
4
71
3
72
18
73
14
40
0
40
0
40
0
40
0
40
0.0203676344849547
40
0.0203676344849547
40
0.0904676656911602
40
0.0904676656911602
40
0.318076695405435
40
0.318076695405435
40
0.545462898242933
40
0.545462898242933
40
0.772727523889715
40
0.772727523889715
40
1
40
1
40
1
40
1
41
1
10
17.3919120461242
20
-0.508279969074835
30
0
41
1
10
17.3888581661713
20
-0.512254368616766
30
0
41
1
10
17.3858039587392
20
-0.516229228189133
30
0
41
1
10
17.3721090155632
20
-0.534052034937389
30
0
41
1
10
17.3614686191976
20
-0.547899194634709
30
0
41
1
10
17.3170977930037
20
-0.60564063833624
30
0
41
1
10
17.2836005512247
20
-0.649227497615215
30
0
41
1
10
17.2228224374082
20
-0.728305924387598
30
0
41
1
10
17.1946996700817
20
-0.764892968871777
30
0
41
1
10
17.1476268317499
20
-0.826130015792813
30
0
41
1
10
17.1280244299368
20
-0.851628738031962
30
0
41
1
10
17.099927987879
20
-0.888175451178711
30
0
41
1
10
17.0910474385451
20
-0.899726274179329
30
0
41
1
10
17.0880734741398
20
-0.90359449701711
30
0
0
SPLINE
5
EB
100
AcDbEntity
8
1
62
256
6
ByLayer
370
18
48
1
60
0
100
AcDbSpline
70
4
71
3
72
20
73
16
40
0
40
0
40
0
40
0
40
0.0387740642748955
40
0.0387740642748955
40
0.220764568932346
40
0.220764568932346
40
0.395669992700073
40
0.395669992700073
40
0.565284912126224
40
0.565284912126224
40
0.732690894369316
40
0.732690894369316
40
0.901178336770756
40
0.901178336770756
40
1
40
1
40
1
40
1
41
1
10
12.9892880755623
20
1.66661510913329
30
0
41
1
10
13.0058523546356
20
1.65239513024167
30
0
41
1
10
13.0234570442788
20
1.63755465601417
30
0
41
1
10
13.1284165776362
20
1.55049384875429
30
0
41
1
10
13.2381189457105
20
1.46479337529547
30
0
41
1
10
13.480392153934
20
1.2824546730065
30
0
41
1
10
13.6153411835369
20
1.18375950115663
30
0
41
1
10
13.889735179148
20
0.987206510294811
30
0
41
1
10
14.0327108495868
20
0.88668717651845
30
0
41
1
10
14.3083014934041
20
0.69640434256408
30
0
41
1
10
14.4447679188586
20
0.603943468547925
30
0
41
1
10
14.6958475447035
20
0.437989146160845
30
0
41
1
10
14.8136958488325
20
0.362407231347475
30
0
41
1
10
14.9742095746284
20
0.264144756868262
30
0
41
1
10
15.0286761876465
20
0.23197226448454
30
0
41
1
10
15.0769281429602
20
0.204833796872606
30
0
0
SPLINE
5
EC
100
AcDbEntity
8
1
62
256
6
ByLayer
370
18
48
1
60
0
100
AcDbSpline
70
4
71
3
72
14
73
10
40
0
40
0
40
0
40
0
40
0.240609959000312
40
0.240609959000312
40
0.524216128735779
40
0.524216128735779
40
0.810997441256798
40
0.810997441256798
40
1
40
1
40
1
40
1
41
1
10
15.0769281429601
20
0.20483379687272
30
0
41
1
10
15.1523931559054
20
0.162389821362609
30
0
41
1
10
15.2118873735553
20
0.128226193185441
30
0
41
1
10
15.3043942261451
20
0.0846879244367642
30
0
41
1
10
15.3321061055668
20
0.0805836346789306
30
0
41
1
10
15.3428161260831
20
0.114358690524597
30
0
41
1
10
15.3255981564139
20
0.152905920301436
30
0
41
1
10
15.2583874351193
20
0.242843221431201
30
0
41
1
10
15.221161745477
20
0.285762723061538
30
0
41
1
10
15.1729729867748
20
0.333009059114772
30
0
0
SPLINE
5
ED
100
AcDbEntity
8
1
62
256
6
ByLayer
370
18
48
1
60
0
100
AcDbSpline
70
4
71
3
72
8
73
4
40
0
40
0
40
0
40
0
40
1
40
1
40
1
40
1
41
1
10
15.4777898530009
20
-3.11816352116983
30
0
41
1
10
14.4852034293347
20
-4.65635665552716
30
0
41
1
10
13.3895806040671
20
-6.11809174593486
30
0
41
1
10
12.1908280819655
20
-7.50326735228572
30
0
0
SPLINE
5
EE
100
AcDbEntity
8
1
62
256
6
ByLayer
370
18
48
1
60
0
100
AcDbSpline
70
4
71
3
72
8
73
4
40
0
40
0
40
0
40
0
40
1
40
1
40
1
40
1
41
1
10
11.5468203428381
20
2.97411000871236
30
0
41
1
10
12.1366828997124
20
2.59926677770781
30
0
41
1
10
12.6421775328871
20
2.24002288726854
30
0
41
1
10
13.1271782399313
20
1.877695921563
30
0
0
SPLINE
5
EF
100
AcDbEntity
8
1
62
256
6
ByLayer
370
18
48
1
60
0
100
AcDbSpline
70
4
71
3
72
14
73
10
40
0
40
0
40
0
40
0
40
0.239193582227976
40
0.239193582227976
40
0.527796747002014
40
0.527796747002014
40
0.823476413684863
40
0.823476413684863
40
1
40
1
40
1
40
1
41
1
10
13.0768841524112
20
1.80070626169331
30
0
41
1
10
12.9999228110453
20
1.83752345424452
30
0
41
1
10
12.9354134702716
20
1.86029771244742
30
0
41
1
10
12.8312872135176
20
1.88559218149669
30
0
41
1
10
12.7984301859741
20
1.88340561822224
30
0
41
1
10
12.789872292799
20
1.85084726953127
30
0
41
1
10
12.8157943578919
20
1.81925101184658
30
0
41
1
10
12.899828553807
20
1.74289981619975
30
0
41
1
10
12.9409959867026
20
1.70807254179169
30
0
41
1
10
12.9892880755623
20
1.66661510913326
30
0
0
SPLINE
5
F0
100
AcDbEntity
8
1
62
256
6
ByLayer
370
18
48
1
60
0
100
AcDbSpline
70
4
71
3
72
8
73
4
40
0
40
0
40
0
40
0
40
1
40
1
40
1
40
1
41
1
10
6.73314666194037
20
-3.681757680837
30
0
41
1
10
7.62439043388105
20
-2.0822551330823
30
0
41
1
10
8.62315098806411
20
-0.552700996705454
30
0
41
1
10
9.72958923738446
20
0.906769881026491
30
0
0
SPLINE
5
F1
100
AcDbEntity
8
1
62
256
6
ByLayer
370
18
48
1
60
0
100
AcDbSpline
70
4
71
3
72
8
73
4
40
0
40
0
40
0
40
0
40
1
40
1
40
1
40
1
41
1
10
15.5039424587688
20
3.27173521270785
30
0
41
1
10
15.4933774573924
20
3.30436013632624
30
0
41
1
10
15.4827957115696
20
3.33700943638422
30
0
41
1
10
15.4721936890598
20
3.36968820245153
30
0
0
SPLINE
5
F2
100
AcDbEntity
8
1
62
256
6
ByLayer
370
18
48
1
60
0
100
AcDbSpline
70
4
71
3
72
18
73
14
40
0
40
0
40
0
40
0
40
0.0203676344849585
40
0.0203676344849585
40
0.0904676656911285
40
0.0904676656911285
40
0.318076695405412
40
0.318076695405412
40
0.545462898242914
40
0.545462898242914
40
0.772727523889707
40
0.772727523889707
40
1
40
1
40
1
40
1
41
1
10
11.5274092055638
20
3.59808912773781
30
0
41
1
10
11.5247189801014
20
3.59386009458029
30
0
41
1
10
11.5220284343561
20
3.58963059635346
30
0
41
1
10
11.509964420801
20
3.57066580039034
30
0
41
1
10
11.5005915769046
20
3.55593109089909
30
0
41
1
10
11.461508084679
20
3.49448741609589
30
0
41
1
10
11.4320065660857
20
3.44810272132173
30
0
41
1
10
11.3784844911829
20
3.3639435614044
30
0
41
1
10
11.3537224683764
20
3.32500329827334
30
0
41
1
10
11.312278326179
20
3.25982499588869
30
0
41
1
10
11.2950217813291
20
3.23268368692032
30
0
41
1
10
11.2702886538107
20
3.19378195557974
30
0
41
1
10
11.2624717574289
20
3.18148635476405
30
0
41
1
10
11.2598539727048
20
3.17736873222845
30
0
0
SPLINE
5
F3
100
AcDbEntity
8
1
62
256
6
ByLayer
370
18
48
1
60
0
100
AcDbSpline
70
4
71
3
72
8
73
4
40
0
40
0
40
0
40
0
40
1
40
1
40
1
40
1
41
1
10
17.6343054177148
20
-3.50878486930432
30
0
41
1
10
17.430538517865
20
-3.71255176915409
30
0
41
1
10
17.2268400389944
20
-3.91625024802471
30
0
41
1
10
17.0231952739803
20
-4.11989501303884
30
0
0
SPLINE
5
F4
100
AcDbEntity
8
1
62
256
6
ByLayer
370
18
48
1
60
0
100
AcDbSpline
70
4
71
3
72
10
73
6
40
0
40
0
40
0
40
0
40
0.5
40
0.5
40
1
40
1
40
1
40
1
41
1
10
11.1430902870191
20
-10
30
0
41
1
10
10.4270140867216
20
-10
30
0
41
1
10
9.69002320791597
20
-10
30
0
41
1
10
8.29449013982318
20
-10
30
0
41
1
10
7.59783725343763
20
-10
30
0
41
1
10
6.89926819738523
20
-10
30
0
0
SPLINE
5
F5
100
AcDbEntity
8
1
62
256
6
ByLayer
370
18
48
1
60
0
100
AcDbSpline
70
4
71
3
72
8
73
4
40
0
40
0
40
0
40
0
40
1
40
1
40
1
40
1
41
1
10
12.9667147162305
20
-8.17637557078857
30
0
41
1
10
12.3617203192854
20
-8.78136996773375
30
0
41
1
10
11.7538438806348
20
-9.3892464063843
30
0
41
1
10
11.1430902870191
20
-10
30
0
0
SPLINE
5
F6
100
AcDbEntity
8
1
62
256
6
ByLayer
370
18
48
1
60
0
100
AcDbSpline
70
4
71
3
72
8
73
4
40
0
40
0
40
0
40
0
40
1
40
1
40
1
40
1
41
1
10
15.2281180110091
20
0.406602056529749
30
0
41
1
10
15.7344739982782
20
0.0747735918358501
30
0
41
1
10
16.2449421781277
20
-0.277367337958566
30
0
41
1
10
16.7989244724988
20
-0.703452894338426
30
0
0
SPLINE
5
F7
100
AcDbEntity
8
1
62
256
6
ByLayer
370
18
48
1
60
0
100
AcDbSpline
70
4
71
3
72
18
73
14
40
0
40
0
40
0
40
0
40
0.0072465960111028
40
0.0072465960111028
40
0.230402764352959
40
0.230402764352959
40
0.453900797601606
40
0.453900797601606
40
0.678321179939424
40
0.678321179939424
40
0.903384405807568
40
0.903384405807568
40
1
40
1
40
1
40
1
41
1
10
9.72958923738446
20
0.906769881026491
30
0
41
1
10
9.73470644276719
20
0.913519839495564
30
0
41
1
10
9.73986089329421
20
0.920241628990738
30
0
41
1
10
9.902795710536
20
1.13031238882942
30
0
41
1
10
10.0976891039288
20
1.30924150226338
30
0
41
1
10
10.5297962865687
20
1.58908643933205
30
0
41
1
10
10.7729990509651
20
1.69374031249529
30
0
41
1
10
11.2743999086581
20
1.81563535091914
30
0
41
1
10
11.5395614821803
20
1.83420394171807
30
0
41
1
10
12.0549224816733
20
1.78333251950704
30
0
41
1
10
12.3121981440885
20
1.71293403813138
30
0
41
1
10
12.6489881455327
20
1.55610200710845
30
0
41
1
10
12.7473986429499
20
1.50126765950984
30
0
41
1
10
12.8410919415857
20
1.43975802689047
30
0
0
SPLINE
5
F8
100
AcDbEntity
8
1
62
256
6
ByLayer
370
18
48
1
60
0
100
AcDbSpline
70
4
71
3
72
26
73
22
40
0
40
0
40
0
40
0
40
0.0471865094512246
40
0.0471865094512246
40
0.161359650892235
40
0.161359650892235
40
0.275706209920048
40
0.275706209920048
40
0.390531995716596
40
0.390531995716596
40
0.505692539797102
40
0.505692539797102
40
0.620944759940315
40
0.620944759940315
40
0.736198770178816
40
0.736198770178816
40
0.851360439403268
40
0.851360439403268
40
0.966179143025992
40
0.966179143025992
40
1
40
1
40
1
40
1
41
1
10
12.1908280819656
20
-7.50326735228572
30
0
41
1
10
12.0897348078898
20
-7.62008206978086
30
0
41
1
10
11.9802197363426
20
-7.73011670370124
30
0
41
1
10
11.5837368477413
20
-8.07654644093807
30
0
41
1
10
11.2575729329281
20
-8.27641713884887
30
0
41
1
10
10.5666392298647
20
-8.55382599345995
30
0
41
1
10
10.1923329676631
20
-8.63500931062683
30
0
41
1
10
9.44653903995345
20
-8.6692505004624
30
0
41
1
10
9.06480056190188
20
-8.62225578937384
30
0
41
1
10
8.34693417970749
20
-8.40764578808921
30
0
41
1
10
8.00104108805976
20
-8.23672101643959
30
0
41
1
10
7.39328097719562
20
-7.79609379609249
30
0
41
1
10
7.12309750497775
20
-7.52023498138803
30
0
41
1
10
6.69516381360557
20
-6.90321594833782
30
0
41
1
10
6.53150500082762
20
-6.55352925729258
30
0
41
1
10
6.3322638142663
20
-5.82994664681877
30
0
41
1
10
6.29383438218576
20
-5.446043756753
30
0
41
1
10
6.34599368619212
20
-4.69868515372852
30
0
41
1
10
6.436945215793
20
-4.32482755822912
30
0
41
1
10
6.62953569646902
20
-3.8792207295578
30
0
41
1
10
6.67892886371439
20
-3.7790615937802
30
0
41
1
10
6.73314666194037
20
-3.681757680837
30
0
0
SPLINE
5
F9
100
AcDbEntity
8
1
62
256
6
ByLayer
370
18
48
1
60
0
100
AcDbSpline
70
4
71
3
72
10
73
6
40
0
40
0
40
0
40
0
40
0.502725696681702
40
0.502725696681702
40
1
40
1
40
1
40
1
41
1
10
17.0231952739803
20
-4.11989501303884
30
0
41
1
10
16.3423367024734
20
-4.8007535845457
30
0
41
1
10
15.6623706062509
20
-5.4807196807682
30
0
41
1
10
14.3110630600428
20
-6.83202722697632
30
0
41
1
10
13.6393605851584
20
-7.50372970186069
30
0
41
1
10
12.9667147162305
20
-8.17637557078859
30
0
0
SPLINE
5
FA
100
AcDbEntity
8
1
62
256
6
ByLayer
370
18
48
1
60
0
100
AcDbSpline
70
4
71
3
72
10
73
6
40
0
40
0
40
0
40
0
40
0.175607702571092
40
0.175607702571092
40
1
40
1
40
1
40
1
41
1
10
10.4055654096144
20
3.77322531597463
30
0
41
1
10
10.4751258822201
20
3.72451854869465
30
0
41
1
10
10.5447505235823
20
3.67576684996772
30
0
41
1
10
10.934724819475
20
3.40270390827564
30
0
41
1
10
11.2514893594174
20
3.18090298957043
30
0
41
1
10
11.5468203428381
20
2.97411000871236
30
0
0
SPLINE
5
FB
100
AcDbEntity
8
1
62
256
6
ByLayer
370
18
48
1
60
0
100
AcDbSpline
70
4
71
3
72
20
73
16
40
0
40
0
40
0
40
0
40
0.169357548259997
40
0.169357548259997
40
0.347894026973891
40
0.347894026973891
40
0.516732446591084
40
0.516732446591084
40
0.679348092447587
40
0.679348092447587
40
0.766947589146918
40
0.766947589146918
40
0.943627534790163
40
0.943627534790163
40
1
40
1
40
1
40
1
41
1
10
15.1729729867748
20
0.333009059114772
30
0
41
1
10
15.1054317524633
20
0.399229396381571
30
0
41
1
10
15.0176551158633
20
0.478765259189487
30
0
41
1
10
14.8070412416905
20
0.657416932893909
30
0
41
1
10
14.6792673428612
20
0.760063597688713
30
0
41
1
10
14.4133159232838
20
0.962579877067782
30
0
41
1
10
14.2722978435822
20
1.06514021360815
30
0
41
1
10
13.9966447651632
20
1.25645592522585
30
0
41
1
10
13.8582585563876
20
1.34815997838075
30
0
41
1
10
13.6574758498744
20
1.4751135804359
30
0
41
1
10
13.5883449476014
20
1.51761498507176
30
0
41
1
10
13.3910195504014
20
1.6355081511411
30
0
41
1
10
13.2698406347331
20
1.70305602692565
30
0
41
1
10
13.1361937370374
20
1.77176469357397
30
0
41
1
10
13.1055109803827
20
1.78701160124635
30
0
41
1
10
13.076884152411
20
1.80070626169351
30
0
0
SPLINE
5
FC
100
AcDbEntity
8
1
62
256
6
ByLayer
370
18
48
1
60
0
100
AcDbSpline
70
4
71
3
72
10
73
6
40
0
40
0
40
0
40
0
40
0.267625965375834
40
0.267625965375834
40
1
40
1
40
1
40
1
41
1
10
16.7989244724988
20
-0.703452894338426
30
0
41
1
10
16.8957941339043
20
-0.771281761478377
30
0
41
1
10
16.9944595139308
20
-0.840368004333243
30
0
41
1
10
17.3659813550636
20
-1.10051039810401
30
0
41
1
10
17.6541065440312
20
-1.30225782736721
30
0
41
1
10
17.9401794057225
20
-1.50256820160064
30
0
0
SPLINE
5
FD
100
AcDbEntity
8
1
62
256
6
ByLayer
370
18
48
1
60
0
100
AcDbSpline
70
4
71
3
72
8
73
4
40
0
40
0
40
0
40
0
40
1
40
1
40
1
40
1
41
1
10
12.8410919415857
20
1.43975802689047
30
0
41
1
10
13.5461444607448
20
0.9768911830256
30
0
41
1
10
14.2383435585453
20
0.492208156803713
30
0
41
1
10
14.9144382797865
20
-0.0120147084372775
30
0
0
SPLINE
5
FE
100
AcDbEntity
8
1
62
256
6
ByLayer
370
18
48
1
60
0
100
AcDbSpline
70
4
71
3
72
18
73
14
40
0
40
0
40
0
40
0
40
0.0126930786768504
40
0.0126930786768504
40
0.237249182114833
40
0.237249182114833
40
0.462105833052224
40
0.462105833052224
40
0.687243859579287
40
0.687243859579287
40
0.912051948300223
40
0.912051948300223
40
1
40
1
40
1
40
1
41
1
10
14.9144382797865
20
-0.0120147084372775
30
0
41
1
10
14.9263216396589
20
-0.0208771674616059
30
0
41
1
10
14.9381203554912
20
-0.029853857559857
30
0
41
1
10
15.1544002609184
20
-0.197702473259852
30
0
41
1
10
15.3343693915118
20
-0.393826438368734
30
0
41
1
10
15.615666101416
20
-0.828644981199915
30
0
41
1
10
15.7207734281317
20
-1.07338851771198
30
0
41
1
10
15.8424206494641
20
-1.57721273986672
30
0
41
1
10
15.8605285031859
20
-1.84328563248485
30
0
41
1
10
15.8080420919767
20
-2.35898031787775
30
0
41
1
10
15.7368333564941
20
-2.61577032153019
30
0
41
1
10
15.5829383866461
20
-2.94263760672359
30
0
41
1
10
15.5331714544506
20
-3.03233966030641
30
0
41
1
10
15.4777898530009
20
-3.11816352116983
30
0
0
SPLINE
5
FF
100
AcDbEntity
8
1
62
256
6
ByLayer
370
18
48
1
60
0
100
AcDbSpline
70
4
71
3
72
26
73
22
40
0
40
0
40
0
40
0
40
0.0611212350797032
40
0.0611212350797032
40
0.145349009858789
40
0.145349009858789
40
0.228936526328737
40
0.228936526328737
40
0.391532191220695
40
0.391532191220695
40
0.475817926908328
40
0.475817926908328
40
0.589557559273588
40
0.589557559273588
40
0.703149060376427
40
0.703149060376427
40
0.816673845780331
40
0.816673845780331
40
0.930168712116189
40
0.930168712116189
40
1
40
1
40
1
40
1
41
1
10
20.0963625783493
20
9.05164521962089
30
0
41
1
10
20.1050588776182
20
9.0479642883474
30
0
41
1
10
20.1133174046925
20
9.04314434759883
30
0
41
1
10
20.130733633275
20
9.02911563167555
30
0
41
1
10
20.1392989317417
20
9.01866929379673
30
0
41
1
10
20.1517275932348
20
8.99513647438579
30
0
41
1
10
20.1558190128928
20
8.98180464536102
30
0
41
1
10
20.162034421094
20
8.94181533257429
30
0
41
1
10
20.1592705543266
20
8.91333982685134
30
0
41
1
10
20.1496319022572
20
8.87199867771091
30
0
41
1
10
20.1452878895313
20
8.85788106586489
30
0
41
1
10
20.1333432403509
20
8.82533780457572
30
0
41
1
10
20.1251032802966
20
8.80702779131505
30
0
41
1
10
20.1067094856064
20
8.77144800291998
30
0
41
1
10
20.0965181479644
20
8.75410829711407
30
0
41
1
10
20.0746351084127
20
8.72044215617871
30
0
41
1
10
20.0629149889524
20
8.70407377547073
30
0
41
1
10
20.038221412395
20
8.67234908118056
30
0
41
1
10
20.0252241366993
20
8.6569629983417
30
0
41
1
10
20.0033460111838
20
8.63296105114947
30
0
41
1
10
19.9948008072068
20
8.62401319124459
30
0
41
1
10
19.9860568514993
20
8.615269235537
30
0
0
SPLINE
5
100
100
AcDbEntity
8
1
62
256
6
ByLayer
370
18
48
1
60
0
100
AcDbSpline
70
4
71
3
72
26
73
22
40
0
40
0
40
0
40
0
40
0.0611212350797101
40
0.0611212350797101
40
0.145349009858795
40
0.145349009858795
40
0.228936526328746
40
0.228936526328746
40
0.391532191220709
40
0.391532191220709
40
0.475817926908348
40
0.475817926908348
40
0.589557559273606
40
0.589557559273606
40
0.703149060376455
40
0.703149060376455
40
0.816673845780364
40
0.816673845780364
40
0.930168712116219
40
0.930168712116219
40
1
40
1
40
1
40
1
41
1
10
18.7998443475514
20
8.30404541873401
30
0
41
1
10
18.8010047171934
20
8.29467373701146
30
0
41
1
10
18.8009597895975
20
8.28511167239307
30
0
41
1
10
18.7975186795168
20
8.26301441804083
30
0
41
1
10
18.7927545347705
20
8.25037348303826
30
0
41
1
10
18.7785888460845
20
8.22784353674476
30
0
41
1
10
18.7690888532992
20
8.21763434887097
30
0
41
1
10
18.7375647966466
20
8.19225699108046
30
0
41
1
10
18.7115223519212
20
8.18041281705229
30
0
41
1
10
18.6709005405092
20
8.1680895600324
30
0
41
1
10
18.6565023236469
20
8.16479277948437
30
0
41
1
10
18.6223467080582
20
8.15886551846933
30
0
41
1
10
18.6023697914037
20
8.15684652657217
30
0
41
1
10
18.5623598934473
20
8.1549861258483
30
0
41
1
10
18.5422475989042
20
8.15514223024192
30
0
41
1
10
18.5021503458309
20
8.15726042793798
30
0
41
1
10
18.4821148525888
20
8.15922615877201
30
0
41
1
10
18.4422936731275
20
8.16474907623598
30
0
41
1
10
18.4224702966765
20
8.16831200574893
30
0
41
1
10
18.39074493791
20
8.17525804463651
30
0
41
1
10
18.3787232619344
20
8.17818447840858
30
0
41
1
10
18.3667787963083
20
8.18138498832712
30
0
0
SPLINE
5
101
100
AcDbEntity
8
1
62
256
6
ByLayer
370
18
48
1
60
0
100
AcDbSpline
70
4
71
3
72
8
73
4
40
0
40
0
40
0
40
0
40
1
40
1
40
1
40
1
41
1
10
17.5049635086869
20
10.5496808674154
30
0
41
1
10
17.5095735365445
20
10.5448640246638
30
0
41
1
10
17.5141841532727
20
10.5400465666237
30
0
41
1
10
17.5187953818279
20
10.5352284693089
30
0
0
SPLINE
5
102
100
AcDbEntity
8
1
62
256
6
ByLayer
370
18
48
1
60
0
100
AcDbSpline
70
4
71
3
72
8
73
4
40
0
40
0
40
0
40
0
40
1
40
1
40
1
40
1
41
1
10
17.5235768931965
20
9.05781579709998
30
0
41
1
10
17.5170986842463
20
9.05623140468595
30
0
41
1
10
17.5106213348379
20
9.05464722249229
30
0
41
1
10
17.5041448127202
20
9.05306324263125
30
0
0
SPLINE
5
103
100
AcDbEntity
8
1
62
256
6
ByLayer
370
18
48
1
60
0
100
AcDbSpline
70
4
71
3
72
8
73
4
40
0
40
0
40
0
40
0
40
1
40
1
40
1
40
1
41
1
10
20.0825307052084
20
9.06609761772739
30
0
41
1
10
20.0871419337636
20
9.06127952041251
30
0
41
1
10
20.0917525504917
20
9.0564620623725
30
0
41
1
10
20.0963625783493
20
9.05164521962089
30
0
0
SPLINE
5
104
100
AcDbEntity
8
1
62
256
6
ByLayer
370
18
48
1
60
0
100
AcDbSpline
70
4
71
3
72
8
73
4
40
0
40
0
40
0
40
0
40
1
40
1
40
1
40
1
41
1
10
18.0660976177274
20
11.0825307052084
30
0
41
1
10
18.0612795204125
20
11.0871419337636
30
0
41
1
10
18.0564620623725
20
11.0917525504917
30
0
41
1
10
18.0516452196209
20
11.0963625783493
30
0
0
SPLINE
5
105
100
AcDbEntity
8
1
62
256
6
ByLayer
370
18
48
1
60
0
100
AcDbSpline
70
4
71
3
72
24
73
20
40
0
40
0
40
0
40
0
40
0.158126111966026
40
0.158126111966026
40
0.271563393607324
40
0.271563393607324
40
0.385066230469799
40
0.385066230469799
40
0.498714519310322
40
0.498714519310322
40
0.612721087896074
40
0.612721087896074
40
0.746221642583612
40
0.746221642583612
40
0.824913378297545
40
0.824913378297545
40
0.908986128606074
40
0.908986128606074
40
1
40
1
40
1
40
1
41
1
10
19.234547290728
20
11.4199410987091
30
0
41
1
10
19.2615802833062
20
11.4126976301788
30
0
41
1
10
19.2882813356355
20
11.4040401404163
30
0
41
1
10
19.3331412802212
20
11.3867431331509
30
0
41
1
10
19.3516297976181
20
11.3787664302764
30
0
41
1
10
19.387786165682
20
11.3612592708152
30
0
41
1
10
19.4054965708381
20
11.3517089997535
30
0
41
1
10
19.4397544687315
20
11.3308821980383
30
0
41
1
10
19.4563628406791
20
11.3195696455944
30
0
41
1
10
19.487803049959
20
11.294948544746
30
0
41
1
10
19.5027345430721
20
11.2815587671169
30
0
41
1
10
19.5317184122746
20
11.2501473314517
30
0
41
1
10
19.5455285910616
20
11.2313538161432
30
0
41
1
10
19.560754803269
20
11.199400344698
30
0
41
1
10
19.5649739757922
20
11.186870067207
30
0
41
1
10
19.5692450608135
20
11.1610359653271
30
0
41
1
10
19.5689860269462
20
11.1474117814251
30
0
41
1
10
19.5629383979824
20
11.1211330040725
30
0
41
1
10
19.5566306381172
20
11.1082622565367
30
0
41
1
10
19.548262844405
20
11.0971812743161
30
0
0
SPLINE
5
106
100
AcDbEntity
8
1
62
256
6
ByLayer
370
18
48
1
60
0
100
AcDbSpline
70
4
71
3
72
8
73
4
40
0
40
0
40
0
40
0
40
1
40
1
40
1
40
1
41
1
10
18.0530632426313
20
8.50414481272017
30
0
41
1
10
18.0546472224923
20
8.51062133483791
30
0
41
1
10
18.0562314046859
20
8.51709868424629
30
0
41
1
10
18.0578157971
20
8.52357689319649
30
0
0
SPLINE
5
107
100
AcDbEntity
8
1
62
256
6
ByLayer
370
18
48
1
60
0
100
AcDbSpline
70
4
71
3
72
8
73
4
40
0
40
0
40
0
40
0
40
1
40
1
40
1
40
1
41
1
10
18.7958815321495
20
11.278075715727
30
0
41
1
10
18.7977485125445
20
11.2844782054559
30
0
41
1
10
18.7996152452247
20
11.2908798456896
30
0
41
1
10
18.8014817394849
20
11.2972806683022
30
0
0
SPLINE
5
108
100
AcDbEntity
8
1
62
256
6
ByLayer
370
18
48
1
60
0
100
AcDbSpline
70
4
71
3
72
8
73
4
40
0
40
0
40
0
40
0
40
1
40
1
40
1
40
1
41
1
10
19.548262844405
20
11.0971812743161
30
0
41
1
10
19.546678864544
20
11.0907047521984
30
0
41
1
10
19.5450946823503
20
11.08422740279
30
0
41
1
10
19.5435102899363
20
11.0777491938398
30
0
0
SPLINE
5
109
100
AcDbEntity
8
1
62
256
6
ByLayer
370
18
48
1
60
0
100
AcDbSpline
70
4
71
3
72
24
73
20
40
0
40
0
40
0
40
0
40
0.158126111966035
40
0.158126111966035
40
0.271563393607329
40
0.271563393607329
40
0.385066230469805
40
0.385066230469805
40
0.498714519310331
40
0.498714519310331
40
0.61272108789608
40
0.61272108789608
40
0.746221642583614
40
0.746221642583614
40
0.824913378297546
40
0.824913378297546
40
0.908986128606075
40
0.908986128606075
40
1
40
1
40
1
40
1
41
1
10
18.3667787963083
20
8.18138498832712
30
0
41
1
10
18.3397458037301
20
8.18862845685746
30
0
41
1
10
18.3130447514007
20
8.19728594661996
30
0
41
1
10
18.2681848068151
20
8.21458295388535
30
0
41
1
10
18.2496962894182
20
8.22255965675981
30
0
41
1
10
18.2135399213543
20
8.24006681622109
30
0
41
1
10
18.1958295161981
20
8.24961708728273
30
0
41
1
10
18.1615716183047
20
8.27044388899799
30
0
41
1
10
18.1449632463572
20
8.28175644144187
30
0
41
1
10
18.1135230370773
20
8.30637754229022
30
0
41
1
10
18.0985915439642
20
8.31976731991941
30
0
41
1
10
18.0696076747616
20
8.35117875558458
30
0
41
1
10
18.0557974959747
20
8.36997227089302
30
0
41
1
10
18.0405712837672
20
8.40192574233831
30
0
41
1
10
18.036352111244
20
8.41445601982923
30
0
41
1
10
18.0320810262228
20
8.44029012170918
30
0
41
1
10
18.03234006009
20
8.45391430561114
30
0
41
1
10
18.0383876890538
20
8.48019308296375
30
0
41
1
10
18.044695448919
20
8.49306383049955
30
0
41
1
10
18.0530632426313
20
8.50414481272017
30
0
0
SPLINE
5
10A
100
AcDbEntity
8
1
62
256
6
ByLayer
370
18
48
1
60
0
100
AcDbSpline
70
4
71
3
72
30
73
26
40
0
40
0
40
0
40
0
40
0.0728681126376374
40
0.0728681126376374
40
0.127812593477388
40
0.127812593477388
40
0.199092397893152
40
0.199092397893152
40
0.288874798003795
40
0.288874798003795
40
0.393641276926116
40
0.393641276926116
40
0.499915621932666
40
0.499915621932666
40
0.631623646297548
40
0.631623646297548
40
0.734868911743396
40
0.734868911743396
40
0.796951047610414
40
0.796951047610414
40
0.859105215562921
40
0.859105215562921
40
0.921420364650245
40
0.921420364650245
40
1
40
1
40
1
40
1
41
1
10
20.278075715727
20
9.79588153214951
30
0
41
1
10
20.2604229537659
20
9.79073394708587
30
0
41
1
10
20.2434727908935
20
9.78182280338709
30
0
41
1
10
20.2160002503175
20
9.7626528727468
30
0
41
1
10
20.2047421807872
20
9.75313409189852
30
0
41
1
10
20.1803206649891
20
9.72942816114221
30
0
41
1
10
20.1674759278832
20
9.71459641111602
30
0
41
1
10
20.1405285072466
20
9.67910598853013
30
0
41
1
10
20.1268456807101
20
9.65778082079447
30
0
41
1
10
20.0999869764135
20
9.6096577850673
30
0
41
1
10
20.0871675755478
20
9.58233895810628
30
0
41
1
10
20.0646713516049
20
9.52584873344969
30
0
41
1
10
20.0549687778325
20
9.49645939756115
30
0
41
1
10
20.0371344293742
20
9.42990070299479
30
0
41
1
10
20.0298297763791
20
9.39220864029122
30
0
41
1
10
20.0220798858773
20
9.32523196266527
30
0
41
1
10
20.0204693610069
20
9.29565829085101
30
0
41
1
10
20.0213577631598
20
9.24906062422625
30
0
41
1
10
20.0224806536154
20
9.23165487295765
30
0
41
1
10
20.026567339739
20
9.19744070737789
30
0
41
1
10
20.0295394309509
20
9.18056104250297
30
0
41
1
10
20.0377345260065
20
9.14783182964408
30
0
41
1
10
20.0429869243879
20
9.13187607909762
30
0
41
1
10
20.0580327141931
20
9.09808059290683
30
0
41
1
10
20.0688377103001
20
9.08040490725125
30
0
41
1
10
20.0825307052084
20
9.06609761772739
30
0
0
SPLINE
5
10B
100
AcDbEntity
8
1
62
256
6
ByLayer
370
18
48
1
60
0
100
AcDbSpline
70
4
71
3
72
24
73
20
40
0
40
0
40
0
40
0
40
0.158126111965955
40
0.158126111965955
40
0.271563393607264
40
0.271563393607264
40
0.38506623046974
40
0.38506623046974
40
0.498714519310274
40
0.498714519310274
40
0.612721087896038
40
0.612721087896038
40
0.746221642583591
40
0.746221642583591
40
0.824913378297524
40
0.824913378297524
40
0.908986128606065
40
0.908986128606065
40
1
40
1
40
1
40
1
41
1
10
17.615269235537
20
10.9860568514993
30
0
41
1
10
17.5954797114891
20
10.9662673274514
30
0
41
1
10
17.5766846667454
20
10.9454191952194
30
0
41
1
10
17.5464833187546
20
10.9080095752253
30
0
41
1
10
17.5344601444477
20
10.8918572891992
30
0
41
1
10
17.5119013909264
20
10.8586174603256
30
0
41
1
10
17.50133886568
20
10.8414914803957
30
0
41
1
10
17.4820840566817
20
10.806325992084
30
0
41
1
10
17.4733570608823
20
10.7882248483116
30
0
41
1
10
17.4584395913698
20
10.7511822448679
30
0
41
1
10
17.452203427832
20
10.7321206107334
30
0
41
1
10
17.4428083786352
20
10.6904255748767
30
0
41
1
10
17.4402451706291
20
10.6672448237998
30
0
41
1
10
17.4430356197767
20
10.6319591996853
30
0
41
1
10
17.4456468479341
20
10.6189980748001
30
0
41
1
10
17.4548650307439
20
10.5944895437775
30
0
41
1
10
17.4619014526044
20
10.5828201713462
30
0
41
1
10
17.480278241596
20
10.5630858970603
30
0
41
1
10
17.4921762956482
20
10.5550933826612
30
0
41
1
10
17.5049635086869
20
10.5496808674154
30
0
0
SPLINE
5
10C
100
AcDbEntity
8
1
62
256
6
ByLayer
370
18
48
1
60
0
100
AcDbSpline
70
4
71
3
72
8
73
4
40
0
40
0
40
0
40
0
40
1
40
1
40
1
40
1
41
1
10
17.304045418734
20
9.79984434755139
30
0
41
1
10
17.3104462413467
20
9.80171084181151
30
0
41
1
10
17.3168478815803
20
9.80357757449178
30
0
41
1
10
17.3232503713093
20
9.80544455488675
30
0
0
SPLINE
5
10D
100
AcDbEntity
8
1
62
256
6
ByLayer
370
18
48
1
60
0
100
AcDbSpline
70
4
71
3
72
30
73
26
40
0
40
0
40
0
40
0
40
0.0728681126376343
40
0.0728681126376343
40
0.127812593477384
40
0.127812593477384
40
0.199092397893146
40
0.199092397893146
40
0.28887479800379
40
0.28887479800379
40
0.393641276926115
40
0.393641276926115
40
0.499915621932661
40
0.499915621932661
40
0.631623646297547
40
0.631623646297547
40
0.734868911743391
40
0.734868911743391
40
0.796951047610409
40
0.796951047610409
40
0.859105215562918
40
0.859105215562918
40
0.921420364650243
40
0.921420364650243
40
1
40
1
40
1
40
1
41
1
10
19.5352284693089
20
8.51879538182789
30
0
41
1
10
19.5219441488951
20
8.53150932960131
30
0
41
1
10
19.505751790639
20
8.5417330293977
30
0
41
1
10
19.4754138734277
20
8.55593998212288
30
0
41
1
10
19.4615413326348
20
8.56093036590957
30
0
41
1
10
19.4288006364805
20
8.57022705361152
30
0
41
1
10
19.4095335956223
20
8.57393504723703
30
0
41
1
10
19.3653242777535
20
8.57952698678181
30
0
41
1
10
19.3400147274862
20
8.58071407829019
30
0
41
1
10
19.284909603891
20
8.5799128806602
30
0
41
1
10
19.2548411053083
20
8.57735539399073
30
0
41
1
10
19.1946710237187
20
8.56859258308617
30
0
41
1
10
19.1643678253527
20
8.56230059051092
30
0
41
1
10
19.0978091307863
20
8.54446624205258
30
0
41
1
10
19.0615145204665
20
8.53194622576038
30
0
41
1
10
18.9996360709305
20
8.50516948899849
30
0
41
1
10
18.9732192574209
20
8.49177740854256
30
0
41
1
10
18.9333086954432
20
8.46770919639701
30
0
41
1
10
18.9187963179004
20
8.45803386910251
30
0
41
1
10
18.891209324401
20
8.43738761231222
30
0
41
1
10
18.8780771514178
20
8.42637387338297
30
0
41
1
10
18.853830369164
20
8.40291210644887
30
0
41
1
10
18.842638483045
20
8.39038552074658
30
0
41
1
10
18.8208936283731
20
8.3604577414599
30
0
41
1
10
18.8109885336196
20
8.34226249751561
30
0
41
1
10
18.8054445548868
20
8.32325037130926
30
0
0
SPLINE
5
10E
100
AcDbEntity
8
1
62
256
6
ByLayer
370
18
48
1
60
0
100
AcDbSpline
70
4
71
3
72
26
73
22
40
0
40
0
40
0
40
0
40
0.0611212350797612
40
0.0611212350797612
40
0.14534900985883
40
0.14534900985883
40
0.22893652632877
40
0.22893652632877
40
0.391532191220672
40
0.391532191220672
40
0.475817926908283
40
0.475817926908283
40
0.58955755927354
40
0.58955755927354
40
0.703149060376379
40
0.703149060376379
40
0.816673845780282
40
0.816673845780282
40
0.930168712116136
40
0.930168712116136
40
1
40
1
40
1
40
1
41
1
10
18.0516452196209
20
11.0963625783493
30
0
41
1
10
18.0479642883474
20
11.1050588776182
30
0
41
1
10
18.0431443475986
20
11.113317404693
30
0
41
1
10
18.0291156316752
20
11.1307336332754
30
0
41
1
10
18.0186692937967
20
11.1392989317417
30
0
41
1
10
17.9951364743858
20
11.1517275932348
30
0
41
1
10
17.981804645361
20
11.1558190128928
30
0
41
1
10
17.9418153325743
20
11.1620344210941
30
0
41
1
10
17.9133398268514
20
11.1592705543266
30
0
41
1
10
17.8719986777109
20
11.1496319022572
30
0
41
1
10
17.8578810658649
20
11.1452878895313
30
0
41
1
10
17.8253378045758
20
11.1333432403509
30
0
41
1
10
17.8070277913147
20
11.1251032802971
30
0
41
1
10
17.7714480029197
20
11.1067094856069
30
0
41
1
10
17.7541082971141
20
11.0965181479644
30
0
41
1
10
17.7204421561787
20
11.0746351084128
30
0
41
1
10
17.7040737754708
20
11.0629149889524
30
0
41
1
10
17.6723490811806
20
11.038221412395
30
0
41
1
10
17.6569629983417
20
11.0252241366994
30
0
41
1
10
17.6329610511495
20
11.0033460111838
30
0
41
1
10
17.6240131912446
20
10.9948008072068
30
0
41
1
10
17.615269235537
20
10.9860568514993
30
0
0
SPLINE
5
10F
100
AcDbEntity
8
1
62
256
6
ByLayer
370
18
48
1
60
0
100
AcDbSpline
70
4
71
3
72
26
73
22
40
0
40
0
40
0
40
0
40
0.0727938302381818
40
0.0727938302381818
40
0.127682300187044
40
0.127682300187044
40
0.198889441338101
40
0.198889441338101
40
0.288580316474638
40
0.288580316474638
40
0.393239995518947
40
0.393239995518947
40
0.499406003515901
40
0.499406003515901
40
0.600539842293539
40
0.600539842293539
40
0.795411350083001
40
0.795411350083001
40
0.921875057553232
40
0.921875057553232
40
1
40
1
40
1
40
1
41
1
10
17.5187953818279
20
10.5352284693089
30
0
41
1
10
17.5315093296013
20
10.5219441488951
30
0
41
1
10
17.5417330293977
20
10.5057517906389
30
0
41
1
10
17.5559399821229
20
10.4754138734277
30
0
41
1
10
17.5609303659096
20
10.4615413326348
30
0
41
1
10
17.5702270536115
20
10.4288006364805
30
0
41
1
10
17.573935047237
20
10.4095335956223
30
0
41
1
10
17.5795269867818
20
10.3653242777535
30
0
41
1
10
17.5807140782916
20
10.3400147274854
30
0
41
1
10
17.5799128806615
20
10.2849096038901
30
0
41
1
10
17.5773553939907
20
10.2548411053082
30
0
41
1
10
17.5685925830862
20
10.1946710237187
30
0
41
1
10
17.5623005905109
20
10.1643678253527
30
0
41
1
10
17.5467329447246
20
10.106268580324
30
0
41
1
10
17.5375662167153
20
10.0782523584622
30
0
41
1
10
17.5065980215317
20
9.99917186551184
30
0
41
1
10
17.4805443656937
20
9.94915728615467
30
0
41
1
10
17.4277655066421
20
9.87817438334221
30
0
41
1
10
17.4039431829168
20
9.85248917696919
30
0
41
1
10
17.3604577414599
20
9.82089362837311
30
0
41
1
10
17.3422624975156
20
9.81098853361956
30
0
41
1
10
17.3232503713093
20
9.80544455488675
30
0
0
SPLINE
5
110
100
AcDbEntity
8
1
62
256
6
ByLayer
370
18
48
1
60
0
100
AcDbSpline
70
4
71
3
72
26
73
22
40
0
40
0
40
0
40
0
40
0.0611212350797058
40
0.0611212350797058
40
0.145349009858789
40
0.145349009858789
40
0.228936526328739
40
0.228936526328739
40
0.391532191220698
40
0.391532191220698
40
0.475817926908332
40
0.475817926908332
40
0.589557559273586
40
0.589557559273586
40
0.703149060376429
40
0.703149060376429
40
0.816673845780334
40
0.816673845780334
40
0.930168712116187
40
0.930168712116187
40
1
40
1
40
1
40
1
41
1
10
17.5041448127202
20
9.05306324263125
30
0
41
1
10
17.4966088830933
20
9.04737249218221
30
0
41
1
10
17.4883054284232
20
9.04263036831236
30
0
41
1
10
17.4674480897599
20
9.03456182988339
30
0
41
1
10
17.4541186465469
20
9.03236723275967
30
0
41
1
10
17.4275242963679
20
9.03337010587711
30
0
41
1
10
17.4139328839245
20
9.03649274702809
30
0
41
1
10
17.3761934190707
20
9.0511047020243
30
0
41
1
10
17.3529148411127
20
9.06773603371909
30
0
41
1
10
17.3219316817702
20
9.09675392583964
30
0
41
1
10
17.3118774776337
20
9.10757475713763
30
0
41
1
10
17.2896665112255
20
9.13419075741174
30
0
41
1
10
17.2779295546252
20
9.15048177877526
30
0
41
1
10
17.2563134513589
20
9.18420116644646
30
0
41
1
10
17.2463924944579
20
9.20169697664596
30
0
41
1
10
17.2281782809363
20
9.23748131527742
30
0
41
1
10
17.2198629071546
20
9.25581542681942
30
0
41
1
10
17.2047353042507
20
9.29306303857354
30
0
41
1
10
17.1979092034953
20
9.3120120509254
30
0
41
1
10
17.1880619702443
20
9.34296003700518
30
0
41
1
10
17.1845854982457
20
9.35483433068214
30
0
41
1
10
17.1813849883271
20
9.36677879630827
30
0
0
SPLINE
5
111
100
AcDbEntity
8
1
62
256
6
ByLayer
370
18
48
1
60
0
100
AcDbSpline
70
4
71
3
72
30
73
26
40
0
40
0
40
0
40
0
40
0.0728681126376398
40
0.0728681126376398
40
0.12781259347739
40
0.12781259347739
40
0.199092397893153
40
0.199092397893153
40
0.288874798003797
40
0.288874798003797
40
0.393641276926118
40
0.393641276926118
40
0.499915621932665
40
0.499915621932665
40
0.63162364629755
40
0.63162364629755
40
0.734868911743393
40
0.734868911743393
40
0.796951047610412
40
0.796951047610412
40
0.859105215562923
40
0.859105215562923
40
0.921420364650246
40
0.921420364650246
40
1
40
1
40
1
40
1
41
1
10
18.0578157971
20
8.52357689319649
30
0
41
1
10
18.0621842386473
20
8.54143842603355
30
0
41
1
10
18.0629420432636
20
8.56057326952873
30
0
41
1
10
18.0600766666283
20
8.59395015289422
30
0
41
1
10
18.0574621953658
20
8.6084593175292
30
0
41
1
10
18.0491430150095
20
8.64146193598742
30
0
41
1
10
18.0427207112572
20
8.66000167963915
30
0
41
1
10
18.025458814025
20
8.70108404176983
30
0
41
1
10
18.0138320902942
20
8.72359630101386
30
0
41
1
10
17.9855856709956
20
8.77091813911102
30
0
41
1
10
17.9683365732786
20
8.79567947940257
30
0
41
1
10
17.930662715632
20
8.84340689315462
30
0
41
1
10
17.9100620910384
20
8.86650423646788
30
0
41
1
10
17.8613377449303
20
8.91522858257591
30
0
41
1
10
17.8323477876055
20
8.94040062898728
30
0
41
1
10
17.7782192285713
20
8.98060056985133
30
0
41
1
10
17.7534129399322
20
8.99678216120969
30
0
41
1
10
17.7126139758016
20
9.01931161568891
30
0
41
1
10
17.6969787078032
20
9.027042039663
30
0
41
1
10
17.66530502818
20
9.04060994845244
30
0
41
1
10
17.6492007639851
20
9.04647587439811
30
0
41
1
10
17.6167588866756
20
9.0557433203229
30
0
41
1
10
17.6003146021752
20
9.05917248516707
30
0
41
1
10
17.5635239576981
20
9.06304019207118
30
0
41
1
10
17.5428138668376
20
9.0625206337825
30
0
41
1
10
17.5235768931965
20
9.05781579709998
30
0
0
SPLINE
5
112
100
AcDbEntity
8
1
62
256
6
ByLayer
370
18
48
1
60
0
100
AcDbSpline
70
4
71
3
72
28
73
24
40
0
40
0
40
0
40
0
40
0.0405984349492791
40
0.0405984349492791
40
0.136918028510119
40
0.136918028510119
40
0.28417840566475
40
0.28417840566475
40
0.500822929974434
40
0.500822929974434
40
0.566758824834793
40
0.566758824834793
40
0.632050095044761
40
0.632050095044761
40
0.735175839208392
40
0.735175839208392
40
0.797186106051224
40
0.797186106051224
40
0.859268321592036
40
0.859268321592036
40
0.921511331908836
40
0.921511331908836
40
1
40
1
40
1
40
1
41
1
10
18.7958815321495
20
11.278075715727
30
0
41
1
10
18.7929770193273
20
11.2681151861136
30
0
41
1
10
18.7888732502623
20
11.2583811298062
30
0
41
1
10
18.7722856484802
20
11.2270569293377
30
0
41
1
10
18.7558496113274
20
11.2067953026934
30
0
41
1
10
18.7090045924997
20
11.1607518152887
30
0
41
1
10
18.6749851561013
20
11.1367524483092
30
0
41
1
10
18.5859839737856
20
11.0863607815308
30
0
41
1
10
18.5268183355678
20
11.0631034307544
30
0
41
1
10
18.4481917552178
20
11.042035502046
30
0
41
1
10
18.4294749559124
20
11.0377291227903
30
0
41
1
10
18.3920909475885
20
11.0305481741484
30
0
41
1
10
18.3733794748087
20
11.027651048262
30
0
41
1
10
18.3252319626653
20
11.0220798858773
30
0
41
1
10
18.2956582908511
20
11.0204693610068
30
0
41
1
10
18.2490606242263
20
11.0213577631597
30
0
41
1
10
18.2316548729579
20
11.0224806536148
30
0
41
1
10
18.1974407073782
20
11.0265673397385
30
0
41
1
10
18.1805610425039
20
11.0295394309492
30
0
41
1
10
18.147831829645
20
11.0377345260048
30
0
41
1
10
18.1318760790977
20
11.0429869243879
30
0
41
1
10
18.0980805929068
20
11.0580327141931
30
0
41
1
10
18.0804049072513
20
11.0688377103001
30
0
41
1
10
18.0660976177274
20
11.0825307052084
30
0
0
SPLINE
5
113
100
AcDbEntity
8
1
62
256
6
ByLayer
370
18
48
1
60
0
100
AcDbSpline
70
4
71
3
72
8
73
4
40
0
40
0
40
0
40
0
40
1
40
1
40
1
40
1
41
1
10
19.5496808674154
20
8.50496350868693
30
0
41
1
10
19.5448640246637
20
8.50957353654454
30
0
41
1
10
19.5400465666237
20
8.51418415327265
30
0
41
1
10
19.5352284693089
20
8.51879538182789
30
0
0
SPLINE
5
114
100
AcDbEntity
8
1
62
256
6
ByLayer
370
18
48
1
60
0
100
AcDbSpline
70
4
71
3
72
26
73
22
40
0
40
0
40
0
40
0
40
0.0611212350797085
40
0.0611212350797085
40
0.145349009858789
40
0.145349009858789
40
0.22893652632874
40
0.22893652632874
40
0.391532191220701
40
0.391532191220701
40
0.475817926908337
40
0.475817926908337
40
0.58955755927359
40
0.58955755927359
40
0.703149060376434
40
0.703149060376434
40
0.816673845780336
40
0.816673845780336
40
0.930168712116188
40
0.930168712116188
40
1
40
1
40
1
40
1
41
1
10
20.0971812743161
20
10.548262844405
30
0
41
1
10
20.104717203943
20
10.5539535948541
30
0
41
1
10
20.1130206586131
20
10.5586957187239
30
0
41
1
10
20.1338779972764
20
10.5667642571529
30
0
41
1
10
20.1472074404893
20
10.5689588542766
30
0
41
1
10
20.1738017906684
20
10.5679559811592
30
0
41
1
10
20.1873932031118
20
10.5648333400082
30
0
41
1
10
20.2251326679656
20
10.550221385012
30
0
41
1
10
20.2484112459235
20
10.5335900533172
30
0
41
1
10
20.2793944052661
20
10.5045721611966
30
0
41
1
10
20.2894486094025
20
10.4937513298987
30
0
41
1
10
20.3116595758108
20
10.4671353296245
30
0
41
1
10
20.323396532411
20
10.450844308261
30
0
41
1
10
20.3450126356773
20
10.4171249205898
30
0
41
1
10
20.3549335925783
20
10.3996291103903
30
0
41
1
10
20.3731478060999
20
10.3638447717588
30
0
41
1
10
20.3814631798817
20
10.3455106602169
30
0
41
1
10
20.3965907827856
20
10.3082630484627
30
0
41
1
10
20.4034168835409
20
10.2893140361109
30
0
41
1
10
20.4132641167919
20
10.2583660500311
30
0
41
1
10
20.4167405887906
20
10.2464917563541
30
0
41
1
10
20.4199410987091
20
10.234547290728
30
0
0
SPLINE
5
115
100
AcDbEntity
8
1
62
256
6
ByLayer
370
18
48
1
60
0
100
AcDbSpline
70
4
71
3
72
24
73
20
40
0
40
0
40
0
40
0
40
0.158126111966002
40
0.158126111966002
40
0.271563393607303
40
0.271563393607303
40
0.385066230469782
40
0.385066230469782
40
0.498714519310307
40
0.498714519310307
40
0.612721087896063
40
0.612721087896063
40
0.746221642583603
40
0.746221642583603
40
0.824913378297543
40
0.824913378297543
40
0.908986128606072
40
0.908986128606072
40
1
40
1
40
1
40
1
41
1
10
17.1813849883271
20
9.36677879630827
30
0
41
1
10
17.1741415197968
20
9.39381178888647
30
0
41
1
10
17.1682885996995
20
9.42126432339271
30
0
41
1
10
17.1608382751079
20
9.46876267864894
30
0
41
1
10
17.1585020437372
20
9.48876255583019
30
0
41
1
10
17.1555855045468
20
9.52882846881278
30
0
41
1
10
17.1550010793211
20
9.54894126512011
30
0
41
1
10
17.1559086697395
20
9.58902287583368
30
0
41
1
10
17.1574014415637
20
9.60906242407768
30
0
41
1
10
17.1630038357276
20
9.64860099443854
30
0
41
1
10
17.1671339767489
20
9.66822693560553
30
0
41
1
10
17.179845143403
20
9.70903342046748
30
0
41
1
10
17.189215715693
20
9.73039014378202
30
0
41
1
10
17.2092751276001
20
9.75955316607974
30
0
41
1
10
17.2180170799621
20
9.7694722154132
30
0
41
1
10
17.2382545259634
20
9.78608813448335
30
0
41
1
10
17.250182932262
20
9.79267589652486
30
0
41
1
10
17.2759648355116
20
9.80057788488583
30
0
41
1
10
17.2902651097759
20
9.80155057836947
30
0
41
1
10
17.304045418734
20
9.79984434755139
30
0
0
SPLINE
5
116
100
AcDbEntity
8
1
62
256
6
ByLayer
370
18
48
1
60
0
100
AcDbSpline
70
4
71
3
72
24
73
20
40
0
40
0
40
0
40
0
40
0.158126111966007
40
0.158126111966007
40
0.271563393607304
40
0.271563393607304
40
0.385066230469785
40
0.385066230469785
40
0.498714519310308
40
0.498714519310308
40
0.612721087896067
40
0.612721087896067
40
0.74622164258361
40
0.74622164258361
40
0.824913378297545
40
0.824913378297545
40
0.908986128606074
40
0.908986128606074
40
1
40
1
40
1
40
1
41
1
10
19.9860568514993
20
8.615269235537
30
0
41
1
10
19.9662673274514
20
8.59547971148913
30
0
41
1
10
19.9454191952194
20
8.57668466674539
30
0
41
1
10
19.9080095752253
20
8.54648331875455
30
0
41
1
10
19.8918572891991
20
8.53446014444776
30
0
41
1
10
19.8586174603256
20
8.51190139092645
30
0
41
1
10
19.8414914803951
20
8.50133886568076
30
0
41
1
10
19.8063259920834
20
8.48208405668245
30
0
41
1
10
19.7882248483116
20
8.47335706088231
30
0
41
1
10
19.7511822448678
20
8.45843959136982
30
0
41
1
10
19.7321206107334
20
8.45220342783202
30
0
41
1
10
19.6904255748767
20
8.44280837863522
30
0
41
1
10
19.6672448237997
20
8.44024517062914
30
0
41
1
10
19.6319591996853
20
8.44303561977671
30
0
41
1
10
19.6189980748001
20
8.44564684793414
30
0
41
1
10
19.5944895437775
20
8.45486503074397
30
0
41
1
10
19.5828201713461
20
8.46190145260442
30
0
41
1
10
19.5630858970603
20
8.48027824159607
30
0
41
1
10
19.5550933826612
20
8.49217629564819
30
0
41
1
10
19.5496808674154
20
8.50496350868693
30
0
0
SPLINE
5
117
100
AcDbEntity
8
1
62
256
6
ByLayer
370
18
48
1
60
0
100
AcDbSpline
70
4
71
3
72
26
73
22
40
0
40
0
40
0
40
0
40
0.0611212350797075
40
0.0611212350797075
40
0.145349009858791
40
0.145349009858791
40
0.228936526328741
40
0.228936526328741
40
0.391532191220709
40
0.391532191220709
40
0.47581792690834
40
0.47581792690834
40
0.589557559273603
40
0.589557559273603
40
0.703149060376448
40
0.703149060376448
40
0.816673845780349
40
0.816673845780349
40
0.930168712116207
40
0.930168712116207
40
1
40
1
40
1
40
1
41
1
10
18.8014817394849
20
11.2972806683022
30
0
41
1
10
18.8003213698428
20
11.3066523500248
30
0
41
1
10
18.8003662974387
20
11.3162144146432
30
0
41
1
10
18.8038074075195
20
11.3383116689954
30
0
41
1
10
18.8085715522657
20
11.350952603998
30
0
41
1
10
18.8227372409517
20
11.3734825502915
30
0
41
1
10
18.8322372337371
20
11.3836917381653
30
0
41
1
10
18.8637612903897
20
11.4090690959558
30
0
41
1
10
18.8898037351151
20
11.420913269984
30
0
41
1
10
18.930425546527
20
11.4332365270039
30
0
41
1
10
18.9448237633894
20
11.4365333075519
30
0
41
1
10
18.978979378978
20
11.4424605685669
30
0
41
1
10
18.9989562956325
20
11.4444795604641
30
0
41
1
10
19.038966193589
20
11.446339961188
30
0
41
1
10
19.0590784881321
20
11.4461838567944
30
0
41
1
10
19.0991757412053
20
11.4440656590983
30
0
41
1
10
19.1192112344474
20
11.4420999282642
30
0
41
1
10
19.1590324139087
20
11.4365770108003
30
0
41
1
10
19.1788557903597
20
11.4330140812873
30
0
41
1
10
19.2105811491263
20
11.4260680423998
30
0
41
1
10
19.2226028251019
20
11.4231416086277
30
0
41
1
10
19.234547290728
20
11.4199410987091
30
0
0
SPLINE
5
118
100
AcDbEntity
8
1
62
256
6
ByLayer
370
18
48
1
60
0
100
AcDbSpline
70
4
71
3
72
8
73
4
40
0
40
0
40
0
40
0
40
1
40
1
40
1
40
1
41
1
10
20.0777491938398
20
10.5435102899363
30
0
41
1
10
20.08422740279
20
10.5450946823503
30
0
41
1
10
20.0907047521983
20
10.546678864544
30
0
41
1
10
20.0971812743161
20
10.548262844405
30
0
0
SPLINE
5
119
100
AcDbEntity
8
1
62
256
6
ByLayer
370
18
48
1
60
0
100
AcDbSpline
70
4
71
3
72
30
73
26
40
0
40
0
40
0
40
0
40
0.0728681126376421
40
0.0728681126376421
40
0.127812593477394
40
0.127812593477394
40
0.199092397893154
40
0.199092397893154
40
0.2888747980038
40
0.2888747980038
40
0.39364127692612
40
0.39364127692612
40
0.499915621932667
40
0.499915621932667
40
0.631623646297554
40
0.631623646297554
40
0.734868911743394
40
0.734868911743394
40
0.796951047610414
40
0.796951047610414
40
0.859105215562924
40
0.859105215562924
40
0.921420364650246
40
0.921420364650246
40
1
40
1
40
1
40
1
41
1
10
19.5435102899363
20
11.0777491938398
30
0
41
1
10
19.539141848389
20
11.0598876610027
30
0
41
1
10
19.5383840437727
20
11.0407528175075
30
0
41
1
10
19.541249420408
20
11.007375934142
30
0
41
1
10
19.5438638916705
20
10.9928667695071
30
0
41
1
10
19.5521830720267
20
10.9598641510488
30
0
41
1
10
19.5586053757791
20
10.9413244073971
30
0
41
1
10
19.5758672730112
20
10.9002420452665
30
0
41
1
10
19.587493996742
20
10.8777297860224
30
0
41
1
10
19.6157404160407
20
10.8304079479252
30
0
41
1
10
19.6329895137576
20
10.8056466076337
30
0
41
1
10
19.6706633714043
20
10.7579191938816
30
0
41
1
10
19.6912639959979
20
10.7348218505684
30
0
41
1
10
19.7399883421059
20
10.6860975044603
30
0
41
1
10
19.7689782994307
20
10.660925458049
30
0
41
1
10
19.823106858465
20
10.6207255171849
30
0
41
1
10
19.8479131471041
20
10.6045439258266
30
0
41
1
10
19.8887121112347
20
10.5820144713473
30
0
41
1
10
19.904347379233
20
10.5742840473733
30
0
41
1
10
19.9360210588562
20
10.5607161385838
30
0
41
1
10
19.9521253230512
20
10.5548502126381
30
0
41
1
10
19.9845672003607
20
10.5455827667134
30
0
41
1
10
20.0010114848611
20
10.5421536018692
30
0
41
1
10
20.0378021293381
20
10.5382858949651
30
0
41
1
10
20.0585122201987
20
10.5388054532538
30
0
41
1
10
20.0777491938398
20
10.5435102899363
30
0
0
SPLINE
5
11A
100
AcDbEntity
8
1
62
256
6
ByLayer
370
18
48
1
60
0
100
AcDbSpline
70
4
71
3
72
8
73
4
40
0
40
0
40
0
40
0
40
1
40
1
40
1
40
1
41
1
10
20.2972806683023
20
9.80148173948487
30
0
41
1
10
20.2908798456896
20
9.79961524522474
30
0
41
1
10
20.2844782054559
20
9.7977485125445
30
0
41
1
10
20.278075715727
20
9.79588153214951
30
0
0
SPLINE
5
11B
100
AcDbEntity
8
1
62
256
6
ByLayer
370
18
48
1
60
0
100
AcDbSpline
70
4
71
3
72
24
73
20
40
0
40
0
40
0
40
0
40
0.158126111966009
40
0.158126111966009
40
0.271563393607303
40
0.271563393607303
40
0.385066230469783
40
0.385066230469783
40
0.498714519310307
40
0.498714519310307
40
0.612721087896069
40
0.612721087896069
40
0.746221642583605
40
0.746221642583605
40
0.824913378297538
40
0.824913378297538
40
0.908986128606072
40
0.908986128606072
40
1
40
1
40
1
40
1
41
1
10
20.4199410987091
20
10.234547290728
30
0
41
1
10
20.4271845672394
20
10.2075142981498
30
0
41
1
10
20.4330374873368
20
10.1800617636436
30
0
41
1
10
20.4404878119283
20
10.1325634083873
30
0
41
1
10
20.4428240432991
20
10.1125635312061
30
0
41
1
10
20.4457405824894
20
10.0724976182235
30
0
41
1
10
20.4463250077151
20
10.0523848219162
30
0
41
1
10
20.4454174172968
20
10.0123032112026
30
0
41
1
10
20.4439246454725
20
9.99226366295858
30
0
41
1
10
20.4383222513087
20
9.95272509259772
30
0
41
1
10
20.4341921102873
20
9.93309915143072
30
0
41
1
10
20.4214809436332
20
9.89229266656878
30
0
41
1
10
20.4121103713432
20
9.87093594325427
30
0
41
1
10
20.3920509594362
20
9.84177292095652
30
0
41
1
10
20.3833090070742
20
9.83185387162305
30
0
41
1
10
20.3630715610728
20
9.81523795255293
30
0
41
1
10
20.3511431547743
20
9.8086501905114
30
0
41
1
10
20.3253612515246
20
9.80074820215043
30
0
41
1
10
20.3110609772603
20
9.79977550866678
30
0
41
1
10
20.2972806683023
20
9.80148173948487
30
0
0
SPLINE
5
11C
100
AcDbEntity
8
1
62
256
6
ByLayer
370
18
48
1
60
0
100
AcDbSpline
70
4
71
3
72
8
73
4
40
0
40
0
40
0
40
0
40
1
40
1
40
1
40
1
41
1
10
18.8054445548868
20
8.32325037130926
30
0
41
1
10
18.8035775744918
20
8.31684788158032
30
0
41
1
10
18.8017108418115
20
8.31044624134665
30
0
41
1
10
18.7998443475514
20
8.30404541873401
30
0
0
LINE
5
8B
100
AcDbEntity
8
SK1
62
256
6
ByLayer
370
18
48
1
60
0
100
AcDbLine
10
0
20
-10
30
0
11
0
21
9.925
31
0
39
0
210
0
220
0
230
1
0
LINE
5
8D
100
AcDbEntity
8
SK1
62
256
6
ByLayer
370
18
48
1
60
0
100
AcDbLine
10
-66
20
9.925
30
0
11
0
21
9.925
31
0
39
0
210
0
220
0
230
1
0
LINE
5
8E
100
AcDbEntity
8
SK1
62
256
6
ByLayer
370
18
48
1
60
0
100
AcDbLine
10
-66
20
-10
30
0
11
0
21
-10
31
0
39
0
210
0
220
0
230
1
0
LINE
5
8F
100
AcDbEntity
8
SK1
62
256
6
ByLayer
370
18
48
1
60
0
100
AcDbLine
10
-66
20
9.925
30
0
11
-69
21
6.925
31
0
39
0
210
0
220
0
230
1
0
LINE
5
90
100
AcDbEntity
8
SK1
62
256
6
ByLayer
370
18
48
1
60
0
100
AcDbLine
10
-66
20
-10
30
0
11
-69
21
-7
31
0
39
0
210
0
220
0
230
1
0
LINE
5
91
100
AcDbEntity
8
SK1
62
256
6
ByLayer
370
18
48
1
60
0
100
AcDbLine
10
-69
20
6.925
30
0
11
-69
21
-7
31
0
39
0
210
0
220
0
230
1
0
LINE
5
92
100
AcDbEntity
8
1
62
256
6
ByLayer
370
18
48
1
60
0
100
AcDbLine
10
10.405565
20
3.773225
30
0
11
1.619921
21
9.925
31
0
39
0
210
0
220
0
230
1
0
LINE
5
93
100
AcDbEntity
8
1
62
256
6
ByLayer
370
18
48
1
60
0
100
AcDbLine
10
2.491644
20
9.925
30
0
11
1.619921
21
9.925
31
0
39
0
210
0
220
0
230
1
0
LINE
5
94
100
AcDbEntity
8
1
62
256
6
ByLayer
370
18
48
1
60
0
100
AcDbLine
10
21.555396
20
0.412306
30
0
11
19.299266
21
-1.843824
31
0
39
0
210
0
220
0
230
1
0
LINE
5
95
100
AcDbEntity
8
1
62
256
6
ByLayer
370
18
48
1
60
0
100
AcDbLine
10
17.634305
20
-3.508785
30
0
11
18.940259
21
-2.202831
31
0
39
0
210
0
220
0
230
1
0
LINE
5
96
100
AcDbEntity
8
1
62
256
6
ByLayer
370
18
48
1
60
0
100
AcDbLine
10
0.772277
20
-10
30
0
11
1.511972
21
-10
31
0
39
0
210
0
220
0
230
1
0
LINE
5
97
100
AcDbEntity
8
1
62
256
6
ByLayer
370
18
48
1
60
0
100
AcDbLine
10
19.299266
20
-1.843824
30
0
11
18.940259
21
-2.202831
31
0
39
0
210
0
220
0
230
1
0
LINE
5
98
100
AcDbEntity
8
1
62
256
6
ByLayer
370
18
48
1
60
0
100
AcDbLine
10
18.940259
20
-2.202831
30
0
11
17.940179
21
-1.502568
31
0
39
0
210
0
220
0
230
1
0
LINE
5
99
100
AcDbEntity
8
1
62
256
6
ByLayer
370
18
48
1
60
0
100
AcDbLine
10
0.772277
20
9.925
30
0
11
1.511972
21
9.925
31
0
39
0
210
0
220
0
230
1
0
LINE
5
9A
100
AcDbEntity
8
1
62
256
6
ByLayer
370
18
48
1
60
0
100
AcDbLine
10
6.337258
20
9.925
30
0
11
2.491644
21
9.925
31
0
39
0
210
0
220
0
230
1
0
LINE
5
9B
100
AcDbEntity
8
1
62
256
6
ByLayer
370
18
48
1
60
0
100
AcDbLine
10
0
20
-10
30
0
11
0.772277
21
-10
31
0
39
0
210
0
220
0
230
1
0
LINE
5
9C
100
AcDbEntity
8
1
62
256
6
ByLayer
370
18
48
1
60
0
100
AcDbLine
10
1.511972
20
-10
30
0
11
6.899268
21
-10
31
0
39
0
210
0
220
0
230
1
0
LINE
5
9D
100
AcDbEntity
8
1
62
256
6
ByLayer
370
18
48
1
60
0
100
AcDbLine
10
0
20
9.925
30
0
11
0.772277
21
9.925
31
0
39
0
210
0
220
0
230
1
0
LINE
5
9E
100
AcDbEntity
8
1
62
256
6
ByLayer
370
18
48
1
60
0
100
AcDbLine
10
0
20
-10
30
0
11
0
21
9.925
31
0
39
0
210
0
220
0
230
1
0
LINE
5
9F
100
AcDbEntity
8
1
62
256
6
ByLayer
370
18
48
1
60
0
100
AcDbLine
10
9.651306
20
12.576306
30
0
11
7.468629
21
10.393629
31
0
39
0
210
0
220
0
230
1
0
LINE
5
A0
100
AcDbEntity
8
1
62
256
6
ByLayer
370
18
48
1
60
0
100
AcDbLine
10
1.511972
20
9.925
30
0
11
1.619921
21
9.925
31
0
39
0
210
0
220
0
230
1
0
LINE
5
A1
100
AcDbEntity
8
1
62
256
6
ByLayer
370
18
48
1
60
0
100
AcDbLine
10
1.511972
20
9.925
30
0
11
1.511972
21
-10
31
0
39
0
210
0
220
0
230
1
0
LINE
5
A2
100
AcDbEntity
8
1
62
256
6
ByLayer
370
13
48
1
60
0
100
AcDbLine
10
14.032791
20
4.602836
30
0
11
22.864997
21
5.375554
31
0
39
0
210
0
220
0
230
1
0
LINE
5
A3
100
AcDbEntity
8
1
62
256
6
ByLayer
370
13
48
1
60
0
100
AcDbLine
10
23.225772
20
5.736329
30
0
11
23.99849
21
14.568535
31
0
39
0
210
0
220
0
230
1
0
LINE
5
A4
100
AcDbEntity
8
1
62
256
6
ByLayer
370
13
48
1
60
0
100
AcDbLine
10
14.375554
20
13.864997
30
0
11
13.602836
21
5.032791
31
0
39
0
210
0
220
0
230
1
0
LINE
5
A5
100
AcDbEntity
8
1
62
256
6
ByLayer
370
13
48
1
60
0
100
AcDbLine
10
23.568535
20
14.99849
30
0
11
14.736329
21
14.225772
31
0
39
0
210
0
220
0
230
1
0
LINE
5
A6
100
AcDbEntity
8
1
62
256
6
ByLayer
370
18
48
1
60
0
100
AcDbLine
10
16.974686
20
4.839376
30
0
11
16.976524
21
4.860385
31
0
39
0
210
0
220
0
230
1
0
LINE
5
A7
100
AcDbEntity
8
1
62
256
6
ByLayer
370
13
48
1
60
0
100
AcDbLine
10
9.322802
20
1.213849
30
0
11
8.050663
21
2.17417
31
0
39
0
210
0
220
0
230
1
0
LINE
5
A8
100
AcDbEntity
8
1
62
256
6
ByLayer
370
18
48
1
60
0
100
AcDbLine
10
17.074305
20
4.83066
30
0
11
17.07768
21
4.869231
31
0
39
0
210
0
220
0
230
1
0
LINE
5
A9
100
AcDbEntity
8
1
62
256
6
ByLayer
370
18
48
1
60
0
100
AcDbLine
10
9.651306
20
12.576306
30
0
11
14.298343
21
12.982869
31
0
39
0
210
0
220
0
230
1
0
LINE
5
AA
100
AcDbEntity
8
1
62
256
6
ByLayer
370
18
48
1
60
0
100
AcDbLine
10
21.982868
20
5.298324
30
0
11
21.555396
21
0.412306
31
0
39
0
210
0
220
0
230
1
0
LINE
5
AB
100
AcDbEntity
8
1
62
256
6
ByLayer
370
13
48
1
60
0
100
AcDbLine
10
12.569105
20
-7.831436
30
0
11
12.966715
21
-8.176376
31
0
39
0
210
0
220
0
230
1
0
LINE
5
AC
100
AcDbEntity
8
1
62
256
6
ByLayer
370
13
48
1
60
0
100
AcDbLine
10
6.295391
20
-3.438533
30
0
11
4.902097
21
-2.664397
31
0
39
0
210
0
220
0
230
1
0
LINE
5
AD
100
AcDbEntity
8
1
62
256
6
ByLayer
370
13
48
1
60
0
100
AcDbLine
10
12.989288
20
1.666615
30
0
11
12.841092
21
1.439758
31
0
39
0
210
0
220
0
230
1
0
LINE
5
AE
100
AcDbEntity
8
1
62
256
6
ByLayer
370
13
48
1
60
0
100
AcDbLine
10
15.905479
20
-3.395392
30
0
11
17.023195
21
-4.119895
31
0
39
0
210
0
220
0
230
1
0
LINE
5
AF
100
AcDbEntity
8
1
62
256
6
ByLayer
370
13
48
1
60
0
100
AcDbLine
10
13.127178
20
1.877696
30
0
11
13.076884
21
1.800706
31
0
39
0
210
0
220
0
230
1
0
LINE
5
B0
100
AcDbEntity
8
1
62
256
6
ByLayer
370
13
48
1
60
0
100
AcDbLine
10
14.914438
20
-0.012015
30
0
11
15.076928
21
0.204834
31
0
39
0
210
0
220
0
230
1
0
LINE
5
B1
100
AcDbEntity
8
1
62
256
6
ByLayer
370
13
48
1
60
0
100
AcDbLine
10
15.172973
20
0.333009
30
0
11
15.228118
21
0.406602
31
0
39
0
210
0
220
0
230
1
0
LINE
5
B2
100
AcDbEntity
8
1
62
256
6
ByLayer
370
13
48
1
60
0
100
AcDbLine
10
15.905479
20
-3.395392
30
0
11
15.47779
21
-3.118164
31
0
39
0
210
0
220
0
230
1
0
LINE
5
B3
100
AcDbEntity
8
1
62
256
6
ByLayer
370
13
48
1
60
0
100
AcDbLine
10
12.190828
20
-7.503267
30
0
11
12.569105
21
-7.831436
31
0
39
0
210
0
220
0
230
1
0
LINE
5
B4
100
AcDbEntity
8
1
62
256
6
ByLayer
370
13
48
1
60
0
100
AcDbLine
10
6.733147
20
-3.681758
30
0
11
6.295391
21
-3.438533
31
0
39
0
210
0
220
0
230
1
0
LINE
5
B5
100
AcDbEntity
8
1
62
256
6
ByLayer
370
13
48
1
60
0
100
AcDbLine
10
9.729589
20
0.90677
30
0
11
9.322802
21
1.213849
31
0
39
0
210
0
220
0
230
1
0
LINE
5
B6
100
AcDbEntity
8
1
62
256
6
ByLayer
370
13
48
1
60
0
100
AcDbLine
10
0.772277
20
-10
30
0
11
0.772277
21
9.925
31
0
39
0
210
0
220
0
230
1
0
LINE
5
B7
100
AcDbEntity
8
1
62
256
6
ByLayer
370
13
48
1
60
0
100
AcDbLine
10
17.074305
20
4.83066
30
0
11
16.974686
21
4.839376
31
0
39
0
210
0
220
0
230
1
0
LINE
5
B8
100
AcDbEntity
8
1
62
256
6
ByLayer
370
13
48
1
60
0
100
AcDbLine
10
2.491644
20
9.925
30
0
11
11.527409
21
3.598089
31
0
39
0
210
0
220
0
230
1
0
LINE
5
B9
100
AcDbEntity
8
1
62
256
6
ByLayer
370
13
48
1
60
0
100
AcDbLine
10
17.391912
20
-0.50828
30
0
11
19.299266
21
-1.843824
31
0
39
0
210
0
220
0
230
1
0
LINE
5
BA
100
AcDbEntity
8
80
62
256
6
ByLayer
370
18
48
1
60
0
100
AcDbLine
10
0
20
0
30
0
11
-5
21
0
31
0
39
0
210
0
220
0
230
1
0
LINE
5
BB
100
AcDbEntity
8
81
62
256
6
ByLayer
370
18
48
1
60
0
100
AcDbLine
10
24
20
15
30
0
11
29
21
15
31
0
39
0
210
0
220
0
230
1
0
LINE
5
BC
100
AcDbEntity
8
2
62
256
6
ByLayer
370
13
48
1
60
0
100
AcDbLine
10
22
20
15
30
0
11
14.886309
21
15
31
0
39
0
210
0
220
0
230
1
0
LINE
5
BD
100
AcDbEntity
8
2
62
256
6
ByLayer
370
13
48
1
60
0
100
AcDbLine
10
24.174311
20
16.992389
30
0
11
24.794311
21
24.079011
31
0
39
0
210
0
220
0
230
1
0
LINE
5
BE
100
AcDbEntity
8
1
62
256
6
ByLayer
370
13
48
1
60
0
100
AcDbLine
10
16.886309
20
15
30
0
11
16.818686
21
18.201681
31
0
39
0
210
0
220
0
230
1
0
LINE
5
BF
100
AcDbEntity
8
1
62
256
6
ByLayer
370
13
48
1
60
0
100
AcDbLine
10
16.886309
20
15
30
0
11
17.649647
21
18.110092
31
0
39
0
210
0
220
0
230
1
0
LINE
5
C0
100
AcDbEntity
8
1
62
256
6
ByLayer
370
13
48
1
60
0
100
AcDbLine
10
16.818686
20
18.201681
30
0
11
17.649647
21
18.110092
31
0
39
0
210
0
220
0
230
1
0
LINE
5
C1
100
AcDbEntity
8
1
62
256
6
ByLayer
370
13
48
1
60
0
100
AcDbLine
10
24.619999
20
22.086622
30
0
11
21.455216
21
21.597251
31
0
39
0
210
0
220
0
230
1
0
LINE
5
C2
100
AcDbEntity
8
1
62
256
6
ByLayer
370
13
48
1
60
0
100
AcDbLine
10
24.619999
20
22.086622
30
0
11
21.436392
21
22.433032
31
0
39
0
210
0
220
0
230
1
0
LINE
5
C3
100
AcDbEntity
8
1
62
256
6
ByLayer
370
13
48
1
60
0
100
AcDbLine
10
21.455216
20
21.597251
30
0
11
21.436392
21
22.433032
31
0
39
0
210
0
220
0
230
1
0
MTEXT
5
11D
100
AcDbEntity
8
2
62
256
6
ByLayer
370
18
48
1
60
0
100
AcDbMText
10
15.761776
20
18.396856
30
0
210
0
220
0
230
1
1
\W0.8292;95%%d0'
40
3
41
0
44
1.084337
50
39.5727452227697
71
7
72
5
7
iso_b_vert
0
MTEXT
5
120
100
AcDbEntity
8
SK6
62
256
6
ByLayer
370
18
48
1
60
0
100
AcDbMText
10
-39.82683
20
-51.967366
30
0
210
0
220
0
230
1
1
\W0.7839;QS-SCLCR202009C
40
3.5
41
0
44
1.084337
50
0
71
7
72
5
7
iso_b_vert
0
DIMENSION
5
123
100
AcDbEntity
8
2
62
256
6
ByLayer
370
18
48
1
60
0
100
AcDbDimension
2
_U0
10
34.522884
20
15
30
0
11
34.522884
21
2.5
31
0
70
32
71
1
72
1
41
1
210
0
220
0
230
1
3
Standard
100
AcDbAlignedDimension
13
17
23
-10
33
0
14
24
24
15
34
0
50
90
100
AcDbRotatedDimension
1001
ACAD
1000
DSTYLE
1002
{
1070
   371
1070
    13
1070
   372
1070
    13
1070
     3
1000

1070
   170
1070
     0
1070
   144
1040
1.0
1070
   277
1070
     2
1070
   284
1070
     8
1070
   278
1070
    46
1070
   146
1040
1.0
1070
   345
1005
16
1070
   347
1005
16
1070
   346
1005
16
1070
   344
1005
124
1070
   343
1005
124
1070
   172
1070
     1
1070
    76
1070
     0
1070
    75
1070
     0
1070
   282
1070
     0
1070
   281
1070
     0
1070
    71
1070
     0
1070
   272
1070
     4
1070
    74
1070
     0
1070
   279
1070
     0
1070
   173
1070
     1
1070
   340
1005
11E
1070
   271
1070
     1
1070
    77
1070
     1
1070
    73
1070
     0
1070
   171
1070
     3
1070
   274
1070
     4
1070
   177
1070
     2
1070
   176
1070
     2
1070
   178
1070
     7
1070
    78
1070
     8
1070
    41
1040
3.175
1070
   147
1040
1.75
1070
    42
1040
2.0
1070
    44
1040
2.0
1070
   140
1040
3.5
1002
}
1001
ACAD_DSTYLE_DIM_LINETYPE
1070
   380
1005
16
1001
ACAD_DSTYLE_DIM_EXT1_LINETYPE
1070
   381
1005
16
1001
ACAD_DSTYLE_DIM_EXT2_LINETYPE
1070
   382
1005
16
0
DIMENSION
5
147
100
AcDbEntity
8
SK2
62
256
6
ByLayer
370
18
48
1
60
0
100
AcDbDimension
2
_U1
10
-19.966021
20
-10
30
0
11
-19.966021
21
0
31
0
70
32
71
1
72
1
41
1
210
0
220
0
230
1
3
Standard
100
AcDbAlignedDimension
13
0
23
10
33
0
14
-69
24
-10
34
0
50
90
100
AcDbRotatedDimension
1001
ACAD
1000
DSTYLE
1002
{
1070
   371
1070
    13
1070
   372
1070
    13
1070
     3
1000

1070
   170
1070
     0
1070
   144
1040
1.0
1070
   277
1070
     2
1070
   284
1070
     8
1070
   278
1070
    46
1070
   146
1040
1.0
1070
   345
1005
16
1070
   347
1005
16
1070
   346
1005
16
1070
   344
1005
124
1070
   343
1005
124
1070
   172
1070
     1
1070
    76
1070
     0
1070
    75
1070
     0
1070
   282
1070
     0
1070
   281
1070
     0
1070
    71
1070
     0
1070
   272
1070
     4
1070
    74
1070
     0
1070
   279
1070
     0
1070
   173
1070
     1
1070
   340
1005
11E
1070
   271
1070
     1
1070
    77
1070
     1
1070
    73
1070
     0
1070
   171
1070
     3
1070
   274
1070
     4
1070
   177
1070
     2
1070
   176
1070
     2
1070
   178
1070
     7
1070
    78
1070
     8
1070
    41
1040
3.175
1070
   147
1040
1.75
1070
    42
1040
2.0
1070
    44
1040
2.0
1070
   140
1040
3.5
1002
}
1001
ACAD_DSTYLE_DIM_LINETYPE
1070
   380
1005
16
1001
ACAD_DSTYLE_DIM_EXT1_LINETYPE
1070
   381
1005
16
1001
ACAD_DSTYLE_DIM_EXT2_LINETYPE
1070
   382
1005
16
0
DIMENSION
5
164
100
AcDbEntity
8
SK2
62
256
6
ByLayer
370
18
48
1
60
0
100
AcDbDimension
2
_U2
10
24
20
-37.844955
30
0
11
-22.5
21
-37.844955
31
0
70
32
71
1
72
1
41
1
210
0
220
0
230
1
3
Standard
100
AcDbAlignedDimension
13
-69
23
-10
33
0
14
24
24
15
34
0
50
0
100
AcDbRotatedDimension
1001
ACAD
1000
DSTYLE
1002
{
1070
   371
1070
    13
1070
   372
1070
    13
1070
     3
1000

1070
   170
1070
     0
1070
   144
1040
1.0
1070
   277
1070
     2
1070
   284
1070
     8
1070
   278
1070
    46
1070
   146
1040
1.0
1070
   345
1005
16
1070
   347
1005
16
1070
   346
1005
16
1070
   344
1005
124
1070
   343
1005
124
1070
   172
1070
     1
1070
    76
1070
     0
1070
    75
1070
     0
1070
   282
1070
     0
1070
   281
1070
     0
1070
    71
1070
     0
1070
   272
1070
     4
1070
    74
1070
     0
1070
   279
1070
     0
1070
   173
1070
     1
1070
   340
1005
11E
1070
   271
1070
     1
1070
    77
1070
     1
1070
    73
1070
     1
1070
   171
1070
     3
1070
   274
1070
     4
1070
   177
1070
     2
1070
   176
1070
     2
1070
   178
1070
     7
1070
    78
1070
     8
1070
    41
1040
3.175
1070
   147
1040
1.75
1070
    42
1040
2.0
1070
    44
1040
2.0
1070
   140
1040
3.5
1002
}
1001
ACAD_DSTYLE_DIM_LINETYPE
1070
   380
1005
16
1001
ACAD_DSTYLE_DIM_EXT1_LINETYPE
1070
   381
1005
16
1001
ACAD_DSTYLE_DIM_EXT2_LINETYPE
1070
   382
1005
16
0
DIMENSION
5
180
100
AcDbEntity
8
2
62
256
6
ByLayer
370
18
48
1
60
0
100
AcDbDimension
2
_U3
10
24
20
-23.1
30
0
11
12
21
-23.1
31
0
70
32
71
1
72
1
41
1
210
0
220
0
230
1
3
Standard
100
AcDbAlignedDimension
13
0
23
10
33
0
14
24
24
15
34
0
50
0
100
AcDbRotatedDimension
1001
ACAD
1000
DSTYLE
1002
{
1070
   371
1070
    13
1070
   372
1070
    13
1070
     3
1000

1070
   170
1070
     0
1070
   144
1040
1.0
1070
   277
1070
     2
1070
   284
1070
     8
1070
   278
1070
    46
1070
   146
1040
1.0
1070
   345
1005
16
1070
   347
1005
16
1070
   346
1005
16
1070
   344
1005
124
1070
   343
1005
124
1070
   172
1070
     1
1070
    76
1070
     0
1070
    75
1070
     0
1070
   282
1070
     0
1070
   281
1070
     0
1070
    71
1070
     0
1070
   272
1070
     4
1070
    74
1070
     0
1070
   279
1070
     0
1070
   173
1070
     1
1070
   340
1005
11E
1070
   271
1070
     1
1070
    77
1070
     1
1070
    73
1070
     1
1070
   171
1070
     3
1070
   274
1070
     4
1070
   177
1070
     2
1070
   176
1070
     2
1070
   178
1070
     7
1070
    78
1070
     8
1070
    41
1040
3.175
1070
   147
1040
1.75
1070
    42
1040
2.0
1070
    44
1040
2.0
1070
   140
1040
3.5
1002
}
1001
ACAD_DSTYLE_DIM_LINETYPE
1070
   380
1005
16
1001
ACAD_DSTYLE_DIM_EXT1_LINETYPE
1070
   381
1005
16
1001
ACAD_DSTYLE_DIM_EXT2_LINETYPE
1070
   382
1005
16
0
DIMENSION
5
19C
100
AcDbEntity
8
SK2
62
256
6
ByLayer
370
18
48
1
60
0
100
AcDbDimension
2
_U4
10
-66
20
-23.1
30
0
11
-51.483333
21
-23.1
31
0
70
32
71
1
72
1
41
1
210
0
220
0
230
1
3
Standard
100
AcDbAlignedDimension
13
-69
23
-10
33
0
14
-66
24
-10
34
0
50
0
100
AcDbRotatedDimension
1001
ACAD
1000
DSTYLE
1002
{
1070
   371
1070
    13
1070
   372
1070
    13
1070
     3
1000

1070
   170
1070
     0
1070
   144
1040
1.0
1070
   277
1070
     2
1070
   284
1070
     8
1070
   278
1070
    46
1070
   146
1040
1.0
1070
   345
1005
16
1070
   347
1005
16
1070
   346
1005
16
1070
   344
1005
124
1070
   343
1005
124
1070
   172
1070
     1
1070
    76
1070
     0
1070
    75
1070
     0
1070
   282
1070
     0
1070
   281
1070
     0
1070
    71
1070
     0
1070
   272
1070
     4
1070
   271
1070
     4
1070
    74
1070
     0
1070
   279
1070
     0
1070
   173
1070
     1
1070
   340
1005
11E
1070
    77
1070
     1
1070
    73
1070
     1
1070
   171
1070
     3
1070
   274
1070
     4
1070
   177
1070
     2
1070
   176
1070
     2
1070
   178
1070
     7
1070
    78
1070
     8
1070
    41
1040
3.175
1070
   147
1040
1.75
1070
    42
1040
2.0
1070
    44
1040
2.0
1070
   140
1040
3.5
1002
}
1001
ACAD_DSTYLE_DIM_LINETYPE
1070
   380
1005
16
1001
ACAD_DSTYLE_DIM_EXT1_LINETYPE
1070
   381
1005
16
1001
ACAD_DSTYLE_DIM_EXT2_LINETYPE
1070
   382
1005
16
0
ENDSEC
0
SECTION
2
OBJECTS
0
DICTIONARY
5
229
330
0
100
AcDbDictionary
280
0
281
1
3
ACAD_GROUP
350
22a
3
ACAD_MLINESTYLE
350
22b
0
DICTIONARY
5
22a
330
0
100
AcDbDictionary
280
0
281
1
0
DICTIONARY
5
22b
330
0
100
AcDbDictionary
280
0
281
1
3
Standard
350
18
0
MLINESTYLE
5
18
330
22b
100
AcDbMlineStyle
2
Standard
70
0
3

62
256
51
90
52
90
71
2
49
-0.5
62
256
6
ByLayer
49
0.5
62
256
6
ByLayer
0
RASTERVARIABLES
5
218
330

100
AcDbRasterVariables
90
0
70
1
71
1
72
1
0
ENDSEC
0
EOF
