0
SECTION
2
HEADER
9
$ACADVER
1
AC1015
9
$DWGCODEPAGE
3
ANSI_1252
9
$HANDSEED
5
1c7
9
$ANGBASE
50
0
9
$ANGDIR
70
0
9
$ATTMODE
70
1
9
$AUNITS
70
0
9
$AUPREC
70
0
9
$CECOLOR
62
256
9
$CELTSCALE
40
1
9
$CELTYPE
6
ByLayer
9
$CELWEIGHT
370
18
9
$CLAYER
8
0
9
$CMLJUST
70
0
9
$CMLSCALE
40
1
9
$CMLSTYLE
2
Standard
9
$DIMSTYLE
2
Standard
9
$TEXTSIZE
40
0.2
9
$TEXTSTYLE
7
Standard
9
$LUNITS
70
2
9
$LUPREC
70
4
9
$EXTNAMES
290
1
9
$INSUNITS
70
4
9
$LTSCALE
40
1
9
$LWDISPLAY
290
1
9
$PDMODE
70
0
9
$PDSIZE
40
0
9
$PLINEGEN
70
0
0
ENDSEC
0
SECTION
2
CLASSES
0
CLASS
1
RASTERVARIABLES
2
AcDbRasterVariables
3
ISM
90
0
280
0
281
0
0
ENDSEC
0
SECTION
2
TABLES
0
TABLE
2
VPORT
5
1bd
100
AcDbSymbolTable
0
VPORT
5
1
100
AcDbSymbolTableRecord
100
AcDbViewportTableRecord
2
*Active
70
0
10
0
20
0
11
1
21
1
12
-1
22
1
13
0
23
0
14
0.5
24
0.5
15
10
25
10
16
0
26
0
36
1
17
0
27
0
37
0
0
ENDTAB
0
TABLE
2
LTYPE
5
1be
100
AcDbSymbolTable
0
LTYPE
5
14
100
AcDbSymbolTableRecord
100
AcDbLinetypeTableRecord
70
0
2
ByBlock
3

72
65
73
0
40
0
0
LTYPE
5
15
100
AcDbSymbolTableRecord
100
AcDbLinetypeTableRecord
70
0
2
ByLayer
3

72
65
73
0
40
0
0
LTYPE
5
16
100
AcDbSymbolTableRecord
100
AcDbLinetypeTableRecord
70
0
2
CONTINUOUS
3
Solid line
72
65
73
0
40
0
0
LTYPE
5
6A
100
AcDbSymbolTableRecord
100
AcDbLinetypeTableRecord
70
0
2
CENTER
3
____ _ ____ _ ____ _ ____
72
65
73
4
40
47.5
49
22
74
0
49
-8.5
74
0
49
8.5
74
0
49
-8.5
74
0
0
LTYPE
5
6B
100
AcDbSymbolTableRecord
100
AcDbLinetypeTableRecord
70
0
2
DASHED
3
__ __ __ __ __ __ __ __ __
72
65
73
2
40
25.72
49
12.86
74
0
49
-12.86
74
0
0
ENDTAB
0
TABLE
2
LAYER
5
1bf
100
AcDbSymbolTable
0
LAYER
5
10
100
AcDbSymbolTableRecord
100
AcDbLayerTableRecord
2
0
70
0
62
7
6
CONTINUOUS
290
1
370
-3
390
0
0
LAYER
5
6D
100
AcDbSymbolTableRecord
100
AcDbLayerTableRecord
2
80
70
0
62
-6
6
CONTINUOUS
290
1
370
-3
390
0
0
LAYER
5
6F
100
AcDbSymbolTableRecord
100
AcDbLayerTableRecord
2
81
70
0
62
-3
6
CONTINUOUS
290
1
370
-3
390
0
0
LAYER
5
71
100
AcDbSymbolTableRecord
100
AcDbLayerTableRecord
2
1
70
0
62
4
6
CONTINUOUS
290
1
370
-3
390
0
0
LAYER
5
83
100
AcDbSymbolTableRecord
100
AcDbLayerTableRecord
2
4
70
0
62
-2
6
CENTER
290
1
370
-3
390
0
0
LAYER
5
E0
100
AcDbSymbolTableRecord
100
AcDbLayerTableRecord
2
2
70
0
62
7
6
CONTINUOUS
290
1
370
-3
390
0
0
LAYER
5
1a6
100
AcDbSymbolTableRecord
100
AcDbLayerTableRecord
2
SK3
70
0
62
1
6
DASHED
290
1
370
-3
390
0
0
LAYER
5
1a7
100
AcDbSymbolTableRecord
100
AcDbLayerTableRecord
2
SK4
70
0
62
2
6
CENTER
290
1
370
-3
390
0
0
LAYER
5
1a8
100
AcDbSymbolTableRecord
100
AcDbLayerTableRecord
2
SK1
70
0
62
4
6
CONTINUOUS
290
1
370
-3
390
0
0
LAYER
5
1a9
100
AcDbSymbolTableRecord
100
AcDbLayerTableRecord
2
SK6
70
0
62
5
6
CONTINUOUS
290
1
370
-3
390
0
0
LAYER
5
1aa
100
AcDbSymbolTableRecord
100
AcDbLayerTableRecord
2
SK2
70
0
62
7
6
CONTINUOUS
290
1
370
-3
390
0
0
ENDTAB
0
TABLE
2
STYLE
5
1c0
100
AcDbSymbolTable
0
STYLE
5
11
100
AcDbSymbolTableRecord
100
AcDbTextStyleTableRecord
2
Standard
3
txt
70
0
71
0
40
0
41
1
42
0
50
0
0
STYLE
5
CB
100
AcDbSymbolTableRecord
100
AcDbTextStyleTableRecord
2
iso_b_vert
3
simplex.shx
70
0
71
0
40
0
41
1
42
0
50
0
0
STYLE
5
CC
100
AcDbSymbolTableRecord
100
AcDbTextStyleTableRecord
2
DWGDirectTextStyle
3
simplex
70
0
71
0
40
0
41
1
42
0
50
0
0
ENDTAB
0
TABLE
2
DIMSTYLE
5
1c1
100
AcDbSymbolTable
100
AcDbDimStyleTable
0
DIMSTYLE
105
27
100
AcDbSymbolTableRecord
100
AcDbDimStyleTableRecord
2
Standard
70
0
3
<>
41
0.18
42
0.0625
44
0.18
140
0.18
147
0.09
73
0
74
0
77
1
271
2
275
0
278
52
280
0
340
11
0
ENDTAB
0
TABLE
2
VIEW
5
1c2
100
AcDbSymbolTable
0
ENDTAB
0
TABLE
2
UCS
5
1c3
100
AcDbSymbolTable
0
ENDTAB
0
TABLE
2
APPID
5
1c4
100
AcDbSymbolTable
0
APPID
5
12
100
AcDbSymbolTableRecord
100
AcDbRegAppTableRecord
2
ACAD
70
0
0
ENDTAB
0
TABLE
2
BLOCK_RECORD
5
1c5
100
AcDbSymbolTable
0
BLOCK_RECORD
5
1F
100
AcDbSymbolTableRecord
100
AcDbBlockTableRecord
2
*Model_Space
340
0
70
0
0
BLOCK_RECORD
5
1B
100
AcDbSymbolTableRecord
100
AcDbBlockTableRecord
2
*Paper_Space
340
0
70
0
0
BLOCK_RECORD
5
23
100
AcDbSymbolTableRecord
100
AcDbBlockTableRecord
2
*Paper_Space0
340
0
70
0
0
BLOCK_RECORD
5
CE
100
AcDbSymbolTableRecord
100
AcDbBlockTableRecord
2
DimnDraft3D1
340
0
70
0
0
BLOCK_RECORD
5
DE
100
AcDbSymbolTableRecord
100
AcDbBlockTableRecord
2
DimnDraft3D2
340
0
70
0
0
BLOCK_RECORD
5
ED
100
AcDbSymbolTableRecord
100
AcDbBlockTableRecord
2
DimnDraft3D3
340
0
70
0
0
BLOCK_RECORD
5
FC
100
AcDbSymbolTableRecord
100
AcDbBlockTableRecord
2
_CLOSED
340
0
70
0
0
BLOCK_RECORD
5
103
100
AcDbSymbolTableRecord
100
AcDbBlockTableRecord
2
DimnDraft3D4
340
0
70
0
0
BLOCK_RECORD
5
112
100
AcDbSymbolTableRecord
100
AcDbBlockTableRecord
2
DimnDraft3D5
340
0
70
0
0
BLOCK_RECORD
5
121
100
AcDbSymbolTableRecord
100
AcDbBlockTableRecord
2
DimnDraft3D6
340
0
70
0
0
BLOCK_RECORD
5
12F
100
AcDbSymbolTableRecord
100
AcDbBlockTableRecord
2
DimnDraft3D7
340
0
70
0
0
BLOCK_RECORD
5
13E
100
AcDbSymbolTableRecord
100
AcDbBlockTableRecord
2
DimnDraft3D8
340
0
70
0
0
ENDTAB
0
ENDSEC
0
SECTION
2
BLOCKS
0
BLOCK
5
20
100
AcDbEntity
8
0
100
AcDbBlockBegin
2
*Model_Space
70
0
10
0
20
0
30
0
3
*Model_Space
0
ENDBLK
5
21
100
AcDbEntity
8
0
100
AcDbBlockEnd
0
BLOCK
5
1C
100
AcDbEntity
8
0
100
AcDbBlockBegin
2
*Paper_Space
70
0
10
0
20
0
30
0
3
*Paper_Space
0
ENDBLK
5
1D
100
AcDbEntity
8
0
100
AcDbBlockEnd
0
BLOCK
5
24
100
AcDbEntity
8
0
100
AcDbBlockBegin
2
*Paper_Space0
70
0
10
0
20
0
30
0
3
*Paper_Space0
0
ENDBLK
5
25
100
AcDbEntity
8
0
100
AcDbBlockEnd
0
BLOCK
5
DB
100
AcDbEntity
8
0
100
AcDbBlockBegin
2
DimnDraft3D1
70
0
10
0
20
0
30
0
3
DimnDraft3D1
0
MTEXT
5
CF
100
AcDbEntity
8
SK2
62
256
6
ByLayer
370
18
48
1
60
0
100
AcDbMText
10
13.653947
20
-47.512467
30
0
210
0
220
0
230
1
1
\W0.7376;min. 70 - max.
40
3
41
0
44
1.084337
50
0
71
7
72
5
7
iso_b_vert
0
MTEXT
5
D1
100
AcDbEntity
8
SK2
62
256
6
ByLayer
370
18
48
1
60
0
100
AcDbMText
10
44.261842
20
-47.512467
30
0
210
0
220
0
230
1
1
\W0.6337;80
40
3
41
0
44
1.084337
50
0
71
7
72
5
7
iso_b_vert
0
LINE
5
D2
100
AcDbEntity
8
SK2
62
256
6
ByLayer
370
13
48
1
60
0
100
AcDbLine
10
-10
20
-11.58925
30
0
11
-10
21
-50.262467
31
0
39
0
210
0
220
0
230
1
0
LINE
5
D3
100
AcDbEntity
8
SK2
62
256
6
ByLayer
370
13
48
1
60
0
100
AcDbLine
10
70
20
-22.695787
30
0
11
70
21
-50.262467
31
0
39
0
210
0
220
0
230
1
0
LINE
5
D4
100
AcDbEntity
8
SK2
62
256
6
ByLayer
370
13
48
1
60
0
100
AcDbLine
10
-10
20
-48.262467
30
0
11
70
21
-48.262467
31
0
39
0
210
0
220
0
230
1
0
LINE
5
D5
100
AcDbEntity
8
SK2
62
256
6
ByLayer
370
13
48
1
60
0
100
AcDbLine
10
-10
20
-48.262467
30
0
11
-6.825002
21
-47.844471
31
0
39
0
210
0
220
0
230
1
0
LINE
5
D6
100
AcDbEntity
8
SK2
62
256
6
ByLayer
370
13
48
1
60
0
100
AcDbLine
10
-10
20
-48.262467
30
0
11
-6.824998
21
-48.680464
31
0
39
0
210
0
220
0
230
1
0
LINE
5
D7
100
AcDbEntity
8
SK2
62
256
6
ByLayer
370
13
48
1
60
0
100
AcDbLine
10
-6.825002
20
-47.844471
30
0
11
-6.824998
21
-48.680464
31
0
39
0
210
0
220
0
230
1
0
LINE
5
D8
100
AcDbEntity
8
SK2
62
256
6
ByLayer
370
13
48
1
60
0
100
AcDbLine
10
70
20
-48.262467
30
0
11
66.825002
21
-48.680464
31
0
39
0
210
0
220
0
230
1
0
LINE
5
D9
100
AcDbEntity
8
SK2
62
256
6
ByLayer
370
13
48
1
60
0
100
AcDbLine
10
70
20
-48.262467
30
0
11
66.824998
21
-47.844471
31
0
39
0
210
0
220
0
230
1
0
LINE
5
DA
100
AcDbEntity
8
SK2
62
256
6
ByLayer
370
13
48
1
60
0
100
AcDbLine
10
66.825002
20
-48.680464
30
0
11
66.824998
21
-47.844471
31
0
39
0
210
0
220
0
230
1
0
ENDBLK
5
DC
100
AcDbEntity
8
0
100
AcDbBlockEnd
0
BLOCK
5
EA
100
AcDbEntity
8
0
100
AcDbBlockBegin
2
DimnDraft3D2
70
0
10
0
20
0
30
0
3
DimnDraft3D2
0
MTEXT
5
DF
100
AcDbEntity
8
2
62
256
6
ByLayer
370
18
48
1
60
0
100
AcDbMText
10
33.957895
20
53.736781
30
0
210
0
220
0
230
1
1
\W0.6337;70
40
3
41
0
44
1.084337
50
0
71
7
72
5
7
iso_b_vert
0
LINE
5
E1
100
AcDbEntity
8
2
62
256
6
ByLayer
370
13
48
1
60
0
100
AcDbLine
10
0
20
29.7875
30
0
11
0
21
54.986781
31
0
39
0
210
0
220
0
230
1
0
LINE
5
E2
100
AcDbEntity
8
2
62
256
6
ByLayer
370
13
48
1
60
0
100
AcDbLine
10
70
20
22.695787
30
0
11
70
21
54.986781
31
0
39
0
210
0
220
0
230
1
0
LINE
5
E3
100
AcDbEntity
8
2
62
256
6
ByLayer
370
13
48
1
60
0
100
AcDbLine
10
0
20
52.986781
30
0
11
70
21
52.986781
31
0
39
0
210
0
220
0
230
1
0
LINE
5
E4
100
AcDbEntity
8
2
62
256
6
ByLayer
370
13
48
1
60
0
100
AcDbLine
10
0
20
52.986781
30
0
11
3.174998
21
53.404777
31
0
39
0
210
0
220
0
230
1
0
LINE
5
E5
100
AcDbEntity
8
2
62
256
6
ByLayer
370
13
48
1
60
0
100
AcDbLine
10
0
20
52.986781
30
0
11
3.175002
21
52.568784
31
0
39
0
210
0
220
0
230
1
0
LINE
5
E6
100
AcDbEntity
8
2
62
256
6
ByLayer
370
13
48
1
60
0
100
AcDbLine
10
3.174998
20
53.404777
30
0
11
3.175002
21
52.568784
31
0
39
0
210
0
220
0
230
1
0
LINE
5
E7
100
AcDbEntity
8
2
62
256
6
ByLayer
370
13
48
1
60
0
100
AcDbLine
10
70
20
52.986781
30
0
11
66.825002
21
52.568784
31
0
39
0
210
0
220
0
230
1
0
LINE
5
E8
100
AcDbEntity
8
2
62
256
6
ByLayer
370
13
48
1
60
0
100
AcDbLine
10
70
20
52.986781
30
0
11
66.824998
21
53.404777
31
0
39
0
210
0
220
0
230
1
0
LINE
5
E9
100
AcDbEntity
8
2
62
256
6
ByLayer
370
13
48
1
60
0
100
AcDbLine
10
66.825002
20
52.568784
30
0
11
66.824998
21
53.404777
31
0
39
0
210
0
220
0
230
1
0
ENDBLK
5
EB
100
AcDbEntity
8
0
100
AcDbBlockEnd
0
BLOCK
5
F9
100
AcDbEntity
8
0
100
AcDbBlockBegin
2
DimnDraft3D3
70
0
10
0
20
0
30
0
3
DimnDraft3D3
0
MTEXT
5
EE
100
AcDbEntity
8
SK2
62
256
6
ByLayer
370
18
48
1
60
0
100
AcDbMText
10
-132.641792
20
2.707895
30
0
210
0
220
0
230
1
1
\W0.6337;50
40
3
41
0
44
1.084337
50
90
71
7
72
5
7
iso_b_vert
0
MTEXT
5
EF
100
AcDbEntity
8
SK2
62
256
6
ByLayer
370
18
48
1
60
0
100
AcDbMText
10
-132.641792
20
-3.268668
30
0
210
0
220
0
230
1
1
%%c
40
3
41
0
44
1.084337
50
90
71
7
72
5
7
iso_b_vert
0
LINE
5
F0
100
AcDbEntity
8
SK2
62
256
6
ByLayer
370
13
48
1
60
0
100
AcDbLine
10
-10.09825
20
24.98925
30
0
11
-133.141792
21
24.98925
31
0
39
0
210
0
220
0
230
1
0
LINE
5
F1
100
AcDbEntity
8
SK2
62
256
6
ByLayer
370
13
48
1
60
0
100
AcDbLine
10
-10.09825
20
-24.98925
30
0
11
-133.141792
21
-24.98925
31
0
39
0
210
0
220
0
230
1
0
LINE
5
F2
100
AcDbEntity
8
SK2
62
256
6
ByLayer
370
13
48
1
60
0
100
AcDbLine
10
-131.141792
20
24.98925
30
0
11
-131.141792
21
-24.98925
31
0
39
0
210
0
220
0
230
1
0
LINE
5
F3
100
AcDbEntity
8
SK2
62
256
6
ByLayer
370
13
48
1
60
0
100
AcDbLine
10
-131.141792
20
24.98925
30
0
11
-130.723795
21
21.814252
31
0
39
0
210
0
220
0
230
1
0
LINE
5
F4
100
AcDbEntity
8
SK2
62
256
6
ByLayer
370
13
48
1
60
0
100
AcDbLine
10
-131.141792
20
24.98925
30
0
11
-131.559788
21
21.814248
31
0
39
0
210
0
220
0
230
1
0
LINE
5
F5
100
AcDbEntity
8
SK2
62
256
6
ByLayer
370
13
48
1
60
0
100
AcDbLine
10
-130.723795
20
21.814252
30
0
11
-131.559788
21
21.814248
31
0
39
0
210
0
220
0
230
1
0
LINE
5
F6
100
AcDbEntity
8
SK2
62
256
6
ByLayer
370
13
48
1
60
0
100
AcDbLine
10
-131.141792
20
-24.98925
30
0
11
-131.559788
21
-21.814252
31
0
39
0
210
0
220
0
230
1
0
LINE
5
F7
100
AcDbEntity
8
SK2
62
256
6
ByLayer
370
13
48
1
60
0
100
AcDbLine
10
-131.141792
20
-24.98925
30
0
11
-130.723795
21
-21.814248
31
0
39
0
210
0
220
0
230
1
0
LINE
5
F8
100
AcDbEntity
8
SK2
62
256
6
ByLayer
370
13
48
1
60
0
100
AcDbLine
10
-131.559788
20
-21.814252
30
0
11
-130.723795
21
-21.814248
31
0
39
0
210
0
220
0
230
1
0
ENDBLK
5
FA
100
AcDbEntity
8
0
100
AcDbBlockEnd
0
BLOCK
5
FD
100
AcDbEntity
8
0
100
AcDbBlockBegin
2
_CLOSED
70
0
10
0
20
0
30
0
3
_CLOSED
0
LINE
5
FF
100
AcDbEntity
8
0
62
256
6
ByLayer
370
-2
48
1
60
0
100
AcDbLine
10
-1
20
0.166667
30
0
11
0
21
0
31
0
39
0
210
0
220
0
230
1
0
LINE
5
100
100
AcDbEntity
8
0
62
256
6
ByLayer
370
-2
48
1
60
0
100
AcDbLine
10
0
20
0
30
0
11
-1
21
-0.166667
31
0
39
0
210
0
220
0
230
1
0
LINE
5
101
100
AcDbEntity
8
0
62
256
6
ByLayer
370
-2
48
1
60
0
100
AcDbLine
10
-1
20
0.166667
30
0
11
-1
21
-0.166667
31
0
39
0
210
0
220
0
230
1
0
LINE
5
102
100
AcDbEntity
8
0
62
256
6
ByLayer
370
-2
48
1
60
0
100
AcDbLine
10
0
20
0
30
0
11
-1
21
0
31
0
39
0
210
0
220
0
230
1
0
ENDBLK
5
FE
100
AcDbEntity
8
0
100
AcDbBlockEnd
0
BLOCK
5
10F
100
AcDbEntity
8
0
100
AcDbBlockBegin
2
DimnDraft3D4
70
0
10
0
20
0
30
0
3
DimnDraft3D4
0
MTEXT
5
104
100
AcDbEntity
8
SK2
62
256
6
ByLayer
370
18
48
1
60
0
100
AcDbMText
10
87.022275
20
2.707895
30
0
210
0
220
0
230
1
1
\W0.6337;20
40
3
41
0
44
1.084337
50
90
71
7
72
5
7
iso_b_vert
0
MTEXT
5
105
100
AcDbEntity
8
SK2
62
256
6
ByLayer
370
18
48
1
60
0
100
AcDbMText
10
87.022275
20
-3.268668
30
0
210
0
220
0
230
1
1
%%c
40
3
41
0
44
1.084337
50
90
71
7
72
5
7
iso_b_vert
0
LINE
5
106
100
AcDbEntity
8
SK2
62
256
6
ByLayer
370
13
48
1
60
0
100
AcDbLine
10
71.5875
20
10.00175
30
0
11
90.522275
21
10.00175
31
0
39
0
210
0
220
0
230
1
0
LINE
5
107
100
AcDbEntity
8
SK2
62
256
6
ByLayer
370
13
48
1
60
0
100
AcDbLine
10
71.5875
20
-10.00175
30
0
11
90.522275
21
-10.00175
31
0
39
0
210
0
220
0
230
1
0
LINE
5
108
100
AcDbEntity
8
SK2
62
256
6
ByLayer
370
13
48
1
60
0
100
AcDbLine
10
88.522275
20
10.00175
30
0
11
88.522275
21
-10.00175
31
0
39
0
210
0
220
0
230
1
0
LINE
5
109
100
AcDbEntity
8
SK2
62
256
6
ByLayer
370
13
48
1
60
0
100
AcDbLine
10
88.522275
20
10.00175
30
0
11
88.940272
21
6.826752
31
0
39
0
210
0
220
0
230
1
0
LINE
5
10A
100
AcDbEntity
8
SK2
62
256
6
ByLayer
370
13
48
1
60
0
100
AcDbLine
10
88.522275
20
10.00175
30
0
11
88.104279
21
6.826748
31
0
39
0
210
0
220
0
230
1
0
LINE
5
10B
100
AcDbEntity
8
SK2
62
256
6
ByLayer
370
13
48
1
60
0
100
AcDbLine
10
88.940272
20
6.826752
30
0
11
88.104279
21
6.826748
31
0
39
0
210
0
220
0
230
1
0
LINE
5
10C
100
AcDbEntity
8
SK2
62
256
6
ByLayer
370
13
48
1
60
0
100
AcDbLine
10
88.522275
20
-10.00175
30
0
11
88.104279
21
-6.826752
31
0
39
0
210
0
220
0
230
1
0
LINE
5
10D
100
AcDbEntity
8
SK2
62
256
6
ByLayer
370
13
48
1
60
0
100
AcDbLine
10
88.522275
20
-10.00175
30
0
11
88.940272
21
-6.826748
31
0
39
0
210
0
220
0
230
1
0
LINE
5
10E
100
AcDbEntity
8
SK2
62
256
6
ByLayer
370
13
48
1
60
0
100
AcDbLine
10
88.104279
20
-6.826752
30
0
11
88.940272
21
-6.826748
31
0
39
0
210
0
220
0
230
1
0
ENDBLK
5
110
100
AcDbEntity
8
0
100
AcDbBlockEnd
0
BLOCK
5
11E
100
AcDbEntity
8
0
100
AcDbBlockBegin
2
DimnDraft3D5
70
0
10
0
20
0
30
0
3
DimnDraft3D5
0
MTEXT
5
113
100
AcDbEntity
8
SK2
62
256
6
ByLayer
370
18
48
1
60
0
100
AcDbMText
10
113.01534
20
2.707895
30
0
210
0
220
0
230
1
1
\W0.6337;57
40
3
41
0
44
1.084337
50
90
71
7
72
5
7
iso_b_vert
0
MTEXT
5
114
100
AcDbEntity
8
SK2
62
256
6
ByLayer
370
18
48
1
60
0
100
AcDbMText
10
113.01534
20
-3.268668
30
0
210
0
220
0
230
1
1
%%c
40
3
41
0
44
1.084337
50
90
71
7
72
5
7
iso_b_vert
0
LINE
5
115
100
AcDbEntity
8
SK2
62
256
6
ByLayer
370
13
48
1
60
0
100
AcDbLine
10
50.942595
20
28.5
30
0
11
116.51534
21
28.5
31
0
39
0
210
0
220
0
230
1
0
LINE
5
116
100
AcDbEntity
8
SK2
62
256
6
ByLayer
370
13
48
1
60
0
100
AcDbLine
10
50.942595
20
-28.5
30
0
11
116.51534
21
-28.5
31
0
39
0
210
0
220
0
230
1
0
LINE
5
117
100
AcDbEntity
8
SK2
62
256
6
ByLayer
370
13
48
1
60
0
100
AcDbLine
10
114.51534
20
28.5
30
0
11
114.51534
21
-28.5
31
0
39
0
210
0
220
0
230
1
0
LINE
5
118
100
AcDbEntity
8
SK2
62
256
6
ByLayer
370
13
48
1
60
0
100
AcDbLine
10
114.51534
20
28.5
30
0
11
114.933337
21
25.325002
31
0
39
0
210
0
220
0
230
1
0
LINE
5
119
100
AcDbEntity
8
SK2
62
256
6
ByLayer
370
13
48
1
60
0
100
AcDbLine
10
114.51534
20
28.5
30
0
11
114.097344
21
25.324998
31
0
39
0
210
0
220
0
230
1
0
LINE
5
11A
100
AcDbEntity
8
SK2
62
256
6
ByLayer
370
13
48
1
60
0
100
AcDbLine
10
114.933337
20
25.325002
30
0
11
114.097344
21
25.324998
31
0
39
0
210
0
220
0
230
1
0
LINE
5
11B
100
AcDbEntity
8
SK2
62
256
6
ByLayer
370
13
48
1
60
0
100
AcDbLine
10
114.51534
20
-28.5
30
0
11
114.097344
21
-25.325002
31
0
39
0
210
0
220
0
230
1
0
LINE
5
11C
100
AcDbEntity
8
SK2
62
256
6
ByLayer
370
13
48
1
60
0
100
AcDbLine
10
114.51534
20
-28.5
30
0
11
114.933337
21
-25.324998
31
0
39
0
210
0
220
0
230
1
0
LINE
5
11D
100
AcDbEntity
8
SK2
62
256
6
ByLayer
370
13
48
1
60
0
100
AcDbLine
10
114.097344
20
-25.325002
30
0
11
114.933337
21
-25.324998
31
0
39
0
210
0
220
0
230
1
0
ENDBLK
5
11F
100
AcDbEntity
8
0
100
AcDbBlockEnd
0
BLOCK
5
12C
100
AcDbEntity
8
0
100
AcDbBlockBegin
2
DimnDraft3D6
70
0
10
0
20
0
30
0
3
DimnDraft3D6
0
MTEXT
5
122
100
AcDbEntity
8
SK2
62
256
6
ByLayer
370
18
48
1
60
0
100
AcDbMText
10
-61.788158
20
53.736781
30
0
210
0
220
0
230
1
1
\W0.6433;120
40
3
41
0
44
1.084337
50
0
71
7
72
5
7
iso_b_vert
0
LINE
5
123
100
AcDbEntity
8
SK2
62
256
6
ByLayer
370
13
48
1
60
0
100
AcDbLine
10
-120
20
23.57675
30
0
11
-120
21
54.986781
31
0
39
0
210
0
220
0
230
1
0
LINE
5
124
100
AcDbEntity
8
SK2
62
256
6
ByLayer
370
13
48
1
60
0
100
AcDbLine
10
0
20
29.7875
30
0
11
0
21
54.986781
31
0
39
0
210
0
220
0
230
1
0
LINE
5
125
100
AcDbEntity
8
SK2
62
256
6
ByLayer
370
13
48
1
60
0
100
AcDbLine
10
-120
20
52.986781
30
0
11
0
21
52.986781
31
0
39
0
210
0
220
0
230
1
0
LINE
5
126
100
AcDbEntity
8
SK2
62
256
6
ByLayer
370
13
48
1
60
0
100
AcDbLine
10
-120
20
52.986781
30
0
11
-116.825002
21
53.404777
31
0
39
0
210
0
220
0
230
1
0
LINE
5
127
100
AcDbEntity
8
SK2
62
256
6
ByLayer
370
13
48
1
60
0
100
AcDbLine
10
-120
20
52.986781
30
0
11
-116.824998
21
52.568784
31
0
39
0
210
0
220
0
230
1
0
LINE
5
128
100
AcDbEntity
8
SK2
62
256
6
ByLayer
370
13
48
1
60
0
100
AcDbLine
10
-116.825002
20
53.404777
30
0
11
-116.824998
21
52.568784
31
0
39
0
210
0
220
0
230
1
0
LINE
5
129
100
AcDbEntity
8
SK2
62
256
6
ByLayer
370
13
48
1
60
0
100
AcDbLine
10
0
20
52.986781
30
0
11
-3.174998
21
52.568784
31
0
39
0
210
0
220
0
230
1
0
LINE
5
12A
100
AcDbEntity
8
SK2
62
256
6
ByLayer
370
13
48
1
60
0
100
AcDbLine
10
0
20
52.986781
30
0
11
-3.175002
21
53.404777
31
0
39
0
210
0
220
0
230
1
0
LINE
5
12B
100
AcDbEntity
8
SK2
62
256
6
ByLayer
370
13
48
1
60
0
100
AcDbLine
10
-3.174998
20
52.568784
30
0
11
-3.175002
21
53.404777
31
0
39
0
210
0
220
0
230
1
0
ENDBLK
5
12D
100
AcDbEntity
8
0
100
AcDbBlockEnd
0
BLOCK
5
13B
100
AcDbEntity
8
0
100
AcDbBlockBegin
2
DimnDraft3D7
70
0
10
0
20
0
30
0
3
DimnDraft3D7
0
MTEXT
5
130
100
AcDbEntity
8
SK2
62
256
6
ByLayer
370
18
48
1
60
0
100
AcDbMText
10
100.018808
20
0.821053
30
0
210
0
220
0
230
1
1
\W0.7438;43.9
40
3
41
0
44
1.084337
50
90
71
7
72
5
7
iso_b_vert
0
MTEXT
5
131
100
AcDbEntity
8
SK2
62
256
6
ByLayer
370
18
48
1
60
0
100
AcDbMText
10
100.018808
20
-5.15551
30
0
210
0
220
0
230
1
1
%%c
40
3
41
0
44
1.084337
50
90
71
7
72
5
7
iso_b_vert
0
LINE
5
132
100
AcDbEntity
8
SK2
62
256
6
ByLayer
370
13
48
1
60
0
100
AcDbLine
10
71.5875
20
21.948536
30
0
11
103.518808
21
21.948536
31
0
39
0
210
0
220
0
230
1
0
LINE
5
133
100
AcDbEntity
8
SK2
62
256
6
ByLayer
370
13
48
1
60
0
100
AcDbLine
10
71.5875
20
-21.948536
30
0
11
103.518808
21
-21.948536
31
0
39
0
210
0
220
0
230
1
0
LINE
5
134
100
AcDbEntity
8
SK2
62
256
6
ByLayer
370
13
48
1
60
0
100
AcDbLine
10
101.518808
20
21.948536
30
0
11
101.518808
21
-21.948536
31
0
39
0
210
0
220
0
230
1
0
LINE
5
135
100
AcDbEntity
8
SK2
62
256
6
ByLayer
370
13
48
1
60
0
100
AcDbLine
10
101.518808
20
21.948536
30
0
11
101.936805
21
18.773537
31
0
39
0
210
0
220
0
230
1
0
LINE
5
136
100
AcDbEntity
8
SK2
62
256
6
ByLayer
370
13
48
1
60
0
100
AcDbLine
10
101.518808
20
21.948536
30
0
11
101.100811
21
18.773534
31
0
39
0
210
0
220
0
230
1
0
LINE
5
137
100
AcDbEntity
8
SK2
62
256
6
ByLayer
370
13
48
1
60
0
100
AcDbLine
10
101.936805
20
18.773537
30
0
11
101.100811
21
18.773534
31
0
39
0
210
0
220
0
230
1
0
LINE
5
138
100
AcDbEntity
8
SK2
62
256
6
ByLayer
370
13
48
1
60
0
100
AcDbLine
10
101.518808
20
-21.948536
30
0
11
101.100811
21
-18.773537
31
0
39
0
210
0
220
0
230
1
0
LINE
5
139
100
AcDbEntity
8
SK2
62
256
6
ByLayer
370
13
48
1
60
0
100
AcDbLine
10
101.518808
20
-21.948536
30
0
11
101.936805
21
-18.773534
31
0
39
0
210
0
220
0
230
1
0
LINE
5
13A
100
AcDbEntity
8
SK2
62
256
6
ByLayer
370
13
48
1
60
0
100
AcDbLine
10
101.100811
20
-18.773537
30
0
11
101.936805
21
-18.773534
31
0
39
0
210
0
220
0
230
1
0
ENDBLK
5
13C
100
AcDbEntity
8
0
100
AcDbBlockEnd
0
BLOCK
5
149
100
AcDbEntity
8
0
100
AcDbBlockBegin
2
DimnDraft3D8
70
0
10
0
20
0
30
0
3
DimnDraft3D8
0
MTEXT
5
13F
100
AcDbEntity
8
SK2
62
256
6
ByLayer
370
18
48
1
60
0
100
AcDbMText
10
60.332895
20
-40.26704
30
0
210
0
220
0
230
1
1
\W0.5560;18
40
3
41
0
44
1.084337
50
0
71
7
72
5
7
iso_b_vert
0
LINE
5
140
100
AcDbEntity
8
SK2
62
256
6
ByLayer
370
13
48
1
60
0
100
AcDbLine
10
52
20
-30.0875
30
0
11
52
21
-43.01704
31
0
39
0
210
0
220
0
230
1
0
LINE
5
141
100
AcDbEntity
8
SK2
62
256
6
ByLayer
370
13
48
1
60
0
100
AcDbLine
10
70
20
-23.536036
30
0
11
70
21
-43.01704
31
0
39
0
210
0
220
0
230
1
0
LINE
5
142
100
AcDbEntity
8
SK2
62
256
6
ByLayer
370
13
48
1
60
0
100
AcDbLine
10
52
20
-41.01704
30
0
11
70
21
-41.01704
31
0
39
0
210
0
220
0
230
1
0
LINE
5
143
100
AcDbEntity
8
SK2
62
256
6
ByLayer
370
13
48
1
60
0
100
AcDbLine
10
52
20
-41.01704
30
0
11
55.174998
21
-40.599044
31
0
39
0
210
0
220
0
230
1
0
LINE
5
144
100
AcDbEntity
8
SK2
62
256
6
ByLayer
370
13
48
1
60
0
100
AcDbLine
10
52
20
-41.01704
30
0
11
55.175002
21
-41.435037
31
0
39
0
210
0
220
0
230
1
0
LINE
5
145
100
AcDbEntity
8
SK2
62
256
6
ByLayer
370
13
48
1
60
0
100
AcDbLine
10
55.174998
20
-40.599044
30
0
11
55.175002
21
-41.435037
31
0
39
0
210
0
220
0
230
1
0
LINE
5
146
100
AcDbEntity
8
SK2
62
256
6
ByLayer
370
13
48
1
60
0
100
AcDbLine
10
70
20
-41.01704
30
0
11
66.825002
21
-41.435037
31
0
39
0
210
0
220
0
230
1
0
LINE
5
147
100
AcDbEntity
8
SK2
62
256
6
ByLayer
370
13
48
1
60
0
100
AcDbLine
10
70
20
-41.01704
30
0
11
66.824998
21
-40.599044
31
0
39
0
210
0
220
0
230
1
0
LINE
5
148
100
AcDbEntity
8
SK2
62
256
6
ByLayer
370
13
48
1
60
0
100
AcDbLine
10
66.825002
20
-41.435037
30
0
11
66.824998
21
-40.599044
31
0
39
0
210
0
220
0
230
1
0
ENDBLK
5
14A
100
AcDbEntity
8
0
100
AcDbBlockEnd
0
ENDSEC
0
SECTION
2
ENTITIES
0
ARC
5
AF
100
AcDbEntity
8
1
62
256
6
ByLayer
370
18
48
1
60
0
100
AcDbCircle
39
0
10
-49.355095
20
13.5
30
0
40
15
210
0
220
0
230
-1
100
AcDbArc
50
90
51
110
0
ARC
5
B0
100
AcDbEntity
8
1
62
256
6
ByLayer
370
18
48
1
60
0
100
AcDbCircle
39
0
10
68.8
20
-21.108287
30
0
40
1.2
210
0
220
0
230
1
100
AcDbArc
50
290
51
0
0
ARC
5
B1
100
AcDbEntity
8
1
62
256
6
ByLayer
370
18
48
1
60
0
100
AcDbCircle
39
0
10
68.8
20
21.108287
30
0
40
1.2
210
0
220
0
230
1
100
AcDbArc
50
0
51
70
0
ARC
5
B2
100
AcDbEntity
8
1
62
256
6
ByLayer
370
18
48
1
60
0
100
AcDbCircle
39
0
10
49.355095
20
-13.5
30
0
40
15
210
0
220
0
230
1
100
AcDbArc
50
270
51
290
0
ARC
5
B3
100
AcDbEntity
8
1
62
256
6
ByLayer
370
18
48
1
60
0
100
AcDbCircle
39
0
10
-67
20
0
30
0
40
2
210
0
220
0
230
-1
100
AcDbArc
50
278.626927
51
81.373073
0
ARC
5
B4
100
AcDbEntity
8
1
62
256
6
ByLayer
370
18
48
1
60
0
100
AcDbCircle
39
0
10
-67
20
0
30
0
40
2
210
0
220
0
230
-1
100
AcDbArc
50
98.626927
51
261.373073
0
ARC
5
B6
100
AcDbEntity
8
1
62
256
6
ByLayer
370
18
48
1
60
0
100
AcDbCircle
39
0
10
-67
20
0
30
0
40
2
210
0
220
0
230
-1
100
AcDbArc
50
261.373073
51
278.626927
0
ARC
5
B7
100
AcDbEntity
8
1
62
256
6
ByLayer
370
18
48
1
60
0
100
AcDbCircle
39
0
10
-67
20
0
30
0
40
2
210
0
220
0
230
-1
100
AcDbArc
50
81.373073
51
98.626927
0
ARC
5
B8
100
AcDbEntity
8
SK1
62
256
6
ByLayer
370
18
48
1
60
0
100
AcDbCircle
39
0
10
35
20
0
30
0
40
25
210
0
220
0
230
-1
100
AcDbArc
50
162.371728
51
197.628272
0
ARC
5
B9
100
AcDbEntity
8
SK1
62
256
6
ByLayer
370
18
48
1
60
0
100
AcDbCircle
39
0
10
-0.35
20
25.335
30
0
40
0.600000000000009
210
0
220
0
230
1
100
AcDbArc
50
270
51
306
0
ARC
5
BA
100
AcDbEntity
8
SK1
62
256
6
ByLayer
370
18
48
1
60
0
100
AcDbCircle
39
0
10
-0.35
20
-25.335
30
0
40
0.599999999999999
210
0
220
0
230
1
100
AcDbArc
50
54
51
90
0
ARC
5
BB
100
AcDbEntity
8
SK1
62
256
6
ByLayer
370
18
48
1
60
0
100
AcDbCircle
39
0
10
-1.356959
20
25.335
30
0
40
0.6
210
0
220
0
230
1
100
AcDbArc
50
243
51
270
0
ARC
5
BC
100
AcDbEntity
8
SK1
62
256
6
ByLayer
370
18
48
1
60
0
100
AcDbCircle
39
0
10
-1.356959
20
-25.335
30
0
40
0.6
210
0
220
0
230
1
100
AcDbArc
50
90
51
117
0
CIRCLE
5
B5
100
AcDbEntity
8
1
62
256
6
ByLayer
370
18
48
1
60
0
100
AcDbCircle
10
67
20
0
30
0
40
2
39
0
210
0
220
0
230
1
0
POINT
5
6C
100
AcDbEntity
8
80
62
256
6
ByLayer
370
18
48
1
60
0
100
AcDbPoint
10
0
20
0
30
0
39
0
210
0
220
0
230
1
50
360
0
POINT
5
6E
100
AcDbEntity
8
81
62
256
6
ByLayer
370
18
48
1
60
0
100
AcDbPoint
10
70
20
0
30
0
39
0
210
0
220
0
230
1
50
360
0
SPLINE
5
BD
100
AcDbEntity
8
1
62
256
6
ByLayer
370
18
48
1
60
0
100
AcDbSpline
70
4
71
3
72
8
73
4
40
0
40
0
40
0
40
0
40
1
40
1
40
1
40
1
41
1
10
33.0765572586222
20
-17.1515995756091
30
0
41
1
10
32.9208693597073
20
-17.3059417321282
30
0
41
1
10
32.7703343485695
20
-17.461883198108
30
0
41
1
10
32.6249288332263
20
-17.619274500676
30
0
0
SPLINE
5
BE
100
AcDbEntity
8
1
62
256
6
ByLayer
370
18
48
1
60
0
100
AcDbSpline
70
4
71
3
72
84
73
80
40
0
40
0
40
0
40
0
40
0.0156249999999999
40
0.0156249999999999
40
0.0312499999999998
40
0.0312499999999998
40
0.0390624999999995
40
0.0390624999999995
40
0.0468749999999992
40
0.0468749999999992
40
0.0624999999999986
40
0.0624999999999986
40
0.0937499999999972
40
0.0937499999999972
40
0.101562499999997
40
0.101562499999997
40
0.109374999999997
40
0.109374999999997
40
0.124999999999996
40
0.124999999999996
40
0.156249999999995
40
0.156249999999995
40
0.187499999999994
40
0.187499999999994
40
0.203124999999993
40
0.203124999999993
40
0.218749999999993
40
0.218749999999993
40
0.249999999999992
40
0.249999999999992
40
0.312499999999992
40
0.312499999999992
40
0.343749999999992
40
0.343749999999992
40
0.359374999999992
40
0.359374999999992
40
0.374999999999992
40
0.374999999999992
40
0.437499999999992
40
0.437499999999992
40
0.499999999999992
40
0.499999999999992
40
0.531249999999992
40
0.531249999999992
40
0.546874999999992
40
0.546874999999992
40
0.562499999999993
40
0.562499999999993
40
0.624999999999993
40
0.624999999999993
40
0.687499999999993
40
0.687499999999993
40
0.718749999999992
40
0.718749999999992
40
0.734374999999992
40
0.734374999999992
40
0.749999999999992
40
0.749999999999992
40
0.781249999999993
40
0.781249999999993
40
0.812499999999995
40
0.812499999999995
40
0.843749999999996
40
0.843749999999996
40
0.874999999999997
40
0.874999999999997
40
0.906249999999999
40
0.906249999999999
40
0.921874999999999
40
0.921874999999999
40
0.9375
40
0.9375
40
0.968750000000001
40
0.968750000000001
40
0.976562500000001
40
0.976562500000001
40
0.984375000000001
40
0.984375000000001
40
1
40
1
40
1
40
1
41
1
10
32.6249288332263
20
-17.6192745006759
30
0
41
1
10
32.5609267090037
20
-17.7099939428842
30
0
41
1
10
32.5063940849158
20
-17.8027322251628
30
0
41
1
10
32.4134194882365
20
-17.9913726075736
30
0
41
1
10
32.3749892129496
20
-18.0872780105479
30
0
41
1
10
32.327931163
20
-18.2330374244424
30
0
41
1
10
32.314015235896
20
-18.2819423285669
30
0
41
1
10
32.2895308939904
20
-18.3803254950496
30
0
41
1
10
32.2789407194989
20
-18.4299455514566
30
0
41
1
10
32.2521704133922
20
-18.5782316744449
30
0
41
1
10
32.2408888763719
20
-18.6764285372268
30
0
41
1
10
32.2235659244947
20
-18.9690784870827
30
0
41
1
10
32.2338689341819
20
-19.1615933274878
30
0
41
1
10
32.2678738261393
20
-19.3990860042228
30
0
41
1
10
32.2757467978607
20
-19.4464267876059
30
0
41
1
10
32.2935360923961
20
-19.5407941332023
30
0
41
1
10
32.3034704042674
20
-19.5878906968745
30
0
41
1
10
32.3360239897355
20
-19.7279506743257
30
0
41
1
10
32.3613967359207
20
-19.819822006351
30
0
41
1
10
32.4472399176116
20
-20.0913359155778
30
0
41
1
10
32.517364680397
20
-20.2668984192304
30
0
41
1
10
32.6790641488748
20
-20.6085813498804
30
0
41
1
10
32.7706776399629
20
-20.7746906549809
30
0
41
1
10
32.9224255094897
20
-21.0174388384451
30
0
41
1
10
32.9754073855126
20
-21.0972824257691
30
0
41
1
10
33.0859774390409
20
-21.2549075695161
30
0
41
1
10
33.1436349828235
20
-21.3327633197676
30
0
41
1
10
33.3219028717168
20
-21.5616165411321
30
0
41
1
10
33.4481715151051
20
-21.7084988176034
30
0
41
1
10
33.8471420913972
20
-22.1339216120927
30
0
41
1
10
34.1398517327238
20
-22.3973313903683
30
0
41
1
10
34.6150779361052
20
-22.7667257569654
30
0
41
1
10
34.7795613240881
20
-22.88554164361
30
0
41
1
10
35.0352445916693
20
-23.057668648426
30
0
41
1
10
35.12196726622
20
-23.1140271273361
30
0
41
1
10
35.2983977321344
20
-23.2247612056816
30
0
41
1
10
35.388236806037
20
-23.2792119797923
30
0
41
1
10
35.842984581108
20
-23.5455076562063
30
0
41
1
10
36.2242863250044
20
-23.739583687698
30
0
41
1
10
37.0202942940621
20
-24.0950554327928
30
0
41
1
10
37.4350137686585
20
-24.2564276412791
30
0
41
1
10
38.0823792087808
20
-24.4764082259836
30
0
41
1
10
38.3023953618079
20
-24.5460425645038
30
0
41
1
10
38.6389140006704
20
-24.6451521199854
30
0
41
1
10
38.7520579782648
20
-24.6772609070374
30
0
41
1
10
38.9792598028801
20
-24.7393909151852
30
0
41
1
10
39.0934621246746
20
-24.76945521922
30
0
41
1
10
39.6674686319042
20
-24.9149284956455
30
0
41
1
10
40.1362127542541
20
-25.0158799271187
30
0
41
1
10
41.0931620691437
20
-25.1894951488735
30
0
41
1
10
41.5813478067575
20
-25.2621777978069
30
0
41
1
10
42.329536158611
20
-25.3501037266467
30
0
41
1
10
42.5815960717287
20
-25.3758760365884
30
0
41
1
10
42.9640053300602
20
-25.4090033882353
30
0
41
1
10
43.0924212675584
20
-25.4191370433442
30
0
41
1
10
43.349499912661
20
-25.4374042381325
30
0
41
1
10
43.4781125557363
20
-25.4455385624234
30
0
41
1
10
43.8641761506879
20
-25.4669011348002
30
0
41
1
10
44.1218519924955
20
-25.4771019431469
30
0
41
1
10
44.6378503442417
20
-25.4889218797895
30
0
41
1
10
44.8961724097201
20
-25.490547808112
30
0
41
1
10
45.4135390210008
20
-25.484233762882
30
0
41
1
10
45.6725917433677
20
-25.4763075427002
30
0
41
1
10
46.1915079860868
20
-25.4491203112087
30
0
41
1
10
46.4478647483484
20
-25.4300441478602
30
0
41
1
10
46.9534597052038
20
-25.3789955205253
30
0
41
1
10
47.2027128699324
20
-25.347056389588
30
0
41
1
10
47.570055844653
20
-25.2868820313001
30
0
41
1
10
47.691638308485
20
-25.2647172525152
30
0
41
1
10
47.9312844740737
20
-25.2157683128071
30
0
41
1
10
48.0484783888142
20
-25.1891692350616
30
0
41
1
10
48.3914082182728
20
-25.1021992433843
30
0
41
1
10
48.6086407982978
20
-25.0348068530841
30
0
41
1
10
48.8617396363196
20
-24.9344522268995
30
0
41
1
10
48.9114737442395
20
-24.9135349894734
30
0
41
1
10
49.0079567310323
20
-24.8703534183849
30
0
41
1
10
49.0548262926013
20
-24.8480443859001
30
0
41
1
10
49.1911359791119
20
-24.778828654727
30
0
41
1
10
49.2762908850948
20
-24.7296422878272
30
0
41
1
10
49.3550952893729
20
-24.6769632974844
30
0
0
SPLINE
5
BF
100
AcDbEntity
8
1
62
256
6
ByLayer
370
18
48
1
60
0
100
AcDbSpline
70
4
71
3
72
60
73
56
40
0
40
0
40
0
40
0
40
0.0312499999999993
40
0.0312499999999993
40
0.0624999999999985
40
0.0624999999999985
40
0.124999999999997
40
0.124999999999997
40
0.156249999999997
40
0.156249999999997
40
0.187499999999998
40
0.187499999999998
40
0.249999999999997
40
0.249999999999997
40
0.312499999999996
40
0.312499999999996
40
0.374999999999995
40
0.374999999999995
40
0.437499999999994
40
0.437499999999994
40
0.499999999999993
40
0.499999999999993
40
0.562499999999993
40
0.562499999999993
40
0.624999999999994
40
0.624999999999994
40
0.687499999999995
40
0.687499999999995
40
0.749999999999996
40
0.749999999999996
40
0.765624999999996
40
0.765624999999996
40
0.781249999999996
40
0.781249999999996
40
0.812499999999997
40
0.812499999999997
40
0.843749999999997
40
0.843749999999997
40
0.874999999999998
40
0.874999999999998
40
0.906249999999998
40
0.906249999999998
40
0.937499999999998
40
0.937499999999998
40
0.945312499999998
40
0.945312499999998
40
0.953124999999999
40
0.953124999999999
40
0.968749999999999
40
0.968749999999999
40
0.984374999999999
40
0.984374999999999
40
0.9921875
40
0.9921875
40
1
40
1
40
1
40
1
41
1
10
49.355095289373
20
-22.5393901443332
30
0
41
1
10
49.2619543249839
20
-22.4280722373663
30
0
41
1
10
49.1614110696069
20
-22.3186947098525
30
0
41
1
10
48.9484060520365
20
-22.1029475884943
30
0
41
1
10
48.8359273228541
20
-21.9965836325239
30
0
41
1
10
48.4834796632785
20
-21.6811728801205
30
0
41
1
10
48.2286533807371
20
-21.4757575165236
30
0
41
1
10
47.8237321627931
20
-21.1730092749897
30
0
41
1
10
47.6848402602334
20
-21.0729570960884
30
0
41
1
10
47.4025673298471
20
-20.8761155227341
30
0
41
1
10
47.2588907878457
20
-20.7791011519604
30
0
41
1
10
46.8211023213092
20
-20.4918224741218
30
0
41
1
10
46.5202782715995
20
-20.3052927525056
30
0
41
1
10
45.9037242806766
20
-19.9407753109241
30
0
41
1
10
45.5879726697279
20
-19.7628001426997
30
0
41
1
10
44.9432466453754
20
-19.4148243922155
30
0
41
1
10
44.614263064964
20
-19.2448282233763
30
0
41
1
10
43.9439272633954
20
-18.9128278927928
30
0
41
1
10
43.6025425049588
20
-18.750809831058
30
0
41
1
10
42.9077086350383
20
-18.4353706864112
30
0
41
1
10
42.5565946615506
20
-18.2830071395594
30
0
41
1
10
41.8469474909153
20
-17.9897395081653
30
0
41
1
10
41.4884165376322
20
-17.8488291523138
30
0
41
1
10
40.7634675651941
20
-17.5799950911238
30
0
41
1
10
40.3970565309497
20
-17.4520562704026
30
0
41
1
10
39.6553083379917
20
-17.2117775638747
30
0
41
1
10
39.2799878418297
20
-17.0994037923092
30
0
41
1
10
38.5184811659445
20
-16.8946369769712
30
0
41
1
10
38.1323374684791
20
-16.802159723044
30
0
41
1
10
37.6405906253359
20
-16.7038988488945
30
0
41
1
10
37.5417814923208
20
-16.6851261350273
30
0
41
1
10
37.3431541782224
20
-16.6495252826534
30
0
41
1
10
37.2432084181713
20
-16.6326775077452
30
0
41
1
10
36.9427402268717
20
-16.5855450955982
30
0
41
1
10
36.7417823838596
20
-16.5586673081305
30
0
41
1
10
36.3383128707513
20
-16.5159410917431
30
0
41
1
10
36.1358034278947
20
-16.5000772936515
30
0
41
1
10
35.7288453862948
20
-16.4821802154411
30
0
41
1
10
35.5237709756906
20
-16.48020148572
30
0
41
1
10
35.1180625497693
20
-16.4939196986767
30
0
41
1
10
34.9167825241863
20
-16.509522178233
30
0
41
1
10
34.5182464059048
20
-16.5629812343613
30
0
41
1
10
34.3209772085484
20
-16.6007709282513
30
0
41
1
10
34.0777908808442
20
-16.6666451952239
30
0
41
1
10
34.0292287262027
20
-16.6807976485532
30
0
41
1
10
33.9335238065747
20
-16.7108108026309
30
0
41
1
10
33.8862733214666
20
-16.7266967199557
30
0
41
1
10
33.7464030041296
20
-16.7770912794131
30
0
41
1
10
33.6556614141206
20
-16.8143333169815
30
0
41
1
10
33.4796516859833
20
-16.8967082530249
30
0
41
1
10
33.3943824653217
20
-16.9418398577265
30
0
41
1
10
33.2710086942806
20
-17.0159968895632
30
0
41
1
10
33.2305757549914
20
-17.0418430695032
30
0
41
1
10
33.151971357651
20
-17.0953210289369
30
0
41
1
10
33.1137272283127
20
-17.1229913015297
30
0
41
1
10
33.0765572586222
20
-17.1515995756093
30
0
0
SPLINE
5
C0
100
AcDbEntity
8
1
62
256
6
ByLayer
370
18
48
1
60
0
100
AcDbSpline
70
4
71
3
72
25
73
21
40
0
40
0
40
0
40
0
40
0.249999999999995
40
0.249999999999995
40
0.312499999999995
40
0.312499999999995
40
0.374999999999996
40
0.374999999999996
40
0.499999999999997
40
0.499999999999997
40
0.624999999999997
40
0.624999999999997
40
0.656249999999996
40
0.656249999999996
40
0.687499999999996
40
0.749999999999997
40
0.749999999999997
40
0.874999999999998
40
0.874999999999998
40
1
40
1
40
1
40
1
41
1
10
49.3550952893729
20
-22.5393901443332
30
0
41
1
10
49.5094731584461
20
-22.7238956557368
30
0
41
1
10
49.6385486361254
20
-22.9082304439199
30
0
41
1
10
49.7587159533586
20
-23.1417903093535
30
0
41
1
10
49.7806639689594
20
-23.1886625003218
30
0
41
1
10
49.8200139310329
20
-23.2828278290482
30
0
41
1
10
49.837453591743
20
-23.3302627203284
30
0
41
1
10
49.8818353102264
20
-23.4718775813015
30
0
41
1
10
49.901021906301
20
-23.5655698841415
30
0
41
1
10
49.9160970240848
20
-23.7518194670135
30
0
41
1
10
49.9120145076695
20
-23.8443791994916
30
0
41
1
10
49.8898573952246
20
-23.9594431586925
30
0
41
1
10
49.8845542621779
20
-23.9824633684187
30
0
41
1
10
49.8722644535469
20
-24.0280425219621
30
0
41
1
10
49.8512892873087
20
-24.095837112253
30
0
41
1
10
49.8226194643471
20
-24.1619007786815
30
0
41
1
10
49.7547060943367
20
-24.291645701572
30
0
41
1
10
49.6953910293949
20
-24.3749905776833
30
0
41
1
10
49.5457897346425
20
-24.5344600997276
30
0
41
1
10
49.457231451189
20
-24.6086875465143
30
0
41
1
10
49.3550952893742
20
-24.676963297485
30
0
0
SPLINE
5
C1
100
AcDbEntity
8
1
62
256
6
ByLayer
370
18
48
1
60
0
100
AcDbSpline
70
2053
71
3
72
117
73
113
40
0
40
0
40
0
40
0
40
0.0312499999999982
40
0.0312499999999982
40
0.046874999999997
40
0.046874999999997
40
0.0624999999999958
40
0.0624999999999958
40
0.0937499999999945
40
0.0937499999999945
40
0.101562499999993
40
0.101562499999993
40
0.109374999999992
40
0.109374999999992
40
0.124999999999988
40
0.124999999999988
40
0.156249999999982
40
0.156249999999982
40
0.164062499999982
40
0.164062499999982
40
0.171874999999982
40
0.171874999999982
40
0.187499999999981
40
0.203124999999981
40
0.203124999999981
40
0.210937499999982
40
0.210937499999982
40
0.218749999999983
40
0.218749999999983
40
0.249999999999993
40
0.249999999999993
40
0.265624999999997
40
0.265624999999997
40
0.273437499999997
40
0.273437499999997
40
0.281249999999998
40
0.281249999999998
40
0.312500000000002
40
0.312500000000002
40
0.328125000000003
40
0.328125000000003
40
0.343750000000004
40
0.359375000000005
40
0.359375000000005
40
0.375000000000006
40
0.375000000000006
40
0.406250000000007
40
0.406250000000007
40
0.421875000000008
40
0.421875000000008
40
0.437500000000009
40
0.437500000000009
40
0.46875000000001
40
0.46875000000001
40
0.47656250000001
40
0.47656250000001
40
0.484375000000011
40
0.484375000000011
40
0.500000000000011
40
0.500000000000011
40
0.531250000000013
40
0.531250000000013
40
0.539062500000014
40
0.539062500000014
40
0.546875000000014
40
0.546875000000014
40
0.562500000000014
40
0.578125000000014
40
0.578125000000014
40
0.593750000000014
40
0.593750000000014
40
0.625000000000014
40
0.625000000000014
40
0.640625000000015
40
0.640625000000015
40
0.656250000000016
40
0.656250000000016
40
0.687500000000018
40
0.687500000000018
40
0.703125000000018
40
0.703125000000018
40
0.718750000000018
40
0.734375000000018
40
0.734375000000018
40
0.750000000000017
40
0.750000000000017
40
0.781250000000017
40
0.781250000000017
40
0.796875000000017
40
0.796875000000017
40
0.812500000000016
40
0.812500000000016
40
0.843750000000016
40
0.843750000000016
40
0.851562500000014
40
0.851562500000014
40
0.859375000000013
40
0.859375000000013
40
0.87500000000001
40
0.87500000000001
40
0.906250000000005
40
0.906250000000005
40
0.914062500000005
40
0.914062500000005
40
0.921875000000004
40
0.921875000000004
40
0.937500000000003
40
0.953125000000002
40
0.953125000000002
40
0.968750000000001
40
0.968750000000001
40
1
40
1
40
1
40
1
41
1
10
64.75
20
0
30
0
41
1
10
64.75
20
-0.148856096757965
30
0
41
1
10
64.7646261652384
20
-0.29518576429592
30
0
41
1
10
64.8075798781228
20
-0.511054511117089
30
0
41
1
10
64.8254264026318
20
-0.582402023182361
30
0
41
1
10
64.8683345168986
20
-0.72385407032895
30
0
41
1
10
64.893503539926
20
-0.794108183267141
30
0
41
1
10
64.9782563703062
20
-0.998395346511868
30
0
41
1
10
65.0473790677764
20
-1.12755159587133
30
0
41
1
10
65.1494247223021
20
-1.28032074525007
30
0
41
1
10
65.1706231245209
20
-1.31043683182455
30
0
41
1
10
65.2146243868058
20
-1.3697804066898
30
0
41
1
10
65.2374940761132
20
-1.39908635982487
30
0
41
1
10
65.3079467733588
20
-1.48490234498777
30
0
41
1
10
65.3573766014796
20
-1.53936935962
30
0
41
1
10
65.5128409570127
20
-1.69479691989213
30
0
41
1
10
65.6259805975697
20
-1.78786123106673
30
0
41
1
10
65.7796502720931
20
-1.89066492545226
30
0
41
1
10
65.8110750855358
20
-1.91058259972789
30
0
41
1
10
65.8745220271181
20
-1.94863225242072
30
0
41
1
10
65.9066030770661
20
-1.96680853737006
30
0
41
1
10
66.0039016916234
20
-2.01883605478105
30
0
41
1
10
66.1364429498405
20
-2.08154751148717
30
0
41
1
10
66.2745449643613
20
-2.13111245986601
30
0
41
1
10
66.380245154302
20
-2.1632753552348
30
0
41
1
10
66.415833124079
20
-2.17315968367721
30
0
41
1
10
66.4877325910002
20
-2.19122250156392
30
0
41
1
10
66.5240902958034
20
-2.19940470993652
30
0
41
1
10
66.7056658105711
20
-2.23557719150204
30
0
41
1
10
66.8517803331707
20
-2.24991669526644
30
0
41
1
10
67.0722048018341
20
-2.25004111471558
30
0
41
1
10
67.1458898705683
20
-2.24649288333327
30
0
41
1
10
67.2567429261914
20
-2.23561213141972
30
0
41
1
10
67.2937005824605
20
-2.23105557140345
30
0
41
1
10
67.3668987442144
20
-2.22019240299617
30
0
41
1
10
67.4032406983226
20
-2.21387691394669
30
0
41
1
10
67.5836864604361
20
-2.17795200363569
30
0
41
1
10
67.7240339448054
20
-2.13542533703629
30
0
41
1
10
67.9285182735407
20
-2.05080360993506
30
0
41
1
10
67.99596159881
20
-2.01891179138235
30
0
41
1
10
68.1260944200381
20
-1.94932185255435
30
0
41
1
10
68.2520047792833
20
-1.87377899055253
30
0
41
1
10
68.3696728572239
20
-1.78658436027375
30
0
41
1
10
68.4831999914994
20
-1.69351858490156
30
0
41
1
10
68.5379864641637
20
-1.6439573022413
30
0
41
1
10
68.6953336588886
20
-1.48671977427238
30
0
41
1
10
68.7882911732311
20
-1.37330592983266
30
0
41
1
10
68.9105072488535
20
-1.19072485334375
30
0
41
1
10
68.9483543504938
20
-1.12777236494366
30
0
41
1
10
69.0181214260701
20
-0.997567587612857
30
0
41
1
10
69.0500470691267
20
-0.930181314232424
30
0
41
1
10
69.1347531035285
20
-0.725982257981151
30
0
41
1
10
69.1774014437771
20
-0.585741373061045
30
0
41
1
10
69.213499501728
20
-0.405307699245457
30
0
41
1
10
69.2198507003589
20
-0.368962053910245
30
0
41
1
10
69.2307859228101
20
-0.295743631718252
30
0
41
1
10
69.2353787026421
20
-0.258764481249386
30
0
41
1
10
69.246354610896
20
-0.147982992381879
30
0
41
1
10
69.2499717345088
20
-0.0743260559463966
30
0
41
1
10
69.2500560371859
20
0.146070203150901
30
0
41
1
10
69.2358588942619
20
0.292240346997474
30
0
41
1
10
69.1998222541713
20
0.473977993707745
30
0
41
1
10
69.1916697344601
20
0.510348917235094
30
0
41
1
10
69.1736817881622
20
0.582219654497785
30
0
41
1
10
69.1638339552976
20
0.61780115297833
30
0
41
1
10
69.131774999232
20
0.723503942995701
30
0
41
1
10
69.0823338233915
20
0.861668014491552
30
0
41
1
10
69.0196889335719
20
0.994374226915966
30
0
41
1
10
68.9503424316387
20
1.12431663284734
30
0
41
1
10
68.9120770732638
20
1.18824080642205
30
0
41
1
10
68.789014583033
20
1.37249648971714
30
0
41
1
10
68.6960882099835
20
1.48569628939611
30
0
41
1
10
68.5406795375024
20
1.64139688461199
30
0
41
1
10
68.4861874637039
20
1.69093018660375
30
0
41
1
10
68.3716341828834
20
1.78511000825841
30
0
41
1
10
68.3122862550989
20
1.82915105167148
30
0
41
1
10
68.1292572166184
20
1.95162324215604
30
0
41
1
10
68.0001939219452
20
2.02086220879322
30
0
41
1
10
67.7958308160291
20
2.10584811877894
30
0
41
1
10
67.7255710636068
20
2.13107914923999
30
0
41
1
10
67.5842941013252
20
2.17406350225229
30
0
41
1
10
67.4417266883239
20
2.20986148529066
30
0
41
1
10
67.2966262685988
20
2.2315740905611
30
0
41
1
10
67.1502471251389
20
2.24618250956461
30
0
41
1
10
67.0763019518026
20
2.24993522701126
30
0
41
1
10
66.8531997654408
20
2.25012705097151
30
0
41
1
10
66.7068949248581
20
2.2356498918162
30
0
41
1
10
66.4909357725587
20
2.19288368781896
30
0
41
1
10
66.4195366574036
20
2.17509381526546
30
0
41
1
10
66.277939376245
20
2.13227560435486
30
0
41
1
10
66.2077075843473
20
2.10717857175749
30
0
41
1
10
66.0034650453759
20
2.0226550138151
30
0
41
1
10
65.8742375440467
20
1.95365982888626
30
0
41
1
10
65.7212843868724
20
1.8516852109318
30
0
41
1
10
65.6911267046537
20
1.8304965660127
30
0
41
1
10
65.6316910020282
20
1.7865042590278
30
0
41
1
10
65.602352177558
20
1.76364612972257
30
0
41
1
10
65.5165612816106
20
1.69333339736503
30
0
41
1
10
65.4620844588644
20
1.64398361422907
30
0
41
1
10
65.30656599502
20
1.48870635548363
30
0
41
1
10
65.2133590853679
20
1.37562176759537
30
0
41
1
10
65.1103250166321
20
1.22188318593309
30
0
41
1
10
65.0903891251352
20
1.19048397788328
30
0
41
1
10
65.0523219337049
20
1.12712729763411
30
0
41
1
10
65.0341318238476
20
1.0950860136688
30
0
41
1
10
64.9820503857251
20
0.997889850282435
30
0
41
1
10
64.9192342912157
20
0.865440177941776
30
0
41
1
10
64.8695250362311
20
0.727330392917422
30
0
41
1
10
64.8264897881698
20
0.586333037426388
30
0
41
1
10
64.8082511382408
20
0.51403533454234
30
0
41
1
10
64.7646280868165
20
0.295962839684723
30
0
41
1
10
64.75
20
0.148856096757967
30
0
41
1
10
64.75
20
1E-16
30
0
0
SPLINE
5
C2
100
AcDbEntity
8
1
62
256
6
ByLayer
370
18
48
1
60
0
100
AcDbSpline
70
4
71
3
72
101
73
97
40
0
40
0
40
0
40
0
40
0.0312499999999932
40
0.0312499999999932
40
0.0468749999999903
40
0.0468749999999903
40
0.0624999999999875
40
0.0624999999999875
40
0.0937499999999818
40
0.0937499999999818
40
0.10937499999998
40
0.10937499999998
40
0.124999999999978
40
0.124999999999978
40
0.156249999999974
40
0.156249999999974
40
0.171874999999974
40
0.171874999999974
40
0.187499999999973
40
0.187499999999973
40
0.218749999999972
40
0.218749999999972
40
0.234374999999971
40
0.234374999999971
40
0.24999999999997
40
0.24999999999997
40
0.281249999999969
40
0.281249999999969
40
0.312499999999968
40
0.312499999999968
40
0.343749999999967
40
0.343749999999967
40
0.374999999999966
40
0.374999999999966
40
0.406249999999965
40
0.406249999999965
40
0.437499999999964
40
0.437499999999964
40
0.453124999999964
40
0.453124999999964
40
0.460937499999965
40
0.460937499999965
40
0.468749999999965
40
0.468749999999965
40
0.499999999999967
40
0.499999999999967
40
0.515624999999968
40
0.515624999999968
40
0.53124999999997
40
0.53124999999997
40
0.562499999999972
40
0.562499999999972
40
0.578124999999973
40
0.578124999999973
40
0.593749999999974
40
0.609374999999975
40
0.609374999999975
40
0.624999999999976
40
0.624999999999976
40
0.656249999999981
40
0.656249999999981
40
0.671874999999984
40
0.671874999999984
40
0.687499999999987
40
0.687499999999987
40
0.718749999999991
40
0.718749999999991
40
0.734374999999993
40
0.734374999999993
40
0.749999999999995
40
0.749999999999995
40
0.781250000000002
40
0.781250000000002
40
0.796875000000004
40
0.796875000000004
40
0.812500000000006
40
0.812500000000006
40
0.843750000000008
40
0.843750000000008
40
0.859375000000007
40
0.859375000000007
40
0.875000000000007
40
0.875000000000007
40
0.906250000000006
40
0.906250000000006
40
0.914062500000006
40
0.914062500000006
40
0.921875000000006
40
0.921875000000006
40
0.937500000000005
40
0.937500000000005
40
0.968750000000002
40
0.968750000000002
40
0.984375000000001
40
0.984375000000001
40
1
40
1
40
1
40
1
41
1
10
69.2104241719908
20
0.420148759225649
30
0
41
1
10
69.1834383708526
20
0.56212244313288
30
0
41
1
10
69.1433910820976
20
0.698946908384718
30
0
41
1
10
69.0647584470796
20
0.89683364293635
30
0
41
1
10
69.0354318232898
20
0.961561992214857
30
0
41
1
10
68.9704642263174
20
1.08851040644375
30
0
41
1
10
68.9346623721366
20
1.15092306812973
30
0
41
1
10
68.8200263961554
20
1.33047868414193
30
0
41
1
10
68.7334889402216
20
1.44125178111611
30
0
41
1
10
68.5891095105378
20
1.59441325073789
30
0
41
1
10
68.5384303612455
20
1.64338073486302
30
0
41
1
10
68.432550592525
20
1.73645242260686
30
0
41
1
10
68.3779578066641
20
1.7800417521403
30
0
41
1
10
68.2094720862979
20
1.90235188587779
30
0
41
1
10
68.0909087983701
20
1.97267940564173
30
0
41
1
10
67.9039595962314
20
2.06158156747015
30
0
41
1
10
67.8399227123195
20
2.08847563862011
30
0
41
1
10
67.7112036404209
20
2.13574109798728
30
0
41
1
10
67.6462582431899
20
2.15625777024505
30
0
41
1
10
67.4497408739566
20
2.20876035386934
30
0
41
1
10
67.3165027743288
20
2.23176901250678
30
0
41
1
10
67.1133241357326
20
2.2481713397996
30
0
41
1
10
67.0455586612131
20
2.25054237037858
30
0
41
1
10
66.9111542780123
20
2.24924942817938
30
0
41
1
10
66.8443237609769
20
2.2456015632593
30
0
41
1
10
66.6449200332594
20
2.22581762650393
30
0
41
1
10
66.5133855327601
20
2.20090386432623
30
0
41
1
10
66.2533915665937
20
2.12681623721935
30
0
41
1
10
66.1284760103148
20
2.07866167001183
30
0
41
1
10
65.8883583286376
20
1.96077566219692
30
0
41
1
10
65.7731535396451
20
1.89105263757714
30
0
41
1
10
65.552984367213
20
1.72840333077754
30
0
41
1
10
65.4513770409926
20
1.63794470738374
30
0
41
1
10
65.2648955453109
20
1.43892614992202
30
0
41
1
10
65.1799863011856
20
1.33035733625743
30
0
41
1
10
65.0284158074964
20
1.09323203295369
30
0
41
1
10
64.9644348858086
20
0.968845568572577
30
0
41
1
10
64.8859876078767
20
0.773545973690931
30
0
41
1
10
64.8627784083057
20
0.706983518637471
30
0
41
1
10
64.8325346366922
20
0.604858955268765
30
0
41
1
10
64.823216382113
20
0.570436636857405
30
0
41
1
10
64.8061501983722
20
0.500807271979568
30
0
41
1
10
64.7983936274778
20
0.465530217004901
30
0
41
1
10
64.7640634697763
20
0.289330040636353
30
0
41
1
10
64.7502973768317
20
0.147432221674648
30
0
41
1
10
64.7498583969158
20
-0.0668004808317881
30
0
41
1
10
64.7531030080364
20
-0.138443873378651
30
0
41
1
10
64.7666013022966
20
-0.282211012662661
30
0
41
1
10
64.7768119360163
20
-0.353591608402398
30
0
41
1
10
64.8171229492931
20
-0.563840895098117
30
0
41
1
10
64.8569099099307
20
-0.699894991681537
30
0
41
1
10
64.9357112875054
20
-0.897919342062898
30
0
41
1
10
64.9652341200973
20
-0.962899242681225
30
0
41
1
10
65.0293494858276
20
-1.08811014541931
30
0
41
1
10
65.0988036299273
20
-1.209309704379
30
0
41
1
10
65.1785872596032
20
-1.32278671705332
30
0
41
1
10
65.2635065173038
20
-1.43244527094274
30
0
41
1
10
65.3087668316178
20
-1.48559532089791
30
0
41
1
10
65.4501121969123
20
-1.63688733487608
30
0
41
1
10
65.5518485790201
20
-1.72734680051109
30
0
41
1
10
65.7152141495404
20
-1.84835540286202
30
0
41
1
10
65.7714751995059
20
-1.88622750835883
30
0
41
1
10
65.8876687350278
20
-1.95699937549404
30
0
41
1
10
65.9472007365508
20
-1.98963292589921
30
0
41
1
10
66.1283232509042
20
-2.07864896527802
30
0
41
1
10
66.2531020914805
20
-2.12663918517479
30
0
41
1
10
66.4463412263886
20
-2.1818454665308
30
0
41
1
10
66.5118608580988
20
-2.19745042505435
30
0
41
1
10
66.6446417007378
20
-2.22278849006672
30
0
41
1
10
66.7111588498637
20
-2.23238797427005
30
0
41
1
10
66.9110933934464
20
-2.25222927918574
30
0
41
1
10
67.0448930058143
20
-2.25358467541919
30
0
41
1
10
67.2463852508333
20
-2.23748388284377
30
0
41
1
10
67.3137604292418
20
-2.22906352860055
30
0
41
1
10
67.4484577696004
20
-2.20591374500006
30
0
41
1
10
67.5149193582724
20
-2.19133899334325
30
0
41
1
10
67.7116827594868
20
-2.13879446579851
30
0
41
1
10
67.8393864458946
20
-2.09207474514319
30
0
41
1
10
68.0254759208221
20
-2.00389888018791
30
0
41
1
10
68.0866720916416
20
-1.97142451408033
30
0
41
1
10
68.2067664688262
20
-1.90028564673485
30
0
41
1
10
68.2648469585158
20
-1.86211498563544
30
0
41
1
10
68.4332763754033
20
-1.73995948932423
30
0
41
1
10
68.5378629681567
20
-1.64839478272066
30
0
41
1
10
68.6585277158831
20
-1.52086120584055
30
0
41
1
10
68.6821532573131
20
-1.49469550240607
30
0
41
1
10
68.7283613932119
20
-1.44101392097943
30
0
41
1
10
68.7509957625149
20
-1.41342681753375
30
0
41
1
10
68.8166065557231
20
-1.32946859202377
30
0
41
1
10
68.8574730189437
20
-1.27172292450091
30
0
41
1
10
68.9715950506526
20
-1.09327663812122
30
0
41
1
10
69.0364495218693
20
-0.967413911315515
30
0
41
1
10
69.1161257285004
20
-0.76788083965608
30
0
41
1
10
69.139725117386
20
-0.69947013132777
30
0
41
1
10
69.180060962753
20
-0.561263076705212
30
0
41
1
10
69.1969201010202
20
-0.49119436923447
30
0
41
1
10
69.2104241719908
20
-0.420148759225644
30
0
0
SPLINE
5
C3
100
AcDbEntity
8
1
62
256
6
ByLayer
370
18
48
1
60
0
100
AcDbSpline
70
4
71
3
72
101
73
97
40
0
40
0
40
0
40
0
40
0.0312499999999996
40
0.0312499999999996
40
0.0468749999999989
40
0.0468749999999989
40
0.0624999999999982
40
0.0624999999999982
40
0.0937499999999968
40
0.0937499999999968
40
0.109374999999997
40
0.109374999999997
40
0.124999999999998
40
0.124999999999998
40
0.156250000000001
40
0.156250000000001
40
0.171875000000003
40
0.171875000000003
40
0.187500000000006
40
0.187500000000006
40
0.218750000000012
40
0.218750000000012
40
0.234375000000015
40
0.234375000000015
40
0.250000000000018
40
0.250000000000018
40
0.281250000000022
40
0.281250000000022
40
0.312500000000025
40
0.312500000000025
40
0.343750000000028
40
0.343750000000028
40
0.375000000000032
40
0.375000000000032
40
0.406250000000035
40
0.406250000000035
40
0.437500000000038
40
0.437500000000038
40
0.45312500000004
40
0.45312500000004
40
0.46093750000004
40
0.46093750000004
40
0.468750000000041
40
0.468750000000041
40
0.500000000000041
40
0.500000000000041
40
0.515625000000041
40
0.515625000000041
40
0.531250000000041
40
0.531250000000041
40
0.562500000000041
40
0.562500000000041
40
0.578125000000042
40
0.578125000000042
40
0.593750000000042
40
0.609375000000042
40
0.609375000000042
40
0.625000000000042
40
0.625000000000042
40
0.656250000000043
40
0.656250000000043
40
0.671875000000043
40
0.671875000000043
40
0.687500000000043
40
0.687500000000043
40
0.718750000000043
40
0.718750000000043
40
0.734375000000043
40
0.734375000000043
40
0.750000000000044
40
0.750000000000044
40
0.781250000000041
40
0.781250000000041
40
0.796875000000038
40
0.796875000000038
40
0.812500000000035
40
0.812500000000035
40
0.84375000000003
40
0.84375000000003
40
0.859375000000028
40
0.859375000000028
40
0.875000000000027
40
0.875000000000027
40
0.906250000000024
40
0.906250000000024
40
0.914062500000022
40
0.914062500000022
40
0.921875000000021
40
0.921875000000021
40
0.937500000000017
40
0.937500000000017
40
0.968750000000009
40
0.968750000000009
40
0.984375000000004
40
0.984375000000004
40
1
40
1
40
1
40
1
41
1
10
69.2104241719908
20
-0.420148759225644
30
0
41
1
10
69.1834383708527
20
-0.56212244313256
30
0
41
1
10
69.1433910820978
20
-0.698946908384297
30
0
41
1
10
69.0647584470798
20
-0.896833642936014
30
0
41
1
10
69.0354318232899
20
-0.96156199221458
30
0
41
1
10
68.9704642263174
20
-1.08851040644369
30
0
41
1
10
68.9346623721367
20
-1.15092306812964
30
0
41
1
10
68.8200263961556
20
-1.33047868414158
30
0
41
1
10
68.7334889402219
20
-1.44125178111577
30
0
41
1
10
68.589109510538
20
-1.59441325073773
30
0
41
1
10
68.5384303612454
20
-1.64338073486309
30
0
41
1
10
68.4325505925251
20
-1.73645242260675
30
0
41
1
10
68.3779578066643
20
-1.78004175214014
30
0
41
1
10
68.2094720862982
20
-1.90235188587755
30
0
41
1
10
68.0909087983704
20
-1.97267940564156
30
0
41
1
10
67.9039595962315
20
-2.06158156747012
30
0
41
1
10
67.8399227123197
20
-2.08847563862007
30
0
41
1
10
67.7112036404212
20
-2.13574109798719
30
0
41
1
10
67.6462582431903
20
-2.15625777024495
30
0
41
1
10
67.449740873957
20
-2.20876035386925
30
0
41
1
10
67.3165027743291
20
-2.23176901250676
30
0
41
1
10
67.1133241357325
20
-2.24817133979961
30
0
41
1
10
67.0455586612132
20
-2.25054237037858
30
0
41
1
10
66.9111542780126
20
-2.24924942817939
30
0
41
1
10
66.8443237609773
20
-2.24560156325933
30
0
41
1
10
66.6449200332598
20
-2.22581762650399
30
0
41
1
10
66.5133855327598
20
-2.20090386432614
30
0
41
1
10
66.2533915665939
20
-2.12681623721942
30
0
41
1
10
66.1284760103152
20
-2.07866167001198
30
0
41
1
10
65.888358328638
20
-1.96077566219712
30
0
41
1
10
65.7731535396452
20
-1.89105263757728
30
0
41
1
10
65.5529843672126
20
-1.7284033307773
30
0
41
1
10
65.4513770409928
20
-1.63794470738404
30
0
41
1
10
65.2648955453112
20
-1.43892614992235
30
0
41
1
10
65.1799863011853
20
-1.33035733625701
30
0
41
1
10
65.0284158074966
20
-1.09323203295392
30
0
41
1
10
64.9644348858088
20
-0.968845568572989
30
0
41
1
10
64.885987607877
20
-0.773545973691337
30
0
41
1
10
64.8627784083058
20
-0.706983518637829
30
0
41
1
10
64.8325346366922
20
-0.604858955268965
30
0
41
1
10
64.8232163821131
20
-0.570436636857542
30
0
41
1
10
64.8061501983722
20
-0.500807271979541
30
0
41
1
10
64.7983936274778
20
-0.46553021700489
30
0
41
1
10
64.7640634697764
20
-0.289330040636732
30
0
41
1
10
64.7502973768317
20
-0.147432221675133
30
0
41
1
10
64.7498583969158
20
0.0668004808314614
30
0
41
1
10
64.7531030080363
20
0.138443873378428
30
0
41
1
10
64.7666013022966
20
0.282211012662762
30
0
41
1
10
64.7768119360163
20
0.353591608402166
30
0
41
1
10
64.8171229492931
20
0.563840895097675
30
0
41
1
10
64.8569099099306
20
0.699894991681156
30
0
41
1
10
64.9357112875054
20
0.897919342062849
30
0
41
1
10
64.9652341200972
20
0.96289924268106
30
0
41
1
10
65.0293494858275
20
1.08811014541901
30
0
41
1
10
65.098803164284
20
1.2093100830551
30
0
41
1
10
65.178587259603
20
1.32278671705305
30
0
41
1
10
65.2635065173037
20
1.43244527094261
30
0
41
1
10
65.3087668316178
20
1.48559532089785
30
0
41
1
10
65.450112196912
20
1.6368873348758
30
0
41
1
10
65.5518485790198
20
1.72734680051082
30
0
41
1
10
65.7152141495401
20
1.84835540286186
30
0
41
1
10
65.7714751995057
20
1.88622750835873
30
0
41
1
10
65.8876687350278
20
1.95699937549407
30
0
41
1
10
65.9472007365506
20
1.98963292589911
30
0
41
1
10
66.1283232509039
20
2.07864896527785
30
0
41
1
10
66.2531020914802
20
2.12663918517466
30
0
41
1
10
66.4463412263884
20
2.18184546653076
30
0
41
1
10
66.5118608580989
20
2.19745042505437
30
0
41
1
10
66.6446417007377
20
2.22278849006669
30
0
41
1
10
66.7111588498634
20
2.23238797427001
30
0
41
1
10
66.9110933934459
20
2.25222927918571
30
0
41
1
10
67.0448930058139
20
2.25358467541921
30
0
41
1
10
67.2463852508331
20
2.2374838828438
30
0
41
1
10
67.313760429242
20
2.22906352860051
30
0
41
1
10
67.4484577696002
20
2.20591374500008
30
0
41
1
10
67.5149193582722
20
2.19133899334331
30
0
41
1
10
67.7116827594863
20
2.13879446579865
30
0
41
1
10
67.8393864458941
20
2.09207474514338
30
0
41
1
10
68.025475920822
20
2.00389888018801
30
0
41
1
10
68.0866720916418
20
1.97142451408022
30
0
41
1
10
68.2067664688261
20
1.90028564673491
30
0
41
1
10
68.2648469585155
20
1.86211498563559
30
0
41
1
10
68.4332763754029
20
1.73995948932455
30
0
41
1
10
68.5378629681564
20
1.64839478272099
30
0
41
1
10
68.6585277158829
20
1.52086120584072
30
0
41
1
10
68.682153257313
20
1.49469550240619
30
0
41
1
10
68.7283613932119
20
1.44101392097944
30
0
41
1
10
68.7509957625148
20
1.41342681753374
30
0
41
1
10
68.816606555723
20
1.32946859202394
30
0
41
1
10
68.8574730189435
20
1.27172292450117
30
0
41
1
10
68.9715950506524
20
1.09327663812164
30
0
41
1
10
69.0364495218691
20
0.967413911315907
30
0
41
1
10
69.1161257285004
20
0.767880839656105
30
0
41
1
10
69.139725117386
20
0.699470131327824
30
0
41
1
10
69.180060962753
20
0.561263076705309
30
0
41
1
10
69.1969201010202
20
0.49119436923454
30
0
41
1
10
69.2104241719908
20
0.420148759225647
30
0
0
SPLINE
5
C4
100
AcDbEntity
8
1
62
256
6
ByLayer
370
18
48
1
60
0
100
AcDbSpline
70
4
71
3
72
12
73
8
40
0
40
0
40
0
40
0
40
0.5
40
0.5
40
0.75
40
0.75
40
1
40
1
40
1
40
1
41
1
10
69.2104241719908
20
0.420148759225646
30
0
41
1
10
69.2368372172247
20
0.281188373507515
30
0
41
1
10
69.2499369056445
20
0.141476703882696
30
0
41
1
10
69.2500312091505
20
-0.0692278277080636
30
0
41
1
10
69.2467677482106
20
-0.139790849492745
30
0
41
1
10
69.2335443598006
20
-0.280689131967123
30
0
41
1
10
69.2236332573684
20
-0.350655083563385
30
0
41
1
10
69.210424171993
20
-0.42014875922597
30
0
0
SPLINE
5
C5
100
AcDbEntity
8
1
62
256
6
ByLayer
370
18
48
1
60
0
100
AcDbSpline
70
4
71
3
72
12
73
8
40
0
40
0
40
0
40
0
40
0.5
40
0.5
40
0.75
40
0.75
40
1
40
1
40
1
40
1
41
1
10
69.2104241719908
20
-0.420148759225646
30
0
41
1
10
69.2368372172247
20
-0.281188373507515
30
0
41
1
10
69.2499369056445
20
-0.141476703882696
30
0
41
1
10
69.2500312091505
20
0.0692278277080636
30
0
41
1
10
69.2467677482106
20
0.139790849492745
30
0
41
1
10
69.2335443598006
20
0.280689131967123
30
0
41
1
10
69.2236332573684
20
0.350655083563385
30
0
41
1
10
69.210424171993
20
0.42014875922597
30
0
0
SPLINE
5
C6
100
AcDbEntity
8
SK1
62
256
6
ByLayer
370
18
48
1
60
0
100
AcDbSpline
70
2053
71
3
72
43
73
39
40
0
40
0
40
0
40
0
40
0.125000000000002
40
0.125000000000002
40
0.187500000000003
40
0.187500000000003
40
0.218750000000004
40
0.218750000000004
40
0.234375000000004
40
0.234375000000004
40
0.250000000000004
40
0.250000000000004
40
0.375000000000003
40
0.375000000000003
40
0.437500000000003
40
0.437500000000003
40
0.468750000000003
40
0.468750000000003
40
0.484375000000003
40
0.484375000000003
40
0.500000000000002
40
0.500000000000002
40
0.625000000000002
40
0.625000000000002
40
0.687500000000002
40
0.687500000000002
40
0.703125000000002
40
0.703125000000002
40
0.718750000000002
40
0.750000000000001
40
0.750000000000001
40
0.875000000000001
40
0.875000000000001
40
0.906250000000001
40
0.906250000000001
40
0.9375
40
0.9375
40
1
40
1
40
1
40
1
41
1
10
-11.1739662461941
20
23.5
30
0
41
1
10
-10.7779069810822
20
23.716931526875
30
0
41
1
10
-10.4152915069879
20
23.9176928460274
30
0
41
1
10
-9.92914880122439
20
24.1886134446776
30
0
41
1
10
-9.77677011634718
20
24.2738651029837
30
0
41
1
10
-9.56412673692128
20
24.3931767147973
30
0
41
1
10
-9.4959036321225
20
24.431517564802
30
0
41
1
10
-9.39777506910927
20
24.4867394839224
30
0
41
1
10
-9.36578931043034
20
24.5047524715819
30
0
41
1
10
-9.30356901336246
20
24.5398149165335
30
0
41
1
10
-9.27329396551433
20
24.5568871640003
30
0
41
1
10
-9.00838084655992
20
24.7063633815818
30
0
41
1
10
-8.82643534870761
20
24.8096525213911
30
0
41
1
10
-8.64017741453094
20
24.9155347334579
30
0
41
1
10
-8.59257988467073
20
24.9426344709863
30
0
41
1
10
-8.54420457050488
20
24.9701866491711
30
0
41
1
10
-8.53192020014519
20
24.9771860073909
30
0
41
1
10
-8.51945531432036
20
24.9842888460165
30
0
41
1
10
-8.51629279861117
20
24.9860911201217
30
0
41
1
10
-8.51201097373321
20
24.9885313285062
30
0
41
1
10
-8.51088472193256
20
24.9891732186401
30
0
41
1
10
-8.50977463327632
20
24.9898058856046
30
0
41
1
10
-8.57269087291669
20
24.9539053606606
30
0
41
1
10
-8.75695285186253
20
24.8491483107049
30
0
41
1
10
-8.83340785818238
20
24.8057225052066
30
0
41
1
10
-8.9475093795395
20
24.7410547483026
30
0
41
1
10
-8.9712697349671
20
24.7275945042341
30
0
41
1
10
-9.02038133488541
20
24.6997874192436
30
0
41
1
10
-9.09651867592806
20
24.6566995217553
30
0
41
1
10
-9.17988849908905
20
24.6095934352274
30
0
41
1
10
-9.47316648735768
20
24.4441000460216
30
0
41
1
10
-9.75671854572716
20
24.284729717568
30
0
41
1
10
-10.1644198304522
20
24.0574947043268
30
0
41
1
10
-10.2487465151585
20
24.0105793353385
30
0
41
1
10
-10.422059994887
20
23.9143561886405
30
0
41
1
10
-10.5109843013033
20
23.8650828664023
30
0
41
1
10
-10.7842614579629
20
23.7139956336211
30
0
41
1
10
-10.9751079882543
20
23.6089196222045
30
0
41
1
10
-11.1739662461941
20
23.5
30
0
0
SPLINE
5
C7
100
AcDbEntity
8
SK1
62
256
6
ByLayer
370
18
48
1
60
0
100
AcDbSpline
70
4
71
3
72
43
73
39
40
0
40
0
40
0
40
0
40
0.125000000000001
40
0.125000000000001
40
0.187500000000001
40
0.187500000000001
40
0.218750000000001
40
0.218750000000001
40
0.234375000000001
40
0.234375000000001
40
0.250000000000001
40
0.250000000000001
40
0.375000000000001
40
0.375000000000001
40
0.437500000000002
40
0.437500000000002
40
0.468750000000001
40
0.468750000000001
40
0.484375000000001
40
0.484375000000001
40
0.500000000000001
40
0.500000000000001
40
0.625000000000001
40
0.625000000000001
40
0.687500000000001
40
0.687500000000001
40
0.703125000000001
40
0.703125000000001
40
0.718750000000001
40
0.750000000000001
40
0.750000000000001
40
0.875000000000001
40
0.875000000000001
40
0.906250000000001
40
0.906250000000001
40
0.9375
40
0.9375
40
1
40
1
40
1
40
1
41
1
10
-11.1739662461941
20
-7.57100492421588
30
0
41
1
10
-10.7779069810822
20
-7.04092559031516
30
0
41
1
10
-10.4152915069879
20
-6.48577681783452
30
0
41
1
10
-9.92914880122438
20
-5.60899292471128
30
0
41
1
10
-9.77677011634718
20
-5.3093592341673
30
0
41
1
10
-9.56412673692128
20
-4.84768774281922
30
0
41
1
10
-9.49590363212249
20
-4.69175743724154
30
0
41
1
10
-9.39777506910926
20
-4.45462530836146
30
0
41
1
10
-9.36578931043035
20
-4.37508885657271
30
0
41
1
10
-9.30356901336247
20
-4.21573297401563
30
0
41
1
10
-9.27329396551433
20
-4.13581683011295
30
0
41
1
10
-9.00838084655993
20
-3.41441229017482
30
0
41
1
10
-8.82643534870761
20
-2.75787489021791
30
0
41
1
10
-8.64017741453094
20
-1.7481746721644
30
0
41
1
10
-8.59257988467073
20
-1.40744675974873
30
0
41
1
10
-8.54420457050488
20
-0.8897335979767
30
0
41
1
10
-8.53192020014519
20
-0.716057924590612
30
0
41
1
10
-8.51945531432036
20
-0.453829177305643
30
0
41
1
10
-8.51629279861118
20
-0.36599435371323
30
0
41
1
10
-8.51201097373321
20
-0.190802143808002
30
0
41
1
10
-8.51088472193256
20
-0.103370563332307
30
0
41
1
10
-8.50977463327633
20
0.682050042609445
30
0
41
1
10
-8.57269087291669
20
1.36983671331608
30
0
41
1
10
-8.75695285186253
20
2.38696375178856
30
0
41
1
10
-8.83340785818238
20
2.7235725423691
30
0
41
1
10
-8.94750937953951
20
3.14134071274296
30
0
41
1
10
-8.97126973496711
20
3.22477761556589
30
0
41
1
10
-9.02038133488541
20
3.39050899275485
30
0
41
1
10
-9.09651867592806
20
3.63770868481605
30
0
41
1
10
-9.17988849908906
20
3.88082014999375
30
0
41
1
10
-9.47316648735767
20
4.68251595480563
30
0
41
1
10
-9.75671854572717
20
5.29626507903722
30
0
41
1
10
-10.1644198304522
20
6.03372442514519
30
0
41
1
10
-10.2487465151585
20
6.17989596883495
30
0
41
1
10
-10.422059994887
20
6.46841331549389
30
0
41
1
10
-10.5109843013033
20
6.61067322439694
30
0
41
1
10
-10.7842614579629
20
7.03174436973068
30
0
41
1
10
-10.9751079882543
20
7.30485623841344
30
0
41
1
10
-11.1739662461941
20
7.57100492421579
30
0
0
SPLINE
5
C8
100
AcDbEntity
8
SK1
62
256
6
ByLayer
370
18
48
1
60
0
100
AcDbSpline
70
2053
71
3
72
43
73
39
40
0
40
0
40
0
40
0
40
0.125
40
0.125
40
0.187499999999999
40
0.187499999999999
40
0.218749999999999
40
0.218749999999999
40
0.234374999999999
40
0.234374999999999
40
0.249999999999999
40
0.249999999999999
40
0.374999999999999
40
0.374999999999999
40
0.437499999999999
40
0.437499999999999
40
0.468749999999999
40
0.468749999999999
40
0.484374999999999
40
0.484374999999999
40
0.499999999999999
40
0.499999999999999
40
0.624999999999998
40
0.624999999999998
40
0.687499999999998
40
0.687499999999998
40
0.703124999999998
40
0.703124999999998
40
0.718749999999998
40
0.749999999999999
40
0.749999999999999
40
0.874999999999999
40
0.874999999999999
40
0.90625
40
0.90625
40
0.9375
40
0.9375
40
1
40
1
40
1
40
1
41
1
10
-11.1739662461941
20
-23.5
30
0
41
1
10
-10.7779069810822
20
-23.716931526875
30
0
41
1
10
-10.4152915069879
20
-23.9176928460274
30
0
41
1
10
-9.92914880122439
20
-24.1886134446776
30
0
41
1
10
-9.77677011634718
20
-24.2738651029837
30
0
41
1
10
-9.56412673692128
20
-24.3931767147973
30
0
41
1
10
-9.4959036321225
20
-24.4315175648021
30
0
41
1
10
-9.39777506910926
20
-24.4867394839224
30
0
41
1
10
-9.36578931043034
20
-24.5047524715819
30
0
41
1
10
-9.30356901336246
20
-24.5398149165335
30
0
41
1
10
-9.27329396551433
20
-24.5568871640003
30
0
41
1
10
-9.00838084655992
20
-24.7063633815818
30
0
41
1
10
-8.82643534870761
20
-24.8096525213912
30
0
41
1
10
-8.64017741453094
20
-24.9155347334579
30
0
41
1
10
-8.59257988467074
20
-24.9426344709863
30
0
41
1
10
-8.54420457050488
20
-24.9701866491711
30
0
41
1
10
-8.53192020014519
20
-24.9771860073909
30
0
41
1
10
-8.51945531432036
20
-24.9842888460165
30
0
41
1
10
-8.51629279861118
20
-24.9860911201217
30
0
41
1
10
-8.51201097373322
20
-24.9885313285062
30
0
41
1
10
-8.51088472193256
20
-24.9891732186401
30
0
41
1
10
-8.50977463327633
20
-24.9898058856046
30
0
41
1
10
-8.57269087291668
20
-24.9539053606606
30
0
41
1
10
-8.75695285186253
20
-24.8491483107049
30
0
41
1
10
-8.83340785818238
20
-24.8057225052066
30
0
41
1
10
-8.94750937953951
20
-24.7410547483026
30
0
41
1
10
-8.9712697349671
20
-24.7275945042341
30
0
41
1
10
-9.02038133488541
20
-24.6997874192436
30
0
41
1
10
-9.09651867592806
20
-24.6566995217552
30
0
41
1
10
-9.17988849908906
20
-24.6095934352274
30
0
41
1
10
-9.47316648735768
20
-24.4441000460216
30
0
41
1
10
-9.75671854572717
20
-24.284729717568
30
0
41
1
10
-10.1644198304522
20
-24.0574947043268
30
0
41
1
10
-10.2487465151585
20
-24.0105793353385
30
0
41
1
10
-10.422059994887
20
-23.9143561886405
30
0
41
1
10
-10.5109843013033
20
-23.8650828664023
30
0
41
1
10
-10.7842614579629
20
-23.7139956336211
30
0
41
1
10
-10.9751079882543
20
-23.6089196222045
30
0
41
1
10
-11.1739662461941
20
-23.5
30
0
0
SPLINE
5
C9
100
AcDbEntity
8
SK1
62
256
6
ByLayer
370
18
48
1
60
0
100
AcDbSpline
70
4
71
3
72
28
73
24
40
0
40
0
40
0
40
0
40
0.25
40
0.25
40
0.375
40
0.375
40
0.4375
40
0.4375
40
0.46875
40
0.46875
40
0.5
40
0.5
40
0.625
40
0.625
40
0.75
40
0.75
40
0.875
40
0.875
40
0.9375
40
0.9375
40
0.96875
40
0.96875
40
1
40
1
40
1
40
1
41
1
10
-117
20
-7.57100492421581
30
0
41
1
10
-117.46041522988
20
-6.35539943643592
30
0
41
1
10
-117.83330533785
20
-5.1206836392247
30
0
41
1
10
-118.219389654001
20
-3.23078220663667
30
0
41
1
10
-118.319164075272
20
-2.59450056849669
30
0
41
1
10
-118.420379804536
20
-1.62950039177067
30
0
41
1
10
-118.446048627353
20
-1.30607170934171
30
0
41
1
10
-118.471879448065
20
-0.818161780172112
30
0
41
1
10
-118.478378239617
20
-0.655064114338896
30
0
41
1
10
-118.487066317936
20
-0.327927841738735
30
0
41
1
10
-118.489239475458
20
-0.164277021188927
30
0
41
1
10
-118.489291906955
20
0.651160463328432
30
0
41
1
10
-118.454756439389
20
1.29764471818662
30
0
41
1
10
-118.321142524975
20
2.5796641187168
30
0
41
1
10
-118.222087646521
20
3.21520326254508
30
0
41
1
10
-117.965409078144
20
4.47634590237724
30
0
41
1
10
-117.807807329347
20
5.10195312048673
30
0
41
1
10
-117.532423259684
20
6.03375111201249
30
0
41
1
10
-117.434134397324
20
6.34324876726136
30
0
41
1
10
-117.27758171305
20
6.80594823129564
30
0
41
1
10
-117.223823874631
20
6.96006739848532
30
0
41
1
10
-117.11380357468
20
7.26662499925616
30
0
41
1
10
-117.057509944471
20
7.41916502065837
30
0
41
1
10
-117
20
7.57100492421583
30
0
0
LINE
5
70
100
AcDbEntity
8
1
62
256
6
ByLayer
370
18
48
1
60
0
100
AcDbLine
10
69.210424
20
-22.235918
30
0
11
54.485397
21
-27.595389
31
0
39
0
210
0
220
0
230
1
0
LINE
5
72
100
AcDbEntity
8
1
62
256
6
ByLayer
370
18
48
1
60
0
100
AcDbLine
10
54.485397
20
27.595389
30
0
11
69.210424
21
22.235918
31
0
39
0
210
0
220
0
230
1
0
LINE
5
73
100
AcDbEntity
8
1
62
256
6
ByLayer
370
18
48
1
60
0
100
AcDbLine
10
70
20
-21.108287
30
0
11
70
21
21.108287
31
0
39
0
210
0
220
0
230
1
0
LINE
5
74
100
AcDbEntity
8
1
62
256
6
ByLayer
370
18
48
1
60
0
100
AcDbLine
10
54.485397
20
27.595389
30
0
11
54.485397
21
-27.595389
31
0
39
0
210
0
220
0
230
1
0
LINE
5
75
100
AcDbEntity
8
1
62
256
6
ByLayer
370
18
48
1
60
0
100
AcDbLine
10
34.726878
20
-19.18549
30
0
11
34.455128
21
-19.466895
31
0
39
0
210
0
220
0
230
1
0
LINE
5
76
100
AcDbEntity
8
1
62
256
6
ByLayer
370
18
48
1
60
0
100
AcDbLine
10
36.483495
20
-17.366459
30
0
11
34.726878
21
-19.18549
31
0
39
0
210
0
220
0
230
1
0
LINE
5
77
100
AcDbEntity
8
1
62
256
6
ByLayer
370
18
48
1
60
0
100
AcDbLine
10
34.726878
20
-19.18549
30
0
11
36.483495
21
-17.366459
31
0
39
0
210
0
220
0
230
1
0
LINE
5
78
100
AcDbEntity
8
1
62
256
6
ByLayer
370
18
48
1
60
0
100
AcDbLine
10
54.485397
20
27.595389
30
0
11
54.485397
21
-27.595389
31
0
39
0
210
0
220
0
230
1
0
LINE
5
79
100
AcDbEntity
8
1
62
256
6
ByLayer
370
18
48
1
60
0
100
AcDbLine
10
69.210424
20
-22.235918
30
0
11
69.210424
21
22.235918
31
0
39
0
210
0
220
0
230
1
0
LINE
5
7A
100
AcDbEntity
8
1
62
256
6
ByLayer
370
18
48
1
60
0
100
AcDbLine
10
66.7
20
-1.469694
30
0
11
66.7
21
1.469694
31
0
39
0
210
0
220
0
230
1
0
LINE
5
7B
100
AcDbEntity
8
1
62
256
6
ByLayer
370
18
48
1
60
0
100
AcDbLine
10
67.3
20
-1.469694
30
0
11
67.3
21
1.469694
31
0
39
0
210
0
220
0
230
1
0
LINE
5
7C
100
AcDbEntity
8
1
62
256
6
ByLayer
370
18
48
1
60
0
100
AcDbLine
10
66.7
20
-1.469694
30
0
11
66.7
21
-1.977372
31
0
39
0
210
0
220
0
230
1
0
LINE
5
7D
100
AcDbEntity
8
1
62
256
6
ByLayer
370
18
48
1
60
0
100
AcDbLine
10
66.7
20
1.977372
30
0
11
66.7
21
1.469694
31
0
39
0
210
0
220
0
230
1
0
LINE
5
7E
100
AcDbEntity
8
1
62
256
6
ByLayer
370
18
48
1
60
0
100
AcDbLine
10
67.3
20
-1.977372
30
0
11
67.3
21
-1.469694
31
0
39
0
210
0
220
0
230
1
0
LINE
5
7F
100
AcDbEntity
8
1
62
256
6
ByLayer
370
18
48
1
60
0
100
AcDbLine
10
67.3
20
1.469694
30
0
11
67.3
21
1.977372
31
0
39
0
210
0
220
0
230
1
0
LINE
5
80
100
AcDbEntity
8
1
62
256
6
ByLayer
370
18
48
1
60
0
100
AcDbLine
10
66.7
20
1.977372
30
0
11
66.7
21
-1.977372
31
0
39
0
210
0
220
0
230
1
0
LINE
5
81
100
AcDbEntity
8
1
62
256
6
ByLayer
370
18
48
1
60
0
100
AcDbLine
10
67.3
20
1.977372
30
0
11
67.3
21
-1.977372
31
0
39
0
210
0
220
0
230
1
0
LINE
5
82
100
AcDbEntity
8
4
62
256
6
ByLayer
370
13
48
0.05
60
0
100
AcDbLine
10
0
20
0
30
0
11
70
21
0
31
0
39
0
210
0
220
0
230
1
0
LINE
5
84
100
AcDbEntity
8
SK3
62
256
6
ByLayer
370
13
48
0.05
60
0
100
AcDbLine
10
-10
20
-10.00175
30
0
11
70
21
-10.00175
31
0
39
0
210
0
220
0
230
1
0
LINE
5
86
100
AcDbEntity
8
SK3
62
256
6
ByLayer
370
13
48
0.05
60
0
100
AcDbLine
10
70
20
10.00175
30
0
11
-10
21
10.00175
31
0
39
0
210
0
220
0
230
1
0
LINE
5
87
100
AcDbEntity
8
SK3
62
256
6
ByLayer
370
13
48
0.05
60
0
100
AcDbLine
10
-10
20
-10.00175
30
0
11
-10
21
10.00175
31
0
39
0
210
0
220
0
230
1
0
LINE
5
88
100
AcDbEntity
8
1
62
256
6
ByLayer
370
18
48
1
60
0
100
AcDbLine
10
49.355095
20
-24.676963
30
0
11
49.355095
21
-28.5
31
0
39
0
210
0
220
0
230
1
0
LINE
5
89
100
AcDbEntity
8
1
62
256
6
ByLayer
370
18
48
1
60
0
100
AcDbLine
10
49.355095
20
28.5
30
0
11
49.355095
21
-22.53939
31
0
39
0
210
0
220
0
230
1
0
LINE
5
8A
100
AcDbEntity
8
1
62
256
6
ByLayer
370
18
48
1
60
0
100
AcDbLine
10
36.483495
20
-17.366459
30
0
11
37.198723
21
-16.625819
31
0
39
0
210
0
220
0
230
1
0
LINE
5
8B
100
AcDbEntity
8
1
62
256
6
ByLayer
370
18
48
1
60
0
100
AcDbLine
10
37.198723
20
-16.625819
30
0
11
33.638869
21
-20.312156
31
0
39
0
210
0
220
0
230
1
0
LINE
5
8C
100
AcDbEntity
8
1
62
256
6
ByLayer
370
18
48
1
60
0
100
AcDbLine
10
37.198723
20
-16.625819
30
0
11
36.483495
21
-17.366459
31
0
39
0
210
0
220
0
230
1
0
LINE
5
8D
100
AcDbEntity
8
1
62
256
6
ByLayer
370
18
48
1
60
0
100
AcDbLine
10
32.549465
20
-20.331171
30
0
11
33.638869
21
-20.312156
31
0
39
0
210
0
220
0
230
1
0
LINE
5
8E
100
AcDbEntity
8
1
62
256
6
ByLayer
370
18
48
1
60
0
100
AcDbLine
10
36.064166
20
-16.497888
30
0
11
32.492624
21
-20.196329
31
0
39
0
210
0
220
0
230
1
0
LINE
5
8F
100
AcDbEntity
8
SK4
62
256
6
ByLayer
370
13
48
0.05
60
0
100
AcDbLine
10
75
20
0
30
0
11
-124
21
0
31
0
39
0
210
0
220
0
230
1
0
LINE
5
91
100
AcDbEntity
8
80
62
256
6
ByLayer
370
13
48
1
60
0
100
AcDbLine
10
0
20
0
30
0
11
-8
21
0
31
0
39
0
210
0
220
0
230
1
0
LINE
5
92
100
AcDbEntity
8
81
62
256
6
ByLayer
370
13
48
1
60
0
100
AcDbLine
10
70
20
0
30
0
11
76
21
0
31
0
39
0
210
0
220
0
230
1
0
LINE
5
93
100
AcDbEntity
8
SK1
62
256
6
ByLayer
370
18
48
1
60
0
100
AcDbLine
10
-117
20
-23.5
30
0
11
-11.173966
21
-23.5
31
0
39
0
210
0
220
0
230
1
0
LINE
5
95
100
AcDbEntity
8
SK1
62
256
6
ByLayer
370
18
48
1
60
0
100
AcDbLine
10
-11.173966
20
-7.571005
30
0
11
-117
21
-7.571005
31
0
39
0
210
0
220
0
230
1
0
LINE
5
96
100
AcDbEntity
8
SK1
62
256
6
ByLayer
370
18
48
1
60
0
100
AcDbLine
10
-117
20
7.571005
30
0
11
-11.173966
21
7.571005
31
0
39
0
210
0
220
0
230
1
0
LINE
5
97
100
AcDbEntity
8
SK1
62
256
6
ByLayer
370
18
48
1
60
0
100
AcDbLine
10
-11.173966
20
23.5
30
0
11
-117
21
23.5
31
0
39
0
210
0
220
0
230
1
0
LINE
5
98
100
AcDbEntity
8
SK1
62
256
6
ByLayer
370
18
48
1
60
0
100
AcDbLine
10
-120
20
-21.98925
30
0
11
-120
21
21.98925
31
0
39
0
210
0
220
0
230
1
0
LINE
5
99
100
AcDbEntity
8
SK1
62
256
6
ByLayer
370
18
48
1
60
0
100
AcDbLine
10
-118.48925
20
-23.5
30
0
11
-117
21
-23.5
31
0
39
0
210
0
220
0
230
1
0
LINE
5
9A
100
AcDbEntity
8
SK1
62
256
6
ByLayer
370
18
48
1
60
0
100
AcDbLine
10
-117
20
23.5
30
0
11
-118.48925
21
23.5
31
0
39
0
210
0
220
0
230
1
0
LINE
5
9B
100
AcDbEntity
8
SK1
62
256
6
ByLayer
370
18
48
1
60
0
100
AcDbLine
10
-117
20
23.5
30
0
11
-117
21
7.571005
31
0
39
0
210
0
220
0
230
1
0
LINE
5
9C
100
AcDbEntity
8
SK1
62
256
6
ByLayer
370
18
48
1
60
0
100
AcDbLine
10
-117
20
-7.571005
30
0
11
-117
21
-23.5
31
0
39
0
210
0
220
0
230
1
0
LINE
5
9D
100
AcDbEntity
8
SK1
62
256
6
ByLayer
370
18
48
1
60
0
100
AcDbLine
10
-0.35
20
-24.735
30
0
11
-0.35
21
24.735
31
0
39
0
210
0
220
0
230
1
0
LINE
5
9E
100
AcDbEntity
8
1
62
256
6
ByLayer
370
18
48
1
60
0
100
AcDbLine
10
0.3
20
28.5
30
0
11
0.3
21
-28.5
31
0
39
0
210
0
220
0
230
1
0
LINE
5
9F
100
AcDbEntity
8
1
62
256
6
ByLayer
370
18
48
1
60
0
100
AcDbLine
10
0
20
28.2
30
0
11
0
21
-28.2
31
0
39
0
210
0
220
0
230
1
0
LINE
5
A0
100
AcDbEntity
8
SK1
62
256
6
ByLayer
370
18
48
1
60
0
100
AcDbLine
10
-2
20
24.98925
30
0
11
-2
21
-24.98925
31
0
39
0
210
0
220
0
230
1
0
LINE
5
A1
100
AcDbEntity
8
SK1
62
256
6
ByLayer
370
18
48
1
60
0
100
AcDbLine
10
-120
20
21.98925
30
0
11
-118.48925
21
23.5
31
0
39
0
210
0
220
0
230
1
0
LINE
5
A2
100
AcDbEntity
8
SK1
62
256
6
ByLayer
370
18
48
1
60
0
100
AcDbLine
10
-118.48925
20
-23.5
30
0
11
-120
21
-21.98925
31
0
39
0
210
0
220
0
230
1
0
LINE
5
A3
100
AcDbEntity
8
SK1
62
256
6
ByLayer
370
18
48
1
60
0
100
AcDbLine
10
-1.629353
20
-24.800396
30
0
11
-2
21
-24.98925
31
0
39
0
210
0
220
0
230
1
0
LINE
5
A4
100
AcDbEntity
8
SK1
62
256
6
ByLayer
370
18
48
1
60
0
100
AcDbLine
10
-2
20
24.98925
30
0
11
-1.629353
21
24.800396
31
0
39
0
210
0
220
0
230
1
0
LINE
5
A5
100
AcDbEntity
8
SK1
62
256
6
ByLayer
370
18
48
1
60
0
100
AcDbLine
10
-1.356959
20
24.735
30
0
11
-0.35
21
24.735
31
0
39
0
210
0
220
0
230
1
0
LINE
5
A6
100
AcDbEntity
8
SK1
62
256
6
ByLayer
370
18
48
1
60
0
100
AcDbLine
10
-0.35
20
-24.735
30
0
11
-1.356959
21
-24.735
31
0
39
0
210
0
220
0
230
1
0
LINE
5
A7
100
AcDbEntity
8
SK1
62
256
6
ByLayer
370
18
48
1
60
0
100
AcDbLine
10
-8.51075
20
24.98925
30
0
11
-2
21
24.98925
31
0
39
0
210
0
220
0
230
1
0
LINE
5
A8
100
AcDbEntity
8
SK1
62
256
6
ByLayer
370
18
48
1
60
0
100
AcDbLine
10
-2
20
-24.98925
30
0
11
-8.51075
21
-24.98925
31
0
39
0
210
0
220
0
230
1
0
LINE
5
A9
100
AcDbEntity
8
1
62
256
6
ByLayer
370
18
48
1
60
0
100
AcDbLine
10
49.355095
20
-28.5
30
0
11
0.3
21
-28.5
31
0
39
0
210
0
220
0
230
1
0
LINE
5
AA
100
AcDbEntity
8
1
62
256
6
ByLayer
370
18
48
1
60
0
100
AcDbLine
10
0.3
20
28.5
30
0
11
49.355095
21
28.5
31
0
39
0
210
0
220
0
230
1
0
LINE
5
AB
100
AcDbEntity
8
1
62
256
6
ByLayer
370
18
48
1
60
0
100
AcDbLine
10
0.3
20
28.5
30
0
11
0
21
28.2
31
0
39
0
210
0
220
0
230
1
0
LINE
5
AC
100
AcDbEntity
8
1
62
256
6
ByLayer
370
18
48
1
60
0
100
AcDbLine
10
0.3
20
-28.5
30
0
11
0
21
-28.2
31
0
39
0
210
0
220
0
230
1
0
LINE
5
AD
100
AcDbEntity
8
SK1
62
256
6
ByLayer
370
18
48
1
60
0
100
AcDbLine
10
-1.356959
20
24.735
30
0
11
-1.356959
21
-24.735
31
0
39
0
210
0
220
0
230
1
0
LINE
5
AE
100
AcDbEntity
8
SK1
62
256
6
ByLayer
370
18
48
1
60
0
100
AcDbLine
10
-1.629353
20
-24.800396
30
0
11
-1.629353
21
24.800396
31
0
39
0
210
0
220
0
230
1
0
MTEXT
5
CA
100
AcDbEntity
8
SK6
62
256
6
ByLayer
370
18
48
1
60
0
100
AcDbMText
10
-62.222992
20
-45.216202
30
0
210
0
220
0
230
1
1
\W0.7516;935-L50-EF20-070
40
3.5
41
0
44
1.084337
50
0
71
7
72
5
7
iso_b_vert
0
DIMENSION
5
DD
100
AcDbEntity
8
SK2
62
256
6
ByLayer
370
13
48
1
60
0
100
AcDbDimension
2
DimnDraft3D1
10
70
20
-48.262467
30
0
11
12.903947
21
-48.262467
31
0
70
32
71
5
72
1
41
1
210
0
220
0
230
1
3
Standard
100
AcDbAlignedDimension
13
-10
23
-11.58925
33
0
14
70
24
-22.695787
34
0
50
0
100
AcDbRotatedDimension
1001
ACAD
1000
DSTYLE
1002
{
1070
   279
1070
     0
1070
   172
1070
     1
1070
   173
1070
     1
1070
   340
1005
CB
1070
   271
1070
     2
1070
   272
1070
     2
1070
    77
1070
     1
1070
    73
1070
     0
1070
   171
1070
     3
1070
   274
1070
     4
1070
   177
1070
     7
1070
   176
1070
     7
1070
   178
1070
     7
1070
    78
1070
     8
1070
    48
1040
-0.005
1070
    41
1041
3.175
1070
   147
1041
1.5
1070
    42
1041
1.5875
1070
    44
1041
2.0
1070
   140
1041
3.0
1070
   343
1005
0
1070
   344
1005
0
1002
}
0
DIMENSION
5
EC
100
AcDbEntity
8
2
62
256
6
ByLayer
370
13
48
1
60
0
100
AcDbDimension
2
DimnDraft3D2
10
70
20
52.986781
30
0
11
-2.375475
21
52.986781
31
0
70
32
71
5
72
1
41
1
210
0
220
0
230
1
3
Standard
100
AcDbAlignedDimension
13
0
23
29.7875
33
0
14
70
24
22.695787
34
0
50
0
100
AcDbRotatedDimension
1001
ACAD
1000
DSTYLE
1002
{
1070
   279
1070
     0
1070
   172
1070
     1
1070
   173
1070
     1
1070
   340
1005
CB
1070
   271
1070
     2
1070
   272
1070
     2
1070
    77
1070
     1
1070
    73
1070
     0
1070
   171
1070
     3
1070
   274
1070
     4
1070
   177
1070
     7
1070
   176
1070
     7
1070
   178
1070
     7
1070
    78
1070
     8
1070
    48
1040
-0.005
1070
    41
1041
3.175
1070
   147
1041
1.5
1070
    42
1041
1.5875
1070
    44
1041
2.0
1070
   140
1041
3.0
1070
   343
1005
0
1070
   344
1005
0
1002
}
0
DIMENSION
5
FB
100
AcDbEntity
8
SK2
62
256
6
ByLayer
370
13
48
1
60
0
100
AcDbDimension
2
DimnDraft3D3
10
-133.141792
20
-24.98925
30
0
11
-133.391792
21
1.957895
31
0
70
33
71
5
72
1
41
1
210
0
220
0
230
1
3
Standard
100
AcDbAlignedDimension
13
-10.09825
23
24.98925
33
0
14
-10.09825
24
-24.98925
34
0
1001
ACAD
1000
DSTYLE
1002
{
1070
   279
1070
     0
1070
    74
1070
     0
1070
   173
1070
     1
1070
   340
1005
CB
1070
   271
1070
     1
1070
   272
1070
     2
1070
    77
1070
     1
1070
    73
1070
     0
1070
   171
1070
     3
1070
   274
1070
     4
1070
   177
1070
     7
1070
   176
1070
     7
1070
   178
1070
     7
1070
    78
1070
     8
1070
    48
1040
-0.005
1070
    41
1041
3.175
1070
   147
1041
1.5
1070
    42
1041
1.5875
1070
    44
1041
2.0
1070
   140
1041
3.0
1070
   343
1005
FC
1070
   344
1005
FC
1002
}
0
DIMENSION
5
111
100
AcDbEntity
8
SK2
62
256
6
ByLayer
370
13
48
1
60
0
100
AcDbDimension
2
DimnDraft3D4
10
90.522275
20
-10.00175
30
0
11
86.272275
21
1.957895
31
0
70
33
71
5
72
1
41
1
210
0
220
0
230
1
3
Standard
100
AcDbAlignedDimension
13
71.5875
23
10.00175
33
0
14
71.5875
24
-10.00175
34
0
1001
ACAD
1000
DSTYLE
1002
{
1070
   279
1070
     0
1070
    74
1070
     0
1070
   173
1070
     1
1070
   340
1005
CB
1070
   271
1070
     2
1070
   272
1070
     2
1070
    77
1070
     1
1070
    73
1070
     0
1070
   171
1070
     3
1070
   274
1070
     4
1070
   177
1070
     7
1070
   176
1070
     7
1070
   178
1070
     7
1070
    78
1070
     8
1070
    48
1040
-0.005
1070
    41
1041
3.175
1070
   147
1041
1.5
1070
    42
1041
1.5875
1070
    44
1041
2.0
1070
   140
1041
3.0
1070
   343
1005
FC
1070
   344
1005
FC
1002
}
0
DIMENSION
5
120
100
AcDbEntity
8
SK2
62
256
6
ByLayer
370
13
48
1
60
0
100
AcDbDimension
2
DimnDraft3D5
10
116.51534
20
-28.5
30
0
11
112.26534
21
1.957895
31
0
70
33
71
5
72
1
41
1
210
0
220
0
230
1
3
Standard
100
AcDbAlignedDimension
13
50.942595
23
28.5
33
0
14
50.942595
24
-28.5
34
0
1001
ACAD
1000
DSTYLE
1002
{
1070
   279
1070
     0
1070
    74
1070
     0
1070
   173
1070
     1
1070
   340
1005
CB
1070
   271
1070
     2
1070
   272
1070
     2
1070
    77
1070
     1
1070
    73
1070
     0
1070
   171
1070
     3
1070
   274
1070
     4
1070
   177
1070
     7
1070
   176
1070
     7
1070
   178
1070
     7
1070
    78
1070
     8
1070
    48
1040
-0.005
1070
    41
1041
3.175
1070
   147
1041
1.5
1070
    42
1041
1.5875
1070
    44
1041
2.0
1070
   140
1041
3.0
1070
   343
1005
0
1070
   344
1005
0
1002
}
0
DIMENSION
5
12E
100
AcDbEntity
8
SK2
62
256
6
ByLayer
370
13
48
1
60
0
100
AcDbDimension
2
DimnDraft3D6
10
0
20
52.986781
30
0
11
-62.538158
21
52.986781
31
0
70
32
71
5
72
1
41
1
210
0
220
0
230
1
3
Standard
100
AcDbAlignedDimension
13
-120
23
23.57675
33
0
14
0
24
29.7875
34
0
50
0
100
AcDbRotatedDimension
1001
ACAD
1000
DSTYLE
1002
{
1070
   279
1070
     0
1070
   172
1070
     1
1070
   173
1070
     1
1070
   340
1005
CB
1070
   271
1070
     2
1070
   272
1070
     2
1070
    77
1070
     1
1070
    73
1070
     0
1070
   171
1070
     3
1070
   274
1070
     4
1070
   177
1070
     7
1070
   176
1070
     7
1070
   178
1070
     7
1070
    78
1070
     8
1070
    48
1040
-0.005
1070
    41
1041
3.175
1070
   147
1041
1.5
1070
    42
1041
1.5875
1070
    44
1041
2.0
1070
   140
1041
3.0
1070
   343
1005
0
1070
   344
1005
0
1002
}
0
DIMENSION
5
13D
100
AcDbEntity
8
SK2
62
256
6
ByLayer
370
13
48
1
60
0
100
AcDbDimension
2
DimnDraft3D7
10
103.518808
20
-21.948536
30
0
11
99.268808
21
0.071053
31
0
70
33
71
5
72
1
41
1
210
0
220
0
230
1
3
Standard
100
AcDbAlignedDimension
13
71.5875
23
21.948536
33
0
14
71.5875
24
-21.948536
34
0
1001
ACAD
1000
DSTYLE
1002
{
1070
   279
1070
     0
1070
    74
1070
     0
1070
   173
1070
     1
1070
   340
1005
CB
1070
   271
1070
     2
1070
   272
1070
     2
1070
    77
1070
     1
1070
    73
1070
     0
1070
   171
1070
     3
1070
   274
1070
     4
1070
   177
1070
     7
1070
   176
1070
     7
1070
   178
1070
     7
1070
    78
1070
     8
1070
    48
1040
-0.005
1070
    41
1041
3.175
1070
   147
1041
1.5
1070
    42
1041
1.5875
1070
    44
1041
2.0
1070
   140
1041
3.0
1070
   343
1005
0
1070
   344
1005
0
1002
}
0
DIMENSION
5
14B
100
AcDbEntity
8
SK2
62
256
6
ByLayer
370
13
48
1
60
0
100
AcDbDimension
2
DimnDraft3D8
10
70
20
-41.01704
30
0
11
59.582895
21
-41.01704
31
0
70
32
71
5
72
1
41
1
210
0
220
0
230
1
3
Standard
100
AcDbAlignedDimension
13
52
23
-30.0875
33
0
14
70
24
-23.536036
34
0
50
0
100
AcDbRotatedDimension
1001
ACAD
1000
DSTYLE
1002
{
1070
   279
1070
     0
1070
   172
1070
     1
1070
   173
1070
     1
1070
   340
1005
CB
1070
   271
1070
     2
1070
   272
1070
     2
1070
    77
1070
     1
1070
    73
1070
     0
1070
   171
1070
     3
1070
   274
1070
     4
1070
   177
1070
     7
1070
   176
1070
     7
1070
   178
1070
     7
1070
    78
1070
     8
1070
    48
1040
-0.005
1070
    41
1041
3.175
1070
   147
1041
1.5
1070
    42
1041
1.5875
1070
    44
1041
2.0
1070
   140
1041
3.0
1070
   343
1005
0
1070
   344
1005
0
1002
}
0
ENDSEC
0
SECTION
2
OBJECTS
0
DICTIONARY
5
1b9
330
0
100
AcDbDictionary
280
0
281
1
3
ACAD_GROUP
350
1ba
3
ACAD_GROUP
350
1bb
3
ACAD_MLINESTYLE
350
1bc
0
DICTIONARY
5
1ba
330
0
100
AcDbDictionary
280
0
281
1
0
DICTIONARY
5
1bb
330
0
100
AcDbDictionary
280
0
281
1
3
<201201799MOD000_00>
350
154
0
DICTIONARY
5
1bc
330
0
100
AcDbDictionary
280
0
281
1
3
Standard
350
18
0
GROUP
5
154
330
1bb
100
AcDbGroup
300

70
0
71
1
340
6C
340
6E
340
70
340
72
340
73
340
74
340
75
340
76
340
77
340
78
340
79
340
7A
340
7B
340
7C
340
7D
340
7E
340
7F
340
80
340
81
340
82
340
84
340
86
340
87
340
88
340
89
340
8A
340
8B
340
8C
340
8D
340
8E
340
8F
340
91
340
92
340
93
340
95
340
96
340
97
340
98
340
99
340
9A
340
9B
340
9C
340
9D
340
9E
340
9F
340
A0
340
A1
340
A2
340
A3
340
A4
340
A5
340
A6
340
A7
340
A8
340
A9
340
AA
340
AB
340
AC
340
AD
340
AE
340
AF
340
B0
340
B1
340
B2
340
B3
340
B4
340
B5
340
B6
340
B7
340
B8
340
B9
340
BA
340
BB
340
BC
340
BD
340
BE
340
BF
340
C0
340
C1
340
C2
340
C3
340
C4
340
C5
340
C6
340
C7
340
C8
340
C9
340
CA
340
DD
340
EC
340
FB
340
111
340
120
340
12E
340
13D
340
14B
0
MLINESTYLE
5
18
330
1bc
100
AcDbMlineStyle
2
Standard
70
0
3

62
256
51
90
52
90
71
2
49
-0.5
62
256
6
ByLayer
49
0.5
62
256
6
ByLayer
0
RASTERVARIABLES
5
1a5
330

100
AcDbRasterVariables
90
0
70
1
71
1
72
1
0
ENDSEC
0
EOF
