0
SECTION
2
HEADER
9
$ACADVER
1
AC1015
9
$DWGCODEPAGE
3
ANSI_1252
9
$HANDSEED
5
1dd
9
$ANGBASE
50
0
9
$ANGDIR
70
0
9
$ATTMODE
70
1
9
$AUNITS
70
0
9
$AUPREC
70
0
9
$CECOLOR
62
256
9
$CELTSCALE
40
1
9
$CELTYPE
6
ByLayer
9
$CELWEIGHT
370
18
9
$CLAYER
8
0
9
$CMLJUST
70
0
9
$CMLSCALE
40
1
9
$CMLSTYLE
2
Standard
9
$DIMSTYLE
2
Standard
9
$TEXTSIZE
40
0.2
9
$TEXTSTYLE
7
Standard
9
$LUNITS
70
2
9
$LUPREC
70
4
9
$EXTNAMES
290
1
9
$INSUNITS
70
4
9
$LTSCALE
40
1
9
$LWDISPLAY
290
1
9
$PDMODE
70
0
9
$PDSIZE
40
0
9
$PLINEGEN
70
0
0
ENDSEC
0
SECTION
2
CLASSES
0
CLASS
1
RASTERVARIABLES
2
AcDbRasterVariables
3
ISM
90
0
280
0
281
0
0
ENDSEC
0
SECTION
2
TABLES
0
TABLE
2
VPORT
5
1d3
100
AcDbSymbolTable
0
VPORT
5
1
100
AcDbSymbolTableRecord
100
AcDbViewportTableRecord
2
*Active
70
0
10
0
20
0
11
1
21
1
12
-1
22
1
13
0
23
0
14
0.5
24
0.5
15
10
25
10
16
0
26
0
36
1
17
0
27
0
37
0
0
ENDTAB
0
TABLE
2
LTYPE
5
1d4
100
AcDbSymbolTable
0
LTYPE
5
14
100
AcDbSymbolTableRecord
100
AcDbLinetypeTableRecord
70
0
2
ByBlock
3

72
65
73
0
40
0
0
LTYPE
5
15
100
AcDbSymbolTableRecord
100
AcDbLinetypeTableRecord
70
0
2
ByLayer
3

72
65
73
0
40
0
0
LTYPE
5
16
100
AcDbSymbolTableRecord
100
AcDbLinetypeTableRecord
70
0
2
CONTINUOUS
3
Solid line
72
65
73
0
40
0
0
LTYPE
5
6A
100
AcDbSymbolTableRecord
100
AcDbLinetypeTableRecord
70
0
2
CENTER
3
____ _ ____ _ ____ _ ____
72
65
73
4
40
47.5
49
22
74
0
49
-8.5
74
0
49
8.5
74
0
49
-8.5
74
0
0
LTYPE
5
6B
100
AcDbSymbolTableRecord
100
AcDbLinetypeTableRecord
70
0
2
DASHED
3
__ __ __ __ __ __ __ __ __
72
65
73
2
40
25.72
49
12.86
74
0
49
-12.86
74
0
0
ENDTAB
0
TABLE
2
LAYER
5
1d5
100
AcDbSymbolTable
0
LAYER
5
10
100
AcDbSymbolTableRecord
100
AcDbLayerTableRecord
2
0
70
0
62
7
6
CONTINUOUS
290
1
370
-3
390
0
0
LAYER
5
6D
100
AcDbSymbolTableRecord
100
AcDbLayerTableRecord
2
80
70
0
62
-6
6
CONTINUOUS
290
1
370
-3
390
0
0
LAYER
5
6F
100
AcDbSymbolTableRecord
100
AcDbLayerTableRecord
2
81
70
0
62
-3
6
CONTINUOUS
290
1
370
-3
390
0
0
LAYER
5
76
100
AcDbSymbolTableRecord
100
AcDbLayerTableRecord
2
1
70
0
62
4
6
CONTINUOUS
290
1
370
-3
390
0
0
LAYER
5
87
100
AcDbSymbolTableRecord
100
AcDbLayerTableRecord
2
4
70
0
62
-2
6
CENTER
290
1
370
-3
390
0
0
LAYER
5
147
100
AcDbSymbolTableRecord
100
AcDbLayerTableRecord
2
2
70
0
62
7
6
CONTINUOUS
290
1
370
-3
390
0
0
LAYER
5
1bc
100
AcDbSymbolTableRecord
100
AcDbLayerTableRecord
2
SK3
70
0
62
1
6
DASHED
290
1
370
-3
390
0
0
LAYER
5
1bd
100
AcDbSymbolTableRecord
100
AcDbLayerTableRecord
2
SK4
70
0
62
2
6
CENTER
290
1
370
-3
390
0
0
LAYER
5
1be
100
AcDbSymbolTableRecord
100
AcDbLayerTableRecord
2
SK1
70
0
62
4
6
CONTINUOUS
290
1
370
-3
390
0
0
LAYER
5
1bf
100
AcDbSymbolTableRecord
100
AcDbLayerTableRecord
2
SK6
70
0
62
5
6
CONTINUOUS
290
1
370
-3
390
0
0
LAYER
5
1c0
100
AcDbSymbolTableRecord
100
AcDbLayerTableRecord
2
SK2
70
0
62
7
6
CONTINUOUS
290
1
370
-3
390
0
0
ENDTAB
0
TABLE
2
STYLE
5
1d6
100
AcDbSymbolTable
0
STYLE
5
11
100
AcDbSymbolTableRecord
100
AcDbTextStyleTableRecord
2
Standard
3
txt
70
0
71
0
40
0
41
1
42
0
50
0
0
STYLE
5
D3
100
AcDbSymbolTableRecord
100
AcDbTextStyleTableRecord
2
iso_b_vert
3
simplex.shx
70
0
71
0
40
0
41
1
42
0
50
0
0
STYLE
5
D4
100
AcDbSymbolTableRecord
100
AcDbTextStyleTableRecord
2
DWGDirectTextStyle
3
simplex
70
0
71
0
40
0
41
1
42
0
50
0
0
ENDTAB
0
TABLE
2
DIMSTYLE
5
1d7
100
AcDbSymbolTable
100
AcDbDimStyleTable
0
DIMSTYLE
105
27
100
AcDbSymbolTableRecord
100
AcDbDimStyleTableRecord
2
Standard
70
0
3
<>
41
0.18
42
0.0625
44
0.18
140
0.18
147
0.09
73
0
74
0
77
1
271
2
275
0
278
52
280
0
340
11
0
ENDTAB
0
TABLE
2
VIEW
5
1d8
100
AcDbSymbolTable
0
ENDTAB
0
TABLE
2
UCS
5
1d9
100
AcDbSymbolTable
0
ENDTAB
0
TABLE
2
APPID
5
1da
100
AcDbSymbolTable
0
APPID
5
12
100
AcDbSymbolTableRecord
100
AcDbRegAppTableRecord
2
ACAD
70
0
0
ENDTAB
0
TABLE
2
BLOCK_RECORD
5
1db
100
AcDbSymbolTable
0
BLOCK_RECORD
5
1F
100
AcDbSymbolTableRecord
100
AcDbBlockTableRecord
2
*Model_Space
340
0
70
0
0
BLOCK_RECORD
5
1B
100
AcDbSymbolTableRecord
100
AcDbBlockTableRecord
2
*Paper_Space
340
0
70
0
0
BLOCK_RECORD
5
23
100
AcDbSymbolTableRecord
100
AcDbBlockTableRecord
2
*Paper_Space0
340
0
70
0
0
BLOCK_RECORD
5
D6
100
AcDbSymbolTableRecord
100
AcDbBlockTableRecord
2
DimnDraft3D1
340
0
70
0
0
BLOCK_RECORD
5
E6
100
AcDbSymbolTableRecord
100
AcDbBlockTableRecord
2
DimnDraft3D2
340
0
70
0
0
BLOCK_RECORD
5
F5
100
AcDbSymbolTableRecord
100
AcDbBlockTableRecord
2
_CLOSED
340
0
70
0
0
BLOCK_RECORD
5
FC
100
AcDbSymbolTableRecord
100
AcDbBlockTableRecord
2
DimnDraft3D3
340
0
70
0
0
BLOCK_RECORD
5
10B
100
AcDbSymbolTableRecord
100
AcDbBlockTableRecord
2
DimnDraft3D4
340
0
70
0
0
BLOCK_RECORD
5
11A
100
AcDbSymbolTableRecord
100
AcDbBlockTableRecord
2
DimnDraft3D5
340
0
70
0
0
BLOCK_RECORD
5
128
100
AcDbSymbolTableRecord
100
AcDbBlockTableRecord
2
DimnDraft3D6
340
0
70
0
0
BLOCK_RECORD
5
137
100
AcDbSymbolTableRecord
100
AcDbBlockTableRecord
2
DimnDraft3D7
340
0
70
0
0
BLOCK_RECORD
5
145
100
AcDbSymbolTableRecord
100
AcDbBlockTableRecord
2
DimnDraft3D8
340
0
70
0
0
BLOCK_RECORD
5
154
100
AcDbSymbolTableRecord
100
AcDbBlockTableRecord
2
DimnDraft3D9
340
0
70
0
0
ENDTAB
0
ENDSEC
0
SECTION
2
BLOCKS
0
BLOCK
5
20
100
AcDbEntity
8
0
100
AcDbBlockBegin
2
*Model_Space
70
0
10
0
20
0
30
0
3
*Model_Space
0
ENDBLK
5
21
100
AcDbEntity
8
0
100
AcDbBlockEnd
0
BLOCK
5
1C
100
AcDbEntity
8
0
100
AcDbBlockBegin
2
*Paper_Space
70
0
10
0
20
0
30
0
3
*Paper_Space
0
ENDBLK
5
1D
100
AcDbEntity
8
0
100
AcDbBlockEnd
0
BLOCK
5
24
100
AcDbEntity
8
0
100
AcDbBlockBegin
2
*Paper_Space0
70
0
10
0
20
0
30
0
3
*Paper_Space0
0
ENDBLK
5
25
100
AcDbEntity
8
0
100
AcDbBlockEnd
0
BLOCK
5
E3
100
AcDbEntity
8
0
100
AcDbBlockBegin
2
DimnDraft3D1
70
0
10
0
20
0
30
0
3
DimnDraft3D1
0
MTEXT
5
D7
100
AcDbEntity
8
SK2
62
256
6
ByLayer
370
18
48
1
60
0
100
AcDbMText
10
22.907895
20
-55.355699
30
0
210
0
220
0
230
1
1
\W0.7376;min. 90 - max.
40
3
41
0
44
1.084337
50
0
71
7
72
5
7
iso_b_vert
0
MTEXT
5
D9
100
AcDbEntity
8
SK2
62
256
6
ByLayer
370
18
48
1
60
0
100
AcDbMText
10
53.515789
20
-55.355699
30
0
210
0
220
0
230
1
1
\W0.6433;100
40
3
41
0
44
1.084337
50
0
71
7
72
5
7
iso_b_vert
0
LINE
5
DA
100
AcDbEntity
8
SK2
62
256
6
ByLayer
370
13
48
1
60
0
100
AcDbLine
10
-10
20
-14.08925
30
0
11
-10
21
-58.105699
31
0
39
0
210
0
220
0
230
1
0
LINE
5
DB
100
AcDbEntity
8
SK2
62
256
6
ByLayer
370
13
48
1
60
0
100
AcDbLine
10
90
20
-24.967846
30
0
11
90
21
-58.105699
31
0
39
0
210
0
220
0
230
1
0
LINE
5
DC
100
AcDbEntity
8
SK2
62
256
6
ByLayer
370
13
48
1
60
0
100
AcDbLine
10
-10
20
-56.105699
30
0
11
90
21
-56.105699
31
0
39
0
210
0
220
0
230
1
0
LINE
5
DD
100
AcDbEntity
8
SK2
62
256
6
ByLayer
370
13
48
1
60
0
100
AcDbLine
10
-10
20
-56.105699
30
0
11
-6.825002
21
-55.687702
31
0
39
0
210
0
220
0
230
1
0
LINE
5
DE
100
AcDbEntity
8
SK2
62
256
6
ByLayer
370
13
48
1
60
0
100
AcDbLine
10
-10
20
-56.105699
30
0
11
-6.824998
21
-56.523696
31
0
39
0
210
0
220
0
230
1
0
LINE
5
DF
100
AcDbEntity
8
SK2
62
256
6
ByLayer
370
13
48
1
60
0
100
AcDbLine
10
-6.825002
20
-55.687702
30
0
11
-6.824998
21
-56.523696
31
0
39
0
210
0
220
0
230
1
0
LINE
5
E0
100
AcDbEntity
8
SK2
62
256
6
ByLayer
370
13
48
1
60
0
100
AcDbLine
10
90
20
-56.105699
30
0
11
86.825002
21
-56.523696
31
0
39
0
210
0
220
0
230
1
0
LINE
5
E1
100
AcDbEntity
8
SK2
62
256
6
ByLayer
370
13
48
1
60
0
100
AcDbLine
10
90
20
-56.105699
30
0
11
86.824998
21
-55.687702
31
0
39
0
210
0
220
0
230
1
0
LINE
5
E2
100
AcDbEntity
8
SK2
62
256
6
ByLayer
370
13
48
1
60
0
100
AcDbLine
10
86.825002
20
-56.523696
30
0
11
86.824998
21
-55.687702
31
0
39
0
210
0
220
0
230
1
0
ENDBLK
5
E4
100
AcDbEntity
8
0
100
AcDbBlockEnd
0
BLOCK
5
F2
100
AcDbEntity
8
0
100
AcDbBlockBegin
2
DimnDraft3D2
70
0
10
0
20
0
30
0
3
DimnDraft3D2
0
MTEXT
5
E7
100
AcDbEntity
8
SK2
62
256
6
ByLayer
370
18
48
1
60
0
100
AcDbMText
10
112.237763
20
2.707895
30
0
210
0
220
0
230
1
1
\W0.6337;25
40
3
41
0
44
1.084337
50
90
71
7
72
5
7
iso_b_vert
0
MTEXT
5
E8
100
AcDbEntity
8
SK2
62
256
6
ByLayer
370
18
48
1
60
0
100
AcDbMText
10
112.237763
20
-3.268668
30
0
210
0
220
0
230
1
1
%%c
40
3
41
0
44
1.084337
50
90
71
7
72
5
7
iso_b_vert
0
LINE
5
E9
100
AcDbEntity
8
SK2
62
256
6
ByLayer
370
13
48
1
60
0
100
AcDbLine
10
91.5875
20
12.50175
30
0
11
115.737763
21
12.50175
31
0
39
0
210
0
220
0
230
1
0
LINE
5
EA
100
AcDbEntity
8
SK2
62
256
6
ByLayer
370
13
48
1
60
0
100
AcDbLine
10
91.5875
20
-12.50175
30
0
11
115.737763
21
-12.50175
31
0
39
0
210
0
220
0
230
1
0
LINE
5
EB
100
AcDbEntity
8
SK2
62
256
6
ByLayer
370
13
48
1
60
0
100
AcDbLine
10
113.737763
20
12.50175
30
0
11
113.737763
21
-12.50175
31
0
39
0
210
0
220
0
230
1
0
LINE
5
EC
100
AcDbEntity
8
SK2
62
256
6
ByLayer
370
13
48
1
60
0
100
AcDbLine
10
113.737763
20
12.50175
30
0
11
114.15576
21
9.326752
31
0
39
0
210
0
220
0
230
1
0
LINE
5
ED
100
AcDbEntity
8
SK2
62
256
6
ByLayer
370
13
48
1
60
0
100
AcDbLine
10
113.737763
20
12.50175
30
0
11
113.319767
21
9.326748
31
0
39
0
210
0
220
0
230
1
0
LINE
5
EE
100
AcDbEntity
8
SK2
62
256
6
ByLayer
370
13
48
1
60
0
100
AcDbLine
10
114.15576
20
9.326752
30
0
11
113.319767
21
9.326748
31
0
39
0
210
0
220
0
230
1
0
LINE
5
EF
100
AcDbEntity
8
SK2
62
256
6
ByLayer
370
13
48
1
60
0
100
AcDbLine
10
113.737763
20
-12.50175
30
0
11
113.319767
21
-9.326752
31
0
39
0
210
0
220
0
230
1
0
LINE
5
F0
100
AcDbEntity
8
SK2
62
256
6
ByLayer
370
13
48
1
60
0
100
AcDbLine
10
113.737763
20
-12.50175
30
0
11
114.15576
21
-9.326748
31
0
39
0
210
0
220
0
230
1
0
LINE
5
F1
100
AcDbEntity
8
SK2
62
256
6
ByLayer
370
13
48
1
60
0
100
AcDbLine
10
113.319767
20
-9.326752
30
0
11
114.15576
21
-9.326748
31
0
39
0
210
0
220
0
230
1
0
ENDBLK
5
F3
100
AcDbEntity
8
0
100
AcDbBlockEnd
0
BLOCK
5
F6
100
AcDbEntity
8
0
100
AcDbBlockBegin
2
_CLOSED
70
0
10
0
20
0
30
0
3
_CLOSED
0
LINE
5
F8
100
AcDbEntity
8
0
62
256
6
ByLayer
370
-2
48
1
60
0
100
AcDbLine
10
-1
20
0.166667
30
0
11
0
21
0
31
0
39
0
210
0
220
0
230
1
0
LINE
5
F9
100
AcDbEntity
8
0
62
256
6
ByLayer
370
-2
48
1
60
0
100
AcDbLine
10
0
20
0
30
0
11
-1
21
-0.166667
31
0
39
0
210
0
220
0
230
1
0
LINE
5
FA
100
AcDbEntity
8
0
62
256
6
ByLayer
370
-2
48
1
60
0
100
AcDbLine
10
-1
20
0.166667
30
0
11
-1
21
-0.166667
31
0
39
0
210
0
220
0
230
1
0
LINE
5
FB
100
AcDbEntity
8
0
62
256
6
ByLayer
370
-2
48
1
60
0
100
AcDbLine
10
0
20
0
30
0
11
-1
21
0
31
0
39
0
210
0
220
0
230
1
0
ENDBLK
5
F7
100
AcDbEntity
8
0
100
AcDbBlockEnd
0
BLOCK
5
108
100
AcDbEntity
8
0
100
AcDbBlockBegin
2
DimnDraft3D3
70
0
10
0
20
0
30
0
3
DimnDraft3D3
0
MTEXT
5
FD
100
AcDbEntity
8
SK2
62
256
6
ByLayer
370
18
48
1
60
0
100
AcDbMText
10
140.524649
20
2.707895
30
0
210
0
220
0
230
1
1
\W0.6337;63
40
3
41
0
44
1.084337
50
90
71
7
72
5
7
iso_b_vert
0
MTEXT
5
FE
100
AcDbEntity
8
SK2
62
256
6
ByLayer
370
18
48
1
60
0
100
AcDbMText
10
140.524649
20
-3.268668
30
0
210
0
220
0
230
1
1
%%c
40
3
41
0
44
1.084337
50
90
71
7
72
5
7
iso_b_vert
0
LINE
5
FF
100
AcDbEntity
8
SK2
62
256
6
ByLayer
370
13
48
1
60
0
100
AcDbLine
10
68.06096
20
31.5
30
0
11
144.024649
21
31.5
31
0
39
0
210
0
220
0
230
1
0
LINE
5
100
100
AcDbEntity
8
SK2
62
256
6
ByLayer
370
13
48
1
60
0
100
AcDbLine
10
68.06096
20
-31.5
30
0
11
144.024649
21
-31.5
31
0
39
0
210
0
220
0
230
1
0
LINE
5
101
100
AcDbEntity
8
SK2
62
256
6
ByLayer
370
13
48
1
60
0
100
AcDbLine
10
142.024649
20
31.5
30
0
11
142.024649
21
-31.5
31
0
39
0
210
0
220
0
230
1
0
LINE
5
102
100
AcDbEntity
8
SK2
62
256
6
ByLayer
370
13
48
1
60
0
100
AcDbLine
10
142.024649
20
31.5
30
0
11
142.442645
21
28.325002
31
0
39
0
210
0
220
0
230
1
0
LINE
5
103
100
AcDbEntity
8
SK2
62
256
6
ByLayer
370
13
48
1
60
0
100
AcDbLine
10
142.024649
20
31.5
30
0
11
141.606652
21
28.324998
31
0
39
0
210
0
220
0
230
1
0
LINE
5
104
100
AcDbEntity
8
SK2
62
256
6
ByLayer
370
13
48
1
60
0
100
AcDbLine
10
142.442645
20
28.325002
30
0
11
141.606652
21
28.324998
31
0
39
0
210
0
220
0
230
1
0
LINE
5
105
100
AcDbEntity
8
SK2
62
256
6
ByLayer
370
13
48
1
60
0
100
AcDbLine
10
142.024649
20
-31.5
30
0
11
141.606652
21
-28.325002
31
0
39
0
210
0
220
0
230
1
0
LINE
5
106
100
AcDbEntity
8
SK2
62
256
6
ByLayer
370
13
48
1
60
0
100
AcDbLine
10
142.024649
20
-31.5
30
0
11
142.442645
21
-28.324998
31
0
39
0
210
0
220
0
230
1
0
LINE
5
107
100
AcDbEntity
8
SK2
62
256
6
ByLayer
370
13
48
1
60
0
100
AcDbLine
10
141.606652
20
-28.325002
30
0
11
142.442645
21
-28.324998
31
0
39
0
210
0
220
0
230
1
0
ENDBLK
5
109
100
AcDbEntity
8
0
100
AcDbBlockEnd
0
BLOCK
5
117
100
AcDbEntity
8
0
100
AcDbBlockBegin
2
DimnDraft3D4
70
0
10
0
20
0
30
0
3
DimnDraft3D4
0
MTEXT
5
10C
100
AcDbEntity
8
SK2
62
256
6
ByLayer
370
18
48
1
60
0
100
AcDbMText
10
127.448636
20
0.663158
30
0
210
0
220
0
230
1
1
\W0.7772;48.4
40
3
41
0
44
1.084337
50
90
71
7
72
5
7
iso_b_vert
0
MTEXT
5
10D
100
AcDbEntity
8
SK2
62
256
6
ByLayer
370
18
48
1
60
0
100
AcDbMText
10
127.448636
20
-5.313405
30
0
210
0
220
0
230
1
1
%%c
40
3
41
0
44
1.084337
50
90
71
7
72
5
7
iso_b_vert
0
LINE
5
10E
100
AcDbEntity
8
SK2
62
256
6
ByLayer
370
13
48
1
60
0
100
AcDbLine
10
91.5875
20
24.220595
30
0
11
130.948636
21
24.220595
31
0
39
0
210
0
220
0
230
1
0
LINE
5
10F
100
AcDbEntity
8
SK2
62
256
6
ByLayer
370
13
48
1
60
0
100
AcDbLine
10
91.5875
20
-24.220595
30
0
11
130.948636
21
-24.220595
31
0
39
0
210
0
220
0
230
1
0
LINE
5
110
100
AcDbEntity
8
SK2
62
256
6
ByLayer
370
13
48
1
60
0
100
AcDbLine
10
128.948636
20
24.220595
30
0
11
128.948636
21
-24.220595
31
0
39
0
210
0
220
0
230
1
0
LINE
5
111
100
AcDbEntity
8
SK2
62
256
6
ByLayer
370
13
48
1
60
0
100
AcDbLine
10
128.948636
20
24.220595
30
0
11
129.366632
21
21.045597
31
0
39
0
210
0
220
0
230
1
0
LINE
5
112
100
AcDbEntity
8
SK2
62
256
6
ByLayer
370
13
48
1
60
0
100
AcDbLine
10
128.948636
20
24.220595
30
0
11
128.530639
21
21.045594
31
0
39
0
210
0
220
0
230
1
0
LINE
5
113
100
AcDbEntity
8
SK2
62
256
6
ByLayer
370
13
48
1
60
0
100
AcDbLine
10
129.366632
20
21.045597
30
0
11
128.530639
21
21.045594
31
0
39
0
210
0
220
0
230
1
0
LINE
5
114
100
AcDbEntity
8
SK2
62
256
6
ByLayer
370
13
48
1
60
0
100
AcDbLine
10
128.948636
20
-24.220595
30
0
11
128.530639
21
-21.045597
31
0
39
0
210
0
220
0
230
1
0
LINE
5
115
100
AcDbEntity
8
SK2
62
256
6
ByLayer
370
13
48
1
60
0
100
AcDbLine
10
128.948636
20
-24.220595
30
0
11
129.366632
21
-21.045594
31
0
39
0
210
0
220
0
230
1
0
LINE
5
116
100
AcDbEntity
8
SK2
62
256
6
ByLayer
370
13
48
1
60
0
100
AcDbLine
10
128.530639
20
-21.045597
30
0
11
129.366632
21
-21.045594
31
0
39
0
210
0
220
0
230
1
0
ENDBLK
5
118
100
AcDbEntity
8
0
100
AcDbBlockEnd
0
BLOCK
5
125
100
AcDbEntity
8
0
100
AcDbBlockBegin
2
DimnDraft3D5
70
0
10
0
20
0
30
0
3
DimnDraft3D5
0
MTEXT
5
11B
100
AcDbEntity
8
SK2
62
256
6
ByLayer
370
18
48
1
60
0
100
AcDbMText
10
78.957895
20
-46.125666
30
0
210
0
220
0
230
1
1
\W0.6337;20
40
3
41
0
44
1.084337
50
0
71
7
72
5
7
iso_b_vert
0
LINE
5
11C
100
AcDbEntity
8
SK2
62
256
6
ByLayer
370
13
48
1
60
0
100
AcDbLine
10
70
20
-33.0875
30
0
11
70
21
-48.875666
31
0
39
0
210
0
220
0
230
1
0
LINE
5
11D
100
AcDbEntity
8
SK2
62
256
6
ByLayer
370
13
48
1
60
0
100
AcDbLine
10
90
20
-24.967846
30
0
11
90
21
-48.875666
31
0
39
0
210
0
220
0
230
1
0
LINE
5
11E
100
AcDbEntity
8
SK2
62
256
6
ByLayer
370
13
48
1
60
0
100
AcDbLine
10
70
20
-46.875666
30
0
11
90
21
-46.875666
31
0
39
0
210
0
220
0
230
1
0
LINE
5
11F
100
AcDbEntity
8
SK2
62
256
6
ByLayer
370
13
48
1
60
0
100
AcDbLine
10
70
20
-46.875666
30
0
11
73.174998
21
-46.457669
31
0
39
0
210
0
220
0
230
1
0
LINE
5
120
100
AcDbEntity
8
SK2
62
256
6
ByLayer
370
13
48
1
60
0
100
AcDbLine
10
70
20
-46.875666
30
0
11
73.175002
21
-47.293663
31
0
39
0
210
0
220
0
230
1
0
LINE
5
121
100
AcDbEntity
8
SK2
62
256
6
ByLayer
370
13
48
1
60
0
100
AcDbLine
10
73.174998
20
-46.457669
30
0
11
73.175002
21
-47.293663
31
0
39
0
210
0
220
0
230
1
0
LINE
5
122
100
AcDbEntity
8
SK2
62
256
6
ByLayer
370
13
48
1
60
0
100
AcDbLine
10
90
20
-46.875666
30
0
11
86.825002
21
-47.293663
31
0
39
0
210
0
220
0
230
1
0
LINE
5
123
100
AcDbEntity
8
SK2
62
256
6
ByLayer
370
13
48
1
60
0
100
AcDbLine
10
90
20
-46.875666
30
0
11
86.824998
21
-46.457669
31
0
39
0
210
0
220
0
230
1
0
LINE
5
124
100
AcDbEntity
8
SK2
62
256
6
ByLayer
370
13
48
1
60
0
100
AcDbLine
10
86.825002
20
-47.293663
30
0
11
86.824998
21
-46.457669
31
0
39
0
210
0
220
0
230
1
0
ENDBLK
5
126
100
AcDbEntity
8
0
100
AcDbBlockEnd
0
BLOCK
5
134
100
AcDbEntity
8
0
100
AcDbBlockBegin
2
DimnDraft3D6
70
0
10
0
20
0
30
0
3
DimnDraft3D6
0
MTEXT
5
129
100
AcDbEntity
8
SK2
62
256
6
ByLayer
370
18
48
1
60
0
100
AcDbMText
10
-60.257043
20
2.707895
30
0
210
0
220
0
230
1
1
\W0.6337;80
40
3
41
0
44
1.084337
50
90
71
7
72
5
7
iso_b_vert
0
MTEXT
5
12A
100
AcDbEntity
8
SK2
62
256
6
ByLayer
370
18
48
1
60
0
100
AcDbMText
10
-60.257043
20
-3.268668
30
0
210
0
220
0
230
1
1
%%c
40
3
41
0
44
1.084337
50
90
71
7
72
5
7
iso_b_vert
0
LINE
5
12B
100
AcDbEntity
8
SK2
62
256
6
ByLayer
370
13
48
1
60
0
100
AcDbLine
10
-1.2875
20
40
30
0
11
-60.757043
21
40
31
0
39
0
210
0
220
0
230
1
0
LINE
5
12C
100
AcDbEntity
8
SK2
62
256
6
ByLayer
370
13
48
1
60
0
100
AcDbLine
10
-1.2875
20
-40
30
0
11
-60.757043
21
-40
31
0
39
0
210
0
220
0
230
1
0
LINE
5
12D
100
AcDbEntity
8
SK2
62
256
6
ByLayer
370
13
48
1
60
0
100
AcDbLine
10
-58.757043
20
40
30
0
11
-58.757043
21
-40
31
0
39
0
210
0
220
0
230
1
0
LINE
5
12E
100
AcDbEntity
8
SK2
62
256
6
ByLayer
370
13
48
1
60
0
100
AcDbLine
10
-58.757043
20
40
30
0
11
-58.339047
21
36.825002
31
0
39
0
210
0
220
0
230
1
0
LINE
5
12F
100
AcDbEntity
8
SK2
62
256
6
ByLayer
370
13
48
1
60
0
100
AcDbLine
10
-58.757043
20
40
30
0
11
-59.17504
21
36.824998
31
0
39
0
210
0
220
0
230
1
0
LINE
5
130
100
AcDbEntity
8
SK2
62
256
6
ByLayer
370
13
48
1
60
0
100
AcDbLine
10
-58.339047
20
36.825002
30
0
11
-59.17504
21
36.824998
31
0
39
0
210
0
220
0
230
1
0
LINE
5
131
100
AcDbEntity
8
SK2
62
256
6
ByLayer
370
13
48
1
60
0
100
AcDbLine
10
-58.757043
20
-40
30
0
11
-59.17504
21
-36.825002
31
0
39
0
210
0
220
0
230
1
0
LINE
5
132
100
AcDbEntity
8
SK2
62
256
6
ByLayer
370
13
48
1
60
0
100
AcDbLine
10
-58.757043
20
-40
30
0
11
-58.339047
21
-36.824998
31
0
39
0
210
0
220
0
230
1
0
LINE
5
133
100
AcDbEntity
8
SK2
62
256
6
ByLayer
370
13
48
1
60
0
100
AcDbLine
10
-59.17504
20
-36.825002
30
0
11
-58.339047
21
-36.824998
31
0
39
0
210
0
220
0
230
1
0
ENDBLK
5
135
100
AcDbEntity
8
0
100
AcDbBlockEnd
0
BLOCK
5
142
100
AcDbEntity
8
0
100
AcDbBlockBegin
2
DimnDraft3D7
70
0
10
0
20
0
30
0
3
DimnDraft3D7
0
MTEXT
5
138
100
AcDbEntity
8
SK2
62
256
6
ByLayer
370
18
48
1
60
0
100
AcDbMText
10
-25.2
20
61.017122
30
0
210
0
220
0
230
1
1
\W0.6920;48
40
3
41
0
44
1.084337
50
0
71
7
72
5
7
iso_b_vert
0
LINE
5
139
100
AcDbEntity
8
SK2
62
256
6
ByLayer
370
13
48
1
60
0
100
AcDbLine
10
-48
20
26.495833
30
0
11
-48
21
62.267122
31
0
39
0
210
0
220
0
230
1
0
LINE
5
13A
100
AcDbEntity
8
SK2
62
256
6
ByLayer
370
13
48
1
60
0
100
AcDbLine
10
0
20
41.2875
30
0
11
0
21
62.267122
31
0
39
0
210
0
220
0
230
1
0
LINE
5
13B
100
AcDbEntity
8
SK2
62
256
6
ByLayer
370
13
48
1
60
0
100
AcDbLine
10
-48
20
60.267122
30
0
11
0
21
60.267122
31
0
39
0
210
0
220
0
230
1
0
LINE
5
13C
100
AcDbEntity
8
SK2
62
256
6
ByLayer
370
13
48
1
60
0
100
AcDbLine
10
-48
20
60.267122
30
0
11
-44.825002
21
60.685119
31
0
39
0
210
0
220
0
230
1
0
LINE
5
13D
100
AcDbEntity
8
SK2
62
256
6
ByLayer
370
13
48
1
60
0
100
AcDbLine
10
-48
20
60.267122
30
0
11
-44.824998
21
59.849126
31
0
39
0
210
0
220
0
230
1
0
LINE
5
13E
100
AcDbEntity
8
SK2
62
256
6
ByLayer
370
13
48
1
60
0
100
AcDbLine
10
-44.825002
20
60.685119
30
0
11
-44.824998
21
59.849126
31
0
39
0
210
0
220
0
230
1
0
LINE
5
13F
100
AcDbEntity
8
SK2
62
256
6
ByLayer
370
13
48
1
60
0
100
AcDbLine
10
0
20
60.267122
30
0
11
-3.174998
21
59.849126
31
0
39
0
210
0
220
0
230
1
0
LINE
5
140
100
AcDbEntity
8
SK2
62
256
6
ByLayer
370
13
48
1
60
0
100
AcDbLine
10
0
20
60.267122
30
0
11
-3.175002
21
60.685119
31
0
39
0
210
0
220
0
230
1
0
LINE
5
141
100
AcDbEntity
8
SK2
62
256
6
ByLayer
370
13
48
1
60
0
100
AcDbLine
10
-3.174998
20
59.849126
30
0
11
-3.175002
21
60.685119
31
0
39
0
210
0
220
0
230
1
0
ENDBLK
5
143
100
AcDbEntity
8
0
100
AcDbBlockEnd
0
BLOCK
5
151
100
AcDbEntity
8
0
100
AcDbBlockBegin
2
DimnDraft3D8
70
0
10
0
20
0
30
0
3
DimnDraft3D8
0
MTEXT
5
146
100
AcDbEntity
8
2
62
256
6
ByLayer
370
18
48
1
60
0
100
AcDbMText
10
43.957895
20
61.219492
30
0
210
0
220
0
230
1
1
\W0.6337;90
40
3
41
0
44
1.084337
50
0
71
7
72
5
7
iso_b_vert
0
LINE
5
148
100
AcDbEntity
8
2
62
256
6
ByLayer
370
13
48
1
60
0
100
AcDbLine
10
0
20
41.2875
30
0
11
0
21
62.469492
31
0
39
0
210
0
220
0
230
1
0
LINE
5
149
100
AcDbEntity
8
2
62
256
6
ByLayer
370
13
48
1
60
0
100
AcDbLine
10
90
20
24.967846
30
0
11
90
21
62.469492
31
0
39
0
210
0
220
0
230
1
0
LINE
5
14A
100
AcDbEntity
8
2
62
256
6
ByLayer
370
13
48
1
60
0
100
AcDbLine
10
0
20
60.469492
30
0
11
90
21
60.469492
31
0
39
0
210
0
220
0
230
1
0
LINE
5
14B
100
AcDbEntity
8
2
62
256
6
ByLayer
370
13
48
1
60
0
100
AcDbLine
10
0
20
60.469492
30
0
11
3.174998
21
60.887489
31
0
39
0
210
0
220
0
230
1
0
LINE
5
14C
100
AcDbEntity
8
2
62
256
6
ByLayer
370
13
48
1
60
0
100
AcDbLine
10
0
20
60.469492
30
0
11
3.175002
21
60.051495
31
0
39
0
210
0
220
0
230
1
0
LINE
5
14D
100
AcDbEntity
8
2
62
256
6
ByLayer
370
13
48
1
60
0
100
AcDbLine
10
3.174998
20
60.887489
30
0
11
3.175002
21
60.051495
31
0
39
0
210
0
220
0
230
1
0
LINE
5
14E
100
AcDbEntity
8
2
62
256
6
ByLayer
370
13
48
1
60
0
100
AcDbLine
10
90
20
60.469492
30
0
11
86.825002
21
60.051495
31
0
39
0
210
0
220
0
230
1
0
LINE
5
14F
100
AcDbEntity
8
2
62
256
6
ByLayer
370
13
48
1
60
0
100
AcDbLine
10
90
20
60.469492
30
0
11
86.824998
21
60.887489
31
0
39
0
210
0
220
0
230
1
0
LINE
5
150
100
AcDbEntity
8
2
62
256
6
ByLayer
370
13
48
1
60
0
100
AcDbLine
10
86.825002
20
60.051495
30
0
11
86.824998
21
60.887489
31
0
39
0
210
0
220
0
230
1
0
ENDBLK
5
152
100
AcDbEntity
8
0
100
AcDbBlockEnd
0
BLOCK
5
15F
100
AcDbEntity
8
0
100
AcDbBlockBegin
2
DimnDraft3D9
70
0
10
0
20
0
30
0
3
DimnDraft3D9
0
MTEXT
5
155
100
AcDbEntity
8
SK2
62
256
6
ByLayer
370
18
48
1
60
0
100
AcDbMText
10
60.957895
20
50.119708
30
0
210
0
220
0
230
1
1
\W0.6337;56
40
3
41
0
44
1.084337
50
0
71
7
72
5
7
iso_b_vert
0
LINE
5
156
100
AcDbEntity
8
SK2
62
256
6
ByLayer
370
13
48
1
60
0
100
AcDbLine
10
90
20
24.967846
30
0
11
90
21
51.369708
31
0
39
0
210
0
220
0
230
1
0
LINE
5
157
100
AcDbEntity
8
SK2
62
256
6
ByLayer
370
13
48
1
60
0
100
AcDbLine
10
34
20
33.0875
30
0
11
34
21
51.369708
31
0
39
0
210
0
220
0
230
1
0
LINE
5
158
100
AcDbEntity
8
SK2
62
256
6
ByLayer
370
13
48
1
60
0
100
AcDbLine
10
90
20
49.369708
30
0
11
34
21
49.369708
31
0
39
0
210
0
220
0
230
1
0
LINE
5
159
100
AcDbEntity
8
SK2
62
256
6
ByLayer
370
13
48
1
60
0
100
AcDbLine
10
90
20
49.369708
30
0
11
86.825002
21
48.951711
31
0
39
0
210
0
220
0
230
1
0
LINE
5
15A
100
AcDbEntity
8
SK2
62
256
6
ByLayer
370
13
48
1
60
0
100
AcDbLine
10
90
20
49.369708
30
0
11
86.824998
21
49.787705
31
0
39
0
210
0
220
0
230
1
0
LINE
5
15B
100
AcDbEntity
8
SK2
62
256
6
ByLayer
370
13
48
1
60
0
100
AcDbLine
10
86.825002
20
48.951711
30
0
11
86.824998
21
49.787705
31
0
39
0
210
0
220
0
230
1
0
LINE
5
15C
100
AcDbEntity
8
SK2
62
256
6
ByLayer
370
13
48
1
60
0
100
AcDbLine
10
34
20
49.369708
30
0
11
37.174998
21
49.787705
31
0
39
0
210
0
220
0
230
1
0
LINE
5
15D
100
AcDbEntity
8
SK2
62
256
6
ByLayer
370
13
48
1
60
0
100
AcDbLine
10
34
20
49.369708
30
0
11
37.175002
21
48.951711
31
0
39
0
210
0
220
0
230
1
0
LINE
5
15E
100
AcDbEntity
8
SK2
62
256
6
ByLayer
370
13
48
1
60
0
100
AcDbLine
10
37.174998
20
49.787705
30
0
11
37.175002
21
48.951711
31
0
39
0
210
0
220
0
230
1
0
ENDBLK
5
160
100
AcDbEntity
8
0
100
AcDbBlockEnd
0
ENDSEC
0
SECTION
2
ENTITIES
0
ARC
5
A9
100
AcDbEntity
8
1
62
256
6
ByLayer
370
18
48
1
60
0
100
AcDbCircle
39
0
10
-66.47346
20
11.5
30
0
40
20
210
0
220
0
230
-1
100
AcDbArc
50
90
51
110
0
ARC
5
AA
100
AcDbEntity
8
1
62
256
6
ByLayer
370
18
48
1
60
0
100
AcDbCircle
39
0
10
-66.47346
20
-11.5
30
0
40
20
210
0
220
0
230
-1
100
AcDbArc
50
250
51
270
0
ARC
5
AB
100
AcDbEntity
8
1
62
256
6
ByLayer
370
18
48
1
60
0
100
AcDbCircle
39
0
10
88.8
20
-23.380346
30
0
40
1.20000000000002
210
0
220
0
230
1
100
AcDbArc
50
290
51
0
0
ARC
5
AC
100
AcDbEntity
8
1
62
256
6
ByLayer
370
18
48
1
60
0
100
AcDbCircle
39
0
10
88.8
20
23.380346
30
0
40
1.20000000000002
210
0
220
0
230
1
100
AcDbArc
50
0
51
70
0
ARC
5
AE
100
AcDbEntity
8
1
62
256
6
ByLayer
370
18
48
1
60
0
100
AcDbCircle
39
0
10
-29.289061
20
39
30
0
40
1
210
0
220
0
230
-1
100
AcDbArc
50
90
51
160.820992
0
ARC
5
AF
100
AcDbEntity
8
1
62
256
6
ByLayer
370
18
48
1
60
0
100
AcDbCircle
39
0
10
-29.289061
20
-39
30
0
40
1
210
0
220
0
230
-1
100
AcDbArc
50
199.179008
51
270
0
ARC
5
B0
100
AcDbEntity
8
SK1
62
256
6
ByLayer
370
18
48
1
60
0
100
AcDbCircle
39
0
10
-0.6
20
-29.6
30
0
40
1.00000000000001
210
0
220
0
230
1
100
AcDbArc
50
53
51
66.421822
0
ARC
5
B1
100
AcDbEntity
8
SK1
62
256
6
ByLayer
370
18
48
1
60
0
100
AcDbCircle
39
0
10
-0.6
20
29.6
30
0
40
0.999999999999995
210
0
220
0
230
1
100
AcDbArc
50
293.578178
51
306.578178
0
ARC
5
B2
100
AcDbEntity
8
1
62
256
6
ByLayer
370
18
48
1
60
0
100
AcDbCircle
39
0
10
34.6286
20
32.5
30
0
40
1
210
0
220
0
230
1
100
AcDbArc
50
205.693043
51
270
0
ARC
5
B3
100
AcDbEntity
8
1
62
256
6
ByLayer
370
18
48
1
60
0
100
AcDbCircle
39
0
10
-34.6286
20
-32.5
30
0
40
1
210
0
220
0
230
-1
100
AcDbArc
50
25.693043
51
90
0
CIRCLE
5
AD
100
AcDbEntity
8
1
62
256
6
ByLayer
370
18
48
1
60
0
100
AcDbCircle
10
87
20
0
30
0
40
2
39
0
210
0
220
0
230
1
0
ELLIPSE
5
B4
100
AcDbEntity
8
1
62
256
6
ByLayer
370
18
48
1
60
0
100
AcDbEllipse
10
-6.763884
20
0
30
0
11
18.7348357595645
21
39.4834983055011
31
0
210
0
220
0
230
-1
40
0.341999
41
0.161099005228945
42
1.08794676716928
0
ELLIPSE
5
B5
100
AcDbEntity
8
1
62
256
6
ByLayer
370
18
48
1
60
0
100
AcDbEllipse
10
30.763884
20
0
30
0
11
18.7348357595652
21
-39.4834983055018
31
0
210
0
220
0
230
-1
40
0.341999
41
2.05364588642052
42
2.98049364836085
0
ELLIPSE
5
B6
100
AcDbEntity
8
1
62
256
6
ByLayer
370
18
48
1
60
0
100
AcDbEllipse
10
30.763884
20
0
30
0
11
18.734835759565
21
39.4834983055018
31
0
210
0
220
0
230
-1
40
0.341999
41
-2.98049364836085
42
-2.05364588642052
0
ELLIPSE
5
B7
100
AcDbEntity
8
1
62
256
6
ByLayer
370
18
48
1
60
0
100
AcDbEllipse
10
-6.763884
20
0
30
0
11
18.7348357595637
21
-39.4834983054999
31
0
210
0
220
0
230
-1
40
0.341999
41
-1.08794676716931
42
-0.161099005228948
0
POINT
5
6C
100
AcDbEntity
8
80
62
256
6
ByLayer
370
18
48
1
60
0
100
AcDbPoint
10
0
20
0
30
0
39
0
210
0
220
0
230
1
50
360
0
POINT
5
6E
100
AcDbEntity
8
81
62
256
6
ByLayer
370
18
48
1
60
0
100
AcDbPoint
10
90
20
0
30
0
39
0
210
0
220
0
230
1
50
360
0
SPLINE
5
B8
100
AcDbEntity
8
1
62
256
6
ByLayer
370
18
48
1
60
0
100
AcDbSpline
70
2053
71
3
72
174
73
170
40
0
40
0
40
0
40
0
40
0.0312499999999989
40
0.0312499999999989
40
0.0624999999999975
40
0.0624999999999975
40
0.0937499999999962
40
0.0937499999999962
40
0.101562499999995
40
0.101562499999995
40
0.109374999999995
40
0.109374999999995
40
0.124999999999993
40
0.124999999999993
40
0.156249999999992
40
0.156249999999992
40
0.18749999999999
40
0.18749999999999
40
0.20312499999999
40
0.20312499999999
40
0.21093749999999
40
0.21093749999999
40
0.21874999999999
40
0.21874999999999
40
0.24999999999999
40
0.24999999999999
40
0.265624999999989
40
0.265624999999989
40
0.27343749999999
40
0.27343749999999
40
0.28124999999999
40
0.28124999999999
40
0.296874999999991
40
0.296874999999991
40
0.312499999999992
40
0.312499999999992
40
0.316406249999992
40
0.316406249999992
40
0.320312499999992
40
0.320312499999992
40
0.328124999999991
40
0.328124999999991
40
0.34374999999999
40
0.34374999999999
40
0.34765624999999
40
0.34765624999999
40
0.351562499999989
40
0.351562499999989
40
0.359374999999989
40
0.359374999999989
40
0.363281249999989
40
0.363281249999989
40
0.367187499999989
40
0.367187499999989
40
0.374999999999989
40
0.374999999999989
40
0.378906249999989
40
0.378906249999989
40
0.382812499999989
40
0.382812499999989
40
0.390624999999989
40
0.390624999999989
40
0.394531249999989
40
0.394531249999989
40
0.398437499999989
40
0.398437499999989
40
0.40624999999999
40
0.40624999999999
40
0.41406249999999
40
0.41406249999999
40
0.41796874999999
40
0.41796874999999
40
0.42187499999999
40
0.42187499999999
40
0.43749999999999
40
0.43749999999999
40
0.445312499999991
40
0.445312499999991
40
0.453124999999991
40
0.453124999999991
40
0.468749999999991
40
0.468749999999991
40
0.484374999999991
40
0.484374999999991
40
0.499999999999992
40
0.499999999999992
40
0.515624999999992
40
0.515624999999992
40
0.523437499999992
40
0.523437499999992
40
0.531249999999992
40
0.531249999999992
40
0.562499999999993
40
0.562499999999993
40
0.593749999999994
40
0.593749999999994
40
0.624999999999996
40
0.624999999999996
40
0.656249999999997
40
0.656249999999997
40
0.671874999999998
40
0.671874999999998
40
0.687499999999998
40
0.687499999999998
40
0.71875
40
0.71875
40
0.734375
40
0.734375
40
0.750000000000001
40
0.750000000000001
40
0.765625000000001
40
0.765625000000001
40
0.781250000000002
40
0.781250000000002
40
0.796875000000002
40
0.796875000000002
40
0.804687500000003
40
0.804687500000003
40
0.812500000000003
40
0.812500000000003
40
0.820312500000003
40
0.820312500000003
40
0.828125000000003
40
0.828125000000003
40
0.832031250000002
40
0.832031250000002
40
0.835937500000002
40
0.835937500000002
40
0.843750000000002
40
0.843750000000002
40
0.847656250000002
40
0.847656250000002
40
0.851562500000002
40
0.851562500000002
40
0.859375000000002
40
0.859375000000002
40
0.863281250000002
40
0.863281250000002
40
0.867187500000002
40
0.867187500000002
40
0.875000000000002
40
0.875000000000002
40
0.882812500000002
40
0.882812500000002
40
0.890625000000002
40
0.890625000000002
40
0.894531250000002
40
0.894531250000002
40
0.898437500000002
40
0.898437500000002
40
0.906250000000002
40
0.906250000000002
40
0.921875000000001
40
0.921875000000001
40
0.929687500000001
40
0.929687500000001
40
0.937500000000001
40
0.937500000000001
40
0.953125000000001
40
0.953125000000001
40
0.96875
40
0.96875
40
0.984375
40
0.984375
40
0.9921875
40
0.9921875
40
0.99609375
40
0.99609375
40
1
40
1
40
1
40
1
41
1
10
41.7062391238046
20
-23.38888624967
30
0
41
1
10
42.0575731913546
20
-23.6836905361711
30
0
41
1
10
42.4294361885672
20
-23.9562450736342
30
0
41
1
10
43.2093228636952
20
-24.4643770677269
30
0
41
1
10
43.6174115470456
20
-24.6998866100004
30
0
41
1
10
44.4681022486465
20
-25.1382741798771
30
0
41
1
10
44.9107235762674
20
-25.3411279569584
30
0
41
1
10
45.4856949259906
20
-25.5759828312705
30
0
41
1
10
45.6019062141073
20
-25.6220635546194
30
0
41
1
10
45.8358746597383
20
-25.7121280847497
30
0
41
1
10
45.9535337095463
20
-25.7560776674278
30
0
41
1
10
46.3085183150143
20
-25.8847790309037
30
0
41
1
10
46.5478493963177
20
-25.9663869179881
30
0
41
1
10
47.2738021724636
20
-26.1993032023074
30
0
41
1
10
47.7683509833846
20
-26.3387557160845
30
0
41
1
10
48.7790204928587
20
-26.5883009954704
30
0
41
1
10
49.2951275081532
20
-26.698404083866
30
0
41
1
10
50.0866637513929
20
-26.8419293333375
30
0
41
1
10
50.3534154712088
20
-26.8861516958731
30
0
41
1
10
50.7581792761504
20
-26.9469401611283
30
0
41
1
10
50.8939439596148
20
-26.9662840034006
30
0
41
1
10
51.1656800705656
20
-27.0029057634013
30
0
41
1
10
51.301815065318
20
-27.0202095985795
30
0
41
1
10
51.9838529944158
20
-27.1016699996961
30
0
41
1
10
52.5338002687023
20
-27.1508355373722
30
0
41
1
10
53.3662058642405
20
-27.1981496145991
30
0
41
1
10
53.6449297084141
20
-27.2094822443074
30
0
41
1
10
54.0651397490396
20
-27.2190540996969
30
0
41
1
10
54.2055648413764
20
-27.2210027557806
30
0
41
1
10
54.4871817018762
20
-27.2222235367807
30
0
41
1
10
54.6283235385425
20
-27.221489463873
30
0
41
1
10
55.0499846874316
20
-27.2149853150096
30
0
41
1
10
55.3296963495736
20
-27.2049601852071
30
0
41
1
10
55.8858587683236
20
-27.1714900889149
30
0
41
1
10
56.1623172492413
20
-27.148081793756
30
0
41
1
10
56.5053519712689
20
-27.1081688864714
30
0
41
1
10
56.5738307719203
20
-27.0996478353508
30
0
41
1
10
56.7105134870304
20
-27.0814431126394
30
0
41
1
10
56.7786998989565
20
-27.0717593757225
30
0
41
1
10
56.9815852294333
20
-27.0410147603013
30
0
41
1
10
57.115011872477
20
-27.0182165048679
30
0
41
1
10
57.5091183502572
20
-26.9419265901607
30
0
41
1
10
57.7637733922017
20
-26.8807600380166
30
0
41
1
10
58.0681250106876
20
-26.7857687735799
30
0
41
1
10
58.1282440501662
20
-26.7658300234085
30
0
41
1
10
58.2456214077361
20
-26.7243308380367
30
0
41
1
10
58.3030409658081
20
-26.702721912606
30
0
41
1
10
58.4712482686917
20
-26.635117305438
30
0
41
1
10
58.5780054988938
20
-26.5863604995162
30
0
41
1
10
58.7287808214311
20
-26.5066450057427
30
0
41
1
10
58.7774744678409
20
-26.4789726929756
30
0
41
1
10
58.871445034855
20
-26.4211941853777
30
0
41
1
10
58.9165806682188
20
-26.3911518176507
30
0
41
1
10
59.0443304565136
20
-26.2986332768828
30
0
41
1
10
59.1200370172581
20
-26.233334943852
30
0
41
1
10
59.2185347736287
20
-26.1294203776374
30
0
41
1
10
59.2488532146384
20
-26.0937859723566
30
0
41
1
10
59.3042655299568
20
-26.0204117757171
30
0
41
1
10
59.3293359144637
20
-25.9826415082357
30
0
41
1
10
59.3952548093927
20
-25.8683174986991
30
0
41
1
10
59.4274195817461
20
-25.7900368731072
30
0
41
1
10
59.4592355839662
20
-25.6695527443476
30
0
41
1
10
59.4670976740605
20
-25.6288803573444
30
0
41
1
10
59.4774927756187
20
-25.5465140772822
30
0
41
1
10
59.480007295188
20
-25.5047081682946
30
0
41
1
10
59.4798646416683
20
-25.3797658050944
30
0
41
1
10
59.4696924616707
20
-25.296506207962
30
0
41
1
10
59.432419831226
20
-25.1298803835709
30
0
41
1
10
59.4053046691875
20
-25.0465150950122
30
0
41
1
10
59.3536359374338
20
-24.9212986164501
30
0
41
1
10
59.3345196570881
20
-24.8794259004237
30
0
41
1
10
59.2931327647977
20
-24.7961896523207
30
0
41
1
10
59.2708921174417
20
-24.7548621034753
30
0
41
1
10
59.1527120397661
20
-24.549503884463
30
0
41
1
10
59.0361807996989
20
-24.3892311778251
30
0
41
1
10
58.8379047732018
20
-24.1527273573839
30
0
41
1
10
58.7678328834761
20
-24.0745594842237
30
0
41
1
10
58.6207338083849
20
-23.9193416167162
30
0
41
1
10
58.5435086750067
20
-23.8421137948868
30
0
41
1
10
58.3045794420087
20
-23.6137510899418
30
0
41
1
10
58.1354519260396
20
-23.4655583352561
30
0
41
1
10
57.7822034598226
20
-23.1751685277676
30
0
41
1
10
57.5980433160218
20
-23.0329902244781
30
0
41
1
10
57.2175506993104
20
-22.7534111171303
30
0
41
1
10
57.021200525823
20
-22.6160186886115
30
0
41
1
10
56.6182158273015
20
-22.3452314865827
30
0
41
1
10
56.4115723005682
20
-22.2118409126817
30
0
41
1
10
56.094880877418
20
-22.014369936229
30
0
41
1
10
55.9882463491352
20
-21.9490199702903
30
0
41
1
10
55.7737231606048
20
-21.8196567970397
30
0
41
1
10
55.6657286946952
20
-21.7555773375699
30
0
41
1
10
55.1223376192266
20
-21.4380000667871
30
0
41
1
10
54.6767985372178
20
-21.1928588273063
30
0
41
1
10
53.7682103049857
20
-20.7174764923214
30
0
41
1
10
53.3051221574798
20
-20.4872676082578
30
0
41
1
10
52.3633867365587
20
-20.0408514616385
30
0
41
1
10
51.8847270163143
20
-19.824651412872
30
0
41
1
10
50.9124687384663
20
-19.4067268005899
30
0
41
1
10
50.4188728475878
20
-19.2049931205642
30
0
41
1
10
49.6668302436071
20
-18.9146692055588
30
0
41
1
10
49.4141981777801
20
-18.8199525596558
30
0
41
1
10
48.904819086205
20
-18.6350504704081
30
0
41
1
10
48.6483648718828
20
-18.5449756315239
30
0
41
1
10
47.8753262807611
20
-18.2833419838097
30
0
41
1
10
47.3543811483775
20
-18.1199545648624
30
0
41
1
10
46.5626448275812
20
-17.8965644198543
30
0
41
1
10
46.2969996318057
20
-17.8257464903771
30
0
41
1
10
45.7616742742189
20
-17.6928200136218
30
0
41
1
10
45.4917411921272
20
-17.6306667161494
30
0
41
1
10
44.9507453275781
20
-17.5178268952871
30
0
41
1
10
44.6793046333443
20
-17.4670224350696
30
0
41
1
10
44.1341082453604
20
-17.3794111097635
30
0
41
1
10
43.8603576787915
20
-17.3425732892985
30
0
41
1
10
43.3098681359066
20
-17.2871491631086
30
0
41
1
10
43.033141612223
20
-17.2684881826047
30
0
41
1
10
42.6149393464409
20
-17.2595931570716
30
0
41
1
10
42.4750151801447
20
-17.2598391110221
30
0
41
1
10
42.1938780538243
20
-17.2682364763534
30
0
41
1
10
42.0521986255169
20
-17.2764524469793
30
0
41
1
10
41.7719880705558
20
-17.3023722071715
30
0
41
1
10
41.6330269073786
20
-17.3200573963531
30
0
41
1
10
41.3578906065072
20
-17.3668924171397
30
0
41
1
10
41.221711403069
20
-17.3960264789218
30
0
41
1
10
41.0200716402831
20
-17.4504873951566
30
0
41
1
10
40.9530643566733
20
-17.4705253323052
30
0
41
1
10
40.821438963826
20
-17.5142247020052
30
0
41
1
10
40.7568349143731
20
-17.5378638329306
30
0
41
1
10
40.5669391099134
20
-17.6145525627045
30
0
41
1
10
40.4455423043945
20
-17.6733455410021
30
0
41
1
10
40.2727270942071
20
-17.7750634291136
30
0
41
1
10
40.2163835071004
20
-17.8114557723318
30
0
41
1
10
40.109132612289
20
-17.8876910320723
30
0
41
1
10
40.0581004432224
20
-17.9275668612918
30
0
41
1
10
39.9127824380008
20
-18.0524155059241
30
0
41
1
10
39.8262659677308
20
-18.1426048727381
30
0
41
1
10
39.712177213525
20
-18.2881838805849
30
0
41
1
10
39.6766118947856
20
-18.3387011586583
30
0
41
1
10
39.6119261759038
20
-18.4411941503254
30
0
41
1
10
39.5826790905778
20
-18.4932729248135
30
0
41
1
10
39.5035018965785
20
-18.6517496050477
30
0
41
1
10
39.4621044622035
20
-18.7603777309283
30
0
41
1
10
39.3991491100199
20
-18.9825184488622
30
0
41
1
10
39.3782240413377
20
-19.0937262354871
30
0
41
1
10
39.3532689982739
20
-19.3153697953882
30
0
41
1
10
39.349229294253
20
-19.4259466774285
30
0
41
1
10
39.3536755787145
20
-19.5913478277644
30
0
41
1
10
39.3569181611312
20
-19.6464045804752
30
0
41
1
10
39.3666589308007
20
-19.756351904336
30
0
41
1
10
39.3731774622243
20
-19.8113517030756
30
0
41
1
10
39.3970721458457
20
-19.9747801667863
30
0
41
1
10
39.4187613236378
20
-20.0819416473046
30
0
41
1
10
39.4981163501911
20
-20.3987719937132
30
0
41
1
10
39.5699078206228
20
-20.6038240085406
30
0
41
1
10
39.6990334766861
20
-20.9038618562008
30
0
41
1
10
39.7457000550987
20
-21.0026059234921
30
0
41
1
10
39.8455872547561
20
-21.1977381051496
30
0
41
1
10
39.8989304558834
20
-21.2943135100552
30
0
41
1
10
40.0666401361549
20
-21.5784576360024
30
0
41
1
10
40.1888442408779
20
-21.7610247253188
30
0
41
1
10
40.4504877583517
20
-22.1145943695995
30
0
41
1
10
40.5899577290147
20
-22.2855806680769
30
0
41
1
10
40.884111144742
20
-22.6173322843725
30
0
41
1
10
41.0388087411451
20
-22.7780899748435
30
0
41
1
10
41.2813507651818
20
-23.0122506683056
30
0
41
1
10
41.3639525569897
20
-23.0891388734183
30
0
41
1
10
41.490409001564
20
-23.2027904833848
30
0
41
1
10
41.5329870076664
20
-23.2403941175438
30
0
41
1
10
41.6189843140313
20
-23.3150508238087
30
0
41
1
10
41.6623223653609
20
-23.3520357138573
30
0
41
1
10
41.7062391238047
20
-23.38888624967
30
0
0
SPLINE
5
B9
100
AcDbEntity
8
1
62
256
6
ByLayer
370
18
48
1
60
0
100
AcDbSpline
70
4
71
3
72
103
73
99
40
0
40
0
40
0
40
0
40
0.0312500000000054
40
0.0312500000000054
40
0.0468750000000082
40
0.0468750000000082
40
0.0625000000000109
40
0.0625000000000109
40
0.0937500000000163
40
0.0937500000000163
40
0.109375000000019
40
0.109375000000019
40
0.125000000000022
40
0.125000000000022
40
0.15625000000003
40
0.15625000000003
40
0.171875000000034
40
0.171875000000034
40
0.187500000000038
40
0.187500000000038
40
0.218750000000042
40
0.218750000000042
40
0.234375000000045
40
0.234375000000045
40
0.250000000000048
40
0.250000000000048
40
0.28125000000005
40
0.28125000000005
40
0.312500000000052
40
0.312500000000052
40
0.343750000000054
40
0.343750000000054
40
0.375000000000056
40
0.375000000000056
40
0.406250000000058
40
0.406250000000058
40
0.43750000000006
40
0.43750000000006
40
0.45312500000006
40
0.45312500000006
40
0.46093750000006
40
0.46093750000006
40
0.468750000000061
40
0.468750000000061
40
0.50000000000006
40
0.50000000000006
40
0.515625000000059
40
0.515625000000059
40
0.523437500000059
40
0.523437500000059
40
0.531250000000059
40
0.531250000000059
40
0.562500000000057
40
0.562500000000057
40
0.578125000000056
40
0.578125000000056
40
0.593750000000055
40
0.609375000000054
40
0.609375000000054
40
0.625000000000053
40
0.625000000000053
40
0.65625000000005
40
0.65625000000005
40
0.671875000000048
40
0.671875000000048
40
0.687500000000045
40
0.687500000000045
40
0.718750000000043
40
0.718750000000043
40
0.734375000000041
40
0.734375000000041
40
0.75000000000004
40
0.75000000000004
40
0.781250000000035
40
0.781250000000035
40
0.796875000000032
40
0.796875000000032
40
0.812500000000029
40
0.812500000000029
40
0.843750000000024
40
0.843750000000024
40
0.859375000000023
40
0.859375000000023
40
0.875000000000021
40
0.875000000000021
40
0.906250000000021
40
0.906250000000021
40
0.91406250000002
40
0.91406250000002
40
0.921875000000019
40
0.921875000000019
40
0.937500000000015
40
0.937500000000015
40
0.968750000000008
40
0.968750000000008
40
0.984375000000004
40
0.984375000000004
40
1
40
1
40
1
40
1
41
1
10
89.2104241719908
20
-0.420148759225577
30
0
41
1
10
89.1834427254184
20
-0.562099533539174
30
0
41
1
10
89.1434078914305
20
-0.698883250695392
30
0
41
1
10
89.0648192707244
20
-0.896691237847507
30
0
41
1
10
89.0355115215069
20
-0.961390369992731
30
0
41
1
10
88.9705924183836
20
-1.08827575471998
30
0
41
1
10
88.9348213623104
20
-1.15065265367594
30
0
41
1
10
88.8202959392659
20
-1.33009910433346
30
0
41
1
10
88.7338542752686
20
-1.44079979713073
30
0
41
1
10
88.5896546410733
20
-1.59386693231722
30
0
41
1
10
88.5390383176635
20
-1.6428081022545
30
0
41
1
10
88.4333114907973
20
-1.73582129679818
30
0
41
1
10
88.3787972180621
20
-1.77938879271305
30
0
41
1
10
88.2105501599738
20
-1.90165540697098
30
0
41
1
10
88.0921500883487
20
-1.97198319793317
30
0
41
1
10
87.9054414053774
20
-2.06092897707107
30
0
41
1
10
87.8414833309863
20
-2.08784550158757
30
0
41
1
10
87.7129051590601
20
-2.13517195303158
30
0
41
1
10
87.64802409994
20
-2.15572633377369
30
0
41
1
10
87.4516797075228
20
-2.20835922864143
30
0
41
1
10
87.318530189163
20
-2.23147763688409
30
0
41
1
10
87.1154384456849
20
-2.24806304328601
30
0
41
1
10
87.0476579779112
20
-2.2504991262828
30
0
41
1
10
86.913236861953
20
-2.24933095789269
30
0
41
1
10
86.8463908721927
20
-2.24574438837357
30
0
41
1
10
86.6469211182619
20
-2.22613786444123
30
0
41
1
10
86.5153586989807
20
-2.20134576623428
30
0
41
1
10
86.2550961925311
20
-2.12742066615647
30
0
41
1
10
86.1299784499268
20
-2.07929953088377
30
0
41
1
10
85.8895432891135
20
-1.96145607393399
30
0
41
1
10
85.7741879895184
20
-1.89173194903394
30
0
41
1
10
85.5537469106339
20
-1.72905085336888
30
0
41
1
10
85.4519052663373
20
-1.63845629430009
30
0
41
1
10
85.2651693951043
20
-1.43927033772085
30
0
41
1
10
85.1801777087045
20
-1.33062923339391
30
0
41
1
10
85.0284796043277
20
-1.09335934536946
30
0
41
1
10
84.9644344578182
20
-0.968854091865047
30
0
41
1
10
84.8859557877132
20
-0.773461957989864
30
0
41
1
10
84.8627421098097
20
-0.706875309273009
30
0
41
1
10
84.8324977173476
20
-0.604727089443916
30
0
41
1
10
84.8231802689149
20
-0.570298995981406
30
0
41
1
10
84.8061171804349
20
-0.500662821143805
30
0
41
1
10
84.7983627645026
20
-0.465384338087304
30
0
41
1
10
84.7640431041835
20
-0.289175278854345
30
0
41
1
10
84.7502882820038
20
-0.147280404928133
30
0
41
1
10
84.7498625251545
20
0.0669322585696396
30
0
41
1
10
84.7531109359463
20
0.138566356340568
30
0
41
1
10
84.763238323627
20
0.246373656114876
30
0
41
1
10
84.7674915448971
20
0.282305897594476
30
0
41
1
10
84.7776422833198
20
0.353435709902643
30
0
41
1
10
84.7835485460269
20
0.388736507717011
30
0
41
1
10
84.8171502540227
20
0.563947613269115
30
0
41
1
10
84.8569470763809
20
0.700013208832834
30
0
41
1
10
84.9357733346813
20
0.898062835040311
30
0
41
1
10
84.9653183664966
20
0.963080528153286
30
0
41
1
10
85.0294882686323
20
1.088364355336
30
0
41
1
10
85.0990041254438
20
1.20963391437868
30
0
41
1
10
85.1788644791034
20
1.32317079854944
30
0
41
1
10
85.2638662742758
20
1.43288353818738
30
0
41
1
10
85.309174585752
20
1.48606341825234
30
0
41
1
10
85.4507451531017
20
1.63750104656442
30
0
41
1
10
85.5526376675621
20
1.72801858902278
30
0
41
1
10
85.716228150297
20
1.84906228376775
30
0
41
1
10
85.772562620744
20
1.88693737607759
30
0
41
1
10
85.888896464027
20
1.95769867793323
30
0
41
1
10
85.9485489916196
20
1.99034845165128
30
0
41
1
10
86.1299492977622
20
2.0793404010875
30
0
41
1
10
86.2548834442198
20
2.12726924077432
30
0
41
1
10
86.4482913587006
20
2.18234068175116
30
0
41
1
10
86.513833660206
20
2.19788922219847
30
0
41
1
10
86.6467329241929
20
2.22312327956765
30
0
41
1
10
86.7132964882384
20
2.2326643294661
30
0
41
1
10
86.9133311623035
20
2.25231972851972
30
0
41
1
10
87.0471455037692
20
2.25353687091315
30
0
41
1
10
87.248576588212
20
2.23724103787803
30
0
41
1
10
87.3159066286289
20
2.22875958214425
30
0
41
1
10
87.450530705152
20
2.20549050252472
30
0
41
1
10
87.5169462529708
20
2.1908604905498
30
0
41
1
10
87.7135463553887
20
2.13816839111468
30
0
41
1
10
87.8411075765716
20
2.09137440900795
30
0
41
1
10
88.0269446251571
20
2.00314426723737
30
0
41
1
10
88.0880380108995
20
1.97066857901002
30
0
41
1
10
88.2079681964621
20
1.89951946496889
30
0
41
1
10
88.2659663082664
20
1.861351481624
30
0
41
1
10
88.43415070316
20
1.73922738244983
30
0
41
1
10
88.5385766990754
20
1.64771466865514
30
0
41
1
10
88.6590542698132
20
1.52028584411928
30
0
41
1
10
88.6826430591657
20
1.49414308643827
30
0
41
1
10
88.7287793390114
20
1.44051144539605
30
0
41
1
10
88.7513831148098
20
1.41294624556413
30
0
41
1
10
88.8169295708361
20
1.32902466696444
30
0
41
1
10
88.8577550328137
20
1.27130819038588
30
0
41
1
10
88.9717618069805
20
1.09296316684473
30
0
41
1
10
89.0365496682134
20
0.967186039627806
30
0
41
1
10
89.1161500296339
20
0.767808503904571
30
0
41
1
10
89.139741508386
20
0.699418632966137
30
0
41
1
10
89.1800674657041
20
0.561236128406387
30
0
41
1
10
89.196922733521
20
0.491180519512811
30
0
41
1
10
89.2104241719908
20
0.420148759225576
30
0
0
SPLINE
5
BA
100
AcDbEntity
8
1
62
256
6
ByLayer
370
18
48
1
60
0
100
AcDbSpline
70
4
71
3
72
12
73
8
40
0
40
0
40
0
40
0
40
0.5
40
0.5
40
0.75
40
0.75
40
1
40
1
40
1
40
1
41
1
10
89.2104241719908
20
0.420148759225573
30
0
41
1
10
89.2368362417158
20
0.281193505710017
30
0
41
1
10
89.2499365668426
20
0.141483925392579
30
0
41
1
10
89.2500313749335
20
-0.0692233761452751
30
0
41
1
10
89.2467679392666
20
-0.139788873133963
30
0
41
1
10
89.2335441357704
20
-0.280691459673714
30
0
41
1
10
89.2236328570227
20
-0.350657189802882
30
0
41
1
10
89.210424171993
20
-0.420148759225901
30
0
0
SPLINE
5
BB
100
AcDbEntity
8
SK1
62
256
6
ByLayer
370
18
48
1
60
0
100
AcDbSpline
70
4
71
3
72
28
73
24
40
0
40
0
40
0
40
0
40
0.125
40
0.125
40
0.25
40
0.25
40
0.3125
40
0.3125
40
0.34375
40
0.34375
40
0.375
40
0.375
40
0.5
40
0.5
40
0.625
40
0.625
40
0.6875
40
0.6875
40
0.75
40
0.75
40
0.875
40
0.875
40
1
40
1
40
1
40
1
41
1
10
-1.30710678118655
20
4.39323937970206
30
0
41
1
10
-1.36955365544158
20
4.04042008063485
30
0
41
1
10
-1.42789384181034
20
3.68464922436204
30
0
41
1
10
-1.53333089535425
20
2.96613162766127
30
0
41
1
10
-1.58043063838982
20
2.60338665001998
30
0
41
1
10
-1.639622869125
20
2.05292564755397
30
0
41
1
10
-1.65743175171486
20
1.8683765568494
30
0
41
1
10
-1.68082931550579
20
1.58979567653825
30
0
41
1
10
-1.68807210195622
20
1.49664114546263
30
0
41
1
10
-1.7013765624811
20
1.30971700862541
30
0
41
1
10
-1.70743960956843
20
1.21587610246442
30
0
41
1
10
-1.73448227948862
20
0.747398775749147
30
0
41
1
10
-1.74566524731249
20
0.373309638071796
30
0
41
1
10
-1.74566298261818
20
-0.373423897839448
30
0
41
1
10
-1.73448345443983
20
-0.746068577695693
30
0
41
1
10
-1.70238872850292
20
-1.30401975761954
30
0
41
1
10
-1.68916426022981
20
-1.48983541056798
30
0
41
1
10
-1.65809696113622
20
-1.86115004723774
30
0
41
1
10
-1.64022877292869
20
-2.0469274623126
30
0
41
1
10
-1.58088109872639
20
-2.59990934209472
30
0
41
1
10
-1.53364862520453
20
-2.96385271300822
30
0
41
1
10
-1.42800155951597
20
-3.68402797275317
30
0
41
1
10
-1.3695824050902
20
-4.04025712679946
30
0
41
1
10
-1.30710678118657
20
-4.39323915389227
30
0
0
SPLINE
5
BC
100
AcDbEntity
8
1
62
256
6
ByLayer
370
18
48
1
60
0
100
AcDbSpline
70
4
71
3
72
22
73
18
40
0
40
0
40
0
40
0
40
0.249999999999998
40
0.249999999999998
40
0.374999999999999
40
0.374999999999999
40
0.5
40
0.5
40
0.625000000000001
40
0.625000000000001
40
0.750000000000001
40
0.750000000000001
40
0.812500000000002
40
0.812500000000002
40
0.875000000000002
40
0.875000000000002
40
1
40
1
40
1
40
1
41
1
10
10.1056624327026
20
12.6576002058704
30
0
41
1
10
10.1212438126112
20
12.6003292036663
30
0
41
1
10
10.1398761201257
20
12.5441499637055
30
0
41
1
10
10.1739972864804
20
12.4621216159939
30
0
41
1
10
10.1864101449813
20
12.4351561290447
30
0
41
1
10
10.2138388425172
20
12.3821770722735
30
0
41
1
10
10.2289265953742
20
12.3560426999109
30
0
41
1
10
10.2621641170173
20
12.3057192432196
30
0
41
1
10
10.2802620066642
20
12.2815531796602
30
0
41
1
10
10.3205610269858
20
12.235994052996
30
0
41
1
10
10.3426053074955
20
12.2148091982091
30
0
41
1
10
10.3789180567414
20
12.1871605631486
30
0
41
1
10
10.3915960688954
20
12.1786070311293
30
0
41
1
10
10.4183879309626
20
12.1631598579217
30
0
41
1
10
10.4324900730126
20
12.1563040766933
30
0
41
1
10
10.4758266843417
20
12.1395106480538
30
0
41
1
10
10.5070602691284
20
12.1330899674706
30
0
41
1
10
10.5386751345948
20
12.1330899674706
30
0
0
SPLINE
5
BD
100
AcDbEntity
8
1
62
256
6
ByLayer
370
18
48
1
60
0
100
AcDbSpline
70
4
71
3
72
20
73
16
40
0
40
0
40
0
40
0
40
0.0625000000000007
40
0.0625000000000007
40
0.125000000000001
40
0.125000000000001
40
0.250000000000006
40
0.250000000000006
40
0.37500000000001
40
0.37500000000001
40
0.500000000000015
40
0.500000000000015
40
0.750000000000007
40
0.750000000000007
40
1
40
1
40
1
40
1
41
1
10
10.5386751345948
20
38.1154578595255
30
0
41
1
10
10.5228424579137
20
38.1154578595254
30
0
41
1
10
10.5073032170841
20
38.1149630443688
30
0
41
1
10
10.4767587503235
20
38.1130718896044
30
0
41
1
10
10.4616242888075
20
38.1116578687672
30
0
41
1
10
10.4179414896383
20
38.1062685963607
30
0
41
1
10
10.3914602024633
20
38.101260466828
30
0
41
1
10
10.3422528978047
20
38.0892687952498
30
0
41
1
10
10.3204171364761
20
38.0825033540055
30
0
41
1
10
10.2803874449687
20
38.0679323293245
30
0
41
1
10
10.2621320027339
20
38.0600685618956
30
0
41
1
10
10.2123318812525
20
38.0356330717498
30
0
41
1
10
10.1856242795051
20
38.0183244490836
30
0
41
1
10
10.1400321601287
20
37.9823481941392
30
0
41
1
10
10.1212495620848
20
37.9636126331776
30
0
41
1
10
10.1056624327025
20
37.9445010117191
30
0
0
SPLINE
5
BE
100
AcDbEntity
8
1
62
256
6
ByLayer
370
18
48
1
60
0
100
AcDbSpline
70
4
71
3
72
20
73
16
40
0
40
0
40
0
40
0
40
0.0625000000000012
40
0.0625000000000012
40
0.125000000000002
40
0.125000000000002
40
0.250000000000002
40
0.250000000000002
40
0.375000000000001
40
0.375000000000001
40
0.5
40
0.5
40
0.75
40
0.75
40
1
40
1
40
1
40
1
41
1
10
13.4613248654052
20
12.1330899674707
30
0
41
1
10
13.4771575420863
20
12.1330899674707
30
0
41
1
10
13.4926967829159
20
12.1346446934811
30
0
41
1
10
13.5232412496765
20
12.1405832169824
30
0
41
1
10
13.5383757111925
20
12.1450224152722
30
0
41
1
10
13.5820585103617
20
12.1619255694047
30
0
41
1
10
13.6085397975367
20
12.177616249759
30
0
41
1
10
13.6577471021953
20
12.215072219626
30
0
41
1
10
13.6795828635239
20
12.2361555816479
30
0
41
1
10
13.7196125550313
20
12.2814125122522
30
0
41
1
10
13.7378679972661
20
12.3057660949485
30
0
41
1
10
13.7876681187475
20
12.3811715645304
30
0
41
1
10
13.8143757204949
20
12.4342400380054
30
0
41
1
10
13.8599678398713
20
12.5437053894649
30
0
41
1
10
13.8787504379152
20
12.6003080708704
30
0
41
1
10
13.8943375672975
20
12.6576002058703
30
0
0
SPLINE
5
BF
100
AcDbEntity
8
1
62
256
6
ByLayer
370
18
48
1
60
0
100
AcDbSpline
70
4
71
3
72
22
73
18
40
0
40
0
40
0
40
0
40
0.250000000000005
40
0.250000000000005
40
0.375000000000006
40
0.375000000000006
40
0.500000000000007
40
0.500000000000007
40
0.625000000000009
40
0.625000000000009
40
0.75000000000001
40
0.75000000000001
40
0.81250000000001
40
0.81250000000001
40
0.87500000000001
40
0.87500000000001
40
1
40
1
40
1
40
1
41
1
10
13.8943375672974
20
37.9445010117191
30
0
41
1
10
13.8787561873888
20
37.9636055836587
30
0
41
1
10
13.8601238798743
20
37.9822012953861
30
0
41
1
10
13.8260027135196
20
38.0091614379608
30
0
41
1
10
13.8135898550187
20
38.0179913785433
30
0
41
1
10
13.7861611574828
20
38.0352792465571
30
0
41
1
10
13.7710734046258
20
38.0437762110223
30
0
41
1
10
13.7378358829827
20
38.0600837295902
30
0
41
1
10
13.7197379933358
20
38.0678870466104
30
0
41
1
10
13.6794389730142
20
38.0825553532501
30
0
41
1
10
13.6573946925045
20
38.0893529851856
30
0
41
1
10
13.6210819432586
20
38.0982048271663
30
0
41
1
10
13.6084039311046
20
38.1009395753102
30
0
41
1
10
13.5816120690374
20
38.1058736681204
30
0
41
1
10
13.5675099269874
20
38.1080609020697
30
0
41
1
10
13.5241733156583
20
38.1134152144531
30
0
41
1
10
13.4929397308716
20
38.1154578595255
30
0
41
1
10
13.4613248654052
20
38.1154578595255
30
0
0
SPLINE
5
C0
100
AcDbEntity
8
1
62
256
6
ByLayer
370
18
48
1
60
0
100
AcDbSpline
70
4
71
3
72
22
73
18
40
0
40
0
40
0
40
0
40
0.250000000000003
40
0.250000000000003
40
0.375000000000003
40
0.375000000000003
40
0.500000000000003
40
0.500000000000003
40
0.625000000000003
40
0.625000000000003
40
0.750000000000003
40
0.750000000000003
40
0.812500000000001
40
0.812500000000001
40
0.874999999999998
40
0.874999999999998
40
1
40
1
40
1
40
1
41
1
10
13.8943375672974
20
-12.6576002058704
30
0
41
1
10
13.8787561873888
20
-12.6003292036662
30
0
41
1
10
13.8601238798743
20
-12.5441499637055
30
0
41
1
10
13.8260027135196
20
-12.4621216159939
30
0
41
1
10
13.8135898550187
20
-12.4351561290446
30
0
41
1
10
13.7861611574828
20
-12.3821770722735
30
0
41
1
10
13.7710734046259
20
-12.3560426999108
30
0
41
1
10
13.7378358829828
20
-12.3057192432196
30
0
41
1
10
13.7197379933358
20
-12.2815531796601
30
0
41
1
10
13.6794389730142
20
-12.235994052996
30
0
41
1
10
13.6573946925045
20
-12.2148091982091
30
0
41
1
10
13.6210819432586
20
-12.1871605631485
30
0
41
1
10
13.6084039311046
20
-12.1786070311293
30
0
41
1
10
13.5816120690375
20
-12.1631598579217
30
0
41
1
10
13.5675099269874
20
-12.1563040766933
30
0
41
1
10
13.5241733156583
20
-12.1395106480537
30
0
41
1
10
13.4929397308716
20
-12.1330899674705
30
0
41
1
10
13.4613248654052
20
-12.1330899674705
30
0
0
SPLINE
5
C1
100
AcDbEntity
8
1
62
256
6
ByLayer
370
18
48
1
60
0
100
AcDbSpline
70
4
71
3
72
20
73
16
40
0
40
0
40
0
40
0
40
0.0624999999999982
40
0.0624999999999982
40
0.124999999999996
40
0.124999999999996
40
0.249999999999996
40
0.249999999999996
40
0.374999999999995
40
0.374999999999995
40
0.499999999999995
40
0.499999999999995
40
0.749999999999997
40
0.749999999999997
40
1
40
1
40
1
40
1
41
1
10
10.5386751345948
20
-38.1154578595255
30
0
41
1
10
10.5228424579137
20
-38.1154578595255
30
0
41
1
10
10.5073032170841
20
-38.1149630443689
30
0
41
1
10
10.4767587503235
20
-38.1130718896044
30
0
41
1
10
10.4616242888075
20
-38.1116578687672
30
0
41
1
10
10.4179414896383
20
-38.1062685963607
30
0
41
1
10
10.3914602024633
20
-38.101260466828
30
0
41
1
10
10.3422528978047
20
-38.0892687952498
30
0
41
1
10
10.3204171364761
20
-38.0825033540055
30
0
41
1
10
10.2803874449687
20
-38.0679323293245
30
0
41
1
10
10.2621320027339
20
-38.0600685618956
30
0
41
1
10
10.2123318812525
20
-38.0356330717498
30
0
41
1
10
10.1856242795051
20
-38.0183244490836
30
0
41
1
10
10.1400321601288
20
-37.9823481941392
30
0
41
1
10
10.1212495620848
20
-37.9636126331776
30
0
41
1
10
10.1056624327025
20
-37.9445010117191
30
0
0
SPLINE
5
C2
100
AcDbEntity
8
1
62
256
6
ByLayer
370
18
48
1
60
0
100
AcDbSpline
70
4
71
3
72
22
73
18
40
0
40
0
40
0
40
0
40
0.249999999999995
40
0.249999999999995
40
0.374999999999997
40
0.374999999999997
40
0.499999999999999
40
0.499999999999999
40
0.625
40
0.625
40
0.750000000000002
40
0.750000000000002
40
0.812500000000002
40
0.812500000000002
40
0.875000000000003
40
0.875000000000003
40
1
40
1
40
1
40
1
41
1
10
10.1056624327026
20
-12.6576002058704
30
0
41
1
10
10.1212438126112
20
-12.6003292036663
30
0
41
1
10
10.1398761201257
20
-12.5441499637055
30
0
41
1
10
10.1739972864804
20
-12.4621216159939
30
0
41
1
10
10.1864101449813
20
-12.4351561290447
30
0
41
1
10
10.2138388425173
20
-12.3821770722735
30
0
41
1
10
10.2289265953742
20
-12.3560426999109
30
0
41
1
10
10.2621641170173
20
-12.3057192432196
30
0
41
1
10
10.2802620066642
20
-12.2815531796602
30
0
41
1
10
10.3205610269858
20
-12.235994052996
30
0
41
1
10
10.3426053074955
20
-12.2148091982091
30
0
41
1
10
10.3789180567414
20
-12.1871605631486
30
0
41
1
10
10.3915960688954
20
-12.1786070311293
30
0
41
1
10
10.4183879309626
20
-12.1631598579217
30
0
41
1
10
10.4324900730126
20
-12.1563040766934
30
0
41
1
10
10.4758266843417
20
-12.1395106480538
30
0
41
1
10
10.5070602691284
20
-12.1330899674706
30
0
41
1
10
10.5386751345948
20
-12.1330899674706
30
0
0
SPLINE
5
C3
100
AcDbEntity
8
1
62
256
6
ByLayer
370
18
48
1
60
0
100
AcDbSpline
70
4
71
3
72
22
73
18
40
0
40
0
40
0
40
0
40
0.250000000000003
40
0.250000000000003
40
0.375000000000003
40
0.375000000000003
40
0.500000000000003
40
0.500000000000003
40
0.625000000000003
40
0.625000000000003
40
0.750000000000003
40
0.750000000000003
40
0.812500000000001
40
0.812500000000001
40
0.874999999999998
40
0.874999999999998
40
1
40
1
40
1
40
1
41
1
10
13.8943375672974
20
-37.9445010117191
30
0
41
1
10
13.8787561873888
20
-37.9636055836586
30
0
41
1
10
13.8601238798743
20
-37.9822012953861
30
0
41
1
10
13.8260027135196
20
-38.0091614379608
30
0
41
1
10
13.8135898550187
20
-38.0179913785433
30
0
41
1
10
13.7861611574828
20
-38.0352792465571
30
0
41
1
10
13.7710734046259
20
-38.0437762110223
30
0
41
1
10
13.7378358829828
20
-38.0600837295902
30
0
41
1
10
13.7197379933358
20
-38.0678870466105
30
0
41
1
10
13.6794389730142
20
-38.0825553532501
30
0
41
1
10
13.6573946925045
20
-38.0893529851856
30
0
41
1
10
13.6210819432586
20
-38.0982048271663
30
0
41
1
10
13.6084039311046
20
-38.1009395753102
30
0
41
1
10
13.5816120690375
20
-38.1058736681204
30
0
41
1
10
13.5675099269874
20
-38.1080609020697
30
0
41
1
10
13.5241733156583
20
-38.1134152144531
30
0
41
1
10
13.4929397308716
20
-38.1154578595256
30
0
41
1
10
13.4613248654052
20
-38.1154578595255
30
0
0
SPLINE
5
C4
100
AcDbEntity
8
SK1
62
256
6
ByLayer
370
18
48
1
60
0
100
AcDbSpline
70
4
71
3
72
26
73
22
40
0
40
0
40
0
40
0
40
0.249999999999996
40
0.249999999999996
40
0.499999999999991
40
0.499999999999991
40
0.624999999999992
40
0.624999999999992
40
0.749999999999992
40
0.749999999999992
40
0.812499999999994
40
0.812499999999994
40
0.874999999999996
40
0.874999999999996
40
0.906249999999997
40
0.906249999999997
40
0.937499999999998
40
0.937499999999998
40
0.968749999999999
40
0.968749999999999
40
1
40
1
40
1
40
1
41
1
10
-0.199999999999993
20
-6.57657332251965
30
0
41
1
10
-0.199999999999994
20
-6.5104500526519
30
0
41
1
10
-0.201370223899325
20
-6.44422604141063
30
0
41
1
10
-0.207931565681086
20
-6.31154981196996
30
0
41
1
10
-0.21303474486086
20
-6.24506994782284
30
0
41
1
10
-0.225773826026612
20
-6.14523693213599
30
0
41
1
10
-0.230865993702269
20
-6.11204321968498
30
0
41
1
10
-0.243817490224069
20
-6.04595778475249
30
0
41
1
10
-0.251609411491145
20
-6.01299451379087
30
0
41
1
10
-0.267311184438903
20
-5.96503123140513
30
0
41
1
10
-0.273219353624152
20
-5.94926493252872
30
0
41
1
10
-0.287582091983951
20
-5.91857610087365
30
0
41
1
10
-0.296059368926214
20
-5.90333821711971
30
0
41
1
10
-0.312820576486042
20
-5.88361899214846
30
0
41
1
10
-0.319036350199632
20
-5.87767263152895
30
0
41
1
10
-0.33338536989861
20
-5.86840030244355
30
0
41
1
10
-0.34162749978466
20
-5.86524528836297
30
0
41
1
10
-0.358303074286008
20
-5.86393320870276
30
0
41
1
10
-0.366656126224297
20
-5.86572492001523
30
0
41
1
10
-0.381748774349357
20
-5.87232402512866
30
0
41
1
10
-0.388661867009692
20
-5.87706955699621
30
0
41
1
10
-0.394976888875476
20
-5.88246902087074
30
0
0
SPLINE
5
C5
100
AcDbEntity
8
SK1
62
256
6
ByLayer
370
18
48
1
60
0
100
AcDbSpline
70
4
71
3
72
26
73
22
40
0
40
0
40
0
40
0
40
0.031250000000001
40
0.031250000000001
40
0.0625000000000021
40
0.0625000000000021
40
0.0937500000000031
40
0.0937500000000031
40
0.125000000000004
40
0.125000000000004
40
0.187500000000004
40
0.187500000000004
40
0.250000000000004
40
0.250000000000004
40
0.375000000000003
40
0.375000000000003
40
0.500000000000002
40
0.500000000000002
40
0.750000000000001
40
0.750000000000001
40
1
40
1
40
1
40
1
41
1
10
-0.394976888875292
20
5.88246916452651
30
0
41
1
10
-0.388663479016393
20
5.87707107428074
30
0
41
1
10
-0.38180040236319
20
5.8723490746843
30
0
41
1
10
-0.366634618594645
20
5.86571330815065
30
0
41
1
10
-0.358287383161864
20
5.8639337488272
30
0
41
1
10
-0.341634356786004
20
5.86524569625413
30
0
41
1
10
-0.333397011620321
20
5.86838955924898
30
0
41
1
10
-0.318988631583071
20
5.87770695780827
30
0
41
1
10
-0.312743382214553
20
5.88369895138623
30
0
41
1
10
-0.296018369933145
20
5.90340879022776
30
0
41
1
10
-0.287605201971942
20
5.9185116313715
30
0
41
1
10
-0.27309731610579
20
5.9495412330034
30
0
41
1
10
-0.267167369392261
20
5.96542317564119
30
0
41
1
10
-0.251432668896807
20
6.01363187356231
30
0
41
1
10
-0.243675661567946
20
6.04657147511209
30
0
41
1
10
-0.230718056341717
20
6.11291108254431
30
0
41
1
10
-0.225653098735903
20
6.14608265895735
30
0
41
1
10
-0.21299724662967
20
6.24556878217334
30
0
41
1
10
-0.207912798922958
20
6.31185420825218
30
0
41
1
10
-0.201370158980373
20
6.44430304126933
30
0
41
1
10
-0.200000000000142
20
6.51046842154436
30
0
41
1
10
-0.200000000000141
20
6.57657338511739
30
0
0
SPLINE
5
C6
100
AcDbEntity
8
SK1
62
256
6
ByLayer
370
18
48
1
60
0
100
AcDbSpline
70
4
71
3
72
36
73
32
40
0
40
0
40
0
40
0
40
0.0312500000000001
40
0.0312500000000001
40
0.0625000000000002
40
0.0625000000000002
40
0.0781249999999998
40
0.0781249999999998
40
0.0937499999999995
40
0.0937499999999995
40
0.109374999999999
40
0.109374999999999
40
0.124999999999999
40
0.124999999999999
40
0.187499999999999
40
0.187499999999999
40
0.249999999999998
40
0.249999999999998
40
0.312499999999998
40
0.312499999999998
40
0.374999999999998
40
0.374999999999998
40
0.437499999999997
40
0.437499999999997
40
0.499999999999997
40
0.499999999999997
40
0.624999999999998
40
0.624999999999998
40
0.749999999999999
40
0.749999999999999
40
1
40
1
40
1
40
1
41
1
10
-0.394976888875297
20
-5.88246902087485
30
0
41
1
10
-0.411243448014113
20
-5.89637723850254
30
0
41
1
10
-0.42844979396015
20
-5.9091235080334
30
0
41
1
10
-0.465564082935231
20
-5.93128976964649
30
0
41
1
10
-0.485501260594052
20
-5.94064321807932
30
0
41
1
10
-0.516684461683641
20
-5.9504158593215
30
0
41
1
10
-0.527342636981813
20
-5.95299322750997
30
0
41
1
10
-0.549272926092843
20
-5.95656586981095
30
0
41
1
10
-0.560480262229609
20
-5.95752703329129
30
0
41
1
10
-0.582564146399034
20
-5.95770291992473
30
0
41
1
10
-0.593554582119722
20
-5.95693966980829
30
0
41
1
10
-0.615435336121906
20
-5.95375863965627
30
0
41
1
10
-0.626425766380182
20
-5.95130580419044
30
0
41
1
10
-0.679608123678115
20
-5.93550756082418
30
0
41
1
10
-0.717332651322986
20
-5.91177816162458
30
0
41
1
10
-0.783015012079469
20
-5.85691368285359
30
0
41
1
10
-0.811905746604
20
-5.82506288928454
30
0
41
1
10
-0.86363893947587
20
-5.75887451227869
30
0
41
1
10
-0.886656684836522
20
-5.72429345642412
30
0
41
1
10
-0.929267961667082
20
-5.65330337951843
30
0
41
1
10
-0.948819546457387
20
-5.61687309339874
30
0
41
1
10
-0.985486467752573
20
-5.54267951374476
30
0
41
1
10
-1.00262186143593
20
-5.50482735013664
30
0
41
1
10
-1.03480814921667
20
-5.42864009982246
30
0
41
1
10
-1.04987762980657
20
-5.3902684463355
30
0
41
1
10
-1.09271800520729
20
-5.27447613379025
30
0
41
1
10
-1.11815592905237
20
-5.19638612483391
30
0
41
1
10
-1.16484626644071
20
-5.03886794643261
30
0
41
1
10
-1.18606921565798
20
-4.95943294853968
30
0
41
1
10
-1.24501063644411
20
-4.71944904321026
30
0
41
1
10
-1.27807953909773
20
-4.55724063340096
30
0
41
1
10
-1.30710678118655
20
-4.39323915389231
30
0
0
SPLINE
5
C7
100
AcDbEntity
8
SK1
62
256
6
ByLayer
370
18
48
1
60
0
100
AcDbSpline
70
4
71
3
72
32
73
28
40
0
40
0
40
0
40
0
40
0.250000000000001
40
0.250000000000001
40
0.375
40
0.375
40
0.499999999999999
40
0.499999999999999
40
0.624999999999999
40
0.624999999999999
40
0.687499999999998
40
0.687499999999998
40
0.749999999999998
40
0.749999999999998
40
0.812499999999998
40
0.812499999999998
40
0.843749999999999
40
0.843749999999999
40
0.874999999999999
40
0.874999999999999
40
0.90625
40
0.90625
40
0.921875
40
0.921875
40
0.9375
40
0.9375
40
1
40
1
40
1
40
1
41
1
10
-1.30710678118655
20
4.39323937970204
30
0
41
1
10
-1.27807156294216
20
4.55728578669132
30
0
41
1
10
-1.24496336974436
20
4.71973533160028
30
0
41
1
10
-1.18579979327575
20
4.96048279916965
30
0
41
1
10
-1.16444813599147
20
5.04032777207894
30
0
41
1
10
-1.11751925064143
20
5.19841536245076
30
0
41
1
10
-1.09200450824256
20
5.2765507911863
30
0
41
1
10
-1.03498128866929
20
5.43038219900064
30
0
41
1
10
-1.00356748257124
20
5.50611038118018
30
0
41
1
10
-0.948836683011147
20
5.61682998569377
30
0
41
1
10
-0.929306813344145
20
5.65325165428479
30
0
41
1
10
-0.886407011675272
20
5.72469636556378
30
0
41
1
10
-0.863046539494876
20
5.75970799632542
30
0
41
1
10
-0.811378570729623
20
5.82566030070511
30
0
41
1
10
-0.783095962941797
20
5.85688967768855
30
0
41
1
10
-0.733309570496681
20
5.8984107911216
30
0
41
1
10
-0.715777016447628
20
5.91105263131413
30
0
41
1
10
-0.67801578176167
20
5.93289970518878
30
0
41
1
10
-0.657793110825354
20
5.94201442298739
30
0
41
1
10
-0.615790388270577
20
5.95443864745008
30
0
41
1
10
-0.593299286563042
20
5.95781478621088
30
0
41
1
10
-0.560248787691069
20
5.95751208627931
30
0
41
1
10
-0.549306971868074
20
5.9565649815742
30
0
41
1
10
-0.527568149638204
20
5.95303672943538
30
0
41
1
10
-0.516687193621039
20
5.9504205356834
30
0
41
1
10
-0.464334375972712
20
5.93399527965413
30
0
41
1
10
-0.427479743259992
20
5.91025974760838
30
0
41
1
10
-0.394976888875293
20
5.88246916452647
30
0
0
SPLINE
5
C8
100
AcDbEntity
8
SK1
62
256
6
ByLayer
370
18
48
1
60
0
100
AcDbSpline
70
4
71
5
72
12
73
6
40
0
40
0
40
0
40
0
40
0
40
0
40
1
40
1
40
1
40
1
40
1
40
1
41
1
10
-46.5
20
-25.7915429536043
30
9.7599348E-09
41
1
10
-37.6400034776701
20
-26.0184424541184
30
9.7599348E-09
41
1
10
-28.7800051624607
20
-26.2452719461987
30
9.7599348E-09
41
1
10
-19.9200051090262
20
-26.4720335348285
30
-6.8E-15
41
1
10
-11.0600033716077
20
-26.6987293135577
30
-6.8E-15
41
1
10
-2.2
20
-26.9253612048291
30
-6.8E-15
0
SPLINE
5
C9
100
AcDbEntity
8
SK1
62
256
6
ByLayer
370
18
48
1
60
0
100
AcDbSpline
70
4
71
5
72
12
73
6
40
0
40
0
40
0
40
0
40
0
40
0
40
1
40
1
40
1
40
1
40
1
40
1
41
1
10
-2.20000000000002
20
26.9253612228026
30
-2.1885E-12
41
1
10
-11.0600033715987
20
26.6987293290101
30
-2.1885E-12
41
1
10
-19.9200051089834
20
26.4720335469614
30
-2.1885E-12
41
1
10
-28.7800051624847
20
26.2452719585674
30
4.655E-13
41
1
10
-37.6400034776646
20
26.0184424633655
30
4.655E-13
41
1
10
-46.5
20
25.7915429608823
30
4.655E-13
0
SPLINE
5
CA
100
AcDbEntity
8
SK1
62
256
6
ByLayer
370
18
48
1
60
0
100
AcDbSpline
70
4
71
5
72
12
73
6
40
0
40
0
40
0
40
0
40
0
40
0
40
1
40
1
40
1
40
1
40
1
40
1
41
1
10
-48
20
-24.9083325092819
30
3.2081218E-09
41
1
10
-47.700038743138
20
-25.0850403855548
30
3.2081218E-09
41
1
10
-47.4000577339869
20
-25.2617147323554
30
3.2081218E-09
41
1
10
-47.1000573324849
20
-25.4383561501572
30
1.03E-14
41
1
10
-46.8000379398706
20
-25.6149653094757
30
1.03E-14
41
1
10
-46.5000000016869
20
-25.7915429564696
30
1.03E-14
0
SPLINE
5
CB
100
AcDbEntity
8
SK1
62
256
6
ByLayer
370
18
48
1
60
0
100
AcDbSpline
70
4
71
5
72
12
73
6
40
0
40
0
40
0
40
0
40
0
40
0
40
1
40
1
40
1
40
1
40
1
40
1
41
1
10
-46.5
20
25.7915429570243
30
9.7599553E-09
41
1
10
-46.800037937332
20
25.6149653089601
30
9.7599553E-09
41
1
10
-47.1000573293998
20
25.4383561490902
30
9.7599553E-09
41
1
10
-47.4000577331572
20
25.2617147354973
30
-3.3E-15
41
1
10
-47.7000387428578
20
25.0850403900083
30
-3.3E-15
41
1
10
-48.0000000005697
20
24.9083325155568
30
-3.3E-15
0
SPLINE
5
CC
100
AcDbEntity
8
SK1
62
256
6
ByLayer
370
18
48
1
60
0
100
AcDbSpline
70
4
71
5
72
32
73
26
40
0
40
0
40
0
40
0
40
0
40
0
40
0.0229150278151855
40
0.0726532525418423
40
0.122571493639898
40
0.172366794104612
40
0.217250568781291
40
0.262114400880537
40
0.311895142159456
40
0.362087632477957
40
0.410600238713417
40
0.453439111692072
40
0.502337067688333
40
0.552868814857454
40
0.603313551963182
40
0.649432854972846
40
0.69627639699279
40
0.746998113950165
40
0.798062381440366
40
0.848784032620883
40
0.898326909573086
40
0.948999669249047
40
1
40
1
40
1
40
1
40
1
40
1
41
1
10
-0.394976888875291
20
-26.7678276929345
30
-1.3932477E-09
41
1
10
-0.393547080479151
20
-26.7678642720772
30
-1.3932477E-09
41
1
10
-0.389014870125874
20
-26.7680215119139
30
-1.3932477E-09
41
1
10
-0.3813780312417
20
-26.7685085252594
30
-1.0708227E-09
41
1
10
-0.370689845583667
20
-26.7697138838003
30
-6.056078E-10
41
1
10
-0.357368785187338
20
-26.7721468475954
30
-1.19263E-10
41
1
10
-0.342940309639054
20
-26.7759471663732
30
3.83387E-11
41
1
10
-0.328803790842312
20
-26.7808254774192
30
7.32946E-11
41
1
10
-0.31505676667526
20
-26.7867470629689
30
3.92163E-11
41
1
10
-0.301886866732778
20
-26.7936249743449
30
1.59587E-11
41
1
10
-0.289389234117255
20
-26.8014108963634
30
3.961E-13
41
1
10
-0.277283100446906
20
-26.8102721757267
30
-2.4302E-12
41
1
10
-0.265814820060714
20
-26.8200457670219
30
-2.5984E-12
41
1
10
-0.255104522239073
20
-26.8306313990853
30
-1.038E-12
41
1
10
-0.245324261576313
20
-26.8418554254129
30
-3.424E-13
41
1
10
-0.236257846785714
20
-26.8539946383848
30
1.042E-13
41
1
10
-0.228042736924436
20
-26.8668935244891
30
1.524E-13
41
1
10
-0.22078272621167
20
-26.8803833567077
30
2.339E-13
41
1
10
-0.214562047110503
20
-26.894356174374
30
2.623E-13
41
1
10
-0.209308914703892
20
-26.9089582835678
30
1.011E-13
41
1
10
-0.205158672015671
20
-26.9241910400093
30
2.38E-14
41
1
10
-0.20204159293979
20
-26.9397633129852
30
-1.21E-14
41
1
10
-0.200671127631959
20
-26.9523521285641
30
-1.91E-14
41
1
10
-0.199999999999993
20
-26.9618262517195
30
-7E-16
41
1
10
-0.199999999999992
20
-26.9682037209561
30
-7E-16
41
1
10
-0.199999999999992
20
-26.9714027300474
30
-7E-16
0
SPLINE
5
CD
100
AcDbEntity
8
SK1
62
256
6
ByLayer
370
18
48
1
60
0
100
AcDbSpline
70
4
71
5
72
32
73
26
40
0
40
0
40
0
40
0
40
0
40
0
40
0.0270073947078434
40
0.0773085100858742
40
0.127761855809289
40
0.178196262794479
40
0.226364301120779
40
0.274271281576738
40
0.324312301971724
40
0.374549966111551
40
0.423984741467178
40
0.470582894937546
40
0.519627604980517
40
0.569397585819926
40
0.619028786334924
40
0.665191318471684
40
0.711539400002503
40
0.760706131051325
40
0.810087389328791
40
0.858238463098225
40
0.903064057172367
40
0.951141285308784
40
1
40
1
40
1
40
1
40
1
40
1
41
1
10
-2.2
20
-26.9253612048299
30
-2.1808E-12
41
1
10
-2.19995774997067
20
-26.9236490046656
30
-2.1808E-12
41
1
10
-2.19978619670419
20
-26.9187491053739
30
-2.1808E-12
41
1
10
-2.19926267979385
20
-26.9106620839985
30
-1.6025E-12
41
1
10
-2.19798426568949
20
-26.8994395580129
30
-8.632E-13
41
1
10
-2.19539643236579
20
-26.885344779401
30
-1.071E-13
41
1
10
-2.19140011161649
20
-26.8701944401822
30
8.7E-14
41
1
10
-2.18626633117579
20
-26.8553691376426
30
1.14E-13
41
1
10
-2.18003968726813
20
-26.840994143352
30
3.93E-14
41
1
10
-2.17279041499854
20
-26.8272214290209
30
-7.2E-15
41
1
10
-2.16456306016073
20
-26.8141318891301
30
-4.05E-14
41
1
10
-2.15529833976678
20
-26.8016219136058
30
1.8E-14
41
1
10
-2.1451083800745
20
-26.7898497944886
30
1.592E-13
41
1
10
-2.13410311852538
20
-26.7789378333316
30
4.925E-13
41
1
10
-2.12246897505376
20
-26.7690534861121
30
6.698E-13
41
1
10
-2.11010771261163
20
-26.7600897967746
30
2.539E-13
41
1
10
-2.09706497890853
20
-26.7520730806917
30
8.35E-14
41
1
10
-2.08348275034707
20
-26.7450766931914
30
-2.87E-14
41
1
10
-2.06952776580813
20
-26.7392015027642
30
-2.61E-14
41
1
10
-2.05523977249311
20
-26.7344151842149
30
-2.46E-14
41
1
10
-2.04047874921042
20
-26.7307511123886
30
-4.2E-15
41
1
10
-2.02544367945794
20
-26.7281018304205
30
1.7E-15
41
1
10
-2.01337907103384
20
-26.7270796838699
30
6E-15
41
1
10
-2.00433521599076
20
-26.7266542238879
30
3.2E-15
41
1
10
-1.9981549970076
20
-26.7268123405138
30
3.2E-15
41
1
10
-1.99503997724282
20
-26.7268920361307
30
3.2E-15
0
SPLINE
5
CE
100
AcDbEntity
8
SK1
62
256
6
ByLayer
370
18
48
1
60
0
100
AcDbSpline
70
4
71
5
72
12
73
6
40
0
40
0
40
0
40
0
40
0
40
0
40
1
40
1
40
1
40
1
40
1
40
1
41
1
10
-1.9950399779393
20
-26.726892032357
30
9.7592211E-09
41
1
10
-1.67502736445471
20
-26.7350793327922
30
9.7592211E-09
41
1
10
-1.35501474880361
20
-26.7432665485458
30
9.7592211E-09
41
1
10
-1.03500213108437
20
-26.7514536834618
30
-4.8E-15
41
1
10
-0.714989511107442
20
-26.7596407301306
30
-4.8E-15
41
1
10
-0.394976888971214
20
-26.7678276923965
30
-4.8E-15
0
SPLINE
5
CF
100
AcDbEntity
8
SK1
62
256
6
ByLayer
370
18
48
1
60
0
100
AcDbSpline
70
4
71
5
72
12
73
6
40
0
40
0
40
0
40
0
40
0
40
0
40
1
40
1
40
1
40
1
40
1
40
1
41
1
10
-0.394976888875291
20
26.7678277047279
30
9.7599918E-09
41
1
10
-0.714989511011535
20
26.7596407423564
30
9.7599918E-09
41
1
10
-1.03500213098846
20
26.7514536955812
30
9.7599918E-09
41
1
10
-1.35501474889965
20
26.7432665680618
30
4.1E-15
41
1
10
-1.67502736455076
20
26.7350793522022
30
4.1E-15
41
1
10
-1.99503997803532
20
26.7268920516604
30
4.1E-15
0
SPLINE
5
D0
100
AcDbEntity
8
SK1
62
256
6
ByLayer
370
18
48
1
60
0
100
AcDbSpline
70
4
71
5
72
32
73
26
40
0
40
0
40
0
40
0
40
0
40
0
40
0.0231119340001143
40
0.0728732567594947
40
0.12281321946031
40
0.172568037519578
40
0.216844984386392
40
0.262362196662174
40
0.31223463383307
40
0.3623989215409
40
0.409894602929492
40
0.453154168156848
40
0.502566130492319
40
0.553090270526737
40
0.603083826769869
40
0.647959274263244
40
0.696101320810055
40
0.746965601378093
40
0.79801360965283
40
0.848274688948012
40
0.897993254502767
40
0.948917189944837
40
1
40
1
40
1
40
1
40
1
40
1
41
1
10
-1.9950399779393
20
26.726892047907
30
9.7592185E-09
41
1
10
-1.99650500084106
20
26.7268545663131
30
9.7592185E-09
41
1
10
-2.00112539010799
20
26.7267794695952
30
9.7592185E-09
41
1
10
-2.00891412223951
20
26.7268831301359
30
7.4179869E-09
41
1
10
-2.01983215252387
20
26.72756975946
30
4.1091224E-09
41
1
10
-2.0334432409694
20
26.7293820722066
30
7.272138E-10
41
1
10
-2.04827227685271
20
26.7325476782193
30
-3.045939E-10
41
1
10
-2.06285548333328
20
26.7368417709673
30
-5.077252E-10
41
1
10
-2.07707756306553
20
26.7422300071264
30
-2.537078E-10
41
1
10
-2.09069210626048
20
26.7486077861762
30
-9.70812E-11
41
1
10
-2.10371740951769
20
26.7559826725691
30
3.7795E-12
41
1
10
-2.1163765944304
20
26.7644773249133
30
1.77674E-11
41
1
10
-2.12840458067933
20
26.7739324880406
30
1.69527E-11
41
1
10
-2.13965886212347
20
26.7842359075152
30
5.8938E-12
41
1
10
-2.14997404493862
20
26.7952306119071
30
1.6868E-12
41
1
10
-2.15962820229146
20
26.807235721767
30
-8.755E-13
41
1
10
-2.16842043487628
20
26.8200312347334
30
-6.578E-13
41
1
10
-2.17623449184896
20
26.8334596101391
30
-4.352E-13
41
1
10
-2.18300894813629
20
26.8474251090211
30
-1.85E-14
41
1
10
-2.18880043591627
20
26.8621662174006
30
2.05E-14
41
1
10
-2.19349768629456
20
26.8775302517676
30
5.18E-14
41
1
10
-2.19700413744285
20
26.8932566609253
30
-3.47E-14
41
1
10
-2.19882343953451
20
26.9059919212014
30
-9.82E-14
41
1
10
-2.19963231836788
20
26.9156219480212
30
-1.541E-13
41
1
10
-2.19991978252837
20
26.9221103760732
30
-1.541E-13
41
1
10
-2.19999999999999
20
26.9253612228018
30
-1.541E-13
0
SPLINE
5
D1
100
AcDbEntity
8
SK1
62
256
6
ByLayer
370
18
48
1
60
0
100
AcDbSpline
70
4
71
5
72
32
73
26
40
0
40
0
40
0
40
0
40
0
40
0
40
0.0266994016770628
40
0.0769575224010168
40
0.127369962462786
40
0.177795030718731
40
0.226220149601513
40
0.273809187055712
40
0.323776837166571
40
0.373998664324229
40
0.423719831748888
40
0.470564573771627
40
0.51915175843055
40
0.568882239187054
40
0.618627686000395
40
0.666026898468263
40
0.711405631738847
40
0.760319433955568
40
0.809676027546187
40
0.858614829268775
40
0.904158683803626
40
0.951234791419836
40
1
40
1
40
1
40
1
40
1
40
1
41
1
10
-0.199999999999992
20
26.9714027472923
30
1.953752E-09
41
1
10
-0.199999999999992
20
26.9697359500889
30
1.953752E-09
41
1
10
-0.200048285882933
20
26.9649316393624
30
1.953752E-09
41
1
10
-0.200359206894627
20
26.9569846186095
30
1.4545045E-09
41
1
10
-0.20132291724192
20
26.9459323010883
30
8.001773E-10
41
1
10
-0.203483959785967
20
26.9320009288649
30
1.210745E-10
41
1
10
-0.20698346261561
20
26.9169911115361
30
-6.96831E-11
41
1
10
-0.211591232592935
20
26.9022649872123
30
-1.040961E-10
41
1
10
-0.217270408211377
20
26.8879354673044
30
-4.84116E-11
41
1
10
-0.223963380070388
20
26.874140763247
30
-1.76876E-11
41
1
10
-0.231620964163772
20
26.8609813167621
30
1.9889E-12
41
1
10
-0.240297478689734
20
26.8483584281522
30
3.8066E-12
41
1
10
-0.249899405787753
20
26.8364101431209
30
3.6096E-12
41
1
10
-0.260329217732845
20
26.8252541004658
30
1.7267E-12
41
1
10
-0.271441822771124
20
26.8150340167866
30
1.5407E-12
41
1
10
-0.283233609507702
20
26.8057353973844
30
5.961E-13
41
1
10
-0.295733732983666
20
26.7973184810712
30
1.403E-13
41
1
10
-0.308808428636616
20
26.7898593401557
30
-1.15E-13
41
1
10
-0.322326237845074
20
26.783450661913
30
-1.901E-13
41
1
10
-0.336171374698427
20
26.7780965309773
30
-1.548E-13
41
1
10
-0.350517857203174
20
26.7738168006974
30
-1.79E-14
41
1
10
-0.365194354989659
20
26.7705048248108
30
7.36E-13
41
1
10
-0.377040049725049
20
26.7689153669602
30
1.4702E-12
41
1
10
-0.385893778100607
20
26.7680600839423
30
2.4004E-12
41
1
10
-0.391913830128971
20
26.7679060714717
30
2.4004E-12
41
1
10
-0.394976888891818
20
26.7678277084788
30
2.4004E-12
0
LINE
5
70
100
AcDbEntity
8
SK3
62
256
6
ByLayer
370
13
48
0.05
60
0
100
AcDbLine
10
-10
20
-12.50175
30
0
11
90
21
-12.50175
31
0
39
0
210
0
220
0
230
1
0
LINE
5
72
100
AcDbEntity
8
SK3
62
256
6
ByLayer
370
13
48
0.05
60
0
100
AcDbLine
10
90
20
12.50175
30
0
11
-10
21
12.50175
31
0
39
0
210
0
220
0
230
1
0
LINE
5
73
100
AcDbEntity
8
SK3
62
256
6
ByLayer
370
13
48
0.05
60
0
100
AcDbLine
10
-10
20
-12.50175
30
0
11
-10
21
12.49825
31
0
39
0
210
0
220
0
230
1
0
LINE
5
74
100
AcDbEntity
8
81
62
256
6
ByLayer
370
13
48
1
60
0
100
AcDbLine
10
90
20
0
30
0
11
96
21
0
31
0
39
0
210
0
220
0
230
1
0
LINE
5
75
100
AcDbEntity
8
1
62
256
6
ByLayer
370
18
48
1
60
0
100
AcDbLine
10
34.6286
20
-31.5
30
0
11
66.47346
21
-31.5
31
0
39
0
210
0
220
0
230
1
0
LINE
5
77
100
AcDbEntity
8
1
62
256
6
ByLayer
370
18
48
1
60
0
100
AcDbLine
10
66.47346
20
31.5
30
0
11
34.6286
21
31.5
31
0
39
0
210
0
220
0
230
1
0
LINE
5
78
100
AcDbEntity
8
1
62
256
6
ByLayer
370
18
48
1
60
0
100
AcDbLine
10
89.210424
20
-24.507977
30
0
11
73.313863
21
-30.293852
31
0
39
0
210
0
220
0
230
1
0
LINE
5
79
100
AcDbEntity
8
1
62
256
6
ByLayer
370
18
48
1
60
0
100
AcDbLine
10
73.313863
20
30.293852
30
0
11
89.210424
21
24.507977
31
0
39
0
210
0
220
0
230
1
0
LINE
5
7A
100
AcDbEntity
8
1
62
256
6
ByLayer
370
18
48
1
60
0
100
AcDbLine
10
66.47346
20
-31.5
30
0
11
66.47346
21
31.5
31
0
39
0
210
0
220
0
230
1
0
LINE
5
7B
100
AcDbEntity
8
1
62
256
6
ByLayer
370
18
48
1
60
0
100
AcDbLine
10
73.313863
20
30.293852
30
0
11
73.313863
21
-30.293852
31
0
39
0
210
0
220
0
230
1
0
LINE
5
7C
100
AcDbEntity
8
1
62
256
6
ByLayer
370
18
48
1
60
0
100
AcDbLine
10
43.115162
20
-23.063368
30
0
11
47.293282
21
-18.084079
31
0
39
0
210
0
220
0
230
1
0
LINE
5
7D
100
AcDbEntity
8
1
62
256
6
ByLayer
370
18
48
1
60
0
100
AcDbLine
10
44.121929
20
-21.863551
30
0
11
45.747378
21
-19.926416
31
0
39
0
210
0
220
0
230
1
0
LINE
5
7E
100
AcDbEntity
8
1
62
256
6
ByLayer
370
18
48
1
60
0
100
AcDbLine
10
41.840169
20
-23.174915
30
0
11
46.339683
21
-17.812604
31
0
39
0
210
0
220
0
230
1
0
LINE
5
7F
100
AcDbEntity
8
1
62
256
6
ByLayer
370
18
48
1
60
0
100
AcDbLine
10
89.210424
20
-0.420149
30
0
11
89.210424
21
-24.507977
31
0
39
0
210
0
220
0
230
1
0
LINE
5
80
100
AcDbEntity
8
1
62
256
6
ByLayer
370
18
48
1
60
0
100
AcDbLine
10
89.210424
20
0.420149
30
0
11
89.210424
21
24.507977
31
0
39
0
210
0
220
0
230
1
0
LINE
5
81
100
AcDbEntity
8
1
62
256
6
ByLayer
370
18
48
1
60
0
100
AcDbLine
10
90
20
23.380346
30
0
11
90
21
-23.380346
31
0
39
0
210
0
220
0
230
1
0
LINE
5
82
100
AcDbEntity
8
1
62
256
6
ByLayer
370
18
48
1
60
0
100
AcDbLine
10
87.3
20
-1.977372
30
0
11
87.3
21
1.977372
31
0
39
0
210
0
220
0
230
1
0
LINE
5
83
100
AcDbEntity
8
1
62
256
6
ByLayer
370
18
48
1
60
0
100
AcDbLine
10
86.7
20
-1.977372
30
0
11
86.7
21
1.977372
31
0
39
0
210
0
220
0
230
1
0
LINE
5
84
100
AcDbEntity
8
1
62
256
6
ByLayer
370
18
48
1
60
0
100
AcDbLine
10
41.840169
20
-23.174915
30
0
11
43.115162
21
-23.063368
31
0
39
0
210
0
220
0
230
1
0
LINE
5
85
100
AcDbEntity
8
1
62
256
6
ByLayer
370
18
48
1
60
0
100
AcDbLine
10
41.840169
20
-23.174915
30
0
11
40.247594
21
-21.838586
31
0
39
0
210
0
220
0
230
1
0
LINE
5
86
100
AcDbEntity
8
4
62
256
6
ByLayer
370
13
48
0.05
60
0
100
AcDbLine
10
0
20
0
30
0
11
90
21
0
31
0
39
0
210
0
220
0
230
1
0
LINE
5
88
100
AcDbEntity
8
SK4
62
256
6
ByLayer
370
13
48
0.05
60
0
100
AcDbLine
10
94
20
0
30
0
11
-52
21
0
31
0
39
0
210
0
220
0
230
1
0
LINE
5
8A
100
AcDbEntity
8
80
62
256
6
ByLayer
370
18
48
1
60
0
100
AcDbLine
10
0
20
0
30
0
11
-10
21
0
31
0
39
0
210
0
220
0
230
1
0
LINE
5
8B
100
AcDbEntity
8
1
62
256
6
ByLayer
370
18
48
1
60
0
100
AcDbLine
10
0
20
39.7
30
0
11
0
21
-39.7
31
0
39
0
210
0
220
0
230
1
0
LINE
5
8C
100
AcDbEntity
8
SK1
62
256
6
ByLayer
370
18
48
1
60
0
100
AcDbLine
10
-1.307107
20
-4.393239
30
0
11
-1.307107
21
4.393239
31
0
39
0
210
0
220
0
230
1
0
LINE
5
8E
100
AcDbEntity
8
1
62
256
6
ByLayer
370
18
48
1
60
0
100
AcDbLine
10
0.3
20
40
30
0
11
0.3
21
-40
31
0
39
0
210
0
220
0
230
1
0
LINE
5
8F
100
AcDbEntity
8
1
62
256
6
ByLayer
370
18
48
1
60
0
100
AcDbLine
10
13.461325
20
12.13309
30
0
11
10.538675
21
12.13309
31
0
39
0
210
0
220
0
230
1
0
LINE
5
90
100
AcDbEntity
8
1
62
256
6
ByLayer
370
18
48
1
60
0
100
AcDbLine
10
10.538675
20
38.115458
30
0
11
13.461325
21
38.115458
31
0
39
0
210
0
220
0
230
1
0
LINE
5
91
100
AcDbEntity
8
1
62
256
6
ByLayer
370
18
48
1
60
0
100
AcDbLine
10
13.461325
20
-12.13309
30
0
11
10.538675
21
-12.13309
31
0
39
0
210
0
220
0
230
1
0
LINE
5
92
100
AcDbEntity
8
1
62
256
6
ByLayer
370
18
48
1
60
0
100
AcDbLine
10
13.461325
20
-38.115458
30
0
11
10.538675
21
-38.115458
31
0
39
0
210
0
220
0
230
1
0
LINE
5
93
100
AcDbEntity
8
1
62
256
6
ByLayer
370
18
48
1
60
0
100
AcDbLine
10
29.289061
20
-40
30
0
11
29.289061
21
40
31
0
39
0
210
0
220
0
230
1
0
LINE
5
94
100
AcDbEntity
8
SK1
62
256
6
ByLayer
370
18
48
1
60
0
100
AcDbLine
10
-0.2
20
28.683485
30
0
11
-0.2
21
-28.683485
31
0
39
0
210
0
220
0
230
1
0
LINE
5
95
100
AcDbEntity
8
1
62
256
6
ByLayer
370
18
48
1
60
0
100
AcDbLine
10
13.461325
20
12.13309
30
0
11
13.461325
21
38.115458
31
0
39
0
210
0
220
0
230
1
0
LINE
5
96
100
AcDbEntity
8
1
62
256
6
ByLayer
370
18
48
1
60
0
100
AcDbLine
10
13.894338
20
12.6576
30
0
11
13.894338
21
37.944501
31
0
39
0
210
0
220
0
230
1
0
LINE
5
97
100
AcDbEntity
8
1
62
256
6
ByLayer
370
18
48
1
60
0
100
AcDbLine
10
10.105662
20
37.944501
30
0
11
10.105662
21
12.6576
31
0
39
0
210
0
220
0
230
1
0
LINE
5
98
100
AcDbEntity
8
1
62
256
6
ByLayer
370
18
48
1
60
0
100
AcDbLine
10
10.538675
20
38.115458
30
0
11
10.538675
21
12.13309
31
0
39
0
210
0
220
0
230
1
0
LINE
5
99
100
AcDbEntity
8
1
62
256
6
ByLayer
370
18
48
1
60
0
100
AcDbLine
10
10.105662
20
-12.6576
30
0
11
10.105662
21
-37.944501
31
0
39
0
210
0
220
0
230
1
0
LINE
5
9A
100
AcDbEntity
8
1
62
256
6
ByLayer
370
18
48
1
60
0
100
AcDbLine
10
10.538675
20
-38.115458
30
0
11
10.538675
21
-12.13309
31
0
39
0
210
0
220
0
230
1
0
LINE
5
9B
100
AcDbEntity
8
1
62
256
6
ByLayer
370
18
48
1
60
0
100
AcDbLine
10
13.461325
20
-38.115458
30
0
11
13.461325
21
-12.13309
31
0
39
0
210
0
220
0
230
1
0
LINE
5
9C
100
AcDbEntity
8
1
62
256
6
ByLayer
370
18
48
1
60
0
100
AcDbLine
10
13.894338
20
-37.944501
30
0
11
13.894338
21
-12.6576
31
0
39
0
210
0
220
0
230
1
0
LINE
5
9D
100
AcDbEntity
8
1
62
256
6
ByLayer
370
18
48
1
60
0
100
AcDbLine
10
30.233558
20
-39.328521
30
0
11
30.233558
21
39.328521
31
0
39
0
210
0
220
0
230
1
0
LINE
5
9E
100
AcDbEntity
8
1
62
256
6
ByLayer
370
18
48
1
60
0
100
AcDbLine
10
29.289061
20
-40
30
0
11
0.3
21
-40
31
0
39
0
210
0
220
0
230
1
0
LINE
5
9F
100
AcDbEntity
8
1
62
256
6
ByLayer
370
18
48
1
60
0
100
AcDbLine
10
0.3
20
40
30
0
11
29.289061
21
40
31
0
39
0
210
0
220
0
230
1
0
LINE
5
A0
100
AcDbEntity
8
1
62
256
6
ByLayer
370
18
48
1
60
0
100
AcDbLine
10
0.3
20
-40
30
0
11
0
21
-39.7
31
0
39
0
210
0
220
0
230
1
0
LINE
5
A1
100
AcDbEntity
8
1
62
256
6
ByLayer
370
18
48
1
60
0
100
AcDbLine
10
0
20
39.7
30
0
11
0.3
21
40
31
0
39
0
210
0
220
0
230
1
0
LINE
5
A2
100
AcDbEntity
8
SK1
62
256
6
ByLayer
370
18
48
1
60
0
100
AcDbLine
10
-48
20
24.908333
30
0
11
-48
21
-24.908333
31
0
39
0
210
0
220
0
230
1
0
LINE
5
A3
100
AcDbEntity
8
SK1
62
256
6
ByLayer
370
18
48
1
60
0
100
AcDbLine
10
-46.5
20
25.791543
30
0
11
-46.5
21
-25.791543
31
0
39
0
210
0
220
0
230
1
0
LINE
5
A4
100
AcDbEntity
8
SK1
62
256
6
ByLayer
370
18
48
1
60
0
100
AcDbLine
10
-2.2
20
26.925361
30
0
11
-2.2
21
-26.925361
31
0
39
0
210
0
220
0
230
1
0
LINE
5
A5
100
AcDbEntity
8
1
62
256
6
ByLayer
370
18
48
1
60
0
100
AcDbLine
10
30.233558
20
39.328521
30
0
11
33.727471
21
32.06645
31
0
39
0
210
0
220
0
230
1
0
LINE
5
A6
100
AcDbEntity
8
1
62
256
6
ByLayer
370
18
48
1
60
0
100
AcDbLine
10
30.233558
20
-39.328521
30
0
11
33.727471
21
-32.06645
31
0
39
0
210
0
220
0
230
1
0
LINE
5
A7
100
AcDbEntity
8
1
62
256
6
ByLayer
370
18
48
1
60
0
100
AcDbLine
10
33.727471
20
32.06645
30
0
11
33.727471
21
-32.06645
31
0
39
0
210
0
220
0
230
1
0
LINE
5
A8
100
AcDbEntity
8
1
62
256
6
ByLayer
370
18
48
1
60
0
100
AcDbLine
10
34.6286
20
-31.5
30
0
11
34.6286
21
31.5
31
0
39
0
210
0
220
0
230
1
0
MTEXT
5
D2
100
AcDbEntity
8
SK6
62
256
6
ByLayer
370
18
48
1
60
0
100
AcDbMText
10
-51.360101
20
-54.980911
30
0
210
0
220
0
230
1
1
\W0.7273;935-C8-EF25-090
40
3.5
41
0
44
1.084337
50
0
71
7
72
5
7
iso_b_vert
0
DIMENSION
5
E5
100
AcDbEntity
8
SK2
62
256
6
ByLayer
370
13
48
1
60
0
100
AcDbDimension
2
DimnDraft3D1
10
90
20
-56.105699
30
0
11
22.157895
21
-56.105699
31
0
70
32
71
5
72
1
41
1
210
0
220
0
230
1
3
Standard
100
AcDbAlignedDimension
13
-10
23
-14.08925
33
0
14
90
24
-24.967846
34
0
50
0
100
AcDbRotatedDimension
1001
ACAD
1000
DSTYLE
1002
{
1070
   279
1070
     0
1070
   172
1070
     1
1070
   173
1070
     1
1070
   340
1005
D3
1070
   271
1070
     2
1070
   272
1070
     2
1070
    77
1070
     1
1070
    73
1070
     0
1070
   171
1070
     3
1070
   274
1070
     4
1070
   177
1070
     7
1070
   176
1070
     7
1070
   178
1070
     7
1070
    78
1070
     8
1070
    48
1040
-0.005
1070
    41
1041
3.175
1070
   147
1041
1.5
1070
    42
1041
1.5875
1070
    44
1041
2.0
1070
   140
1041
3.0
1070
   343
1005
0
1070
   344
1005
0
1002
}
0
DIMENSION
5
F4
100
AcDbEntity
8
SK2
62
256
6
ByLayer
370
13
48
1
60
0
100
AcDbDimension
2
DimnDraft3D2
10
115.737763
20
-12.50175
30
0
11
111.487763
21
1.957895
31
0
70
33
71
5
72
1
41
1
210
0
220
0
230
1
3
Standard
100
AcDbAlignedDimension
13
91.5875
23
12.50175
33
0
14
91.5875
24
-12.50175
34
0
1001
ACAD
1000
DSTYLE
1002
{
1070
   279
1070
     0
1070
    74
1070
     0
1070
   173
1070
     1
1070
   340
1005
D3
1070
   271
1070
     2
1070
   272
1070
     2
1070
    77
1070
     1
1070
    73
1070
     0
1070
   171
1070
     3
1070
   274
1070
     4
1070
   177
1070
     7
1070
   176
1070
     7
1070
   178
1070
     7
1070
    78
1070
     8
1070
    48
1040
-0.005
1070
    41
1041
3.175
1070
   147
1041
1.5
1070
    42
1041
1.5875
1070
    44
1041
2.0
1070
   140
1041
3.0
1070
   343
1005
F5
1070
   344
1005
F5
1002
}
0
DIMENSION
5
10A
100
AcDbEntity
8
SK2
62
256
6
ByLayer
370
13
48
1
60
0
100
AcDbDimension
2
DimnDraft3D3
10
144.024649
20
-31.5
30
0
11
139.774649
21
1.957895
31
0
70
33
71
5
72
1
41
1
210
0
220
0
230
1
3
Standard
100
AcDbAlignedDimension
13
68.06096
23
31.5
33
0
14
68.06096
24
-31.5
34
0
1001
ACAD
1000
DSTYLE
1002
{
1070
   279
1070
     0
1070
    74
1070
     0
1070
   173
1070
     1
1070
   340
1005
D3
1070
   271
1070
     2
1070
   272
1070
     2
1070
    77
1070
     1
1070
    73
1070
     0
1070
   171
1070
     3
1070
   274
1070
     4
1070
   177
1070
     7
1070
   176
1070
     7
1070
   178
1070
     7
1070
    78
1070
     8
1070
    48
1040
-0.005
1070
    41
1041
3.175
1070
   147
1041
1.5
1070
    42
1041
1.5875
1070
    44
1041
2.0
1070
   140
1041
3.0
1070
   343
1005
0
1070
   344
1005
0
1002
}
0
DIMENSION
5
119
100
AcDbEntity
8
SK2
62
256
6
ByLayer
370
13
48
1
60
0
100
AcDbDimension
2
DimnDraft3D4
10
130.948636
20
-24.220595
30
0
11
126.698636
21
-0.086842
31
0
70
33
71
5
72
1
41
1
210
0
220
0
230
1
3
Standard
100
AcDbAlignedDimension
13
91.5875
23
24.220595
33
0
14
91.5875
24
-24.220595
34
0
1001
ACAD
1000
DSTYLE
1002
{
1070
   279
1070
     0
1070
    74
1070
     0
1070
   173
1070
     1
1070
   340
1005
D3
1070
   271
1070
     1
1070
   272
1070
     2
1070
    77
1070
     1
1070
    73
1070
     0
1070
   171
1070
     3
1070
   274
1070
     4
1070
   177
1070
     7
1070
   176
1070
     7
1070
   178
1070
     7
1070
    78
1070
     8
1070
    48
1040
-0.005
1070
    41
1041
3.175
1070
   147
1041
1.5
1070
    42
1041
1.5875
1070
    44
1041
2.0
1070
   140
1041
3.0
1070
   343
1005
F5
1070
   344
1005
F5
1002
}
0
DIMENSION
5
127
100
AcDbEntity
8
SK2
62
256
6
ByLayer
370
13
48
1
60
0
100
AcDbDimension
2
DimnDraft3D5
10
90
20
-46.875666
30
0
11
78.207895
21
-46.875666
31
0
70
32
71
5
72
1
41
1
210
0
220
0
230
1
3
Standard
100
AcDbAlignedDimension
13
70
23
-33.0875
33
0
14
90
24
-24.967846
34
0
50
0
100
AcDbRotatedDimension
1001
ACAD
1000
DSTYLE
1002
{
1070
   279
1070
     0
1070
   172
1070
     1
1070
   173
1070
     1
1070
   340
1005
D3
1070
   271
1070
     2
1070
   272
1070
     2
1070
    77
1070
     1
1070
    73
1070
     0
1070
   171
1070
     3
1070
   274
1070
     4
1070
   177
1070
     7
1070
   176
1070
     7
1070
   178
1070
     7
1070
    78
1070
     8
1070
    48
1040
-0.005
1070
    41
1041
3.175
1070
   147
1041
1.5
1070
    42
1041
1.5875
1070
    44
1041
2.0
1070
   140
1041
3.0
1070
   343
1005
0
1070
   344
1005
0
1002
}
0
DIMENSION
5
136
100
AcDbEntity
8
SK2
62
256
6
ByLayer
370
13
48
1
60
0
100
AcDbDimension
2
DimnDraft3D6
10
-60.757043
20
-40
30
0
11
-61.007043
21
1.957895
31
0
70
33
71
5
72
1
41
1
210
0
220
0
230
1
3
Standard
100
AcDbAlignedDimension
13
-1.2875
23
40
33
0
14
-1.2875
24
-40
34
0
1001
ACAD
1000
DSTYLE
1002
{
1070
   279
1070
     0
1070
    74
1070
     0
1070
   173
1070
     1
1070
   340
1005
D3
1070
   271
1070
     2
1070
   272
1070
     2
1070
    77
1070
     1
1070
    73
1070
     0
1070
   171
1070
     3
1070
   274
1070
     4
1070
   177
1070
     7
1070
   176
1070
     7
1070
   178
1070
     7
1070
    78
1070
     8
1070
    48
1040
-0.005
1070
    41
1041
3.175
1070
   147
1041
1.5
1070
    42
1041
1.5875
1070
    44
1041
2.0
1070
   140
1041
3.0
1070
   343
1005
0
1070
   344
1005
0
1002
}
0
DIMENSION
5
144
100
AcDbEntity
8
SK2
62
256
6
ByLayer
370
13
48
1
60
0
100
AcDbDimension
2
DimnDraft3D7
10
0
20
60.267122
30
-0.107107
11
-25.95
21
60.267122
31
0
70
32
71
5
72
1
41
1
210
0
220
0
230
1
3
Standard
100
AcDbAlignedDimension
13
-48
23
26.495833
33
-0.107107
14
0
24
41.2875
34
-0.107107
50
0
100
AcDbRotatedDimension
1001
ACAD
1000
DSTYLE
1002
{
1070
   279
1070
     0
1070
   172
1070
     1
1070
   173
1070
     1
1070
   340
1005
D3
1070
   271
1070
     2
1070
   272
1070
     2
1070
    77
1070
     1
1070
    73
1070
     0
1070
   171
1070
     3
1070
   274
1070
     4
1070
   177
1070
     7
1070
   176
1070
     7
1070
   178
1070
     7
1070
    78
1070
     8
1070
    48
1040
-0.005
1070
    41
1041
3.175
1070
   147
1041
1.5
1070
    42
1041
1.5875
1070
    44
1041
2.0
1070
   140
1041
3.0
1070
   343
1005
0
1070
   344
1005
0
1002
}
0
DIMENSION
5
153
100
AcDbEntity
8
2
62
256
6
ByLayer
370
13
48
1
60
0
100
AcDbDimension
2
DimnDraft3D8
10
90
20
60.469492
30
0
11
43.207895
21
60.469492
31
0
70
32
71
5
72
1
41
1
210
0
220
0
230
1
3
Standard
100
AcDbAlignedDimension
13
0
23
41.2875
33
0
14
90
24
24.967846
34
0
50
0
100
AcDbRotatedDimension
1001
ACAD
1000
DSTYLE
1002
{
1070
   279
1070
     0
1070
   172
1070
     1
1070
   173
1070
     1
1070
   340
1005
D3
1070
   271
1070
     2
1070
   272
1070
     2
1070
    77
1070
     1
1070
    73
1070
     0
1070
   171
1070
     3
1070
   274
1070
     4
1070
   177
1070
     7
1070
   176
1070
     7
1070
   178
1070
     7
1070
    78
1070
     8
1070
    48
1040
-0.005
1070
    41
1041
3.175
1070
   147
1041
1.5
1070
    42
1041
1.5875
1070
    44
1041
2.0
1070
   140
1041
3.0
1070
   343
1005
0
1070
   344
1005
0
1002
}
0
DIMENSION
5
161
100
AcDbEntity
8
SK2
62
256
6
ByLayer
370
13
48
1
60
0
100
AcDbDimension
2
DimnDraft3D9
10
34
20
49.369708
30
0
11
60.207895
21
49.369708
31
0
70
32
71
5
72
1
41
1
210
0
220
0
230
1
3
Standard
100
AcDbAlignedDimension
13
90
23
24.967846
33
0
14
34
24
33.0875
34
0
50
0
100
AcDbRotatedDimension
1001
ACAD
1000
DSTYLE
1002
{
1070
   279
1070
     0
1070
   172
1070
     1
1070
   173
1070
     1
1070
   340
1005
D3
1070
   271
1070
     2
1070
   272
1070
     2
1070
    77
1070
     1
1070
    73
1070
     0
1070
   171
1070
     3
1070
   274
1070
     4
1070
   177
1070
     7
1070
   176
1070
     7
1070
   178
1070
     7
1070
    78
1070
     8
1070
    48
1040
-0.005
1070
    41
1041
3.175
1070
   147
1041
1.5
1070
    42
1041
1.5875
1070
    44
1041
2.0
1070
   140
1041
3.0
1070
   343
1005
0
1070
   344
1005
0
1002
}
0
ENDSEC
0
SECTION
2
OBJECTS
0
DICTIONARY
5
1cf
330
0
100
AcDbDictionary
280
0
281
1
3
ACAD_GROUP
350
1d0
3
ACAD_GROUP
350
1d1
3
ACAD_MLINESTYLE
350
1d2
0
DICTIONARY
5
1d0
330
0
100
AcDbDictionary
280
0
281
1
0
DICTIONARY
5
1d1
330
0
100
AcDbDictionary
280
0
281
1
3
<201201120MOD000_00>
350
16A
0
DICTIONARY
5
1d2
330
0
100
AcDbDictionary
280
0
281
1
3
Standard
350
18
0
GROUP
5
16A
330
1d1
100
AcDbGroup
300

70
0
71
1
340
6C
340
6E
340
70
340
72
340
73
340
74
340
75
340
77
340
78
340
79
340
7A
340
7B
340
7C
340
7D
340
7E
340
7F
340
80
340
81
340
82
340
83
340
84
340
85
340
86
340
88
340
8A
340
8B
340
8C
340
8E
340
8F
340
90
340
91
340
92
340
93
340
94
340
95
340
96
340
97
340
98
340
99
340
9A
340
9B
340
9C
340
9D
340
9E
340
9F
340
A0
340
A1
340
A2
340
A3
340
A4
340
A5
340
A6
340
A7
340
A8
340
A9
340
AA
340
AB
340
AC
340
AD
340
AE
340
AF
340
B0
340
B1
340
B2
340
B3
340
B4
340
B5
340
B6
340
B7
340
B8
340
B9
340
BA
340
BB
340
BC
340
BD
340
BE
340
BF
340
C0
340
C1
340
C2
340
C3
340
C4
340
C5
340
C6
340
C7
340
C8
340
C9
340
CA
340
CB
340
CC
340
CD
340
CE
340
CF
340
D0
340
D1
340
D2
340
E5
340
F4
340
10A
340
119
340
127
340
136
340
144
340
153
340
161
0
MLINESTYLE
5
18
330
1d2
100
AcDbMlineStyle
2
Standard
70
0
3

62
256
51
90
52
90
71
2
49
-0.5
62
256
6
ByLayer
49
0.5
62
256
6
ByLayer
0
RASTERVARIABLES
5
1bb
330

100
AcDbRasterVariables
90
0
70
1
71
1
72
1
0
ENDSEC
0
EOF
