  0
SECTION
  2
HEADER
  9
$ACADVER
  1
AC1018
  9
$ACADMAINTVER
 70
   104
  9
$DWGCODEPAGE
  3
ANSI_1252
  9
$LASTSAVEDBY
  1
titadi
  9
$INSBASE
 10
0.0
 20
0.0
 30
0.0
  9
$EXTMIN
 10
-70.30232066742883
 20
-27.69897344254298
 30
-0.000000000000013
  9
$EXTMAX
 10
74.04536546609051
 20
95.32501301649608
 30
0.0000000000000023
  9
$LIMMIN
 10
-170.0
 20
-170.0
  9
$LIMMAX
 10
519.0
 20
260.0
  9
$ORTHOMODE
 70
     1
  9
$REGENMODE
 70
     1
  9
$FILLMODE
 70
     1
  9
$QTEXTMODE
 70
     0
  9
$MIRRTEXT
 70
     0
  9
$LTSCALE
 40
1.0
  9
$ATTMODE
 70
     1
  9
$TEXTSIZE
 40
3.5
  9
$TRACEWID
 40
1.0
  9
$TEXTSTYLE
  7
SIMPLEX
  9
$CLAYER
  8
1
  9
$CELTYPE
  6
BYLAYER
  9
$CECOLOR
 62
   256
  9
$CELTSCALE
 40
1.0
  9
$DISPSILH
 70
     0
  9
$DIMSCALE
 40
1.0
  9
$DIMASZ
 40
2.5
  9
$DIMEXO
 40
0.0
  9
$DIMDLI
 40
3.75
  9
$DIMRND
 40
0.0
  9
$DIMDLE
 40
0.0
  9
$DIMEXE
 40
1.25
  9
$DIMTP
 40
0.0
  9
$DIMTM
 40
0.0
  9
$DIMTXT
 40
3.5
  9
$DIMCEN
 40
0.0
  9
$DIMTSZ
 40
0.0
  9
$DIMTOL
 70
     0
  9
$DIMLIM
 70
     0
  9
$DIMTIH
 70
     0
  9
$DIMTOH
 70
     0
  9
$DIMSE1
 70
     0
  9
$DIMSE2
 70
     0
  9
$DIMTAD
 70
     1
  9
$DIMZIN
 70
     8
  9
$DIMBLK
  1

  9
$DIMASO
 70
     1
  9
$DIMSHO
 70
     1
  9
$DIMPOST
  1

  9
$DIMAPOST
  1

  9
$DIMALT
 70
     0
  9
$DIMALTD
 70
     3
  9
$DIMALTF
 40
0.039370078
  9
$DIMLFAC
 40
1.0
  9
$DIMTOFL
 70
     0
  9
$DIMTVP
 40
0.0
  9
$DIMTIX
 70
     0
  9
$DIMSOXD
 70
     0
  9
$DIMSAH
 70
     0
  9
$DIMBLK1
  1

  9
$DIMBLK2
  1

  9
$DIMSTYLE
  2
STANDARD
  9
$DIMCLRD
 70
     0
  9
$DIMCLRE
 70
     0
  9
$DIMCLRT
 70
     0
  9
$DIMTFAC
 40
1.0
  9
$DIMGAP
 40
0.625
  9
$DIMJUST
 70
     0
  9
$DIMSD1
 70
     0
  9
$DIMSD2
 70
     0
  9
$DIMTOLJ
 70
     0
  9
$DIMTZIN
 70
     8
  9
$DIMALTZ
 70
     0
  9
$DIMALTTZ
 70
     0
  9
$DIMUPT
 70
     0
  9
$DIMDEC
 70
     2
  9
$DIMTDEC
 70
     2
  9
$DIMALTU
 70
     2
  9
$DIMALTTD
 70
     3
  9
$DIMTXSTY
  7
SIMPLEX
  9
$DIMAUNIT
 70
     0
  9
$DIMADEC
 70
     2
  9
$DIMALTRND
 40
0.0
  9
$DIMAZIN
 70
     2
  9
$DIMDSEP
 70
    46
  9
$DIMATFIT
 70
     3
  9
$DIMFRAC
 70
     0
  9
$DIMLDRBLK
  1

  9
$DIMLUNIT
 70
     2
  9
$DIMLWD
 70
    -2
  9
$DIMLWE
 70
    -2
  9
$DIMTMOVE
 70
     0
  9
$LUNITS
 70
     2
  9
$LUPREC
 70
     4
  9
$SKETCHINC
 40
1.0
  9
$FILLETRAD
 40
3.0
  9
$AUNITS
 70
     0
  9
$AUPREC
 70
     0
  9
$MENU
  1
c:\tdm21\cad\caduti13\tdm13
  9
$ELEVATION
 40
0.0
  9
$PELEVATION
 40
0.0
  9
$THICKNESS
 40
0.0
  9
$LIMCHECK
 70
     0
  9
$CHAMFERA
 40
0.0
  9
$CHAMFERB
 40
0.0
  9
$CHAMFERC
 40
0.0
  9
$CHAMFERD
 40
0.0
  9
$SKPOLY
 70
     0
  9
$TDCREATE
 40
2454957.593642639
  9
$TDUCREATE
 40
2454957.510309306
  9
$TDUPDATE
 40
2457913.500327419
  9
$TDUUPDATE
 40
2457913.416994086
  9
$TDINDWG
 40
0.0261207292
  9
$TDUSRTIMER
 40
0.0261036574
  9
$USRTIMER
 70
     1
  9
$ANGBASE
 50
0.0
  9
$ANGDIR
 70
     0
  9
$PDMODE
 70
     1
  9
$PDSIZE
 40
0.0
  9
$PLINEWID
 40
0.0
  9
$SPLFRAME
 70
     0
  9
$SPLINETYPE
 70
     6
  9
$SPLINESEGS
 70
     8
  9
$HANDSEED
  5
BB3
  9
$SURFTAB1
 70
     6
  9
$SURFTAB2
 70
     6
  9
$SURFTYPE
 70
     6
  9
$SURFU
 70
     6
  9
$SURFV
 70
     6
  9
$UCSBASE
  2

  9
$UCSNAME
  2

  9
$UCSORG
 10
0.0
 20
0.0
 30
0.0
  9
$UCSXDIR
 10
1.0
 20
0.0
 30
0.0
  9
$UCSYDIR
 10
0.0
 20
1.0
 30
0.0
  9
$UCSORTHOREF
  2

  9
$UCSORTHOVIEW
 70
     0
  9
$UCSORGTOP
 10
0.0
 20
0.0
 30
0.0
  9
$UCSORGBOTTOM
 10
0.0
 20
0.0
 30
0.0
  9
$UCSORGLEFT
 10
0.0
 20
0.0
 30
0.0
  9
$UCSORGRIGHT
 10
0.0
 20
0.0
 30
0.0
  9
$UCSORGFRONT
 10
0.0
 20
0.0
 30
0.0
  9
$UCSORGBACK
 10
0.0
 20
0.0
 30
0.0
  9
$PUCSBASE
  2

  9
$PUCSNAME
  2

  9
$PUCSORG
 10
0.0
 20
0.0
 30
0.0
  9
$PUCSXDIR
 10
1.0
 20
0.0
 30
0.0
  9
$PUCSYDIR
 10
0.0
 20
1.0
 30
0.0
  9
$PUCSORTHOREF
  2

  9
$PUCSORTHOVIEW
 70
     0
  9
$PUCSORGTOP
 10
0.0
 20
0.0
 30
0.0
  9
$PUCSORGBOTTOM
 10
0.0
 20
0.0
 30
0.0
  9
$PUCSORGLEFT
 10
0.0
 20
0.0
 30
0.0
  9
$PUCSORGRIGHT
 10
0.0
 20
0.0
 30
0.0
  9
$PUCSORGFRONT
 10
0.0
 20
0.0
 30
0.0
  9
$PUCSORGBACK
 10
0.0
 20
0.0
 30
0.0
  9
$USERI1
 70
     0
  9
$USERI2
 70
     0
  9
$USERI3
 70
     0
  9
$USERI4
 70
     0
  9
$USERI5
 70
     0
  9
$USERR1
 40
0.0
  9
$USERR2
 40
0.0
  9
$USERR3
 40
0.0
  9
$USERR4
 40
0.0
  9
$USERR5
 40
0.0
  9
$WORLDVIEW
 70
     1
  9
$SHADEDGE
 70
     3
  9
$SHADEDIF
 70
    70
  9
$TILEMODE
 70
     1
  9
$MAXACTVP
 70
    64
  9
$PINSBASE
 10
0.0
 20
0.0
 30
0.0
  9
$PLIMCHECK
 70
     0
  9
$PEXTMIN
 10
0.0
 20
0.0
 30
0.0
  9
$PEXTMAX
 10
0.0
 20
0.0
 30
0.0
  9
$PLIMMIN
 10
0.0
 20
0.0
  9
$PLIMMAX
 10
12.0
 20
9.0
  9
$UNITMODE
 70
     0
  9
$VISRETAIN
 70
     0
  9
$PLINEGEN
 70
     0
  9
$PSLTSCALE
 70
     1
  9
$TREEDEPTH
 70
  3020
  9
$CMLSTYLE
  2
STANDARD
  9
$CMLJUST
 70
     0
  9
$CMLSCALE
 40
20.0
  9
$PROXYGRAPHICS
 70
     1
  9
$MEASUREMENT
 70
     1
  9
$CELWEIGHT
370
    -1
  9
$ENDCAPS
280
     0
  9
$JOINSTYLE
280
     0
  9
$LWDISPLAY
290
     0
  9
$INSUNITS
 70
     4
  9
$HYPERLINKBASE
  1

  9
$STYLESHEET
  1
MONOCHROME.CTB
  9
$XEDIT
290
     1
  9
$CEPSNTYPE
380
     0
  9
$PSTYLEMODE
290
     1
  9
$FINGERPRINTGUID
  2
{46B44192-1510-48B1-B61B-CBE2ADA013A7}
  9
$VERSIONGUID
  2
{A6DFFDF7-6B4E-4E0F-910E-F0474719F499}
  9
$EXTNAMES
290
     1
  9
$PSVPSCALE
 40
0.0
  9
$OLESTARTUP
290
     0
  9
$SORTENTS
280
   127
  9
$INDEXCTL
280
     0
  9
$HIDETEXT
280
     1
  9
$XCLIPFRAME
290
     0
  9
$HALOGAP
280
     0
  9
$OBSCOLOR
 70
   257
  9
$OBSLTYPE
280
     0
  9
$INTERSECTIONDISPLAY
280
     0
  9
$INTERSECTIONCOLOR
 70
   257
  9
$DIMASSOC
280
     2
  9
$PROJECTNAME
  1

  0
ENDSEC
  0
SECTION
  2
CLASSES
  0
CLASS
  1
ACDBDICTIONARYWDFLT
  2
AcDbDictionaryWithDefault
  3
ObjectDBX Classes
 90
        0
 91
        1
280
     0
281
     0
  0
CLASS
  1
DICTIONARYVAR
  2
AcDbDictionaryVar
  3
ObjectDBX Classes
 90
        0
 91
       12
280
     0
281
     0
  0
CLASS
  1
TABLESTYLE
  2
AcDbTableStyle
  3
ObjectDBX Classes
 90
     4095
 91
        1
280
     0
281
     0
  0
CLASS
  1
SCALE
  2
AcDbScale
  3
ObjectDBX Classes
 90
     1153
 91
       33
280
     0
281
     0
  0
CLASS
  1
MATERIAL
  2
AcDbMaterial
  3
ObjectDBX Classes
 90
     1153
 91
        3
280
     0
281
     0
  0
CLASS
  1
VISUALSTYLE
  2
AcDbVisualStyle
  3
ObjectDBX Classes
 90
     4095
 91
       26
280
     0
281
     0
  0
CLASS
  1
MLEADERSTYLE
  2
AcDbMLeaderStyle
  3
ACDB_MLEADERSTYLE_CLASS
 90
     4095
 91
        1
280
     0
281
     0
  0
CLASS
  1
CELLSTYLEMAP
  2
AcDbCellStyleMap
  3
ObjectDBX Classes
 90
     1152
 91
        2
280
     0
281
     0
  0
CLASS
  1
ACDBSECTIONVIEWSTYLE
  2
AcDbSectionViewStyle
  3
ObjectDBX Classes
 90
     1025
 91
        1
280
     0
281
     0
  0
CLASS
  1
ACDBDETAILVIEWSTYLE
  2
AcDbDetailViewStyle
  3
ObjectDBX Classes
 90
     1025
 91
        1
280
     0
281
     0
  0
CLASS
  1
DIMASSOC
  2
AcDbDimAssoc
  3
"AcDbDimAssoc|Product Desc:     AcDim ARX App For Dimension|Company:          Autodesk, Inc.|WEB Address:      www.autodesk.com"
 90
        0
 91
        2
280
     0
281
     0
  0
CLASS
  1
SORTENTSTABLE
  2
AcDbSortentsTable
  3
ObjectDBX Classes
 90
        0
 91
        1
280
     0
281
     0
  0
ENDSEC
  0
SECTION
  2
TABLES
  0
TABLE
  2
VPORT
  5
8
330
0
100
AcDbSymbolTable
 70
     1
  0
VPORT
  5
39A
330
8
100
AcDbSymbolTableRecord
100
AcDbViewportTableRecord
  2
*Active
 70
     0
 10
0.0
 20
0.0
 11
1.0
 21
1.0
 12
1.871522399330856
 22
33.81301978697655
 13
0.0
 23
0.0
 14
5.0
 24
5.0
 15
5.0
 25
5.0
 16
0.0
 26
0.0
 36
1.0
 17
0.0
 27
0.0
 37
0.0
 40
123.9208806495059
 41
2.329683698296836
 42
50.0
 43
0.0
 44
0.0
 50
0.0
 51
0.0
 71
     0
 72
  2000
 73
     1
 74
     1
 75
     0
 76
     0
 77
     0
 78
     0
281
     0
 65
     1
110
0.0
120
0.0
130
0.0
111
1.0
121
0.0
131
0.0
112
0.0
122
1.0
132
0.0
 79
     0
146
0.0
1001
ACAD_NAV_VCDISPLAY
1070
     3
  0
ENDTAB
  0
TABLE
  2
LTYPE
  5
5
330
0
100
AcDbSymbolTable
 70
     3
  0
LTYPE
  5
12
330
5
100
AcDbSymbolTableRecord
100
AcDbLinetypeTableRecord
  2
BYBLOCK
 70
     0
  3

 72
    65
 73
     0
 40
0.0
  0
LTYPE
  5
13
330
5
100
AcDbSymbolTableRecord
100
AcDbLinetypeTableRecord
  2
BYLAYER
 70
     0
  3

 72
    65
 73
     0
 40
0.0
  0
LTYPE
  5
14
330
5
100
AcDbSymbolTableRecord
100
AcDbLinetypeTableRecord
  2
CONTINUOUS
 70
     0
  3
Solid line
 72
    65
 73
     0
 40
0.0
  0
LTYPE
  5
20
330
5
100
AcDbSymbolTableRecord
100
AcDbLinetypeTableRecord
  2
HIDDEN
 70
     0
  3
Hidden __ __ __ __ __ __ __ __ __ __ __ __ __ _
 72
    65
 73
     2
 40
9.524999999999996
 49
6.349999999999997
 74
     0
 49
-3.174999999999998
 74
     0
  0
LTYPE
  5
351
330
5
100
AcDbSymbolTableRecord
100
AcDbLinetypeTableRecord
  2
CENTER
 70
     0
  3
Dash dot __ . __ . __ . __ . __ . __ . __ . __
 72
    65
 73
     4
 40
25.4
 49
12.7
 74
     0
 49
-6.349999999999997
 74
     0
 49
0.0
 74
     0
 49
-6.349999999999997
 74
     0
  0
ENDTAB
  0
TABLE
  2
LAYER
  5
2
102
{ACAD_XDICTIONARY
360
6FF
102
}
330
0
100
AcDbSymbolTable
 70
    16
  0
LAYER
  5
F
102
{ACAD_XDICTIONARY
360
664
102
}
330
2
100
AcDbSymbolTableRecord
100
AcDbLayerTableRecord
  2
0
 70
     0
 62
     7
  6
CONTINUOUS
370
    -3
390
300
  0
LAYER
  5
23
102
{ACAD_XDICTIONARY
360
666
102
}
330
2
100
AcDbSymbolTableRecord
100
AcDbLayerTableRecord
  2
1
 70
     0
 62
     4
  6
CONTINUOUS
370
    -3
390
300
  0
LAYER
  5
24
102
{ACAD_XDICTIONARY
360
668
102
}
330
2
100
AcDbSymbolTableRecord
100
AcDbLayerTableRecord
  2
SK1
 70
     0
 62
     4
  6
CONTINUOUS
370
    -3
390
300
  0
LAYER
  5
25
102
{ACAD_XDICTIONARY
360
66A
102
}
330
2
100
AcDbSymbolTableRecord
100
AcDbLayerTableRecord
  2
2
 70
     0
 62
     7
  6
CONTINUOUS
370
    -3
390
300
  0
LAYER
  5
26
102
{ACAD_XDICTIONARY
360
66C
102
}
330
2
100
AcDbSymbolTableRecord
100
AcDbLayerTableRecord
  2
2L
 70
     0
 62
     7
  6
CONTINUOUS
370
    -3
390
300
  0
LAYER
  5
27
102
{ACAD_XDICTIONARY
360
66E
102
}
330
2
100
AcDbSymbolTableRecord
100
AcDbLayerTableRecord
  2
SK2
 70
     0
 62
     7
  6
CONTINUOUS
370
    -3
390
300
  0
LAYER
  5
28
102
{ACAD_XDICTIONARY
360
670
102
}
330
2
100
AcDbSymbolTableRecord
100
AcDbLayerTableRecord
  2
3
 70
     0
 62
     1
  6
HIDDEN
370
    -3
390
300
  0
LAYER
  5
29
102
{ACAD_XDICTIONARY
360
672
102
}
330
2
100
AcDbSymbolTableRecord
100
AcDbLayerTableRecord
  2
SK3
 70
     0
 62
     1
  6
HIDDEN
370
    -3
390
300
  0
LAYER
  5
2A
102
{ACAD_XDICTIONARY
360
674
102
}
330
2
100
AcDbSymbolTableRecord
100
AcDbLayerTableRecord
  2
4
 70
     0
 62
     2
  6
CENTER
370
    -3
390
300
  0
LAYER
  5
2B
102
{ACAD_XDICTIONARY
360
676
102
}
330
2
100
AcDbSymbolTableRecord
100
AcDbLayerTableRecord
  2
SK4
 70
     0
 62
     2
  6
CENTER
370
    -3
390
300
  0
LAYER
  5
2C
102
{ACAD_XDICTIONARY
360
678
102
}
330
2
100
AcDbSymbolTableRecord
100
AcDbLayerTableRecord
  2
5
 70
     0
 62
    -7
  6
CONTINUOUS
370
    -3
390
300
  0
LAYER
  5
2D
102
{ACAD_XDICTIONARY
360
67A
102
}
330
2
100
AcDbSymbolTableRecord
100
AcDbLayerTableRecord
  2
6
 70
     0
 62
     5
  6
CONTINUOUS
370
    -3
390
300
  0
LAYER
  5
2E
102
{ACAD_XDICTIONARY
360
67C
102
}
330
2
100
AcDbSymbolTableRecord
100
AcDbLayerTableRecord
  2
SK6
 70
     0
 62
     5
  6
CONTINUOUS
370
    -3
390
300
  0
LAYER
  5
2F
330
2
100
AcDbSymbolTableRecord
100
AcDbLayerTableRecord
  2
DEFPOINTS
 70
     0
 62
     7
  6
CONTINUOUS
290
     0
370
    -3
390
300
  0
LAYER
  5
375
102
{ACAD_XDICTIONARY
360
67E
102
}
330
2
100
AcDbSymbolTableRecord
100
AcDbLayerTableRecord
  2
CUT
 70
     0
 62
     1
  6
CONTINUOUS
370
    -3
390
300
  0
LAYER
  5
376
102
{ACAD_XDICTIONARY
360
680
102
}
330
2
100
AcDbSymbolTableRecord
100
AcDbLayerTableRecord
  2
NOCUT
 70
     0
 62
     7
  6
CONTINUOUS
370
    -3
390
300
  0
ENDTAB
  0
TABLE
  2
STYLE
  5
3
330
0
100
AcDbSymbolTable
 70
     5
  0
STYLE
  5
10
330
3
100
AcDbSymbolTableRecord
100
AcDbTextStyleTableRecord
  2
STANDARD
 70
     0
 40
0.0
 41
1.0
 50
0.0
 71
     0
 42
5.0
  3
txt
  4

  0
STYLE
  5
1D
330
3
100
AcDbSymbolTableRecord
100
AcDbTextStyleTableRecord
  2
TXT
 70
     0
 40
8.0
 41
1.0
 50
0.0
 71
     0
 42
8.0
  3
txt
  4

  0
STYLE
  5
1E
330
3
100
AcDbSymbolTableRecord
100
AcDbTextStyleTableRecord
  2
SIMPLEX
 70
     0
 40
0.0
 41
1.0
 50
0.0
 71
     0
 42
3.5
  3
simplex
  4

  0
STYLE
  5
34C
330
3
100
AcDbSymbolTableRecord
100
AcDbTextStyleTableRecord
  2

 70
     1
 40
0.0
 41
1.0
 50
0.0
 71
     0
 42
2.5
  3
ltypeshp.shx
  4

  0
STYLE
  5
6FC
330
3
100
AcDbSymbolTableRecord
100
AcDbTextStyleTableRecord
  2
SANDVIK_STYLE
 70
     0
 40
3.0
 41
1.0
 50
0.0
 71
     0
 42
3.0
  3
simplex.shx
  4

  0
ENDTAB
  0
TABLE
  2
VIEW
  5
6
330
0
100
AcDbSymbolTable
 70
     0
  0
ENDTAB
  0
TABLE
  2
UCS
  5
7
330
0
100
AcDbSymbolTable
 70
     0
  0
ENDTAB
  0
TABLE
  2
APPID
  5
9
330
0
100
AcDbSymbolTable
 70
     5
  0
APPID
  5
11
330
9
100
AcDbSymbolTableRecord
100
AcDbRegAppTableRecord
  2
ACAD
 70
     0
  0
APPID
  5
695
330
9
100
AcDbSymbolTableRecord
100
AcDbRegAppTableRecord
  2
ACAD_MLEADERVER
 70
     0
  0
APPID
  5
6FE
330
9
100
AcDbSymbolTableRecord
100
AcDbRegAppTableRecord
  2
ACAD_NAV_VCDISPLAY
 70
     0
  0
APPID
  5
8CD
330
9
100
AcDbSymbolTableRecord
100
AcDbRegAppTableRecord
  2
ACAD_EXEMPT_FROM_CAD_STANDARDS
 70
     0
  0
APPID
  5
93D
330
9
100
AcDbSymbolTableRecord
100
AcDbRegAppTableRecord
  2
ACAD_DSTYLE_DIMRADIAL_EXTENSION
 70
     0
  0
ENDTAB
  0
TABLE
  2
DIMSTYLE
  5
A
330
0
100
AcDbSymbolTable
 70
     2
100
AcDbDimStyleTable
 71
     2
340
3F
340
6FD
  0
DIMSTYLE
105
3F
330
A
100
AcDbSymbolTableRecord
100
AcDbDimStyleTableRecord
  2
STANDARD
 70
     0
 41
2.5
 42
0.0
 43
3.75
 44
1.25
 73
     0
 74
     0
 77
     1
 78
     8
 79
     2
140
3.5
141
0.0
143
0.039370078
147
0.625
171
     3
179
     2
271
     2
272
     2
274
     3
283
     0
284
     8
340
1E
  0
DIMSTYLE
105
6FD
102
{ACAD_REACTORS
330
707
330
705
330
703
330
708
330
706
330
704
330
702
330
5F6
330
5DC
330
5B5
330
5A8
330
5E9
330
5CF
330
8AC
330
93E
102
}
330
A
100
AcDbSymbolTableRecord
100
AcDbDimStyleTableRecord
  2
SANDVIK_DIM
 70
     0
  4
 
 40
0.0
 41
4.57
 42
0.0
 44
5.0
 73
     0
 74
     0
 77
     1
 78
     8
140
4.5
147
2.299999999999998
176
   256
177
   256
178
   256
271
     2
272
     2
279
     2
340
6FC
  0
ENDTAB
  0
TABLE
  2
BLOCK_RECORD
  5
1
330
0
100
AcDbSymbolTable
 70
    18
  0
BLOCK_RECORD
  5
18
102
{ACAD_XDICTIONARY
360
915
102
}
330
1
100
AcDbSymbolTableRecord
100
AcDbBlockTableRecord
  2
*MODEL_SPACE
340
303
  0
BLOCK_RECORD
  5
338
330
1
100
AcDbSymbolTableRecord
100
AcDbBlockTableRecord
  2
*Paper_Space
340
33B
  0
BLOCK_RECORD
  5
5A9
330
1
100
AcDbSymbolTableRecord
100
AcDbBlockTableRecord
  2
*D0
340
0
  0
BLOCK_RECORD
  5
5B6
330
1
100
AcDbSymbolTableRecord
100
AcDbBlockTableRecord
  2
*D1
340
0
  0
BLOCK_RECORD
  5
5C3
330
1
100
AcDbSymbolTableRecord
100
AcDbBlockTableRecord
  2
*D2
340
0
  0
BLOCK_RECORD
  5
5D0
330
1
100
AcDbSymbolTableRecord
100
AcDbBlockTableRecord
  2
*D3
340
0
  0
BLOCK_RECORD
  5
5DD
330
1
100
AcDbSymbolTableRecord
100
AcDbBlockTableRecord
  2
*D4
340
0
  0
BLOCK_RECORD
  5
5EA
330
1
100
AcDbSymbolTableRecord
100
AcDbBlockTableRecord
  2
*D5
340
0
  0
BLOCK_RECORD
  5
5F7
330
1
100
AcDbSymbolTableRecord
100
AcDbBlockTableRecord
  2
*D6
340
0
  0
BLOCK_RECORD
  5
604
330
1
100
AcDbSymbolTableRecord
100
AcDbBlockTableRecord
  2
*D7
340
0
  0
BLOCK_RECORD
  5
6A7
330
1
100
AcDbSymbolTableRecord
100
AcDbBlockTableRecord
  2
*D8
340
0
  0
BLOCK_RECORD
  5
6B4
330
1
100
AcDbSymbolTableRecord
100
AcDbBlockTableRecord
  2
*D9
340
0
  0
BLOCK_RECORD
  5
6C0
330
1
100
AcDbSymbolTableRecord
100
AcDbBlockTableRecord
  2
*D10
340
0
  0
BLOCK_RECORD
  5
6CD
330
1
100
AcDbSymbolTableRecord
100
AcDbBlockTableRecord
  2
*D11
340
0
  0
BLOCK_RECORD
  5
6D9
330
1
100
AcDbSymbolTableRecord
100
AcDbBlockTableRecord
  2
*D12
340
0
  0
BLOCK_RECORD
  5
6E6
330
1
100
AcDbSymbolTableRecord
100
AcDbBlockTableRecord
  2
*D13
340
0
  0
BLOCK_RECORD
  5
6F2
330
1
100
AcDbSymbolTableRecord
100
AcDbBlockTableRecord
  2
*D14
340
0
  0
BLOCK_RECORD
  5
701
330
1
100
AcDbSymbolTableRecord
100
AcDbBlockTableRecord
  2
A$C11907BDF
340
0
1001
ACAD
1000
DesignCenter Data
1002
{
1070
     1
1070
     4
1002
}
  0
BLOCK_RECORD
  5
8AD
330
1
100
AcDbSymbolTableRecord
100
AcDbBlockTableRecord
  2
*D16
340
0
  0
BLOCK_RECORD
  5
93F
330
1
100
AcDbSymbolTableRecord
100
AcDbBlockTableRecord
  2
*D17
340
0
  0
ENDTAB
  0
ENDSEC
  0
SECTION
  2
BLOCKS
  0
BLOCK
  5
32
330
18
100
AcDbEntity
  8
0
100
AcDbBlockBegin
  2
*MODEL_SPACE
 70
     0
 10
0.0
 20
0.0
 30
0.0
  3
*MODEL_SPACE
  1

  0
ENDBLK
  5
33
330
18
100
AcDbEntity
  8
0
100
AcDbBlockEnd
  0
BLOCK
  5
339
330
338
100
AcDbEntity
 67
     1
  8
0
100
AcDbBlockBegin
  2
*Paper_Space
 70
     0
 10
0.0
 20
0.0
 30
0.0
  3
*Paper_Space
  1

  0
ENDBLK
  5
33A
330
338
100
AcDbEntity
 67
     1
  8
0
100
AcDbBlockEnd
  0
BLOCK
  5
5AA
330
5A9
100
AcDbEntity
  8
0
100
AcDbBlockBegin
  2
*D0
 70
     1
 10
0.0
 20
0.0
 30
0.0
  3
*D0
  1

  0
LINE
  5
81B
330
5A9
100
AcDbEntity
  8
2
440
 16777216
370
    -2
100
AcDbLine
 10
54.0
 20
10.0
 30
0.0
 11
74.00000000000003
 21
9.999999999999994
 31
0.0
  0
LINE
  5
81C
330
5A9
100
AcDbEntity
  8
2
440
 16777216
370
    -2
100
AcDbLine
 10
54.0
 20
-10.0
 30
0.0
 11
74.00000000000003
 21
-10.0
 31
0.0
  0
LINE
  5
81D
330
5A9
100
AcDbEntity
  8
2
440
 16777216
370
    -2
100
AcDbLine
 10
69.00000000000003
 20
5.429999999999995
 30
0.0
 11
69.00000000000003
 21
-5.430000000000002
 31
0.0
  0
SOLID
  5
81E
330
5A9
100
AcDbEntity
  8
2
440
 16777216
100
AcDbTrace
 10
68.23833333333336
 20
5.429999999999995
 30
0.0
 11
69.7616666666667
 21
5.429999999999995
 31
0.0
 12
69.00000000000003
 22
9.999999999999994
 32
0.0
 13
69.00000000000003
 23
9.999999999999994
 33
0.0
  0
SOLID
  5
81F
330
5A9
100
AcDbEntity
  8
2
440
 16777216
100
AcDbTrace
 10
68.23833333333336
 20
-5.430000000000002
 30
0.0
 11
69.7616666666667
 21
-5.430000000000002
 31
0.0
 12
69.00000000000003
 22
-10.0
 32
0.0
 13
69.00000000000003
 23
-10.0
 33
0.0
  0
MTEXT
  5
820
330
5A9
100
AcDbEntity
  8
2
440
 16777216
100
AcDbMText
 10
65.20000000000003
 20
0.0000000000000069
 30
0.0
 40
3.0
 41
0.0
 71
     5
 72
     1
  1
\A1;%%c20
  7
SANDVIK_STYLE
 11
0.0000000000000001
 21
1.0
 31
0.0
 73
     1
 44
1.0
  0
POINT
  5
821
330
5A9
100
AcDbEntity
  8
DEFPOINTS
 62
     0
440
 16777216
100
AcDbPoint
 10
54.0
 20
10.0
 30
0.0
  0
POINT
  5
822
330
5A9
100
AcDbEntity
  8
DEFPOINTS
 62
     0
440
 16777216
100
AcDbPoint
 10
54.0
 20
-10.0
 30
0.0
  0
POINT
  5
823
330
5A9
100
AcDbEntity
  8
DEFPOINTS
 62
     0
440
 16777216
100
AcDbPoint
 10
69.00000000000003
 20
-10.0
 30
0.0
  0
ENDBLK
  5
5AB
330
5A9
100
AcDbEntity
  8
0
100
AcDbBlockEnd
  0
BLOCK
  5
5B7
330
5B6
100
AcDbEntity
  8
0
100
AcDbBlockBegin
  2
*D1
 70
     1
 10
0.0
 20
0.0
 30
0.0
  3
*D1
  1

  0
LINE
  5
B53
330
5B6
100
AcDbEntity
  8
2
440
 16777216
370
    -2
100
AcDbLine
 10
0.0
 20
0.0
 30
0.0
 11
0.0000000000000049
 21
80.0
 31
0.0
  0
LINE
  5
B54
330
5B6
100
AcDbEntity
  8
2
440
 16777216
370
    -2
100
AcDbLine
 10
53.99999999999999
 20
0.0
 30
0.0
 11
54.0
 21
80.0
 31
0.0
  0
LINE
  5
B55
330
5B6
100
AcDbEntity
  8
2
440
 16777216
370
    -2
100
AcDbLine
 10
4.570000000000004
 20
75.0
 30
0.0
 11
49.43
 21
75.0
 31
0.0
  0
SOLID
  5
B56
330
5B6
100
AcDbEntity
  8
2
440
 16777216
100
AcDbTrace
 10
4.570000000000004
 20
75.76166666666667
 30
0.0
 11
4.570000000000004
 21
74.23833333333333
 31
0.0
 12
0.0000000000000046
 22
75.0
 32
0.0
 13
0.0000000000000046
 23
75.0
 33
0.0
  0
SOLID
  5
B57
330
5B6
100
AcDbEntity
  8
2
440
 16777216
100
AcDbTrace
 10
49.43
 20
75.76166666666667
 30
0.0
 11
49.43
 21
74.23833333333333
 31
0.0
 12
54.0
 22
75.0
 32
0.0
 13
54.0
 23
75.0
 33
0.0
  0
MTEXT
  5
B58
330
5B6
100
AcDbEntity
  8
2
440
 16777216
100
AcDbMText
 10
27.00000000000001
 20
78.79999999999999
 30
0.0
 40
3.0
 41
0.0
 71
     5
 72
     1
  1
\A1;54
  7
SANDVIK_STYLE
 73
     1
 44
1.0
  0
POINT
  5
B59
330
5B6
100
AcDbEntity
  8
DEFPOINTS
 62
     0
440
 16777216
100
AcDbPoint
 10
0.0
 20
0.0
 30
0.0
  0
POINT
  5
B5A
330
5B6
100
AcDbEntity
  8
DEFPOINTS
 62
     0
440
 16777216
100
AcDbPoint
 10
53.99999999999999
 20
0.0
 30
0.0
  0
POINT
  5
B5B
330
5B6
100
AcDbEntity
  8
DEFPOINTS
 62
     0
440
 16777216
100
AcDbPoint
 10
54.0
 20
75.0
 30
0.0
  0
ENDBLK
  5
5B8
330
5B6
100
AcDbEntity
  8
0
100
AcDbBlockEnd
  0
BLOCK
  5
5C4
330
5C3
100
AcDbEntity
  8
0
100
AcDbBlockBegin
  2
*D2
 70
     1
 10
0.0
 20
0.0
 30
0.0
  3
*D2
  1

  0
LINE
  5
5C6
330
5C3
100
AcDbEntity
  8
2
 62
     0
370
    -2
100
AcDbLine
 10
12.0
 20
10.0
 30
0.0
 11
12.0
 21
46.25
 31
0.0
  0
LINE
  5
5C7
330
5C3
100
AcDbEntity
  8
2
 62
     0
370
    -2
100
AcDbLine
 10
54.0
 20
10.0
 30
0.0
 11
54.0
 21
46.25
 31
0.0
  0
LINE
  5
5C8
330
5C3
100
AcDbEntity
  8
2
 62
     0
370
    -2
100
AcDbLine
 10
14.5
 20
45.0
 30
0.0
 11
51.5
 21
45.0
 31
0.0
  0
SOLID
  5
5C9
330
5C3
100
AcDbEntity
  8
2
 62
     0
100
AcDbTrace
 10
14.5
 20
45.41666666666666
 30
0.0
 11
14.5
 21
44.58333333333334
 31
0.0
 12
12.0
 22
45.0
 32
0.0
 13
12.0
 23
45.0
 33
0.0
  0
SOLID
  5
5CA
330
5C3
100
AcDbEntity
  8
2
 62
     0
100
AcDbTrace
 10
51.5
 20
44.58333333333334
 30
0.0
 11
51.5
 21
45.41666666666666
 31
0.0
 12
54.0
 22
45.0
 32
0.0
 13
54.0
 23
45.0
 33
0.0
  0
MTEXT
  5
5CB
330
5C3
100
AcDbEntity
  8
2
 62
     0
100
AcDbMText
 10
33.0
 20
47.431
 30
0.0
 40
3.5
 41
0.0
 71
     5
 72
     1
  1
42
  7
SIMPLEX
 73
     1
 44
1.0
  0
POINT
  5
5CC
330
5C3
100
AcDbEntity
  8
DEFPOINTS
 62
     0
100
AcDbPoint
 10
12.0
 20
10.0
 30
0.0
  0
POINT
  5
5CD
330
5C3
100
AcDbEntity
  8
DEFPOINTS
 62
     0
100
AcDbPoint
 10
54.0
 20
10.0
 30
0.0
  0
POINT
  5
5CE
330
5C3
100
AcDbEntity
  8
DEFPOINTS
 62
     0
100
AcDbPoint
 10
54.0
 20
45.0
 30
0.0
  0
ENDBLK
  5
5C5
330
5C3
100
AcDbEntity
  8
0
100
AcDbBlockEnd
  0
BLOCK
  5
5D1
330
5D0
100
AcDbEntity
  8
0
100
AcDbBlockBegin
  2
*D3
 70
     1
 10
0.0
 20
0.0
 30
0.0
  3
*D3
  1

  0
LINE
  5
834
330
5D0
100
AcDbEntity
  8
SK2
440
 16777216
370
    -2
100
AcDbLine
 10
-50.0
 20
10.0
 30
0.0
 11
-69.99999999994897
 21
10.0
 31
0.0
  0
LINE
  5
835
330
5D0
100
AcDbEntity
  8
SK2
440
 16777216
370
    -2
100
AcDbLine
 10
-50.0
 20
-10.0
 30
0.0
 11
-69.99999999994897
 21
-9.999999999999991
 31
0.0
  0
LINE
  5
836
330
5D0
100
AcDbEntity
  8
SK2
440
 16777216
370
    -2
100
AcDbLine
 10
-64.99999999994897
 20
5.430000000000005
 30
0.0
 11
-64.99999999994897
 21
-5.429999999999994
 31
0.0
  0
SOLID
  5
837
330
5D0
100
AcDbEntity
  8
SK2
440
 16777216
100
AcDbTrace
 10
-65.76166666661563
 20
5.430000000000005
 30
0.0
 11
-64.2383333332823
 21
5.430000000000005
 31
0.0
 12
-64.99999999994897
 22
10.0
 32
0.0
 13
-64.99999999994897
 23
10.0
 33
0.0
  0
SOLID
  5
838
330
5D0
100
AcDbEntity
  8
SK2
440
 16777216
100
AcDbTrace
 10
-65.76166666661563
 20
-5.429999999999994
 30
0.0
 11
-64.2383333332823
 21
-5.429999999999994
 31
0.0
 12
-64.99999999994897
 22
-9.999999999999994
 32
0.0
 13
-64.99999999994897
 23
-9.999999999999994
 33
0.0
  0
MTEXT
  5
839
330
5D0
100
AcDbEntity
  8
SK2
440
 16777216
100
AcDbMText
 10
-68.79999999994897
 20
-0.0000000000000044
 30
0.0
 40
3.0
 41
0.0
 71
     5
 72
     1
  1
\A1;%%c20
  7
SANDVIK_STYLE
 11
0.0000000000000001
 21
1.0
 31
0.0
 73
     1
 44
1.0
  0
POINT
  5
83A
330
5D0
100
AcDbEntity
  8
DEFPOINTS
 62
     0
440
 16777216
100
AcDbPoint
 10
-50.0
 20
10.0
 30
0.0
  0
POINT
  5
83B
330
5D0
100
AcDbEntity
  8
DEFPOINTS
 62
     0
440
 16777216
100
AcDbPoint
 10
-50.0
 20
-10.0
 30
0.0
  0
POINT
  5
83C
330
5D0
100
AcDbEntity
  8
DEFPOINTS
 62
     0
440
 16777216
100
AcDbPoint
 10
-64.99999999994897
 20
-9.999999999999994
 30
0.0
  0
ENDBLK
  5
5D2
330
5D0
100
AcDbEntity
  8
0
100
AcDbBlockEnd
  0
BLOCK
  5
5DE
330
5DD
100
AcDbEntity
  8
0
100
AcDbBlockBegin
  2
*D4
 70
     1
 10
0.0
 20
0.0
 30
0.0
  3
*D4
  1

  0
LINE
  5
B5C
330
5DD
100
AcDbEntity
  8
SK2
440
 16777216
370
    -2
100
AcDbLine
 10
-50.0
 20
0.0
 30
0.0
 11
-50.0
 21
95.0
 31
0.0
  0
LINE
  5
B5D
330
5DD
100
AcDbEntity
  8
SK2
440
 16777216
370
    -2
100
AcDbLine
 10
53.99999999999999
 20
0.0
 30
0.0
 11
54.0
 21
95.0
 31
0.0
  0
LINE
  5
B5E
330
5DD
100
AcDbEntity
  8
SK2
440
 16777216
370
    -2
100
AcDbLine
 10
-45.42999999999999
 20
90.0
 30
0.0
 11
49.43
 21
90.0
 31
0.0
  0
SOLID
  5
B5F
330
5DD
100
AcDbEntity
  8
SK2
440
 16777216
100
AcDbTrace
 10
-45.42999999999999
 20
90.76166666666667
 30
0.0
 11
-45.42999999999999
 21
89.23833333333332
 31
0.0
 12
-50.0
 22
90.0
 32
0.0
 13
-50.0
 23
90.0
 33
0.0
  0
SOLID
  5
B60
330
5DD
100
AcDbEntity
  8
SK2
440
 16777216
100
AcDbTrace
 10
49.43
 20
90.76166666666667
 30
0.0
 11
49.43
 21
89.23833333333332
 31
0.0
 12
54.0
 22
90.0
 32
0.0
 13
54.0
 23
90.0
 33
0.0
  0
MTEXT
  5
B61
330
5DD
100
AcDbEntity
  8
SK2
440
 16777216
100
AcDbMText
 10
2.000000000000003
 20
93.8
 30
0.0
 40
3.0
 41
0.0
 71
     5
 72
     1
  1
\A1;104
  7
SANDVIK_STYLE
 73
     1
 44
1.0
  0
POINT
  5
B62
330
5DD
100
AcDbEntity
  8
DEFPOINTS
 62
     0
440
 16777216
100
AcDbPoint
 10
-50.0
 20
0.0
 30
0.0
  0
POINT
  5
B63
330
5DD
100
AcDbEntity
  8
DEFPOINTS
 62
     0
440
 16777216
100
AcDbPoint
 10
53.99999999999999
 20
0.0
 30
0.0
  0
POINT
  5
B64
330
5DD
100
AcDbEntity
  8
DEFPOINTS
 62
     0
440
 16777216
100
AcDbPoint
 10
54.0
 20
90.0
 30
0.0
  0
ENDBLK
  5
5DF
330
5DD
100
AcDbEntity
  8
0
100
AcDbBlockEnd
  0
BLOCK
  5
5EB
330
5EA
100
AcDbEntity
  8
0
100
AcDbBlockBegin
  2
*D5
 70
     1
 10
0.0
 20
0.0
 30
0.0
  3
*D5
  1

  0
LINE
  5
847
330
5EA
100
AcDbEntity
  8
2
440
 16777216
370
    -2
100
AcDbLine
 10
6.500000000000013
 20
9.5
 30
0.0
 11
5.500000000000007
 21
9.5
 31
0.0
  0
LINE
  5
848
330
5EA
100
AcDbEntity
  8
2
440
 16777216
370
    -2
100
AcDbLine
 10
6.500000000000007
 20
-9.5
 30
0.0
 11
5.500000000000007
 21
-9.5
 31
0.0
  0
LINE
  5
849
330
5EA
100
AcDbEntity
  8
2
440
 16777216
370
    -2
100
AcDbLine
 10
6.500000000000007
 20
4.929999999999997
 30
0.0
 11
6.500000000000007
 21
-4.929999999999997
 31
0.0
  0
LINE
  5
84A
330
5EA
100
AcDbEntity
  8
2
440
 16777216
370
    -2
100
AcDbLine
 10
6.500000000000007
 20
-9.5
 30
0.0
 11
6.500000000000002
 21
-25.52714285714286
 31
0.0
  0
SOLID
  5
84B
330
5EA
100
AcDbEntity
  8
2
440
 16777216
100
AcDbTrace
 10
5.738333333333343
 20
4.929999999999997
 30
0.0
 11
7.261666666666673
 21
4.929999999999997
 31
0.0
 12
6.500000000000007
 22
9.5
 32
0.0
 13
6.500000000000007
 23
9.5
 33
0.0
  0
SOLID
  5
84C
330
5EA
100
AcDbEntity
  8
2
440
 16777216
100
AcDbTrace
 10
5.738333333333341
 20
-4.929999999999997
 30
0.0
 11
7.261666666666673
 21
-4.929999999999997
 31
0.0
 12
6.500000000000007
 22
-9.5
 32
0.0
 13
6.500000000000007
 23
-9.5
 33
0.0
  0
MTEXT
  5
84D
330
5EA
100
AcDbEntity
  8
2
440
 16777216
100
AcDbMText
 10
2.700000000000009
 20
-19.79857142857143
 30
0.0
 40
3.0
 41
0.0
 71
     5
 72
     1
  1
\A1;%%c19
  7
SANDVIK_STYLE
 11
0.0000000000000001
 21
1.0
 31
0.0
 73
     1
 44
1.0
  0
POINT
  5
84E
330
5EA
100
AcDbEntity
  8
DEFPOINTS
 62
     0
440
 16777216
100
AcDbPoint
 10
6.500000000000013
 20
9.5
 30
0.0
  0
POINT
  5
84F
330
5EA
100
AcDbEntity
  8
DEFPOINTS
 62
     0
440
 16777216
100
AcDbPoint
 10
6.500000000000007
 20
-9.5
 30
0.0
  0
POINT
  5
850
330
5EA
100
AcDbEntity
  8
DEFPOINTS
 62
     0
440
 16777216
100
AcDbPoint
 10
6.500000000000007
 20
-9.5
 30
0.0
  0
ENDBLK
  5
5EC
330
5EA
100
AcDbEntity
  8
0
100
AcDbBlockEnd
  0
BLOCK
  5
5F8
330
5F7
100
AcDbEntity
  8
0
100
AcDbBlockBegin
  2
*D6
 70
     1
 10
0.0
 20
0.0
 30
0.0
  3
*D6
  1

  0
LINE
  5
B65
330
5F7
100
AcDbEntity
  8
2
440
 16777216
370
    -2
100
AcDbLine
 10
53.99999999999999
 20
0.0
 30
0.0
 11
53.99999999999999
 21
42.5
 31
0.0
  0
LINE
  5
B66
330
5F7
100
AcDbEntity
  8
2
440
 16777216
370
    -2
100
AcDbLine
 10
12.0
 20
10.0
 30
0.0
 11
12.0
 21
42.5
 31
0.0
  0
LINE
  5
B67
330
5F7
100
AcDbEntity
  8
2
440
 16777216
370
    -2
100
AcDbLine
 10
49.42999999999999
 20
37.5
 30
0.0
 11
16.57
 21
37.5
 31
0.0
  0
SOLID
  5
B68
330
5F7
100
AcDbEntity
  8
2
440
 16777216
100
AcDbTrace
 10
49.42999999999999
 20
38.26166666666667
 30
0.0
 11
49.42999999999999
 21
36.73833333333333
 31
0.0
 12
53.99999999999999
 22
37.5
 32
0.0
 13
53.99999999999999
 23
37.5
 33
0.0
  0
SOLID
  5
B69
330
5F7
100
AcDbEntity
  8
2
440
 16777216
100
AcDbTrace
 10
16.57
 20
38.26166666666667
 30
0.0
 11
16.57
 21
36.73833333333333
 31
0.0
 12
12.0
 22
37.5
 32
0.0
 13
12.0
 23
37.5
 33
0.0
  0
MTEXT
  5
B6A
330
5F7
100
AcDbEntity
  8
2
440
 16777216
100
AcDbMText
 10
33.0
 20
41.29999999999999
 30
0.0
 40
3.0
 41
0.0
 71
     5
 72
     1
  1
\A1;42
  7
SANDVIK_STYLE
 73
     1
 44
1.0
  0
POINT
  5
B6B
330
5F7
100
AcDbEntity
  8
DEFPOINTS
 62
     0
440
 16777216
100
AcDbPoint
 10
53.99999999999999
 20
0.0
 30
0.0
  0
POINT
  5
B6C
330
5F7
100
AcDbEntity
  8
DEFPOINTS
 62
     0
440
 16777216
100
AcDbPoint
 10
12.0
 20
10.0
 30
0.0
  0
POINT
  5
B6D
330
5F7
100
AcDbEntity
  8
DEFPOINTS
 62
     0
440
 16777216
100
AcDbPoint
 10
12.0
 20
37.5
 30
0.0
  0
ENDBLK
  5
5F9
330
5F7
100
AcDbEntity
  8
0
100
AcDbBlockEnd
  0
BLOCK
  5
605
330
604
100
AcDbEntity
  8
0
100
AcDbBlockBegin
  2
*D7
 70
     1
 10
0.0
 20
0.0
 30
0.0
  3
*D7
  1

  0
LINE
  5
824
330
604
100
AcDbEntity
  8
2
440
 16777216
370
    -2
100
AcDbLine
 10
56.2364723980746
 20
-32.02622889051366
 30
0.0
 11
53.14086852727171
 21
-14.47018693729022
 31
0.0
  0
MTEXT
  5
825
330
604
100
AcDbEntity
  8
2
440
 16777216
100
AcDbMText
 10
59.14523060671974
 20
-26.63928860092075
 30
0.0
 40
3.0
 41
0.0
 71
     5
 72
     1
  1
\A1;R2
  7
SANDVIK_STYLE
 11
0.1736481776669223
 21
-0.9848077530122093
 31
0.0
 73
     1
 44
1.0
  0
SOLID
  5
826
330
604
100
AcDbEntity
  8
2
440
 16777216
100
AcDbTrace
 10
53.890963765816
 20
-14.33792490863391
 30
0.0
 11
52.39077328872741
 21
-14.60244896594652
 31
0.0
 12
52.34729635533387
 22
-9.969615506024419
 32
0.0
 13
52.34729635533387
 23
-9.969615506024419
 33
0.0
  0
LINE
  5
827
330
604
100
AcDbEntity
  8
2
440
 16777216
370
    -2
100
AcDbLine
 10
51.91000000000002
 20
-7.999999999999996
 30
0.0
 11
52.09000000000003
 21
-7.999999999999997
 31
0.0
  0
LINE
  5
828
330
604
100
AcDbEntity
  8
2
440
 16777216
370
    -2
100
AcDbLine
 10
52.00000000000002
 20
-8.089999999999998
 30
0.0
 11
52.00000000000001
 21
-7.909999999999996
 31
0.0
  0
POINT
  5
829
330
604
100
AcDbEntity
  8
DEFPOINTS
 62
     0
440
 16777216
100
AcDbPoint
 10
52.34729635533387
 20
-9.969615506024419
 30
0.0
  0
POINT
  5
82A
330
604
100
AcDbEntity
  8
DEFPOINTS
 62
     0
440
 16777216
100
AcDbPoint
 10
52.00000000000002
 20
-7.999999999999996
 30
0.0
  0
ENDBLK
  5
606
330
604
100
AcDbEntity
  8
0
100
AcDbBlockEnd
  0
BLOCK
  5
6A8
330
6A7
100
AcDbEntity
  8
0
100
AcDbBlockBegin
  2
*D8
 70
     1
 10
0.0
 20
0.0
 30
0.0
  3
*D8
  1

  0
LINE
  5
6A9
330
6A7
100
AcDbEntity
  8
2
440
 16777216
370
    -2
100
AcDbLine
 10
27.5
 20
3.174999999999998
 30
0.0
 11
47.5
 21
3.174999999999993
 31
0.0
  0
LINE
  5
6AA
330
6A7
100
AcDbEntity
  8
2
440
 16777216
370
    -2
100
AcDbLine
 10
27.5
 20
-3.174999999999998
 30
0.0
 11
47.5
 21
-3.175000000000004
 31
0.0
  0
LINE
  5
6AB
330
6A7
100
AcDbEntity
  8
2
440
 16777216
370
    -2
100
AcDbLine
 10
42.5
 20
7.744999999999991
 30
0.0
 11
42.5
 21
12.31499999999999
 31
0.0
  0
LINE
  5
6AC
330
6A7
100
AcDbEntity
  8
2
440
 16777216
370
    -2
100
AcDbLine
 10
42.5
 20
-7.745000000000002
 30
0.0
 11
42.49999999999999
 21
-28.77214285714286
 31
0.0
  0
SOLID
  5
6AD
330
6A7
100
AcDbEntity
  8
2
440
 16777216
100
AcDbTrace
 10
41.73833333333333
 20
7.744999999999995
 30
0.0
 11
43.26166666666667
 21
7.744999999999991
 31
0.0
 12
42.5
 22
3.174999999999993
 32
0.0
 13
42.5
 23
3.174999999999993
 33
0.0
  0
SOLID
  5
6AE
330
6A7
100
AcDbEntity
  8
2
440
 16777216
100
AcDbTrace
 10
41.73833333333333
 20
-7.745000000000002
 30
0.0
 11
43.26166666666667
 21
-7.745000000000002
 31
0.0
 12
42.5
 22
-3.175000000000001
 32
0.0
 13
42.5
 23
-3.175000000000001
 33
0.0
  0
MTEXT
  5
6AF
330
6A7
100
AcDbEntity
  8
2
440
 16777216
100
AcDbMText
 10
38.7
 20
-20.54357142857142
 30
0.0
 40
3.0
 41
0.0
 71
     5
 72
     1
  1
\A1;%%c6.35
  7
SANDVIK_STYLE
 11
0.0000000000000001
 21
1.0
 31
0.0
 73
     1
 44
1.0
  0
POINT
  5
6B0
330
6A7
100
AcDbEntity
  8
DEFPOINTS
 62
     0
440
 16777216
100
AcDbPoint
 10
27.5
 20
3.174999999999998
 30
0.0
  0
POINT
  5
6B1
330
6A7
100
AcDbEntity
  8
DEFPOINTS
 62
     0
440
 16777216
100
AcDbPoint
 10
27.5
 20
-3.174999999999998
 30
0.0
  0
POINT
  5
6B2
330
6A7
100
AcDbEntity
  8
DEFPOINTS
 62
     0
440
 16777216
100
AcDbPoint
 10
42.5
 20
-3.175000000000001
 30
0.0
  0
ENDBLK
  5
6B3
330
6A7
100
AcDbEntity
  8
0
100
AcDbBlockEnd
  0
BLOCK
  5
6B5
330
6B4
100
AcDbEntity
  8
0
100
AcDbBlockBegin
  2
*D9
 70
     1
 10
0.0
 20
0.0
 30
0.0
  3
*D9
  1

  0
LINE
  5
6B6
330
6B4
100
AcDbEntity
  8
2
440
 16777216
370
    -2
100
AcDbLine
 10
0.0
 20
0.0
 30
0.0
 11
0.0000000000000049
 21
80.0
 31
0.0
  0
LINE
  5
6B7
330
6B4
100
AcDbEntity
  8
2
440
 16777216
370
    -2
100
AcDbLine
 10
27.5
 20
0.0
 30
0.0
 11
27.5
 21
80.0
 31
0.0
  0
LINE
  5
6B8
330
6B4
100
AcDbEntity
  8
2
440
 16777216
370
    -2
100
AcDbLine
 10
4.570000000000002
 20
75.0
 30
0.0
 11
22.93000000000001
 21
75.0
 31
0.0
  0
SOLID
  5
6B9
330
6B4
100
AcDbEntity
  8
2
440
 16777216
100
AcDbTrace
 10
4.570000000000002
 20
75.76166666666667
 30
0.0
 11
4.570000000000002
 21
74.23833333333333
 31
0.0
 12
0.0000000000000046
 22
75.0
 32
0.0
 13
0.0000000000000046
 23
75.0
 33
0.0
  0
SOLID
  5
6BA
330
6B4
100
AcDbEntity
  8
2
440
 16777216
100
AcDbTrace
 10
22.93000000000001
 20
75.76166666666667
 30
0.0
 11
22.93000000000001
 21
74.23833333333333
 31
0.0
 12
27.5
 22
75.0
 32
0.0
 13
27.5
 23
75.0
 33
0.0
  0
MTEXT
  5
6BB
330
6B4
100
AcDbEntity
  8
2
440
 16777216
100
AcDbMText
 10
13.75
 20
78.79999999999999
 30
0.0
 40
3.0
 41
0.0
 71
     5
 72
     1
  1
\A1;27.5
  7
SANDVIK_STYLE
 73
     1
 44
1.0
  0
POINT
  5
6BC
330
6B4
100
AcDbEntity
  8
DEFPOINTS
 62
     0
440
 16777216
100
AcDbPoint
 10
0.0
 20
0.0
 30
0.0
  0
POINT
  5
6BD
330
6B4
100
AcDbEntity
  8
DEFPOINTS
 62
     0
440
 16777216
100
AcDbPoint
 10
27.5
 20
0.0
 30
0.0
  0
POINT
  5
6BE
330
6B4
100
AcDbEntity
  8
DEFPOINTS
 62
     0
440
 16777216
100
AcDbPoint
 10
27.5
 20
75.0
 30
0.0
  0
ENDBLK
  5
6BF
330
6B4
100
AcDbEntity
  8
0
100
AcDbBlockEnd
  0
BLOCK
  5
6C1
330
6C0
100
AcDbEntity
  8
0
100
AcDbBlockBegin
  2
*D10
 70
     1
 10
0.0
 20
0.0
 30
0.0
  3
*D10
  1

  0
LINE
  5
6C2
330
6C0
100
AcDbEntity
  8
SK2
440
 16777216
370
    -2
100
AcDbLine
 10
-36.0
 20
3.174999999999998
 30
0.0
 11
-55.9999999999838
 21
3.175000000000004
 31
0.0
  0
LINE
  5
6C3
330
6C0
100
AcDbEntity
  8
SK2
440
 16777216
370
    -2
100
AcDbLine
 10
-36.0
 20
-3.174999999999998
 30
0.0
 11
-55.9999999999838
 21
-3.174999999999993
 31
0.0
  0
LINE
  5
6C4
330
6C0
100
AcDbEntity
  8
SK2
440
 16777216
370
    -2
100
AcDbLine
 10
-50.9999999999838
 20
7.745000000000002
 30
0.0
 11
-50.9999999999838
 21
12.315
 31
0.0
  0
LINE
  5
6C5
330
6C0
100
AcDbEntity
  8
SK2
440
 16777216
370
    -2
100
AcDbLine
 10
-50.9999999999838
 20
-7.744999999999991
 30
0.0
 11
-50.99999999998381
 21
-28.77214285714284
 31
0.0
  0
SOLID
  5
6C6
330
6C0
100
AcDbEntity
  8
SK2
440
 16777216
100
AcDbTrace
 10
-51.76166666665046
 20
7.745000000000002
 30
0.0
 11
-50.23833333331714
 21
7.745000000000002
 31
0.0
 12
-50.9999999999838
 22
3.175000000000001
 32
0.0
 13
-50.9999999999838
 23
3.175000000000001
 33
0.0
  0
SOLID
  5
6C7
330
6C0
100
AcDbEntity
  8
SK2
440
 16777216
100
AcDbTrace
 10
-51.76166666665046
 20
-7.744999999999991
 30
0.0
 11
-50.23833333331714
 21
-7.744999999999991
 31
0.0
 12
-50.9999999999838
 22
-3.174999999999993
 32
0.0
 13
-50.9999999999838
 23
-3.174999999999993
 33
0.0
  0
MTEXT
  5
6C8
330
6C0
100
AcDbEntity
  8
SK2
440
 16777216
100
AcDbMText
 10
-54.7999999999838
 20
-20.54357142857143
 30
0.0
 40
3.0
 41
0.0
 71
     5
 72
     1
  1
\A1;%%c6.35
  7
SANDVIK_STYLE
 11
0.0000000000000001
 21
1.0
 31
0.0
 73
     1
 44
1.0
  0
POINT
  5
6C9
330
6C0
100
AcDbEntity
  8
DEFPOINTS
 62
     0
440
 16777216
100
AcDbPoint
 10
-36.0
 20
3.174999999999998
 30
0.0
  0
POINT
  5
6CA
330
6C0
100
AcDbEntity
  8
DEFPOINTS
 62
     0
440
 16777216
100
AcDbPoint
 10
-36.0
 20
-3.174999999999998
 30
0.0
  0
POINT
  5
6CB
330
6C0
100
AcDbEntity
  8
DEFPOINTS
 62
     0
440
 16777216
100
AcDbPoint
 10
-50.9999999999838
 20
-3.174999999999993
 30
0.0
  0
ENDBLK
  5
6CC
330
6C0
100
AcDbEntity
  8
0
100
AcDbBlockEnd
  0
BLOCK
  5
6CE
330
6CD
100
AcDbEntity
  8
0
100
AcDbBlockBegin
  2
*D11
 70
     1
 10
0.0
 20
0.0
 30
0.0
  3
*D11
  1

  0
LINE
  5
6CF
330
6CD
100
AcDbEntity
  8
SK2
440
 16777216
370
    -2
100
AcDbLine
 10
-36.0
 20
0.0
 30
0.0
 11
-36.0
 21
95.0
 31
0.0
  0
LINE
  5
6D0
330
6CD
100
AcDbEntity
  8
SK2
440
 16777216
370
    -2
100
AcDbLine
 10
27.5
 20
0.0
 30
0.0
 11
27.50000000000001
 21
95.0
 31
0.0
  0
LINE
  5
6D1
330
6CD
100
AcDbEntity
  8
SK2
440
 16777216
370
    -2
100
AcDbLine
 10
-31.42999999999999
 20
90.0
 30
0.0
 11
22.93000000000001
 21
90.0
 31
0.0
  0
SOLID
  5
6D2
330
6CD
100
AcDbEntity
  8
SK2
440
 16777216
100
AcDbTrace
 10
-31.42999999999999
 20
90.76166666666669
 30
0.0
 11
-31.42999999999999
 21
89.23833333333332
 31
0.0
 12
-36.0
 22
90.0
 32
0.0
 13
-36.0
 23
90.0
 33
0.0
  0
SOLID
  5
6D3
330
6CD
100
AcDbEntity
  8
SK2
440
 16777216
100
AcDbTrace
 10
22.93000000000001
 20
90.76166666666669
 30
0.0
 11
22.93000000000001
 21
89.23833333333332
 31
0.0
 12
27.50000000000001
 22
90.0
 32
0.0
 13
27.50000000000001
 23
90.0
 33
0.0
  0
MTEXT
  5
6D4
330
6CD
100
AcDbEntity
  8
SK2
440
 16777216
100
AcDbMText
 10
-4.249999999999992
 20
93.8
 30
0.0
 40
3.0
 41
0.0
 71
     5
 72
     1
  1
\A1;63.5
  7
SANDVIK_STYLE
 73
     1
 44
1.0
  0
POINT
  5
6D5
330
6CD
100
AcDbEntity
  8
DEFPOINTS
 62
     0
440
 16777216
100
AcDbPoint
 10
-36.0
 20
0.0
 30
0.0
  0
POINT
  5
6D6
330
6CD
100
AcDbEntity
  8
DEFPOINTS
 62
     0
440
 16777216
100
AcDbPoint
 10
27.5
 20
0.0
 30
0.0
  0
POINT
  5
6D7
330
6CD
100
AcDbEntity
  8
DEFPOINTS
 62
     0
440
 16777216
100
AcDbPoint
 10
27.50000000000001
 20
90.0
 30
0.0
  0
ENDBLK
  5
6D8
330
6CD
100
AcDbEntity
  8
0
100
AcDbBlockEnd
  0
BLOCK
  5
6DA
330
6D9
100
AcDbEntity
  8
0
100
AcDbBlockBegin
  2
*D12
 70
     1
 10
0.0
 20
0.0
 30
0.0
  3
*D12
  1

  0
LINE
  5
6DB
330
6D9
100
AcDbEntity
  8
2
440
 16777216
370
    -2
100
AcDbLine
 10
7.145000000000004
 20
3.009999999999998
 30
0.0
 11
8.145000000000006
 21
3.009999999999998
 31
0.0
  0
LINE
  5
6DC
330
6D9
100
AcDbEntity
  8
2
440
 16777216
370
    -2
100
AcDbLine
 10
7.145000000000004
 20
-3.009999999999998
 30
0.0
 11
6.145000000000004
 21
-3.009999999999998
 31
0.0
  0
LINE
  5
6DD
330
6D9
100
AcDbEntity
  8
2
440
 16777216
370
    -2
100
AcDbLine
 10
7.145000000000008
 20
7.579999999999999
 30
0.0
 11
7.145000000000008
 21
12.15
 31
0.0
  0
LINE
  5
6DE
330
6D9
100
AcDbEntity
  8
2
440
 16777216
370
    -2
100
AcDbLine
 10
7.145000000000004
 20
-7.579999999999999
 30
0.0
 11
7.144999999999997
 21
-28.60714285714286
 31
0.0
  0
SOLID
  5
6DF
330
6D9
100
AcDbEntity
  8
2
440
 16777216
100
AcDbTrace
 10
6.383333333333337
 20
7.579999999999999
 30
0.0
 11
7.906666666666673
 21
7.579999999999999
 31
0.0
 12
7.145000000000004
 22
3.009999999999998
 32
0.0
 13
7.145000000000004
 23
3.009999999999998
 33
0.0
  0
SOLID
  5
6E0
330
6D9
100
AcDbEntity
  8
2
440
 16777216
100
AcDbTrace
 10
6.383333333333337
 20
-7.579999999999999
 30
0.0
 11
7.906666666666667
 21
-7.579999999999999
 31
0.0
 12
7.145000000000004
 22
-3.009999999999998
 32
0.0
 13
7.145000000000004
 23
-3.009999999999998
 33
0.0
  0
MTEXT
  5
6E1
330
6D9
100
AcDbEntity
  8
2
440
 16777216
100
AcDbMText
 10
3.345000000000006
 20
-20.37857142857143
 30
0.0
 40
3.0
 41
0.0
 71
     5
 72
     1
  1
\A1;%%c6.02
  7
SANDVIK_STYLE
 11
0.0000000000000001
 21
1.0
 31
0.0
 73
     1
 44
1.0
  0
POINT
  5
6E2
330
6D9
100
AcDbEntity
  8
DEFPOINTS
 62
     0
440
 16777216
100
AcDbPoint
 10
7.145000000000004
 20
3.009999999999998
 30
0.0
  0
POINT
  5
6E3
330
6D9
100
AcDbEntity
  8
DEFPOINTS
 62
     0
440
 16777216
100
AcDbPoint
 10
7.145000000000004
 20
-3.009999999999998
 30
0.0
  0
POINT
  5
6E4
330
6D9
100
AcDbEntity
  8
DEFPOINTS
 62
     0
440
 16777216
100
AcDbPoint
 10
7.145000000000004
 20
-3.009999999999998
 30
0.0
  0
ENDBLK
  5
6E5
330
6D9
100
AcDbEntity
  8
0
100
AcDbBlockEnd
  0
BLOCK
  5
6E7
330
6E6
100
AcDbEntity
  8
0
100
AcDbBlockBegin
  2
*D13
 70
     1
 10
0.0
 20
0.0
 30
0.0
  3
*D13
  1

  0
LINE
  5
6E8
330
6E6
100
AcDbEntity
  8
2
440
 16777216
370
    -2
100
AcDbLine
 10
27.5
 20
3.174999999999998
 30
0.0
 11
27.5
 21
65.0
 31
0.0
  0
LINE
  5
6E9
330
6E6
100
AcDbEntity
  8
2
440
 16777216
370
    -2
100
AcDbLine
 10
11.6
 20
3.174999999999998
 30
0.0
 11
11.6
 21
65.0
 31
0.0
  0
LINE
  5
6EA
330
6E6
100
AcDbEntity
  8
2
440
 16777216
370
    -2
100
AcDbLine
 10
22.93000000000001
 20
60.0
 30
0.0
 11
16.17
 21
60.0
 31
0.0
  0
SOLID
  5
6EB
330
6E6
100
AcDbEntity
  8
2
440
 16777216
100
AcDbTrace
 10
22.93000000000001
 20
60.76166666666667
 30
0.0
 11
22.93000000000001
 21
59.23833333333333
 31
0.0
 12
27.5
 22
60.0
 32
0.0
 13
27.5
 23
60.0
 33
0.0
  0
SOLID
  5
6EC
330
6E6
100
AcDbEntity
  8
2
440
 16777216
100
AcDbTrace
 10
16.17
 20
60.76166666666667
 30
0.0
 11
16.17
 21
59.23833333333333
 31
0.0
 12
11.6
 22
60.0
 32
0.0
 13
11.6
 23
60.0
 33
0.0
  0
MTEXT
  5
6ED
330
6E6
100
AcDbEntity
  8
2
440
 16777216
100
AcDbMText
 10
19.55
 20
63.79999999999999
 30
0.0
 40
3.0
 41
0.0
 71
     5
 72
     1
  1
\A1;15.9
  7
SANDVIK_STYLE
 73
     1
 44
1.0
  0
POINT
  5
6EE
330
6E6
100
AcDbEntity
  8
DEFPOINTS
 62
     0
440
 16777216
100
AcDbPoint
 10
27.5
 20
3.174999999999998
 30
0.0
  0
POINT
  5
6EF
330
6E6
100
AcDbEntity
  8
DEFPOINTS
 62
     0
440
 16777216
100
AcDbPoint
 10
11.6
 20
3.174999999999998
 30
0.0
  0
POINT
  5
6F0
330
6E6
100
AcDbEntity
  8
DEFPOINTS
 62
     0
440
 16777216
100
AcDbPoint
 10
11.6
 20
60.0
 30
0.0
  0
ENDBLK
  5
6F1
330
6E6
100
AcDbEntity
  8
0
100
AcDbBlockEnd
  0
BLOCK
  5
6F3
330
6F2
100
AcDbEntity
  8
0
100
AcDbBlockBegin
  2
*D14
 70
     1
 10
0.0
 20
0.0
 30
0.0
  3
*D14
  1

  0
LINE
  5
6F4
330
6F2
100
AcDbEntity
  8
2
440
 16777216
370
    -2
100
AcDbLine
 10
31.34002400452872
 20
-28.51237507032957
 30
0.0
 11
27.66389208332001
 21
-7.663994939061097
 31
0.0
  0
MTEXT
  5
6F5
330
6F2
100
AcDbEntity
  8
2
440
 16777216
100
AcDbMText
 10
33.64101359133968
 20
-19.67860764519394
 30
0.0
 40
3.0
 41
0.0
 71
     5
 72
     1
  1
\A1;R0.76
  7
SANDVIK_STYLE
 11
0.1736481776669206
 21
-0.9848077530122097
 31
0.0
 73
     1
 44
1.0
  0
SOLID
  5
6F6
330
6F2
100
AcDbEntity
  8
2
440
 16777216
100
AcDbTrace
 10
28.41398732186431
 20
-7.531732910404794
 30
0.0
 11
26.91379684477571
 21
-7.796256967717405
 31
0.0
 12
26.8703199113822
 22
-3.163423507795298
 32
0.0
 13
26.8703199113822
 23
-3.163423507795298
 33
0.0
  0
LINE
  5
6F7
330
6F2
100
AcDbEntity
  8
2
440
 16777216
370
    -2
100
AcDbLine
 10
26.648
 20
-2.412999999999997
 30
0.0
 11
26.82799999999999
 21
-2.412999999999997
 31
0.0
  0
LINE
  5
6F8
330
6F2
100
AcDbEntity
  8
2
440
 16777216
370
    -2
100
AcDbLine
 10
26.73799999999999
 20
-2.502999999999997
 30
0.0
 11
26.73799999999999
 21
-2.322999999999995
 31
0.0
  0
POINT
  5
6F9
330
6F2
100
AcDbEntity
  8
DEFPOINTS
 62
     0
440
 16777216
100
AcDbPoint
 10
26.8703199113822
 20
-3.163423507795298
 30
0.0
  0
POINT
  5
6FA
330
6F2
100
AcDbEntity
  8
DEFPOINTS
 62
     0
440
 16777216
100
AcDbPoint
 10
26.73799999999999
 20
-2.412999999999997
 30
0.0
  0
ENDBLK
  5
6FB
330
6F2
100
AcDbEntity
  8
0
100
AcDbBlockEnd
  0
BLOCK
  5
709
330
701
100
AcDbEntity
  8
0
100
AcDbBlockBegin
  2
A$C11907BDF
 70
     0
 10
0.0
 20
0.0
 30
0.0
  3
A$C11907BDF
  1

  0
DIMENSION
  5
702
330
701
100
AcDbEntity
  8
2
100
AcDbDimension
  2
*D8
 10
66.0504189496977
 20
-34.84379320845885
 30
0.0
 11
62.2504189496977
 21
-52.21236463703028
 31
0.0
 12
23.5504189496977
 22
-31.66879320845885
 32
0.0
  1
%%c<>
 71
     5
 42
6.349999999999997
  3
SANDVIK_DIM
100
AcDbAlignedDimension
 13
51.05041894969772
 23
-28.49379320845886
 33
0.0
 14
51.05041894969772
 24
-34.84379320845885
 34
0.0
 50
90.00000000000019
100
AcDbRotatedDimension
1001
ACAD
1000
DSTYLE
1002
{
1070
   279
1070
     0
1070
   140
1040
3.0
1070
    40
1040
1.0
1002
}
  0
DIMENSION
  5
703
330
701
100
AcDbEntity
  8
2
100
AcDbDimension
  2
*D9
 10
51.05041894969772
 20
43.33120679154115
 30
0.0
 11
37.30041894969771
 21
47.13120679154111
 31
0.0
 12
23.5504189496977
 22
-31.66879320845885
 32
0.0
  1
<>
 71
     5
 42
27.5
  3
SANDVIK_DIM
100
AcDbAlignedDimension
 13
23.5504189496977
 23
-31.66879320845885
 33
0.0
 14
51.05041894969772
 24
-31.66879320845885
 34
0.0
100
AcDbRotatedDimension
1001
ACAD
1000
DSTYLE
1002
{
1070
   279
1070
     0
1070
   140
1040
3.0
1070
    40
1040
1.0
1002
}
  0
DIMENSION
  5
704
330
701
100
AcDbEntity
  8
SK2
100
AcDbDimension
  2
*D10
 10
-27.4495810502861
 20
-34.84379320845885
 30
0.0
 11
-31.24958105028611
 21
-52.21236463703028
 31
0.0
 12
23.5504189496977
 22
-31.66879320845885
 32
0.0
  1
%%c<>
 71
     5
 42
6.349999999999997
  3
SANDVIK_DIM
100
AcDbAlignedDimension
 13
-12.4495810503023
 23
-28.49379320845886
 33
0.0
 14
-12.4495810503023
 24
-34.84379320845885
 34
0.0
 50
90.00000000029251
100
AcDbRotatedDimension
1001
ACAD
1000
DSTYLE
1002
{
1070
   279
1070
     0
1070
   140
1040
3.0
1070
    40
1040
1.0
1002
}
  0
DIMENSION
  5
705
330
701
100
AcDbEntity
  8
SK2
100
AcDbDimension
  2
*D11
 10
51.05041894969772
 20
58.33120679154115
 30
0.0
 11
19.30041894969771
 21
62.13120679154115
 31
0.0
 12
23.5504189496977
 22
-31.66879320845885
 32
0.0
  1
<>
 71
     5
 42
63.5
  3
SANDVIK_DIM
100
AcDbAlignedDimension
 13
-12.4495810503023
 23
-31.66879320845885
 33
0.0
 14
51.05041894969772
 24
-31.66879320845885
 34
0.0
100
AcDbRotatedDimension
1001
ACAD
1000
DSTYLE
1002
{
1070
   279
1070
     0
1070
   140
1040
3.0
1070
    40
1040
1.0
1002
}
  0
DIMENSION
  5
706
330
701
100
AcDbEntity
  8
2
100
AcDbDimension
  2
*D12
 10
30.6954189496977
 20
-34.67879320845886
 30
0.0
 11
26.89541894969771
 21
-52.04736463703028
 31
0.0
 12
23.5504189496977
 22
-31.66879320845885
 32
0.0
  1
%%c<>
 71
     5
 42
6.019999999999997
  3
SANDVIK_DIM
100
AcDbAlignedDimension
 13
30.6954189496977
 23
-28.65879320845886
 33
0.0
 14
30.6954189496977
 24
-34.67879320845886
 34
0.0
 50
90.0
100
AcDbRotatedDimension
1001
ACAD
1000
DSTYLE
1002
{
1070
    44
1040
1.0
1070
   279
1070
     0
1070
   140
1040
3.0
1070
    40
1040
1.0
1002
}
  0
DIMENSION
  5
707
330
701
100
AcDbEntity
  8
2
100
AcDbDimension
  2
*D13
 10
35.1504189496977
 20
28.33120679154115
 30
0.0
 11
43.1004189496977
 21
32.13120679154114
 31
0.0
 12
23.5504189496977
 22
-31.66879320845885
 32
0.0
  1
<>
 71
     5
 42
15.9
  3
SANDVIK_DIM
100
AcDbAlignedDimension
 13
51.05041894969772
 23
-28.49379320845886
 33
0.0
 14
35.1504189496977
 24
-28.49379320845886
 34
0.0
100
AcDbRotatedDimension
1001
ACAD
1000
DSTYLE
1002
{
1070
   279
1070
     0
1070
   140
1040
3.0
1070
    40
1040
1.0
1002
}
  0
DIMENSION
  5
708
330
701
100
AcDbEntity
  8
2
100
AcDbDimension
  2
*D14
 10
50.28841894969769
 20
-34.08179320845885
 30
0.0
 11
53.44916307959098
 21
-52.00726392878706
 31
0.0
 12
23.5504189496977
 22
-31.66879320845885
 32
0.0
 70
     4
  1
<>
 71
     5
 42
0.7619999999999996
  3
SANDVIK_DIM
100
AcDbRadialDimension
 15
50.42073886107989
 25
-34.83221671625415
 35
0.0
 40
0.0
1001
ACAD
1000
DSTYLE
1002
{
1070
   279
1070
     0
1070
   140
1040
3.0
1070
    40
1040
1.0
1002
}
  0
ENDBLK
  5
70A
330
701
100
AcDbEntity
  8
0
100
AcDbBlockEnd
  0
BLOCK
  5
8AE
330
8AD
100
AcDbEntity
  8
0
100
AcDbBlockBegin
  2
*D16
 70
     1
 10
0.0
 20
0.0
 30
0.0
  3
*D16
  1

  0
LINE
  5
B6E
330
8AD
100
AcDbEntity
  8
2
440
 16777216
370
    -2
100
AcDbLine
 10
53.99999999999999
 20
0.0
 30
0.0
 11
54.0
 21
60.65213071930407
 31
0.0
  0
LINE
  5
B6F
330
8AD
100
AcDbEntity
  8
2
440
 16777216
370
    -2
100
AcDbLine
 10
2.0
 20
9.5
 30
0.0
 11
2.000000000000003
 21
60.65213071930407
 31
0.0
  0
LINE
  5
B70
330
8AD
100
AcDbEntity
  8
2
440
 16777216
370
    -2
100
AcDbLine
 10
49.42999999999999
 20
55.65213071930407
 30
0.0
 11
6.570000000000002
 21
55.65213071930407
 31
0.0
  0
SOLID
  5
B71
330
8AD
100
AcDbEntity
  8
2
440
 16777216
100
AcDbTrace
 10
49.42999999999999
 20
56.41379738597073
 30
0.0
 11
49.42999999999999
 21
54.89046405263739
 31
0.0
 12
53.99999999999999
 22
55.65213071930407
 32
0.0
 13
53.99999999999999
 23
55.65213071930407
 33
0.0
  0
SOLID
  5
B72
330
8AD
100
AcDbEntity
  8
2
440
 16777216
100
AcDbTrace
 10
6.570000000000002
 20
56.41379738597073
 30
0.0
 11
6.570000000000002
 21
54.89046405263739
 31
0.0
 12
2.000000000000002
 22
55.65213071930407
 32
0.0
 13
2.000000000000002
 23
55.65213071930407
 33
0.0
  0
MTEXT
  5
B73
330
8AD
100
AcDbEntity
  8
2
440
 16777216
100
AcDbMText
 10
28.0
 20
59.45213071930407
 30
0.0
 40
3.0
 41
0.0
 71
     5
 72
     1
  1
\A1;52
  7
SANDVIK_STYLE
 73
     1
 44
1.0
  0
POINT
  5
B74
330
8AD
100
AcDbEntity
  8
DEFPOINTS
 62
     0
440
 16777216
100
AcDbPoint
 10
53.99999999999999
 20
0.0
 30
0.0
  0
POINT
  5
B75
330
8AD
100
AcDbEntity
  8
DEFPOINTS
 62
     0
440
 16777216
100
AcDbPoint
 10
2.0
 20
9.5
 30
0.0
  0
POINT
  5
B76
330
8AD
100
AcDbEntity
  8
DEFPOINTS
 62
     0
440
 16777216
100
AcDbPoint
 10
2.000000000000002
 20
55.65213071930407
 30
0.0
  0
ENDBLK
  5
8AF
330
8AD
100
AcDbEntity
  8
0
100
AcDbBlockEnd
  0
BLOCK
  5
940
330
93F
100
AcDbEntity
  8
0
100
AcDbBlockBegin
  2
*D17
 70
     1
 10
0.0
 20
0.0
 30
0.0
  3
*D17
  1

  0
LINE
  5
9E2
330
93F
100
AcDbEntity
  8
2
440
 16777216
370
    -2
100
AcDbLine
 10
57.26915441583045
 20
-27.6983159856867
 30
0.0
 11
52.72374615979845
 21
-14.12639116354622
 31
0.0
  0
MTEXT
  5
9E3
330
93F
100
AcDbEntity
  8
2
440
 16777216
100
AcDbMText
 10
59.32539534544664
 20
-21.87228049266902
 30
0.0
 40
3.0
 41
0.0
 71
     5
 72
     1
  1
\A1;R4
  7
SANDVIK_STYLE
 11
0.3175751850706059
 21
-0.9482330946699606
 31
0.0
 73
     1
 44
1.0
  0
SOLID
  5
9E4
330
93F
100
AcDbEntity
  8
2
440
 16777216
100
AcDbTrace
 10
53.44598370023875
 20
-13.88450473091744
 30
0.0
 11
52.00150861935817
 21
-14.368277596175
 31
0.0
 12
51.27242756402579
 22
-9.792965920904499
 32
0.0
 13
51.27242756402579
 23
-9.792965920904499
 33
0.0
  0
LINE
  5
9E5
330
93F
100
AcDbEntity
  8
2
440
 16777216
370
    -2
100
AcDbLine
 10
49.91212682374336
 20
-6.000033542224643
 30
0.0
 11
50.09212682374336
 21
-6.000033542224647
 31
0.0
  0
LINE
  5
9E6
330
93F
100
AcDbEntity
  8
2
440
 16777216
370
    -2
100
AcDbLine
 10
50.00212682374336
 20
-6.090033542224644
 30
0.0
 11
50.00212682374336
 21
-5.910033542224643
 31
0.0
  0
POINT
  5
9E7
330
93F
100
AcDbEntity
  8
DEFPOINTS
 62
     0
440
 16777216
100
AcDbPoint
 10
51.27242756402579
 20
-9.792965920904499
 30
0.0
  0
POINT
  5
9E8
330
93F
100
AcDbEntity
  8
DEFPOINTS
 62
     0
440
 16777216
100
AcDbPoint
 10
50.00212682374336
 20
-6.000033542224647
 30
0.0
  0
ENDBLK
  5
941
330
93F
100
AcDbEntity
  8
0
100
AcDbBlockEnd
  0
ENDSEC
  0
SECTION
  2
ENTITIES
  0
LINE
  5
3D6
330
18
100
AcDbEntity
  8
SK4
100
AcDbLine
 10
-52.0
 20
0.0
 30
0.0
 11
1.130000000000003
 21
0.0
 31
0.0
  0
LINE
  5
3D7
330
18
100
AcDbEntity
  8
4
100
AcDbLine
 10
-0.8699999999999974
 20
0.0
 30
0.0
 11
56.0
 21
0.0
 31
0.0
  0
LINE
  5
3D8
330
18
100
AcDbEntity
  8
SK4
100
AcDbLine
 10
-0.8699999999999974
 20
0.0
 30
0.0
 11
56.0
 21
0.0
 31
0.0
  0
LINE
  5
3D9
330
18
100
AcDbEntity
  8
1
100
AcDbLine
 10
1.130000000000003
 20
10.0
 30
0.0
 11
-0.0000000000000013
 21
10.0
 31
0.0
  0
LINE
  5
3DA
330
18
100
AcDbEntity
  8
1
100
AcDbLine
 10
1.130000000000003
 20
10.0
 30
0.0
 11
1.130000000000003
 21
9.990058067056695
 31
0.0
  0
LINE
  5
3DB
330
18
100
AcDbEntity
  8
1
100
AcDbLine
 10
1.130000000000003
 20
9.990058067056695
 30
0.0
 11
1.130000000000003
 21
9.102733877567533
 31
0.0
  0
LINE
  5
3DC
330
18
100
AcDbEntity
  8
1
100
AcDbLine
 10
1.130000000000003
 20
9.102733877567533
 30
0.0
 11
1.130000000000003
 21
-10.0
 31
0.0
  0
LINE
  5
3DD
330
18
100
AcDbEntity
  8
1
100
AcDbLine
 10
1.130000000000003
 20
10.0
 30
0.0
 11
2.0
 21
9.5
 31
0.0
  0
LINE
  5
3DE
330
18
100
AcDbEntity
  8
1
100
AcDbLine
 10
2.0
 20
9.5
 30
0.0
 11
2.0
 21
9.490555163703863
 31
0.0
  0
LINE
  5
3DF
330
18
100
AcDbEntity
  8
1
100
AcDbLine
 10
2.0
 20
9.490555163703863
 30
0.0
 11
2.0
 21
8.647597183689157
 31
0.0
  0
LINE
  5
3E0
330
18
100
AcDbEntity
  8
1
100
AcDbLine
 10
2.0
 20
8.647597183689157
 30
0.0
 11
2.0
 21
-9.5
 31
0.0
  0
LINE
  5
3E1
330
18
100
AcDbEntity
  8
1
100
AcDbLine
 10
11.13
 20
2.744514616563786
 30
0.0
 11
11.13
 21
-1.284961424032299
 31
0.0
  0
ARC
  5
3E2
330
18
100
AcDbEntity
  8
1
100
AcDbCircle
 10
-7.017150311583621
 20
-23.76719536135075
 30
0.0
 40
28.89244381260696
100
AcDbArc
 50
48.8369017500115
 51
51.0903165845912
  0
ARC
  5
3E3
330
18
100
AcDbEntity
  8
1
100
AcDbCircle
 10
39.62833901456782
 20
16.68209985536252
 30
0.0
 40
37.57134838247758
100
AcDbArc
 50
220.6668720733396
 51
222.6626227661265
  0
LINE
  5
3E4
330
18
100
AcDbEntity
  8
1
100
AcDbLine
 10
11.00000000000002
 20
-1.190240868407645
 30
0.0
 11
11.00000000000002
 21
-7.746787630795636
 31
0.0
  0
ARC
  5
3E5
330
18
100
AcDbEntity
  8
1
100
AcDbCircle
 10
13.29836776903682
 20
-2.34084172392722
 30
0.0
 40
11.10938595374604
100
AcDbArc
 50
96.71157385433019
 51
101.2553797477092
  0
ARC
  5
3E6
330
18
100
AcDbEntity
  8
1
100
AcDbCircle
 10
-9.137938279302179
 20
-17.63208800460701
 30
0.0
 40
28.74023632844246
100
AcDbArc
 50
42.65204711408253
 51
45.15318153928602
  0
LINE
  5
3E7
330
18
100
AcDbEntity
  8
1
100
AcDbLine
 10
12.0
 20
5.267606255013189
 30
0.0
 11
12.0
 21
8.692401726813496
 31
0.0
  0
ARC
  5
3E8
330
18
100
AcDbEntity
  8
1
100
AcDbCircle
 10
4.485080782084006
 20
-27.13381866005769
 30
0.0
 40
33.26148134460608
100
AcDbArc
 50
76.94215962551867
 51
78.70445585926906
  0
LINE
  5
3E9
330
18
100
AcDbEntity
  8
1
100
AcDbLine
 10
11.00000000000002
 20
8.5960393194288
 30
0.0
 11
11.00000000000002
 21
2.835822048444565
 31
0.0
  0
LINE
  5
3EA
330
18
100
AcDbEntity
  8
1
100
AcDbLine
 10
11.00000000000002
 20
-9.331648630903732
 30
0.0
 11
11.13
 21
-9.349082205998824
 31
0.0
  0
LINE
  5
3EB
330
18
100
AcDbEntity
  8
1
100
AcDbLine
 10
11.00000000000002
 20
-7.74678763079587
 30
0.0
 11
11.13
 21
-7.801684918304252
 31
0.0
  0
LINE
  5
3EC
330
18
100
AcDbEntity
  8
1
100
AcDbLine
 10
11.00000000000001
 20
-1.19024086840736
 30
0.0
 11
11.13000000000001
 21
-1.284961424032301
 31
0.0
  0
LINE
  5
3ED
330
18
100
AcDbEntity
  8
1
100
AcDbLine
 10
11.00000000000001
 20
2.835822048444565
 30
0.0
 11
11.13
 21
2.744514616563788
 31
0.0
  0
LINE
  5
3EE
330
18
100
AcDbEntity
  8
1
100
AcDbLine
 10
11.00000000000002
 20
8.5960393194288
 30
0.0
 11
11.13
 21
8.554932371714397
 31
0.0
  0
LINE
  5
3EF
330
18
100
AcDbEntity
  8
1
100
AcDbLine
 10
11.13
 20
9.497888233961552
 30
0.0
 11
11.13
 21
9.252148418051932
 31
0.0
  0
LINE
  5
3F0
330
18
100
AcDbEntity
  8
1
100
AcDbLine
 10
11.13
 20
9.252148418051932
 30
0.0
 11
11.13
 21
8.554932371714393
 31
0.0
  0
LINE
  5
3F1
330
18
100
AcDbEntity
  8
1
100
AcDbLine
 10
11.00000000000001
 20
9.499422042780963
 30
0.0
 11
11.13
 21
9.497888233961557
 31
0.0
  0
LINE
  5
3F2
102
{ACAD_REACTORS
330
8C3
102
}
330
18
100
AcDbEntity
  8
1
100
AcDbLine
 10
2.0
 20
9.5
 30
0.0
 11
11.00000000000002
 21
9.5
 31
0.0
  0
ARC
  5
3F3
330
18
100
AcDbEntity
  8
1
100
AcDbCircle
 10
15.3599722080398
 20
1.830445076858558
 30
0.0
 40
8.756716019749951
100
AcDbArc
 50
112.5632673511581
 51
118.8846267415909
  0
LINE
  5
3F4
330
18
100
AcDbEntity
  8
1
100
AcDbLine
 10
11.00000000000001
 20
9.499999999991386
 30
0.0
 11
11.00000000000002
 21
9.499999997522216
 31
0.0
  0
LINE
  5
3F5
330
18
100
AcDbEntity
  8
1
100
AcDbLine
 10
11.00000000000002
 20
9.499999997522216
 30
0.0
 11
11.00000000000001
 21
9.499999361090376
 31
0.0
  0
LINE
  5
3F6
330
18
100
AcDbEntity
  8
1
100
AcDbLine
 10
11.00000000000001
 20
9.499999361090376
 30
0.0
 11
11.00000000000002
 21
9.499953767027275
 31
0.0
  0
LINE
  5
3F7
330
18
100
AcDbEntity
  8
1
100
AcDbLine
 10
11.00000000000002
 20
9.499953767027275
 30
0.0
 11
11.00000000000002
 21
9.49942204278096
 31
0.0
  0
ARC
  5
3F8
330
18
100
AcDbEntity
  8
1
100
AcDbCircle
 10
33.2828296137253
 20
22.42152912703894
 30
0.0
 40
38.7313200442035
100
AcDbArc
 50
235.1129283076807
 51
236.6673261625222
  0
LINE
  5
3F9
330
18
100
AcDbEntity
  8
1
100
AcDbLine
 10
11.13
 20
-7.801684918304251
 30
0.0
 11
11.13
 21
-9.349082205998824
 31
0.0
  0
LINE
  5
3FA
330
18
100
AcDbEntity
  8
1
100
AcDbLine
 10
11.00000000000001
 20
-9.33164863090373
 30
0.0
 11
11.00000000000002
 21
-9.5
 31
0.0
  0
LINE
  5
3FB
330
18
100
AcDbEntity
  8
1
100
AcDbLine
 10
12.0
 20
9.916868337545004
 30
0.0
 11
12.0
 21
8.692401726813496
 31
0.0
  0
LINE
  5
3FC
330
18
100
AcDbEntity
  8
1
100
AcDbLine
 10
12.0
 20
1.840710052608948
 30
0.0
 11
12.0
 21
5.267606255013189
 31
0.0
  0
LINE
  5
3FD
330
18
100
AcDbEntity
  8
1
100
AcDbLine
 10
12.0
 20
1.840710052608945
 30
0.0
 11
12.0
 21
-2.015828937248303
 31
0.0
  0
LINE
  5
3FE
330
18
100
AcDbEntity
  8
1
100
AcDbLine
 10
12.0
 20
-8.779246961599165
 30
0.0
 11
12.0
 21
-2.015828937248303
 31
0.0
  0
LINE
  5
3FF
330
18
100
AcDbEntity
  8
1
100
AcDbLine
 10
12.0
 20
-8.779246961599161
 30
0.0
 11
12.0
 21
-9.938252525538523
 31
0.0
  0
LINE
  5
400
330
18
100
AcDbEntity
  8
1
100
AcDbLine
 10
-0.0000000000000068
 20
-10.0
 30
0.0
 11
1.130000000000003
 21
-10.0
 31
0.0
  0
LINE
  5
401
330
18
100
AcDbEntity
  8
1
100
AcDbLine
 10
1.130000000000003
 20
-10.0
 30
0.0
 11
2.0
 21
-9.5
 31
0.0
  0
LINE
  5
402
330
18
100
AcDbEntity
  8
1
100
AcDbLine
 10
2.0
 20
-9.5
 30
0.0
 11
11.00000000000002
 21
-9.5
 31
0.0
  0
LINE
  5
423
330
18
100
AcDbEntity
  8
1
 62
     1
100
AcDbLine
 10
51.43420150611369
 20
-6.725515568851117
 30
0.0
 11
50.73326926432981
 21
-6.333790560248043
 31
0.0
  0
LINE
  5
424
330
18
100
AcDbEntity
  8
1
 62
     1
100
AcDbLine
 10
50.73326926432981
 20
-6.333790560248043
 30
0.0
 11
48.19981162323813
 21
-4.70569775332223
 31
0.0
  0
LINE
  5
425
330
18
100
AcDbEntity
  8
1
 62
     1
100
AcDbLine
 10
48.19981162323813
 20
-4.70569775332223
 30
0.0
 11
45.66636174846828
 21
-2.897459174851086
 31
0.0
  0
LINE
  5
426
330
18
100
AcDbEntity
  8
1
 62
     1
100
AcDbLine
 10
45.66636174846828
 20
-2.897459174851086
 30
0.0
 11
41.86620280694081
 21
0.0000000000000072
 31
0.0
  0
LINE
  5
427
330
18
100
AcDbEntity
  8
1
 62
     1
100
AcDbLine
 10
21.55987366127746
 20
9.999999999999998
 30
0.0
 11
20.85812243420375
 21
9.98526975854515
 31
0.0
  0
LINE
  5
428
330
18
100
AcDbEntity
  8
1
 62
     1
100
AcDbLine
 10
20.85812243420375
 20
9.98526975854515
 30
0.0
 11
20.15637383490003
 21
9.941122775018264
 31
0.0
  0
LINE
  5
429
330
18
100
AcDbEntity
  8
1
 62
     1
100
AcDbLine
 10
20.15637383490003
 20
9.941122775018264
 30
0.0
 11
19.4546272594068
 21
9.867689449630539
 31
0.0
  0
LINE
  5
42A
330
18
100
AcDbEntity
  8
1
 62
     1
100
AcDbLine
 10
19.4546272594068
 20
9.867689449630539
 30
0.0
 11
18.75288174736444
 21
9.765186326123519
 31
0.0
  0
LINE
  5
42B
330
18
100
AcDbEntity
  8
1
 62
     1
100
AcDbLine
 10
18.75288174736444
 20
9.765186326123519
 30
0.0
 11
18.05113668282485
 21
9.633915350716476
 31
0.0
  0
LINE
  5
42C
330
18
100
AcDbEntity
  8
1
 62
     1
100
AcDbLine
 10
18.05113668282485
 20
9.633915350716476
 30
0.0
 11
17.34939114283198
 21
9.474263119712137
 31
0.0
  0
LINE
  5
42D
330
18
100
AcDbEntity
  8
1
 62
     1
100
AcDbLine
 10
17.34939114283198
 20
9.474263119712137
 30
0.0
 11
16.64764445001272
 21
9.286699623364826
 31
0.0
  0
LINE
  5
42E
330
18
100
AcDbEntity
  8
1
 62
     1
100
AcDbLine
 10
16.64764445001272
 20
9.286699623364826
 30
0.0
 11
15.94589562158779
 21
9.071777060395373
 31
0.0
  0
LINE
  5
42F
330
18
100
AcDbEntity
  8
1
 62
     1
100
AcDbLine
 10
21.55987366127746
 20
10.0
 30
0.0
 11
26.57698477362021
 21
10.0
 31
0.0
  0
LINE
  5
430
330
18
100
AcDbEntity
  8
1
 62
     1
100
AcDbLine
 10
53.99999999999999
 20
-1.600767586045476
 30
0.0
 11
53.99366168234946
 21
-1.832396463688478
 31
0.0
  0
LINE
  5
431
330
18
100
AcDbEntity
  8
1
 62
     1
100
AcDbLine
 10
53.99366168234946
 20
-1.832396463688478
 30
0.0
 11
53.96712771827567
 21
-2.130503066146947
 31
0.0
  0
LINE
  5
432
330
18
100
AcDbEntity
  8
1
 62
     1
100
AcDbLine
 10
53.96712771827567
 20
-2.130503066146947
 30
0.0
 11
53.94611511081447
 21
-2.277247243097621
 31
0.0
  0
LINE
  5
433
330
18
100
AcDbEntity
  8
1
 62
     1
100
AcDbLine
 10
53.94611511081447
 20
-2.277247243097621
 30
0.0
 11
53.919392789316
 21
-2.421938100399564
 31
0.0
  0
LINE
  5
434
330
18
100
AcDbEntity
  8
1
 62
     1
100
AcDbLine
 10
53.919392789316
 20
-2.421938100399564
 30
0.0
 11
53.88652019145113
 21
-2.564063355012252
 31
0.0
  0
LINE
  5
435
330
18
100
AcDbEntity
  8
1
 62
     1
100
AcDbLine
 10
53.88652019145113
 20
-2.564063355012252
 30
0.0
 11
53.84703126009743
 21
-2.703021467622033
 31
0.0
  0
LINE
  5
436
330
18
100
AcDbEntity
  8
1
 62
     1
100
AcDbLine
 10
53.84703126009743
 20
-2.703021467622033
 30
0.0
 11
53.8004337872064
 21
-2.838138558301139
 31
0.0
  0
LINE
  5
437
330
18
100
AcDbEntity
  8
1
 62
     1
100
AcDbLine
 10
53.8004337872064
 20
-2.838138558301139
 30
0.0
 11
53.7462722900519
 21
-2.968521240303113
 31
0.0
  0
LINE
  5
438
330
18
100
AcDbEntity
  8
1
 62
     1
100
AcDbLine
 10
53.7462722900519
 20
-2.968521240303113
 30
0.0
 11
53.71619515738728
 21
-3.031677485149083
 31
0.0
  0
LINE
  5
439
330
18
100
AcDbEntity
  8
1
 62
     1
100
AcDbLine
 10
53.71619515738728
 20
-3.031677485149083
 30
0.0
 11
53.68406308659134
 21
-3.0932820289897
 31
0.0
  0
LINE
  5
43A
330
18
100
AcDbEntity
  8
1
 62
     1
100
AcDbLine
 10
53.68406308659134
 20
-3.0932820289897
 30
0.0
 11
53.64984417191973
 21
-3.153165192762048
 31
0.0
  0
LINE
  5
43B
330
18
100
AcDbEntity
  8
1
 62
     1
100
AcDbLine
 10
53.64984417191973
 20
-3.153165192762048
 30
0.0
 11
53.61347806865379
 21
-3.211214951331172
 31
0.0
  0
LINE
  5
43C
330
18
100
AcDbEntity
  8
1
 62
     1
100
AcDbLine
 10
53.61347806865379
 20
-3.211214951331172
 30
0.0
 11
53.57494366876913
 21
-3.26726902741441
 31
0.0
  0
LINE
  5
43D
330
18
100
AcDbEntity
  8
1
 62
     1
100
AcDbLine
 10
53.57494366876913
 20
-3.26726902741441
 30
0.0
 11
53.534217467133
 21
-3.321165704918463
 31
0.0
  0
LINE
  5
43E
330
18
100
AcDbEntity
  8
1
 62
     1
100
AcDbLine
 10
53.534217467133
 20
-3.321165704918463
 30
0.0
 11
53.4912829371625
 21
-3.372759309143758
 31
0.0
  0
LINE
  5
43F
330
18
100
AcDbEntity
  8
1
 62
     1
100
AcDbLine
 10
53.4912829371625
 20
-3.372759309143758
 30
0.0
 11
53.44616319344373
 21
-3.421859968378095
 31
0.0
  0
LINE
  5
440
330
18
100
AcDbEntity
  8
1
 62
     1
100
AcDbLine
 10
53.44616319344373
 20
-3.421859968378095
 30
0.0
 11
53.39884844486018
 21
-3.468339320996665
 31
0.0
  0
LINE
  5
441
330
18
100
AcDbEntity
  8
1
 62
     1
100
AcDbLine
 10
53.39884844486018
 20
-3.468339320996665
 30
0.0
 11
53.34940654510368
 21
-3.512012235987617
 31
0.0
  0
LINE
  5
442
330
18
100
AcDbEntity
  8
1
 62
     1
100
AcDbLine
 10
53.34940654510368
 20
-3.512012235987617
 30
0.0
 11
53.29785576282527
 21
-3.552752508267145
 31
0.0
  0
LINE
  5
443
330
18
100
AcDbEntity
  8
1
 62
     1
100
AcDbLine
 10
53.29785576282527
 20
-3.552752508267145
 30
0.0
 11
53.24428492425479
 21
-3.590417833919143
 31
0.0
  0
LINE
  5
444
330
18
100
AcDbEntity
  8
1
 62
     1
100
AcDbLine
 10
53.24428492425479
 20
-3.590417833919143
 30
0.0
 11
53.18877503302971
 21
-3.624877526948603
 31
0.0
  0
LINE
  5
445
330
18
100
AcDbEntity
  8
1
 62
     1
100
AcDbLine
 10
53.18877503302971
 20
-3.624877526948603
 30
0.0
 11
53.13140608162449
 21
-3.656049933960646
 31
0.0
  0
LINE
  5
446
330
18
100
AcDbEntity
  8
1
 62
     1
100
AcDbLine
 10
53.13140608162449
 20
-3.656049933960646
 30
0.0
 11
53.07232535367197
 21
-3.683826127433361
 31
0.0
  0
LINE
  5
447
330
18
100
AcDbEntity
  8
1
 62
     1
100
AcDbLine
 10
53.07232535367197
 20
-3.683826127433361
 30
0.0
 11
53.01160863910538
 21
-3.708168428364424
 31
0.0
  0
LINE
  5
448
330
18
100
AcDbEntity
  8
1
 62
     1
100
AcDbLine
 10
53.01160863910538
 20
-3.708168428364424
 30
0.0
 11
52.9494352907275
 21
-3.729021898278578
 31
0.0
  0
LINE
  5
449
330
18
100
AcDbEntity
  8
1
 62
     1
100
AcDbLine
 10
52.9494352907275
 20
-3.729021898278578
 30
0.0
 11
52.88590337724804
 21
-3.746376727217719
 31
0.0
  0
LINE
  5
44A
330
18
100
AcDbEntity
  8
1
 62
     1
100
AcDbLine
 10
52.88590337724804
 20
-3.746376727217719
 30
0.0
 11
52.82117519284834
 21
-3.760241846585826
 31
0.0
  0
LINE
  5
44B
330
18
100
AcDbEntity
  8
1
 62
     1
100
AcDbLine
 10
52.82117519284834
 20
-3.760241846585826
 30
0.0
 11
52.75539670128347
 21
-3.770634569319763
 31
0.0
  0
LINE
  5
44C
330
18
100
AcDbEntity
  8
1
 62
     1
100
AcDbLine
 10
52.75539670128347
 20
-3.770634569319763
 30
0.0
 11
52.68868235797881
 21
-3.777612051581796
 31
0.0
  0
LINE
  5
44D
330
18
100
AcDbEntity
  8
1
 62
     1
100
AcDbLine
 10
52.68868235797881
 20
-3.777612051581796
 30
0.0
 11
52.62120838693515
 21
-3.781228597719823
 31
0.0
  0
LINE
  5
44E
330
18
100
AcDbEntity
  8
1
 62
     1
100
AcDbLine
 10
52.62120838693515
 20
-3.781228597719823
 30
0.0
 11
52.55305948598909
 21
-3.781564859250323
 31
0.0
  0
LINE
  5
44F
330
18
100
AcDbEntity
  8
1
 62
     1
100
AcDbLine
 10
52.55305948598909
 20
-3.781564859250323
 30
0.0
 11
52.48440123087172
 21
-3.77871036324921
 31
0.0
  0
LINE
  5
450
330
18
100
AcDbEntity
  8
1
 62
     1
100
AcDbLine
 10
52.48440123087172
 20
-3.77871036324921
 30
0.0
 11
52.41531791343565
 21
-3.772758628386093
 31
0.0
  0
LINE
  5
451
330
18
100
AcDbEntity
  8
1
 62
     1
100
AcDbLine
 10
52.41531791343565
 20
-3.772758628386093
 30
0.0
 11
52.34593223903583
 21
-3.763818712356648
 31
0.0
  0
LINE
  5
452
330
18
100
AcDbEntity
  8
1
 62
     1
100
AcDbLine
 10
52.34593223903583
 20
-3.763818712356648
 30
0.0
 11
52.2763470157311
 21
-3.751996961906399
 31
0.0
  0
LINE
  5
453
330
18
100
AcDbEntity
  8
1
 62
     1
100
AcDbLine
 10
52.2763470157311
 20
-3.751996961906399
 30
0.0
 11
52.20663323102861
 21
-3.737404272161546
 31
0.0
  0
LINE
  5
454
330
18
100
AcDbEntity
  8
1
 62
     1
100
AcDbLine
 10
52.20663323102861
 20
-3.737404272161546
 30
0.0
 11
52.1369009696574
 21
-3.720157801943007
 31
0.0
  0
LINE
  5
455
330
18
100
AcDbEntity
  8
1
 62
     1
100
AcDbLine
 10
52.1369009696574
 20
-3.720157801943007
 30
0.0
 11
51.99760072589241
 21
-3.678137140435241
 31
0.0
  0
LINE
  5
456
330
18
100
AcDbEntity
  8
1
 62
     1
100
AcDbLine
 10
51.99760072589241
 20
-3.678137140435241
 30
0.0
 11
51.85890263863872
 21
-3.626790933154008
 31
0.0
  0
LINE
  5
457
330
18
100
AcDbEntity
  8
1
 62
     1
100
AcDbLine
 10
51.85890263863872
 20
-3.626790933154008
 30
0.0
 11
51.72128539044965
 21
-3.566979096535993
 31
0.0
  0
LINE
  5
458
330
18
100
AcDbEntity
  8
1
 62
     1
100
AcDbLine
 10
51.72128539044965
 20
-3.566979096535993
 30
0.0
 11
51.58500106561804
 21
-3.499443012971801
 31
0.0
  0
LINE
  5
459
330
18
100
AcDbEntity
  8
1
 62
     1
100
AcDbLine
 10
51.58500106561804
 20
-3.499443012971801
 30
0.0
 11
51.45035879006261
 21
-3.424920514105398
 31
0.0
  0
LINE
  5
45A
330
18
100
AcDbEntity
  8
1
 62
     1
100
AcDbLine
 10
51.45035879006261
 20
-3.424920514105398
 30
0.0
 11
51.3174966032389
 21
-3.344023166455295
 31
0.0
  0
LINE
  5
45B
330
18
100
AcDbEntity
  8
1
 62
     1
100
AcDbLine
 10
51.3174966032389
 20
-3.344023166455295
 30
0.0
 11
51.12193304945254
 21
-3.21201926015758
 31
0.0
  0
LINE
  5
45C
330
18
100
AcDbEntity
  8
1
 62
     1
100
AcDbLine
 10
53.99921683991539
 20
-5.693379299650449
 30
0.0
 11
53.99811035078855
 21
-5.757295023876214
 31
0.0
  0
LINE
  5
45D
330
18
100
AcDbEntity
  8
1
 62
     1
100
AcDbLine
 10
53.99811035078855
 20
-5.757295023876214
 30
0.0
 11
53.99479758476939
 21
-5.820345938867216
 31
0.0
  0
LINE
  5
45E
330
18
100
AcDbEntity
  8
1
 62
     1
100
AcDbLine
 10
53.99479758476939
 20
-5.820345938867216
 30
0.0
 11
53.98928859390015
 21
-5.88241482517023
 31
0.0
  0
LINE
  5
45F
330
18
100
AcDbEntity
  8
1
 62
     1
100
AcDbLine
 10
53.98928859390015
 20
-5.88241482517023
 30
0.0
 11
53.98159240745742
 21
-5.943394029348738
 31
0.0
  0
LINE
  5
460
330
18
100
AcDbEntity
  8
1
 62
     1
100
AcDbLine
 10
53.98159240745742
 20
-5.943394029348738
 30
0.0
 11
53.97171635229645
 21
-6.003257084400623
 31
0.0
  0
LINE
  5
461
330
18
100
AcDbEntity
  8
1
 62
     1
100
AcDbLine
 10
53.97171635229645
 20
-6.003257084400623
 30
0.0
 11
53.95968734424782
 21
-6.061916468504286
 31
0.0
  0
LINE
  5
462
330
18
100
AcDbEntity
  8
1
 62
     1
100
AcDbLine
 10
53.95968734424782
 20
-6.061916468504286
 30
0.0
 11
53.94553578346228
 21
-6.119263964767322
 31
0.0
  0
LINE
  5
463
330
18
100
AcDbEntity
  8
1
 62
     1
100
AcDbLine
 10
53.94553578346228
 20
-6.119263964767322
 30
0.0
 11
53.92928395197121
 21
-6.17522849118099
 31
0.0
  0
LINE
  5
464
330
18
100
AcDbEntity
  8
1
 62
     1
100
AcDbLine
 10
53.92928395197121
 20
-6.17522849118099
 30
0.0
 11
53.91095608970502
 21
-6.229784891273653
 31
0.0
  0
LINE
  5
465
330
18
100
AcDbEntity
  8
1
 62
     1
100
AcDbLine
 10
53.91095608970502
 20
-6.229784891273653
 30
0.0
 11
53.89060058552392
 21
-6.282842744774977
 31
0.0
  0
LINE
  5
466
330
18
100
AcDbEntity
  8
1
 62
     1
100
AcDbLine
 10
53.89060058552392
 20
-6.282842744774977
 30
0.0
 11
53.86826539412806
 21
-6.334312029116264
 31
0.0
  0
LINE
  5
467
330
18
100
AcDbEntity
  8
1
 62
     1
100
AcDbLine
 10
53.86826539412806
 20
-6.334312029116264
 30
0.0
 11
53.84397514761911
 21
-6.384171781092421
 31
0.0
  0
LINE
  5
468
330
18
100
AcDbEntity
  8
1
 62
     1
100
AcDbLine
 10
53.84397514761911
 20
-6.384171781092421
 30
0.0
 11
53.81777911281858
 21
-6.432378052670586
 31
0.0
  0
LINE
  5
469
330
18
100
AcDbEntity
  8
1
 62
     1
100
AcDbLine
 10
53.81777911281858
 20
-6.432378052670586
 30
0.0
 11
53.78974066220315
 21
-6.478858894124764
 31
0.0
  0
LINE
  5
46A
330
18
100
AcDbEntity
  8
1
 62
     1
100
AcDbLine
 10
53.78974066220315
 20
-6.478858894124764
 30
0.0
 11
53.75991290718229
 21
-6.523559983358318
 31
0.0
  0
LINE
  5
46B
330
18
100
AcDbEntity
  8
1
 62
     1
100
AcDbLine
 10
53.75991290718229
 20
-6.523559983358318
 30
0.0
 11
53.72832609215818
 21
-6.566483001029691
 31
0.0
  0
LINE
  5
46C
330
18
100
AcDbEntity
  8
1
 62
     1
100
AcDbLine
 10
53.72832609215818
 20
-6.566483001029691
 30
0.0
 11
53.69504896349131
 21
-6.607583417842011
 31
0.0
  0
LINE
  5
46D
330
18
100
AcDbEntity
  8
1
 62
     1
100
AcDbLine
 10
53.69504896349131
 20
-6.607583417842011
 30
0.0
 11
53.66015373150617
 21
-6.646811525508461
 31
0.0
  0
LINE
  5
46E
330
18
100
AcDbEntity
  8
1
 62
     1
100
AcDbLine
 10
53.66015373150617
 20
-6.646811525508461
 30
0.0
 11
53.62368051400332
 21
-6.684158357527262
 31
0.0
  0
LINE
  5
46F
330
18
100
AcDbEntity
  8
1
 62
     1
100
AcDbLine
 10
53.62368051400332
 20
-6.684158357527262
 30
0.0
 11
53.58567810052228
 21
-6.719621700174151
 31
0.0
  0
LINE
  5
470
330
18
100
AcDbEntity
  8
1
 62
     1
100
AcDbLine
 10
53.58567810052228
 20
-6.719621700174151
 30
0.0
 11
53.54622219811946
 21
-6.753172720315624
 31
0.0
  0
LINE
  5
471
330
18
100
AcDbEntity
  8
1
 62
     1
100
AcDbLine
 10
53.54622219811946
 20
-6.753172720315624
 30
0.0
 11
53.50538122207474
 21
-6.784788764419637
 31
0.0
  0
LINE
  5
472
330
18
100
AcDbEntity
  8
1
 62
     1
100
AcDbLine
 10
53.50538122207474
 20
-6.784788764419637
 30
0.0
 11
53.46318313097754
 21
-6.814487639960745
 31
0.0
  0
LINE
  5
473
330
18
100
AcDbEntity
  8
1
 62
     1
100
AcDbLine
 10
53.46318313097754
 20
-6.814487639960745
 30
0.0
 11
53.41969400601719
 21
-6.842264811780705
 31
0.0
  0
LINE
  5
474
330
18
100
AcDbEntity
  8
1
 62
     1
100
AcDbLine
 10
53.41969400601719
 20
-6.842264811780705
 30
0.0
 11
53.37498839021897
 21
-6.868109333288292
 31
0.0
  0
LINE
  5
475
330
18
100
AcDbEntity
  8
1
 62
     1
100
AcDbLine
 10
53.37498839021897
 20
-6.868109333288292
 30
0.0
 11
53.32911397233401
 21
-6.892026983473864
 31
0.0
  0
LINE
  5
476
330
18
100
AcDbEntity
  8
1
 62
     1
100
AcDbLine
 10
53.32911397233401
 20
-6.892026983473864
 30
0.0
 11
53.28210472775424
 21
-6.914038921859686
 31
0.0
  0
LINE
  5
477
330
18
100
AcDbEntity
  8
1
 62
     1
100
AcDbLine
 10
53.28210472775424
 20
-6.914038921859686
 30
0.0
 11
53.23403063474863
 21
-6.934148296852137
 31
0.0
  0
LINE
  5
478
330
18
100
AcDbEntity
  8
1
 62
     1
100
AcDbLine
 10
53.23403063474863
 20
-6.934148296852137
 30
0.0
 11
53.18495829265339
 21
-6.952359555399859
 31
0.0
  0
LINE
  5
479
330
18
100
AcDbEntity
  8
1
 62
     1
100
AcDbLine
 10
53.18495829265339
 20
-6.952359555399859
 30
0.0
 11
53.13491028952441
 21
-6.968696923405046
 31
0.0
  0
LINE
  5
47A
330
18
100
AcDbEntity
  8
1
 62
     1
100
AcDbLine
 10
53.13491028952441
 20
-6.968696923405046
 30
0.0
 11
53.08393747327657
 21
-6.983178199782374
 31
0.0
  0
LINE
  5
47B
330
18
100
AcDbEntity
  8
1
 62
     1
100
AcDbLine
 10
53.08393747327657
 20
-6.983178199782374
 30
0.0
 11
53.03210407384473
 21
-6.995816421051854
 31
0.0
  0
LINE
  5
47C
330
18
100
AcDbEntity
  8
1
 62
     1
100
AcDbLine
 10
53.03210407384473
 20
-6.995816421051854
 30
0.0
 11
52.9794557995693
 21
-7.006629303972727
 31
0.0
  0
LINE
  5
47D
330
18
100
AcDbEntity
  8
1
 62
     1
100
AcDbLine
 10
52.9794557995693
 20
-7.006629303972727
 30
0.0
 11
52.87182746566634
 21
-7.022880468859185
 31
0.0
  0
LINE
  5
47E
330
18
100
AcDbEntity
  8
1
 62
     1
100
AcDbLine
 10
52.87182746566634
 20
-7.022880468859185
 30
0.0
 11
52.7614263361234
 21
-7.032103397219621
 31
0.0
  0
LINE
  5
47F
330
18
100
AcDbEntity
  8
1
 62
     1
100
AcDbLine
 10
52.7614263361234
 20
-7.032103397219621
 30
0.0
 11
52.64851433723747
 21
-7.034492066861349
 31
0.0
  0
LINE
  5
480
330
18
100
AcDbEntity
  8
1
 62
     1
100
AcDbLine
 10
52.64851433723747
 20
-7.034492066861349
 30
0.0
 11
52.533405704713
 21
-7.030239350462744
 31
0.0
  0
LINE
  5
481
330
18
100
AcDbEntity
  8
1
 62
     1
100
AcDbLine
 10
52.533405704713
 20
-7.030239350462744
 30
0.0
 11
52.41633606876568
 21
-7.019547244984947
 31
0.0
  0
LINE
  5
482
330
18
100
AcDbEntity
  8
1
 62
     1
100
AcDbLine
 10
52.41633606876568
 20
-7.019547244984947
 30
0.0
 11
52.29754644024567
 21
-7.002613200323861
 31
0.0
  0
LINE
  5
483
330
18
100
AcDbEntity
  8
1
 62
     1
100
AcDbLine
 10
52.29754644024567
 20
-7.002613200323861
 30
0.0
 11
52.17726541034793
 21
-6.979640320274588
 31
0.0
  0
LINE
  5
484
330
18
100
AcDbEntity
  8
1
 62
     1
100
AcDbLine
 10
52.17726541034793
 20
-6.979640320274588
 30
0.0
 11
52.05567043314788
 21
-6.950818171007029
 31
0.0
  0
LINE
  5
485
330
18
100
AcDbEntity
  8
1
 62
     1
100
AcDbLine
 10
52.05567043314788
 20
-6.950818171007029
 30
0.0
 11
51.93297426750153
 21
-6.916345288747086
 31
0.0
  0
LINE
  5
486
330
18
100
AcDbEntity
  8
1
 62
     1
100
AcDbLine
 10
51.93297426750153
 20
-6.916345288747086
 30
0.0
 11
51.8092829721526
 21
-6.876386836443169
 31
0.0
  0
LINE
  5
487
330
18
100
AcDbEntity
  8
1
 62
     1
100
AcDbLine
 10
51.8092829721526
 20
-6.876386836443169
 30
0.0
 11
51.68482793094378
 21
-6.831148556357233
 31
0.0
  0
LINE
  5
488
330
18
100
AcDbEntity
  8
1
 62
     1
100
AcDbLine
 10
51.68482793094378
 20
-6.831148556357233
 30
0.0
 11
51.43420150611369
 21
-6.725515568851117
 31
0.0
  0
LINE
  5
48B
330
18
100
AcDbEntity
  8
1
 62
     1
100
AcDbLine
 10
54.0
 20
-2.687503598192164
 30
0.0
 11
53.99909638354261
 21
-6.155707361598199
 31
0.0
  0
LINE
  5
48C
330
18
100
AcDbEntity
  8
1
 62
     1
100
AcDbLine
 10
52.0
 20
4.553248908700425
 30
0.0
 11
50.22562087495711
 21
5.72862639173757
 31
0.0
  0
LINE
  5
48D
330
18
100
AcDbEntity
  8
1
 62
     1
100
AcDbLine
 10
50.22562087495711
 20
5.72862639173757
 30
0.0
 11
48.45123371039021
 21
6.796253917345897
 31
0.0
  0
LINE
  5
48E
330
18
100
AcDbEntity
  8
1
 62
     1
100
AcDbLine
 10
48.45123371039021
 20
6.796253917345897
 30
0.0
 11
46.67684636806657
 21
7.736043331763561
 31
0.0
  0
LINE
  5
48F
330
18
100
AcDbEntity
  8
1
 62
     1
100
AcDbLine
 10
46.67684636806657
 20
7.736043331763561
 30
0.0
 11
45.78965537462122
 21
8.152369993853401
 31
0.0
  0
LINE
  5
490
330
18
100
AcDbEntity
  8
1
 62
     1
100
AcDbLine
 10
45.78965537462122
 20
8.152369993853401
 30
0.0
 11
44.90246752689002
 21
8.530313533042406
 31
0.0
  0
LINE
  5
491
330
18
100
AcDbEntity
  8
1
 62
     1
100
AcDbLine
 10
44.90246752689002
 20
8.530313533042406
 30
0.0
 11
44.01527997776377
 21
8.868095851216695
 31
0.0
  0
LINE
  5
492
330
18
100
AcDbEntity
  8
1
 62
     1
100
AcDbLine
 10
44.01527997776377
 20
8.868095851216695
 30
0.0
 11
43.12808935226772
 21
9.164128088316598
 31
0.0
  0
LINE
  5
493
330
18
100
AcDbEntity
  8
1
 62
     1
100
AcDbLine
 10
43.12808935226772
 20
9.164128088316598
 30
0.0
 11
42.24089639638503
 21
9.417015719912155
 31
0.0
  0
LINE
  5
494
330
18
100
AcDbEntity
  8
1
 62
     1
100
AcDbLine
 10
42.24089639638503
 20
9.417015719912155
 30
0.0
 11
41.35370235597115
 21
9.625567775669404
 31
0.0
  0
LINE
  5
495
330
18
100
AcDbEntity
  8
1
 62
     1
100
AcDbLine
 10
41.35370235597115
 20
9.625567775669404
 30
0.0
 11
40.46650838971546
 21
9.788802080547055
 31
0.0
  0
LINE
  5
496
330
18
100
AcDbEntity
  8
1
 62
     1
100
AcDbLine
 10
40.46650838971546
 20
9.788802080547055
 30
0.0
 11
39.57931538252843
 21
9.905949917548667
 31
0.0
  0
LINE
  5
497
330
18
100
AcDbEntity
  8
1
 62
     1
100
AcDbLine
 10
39.57931538252843
 20
9.905949917548667
 30
0.0
 11
38.69212462268423
 21
9.97645981873026
 31
0.0
  0
LINE
  5
498
330
18
100
AcDbEntity
  8
1
 62
     1
100
AcDbLine
 10
38.69212462268423
 20
9.97645981873026
 30
0.0
 11
37.80493701616997
 21
10.0
 31
0.0
  0
LINE
  5
499
330
18
100
AcDbEntity
  8
1
 62
     1
100
AcDbLine
 10
37.80493701616997
 20
10.0
 30
0.0
 11
37.10318574591365
 21
9.985269776388561
 31
0.0
  0
LINE
  5
49A
330
18
100
AcDbEntity
  8
1
 62
     1
100
AcDbLine
 10
37.10318574591365
 20
9.985269776388561
 30
0.0
 11
36.4014374301439
 21
9.941122798412422
 31
0.0
  0
LINE
  5
49B
330
18
100
AcDbEntity
  8
1
 62
     1
100
AcDbLine
 10
36.4014374301439
 20
9.941122798412422
 30
0.0
 11
35.69969085776511
 21
9.867689528420747
 31
0.0
  0
LINE
  5
49C
330
18
100
AcDbEntity
  8
1
 62
     1
100
AcDbLine
 10
35.69969085776511
 20
9.867689528420747
 30
0.0
 11
34.99794560050109
 21
9.765186417094739
 31
0.0
  0
LINE
  5
49D
330
18
100
AcDbEntity
  8
1
 62
     1
100
AcDbLine
 10
34.99794560050109
 20
9.765186417094739
 30
0.0
 11
34.2962005411278
 21
9.633915531310023
 31
0.0
  0
LINE
  5
49E
330
18
100
AcDbEntity
  8
1
 62
     1
100
AcDbLine
 10
34.2962005411278
 20
9.633915531310023
 30
0.0
 11
33.59445521607947
 21
9.4742633349579
 31
0.0
  0
LINE
  5
49F
330
18
100
AcDbEntity
  8
1
 62
     1
100
AcDbLine
 10
33.59445521607947
 20
9.4742633349579
 30
0.0
 11
32.89270852878374
 21
9.28669996587968
 31
0.0
  0
LINE
  5
4A0
330
18
100
AcDbEntity
  8
1
 62
     1
100
AcDbLine
 10
32.89270852878374
 20
9.28669996587968
 30
0.0
 11
32.1909600834448
 21
9.071777353986382
 31
0.0
  0
LINE
  5
4A1
330
18
100
AcDbEntity
  8
1
 62
     1
100
AcDbLine
 10
37.80493701616997
 20
10.0
 30
0.0
 11
42.82204891137606
 21
10.0
 31
0.0
  0
LINE
  5
4B1
330
18
100
AcDbEntity
  8
1
 62
     1
100
AcDbLine
 10
53.98339255014246
 20
6.364131278851542
 30
0.0
 11
53.98173099714806
 21
6.365919727414082
 31
0.0
  0
LINE
  5
4B2
330
18
100
AcDbEntity
  8
1
 62
     1
100
AcDbLine
 10
53.98173099714806
 20
6.365919727414082
 30
0.0
 11
53.97582964463254
 21
6.371747172507888
 31
0.0
  0
LINE
  5
4B3
330
18
100
AcDbEntity
  8
1
 62
     1
100
AcDbLine
 10
53.97582964463254
 20
6.371747172507888
 30
0.0
 11
53.96123755887393
 21
6.384787189568521
 31
0.0
  0
LINE
  5
4B4
330
18
100
AcDbEntity
  8
1
 62
     1
100
AcDbLine
 10
53.96123755887393
 20
6.384787189568521
 30
0.0
 11
53.94268041032651
 21
6.399861051076549
 31
0.0
  0
LINE
  5
4B5
330
18
100
AcDbEntity
  8
1
 62
     1
100
AcDbLine
 10
53.94268041032651
 20
6.399861051076549
 30
0.0
 11
53.89242937383258
 21
6.437053240968634
 31
0.0
  0
LINE
  5
4B6
330
18
100
AcDbEntity
  8
1
 62
     1
100
AcDbLine
 10
53.89242937383258
 20
6.437053240968634
 30
0.0
 11
53.73023973384725
 21
6.5466389961162
 31
0.0
  0
LINE
  5
4B7
330
18
100
AcDbEntity
  8
1
 62
     1
100
AcDbLine
 10
53.73023973384725
 20
6.5466389961162
 30
0.0
 11
53.13434996437425
 21
6.928496904613562
 31
0.0
  0
LINE
  5
4B8
330
18
100
AcDbEntity
  8
1
 62
     1
100
AcDbLine
 10
53.13434996437425
 20
6.928496904613562
 30
0.0
 11
52.55987437599401
 21
7.277770714831046
 31
0.0
  0
LINE
  5
4B9
330
18
100
AcDbEntity
  8
1
 62
     1
100
AcDbLine
 10
52.55987437599401
 20
7.277770714831046
 30
0.0
 11
52.00000000000001
 21
7.583869766733746
 31
0.0
  0
LINE
  5
4BA
330
18
100
AcDbEntity
  8
1
 62
     1
100
AcDbLine
 10
53.99999999999999
 20
2.501545599407231
 30
0.0
 11
53.99980775578282
 21
2.510315531393574
 31
0.0
  0
LINE
  5
4BB
330
18
100
AcDbEntity
  8
1
 62
     1
100
AcDbLine
 10
53.99980775578282
 20
2.510315531393574
 30
0.0
 11
53.99923160484664
 21
2.519314231498975
 31
0.0
  0
LINE
  5
4BC
330
18
100
AcDbEntity
  8
1
 62
     1
100
AcDbLine
 10
53.99923160484664
 20
2.519314231498975
 30
0.0
 11
53.99827241976439
 21
2.528539981008134
 31
0.0
  0
LINE
  5
4BD
330
18
100
AcDbEntity
  8
1
 62
     1
100
AcDbLine
 10
53.99827241976439
 20
2.528539981008134
 30
0.0
 11
53.99693107310914
 21
2.537991061205754
 31
0.0
  0
LINE
  5
4BE
330
18
100
AcDbEntity
  8
1
 62
     1
100
AcDbLine
 10
53.99693107310914
 20
2.537991061205754
 30
0.0
 11
53.99310538537132
 21
2.557562338805154
 31
0.0
  0
LINE
  5
4BF
330
18
100
AcDbEntity
  8
1
 62
     1
100
AcDbLine
 10
53.99310538537132
 20
2.557562338805154
 30
0.0
 11
53.98776081196343
 21
2.578017453770723
 31
0.0
  0
LINE
  5
4C0
330
18
100
AcDbEntity
  8
1
 62
     1
100
AcDbLine
 10
53.98776081196343
 20
2.578017453770723
 30
0.0
 11
53.9809024409741
 21
2.599368161597114
 31
0.0
  0
LINE
  5
4C1
330
18
100
AcDbEntity
  8
1
 62
     1
100
AcDbLine
 10
53.9809024409741
 20
2.599368161597114
 30
0.0
 11
53.97254896394888
 21
2.621598177513607
 31
0.0
  0
LINE
  5
4C2
330
18
100
AcDbEntity
  8
1
 62
     1
100
AcDbLine
 10
53.97254896394888
 20
2.621598177513607
 30
0.0
 11
53.96272149210222
 21
2.644683646086204
 31
0.0
  0
LINE
  5
4C3
330
18
100
AcDbEntity
  8
1
 62
     1
100
AcDbLine
 10
53.96272149210222
 20
2.644683646086204
 30
0.0
 11
53.95143549906761
 21
2.668614974124173
 31
0.0
  0
LINE
  5
4C4
330
18
100
AcDbEntity
  8
1
 62
     1
100
AcDbLine
 10
53.95143549906761
 20
2.668614974124173
 30
0.0
 11
53.92457205252502
 21
2.718981842898685
 31
0.0
  0
LINE
  5
4C5
330
18
100
AcDbEntity
  8
1
 62
     1
100
AcDbLine
 10
53.92457205252502
 20
2.718981842898685
 30
0.0
 11
53.89219327909849
 21
2.772504060001559
 31
0.0
  0
LINE
  5
4C6
330
18
100
AcDbEntity
  8
1
 62
     1
100
AcDbLine
 10
53.89219327909849
 20
2.772504060001559
 30
0.0
 11
53.85453044474922
 21
2.829031167306013
 31
0.0
  0
LINE
  5
4C7
330
18
100
AcDbEntity
  8
1
 62
     1
100
AcDbLine
 10
53.85453044474922
 20
2.829031167306013
 30
0.0
 11
53.76453952626925
 21
2.950165796475495
 31
0.0
  0
LINE
  5
4C8
330
18
100
AcDbEntity
  8
1
 62
     1
100
AcDbLine
 10
53.76453952626925
 20
2.950165796475495
 30
0.0
 11
53.65705862308583
 21
3.080501984159107
 31
0.0
  0
LINE
  5
4C9
330
18
100
AcDbEntity
  8
1
 62
     1
100
AcDbLine
 10
53.65705862308583
 20
3.080501984159107
 30
0.0
 11
53.39978715269396
 21
3.360708883046368
 31
0.0
  0
LINE
  5
4CA
330
18
100
AcDbEntity
  8
1
 62
     1
100
AcDbLine
 10
53.39978715269396
 20
3.360708883046368
 30
0.0
 11
53.10141943435422
 21
3.654151364504093
 31
0.0
  0
LINE
  5
4CB
330
18
100
AcDbEntity
  8
1
 62
     1
100
AcDbLine
 10
53.10141943435422
 20
3.654151364504093
 30
0.0
 11
52.77663748292205
 21
3.947532510119012
 31
0.0
  0
LINE
  5
4CC
330
18
100
AcDbEntity
  8
1
 62
     1
100
AcDbLine
 10
52.77663748292205
 20
3.947532510119012
 30
0.0
 11
52.43605407839549
 21
4.229949153131774
 31
0.0
  0
LINE
  5
4CD
330
18
100
AcDbEntity
  8
1
 62
     1
100
AcDbLine
 10
52.43605407839549
 20
4.229949153131774
 30
0.0
 11
52.00000000000001
 21
4.553248908700417
 31
0.0
  0
LINE
  5
4D1
330
18
100
AcDbEntity
  8
1
 62
     1
100
AcDbLine
 10
49.02518455097485
 20
9.879406092434908
 30
0.0
 11
47.37948422762737
 21
9.383987863703778
 31
0.0
  0
LINE
  5
4F3
330
18
100
AcDbEntity
  8
1
 62
     1
100
AcDbLine
 10
53.99999999999999
 20
6.000010706143138
 30
0.0
 11
54.00000000000001
 21
2.501545599407287
 31
0.0
  0
LINE
  5
4F4
330
18
100
AcDbEntity
  8
1
 62
     1
100
AcDbLine
 10
53.99999999999999
 20
1.894922301847294
 30
0.0
 11
53.99999999999999
 21
2.501545599407219
 31
0.0
  0
LINE
  5
4F5
330
18
100
AcDbEntity
  8
1
 62
     1
100
AcDbLine
 10
53.99999999999999
 20
1.894922301847294
 30
0.0
 11
54.0
 21
-2.687503598192167
 31
0.0
  0
LINE
  5
4F7
330
18
100
AcDbEntity
  8
1
 62
     1
100
AcDbLine
 10
52.0
 20
7.583869766733746
 30
0.0
 11
50.85275916956959
 21
8.131714673390693
 31
0.0
  0
LINE
  5
4F8
330
18
100
AcDbEntity
  8
1
 62
     1
100
AcDbLine
 10
50.85275916956959
 20
8.131714673390693
 30
0.0
 11
49.70550787154454
 21
8.615557086377437
 31
0.0
  0
LINE
  5
4F9
330
18
100
AcDbEntity
  8
1
 62
     1
100
AcDbLine
 10
49.70550787154454
 20
8.615557086377437
 30
0.0
 11
48.55826729638228
 21
9.031585972496616
 31
0.0
  0
LINE
  5
4FA
330
18
100
AcDbEntity
  8
1
 62
     1
100
AcDbLine
 10
48.55826729638228
 20
9.031585972496616
 30
0.0
 11
47.41101330131302
 21
9.376536050731461
 31
0.0
  0
LINE
  5
4FB
330
18
100
AcDbEntity
  8
1
 62
     1
100
AcDbLine
 10
47.41101330131302
 20
9.376536050731461
 30
0.0
 11
46.2637745313865
 21
9.647682892320526
 31
0.0
  0
LINE
  5
4FC
330
18
100
AcDbEntity
  8
1
 62
     1
100
AcDbLine
 10
46.2637745313865
 20
9.647682892320526
 30
0.0
 11
45.11651962356665
 21
9.842900933798787
 31
0.0
  0
LINE
  5
4FD
330
18
100
AcDbEntity
  8
1
 62
     1
100
AcDbLine
 10
45.11651962356665
 20
9.842900933798787
 30
0.0
 11
43.96928199851718
 21
9.960647801447848
 31
0.0
  0
LINE
  5
4FE
330
18
100
AcDbEntity
  8
1
 62
     1
100
AcDbLine
 10
43.96928199851718
 20
9.960647801447848
 30
0.0
 11
42.82204891137606
 21
10.0
 31
0.0
  0
LINE
  5
4FF
330
18
100
AcDbEntity
  8
1
 62
     1
100
AcDbLine
 10
53.99999999999996
 20
1.894922301847303
 30
0.0
 11
50.12018237887253
 21
3.511944321236941
 31
0.0
  0
LINE
  5
500
330
18
100
AcDbEntity
  8
1
 62
     1
100
AcDbLine
 10
50.12018237887253
 20
3.511944321236941
 30
0.0
 11
48.18027356830878
 21
4.21079343535673
 31
0.0
  0
LINE
  5
501
330
18
100
AcDbEntity
  8
1
 62
     1
100
AcDbLine
 10
48.18027356830878
 20
4.21079343535673
 30
0.0
 11
46.24036475774506
 21
4.814999455655286
 31
0.0
  0
LINE
  5
502
330
18
100
AcDbEntity
  8
1
 62
     1
100
AcDbLine
 10
46.24036475774506
 20
4.814999455655286
 30
0.0
 11
44.30045594718132
 21
5.310984340512643
 31
0.0
  0
LINE
  5
503
330
18
100
AcDbEntity
  8
1
 62
     1
100
AcDbLine
 10
44.30045594718132
 20
5.310984340512643
 30
0.0
 11
42.36054713661761
 21
5.687594748781638
 31
0.0
  0
LINE
  5
504
330
18
100
AcDbEntity
  8
1
 62
     1
100
AcDbLine
 10
42.36054713661761
 20
5.687594748781638
 30
0.0
 11
40.42063832605388
 21
5.936372152652758
 31
0.0
  0
LINE
  5
505
330
18
100
AcDbEntity
  8
1
 62
     1
100
AcDbLine
 10
40.42063832605388
 20
5.936372152652758
 30
0.0
 11
38.48072951549016
 21
6.051720639260102
 31
0.0
  0
LINE
  5
506
330
18
100
AcDbEntity
  8
1
 62
     1
100
AcDbLine
 10
51.12193304945268
 20
-3.212019260157663
 30
0.0
 11
38.48072934875771
 21
6.051720368509522
 31
0.0
  0
LINE
  5
508
330
18
100
AcDbEntity
  8
1
 62
     1
100
AcDbLine
 10
12.0
 20
-8.779246961599161
 30
0.0
 11
12.0
 21
-9.938252525538523
 31
0.0
  0
LINE
  5
509
330
18
100
AcDbEntity
  8
1
 62
     1
100
AcDbLine
 10
12.0
 20
-8.779246961599165
 30
0.0
 11
12.0
 21
-2.015828937248303
 31
0.0
  0
LINE
  5
50A
330
18
100
AcDbEntity
  8
1
 62
     1
100
AcDbLine
 10
12.0
 20
1.840710052608945
 30
0.0
 11
12.0
 21
-2.015828937248303
 31
0.0
  0
LINE
  5
50B
330
18
100
AcDbEntity
  8
1
 62
     1
100
AcDbLine
 10
12.0
 20
1.840710052608948
 30
0.0
 11
12.0
 21
5.267606255013189
 31
0.0
  0
LINE
  5
50C
330
18
100
AcDbEntity
  8
1
 62
     1
100
AcDbLine
 10
12.0
 20
5.267606255013189
 30
0.0
 11
12.0
 21
8.692401726813496
 31
0.0
  0
LINE
  5
50D
330
18
100
AcDbEntity
  8
1
 62
     1
100
AcDbLine
 10
12.0
 20
9.916868337545004
 30
0.0
 11
12.0
 21
8.692401726813496
 31
0.0
  0
LINE
  5
50E
330
18
100
AcDbEntity
  8
1
 62
     1
100
AcDbLine
 10
29.6824053556703
 20
-9.999999999992564
 30
0.0
 11
28.57725790095813
 21
-9.963480123002751
 31
0.0
  0
LINE
  5
50F
330
18
100
AcDbEntity
  8
1
 62
     1
100
AcDbLine
 10
28.57725790095813
 20
-9.963480123002751
 30
0.0
 11
27.47209915145488
 21
-9.854187601806778
 31
0.0
  0
LINE
  5
510
330
18
100
AcDbEntity
  8
1
 62
     1
100
AcDbLine
 10
27.47209915145488
 20
-9.854187601806778
 30
0.0
 11
26.36695638075376
 21
-9.672922936504004
 31
0.0
  0
LINE
  5
511
330
18
100
AcDbEntity
  8
1
 62
     1
100
AcDbLine
 10
26.36695638075376
 20
-9.672922936504004
 30
0.0
 11
25.2617992671017
 21
-9.421004887081043
 31
0.0
  0
LINE
  5
512
330
18
100
AcDbEntity
  8
1
 62
     1
100
AcDbLine
 10
25.2617992671017
 20
-9.421004887081043
 30
0.0
 11
24.15664768510461
 21
-9.100278635544537
 31
0.0
  0
LINE
  5
513
330
18
100
AcDbEntity
  8
1
 62
     1
100
AcDbLine
 10
24.15664768510461
 20
-9.100278635544537
 30
0.0
 11
23.05150075030904
 21
-8.713085429538679
 31
0.0
  0
LINE
  5
514
330
18
100
AcDbEntity
  8
1
 62
     1
100
AcDbLine
 10
23.05150075030904
 20
-8.713085429538679
 30
0.0
 11
21.94634209488299
 21
-8.262248556779887
 31
0.0
  0
LINE
  5
515
330
18
100
AcDbEntity
  8
1
 62
     1
100
AcDbLine
 10
21.94634209488299
 20
-8.262248556779887
 30
0.0
 11
20.84119940753873
 21
-7.751071751119727
 31
0.0
  0
LINE
  5
516
330
18
100
AcDbEntity
  8
1
 62
     1
100
AcDbLine
 10
20.84119940753873
 20
-7.751071751119727
 30
0.0
 11
19.73604254650007
 21
-7.183274637636992
 31
0.0
  0
LINE
  5
517
330
18
100
AcDbEntity
  8
1
 62
     1
100
AcDbLine
 10
19.73604254650007
 20
-7.183274637636992
 30
0.0
 11
17.52574428132241
 21
-5.894821593775308
 31
0.0
  0
LINE
  5
518
330
18
100
AcDbEntity
  8
1
 62
     1
100
AcDbLine
 10
17.52574428132241
 20
-5.894821593775308
 30
0.0
 11
15.31544326080264
 21
-4.434460584753797
 31
0.0
  0
LINE
  5
519
330
18
100
AcDbEntity
  8
1
 62
     1
100
AcDbLine
 10
15.31544326080264
 20
-4.434460584753797
 30
0.0
 11
12.0
 21
-2.015828937248309
 31
0.0
  0
LINE
  5
51A
330
18
100
AcDbEntity
  8
1
 62
     1
100
AcDbLine
 10
34.69951762162243
 20
-9.999999999801223
 30
0.0
 11
33.9901535105896
 21
-9.98494855796444
 31
0.0
  0
LINE
  5
51B
330
18
100
AcDbEntity
  8
1
 62
     1
100
AcDbLine
 10
33.9901535105896
 20
-9.98494855796444
 30
0.0
 11
33.28079316318098
 21
-9.939839706402402
 31
0.0
  0
LINE
  5
51C
330
18
100
AcDbEntity
  8
1
 62
     1
100
AcDbLine
 10
33.28079316318098
 20
-9.939839706402402
 30
0.0
 11
32.5714320011282
 21
-9.864809959091248
 31
0.0
  0
LINE
  5
51D
330
18
100
AcDbEntity
  8
1
 62
     1
100
AcDbLine
 10
32.5714320011282
 20
-9.864809959091248
 30
0.0
 11
31.86207346905748
 21
-9.760084548486251
 31
0.0
  0
LINE
  5
51E
330
18
100
AcDbEntity
  8
1
 62
     1
100
AcDbLine
 10
31.86207346905748
 20
-9.760084548486251
 30
0.0
 11
31.15271343156969
 21
-9.62597958576608
 31
0.0
  0
LINE
  5
51F
330
18
100
AcDbEntity
  8
1
 62
     1
100
AcDbLine
 10
31.15271343156969
 20
-9.62597958576608
 30
0.0
 11
30.4433547339446
 21
-9.462897524578556
 31
0.0
  0
LINE
  5
520
330
18
100
AcDbEntity
  8
1
 62
     1
100
AcDbLine
 10
30.4433547339446
 20
-9.462897524578556
 30
0.0
 11
29.73399303008127
 21
-9.271330438679012
 31
0.0
  0
LINE
  5
521
330
18
100
AcDbEntity
  8
1
 62
     1
100
AcDbLine
 10
29.73399303008127
 20
-9.271330438679012
 30
0.0
 11
29.02463194127697
 21
-9.051852751390095
 31
0.0
  0
LINE
  5
522
330
18
100
AcDbEntity
  8
1
 62
     1
100
AcDbLine
 10
29.02463194127697
 20
-9.051852751390095
 30
0.0
 11
27.60590230310719
 21
-8.531893632974902
 31
0.0
  0
LINE
  5
523
330
18
100
AcDbEntity
  8
1
 62
     1
100
AcDbLine
 10
27.60590230310719
 20
-8.531893632974902
 30
0.0
 11
26.18717826975955
 21
-7.90928078758223
 31
0.0
  0
LINE
  5
524
330
18
100
AcDbEntity
  8
1
 62
     1
100
AcDbLine
 10
26.18717826975955
 20
-7.90928078758223
 30
0.0
 11
24.76845920000111
 21
-7.191506360589272
 31
0.0
  0
LINE
  5
525
330
18
100
AcDbEntity
  8
1
 62
     1
100
AcDbLine
 10
24.76845920000111
 20
-7.191506360589272
 30
0.0
 11
23.34974056801471
 21
-6.387204663546715
 31
0.0
  0
LINE
  5
526
330
18
100
AcDbEntity
  8
1
 62
     1
100
AcDbLine
 10
23.34974056801471
 20
-6.387204663546715
 30
0.0
 11
21.9310173234782
 21
-5.506050408553218
 31
0.0
  0
LINE
  5
527
330
18
100
AcDbEntity
  8
1
 62
     1
100
AcDbLine
 10
21.9310173234782
 20
-5.506050408553218
 30
0.0
 11
19.09356448399143
 21
-3.556390465534787
 31
0.0
  0
LINE
  5
528
330
18
100
AcDbEntity
  8
1
 62
     1
100
AcDbLine
 10
19.09356448399143
 20
-3.556390465534787
 30
0.0
 11
12.0
 21
1.840710052608945
 31
0.0
  0
LINE
  5
529
330
18
100
AcDbEntity
  8
1
 62
     1
100
AcDbLine
 10
29.6824053556703
 20
-10.0
 30
0.0
 11
34.69951762162243
 21
-10.0
 31
0.0
  0
LINE
  5
52A
330
18
100
AcDbEntity
  8
1
 62
     1
100
AcDbLine
 10
45.92746857577517
 20
-9.999999999962883
 30
0.0
 11
45.29289269558586
 21
-9.987954106522144
 31
0.0
  0
LINE
  5
52B
330
18
100
AcDbEntity
  8
1
 62
     1
100
AcDbLine
 10
45.29289269558586
 20
-9.987954106522144
 30
0.0
 11
44.65832225447569
 21
-9.95184659387856
 31
0.0
  0
LINE
  5
52C
330
18
100
AcDbEntity
  8
1
 62
     1
100
AcDbLine
 10
44.65832225447569
 20
-9.95184659387856
 30
0.0
 11
44.02375291053945
 21
-9.891764894952961
 31
0.0
  0
LINE
  5
52D
330
18
100
AcDbEntity
  8
1
 62
     1
100
AcDbLine
 10
44.02375291053945
 20
-9.891764894952961
 30
0.0
 11
43.38918073223077
 21
-9.807853114817971
 31
0.0
  0
LINE
  5
52E
330
18
100
AcDbEntity
  8
1
 62
     1
100
AcDbLine
 10
43.38918073223077
 20
-9.807853114817971
 30
0.0
 11
42.75460146953286
 21
-9.70031196530156
 31
0.0
  0
LINE
  5
52F
330
18
100
AcDbEntity
  8
1
 62
     1
100
AcDbLine
 10
42.75460146953286
 20
-9.70031196530156
 30
0.0
 11
42.12002503404849
 21
-9.569401518461607
 31
0.0
  0
LINE
  5
530
330
18
100
AcDbEntity
  8
1
 62
     1
100
AcDbLine
 10
42.12002503404849
 20
-9.569401518461607
 30
0.0
 11
40.85088509551102
 21
-9.23879448064666
 31
0.0
  0
LINE
  5
531
330
18
100
AcDbEntity
  8
1
 62
     1
100
AcDbLine
 10
40.85088509551102
 20
-9.23879448064666
 30
0.0
 11
39.58173465396423
 21
-8.81921047808507
 31
0.0
  0
LINE
  5
532
330
18
100
AcDbEntity
  8
1
 62
     1
100
AcDbLine
 10
39.58173465396423
 20
-8.81921047808507
 30
0.0
 11
38.31258652519661
 21
-8.314691981274442
 31
0.0
  0
LINE
  5
533
330
18
100
AcDbEntity
  8
1
 62
     1
100
AcDbLine
 10
38.31258652519661
 20
-8.314691981274442
 30
0.0
 11
37.04344602520881
 21
-7.730102682785625
 31
0.0
  0
LINE
  5
534
330
18
100
AcDbEntity
  8
1
 62
     1
100
AcDbLine
 10
37.04344602520881
 20
-7.730102682785625
 30
0.0
 11
35.77429041495191
 21
-7.071060280799387
 31
0.0
  0
LINE
  5
535
330
18
100
AcDbEntity
  8
1
 62
     1
100
AcDbLine
 10
35.77429041495191
 20
-7.071060280799387
 30
0.0
 11
34.50514997021772
 21
-6.34392742550598
 31
0.0
  0
LINE
  5
536
330
18
100
AcDbEntity
  8
1
 62
     1
100
AcDbLine
 10
34.50514997021772
 20
-6.34392742550598
 30
0.0
 11
31.96685182039328
 21
-4.713956508071037
 31
0.0
  0
LINE
  5
537
330
18
100
AcDbEntity
  8
1
 62
     1
100
AcDbLine
 10
31.96685182039328
 20
-4.713956508071037
 30
0.0
 11
29.42855735419467
 21
-2.902832664686196
 31
0.0
  0
LINE
  5
538
330
18
100
AcDbEntity
  8
1
 62
     1
100
AcDbLine
 10
29.42855735419467
 20
-2.902832664686196
 30
0.0
 11
25.62113950740445
 21
0.0000000000005251
 31
0.0
  0
LINE
  5
539
330
18
100
AcDbEntity
  8
1
 62
     1
100
AcDbLine
 10
50.35722438096093
 20
-9.98424058062741
 30
0.0
 11
50.04743167490492
 21
-9.97592850430226
 31
0.0
  0
LINE
  5
53A
330
18
100
AcDbEntity
  8
1
 62
     1
100
AcDbLine
 10
50.04743167490492
 20
-9.97592850430226
 30
0.0
 11
49.15027732270938
 21
-9.903829673593603
 31
0.0
  0
LINE
  5
53B
330
18
100
AcDbEntity
  8
1
 62
     1
100
AcDbLine
 10
49.15027732270938
 20
-9.903829673593603
 30
0.0
 11
48.25312257502529
 21
-9.784049773735159
 31
0.0
  0
LINE
  5
53C
330
18
100
AcDbEntity
  8
1
 62
     1
100
AcDbLine
 10
48.25312257502529
 20
-9.784049773735159
 30
0.0
 11
47.35596532566635
 21
-9.617165964363287
 31
0.0
  0
LINE
  5
53D
330
18
100
AcDbEntity
  8
1
 62
     1
100
AcDbLine
 10
47.35596532566635
 20
-9.617165964363287
 30
0.0
 11
46.45880738767907
 21
-9.40398205809298
 31
0.0
  0
LINE
  5
53E
330
18
100
AcDbEntity
  8
1
 62
     1
100
AcDbLine
 10
46.45880738767907
 20
-9.40398205809298
 30
0.0
 11
45.56165229742934
 21
-9.145523736325348
 31
0.0
  0
LINE
  5
53F
330
18
100
AcDbEntity
  8
1
 62
     1
100
AcDbLine
 10
45.56165229742934
 20
-9.145523736325348
 30
0.0
 11
44.6644989626086
 21
-8.843037050889023
 31
0.0
  0
LINE
  5
540
330
18
100
AcDbEntity
  8
1
 62
     1
100
AcDbLine
 10
44.6644989626086
 20
-8.843037050889023
 30
0.0
 11
43.76734896576217
 21
-8.497978724604683
 31
0.0
  0
LINE
  5
541
330
18
100
AcDbEntity
  8
1
 62
     1
100
AcDbLine
 10
43.76734896576217
 20
-8.497978724604683
 30
0.0
 11
42.87019869510864
 21
-8.112006288936772
 31
0.0
  0
LINE
  5
542
330
18
100
AcDbEntity
  8
1
 62
     1
100
AcDbLine
 10
42.87019869510864
 20
-8.112006288936772
 30
0.0
 11
41.07588635296292
 21
-7.224944306280471
 31
0.0
  0
LINE
  5
543
330
18
100
AcDbEntity
  8
1
 62
     1
100
AcDbLine
 10
41.07588635296292
 20
-7.224944306280471
 30
0.0
 11
39.28157280641475
 21
-6.198914493557405
 31
0.0
  0
LINE
  5
544
330
18
100
AcDbEntity
  8
1
 62
     1
100
AcDbLine
 10
39.28157280641475
 20
-6.198914493557405
 30
0.0
 11
37.48726949590764
 21
-5.053658172508027
 31
0.0
  0
LINE
  5
545
330
18
100
AcDbEntity
  8
1
 62
     1
100
AcDbLine
 10
37.48726949590764
 20
-5.053658172508027
 30
0.0
 11
33.89865135150107
 21
-2.495431530248076
 31
0.0
  0
LINE
  5
546
330
18
100
AcDbEntity
  8
1
 62
     1
100
AcDbLine
 10
33.89865135150107
 20
-2.495431530248076
 30
0.0
 11
30.310059633909
 21
0.2538454324730524
 31
0.0
  0
LINE
  5
547
330
18
100
AcDbEntity
  8
1
 62
     1
100
AcDbLine
 10
30.310059633909
 20
0.2538454324730524
 30
0.0
 11
26.72143613818733
 21
2.983707074042186
 31
0.0
  0
LINE
  5
548
330
18
100
AcDbEntity
  8
1
 62
     1
100
AcDbLine
 10
26.72143613818733
 20
2.983707074042186
 30
0.0
 11
24.4785489987251
 21
4.586573786262087
 31
0.0
  0
LINE
  5
549
330
18
100
AcDbEntity
  8
1
 62
     1
100
AcDbLine
 10
24.4785489987251
 20
4.586573786262087
 30
0.0
 11
22.23566636534402
 21
6.051720920619406
 31
0.0
  0
LINE
  5
54A
330
18
100
AcDbEntity
  8
1
 62
     1
100
AcDbLine
 10
45.92746857577517
 20
-10.0
 30
0.0
 11
50.0185078088208
 21
-10.0
 31
0.0
  0
ARC
  5
54B
330
18
100
AcDbEntity
  8
1
 62
     1
100
AcDbCircle
 10
13.43848851286324
 20
6.780375493126751
 30
0.0
 40
16.78037875868277
100
AcDbArc
 50
265.0823217043487
 51
269.9960835253936
  0
LINE
  5
54C
330
18
100
AcDbEntity
  8
1
 62
     1
100
AcDbLine
 10
18.45445170744207
 20
-9.999999999995488
 30
0.0
 11
17.64764470285467
 21
-9.980530856014148
 31
0.0
  0
LINE
  5
54D
330
18
100
AcDbEntity
  8
1
 62
     1
100
AcDbLine
 10
17.64764470285467
 20
-9.980530856014148
 30
0.0
 11
16.84083726334238
 21
-9.922199296750212
 31
0.0
  0
LINE
  5
54E
330
18
100
AcDbEntity
  8
1
 62
     1
100
AcDbLine
 10
16.84083726334238
 20
-9.922199296750212
 30
0.0
 11
16.03402865294843
 21
-9.825232739192037
 31
0.0
  0
LINE
  5
54F
330
18
100
AcDbEntity
  8
1
 62
     1
100
AcDbLine
 10
16.03402865294843
 20
-9.825232739192037
 30
0.0
 11
15.22722233894477
 21
-9.690007874182306
 31
0.0
  0
LINE
  5
550
330
18
100
AcDbEntity
  8
1
 62
     1
100
AcDbLine
 10
15.22722233894477
 20
-9.690007874182306
 30
0.0
 11
14.42041469618048
 21
-9.517052110118275
 31
0.0
  0
LINE
  5
551
330
18
100
AcDbEntity
  8
1
 62
     1
100
AcDbLine
 10
14.42041469618048
 20
-9.517052110118275
 30
0.0
 11
13.61360566349954
 21
-9.307039220328027
 31
0.0
  0
LINE
  5
552
330
18
100
AcDbEntity
  8
1
 62
     1
100
AcDbLine
 10
13.61360566349954
 20
-9.307039220328027
 30
0.0
 11
12.80679411271436
 21
-9.060787848645347
 31
0.0
  0
LINE
  5
553
330
18
100
AcDbEntity
  8
1
 62
     1
100
AcDbLine
 10
12.80679411271436
 20
-9.060787848645347
 30
0.0
 11
12.0
 21
-8.779246961599161
 31
0.0
  0
LINE
  5
554
330
18
100
AcDbEntity
  8
1
 62
     1
100
AcDbLine
 10
13.43734148396923
 20
-10.0
 30
0.0
 11
18.45445170744207
 21
-10.0
 31
0.0
  0
LINE
  5
555
330
18
100
AcDbEntity
  8
1
 62
     1
100
AcDbLine
 10
38.48072934875771
 20
6.051720368509522
 30
0.0
 11
36.99276119675059
 21
6.925973814952197
 31
0.0
  0
LINE
  5
556
330
18
100
AcDbEntity
  8
1
 62
     1
100
AcDbLine
 10
36.99276119675059
 20
6.925973814952197
 30
0.0
 11
35.50479281595475
 21
7.708570336132592
 31
0.0
  0
LINE
  5
557
330
18
100
AcDbEntity
  8
1
 62
     1
100
AcDbLine
 10
35.50479281595475
 20
7.708570336132592
 30
0.0
 11
34.01682360581864
 21
8.389153737467786
 31
0.0
  0
LINE
  5
558
330
18
100
AcDbEntity
  8
1
 62
     1
100
AcDbLine
 10
34.01682360581864
 20
8.389153737467786
 30
0.0
 11
32.52885282331528
 21
8.958717334398471
 31
0.0
  0
LINE
  5
559
330
18
100
AcDbEntity
  8
1
 62
     1
100
AcDbLine
 10
32.52885282331528
 20
8.958717334398471
 30
0.0
 11
31.78486784054528
 21
9.199451513281212
 31
0.0
  0
LINE
  5
55A
330
18
100
AcDbEntity
  8
1
 62
     1
100
AcDbLine
 10
31.78486784054528
 20
9.199451513281212
 30
0.0
 11
31.04087974311521
 21
9.4097232891533
 31
0.0
  0
LINE
  5
55B
330
18
100
AcDbEntity
  8
1
 62
     1
100
AcDbLine
 10
31.04087974311521
 20
9.4097232891533
 30
0.0
 11
30.29689323077525
 21
9.588838480019225
 31
0.0
  0
LINE
  5
55C
330
18
100
AcDbEntity
  8
1
 62
     1
100
AcDbLine
 10
30.29689323077525
 20
9.588838480019225
 30
0.0
 11
29.55290550784087
 21
9.73620206753614
 31
0.0
  0
LINE
  5
55D
330
18
100
AcDbEntity
  8
1
 62
     1
100
AcDbLine
 10
29.55290550784087
 20
9.73620206753614
 30
0.0
 11
28.80891981403689
 21
9.851327251019679
 31
0.0
  0
LINE
  5
55E
330
18
100
AcDbEntity
  8
1
 62
     1
100
AcDbLine
 10
28.80891981403689
 20
9.851327251019679
 30
0.0
 11
28.06493404789573
 21
9.933832366059766
 31
0.0
  0
LINE
  5
55F
330
18
100
AcDbEntity
  8
1
 62
     1
100
AcDbLine
 10
28.06493404789573
 20
9.933832366059766
 30
0.0
 11
27.32094896759651
 21
9.983444551169744
 31
0.0
  0
LINE
  5
560
330
18
100
AcDbEntity
  8
1
 62
     1
100
AcDbLine
 10
27.32094896759651
 20
9.983444551169744
 30
0.0
 11
26.57698477362021
 21
9.999999999999991
 31
0.0
  0
LINE
  5
561
330
18
100
AcDbEntity
  8
1
 62
     1
100
AcDbLine
 10
41.86620280694081
 20
0.0000000000000072
 30
0.0
 11
36.78961734974939
 21
3.826836252507622
 31
0.0
  0
LINE
  5
562
330
18
100
AcDbEntity
  8
1
 62
     1
100
AcDbLine
 10
36.78961734974939
 20
3.826836252507622
 30
0.0
 11
34.2513193755256
 21
5.555708359314247
 31
0.0
  0
LINE
  5
563
330
18
100
AcDbEntity
  8
1
 62
     1
100
AcDbLine
 10
34.2513193755256
 20
5.555708359314247
 30
0.0
 11
32.98218000477595
 21
6.343934798911837
 31
0.0
  0
LINE
  5
564
330
18
100
AcDbEntity
  8
1
 62
     1
100
AcDbLine
 10
32.98218000477595
 20
6.343934798911837
 30
0.0
 11
31.71302505254153
 21
7.071074844747197
 31
0.0
  0
LINE
  5
565
330
18
100
AcDbEntity
  8
1
 62
     1
100
AcDbLine
 10
31.71302505254153
 20
7.071074844747197
 30
0.0
 11
30.44388355814196
 21
7.730108517325302
 31
0.0
  0
LINE
  5
566
330
18
100
AcDbEntity
  8
1
 62
     1
100
AcDbLine
 10
30.44388355814196
 20
7.730108517325302
 30
0.0
 11
29.17473876082268
 21
8.314699705076456
 31
0.0
  0
LINE
  5
567
330
18
100
AcDbEntity
  8
1
 62
     1
100
AcDbLine
 10
29.17473876082268
 20
8.314699705076456
 30
0.0
 11
27.90558622673145
 21
8.819217841176277
 31
0.0
  0
LINE
  5
568
330
18
100
AcDbEntity
  8
1
 62
     1
100
AcDbLine
 10
27.90558622673145
 20
8.819217841176277
 30
0.0
 11
26.6364473784402
 21
9.238797511342003
 31
0.0
  0
LINE
  5
569
330
18
100
AcDbEntity
  8
1
 62
     1
100
AcDbLine
 10
26.6364473784402
 20
9.238797511342003
 30
0.0
 11
25.36729377219003
 21
9.569407044538268
 31
0.0
  0
LINE
  5
56A
330
18
100
AcDbEntity
  8
1
 62
     1
100
AcDbLine
 10
25.36729377219003
 20
9.569407044538268
 30
0.0
 11
24.73271994992234
 21
9.700315419619725
 31
0.0
  0
LINE
  5
56B
330
18
100
AcDbEntity
  8
1
 62
     1
100
AcDbLine
 10
24.73271994992234
 20
9.700315419619725
 30
0.0
 11
24.09815051384741
 21
9.807854360431543
 31
0.0
  0
LINE
  5
56C
330
18
100
AcDbEntity
  8
1
 62
     1
100
AcDbLine
 10
24.09815051384741
 20
9.807854360431543
 30
0.0
 11
23.46358122764906
 21
9.891765869742974
 31
0.0
  0
LINE
  5
56D
330
18
100
AcDbEntity
  8
1
 62
     1
100
AcDbLine
 10
23.46358122764906
 20
9.891765869742974
 30
0.0
 11
22.82900814957641
 21
9.95184799702047
 31
0.0
  0
LINE
  5
56E
330
18
100
AcDbEntity
  8
1
 62
     1
100
AcDbLine
 10
22.82900814957641
 20
9.95184799702047
 30
0.0
 11
22.19442876357814
 21
9.98795519330296
 31
0.0
  0
LINE
  5
56F
330
18
100
AcDbEntity
  8
1
 62
     1
100
AcDbLine
 10
22.19442876357814
 20
9.98795519330296
 30
0.0
 11
21.55987366127748
 21
10.0
 31
0.0
  0
LINE
  5
570
330
18
100
AcDbEntity
  8
1
 62
     1
100
AcDbLine
 10
41.86620280694085
 20
0.0000000000000027
 30
0.0
 11
36.9585687619665
 21
2.245695470633587
 31
0.0
  0
LINE
  5
571
330
18
100
AcDbEntity
  8
1
 62
     1
100
AcDbLine
 10
36.9585687619665
 20
2.245695470633587
 30
0.0
 11
34.50475173947932
 21
3.267338684307792
 31
0.0
  0
LINE
  5
572
330
18
100
AcDbEntity
  8
1
 62
     1
100
AcDbLine
 10
34.50475173947932
 20
3.267338684307792
 30
0.0
 11
32.05093471699218
 21
4.171612758057282
 31
0.0
  0
LINE
  5
573
330
18
100
AcDbEntity
  8
1
 62
     1
100
AcDbLine
 10
32.05093471699218
 20
4.171612758057282
 30
0.0
 11
29.597117694505
 21
4.926034474780353
 31
0.0
  0
LINE
  5
574
330
18
100
AcDbEntity
  8
1
 62
     1
100
AcDbLine
 10
29.597117694505
 20
4.926034474780353
 30
0.0
 11
28.37020918326141
 21
5.238344156337656
 31
0.0
  0
LINE
  5
575
330
18
100
AcDbEntity
  8
1
 62
     1
100
AcDbLine
 10
28.37020918326141
 20
5.238344156337656
 30
0.0
 11
27.14330067201782
 21
5.503505578676517
 31
0.0
  0
LINE
  5
576
330
18
100
AcDbEntity
  8
1
 62
     1
100
AcDbLine
 10
27.14330067201782
 20
5.503505578676517
 30
0.0
 11
25.91639216077424
 21
5.719132089732787
 31
0.0
  0
LINE
  5
577
330
18
100
AcDbEntity
  8
1
 62
     1
100
AcDbLine
 10
25.91639216077424
 20
5.719132089732787
 30
0.0
 11
24.68948364953065
 21
5.883282702272592
 31
0.0
  0
LINE
  5
578
330
18
100
AcDbEntity
  8
1
 62
     1
100
AcDbLine
 10
24.68948364953065
 20
5.883282702272592
 30
0.0
 11
23.46257513828707
 21
5.994479557827077
 31
0.0
  0
LINE
  5
579
330
18
100
AcDbEntity
  8
1
 62
     1
100
AcDbLine
 10
23.46257513828707
 20
5.994479557827077
 30
0.0
 11
22.23566662704348
 21
6.051721345578735
 31
0.0
  0
LINE
  5
57A
330
18
100
AcDbEntity
  8
1
 62
     1
100
AcDbLine
 10
22.23566636534402
 20
6.051720920619406
 30
0.0
 11
20.95621086996638
 21
6.808732485092445
 31
0.0
  0
LINE
  5
57B
330
18
100
AcDbEntity
  8
1
 62
     1
100
AcDbLine
 10
20.95621086996638
 20
6.808732485092445
 30
0.0
 11
19.67674036042183
 21
7.499111244178835
 31
0.0
  0
LINE
  5
57C
330
18
100
AcDbEntity
  8
1
 62
     1
100
AcDbLine
 10
19.67674036042183
 20
7.499111244178835
 30
0.0
 11
18.39728339204601
 21
8.116083893764843
 31
0.0
  0
LINE
  5
57D
330
18
100
AcDbEntity
  8
1
 62
     1
100
AcDbLine
 10
18.39728339204601
 20
8.116083893764843
 30
0.0
 11
17.11782360655852
 21
8.653622075125539
 31
0.0
  0
LINE
  5
57E
330
18
100
AcDbEntity
  8
1
 62
     1
100
AcDbLine
 10
17.11782360655852
 20
8.653622075125539
 30
0.0
 11
15.8383545595565
 21
9.106464161718324
 31
0.0
  0
LINE
  5
57F
330
18
100
AcDbEntity
  8
1
 62
     1
100
AcDbLine
 10
15.8383545595565
 20
9.106464161718324
 30
0.0
 11
14.55890175514894
 21
9.470172325243336
 31
0.0
  0
LINE
  5
580
330
18
100
AcDbEntity
  8
1
 62
     1
100
AcDbLine
 10
14.55890175514894
 20
9.470172325243336
 30
0.0
 11
13.91917198938325
 21
9.617456088583423
 31
0.0
  0
LINE
  5
581
330
18
100
AcDbEntity
  8
1
 62
     1
100
AcDbLine
 10
13.91917198938325
 20
9.617456088583423
 30
0.0
 11
13.27943080004451
 21
9.741191854358508
 31
0.0
  0
LINE
  5
582
330
18
100
AcDbEntity
  8
1
 62
     1
100
AcDbLine
 10
13.27943080004451
 20
9.741191854358508
 30
0.0
 11
12.63969826303452
 21
9.8410778060538
 31
0.0
  0
LINE
  5
583
330
18
100
AcDbEntity
  8
1
 62
     1
100
AcDbLine
 10
12.63969826303452
 20
9.8410778060538
 30
0.0
 11
12.0
 21
9.916868337545098
 31
0.0
  0
LINE
  5
584
330
18
100
AcDbEntity
  8
1
 62
     1
100
AcDbLine
 10
25.62113950740445
 20
0.0000000000005251
 30
0.0
 11
18.81056380905063
 21
5.027975468130971
 31
0.0
  0
LINE
  5
585
330
18
100
AcDbEntity
  8
1
 62
     1
100
AcDbLine
 10
18.81056380905063
 20
5.027975468130971
 30
0.0
 11
17.10791775952376
 21
6.119630963677437
 31
0.0
  0
LINE
  5
586
330
18
100
AcDbEntity
  8
1
 62
     1
100
AcDbLine
 10
17.10791775952376
 20
6.119630963677437
 30
0.0
 11
15.40527479885556
 21
7.105280380799547
 31
0.0
  0
LINE
  5
587
330
18
100
AcDbEntity
  8
1
 62
     1
100
AcDbLine
 10
15.40527479885556
 20
7.105280380799547
 30
0.0
 11
13.70263661746086
 21
7.967850362433357
 31
0.0
  0
LINE
  5
588
330
18
100
AcDbEntity
  8
1
 62
     1
100
AcDbLine
 10
13.70263661746086
 20
7.967850362433357
 30
0.0
 11
12.85131662842436
 21
8.348222127032137
 31
0.0
  0
LINE
  5
589
330
18
100
AcDbEntity
  8
1
 62
     1
100
AcDbLine
 10
12.85131662842436
 20
8.348222127032137
 30
0.0
 11
12.00000000000001
 21
8.692401726813496
 31
0.0
  0
LINE
  5
58A
330
18
100
AcDbEntity
  8
1
 62
     1
100
AcDbLine
 10
25.6211395074044
 20
0.0000000000003001
 30
0.0
 11
18.81056975370221
 21
3.04694995119583
 31
0.0
  0
LINE
  5
58B
330
18
100
AcDbEntity
  8
1
 62
     1
100
AcDbLine
 10
18.81056975370221
 20
3.04694995119583
 30
0.0
 11
15.4052848768511
 21
4.305795900017237
 31
0.0
  0
LINE
  5
58C
330
18
100
AcDbEntity
  8
1
 62
     1
100
AcDbLine
 10
15.4052848768511
 20
4.305795900017237
 30
0.0
 11
13.70264243842555
 21
4.828515129888945
 31
0.0
  0
LINE
  5
58D
330
18
100
AcDbEntity
  8
1
 62
     1
100
AcDbLine
 10
13.70264243842555
 20
4.828515129888945
 30
0.0
 11
12.0
 21
5.267606255013186
 31
0.0
  0
LINE
  5
58E
330
18
100
AcDbEntity
  8
1
 62
     1
100
AcDbLine
 10
24.06842782047488
 20
-9.071777184233036
 30
0.0
 11
23.36668160833306
 21
-9.286699779287598
 31
0.0
  0
LINE
  5
58F
330
18
100
AcDbEntity
  8
1
 62
     1
100
AcDbLine
 10
23.36668160833306
 20
-9.286699779287598
 30
0.0
 11
22.66493360914049
 21
-9.474263307790652
 31
0.0
  0
LINE
  5
590
330
18
100
AcDbEntity
  8
1
 62
     1
100
AcDbLine
 10
22.66493360914049
 20
-9.474263307790652
 30
0.0
 11
21.96318616841686
 21
-9.633916723519359
 31
0.0
  0
LINE
  5
591
330
18
100
AcDbEntity
  8
1
 62
     1
100
AcDbLine
 10
21.96318616841686
 20
-9.633916723519359
 30
0.0
 11
21.26143509131497
 21
-9.765188239645583
 31
0.0
  0
LINE
  5
592
330
18
100
AcDbEntity
  8
1
 62
     1
100
AcDbLine
 10
21.26143509131497
 20
-9.765188239645583
 30
0.0
 11
20.55968337508531
 21
-9.867692099370316
 31
0.0
  0
LINE
  5
593
330
18
100
AcDbEntity
  8
1
 62
     1
100
AcDbLine
 10
20.55968337508531
 20
-9.867692099370316
 30
0.0
 11
19.85792953602135
 21
-9.94112485817455
 31
0.0
  0
LINE
  5
594
330
18
100
AcDbEntity
  8
1
 62
     1
100
AcDbLine
 10
19.85792953602135
 20
-9.94112485817455
 30
0.0
 11
19.15617974156028
 21
-9.985270641606886
 31
0.0
  0
LINE
  5
595
330
18
100
AcDbEntity
  8
1
 62
     1
100
AcDbLine
 10
19.15617974156028
 20
-9.985270641606886
 30
0.0
 11
18.45445170744207
 21
-9.999999999995488
 31
0.0
  0
LINE
  5
596
330
18
100
AcDbEntity
  8
1
 62
     1
100
AcDbLine
 10
40.31349269426821
 20
-9.071777761397386
 30
0.0
 11
39.61174123483573
 21
-9.286700341692542
 31
0.0
  0
LINE
  5
597
330
18
100
AcDbEntity
  8
1
 62
     1
100
AcDbLine
 10
39.61174123483573
 20
-9.286700341692542
 30
0.0
 11
38.90999291259347
 21
-9.474264693178408
 31
0.0
  0
LINE
  5
598
330
18
100
AcDbEntity
  8
1
 62
     1
100
AcDbLine
 10
38.90999291259347
 20
-9.474264693178408
 30
0.0
 11
38.20824349840143
 21
-9.633917102669151
 31
0.0
  0
LINE
  5
599
330
18
100
AcDbEntity
  8
1
 62
     1
100
AcDbLine
 10
38.20824349840143
 20
-9.633917102669151
 30
0.0
 11
37.50649549026169
 21
-9.765188609039432
 31
0.0
  0
LINE
  5
59A
330
18
100
AcDbEntity
  8
1
 62
     1
100
AcDbLine
 10
37.50649549026169
 20
-9.765188609039432
 30
0.0
 11
36.80474511259076
 21
-9.867691601471127
 31
0.0
  0
LINE
  5
59B
330
18
100
AcDbEntity
  8
1
 62
     1
100
AcDbLine
 10
36.80474511259076
 20
-9.867691601471127
 30
0.0
 11
36.10299499286423
 21
-9.941124791249956
 31
0.0
  0
LINE
  5
59C
330
18
100
AcDbEntity
  8
1
 62
     1
100
AcDbLine
 10
36.10299499286423
 20
-9.941124791249956
 30
0.0
 11
35.40124057015314
 21
-9.985270913953252
 31
0.0
  0
LINE
  5
59D
330
18
100
AcDbEntity
  8
1
 62
     1
100
AcDbLine
 10
35.40124057015314
 20
-9.985270913953252
 30
0.0
 11
34.69951762162243
 21
-9.999999999801223
 31
0.0
  0
LINE
  5
59E
330
18
100
AcDbEntity
  8
SK1
100
AcDbLine
 10
0.0000000000000013
 20
10.0
 30
0.0
 11
-49.0
 21
10.0
 31
0.0
  0
LINE
  5
59F
330
18
100
AcDbEntity
  8
SK1
100
AcDbLine
 10
-49.0
 20
10.0
 30
0.0
 11
-48.99999999999999
 21
9.990058067056695
 31
0.0
  0
LINE
  5
5A0
330
18
100
AcDbEntity
  8
SK1
100
AcDbLine
 10
-48.99999999999999
 20
9.990058067056695
 30
0.0
 11
-49.0
 21
9.102733877567533
 31
0.0
  0
LINE
  5
5A1
330
18
100
AcDbEntity
  8
SK1
100
AcDbLine
 10
-49.0
 20
9.102733877567533
 30
0.0
 11
-49.0
 21
-10.0
 31
0.0
  0
LINE
  5
5A2
330
18
100
AcDbEntity
  8
SK1
100
AcDbLine
 10
-49.0
 20
10.0
 30
0.0
 11
-50.0
 21
9.0
 31
0.0
  0
LINE
  5
5A3
330
18
100
AcDbEntity
  8
SK1
100
AcDbLine
 10
-50.0
 20
9.0
 30
0.0
 11
-50.0
 21
8.991052260351029
 31
0.0
  0
LINE
  5
5A4
330
18
100
AcDbEntity
  8
SK1
100
AcDbLine
 10
-50.0
 20
8.991052260351029
 30
0.0
 11
-50.0
 21
8.19246048981078
 31
0.0
  0
LINE
  5
5A5
330
18
100
AcDbEntity
  8
SK1
100
AcDbLine
 10
-50.0
 20
8.19246048981078
 30
0.0
 11
-50.0
 21
-9.0
 31
0.0
  0
LINE
  5
5A6
330
18
100
AcDbEntity
  8
SK1
100
AcDbLine
 10
-49.0
 20
-10.0
 30
0.0
 11
-0.0000000000000011
 21
-10.0
 31
0.0
  0
LINE
  5
5A7
330
18
100
AcDbEntity
  8
SK1
100
AcDbLine
 10
-50.0
 20
-9.0
 30
0.0
 11
-49.0
 21
-10.0
 31
0.0
  0
DIMENSION
  5
5A8
330
18
100
AcDbEntity
  8
2
100
AcDbDimension
  2
*D0
 10
69.00000000000003
 20
-10.0
 30
0.0
 11
65.20000000000003
 21
0.0000000000000069
 31
0.0
 70
    32
  1
%%c<>
 71
     5
 42
20.0
  3
SANDVIK_DIM
100
AcDbAlignedDimension
 13
54.0
 23
10.0
 33
0.0
 14
54.0
 24
-10.0
 34
0.0
 50
90.00000000000021
100
AcDbRotatedDimension
1001
ACAD
1000
DSTYLE
1002
{
1070
   279
1070
     0
1070
   140
1040
3.0
1070
    40
1040
1.0
1002
}
  0
DIMENSION
  5
5B5
330
18
100
AcDbEntity
  8
2
100
AcDbDimension
  2
*D1
 10
54.0
 20
75.0
 30
0.0
 11
27.00000000000001
 21
78.79999999999999
 31
0.0
 70
    32
  1
<>
 71
     5
 42
53.99999999999999
  3
SANDVIK_DIM
100
AcDbAlignedDimension
 13
0.0
 23
0.0
 33
0.0
 14
53.99999999999999
 24
0.0
 34
0.0
100
AcDbRotatedDimension
1001
ACAD
1000
DSTYLE
1002
{
1070
   279
1070
     0
1070
   140
1040
3.0
1070
    40
1040
1.0
1002
}
  0
DIMENSION
  5
5CF
330
18
100
AcDbEntity
  8
SK2
100
AcDbDimension
  2
*D3
 10
-64.99999999994897
 20
-9.999999999999994
 30
0.0
 11
-68.79999999994897
 21
-0.0000000000000044
 31
0.0
 70
    32
  1
%%c<>
 71
     5
 42
20.0
  3
SANDVIK_DIM
100
AcDbAlignedDimension
 13
-50.0
 23
10.0
 33
0.0
 14
-50.0
 24
-10.0
 34
0.0
 50
90.00000000029242
100
AcDbRotatedDimension
1001
ACAD
1000
DSTYLE
1002
{
1070
   279
1070
     0
1070
   140
1040
3.0
1070
    40
1040
1.0
1002
}
  0
DIMENSION
  5
5DC
330
18
100
AcDbEntity
  8
SK2
100
AcDbDimension
  2
*D4
 10
54.0
 20
90.0
 30
0.0
 11
2.000000000000003
 21
93.8
 31
0.0
 70
    32
  1
<>
 71
     5
 42
104.0
  3
SANDVIK_DIM
100
AcDbAlignedDimension
 13
-50.0
 23
0.0
 33
0.0
 14
53.99999999999999
 24
0.0
 34
0.0
100
AcDbRotatedDimension
1001
ACAD
1000
DSTYLE
1002
{
1070
   279
1070
     0
1070
   140
1040
3.0
1070
    40
1040
1.0
1002
}
  0
DIMENSION
  5
5E9
330
18
100
AcDbEntity
  8
2
100
AcDbDimension
  2
*D5
 10
6.500000000000007
 20
-9.5
 30
0.0
 11
6.500000000000007
 21
-19.79857142857143
 31
0.0
 70
   160
  1
%%c<>
 71
     5
 42
19.0
  3
SANDVIK_DIM
100
AcDbAlignedDimension
 13
6.500000000000013
 23
9.5
 33
0.0
 14
6.500000000000007
 24
-9.5
 34
0.0
 50
90.0
100
AcDbRotatedDimension
1001
ACAD
1000
DSTYLE
1002
{
1070
    44
1040
1.0
1070
    40
1040
1.0
1070
   140
1040
3.0
1070
   279
1070
     0
1002
}
  0
DIMENSION
  5
5F6
330
18
100
AcDbEntity
  8
2
100
AcDbDimension
  2
*D6
 10
12.0
 20
37.5
 30
0.0
 11
33.0
 21
41.29999999999999
 31
0.0
 70
    32
  1
<>
 71
     5
 42
41.99999999999999
  3
SANDVIK_DIM
100
AcDbAlignedDimension
 13
53.99999999999999
 23
0.0
 33
0.0
 14
12.0
 24
10.0
 34
0.0
100
AcDbRotatedDimension
1001
ACAD
1000
DSTYLE
1002
{
1070
    40
1040
1.0
1070
   140
1040
3.0
1070
   279
1070
     0
1002
}
  0
DIMENSION
  5
8AC
102
{ACAD_XDICTIONARY
360
8B9
102
}
102
{ACAD_REACTORS
330
8C3
102
}
330
18
100
AcDbEntity
  8
2
100
AcDbDimension
  2
*D16
 10
2.000000000000002
 20
55.65213071930407
 30
0.0
 11
28.0
 21
59.45213071930407
 31
0.0
 70
    32
 71
     5
 42
51.99999999999999
  3
SANDVIK_DIM
100
AcDbAlignedDimension
 13
53.99999999999999
 23
0.0
 33
0.0
 14
2.0
 24
9.5
 34
0.0
100
AcDbRotatedDimension
1001
ACAD
1000
DSTYLE
1002
{
1070
    40
1040
1.0
1070
   140
1040
3.0
1070
   279
1070
     0
1002
}
  0
ARC
  5
914
102
{ACAD_REACTORS
330
94D
102
}
330
18
100
AcDbEntity
  8
1
 62
     1
100
AcDbCircle
 10
50.00212682374336
 20
-6.000033542224647
 30
0.0
 40
4.0
100
AcDbArc
 50
270.234640983165
 51
357.7695734993382
  0
ARC
  5
917
330
18
100
AcDbEntity
  8
1
 62
     1
100
AcDbCircle
 10
50.0
 20
6.000010706143121
 30
0.0
 40
4.0
100
AcDbArc
 50
359.9999999999997
 51
104.1042438821143
  0
DIMENSION
  5
93E
102
{ACAD_XDICTIONARY
360
947
102
}
102
{ACAD_REACTORS
330
94D
102
}
330
18
100
AcDbEntity
  8
2
100
AcDbDimension
  2
*D17
 10
50.00212682374336
 20
-6.000033542224647
 30
0.0
 11
59.32539534544664
 21
-21.87228049266902
 31
0.0
 70
    36
 71
     5
 42
4.000000000000009
  3
SANDVIK_DIM
100
AcDbRadialDimension
 15
51.27242756402579
 25
-9.792965920904499
 35
0.0
 40
0.0
1001
ACAD
1000
DSTYLE
1002
{
1070
    40
1040
1.0
1070
   140
1040
3.0
1070
   279
1070
     0
1002
}
1001
ACAD_DSTYLE_DIMRADIAL_EXTENSION
1070
   387
1070
     1
1070
   388
1040
4.716484238101036
1070
   390
1040
0.0
  0
LINE
  5
ACF
330
18
100
AcDbEntity
  8
SK1
100
AcDbLine
 10
-19.5
 20
-5.723635208501669
 30
0.0
 11
-19.5
 21
5.723635208501668
 31
0.0
  0
LINE
  5
AD0
330
18
100
AcDbEntity
  8
SK1
100
AcDbLine
 10
-30.5
 20
-5.723635208501665
 30
0.0
 11
-30.5
 21
5.723635208501668
 31
0.0
  0
LINE
  5
AD1
330
18
100
AcDbEntity
  8
SK1
100
AcDbLine
 10
-30.5
 20
-5.723635208501665
 30
0.0
 11
-19.5
 21
-5.723635208501669
 31
0.0
  0
LINE
  5
AD2
330
18
100
AcDbEntity
  8
SK1
100
AcDbLine
 10
-30.5
 20
5.723635208501668
 30
0.0
 11
-30.69867805632821
 21
5.433225228545357
 31
0.0
  0
LINE
  5
AD3
330
18
100
AcDbEntity
  8
SK1
100
AcDbLine
 10
-30.69867805632821
 20
5.433225228545357
 30
0.0
 11
-30.889246808988
 21
5.132298021972322
 31
0.0
  0
LINE
  5
AD4
330
18
100
AcDbEntity
  8
SK1
100
AcDbLine
 10
-30.889246808988
 20
5.132298021972322
 30
0.0
 11
-31.07110888176733
 21
4.820880927086308
 31
0.0
  0
LINE
  5
AD5
330
18
100
AcDbEntity
  8
SK1
100
AcDbLine
 10
-31.07110888176733
 20
4.820880927086308
 30
0.0
 11
-31.24357005094706
 21
4.499166233707502
 31
0.0
  0
LINE
  5
AD6
330
18
100
AcDbEntity
  8
SK1
100
AcDbLine
 10
-31.24357005094706
 20
4.499166233707502
 30
0.0
 11
-31.40597657745579
 21
4.167305235633197
 31
0.0
  0
LINE
  5
AD7
330
18
100
AcDbEntity
  8
SK1
100
AcDbLine
 10
-31.40597657745579
 20
4.167305235633197
 30
0.0
 11
-31.5576005866277
 21
3.825612771315798
 31
0.0
  0
LINE
  5
AD8
330
18
100
AcDbEntity
  8
SK1
100
AcDbLine
 10
-31.5576005866277
 20
3.825612771315798
 30
0.0
 11
-31.69774056501151
 21
3.474415344889296
 31
0.0
  0
LINE
  5
AD9
330
18
100
AcDbEntity
  8
SK1
100
AcDbLine
 10
-31.69774056501151
 20
3.474415344889296
 30
0.0
 11
-31.82566944254765
 21
3.114174788995561
 31
0.0
  0
LINE
  5
ADA
330
18
100
AcDbEntity
  8
SK1
100
AcDbLine
 10
-31.82566944254765
 20
3.114174788995561
 30
0.0
 11
-31.94066565124405
 21
2.745463567838627
 31
0.0
  0
LINE
  5
ADB
330
18
100
AcDbEntity
  8
SK1
100
AcDbLine
 10
-31.94066565124405
 20
2.745463567838627
 30
0.0
 11
-32.04202784644211
 21
2.368972174733409
 31
0.0
  0
LINE
  5
ADC
330
18
100
AcDbEntity
  8
SK1
100
AcDbLine
 10
-32.04202784644211
 20
2.368972174733409
 30
0.0
 11
-32.12909206336025
 21
1.985512567885518
 31
0.0
  0
LINE
  5
ADD
330
18
100
AcDbEntity
  8
SK1
100
AcDbLine
 10
-32.12909206336025
 20
1.985512567885518
 30
0.0
 11
-32.20125047117147
 21
1.596017046902604
 31
0.0
  0
LINE
  5
ADE
330
18
100
AcDbEntity
  8
SK1
100
AcDbLine
 10
-32.20125047117147
 20
1.596017046902604
 30
0.0
 11
-32.25797078010716
 21
1.201531682774028
 31
0.0
  0
LINE
  5
ADF
330
18
100
AcDbEntity
  8
SK1
100
AcDbLine
 10
-32.25797078010716
 20
1.201531682774028
 30
0.0
 11
-32.29881506969275
 21
0.803203770382224
 31
0.0
  0
LINE
  5
AE0
330
18
100
AcDbEntity
  8
SK1
100
AcDbLine
 10
-32.29881506969275
 20
0.803203770382224
 30
0.0
 11
-32.32345662114632
 21
0.4022633012557738
 31
0.0
  0
LINE
  5
AE1
330
18
100
AcDbEntity
  8
SK1
100
AcDbLine
 10
-32.32345662114632
 20
0.4022633012557738
 30
0.0
 11
-32.33169330734983
 21
0.000000000000005
 31
0.0
  0
LINE
  5
AE2
330
18
100
AcDbEntity
  8
SK1
100
AcDbLine
 10
-32.33169330734983
 20
0.000000000000005
 30
0.0
 11
-32.32345662114631
 21
-0.4022633012557634
 31
0.0
  0
LINE
  5
AE3
330
18
100
AcDbEntity
  8
SK1
100
AcDbLine
 10
-32.32345662114631
 20
-0.4022633012557634
 30
0.0
 11
-32.29881506969274
 21
-0.8032037703822144
 31
0.0
  0
LINE
  5
AE4
330
18
100
AcDbEntity
  8
SK1
100
AcDbLine
 10
-32.29881506969274
 20
-0.8032037703822144
 30
0.0
 11
-32.25797078010716
 21
-1.201531682774021
 31
0.0
  0
LINE
  5
AE5
330
18
100
AcDbEntity
  8
SK1
100
AcDbLine
 10
-32.25797078010716
 20
-1.201531682774021
 30
0.0
 11
-32.20125047117148
 21
-1.596017046902596
 31
0.0
  0
LINE
  5
AE6
330
18
100
AcDbEntity
  8
SK1
100
AcDbLine
 10
-32.20125047117148
 20
-1.596017046902596
 30
0.0
 11
-32.12909206336025
 21
-1.985512567885511
 31
0.0
  0
LINE
  5
AE7
330
18
100
AcDbEntity
  8
SK1
100
AcDbLine
 10
-32.12909206336025
 20
-1.985512567885511
 30
0.0
 11
-32.04202784644213
 21
-2.3689721747334
 31
0.0
  0
LINE
  5
AE8
330
18
100
AcDbEntity
  8
SK1
100
AcDbLine
 10
-32.04202784644213
 20
-2.3689721747334
 30
0.0
 11
-31.94066565124405
 21
-2.745463567838618
 31
0.0
  0
LINE
  5
AE9
330
18
100
AcDbEntity
  8
SK1
100
AcDbLine
 10
-31.94066565124405
 20
-2.745463567838618
 30
0.0
 11
-31.82566944254766
 21
-3.114174788995556
 31
0.0
  0
LINE
  5
AEA
330
18
100
AcDbEntity
  8
SK1
100
AcDbLine
 10
-31.82566944254766
 20
-3.114174788995556
 30
0.0
 11
-31.69774056501151
 21
-3.474415344889287
 31
0.0
  0
LINE
  5
AEB
330
18
100
AcDbEntity
  8
SK1
100
AcDbLine
 10
-31.69774056501151
 20
-3.474415344889287
 30
0.0
 11
-31.5576005866277
 21
-3.825612771315788
 31
0.0
  0
LINE
  5
AEC
330
18
100
AcDbEntity
  8
SK1
100
AcDbLine
 10
-31.5576005866277
 20
-3.825612771315788
 30
0.0
 11
-31.40597657745579
 21
-4.167305235633188
 31
0.0
  0
LINE
  5
AED
330
18
100
AcDbEntity
  8
SK1
100
AcDbLine
 10
-31.40597657745579
 20
-4.167305235633188
 30
0.0
 11
-31.24357005094707
 21
-4.499166233707498
 31
0.0
  0
LINE
  5
AEE
330
18
100
AcDbEntity
  8
SK1
100
AcDbLine
 10
-31.24357005094707
 20
-4.499166233707498
 30
0.0
 11
-31.07110888176734
 21
-4.820880927086301
 31
0.0
  0
LINE
  5
AEF
330
18
100
AcDbEntity
  8
SK1
100
AcDbLine
 10
-31.07110888176734
 20
-4.820880927086301
 30
0.0
 11
-30.889246808988
 21
-5.132298021972313
 31
0.0
  0
LINE
  5
AF0
330
18
100
AcDbEntity
  8
SK1
100
AcDbLine
 10
-30.889246808988
 20
-5.132298021972313
 30
0.0
 11
-30.69867805632821
 21
-5.433225228545349
 31
0.0
  0
LINE
  5
AF1
330
18
100
AcDbEntity
  8
SK1
100
AcDbLine
 10
-30.69867805632821
 20
-5.433225228545349
 30
0.0
 11
-30.5
 21
-5.723635208501665
 31
0.0
  0
LINE
  5
AF2
330
18
100
AcDbEntity
  8
SK1
100
AcDbLine
 10
-30.5
 20
5.723635208501668
 30
0.0
 11
-19.5
 21
5.723635208501668
 31
0.0
  0
LINE
  5
AF3
330
18
100
AcDbEntity
  8
SK1
100
AcDbLine
 10
-19.5
 20
5.723635208501668
 30
0.0
 11
-19.30129955986906
 21
5.43319041563984
 31
0.0
  0
LINE
  5
AF4
330
18
100
AcDbEntity
  8
SK1
100
AcDbLine
 10
-19.30129955986906
 20
5.43319041563984
 30
0.0
 11
-19.11072908254013
 21
5.13225845722279
 31
0.0
  0
LINE
  5
AF5
330
18
100
AcDbEntity
  8
SK1
100
AcDbLine
 10
-19.11072908254013
 20
5.13225845722279
 30
0.0
 11
-18.92887281903285
 21
4.820848216548568
 31
0.0
  0
LINE
  5
AF6
330
18
100
AcDbEntity
  8
SK1
100
AcDbLine
 10
-18.92887281903285
 20
4.820848216548568
 30
0.0
 11
-18.7564171937598
 21
4.499141407716705
 31
0.0
  0
LINE
  5
AF7
330
18
100
AcDbEntity
  8
SK1
100
AcDbLine
 10
-18.7564171937598
 20
4.499141407716705
 30
0.0
 11
-18.59401541511023
 21
4.16728804290124
 31
0.0
  0
LINE
  5
AF8
330
18
100
AcDbEntity
  8
SK1
100
AcDbLine
 10
-18.59401541511023
 20
4.16728804290124
 30
0.0
 11
-18.44237273510371
 21
3.825545616421002
 31
0.0
  0
LINE
  5
AF9
330
18
100
AcDbEntity
  8
SK1
100
AcDbLine
 10
-18.44237273510371
 20
3.825545616421002
 30
0.0
 11
-18.30222957993093
 21
3.474332936431278
 31
0.0
  0
LINE
  5
AFA
330
18
100
AcDbEntity
  8
SK1
100
AcDbLine
 10
-18.30222957993093
 20
3.474332936431278
 30
0.0
 11
-18.17427842225925
 21
3.114017324571716
 31
0.0
  0
LINE
  5
AFB
330
18
100
AcDbEntity
  8
SK1
100
AcDbLine
 10
-18.17427842225925
 20
3.114017324571716
 30
0.0
 11
-18.0592799652668
 21
2.745267723316786
 31
0.0
  0
LINE
  5
AFC
330
18
100
AcDbEntity
  8
SK1
100
AcDbLine
 10
-18.0592799652668
 20
2.745267723316786
 30
0.0
 11
-17.95791093933479
 21
2.36872774901448
 31
0.0
  0
LINE
  5
AFD
330
18
100
AcDbEntity
  8
SK1
100
AcDbLine
 10
-17.95791093933479
 20
2.36872774901448
 30
0.0
 11
-17.87085667239691
 21
1.985267532941418
 31
0.0
  0
LINE
  5
AFE
330
18
100
AcDbEntity
  8
SK1
100
AcDbLine
 10
-17.87085667239691
 20
1.985267532941418
 30
0.0
 11
-17.79870842368339
 21
1.595771201328567
 31
0.0
  0
LINE
  5
AFF
330
18
100
AcDbEntity
  8
SK1
100
AcDbLine
 10
-17.79870842368339
 20
1.595771201328567
 30
0.0
 11
-17.7419990098018
 21
1.201288895733098
 31
0.0
  0
LINE
  5
B00
330
18
100
AcDbEntity
  8
SK1
100
AcDbLine
 10
-17.7419990098018
 20
1.201288895733098
 30
0.0
 11
-17.70116586281069
 21
0.8029689243635669
 31
0.0
  0
LINE
  5
B01
330
18
100
AcDbEntity
  8
SK1
100
AcDbLine
 10
-17.70116586281069
 20
0.8029689243635669
 30
0.0
 11
-17.67653544997787
 21
0.4020722541259851
 31
0.0
  0
LINE
  5
B02
330
18
100
AcDbEntity
  8
SK1
100
AcDbLine
 10
-17.67653544997787
 20
0.4020722541259851
 30
0.0
 11
-17.66830669396241
 21
-0.0001604739662316
 31
0.0
  0
LINE
  5
B03
330
18
100
AcDbEntity
  8
SK1
100
AcDbLine
 10
-17.66830669396241
 20
-0.0001604739662316
 30
0.0
 11
-17.67654953304668
 21
-0.4024135106246816
 31
0.0
  0
LINE
  5
B04
330
18
100
AcDbEntity
  8
SK1
100
AcDbLine
 10
-17.67654953304668
 20
-0.4024135106246816
 30
0.0
 11
-17.70119637075518
 21
-0.8033432875984384
 31
0.0
  0
LINE
  5
B05
330
18
100
AcDbEntity
  8
SK1
100
AcDbLine
 10
-17.70119637075518
 20
-0.8033432875984384
 30
0.0
 11
-17.74204504734472
 21
-1.201660191987188
 31
0.0
  0
LINE
  5
B06
330
18
100
AcDbEntity
  8
SK1
100
AcDbLine
 10
-17.74204504734472
 20
-1.201660191987188
 30
0.0
 11
-17.79876882776384
 21
-1.596134348853246
 31
0.0
  0
LINE
  5
B07
330
18
100
AcDbEntity
  8
SK1
100
AcDbLine
 10
-17.79876882776384
 20
-1.596134348853246
 30
0.0
 11
-17.87092979152636
 21
-1.985618578931368
 31
0.0
  0
LINE
  5
B08
330
18
100
AcDbEntity
  8
SK1
100
AcDbLine
 10
-17.87092979152636
 20
-1.985618578931368
 30
0.0
 11
-17.95799566391126
 21
-2.369066921598607
 31
0.0
  0
LINE
  5
B09
330
18
100
AcDbEntity
  8
SK1
100
AcDbLine
 10
-17.95799566391126
 20
-2.369066921598607
 30
0.0
 11
-18.05935864219877
 21
-2.745547178853404
 31
0.0
  0
LINE
  5
B0A
330
18
100
AcDbEntity
  8
SK1
100
AcDbLine
 10
-18.05935864219877
 20
-2.745547178853404
 30
0.0
 11
-18.17435480027528
 21
-3.114247482865863
 31
0.0
  0
LINE
  5
B0B
330
18
100
AcDbEntity
  8
SK1
100
AcDbLine
 10
-18.17435480027528
 20
-3.114247482865863
 30
0.0
 11
-18.30228284002238
 21
-3.474477418070113
 31
0.0
  0
LINE
  5
B0C
330
18
100
AcDbEntity
  8
SK1
100
AcDbLine
 10
-18.30228284002238
 20
-3.474477418070113
 30
0.0
 11
-18.44242124524499
 21
-3.825664584956415
 31
0.0
  0
LINE
  5
B0D
330
18
100
AcDbEntity
  8
SK1
100
AcDbLine
 10
-18.44242124524499
 20
-3.825664584956415
 30
0.0
 11
-18.59404300166294
 21
-4.167347205186516
 31
0.0
  0
LINE
  5
B0E
330
18
100
AcDbEntity
  8
SK1
100
AcDbLine
 10
-18.59404300166294
 20
-4.167347205186516
 30
0.0
 11
-18.75644665499766
 21
-4.49919882076058
 31
0.0
  0
LINE
  5
B0F
330
18
100
AcDbEntity
  8
SK1
100
AcDbLine
 10
-18.75644665499766
 20
-4.49919882076058
 30
0.0
 11
-18.92890437256249
 21
-4.820904597722976
 31
0.0
  0
LINE
  5
B10
330
18
100
AcDbEntity
  8
SK1
100
AcDbLine
 10
-18.92890437256249
 20
-4.820904597722976
 30
0.0
 11
-19.11076247892803
 21
-5.132313285130861
 31
0.0
  0
LINE
  5
B11
330
18
100
AcDbEntity
  8
SK1
100
AcDbLine
 10
-19.11076247892803
 20
-5.132313285130861
 30
0.0
 11
-19.30132679713171
 21
-5.433232598190766
 31
0.0
  0
LINE
  5
B12
330
18
100
AcDbEntity
  8
SK1
100
AcDbLine
 10
-19.30132679713171
 20
-5.433232598190766
 30
0.0
 11
-19.5
 21
-5.723635208501669
 31
0.0
  0
ENDSEC
  0
SECTION
  2
OBJECTS
  0
DICTIONARY
  5
C
330
0
100
AcDbDictionary
281
     1
  3
ACAD_CIP_PREVIOUS_PRODUCT_INFO
350
6A6
  3
ACAD_COLOR
350
387
  3
ACAD_DETAILVIEWSTYLE
350
6A1
  3
ACAD_GROUP
350
D
  3
ACAD_LAYOUT
350
301
  3
ACAD_MATERIAL
350
386
  3
ACAD_MLEADERSTYLE
350
60C
  3
ACAD_MLINESTYLE
350
E
  3
ACAD_PLOTSETTINGS
350
302
  3
ACAD_PLOTSTYLENAME
350
2FF
  3
ACAD_SCALELIST
350
3A0
  3
ACAD_SECTIONVIEWSTYLE
350
69F
  3
ACAD_TABLESTYLE
350
388
  3
ACAD_VISUALSTYLE
350
3C5
  3
ACDB_RECOMPOSE_DATA
350
B79
  3
AcDbVariableDictionary
350
357
  0
DICTIONARY
  5
6FF
330
2
100
AcDbDictionary
280
     1
281
     1
  3
ACAD_LAYERSTATES
360
700
  0
DICTIONARY
  5
664
330
F
100
AcDbDictionary
280
     1
281
     1
  3
ADSK_XREC_LAYER_RECONCILED
360
665
  0
DICTIONARY
  5
666
330
23
100
AcDbDictionary
280
     1
281
     1
  3
ADSK_XREC_LAYER_RECONCILED
360
667
  0
DICTIONARY
  5
668
330
24
100
AcDbDictionary
280
     1
281
     1
  3
ADSK_XREC_LAYER_RECONCILED
360
669
  0
DICTIONARY
  5
66A
330
25
100
AcDbDictionary
280
     1
281
     1
  3
ADSK_XREC_LAYER_RECONCILED
360
66B
  0
DICTIONARY
  5
66C
330
26
100
AcDbDictionary
280
     1
281
     1
  3
ADSK_XREC_LAYER_RECONCILED
360
66D
  0
DICTIONARY
  5
66E
330
27
100
AcDbDictionary
280
     1
281
     1
  3
ADSK_XREC_LAYER_RECONCILED
360
66F
  0
DICTIONARY
  5
670
330
28
100
AcDbDictionary
280
     1
281
     1
  3
ADSK_XREC_LAYER_RECONCILED
360
671
  0
DICTIONARY
  5
672
330
29
100
AcDbDictionary
280
     1
281
     1
  3
ADSK_XREC_LAYER_RECONCILED
360
673
  0
DICTIONARY
  5
674
330
2A
100
AcDbDictionary
280
     1
281
     1
  3
ADSK_XREC_LAYER_RECONCILED
360
675
  0
DICTIONARY
  5
676
330
2B
100
AcDbDictionary
280
     1
281
     1
  3
ADSK_XREC_LAYER_RECONCILED
360
677
  0
DICTIONARY
  5
678
330
2C
100
AcDbDictionary
280
     1
281
     1
  3
ADSK_XREC_LAYER_RECONCILED
360
679
  0
DICTIONARY
  5
67A
330
2D
100
AcDbDictionary
280
     1
281
     1
  3
ADSK_XREC_LAYER_RECONCILED
360
67B
  0
DICTIONARY
  5
67C
330
2E
100
AcDbDictionary
280
     1
281
     1
  3
ADSK_XREC_LAYER_RECONCILED
360
67D
  0
DICTIONARY
  5
67E
330
375
100
AcDbDictionary
280
     1
281
     1
  3
ADSK_XREC_LAYER_RECONCILED
360
67F
  0
DICTIONARY
  5
680
330
376
100
AcDbDictionary
280
     1
281
     1
  3
ADSK_XREC_LAYER_RECONCILED
360
681
  0
DICTIONARY
  5
915
330
18
100
AcDbDictionary
280
     1
281
     1
  3
ACAD_SORTENTS
360
916
  0
DICTIONARY
  5
8B9
330
8AC
100
AcDbDictionary
280
     1
281
     1
  3
ACAD_DIMASSOC
360
8C3
  0
DICTIONARY
  5
947
330
93E
100
AcDbDictionary
280
     1
281
     1
  3
ACAD_DIMASSOC
360
94D
  0
XRECORD
  5
6A6
102
{ACAD_REACTORS
330
C
102
}
330
C
100
AcDbXrecord
280
     1
300
AMECH_PP
300
2014
300
86132PDSS_2014_0F
  0
DICTIONARY
  5
387
102
{ACAD_REACTORS
330
C
102
}
330
C
100
AcDbDictionary
281
     1
  0
DICTIONARY
  5
6A1
102
{ACAD_REACTORS
330
C
102
}
330
C
100
AcDbDictionary
281
     1
  3
Metric50
350
6A2
  0
DICTIONARY
  5
D
102
{ACAD_REACTORS
330
C
102
}
330
C
100
AcDbDictionary
281
     1
  0
DICTIONARY
  5
301
102
{ACAD_REACTORS
330
C
102
}
330
C
100
AcDbDictionary
281
     1
  3
Layout1
350
33B
  3
Model
350
303
  0
DICTIONARY
  5
386
102
{ACAD_REACTORS
330
C
102
}
330
C
100
AcDbDictionary
281
     1
  3
ByBlock
350
3C3
  3
ByLayer
350
3C2
  3
Global
350
3C4
  0
DICTIONARY
  5
60C
102
{ACAD_REACTORS
330
C
102
}
330
C
100
AcDbDictionary
281
     1
  3
Standard
350
63C
  0
DICTIONARY
  5
E
102
{ACAD_REACTORS
330
C
102
}
330
C
100
AcDbDictionary
281
     1
  3
STANDARD
350
1B
  0
DICTIONARY
  5
302
102
{ACAD_REACTORS
330
C
102
}
330
C
100
AcDbDictionary
281
     1
  0
ACDBDICTIONARYWDFLT
  5
2FF
102
{ACAD_REACTORS
330
C
102
}
330
C
100
AcDbDictionary
281
     1
  3
Normal
350
300
100
AcDbDictionaryWithDefault
340
300
  0
DICTIONARY
  5
3A0
102
{ACAD_REACTORS
330
C
102
}
330
C
100
AcDbDictionary
281
     1
  3
A0
350
3A1
  3
A1
350
3A2
  3
A2
350
3A3
  3
A3
350
3A4
  3
A4
350
3A5
  3
A5
350
3A6
  3
A6
350
3A7
  3
A7
350
3A8
  3
A8
350
3A9
  3
A9
350
3AA
  3
B0
350
3AB
  3
B1
350
3AC
  3
B2
350
3AD
  3
B3
350
3AE
  3
B4
350
3AF
  3
B5
350
3B0
  3
B6
350
3B1
  3
B7
350
3B2
  3
B8
350
3B3
  3
B9
350
3B4
  3
C0
350
3B5
  3
C1
350
3B6
  3
C2
350
3B7
  3
C3
350
3B8
  3
C4
350
3B9
  3
C5
350
3BA
  3
C6
350
3BB
  3
C7
350
3BC
  3
C8
350
3BD
  3
C9
350
3BE
  3
D0
350
3BF
  3
D1
350
3C0
  3
D2
350
3C1
  0
DICTIONARY
  5
69F
102
{ACAD_REACTORS
330
C
102
}
330
C
100
AcDbDictionary
281
     1
  3
Metric50
350
6A0
  0
DICTIONARY
  5
388
102
{ACAD_REACTORS
330
C
102
}
330
C
100
AcDbDictionary
281
     1
  3
Standard
350
389
  0
DICTIONARY
  5
3C5
102
{ACAD_REACTORS
330
C
102
}
330
C
100
AcDbDictionary
281
     1
  3
2dWireframe
350
3CA
  3
3D Hidden
350
3CC
  3
3dWireframe
350
3CB
  3
Basic
350
3CD
  3
Brighten
350
3D1
  3
ColorChange
350
3D5
  3
Conceptual
350
3CF
  3
Dim
350
3D0
  3
EdgeColorOff
350
63B
  3
Facepattern
350
3D4
  3
Flat
350
3C6
  3
FlatWithEdges
350
3C7
  3
Gouraud
350
3C8
  3
GouraudWithEdges
350
3C9
  3
Hidden
350
699
  3
JitterOff
350
639
  3
Linepattern
350
3D3
  3
OverhangOff
350
63A
  3
Realistic
350
3CE
  3
Shaded
350
69E
  3
Shaded with edges
350
69D
  3
Shades of Gray
350
69A
  3
Sketchy
350
69B
  3
Thicken
350
3D2
  3
Wireframe
350
698
  3
X-Ray
350
69C
  0
XRECORD
  5
B79
102
{ACAD_REACTORS
330
C
102
}
330
C
100
AcDbXrecord
280
     1
 90
        1
330
389
  0
DICTIONARY
  5
357
102
{ACAD_REACTORS
330
C
102
}
330
C
100
AcDbDictionary
281
     1
  3
CANNOSCALE
350
610
  3
CMLEADERSTYLE
350
682
  3
CTABLESTYLE
350
38D
  3
CVIEWDETAILSTYLE
350
858
  3
CVIEWSECTIONSTYLE
350
859
  3
DIMASSOC
350
359
  3
HIDETEXT
350
358
  3
INDEXCTL
350
684
  3
PROJECTNAME
350
38E
  3
SORTENTS
350
683
  3
XCLIPFRAME
350
B77
  0
DICTIONARY
  5
700
102
{ACAD_REACTORS
330
6FF
102
}
330
6FF
100
AcDbDictionary
281
     1
  0
XRECORD
  5
665
102
{ACAD_REACTORS
330
664
102
}
330
664
100
AcDbXrecord
280
     1
290
     1
  0
XRECORD
  5
667
102
{ACAD_REACTORS
330
666
102
}
330
666
100
AcDbXrecord
280
     1
290
     1
  0
XRECORD
  5
669
102
{ACAD_REACTORS
330
668
102
}
330
668
100
AcDbXrecord
280
     1
290
     1
  0
XRECORD
  5
66B
102
{ACAD_REACTORS
330
66A
102
}
330
66A
100
AcDbXrecord
280
     1
290
     1
  0
XRECORD
  5
66D
102
{ACAD_REACTORS
330
66C
102
}
330
66C
100
AcDbXrecord
280
     1
290
     1
  0
XRECORD
  5
66F
102
{ACAD_REACTORS
330
66E
102
}
330
66E
100
AcDbXrecord
280
     1
290
     1
  0
XRECORD
  5
671
102
{ACAD_REACTORS
330
670
102
}
330
670
100
AcDbXrecord
280
     1
290
     1
  0
XRECORD
  5
673
102
{ACAD_REACTORS
330
672
102
}
330
672
100
AcDbXrecord
280
     1
290
     1
  0
XRECORD
  5
675
102
{ACAD_REACTORS
330
674
102
}
330
674
100
AcDbXrecord
280
     1
290
     1
  0
XRECORD
  5
677
102
{ACAD_REACTORS
330
676
102
}
330
676
100
AcDbXrecord
280
     1
290
     1
  0
XRECORD
  5
679
102
{ACAD_REACTORS
330
678
102
}
330
678
100
AcDbXrecord
280
     1
290
     1
  0
XRECORD
  5
67B
102
{ACAD_REACTORS
330
67A
102
}
330
67A
100
AcDbXrecord
280
     1
290
     1
  0
XRECORD
  5
67D
102
{ACAD_REACTORS
330
67C
102
}
330
67C
100
AcDbXrecord
280
     1
290
     1
  0
XRECORD
  5
67F
102
{ACAD_REACTORS
330
67E
102
}
330
67E
100
AcDbXrecord
280
     1
290
     1
  0
XRECORD
  5
681
102
{ACAD_REACTORS
330
680
102
}
330
680
100
AcDbXrecord
280
     1
290
     1
  0
SORTENTSTABLE
  5
916
102
{ACAD_REACTORS
330
915
102
}
330
915
100
AcDbSortentsTable
330
18
331
5A6
  5
5A8
331
5A2
  5
5A4
331
59E
  5
5A0
331
59A
  5
59C
331
400
  5
400
331
457
  5
457
331
453
  5
453
331
495
  5
495
331
52F
  5
531
331
3FC
  5
3FC
331
3F8
  5
3F8
331
491
  5
491
331
52B
  5
52D
331
566
  5
568
331
48D
  5
48D
331
527
  5
529
331
523
  5
525
331
562
  5
564
331
596
  5
598
331
592
  5
594
331
58E
  5
590
331
58A
  5
58C
331
44F
  5
44F
331
44B
  5
44B
331
447
  5
447
331
443
  5
443
331
485
  5
485
331
4CC
  5
4CC
331
51F
  5
521
331
55E
  5
560
331
3F4
  5
3F4
331
3F0
  5
3F0
331
481
  5
481
331
4C8
  5
4C8
331
51B
  5
51D
331
55A
  5
55C
331
556
  5
558
331
47D
  5
47D
331
4C4
  5
4C4
331
517
  5
519
331
4C0
  5
4C0
331
513
  5
515
331
552
  5
554
331
479
  5
479
331
5E9
  5
603
331
586
  5
588
331
582
  5
584
331
57E
  5
580
331
57A
  5
57C
331
43F
  5
43F
331
3EC
  5
3EC
331
43B
  5
43B
331
3E8
  5
3E8
331
437
  5
437
331
433
  5
433
331
4BC
  5
4BC
331
3E4
  5
3E4
331
50F
  5
511
331
54E
  5
550
331
475
  5
475
331
3E0
  5
3E0
331
471
  5
471
331
4B8
  5
4B8
331
50B
  5
50D
331
54A
  5
54C
331
546
  5
548
331
46D
  5
46D
331
4B4
  5
4B4
331
503
  5
504
331
542
  5
544
331
469
  5
469
331
5B5
  5
5DC
331
576
  5
578
331
572
  5
574
331
56E
  5
570
331
56A
  5
56C
331
42F
  5
42F
331
3DC
  5
3DC
331
42B
  5
42B
331
914
  5
509
331
3D8
  5
3D8
331
427
  5
427
331
423
  5
423
331
4FF
  5
500
331
53E
  5
540
331
465
  5
465
331
461
  5
461
331
4A0
  5
4A0
331
4FB
  5
4FC
331
53A
  5
53C
331
536
  5
538
331
45D
  5
45D
331
49C
  5
49C
331
4F7
  5
4F8
331
4F3
  5
4F4
331
532
  5
534
331
459
  5
459
331
498
  5
498
331
5A5
  5
5A7
331
5A1
  5
5A3
331
59D
  5
59F
331
599
  5
59B
331
456
  5
456
331
3FF
  5
3FF
331
452
  5
452
331
494
  5
494
331
52E
  5
530
331
3FB
  5
3FB
331
490
  5
490
331
52A
  5
52C
331
526
  5
528
331
565
  5
567
331
48C
  5
48C
331
522
  5
524
331
561
  5
563
331
488
  5
488
331
8AC
  5
917
331
595
  5
597
331
591
  5
593
331
58D
  5
58F
331
589
  5
58B
331
44E
  5
44E
331
44A
  5
44A
331
3F7
  5
3F7
331
446
  5
446
331
442
  5
442
331
484
  5
484
331
4CB
  5
4CB
331
51E
  5
520
331
55D
  5
55F
331
3F3
  5
3F3
331
559
  5
55B
331
480
  5
480
331
4C7
  5
4C7
331
51A
  5
51C
331
555
  5
557
331
47C
  5
47C
331
4C3
  5
4C3
331
516
  5
518
331
512
  5
514
331
551
  5
553
331
478
  5
478
331
585
  5
587
331
581
  5
583
331
57D
  5
57F
331
579
  5
57B
331
3EF
  5
3EF
331
43E
  5
43E
331
3EB
  5
3EB
331
43A
  5
43A
331
4BF
  5
4BF
331
3E7
  5
3E7
331
436
  5
436
331
432
  5
432
331
474
  5
474
331
4BB
  5
4BB
331
50E
  5
510
331
54D
  5
54F
331
3E3
  5
3E3
331
470
  5
470
331
4B7
  5
4B7
331
50A
  5
50C
331
549
  5
54B
331
545
  5
547
331
46C
  5
46C
331
4B3
  5
4B3
331
506
  5
507
331
502
  5
503
331
541
  5
543
331
468
  5
468
331
5A8
  5
5CF
331
575
  5
577
331
571
  5
573
331
56D
  5
56F
331
569
  5
56B
331
3DF
  5
3DF
331
42E
  5
42E
331
3DB
  5
3DB
331
42A
  5
42A
331
917
  5
4D1
331
3D7
  5
3D7
331
426
  5
426
331
4FE
  5
4FF
331
53D
  5
53F
331
464
  5
464
331
460
  5
460
331
49F
  5
49F
331
4FA
  5
4FB
331
539
  5
53B
331
535
  5
537
331
45C
  5
45C
331
49B
  5
49B
331
531
  5
533
331
458
  5
458
331
5DC
  5
5F6
331
5A4
  5
5A6
331
5A0
  5
5A2
331
59C
  5
59E
331
598
  5
59A
331
402
  5
402
331
455
  5
455
331
3FE
  5
3FE
331
497
  5
497
331
3FA
  5
3FA
331
493
  5
493
331
451
  5
451
331
52D
  5
52F
331
48F
  5
48F
331
529
  5
52B
331
525
  5
527
331
564
  5
566
331
48B
  5
48B
331
521
  5
523
331
560
  5
562
331
594
  5
596
331
590
  5
592
331
58C
  5
58E
331
588
  5
58A
331
44D
  5
44D
331
449
  5
449
331
445
  5
445
331
3F6
  5
3F6
331
487
  5
487
331
441
  5
441
331
483
  5
483
331
4CA
  5
4CA
331
51D
  5
51F
331
55C
  5
55E
331
3F2
  5
3F2
331
558
  5
55A
331
47F
  5
47F
331
4C6
  5
4C6
331
519
  5
51B
331
515
  5
517
331
554
  5
556
331
47B
  5
47B
331
4C2
  5
4C2
331
511
  5
513
331
550
  5
552
331
5CF
  5
5E9
331
584
  5
586
331
580
  5
582
331
57C
  5
57E
331
578
  5
57A
331
3EE
  5
3EE
331
43D
  5
43D
331
3EA
  5
3EA
331
439
  5
439
331
4BE
  5
4BE
331
3E6
  5
3E6
331
477
  5
477
331
435
  5
435
331
431
  5
431
331
473
  5
473
331
4BA
  5
4BA
331
50D
  5
50F
331
54C
  5
54E
331
3E2
  5
3E2
331
548
  5
54A
331
46F
  5
46F
331
4B6
  5
4B6
331
509
  5
50B
331
544
  5
546
331
46B
  5
46B
331
4B2
  5
4B2
331
505
  5
506
331
501
  5
502
331
540
  5
542
331
574
  5
576
331
570
  5
572
331
56C
  5
56E
331
568
  5
56A
331
3DE
  5
3DE
331
42D
  5
42D
331
3DA
  5
3DA
331
429
  5
429
331
3D6
  5
3D6
331
467
  5
467
331
425
  5
425
331
463
  5
463
331
4FD
  5
4FE
331
53C
  5
53E
331
45F
  5
45F
331
49E
  5
49E
331
4F9
  5
4FA
331
538
  5
53A
331
534
  5
536
331
45B
  5
45B
331
49A
  5
49A
331
4F5
  5
4F6
331
530
  5
532
331
5A7
  5
5B5
331
5A3
  5
5A5
331
59F
  5
5A1
331
59B
  5
59D
331
401
  5
401
331
454
  5
454
331
496
  5
496
331
3FD
  5
3FD
331
3F9
  5
3F9
331
492
  5
492
331
450
  5
450
331
52C
  5
52E
331
567
  5
569
331
48E
  5
48E
331
528
  5
52A
331
4D1
  5
4D2
331
524
  5
526
331
563
  5
565
331
520
  5
522
331
597
  5
599
331
593
  5
595
331
58F
  5
591
331
58B
  5
58D
331
44C
  5
44C
331
448
  5
448
331
444
  5
444
331
4CD
  5
4CD
331
3F5
  5
3F5
331
55F
  5
561
331
486
  5
486
331
3F1
  5
3F1
331
440
  5
440
331
482
  5
482
331
4C9
  5
4C9
331
51C
  5
51E
331
55B
  5
55D
331
557
  5
559
331
47E
  5
47E
331
4C5
  5
4C5
331
518
  5
51A
331
514
  5
516
331
553
  5
555
331
47A
  5
47A
331
4C1
  5
4C1
331
510
  5
512
331
587
  5
589
331
583
  5
585
331
57F
  5
581
331
57B
  5
57D
331
3ED
  5
3ED
331
43C
  5
43C
331
3E9
  5
3E9
331
438
  5
438
331
434
  5
434
331
4BD
  5
4BD
331
3E5
  5
3E5
331
54F
  5
551
331
476
  5
476
331
430
  5
430
331
472
  5
472
331
4B9
  5
4B9
331
50C
  5
50E
331
54B
  5
54D
331
3E1
  5
3E1
331
547
  5
549
331
46E
  5
46E
331
4B5
  5
4B5
331
508
  5
50A
331
504
  5
505
331
543
  5
545
331
46A
  5
46A
331
4B1
  5
4B1
331
500
  5
501
331
577
  5
579
331
573
  5
575
331
56F
  5
571
331
56B
  5
56D
331
3DD
  5
3DD
331
42C
  5
42C
331
3D9
  5
3D9
331
428
  5
428
331
53F
  5
541
331
466
  5
466
331
424
  5
424
331
462
  5
462
331
4A1
  5
4A1
331
4FC
  5
4FD
331
53B
  5
53D
331
537
  5
539
331
45E
  5
45E
331
49D
  5
49D
331
4F8
  5
4F9
331
533
  5
535
331
45A
  5
45A
331
499
  5
499
331
4F4
  5
4F5
331
5F6
  5
8AC
  0
DIMASSOC
  5
8C3
102
{ACAD_REACTORS
330
8B9
102
}
330
8B9
100
AcDbDimAssoc
330
8AC
 90
        2
 70
     0
 71
     0
  1
AcDbOsnapPointRef
 72
    13
331
3F2
 73
     2
 91
        0
 40
0.0
 10
0.0
 20
0.0
 30
2.000000000000000E+50
 75
     0
  0
DIMASSOC
  5
94D
102
{ACAD_REACTORS
330
947
102
}
330
947
100
AcDbDimAssoc
330
93E
 90
        2
 70
     0
 71
     0
  1
AcDbOsnapPointRef
 72
     3
331
914
 73
     2
 91
        0
 40
0.0
 10
0.0
 20
0.0
 30
0.0
 75
     0
  0
ACDBDETAILVIEWSTYLE
  5
6A2
102
{ACAD_XDICTIONARY
360
BB1
102
}
102
{ACAD_REACTORS
330
6A1
102
}
330
6A1
100
AcDbModelDocViewStyle
 70
     0
  3
Metric50
290
     0
100
AcDbDetailViewStyle
 70
     0
 71
     0
 90
        3
 71
     1
340
10
 62
   256
 40
5.0
340
0
 62
   256
 40
5.0
300

 40
0.0
280
     1
 71
     2
340
14
 90
       25
 62
   256
 71
     3
340
10
 62
   256
 40
5.0
 90
        0
 40
15.0
 90
        1
300
%<\AcVar ViewDetailId>% (%<\AcVar ViewScale \f "%sn">%)
 71
     4
340
14
 90
       25
 62
   256
340
14
 90
       25
 62
   256
280
     0
  0
LAYOUT
  5
33B
102
{ACAD_REACTORS
330
301
102
}
330
301
100
AcDbPlotSettings
  1

  2
Lexmark Optra PS2
  4

  6

 40
0.0
 41
0.0
 42
0.0
 43
0.0
 44
0.0
 45
0.0
 46
0.0
 47
0.0
 48
0.0
 49
0.0
140
0.0
141
0.0
142
1.0
143
1.0
 70
   688
 72
     0
 73
     0
 74
     5
  7
monochrome.ctb
 75
    16
147
1.0
 76
     0
 77
     2
 78
   300
148
0.0
149
0.0
100
AcDbLayout
  1
Layout1
 70
     1
 71
     1
 10
0.0
 20
0.0
 11
12.0
 21
9.0
 12
0.0
 22
0.0
 32
0.0
 14
0.0
 24
0.0
 34
0.0
 15
0.0
 25
0.0
 35
0.0
146
0.0
 13
0.0
 23
0.0
 33
0.0
 16
1.0
 26
0.0
 36
0.0
 17
0.0
 27
1.0
 37
0.0
 76
     0
330
338
  0
LAYOUT
  5
303
102
{ACAD_REACTORS
330
301
102
}
330
301
100
AcDbPlotSettings
  1

  2
Lexmark Optra Rx
  4
A4
  6

 40
6.805083274841307
 41
5.535083293914794
 42
6.974411010742187
 43
7.14373779296875
 44
209.9733276367186
 45
296.9259948730469
 46
0.0
 47
0.0
 48
0.0
 49
0.0
140
0.0
141
0.0
142
1.0
143
2.976565420630883
 70
 11952
 72
     1
 73
     1
 74
     0
  7
monochrome.ctb
 75
     0
147
0.335957675604539
 76
     0
 77
     2
 78
   300
148
204.1199660668592
149
172.3933209647495
100
AcDbLayout
  1
Model
 70
     1
 71
     0
 10
0.0
 20
0.0
 11
12.0
 21
9.0
 12
0.0
 22
0.0
 32
0.0
 14
0.0
 24
0.0
 34
0.0
 15
0.0
 25
0.0
 35
0.0
146
0.0
 13
0.0
 23
0.0
 33
0.0
 16
1.0
 26
0.0
 36
0.0
 17
0.0
 27
1.0
 37
0.0
 76
     0
330
18
331
39A
  0
MATERIAL
  5
3C3
102
{ACAD_XDICTIONARY
360
613
102
}
102
{ACAD_REACTORS
330
386
102
}
330
386
100
AcDbMaterial
  1
ByBlock
  0
MATERIAL
  5
3C2
102
{ACAD_XDICTIONARY
360
611
102
}
102
{ACAD_REACTORS
330
386
102
}
330
386
100
AcDbMaterial
  1
ByLayer
  0
MATERIAL
  5
3C4
102
{ACAD_XDICTIONARY
360
615
102
}
102
{ACAD_REACTORS
330
386
102
}
330
386
100
AcDbMaterial
  1
Global
  0
MLEADERSTYLE
  5
63C
102
{ACAD_REACTORS
330
60C
102
}
330
60C
100
AcDbMLeaderStyle
170
     2
171
     1
172
     0
 90
        2
 40
0.0
 41
0.0
173
     1
 91
-1056964608
340
12
 92
       -2
290
     1
 42
2.0
291
     1
 43
0.36
  3
Standard
 44
4.0
300

342
10
174
     1
178
     6
175
     1
176
     0
 93
-1056964608
 45
4.0
292
     0
297
     0
 46
4.0
 94
-1056964608
 47
1.0
 49
1.0
140
1.0
293
     1
141
0.0
294
     1
177
     0
142
1.0
295
     0
296
     0
143
0.125
1001
ACAD_MLEADERVER
1070
     2
  0
MLINESTYLE
  5
1B
102
{ACAD_REACTORS
330
E
102
}
330
E
100
AcDbMlineStyle
  2
STANDARD
 70
     0
  3

 62
     0
 51
90.0
 52
90.0
 71
     2
 49
0.5
 62
   256
  6
BYLAYER
 49
-0.5
 62
   256
  6
BYLAYER
  0
ACDBPLACEHOLDER
  5
300
102
{ACAD_REACTORS
330
2FF
102
}
330
2FF
  0
SCALE
  5
3A1
102
{ACAD_REACTORS
330
3A0
102
}
330
3A0
100
AcDbScale
 70
     0
300
1:1
140
1.0
141
1.0
290
     1
  0
SCALE
  5
3A2
102
{ACAD_REACTORS
330
3A0
102
}
330
3A0
100
AcDbScale
 70
     0
300
1:2
140
1.0
141
2.0
290
     0
  0
SCALE
  5
3A3
102
{ACAD_REACTORS
330
3A0
102
}
330
3A0
100
AcDbScale
 70
     0
300
1:4
140
1.0
141
4.0
290
     0
  0
SCALE
  5
3A4
102
{ACAD_REACTORS
330
3A0
102
}
330
3A0
100
AcDbScale
 70
     0
300
1:5
140
1.0
141
5.0
290
     0
  0
SCALE
  5
3A5
102
{ACAD_REACTORS
330
3A0
102
}
330
3A0
100
AcDbScale
 70
     0
300
1:8
140
1.0
141
8.0
290
     0
  0
SCALE
  5
3A6
102
{ACAD_REACTORS
330
3A0
102
}
330
3A0
100
AcDbScale
 70
     0
300
1:10
140
1.0
141
10.0
290
     0
  0
SCALE
  5
3A7
102
{ACAD_REACTORS
330
3A0
102
}
330
3A0
100
AcDbScale
 70
     0
300
1:16
140
1.0
141
16.0
290
     0
  0
SCALE
  5
3A8
102
{ACAD_REACTORS
330
3A0
102
}
330
3A0
100
AcDbScale
 70
     0
300
1:20
140
1.0
141
20.0
290
     0
  0
SCALE
  5
3A9
102
{ACAD_REACTORS
330
3A0
102
}
330
3A0
100
AcDbScale
 70
     0
300
1:30
140
1.0
141
30.0
290
     0
  0
SCALE
  5
3AA
102
{ACAD_REACTORS
330
3A0
102
}
330
3A0
100
AcDbScale
 70
     0
300
1:40
140
1.0
141
40.0
290
     0
  0
SCALE
  5
3AB
102
{ACAD_REACTORS
330
3A0
102
}
330
3A0
100
AcDbScale
 70
     0
300
1:50
140
1.0
141
50.0
290
     0
  0
SCALE
  5
3AC
102
{ACAD_REACTORS
330
3A0
102
}
330
3A0
100
AcDbScale
 70
     0
300
1:100
140
1.0
141
100.0
290
     0
  0
SCALE
  5
3AD
102
{ACAD_REACTORS
330
3A0
102
}
330
3A0
100
AcDbScale
 70
     0
300
2:1
140
2.0
141
1.0
290
     0
  0
SCALE
  5
3AE
102
{ACAD_REACTORS
330
3A0
102
}
330
3A0
100
AcDbScale
 70
     0
300
4:1
140
4.0
141
1.0
290
     0
  0
SCALE
  5
3AF
102
{ACAD_REACTORS
330
3A0
102
}
330
3A0
100
AcDbScale
 70
     0
300
8:1
140
8.0
141
1.0
290
     0
  0
SCALE
  5
3B0
102
{ACAD_REACTORS
330
3A0
102
}
330
3A0
100
AcDbScale
 70
     0
300
10:1
140
10.0
141
1.0
290
     0
  0
SCALE
  5
3B1
102
{ACAD_REACTORS
330
3A0
102
}
330
3A0
100
AcDbScale
 70
     0
300
100:1
140
100.0
141
1.0
290
     0
  0
SCALE
  5
3B2
102
{ACAD_REACTORS
330
3A0
102
}
330
3A0
100
AcDbScale
 70
     0
300
1/128" = 1'-0"
140
0.0078125
141
12.0
290
     0
  0
SCALE
  5
3B3
102
{ACAD_REACTORS
330
3A0
102
}
330
3A0
100
AcDbScale
 70
     0
300
1/64" = 1'-0"
140
0.015625
141
12.0
290
     0
  0
SCALE
  5
3B4
102
{ACAD_REACTORS
330
3A0
102
}
330
3A0
100
AcDbScale
 70
     0
300
1/32" = 1'-0"
140
0.03125
141
12.0
290
     0
  0
SCALE
  5
3B5
102
{ACAD_REACTORS
330
3A0
102
}
330
3A0
100
AcDbScale
 70
     0
300
1/16" = 1'-0"
140
0.0625
141
12.0
290
     0
  0
SCALE
  5
3B6
102
{ACAD_REACTORS
330
3A0
102
}
330
3A0
100
AcDbScale
 70
     0
300
3/32" = 1'-0"
140
0.09375
141
12.0
290
     0
  0
SCALE
  5
3B7
102
{ACAD_REACTORS
330
3A0
102
}
330
3A0
100
AcDbScale
 70
     0
300
1/8" = 1'-0"
140
0.125
141
12.0
290
     0
  0
SCALE
  5
3B8
102
{ACAD_REACTORS
330
3A0
102
}
330
3A0
100
AcDbScale
 70
     0
300
3/16" = 1'-0"
140
0.1875
141
12.0
290
     0
  0
SCALE
  5
3B9
102
{ACAD_REACTORS
330
3A0
102
}
330
3A0
100
AcDbScale
 70
     0
300
1/4" = 1'-0"
140
0.25
141
12.0
290
     0
  0
SCALE
  5
3BA
102
{ACAD_REACTORS
330
3A0
102
}
330
3A0
100
AcDbScale
 70
     0
300
3/8" = 1'-0"
140
0.375
141
12.0
290
     0
  0
SCALE
  5
3BB
102
{ACAD_REACTORS
330
3A0
102
}
330
3A0
100
AcDbScale
 70
     0
300
1/2" = 1'-0"
140
0.5
141
12.0
290
     0
  0
SCALE
  5
3BC
102
{ACAD_REACTORS
330
3A0
102
}
330
3A0
100
AcDbScale
 70
     0
300
3/4" = 1'-0"
140
0.75
141
12.0
290
     0
  0
SCALE
  5
3BD
102
{ACAD_REACTORS
330
3A0
102
}
330
3A0
100
AcDbScale
 70
     0
300
1" = 1'-0"
140
1.0
141
12.0
290
     0
  0
SCALE
  5
3BE
102
{ACAD_REACTORS
330
3A0
102
}
330
3A0
100
AcDbScale
 70
     0
300
1-1/2" = 1'-0"
140
1.5
141
12.0
290
     0
  0
SCALE
  5
3BF
102
{ACAD_REACTORS
330
3A0
102
}
330
3A0
100
AcDbScale
 70
     0
300
3" = 1'-0"
140
3.0
141
12.0
290
     0
  0
SCALE
  5
3C0
102
{ACAD_REACTORS
330
3A0
102
}
330
3A0
100
AcDbScale
 70
     0
300
6" = 1'-0"
140
6.0
141
12.0
290
     0
  0
SCALE
  5
3C1
102
{ACAD_REACTORS
330
3A0
102
}
330
3A0
100
AcDbScale
 70
     0
300
1'-0" = 1'-0"
140
12.0
141
12.0
290
     0
  0
ACDBSECTIONVIEWSTYLE
  5
6A0
102
{ACAD_XDICTIONARY
360
BAF
102
}
102
{ACAD_REACTORS
330
69F
102
}
330
69F
100
AcDbModelDocViewStyle
 70
     0
  3
Metric50
290
     0
100
AcDbSectionViewStyle
 70
     0
 71
     0
 90
      102
 71
     1
340
10
 62
   256
 40
5.0
340
0
340
0
 62
   256
 40
5.0
300
I, O, Q, S, X, Z
 40
10.0
 90
        0
 40
2.5
 90
        0
 71
     2
340
14
 90
       25
 62
   256
340
14
 90
       50
 62
   256
 40
5.0
 40
2.5
 40
5.0
 71
     3
340
10
 62
   256
 40
5.0
 90
        0
 40
15.0
 90
        1
300
%<\AcVar ViewSectionStartId>%-%<\AcVar ViewSectionEndId>% (%<\AcVar ViewScale \f "%sn">%)
 71
     4
 62
   256
 62
   257
300
ANSI31
 40
1.0
 90
        0
290
     0
290
     0
 90
        6
 40
0.0
 40
1.570796326794896
 40
0.2617993877991494
 40
1.308996938995747
 40
-0.2617993877991494
 40
1.832595714594044
  0
TABLESTYLE
  5
389
102
{ACAD_XDICTIONARY
360
686
102
}
102
{ACAD_REACTORS
330
388
102
}
330
388
100
AcDbTableStyle
  3
Standard
 70
     0
 71
     0
 40
1.5
 41
1.5
280
     0
281
     0
  7
STANDARD
140
4.5
170
     2
 62
     0
 63
     7
283
     0
274
    -2
284
     1
 64
     0
275
    -2
285
     1
 65
     0
276
    -2
286
     1
 66
     0
277
    -2
287
     1
 67
     0
278
    -2
288
     1
 68
     0
279
    -2
289
     1
 69
     0
  7
STANDARD
140
6.0
170
     5
 62
     0
 63
     7
283
     0
274
    -2
284
     1
 64
     0
275
    -2
285
     1
 65
     0
276
    -2
286
     1
 66
     0
277
    -2
287
     1
 67
     0
278
    -2
288
     1
 68
     0
279
    -2
289
     1
 69
     0
  7
STANDARD
140
4.5
170
     5
 62
     0
 63
     7
283
     0
274
    -2
284
     1
 64
     0
275
    -2
285
     1
 65
     0
276
    -2
286
     1
 66
     0
277
    -2
287
     1
 67
     0
278
    -2
288
     1
 68
     0
279
    -2
289
     1
 69
     0
  0
VISUALSTYLE
  5
3CA
102
{ACAD_XDICTIONARY
360
B83
102
}
102
{ACAD_REACTORS
330
3C5
102
}
330
3C5
100
AcDbVisualStyle
  2

 70
     4
 71
     0
 72
     2
 73
     0
 90
        0
 40
-0.6
 41
-30.0
 62
     5
 63
     7
 74
     1
 91
        4
 64
     7
 65
   257
 75
     1
175
     1
 42
1.0
 92
        0
 66
   257
 43
1.0
 76
     1
 77
     6
 78
     2
 67
     7
 79
     5
170
     0
171
     0
290
     0
174
     0
 93
        1
 44
0.0
173
     0
291
     0
 45
0.0
1001
ACAD
1000
AcDbSavedByObjectVersion
1070
     0
  0
VISUALSTYLE
  5
3CC
102
{ACAD_XDICTIONARY
360
B87
102
}
102
{ACAD_REACTORS
330
3C5
102
}
330
3C5
100
AcDbVisualStyle
  2

 70
     6
 71
     1
 72
     2
 73
     2
 90
        0
 40
-0.6
 41
-30.0
 62
     5
 63
     7
 74
     2
 91
        2
 64
     7
 65
   257
 75
     2
175
     1
 42
40.0
 92
        0
 66
   257
 43
1.0
 76
     1
 77
     6
 78
     2
 67
     7
 79
     3
170
     0
171
     0
290
     0
174
     0
 93
        1
 44
0.0
173
     0
291
     0
 45
0.0
1001
ACAD
1000
AcDbSavedByObjectVersion
1070
     0
  0
VISUALSTYLE
  5
3CB
102
{ACAD_XDICTIONARY
360
B85
102
}
102
{ACAD_REACTORS
330
3C5
102
}
330
3C5
100
AcDbVisualStyle
  2

 70
     5
 71
     0
 72
     2
 73
     0
 90
        0
 40
-0.6
 41
-30.0
 62
     5
 63
     7
 74
     1
 91
        4
 64
     7
 65
   257
 75
     1
175
     1
 42
1.0
 92
        0
 66
   257
 43
1.0
 76
     1
 77
     6
 78
     2
 67
     7
 79
     5
170
     0
171
     0
290
     0
174
     0
 93
        1
 44
0.0
173
     0
291
     0
 45
0.0
1001
ACAD
1000
AcDbSavedByObjectVersion
1070
     0
  0
VISUALSTYLE
  5
3CD
102
{ACAD_XDICTIONARY
360
B89
102
}
102
{ACAD_REACTORS
330
3C5
102
}
330
3C5
100
AcDbVisualStyle
  2

 70
     7
 71
     1
 72
     0
 73
     1
 90
        0
 40
-0.6
 41
-30.0
 62
     5
 63
     7
 74
     0
 91
        4
 64
     7
 65
   257
 75
     1
175
     1
 42
1.0
 92
        8
 66
     7
 43
1.0
 76
     1
 77
     6
 78
     2
 67
     7
 79
     5
170
     0
171
     0
290
     0
174
     0
 93
        1
 44
0.0
173
     0
291
     1
 45
0.0
1001
ACAD
1000
AcDbSavedByObjectVersion
1070
     0
  0
VISUALSTYLE
  5
3D1
102
{ACAD_XDICTIONARY
360
B91
102
}
102
{ACAD_REACTORS
330
3C5
102
}
330
3C5
100
AcDbVisualStyle
  2

 70
    12
 71
     2
 72
     2
 73
     0
 90
        0
 40
-0.6
 41
-30.0
 62
     5
 63
     7
 74
     1
 91
        4
 64
     7
 65
   257
 75
     1
175
     1
 42
1.0
 92
        8
 66
     7
 43
1.0
 76
     1
 77
     6
 78
     2
 67
     7
 79
     5
170
     0
171
     0
290
     0
174
     0
 93
        1
 44
50.0
173
     0
291
     1
 45
0.0
1001
ACAD
1000
AcDbSavedByObjectVersion
1070
     0
  0
VISUALSTYLE
  5
3D5
102
{ACAD_XDICTIONARY
360
B99
102
}
102
{ACAD_REACTORS
330
3C5
102
}
330
3C5
100
AcDbVisualStyle
  2

 70
    16
 71
     2
 72
     2
 73
     3
 90
        0
 40
-0.6
 41
-30.0
 62
     5
 63
     8
 74
     1
 91
        4
 64
     7
 65
   257
 75
     1
175
     1
 42
1.0
 92
        8
 66
     8
 43
1.0
 76
     1
 77
     6
 78
     2
 67
     7
 79
     5
170
     0
171
     0
290
     0
174
     0
 93
        1
 44
0.0
173
     0
291
     1
 45
0.0
1001
ACAD
1000
AcDbSavedByObjectVersion
1070
     0
  0
VISUALSTYLE
  5
3CF
102
{ACAD_XDICTIONARY
360
B8D
102
}
102
{ACAD_REACTORS
330
3C5
102
}
330
3C5
100
AcDbVisualStyle
  2

 70
     9
 71
     3
 72
     2
 73
     0
 90
        0
 40
-0.6
 41
-30.0
 62
     5
 63
     7
 74
     2
 91
        2
 64
     7
 65
   257
 75
     1
175
     1
 42
40.0
 92
        8
 66
     7
 43
1.0
 76
     1
 77
     6
 78
     2
 67
     7
 79
     3
170
     0
171
     0
290
     0
174
     0
 93
        1
 44
0.0
173
     0
291
     0
 45
0.0
1001
ACAD
1000
AcDbSavedByObjectVersion
1070
     0
  0
VISUALSTYLE
  5
3D0
102
{ACAD_XDICTIONARY
360
B8F
102
}
102
{ACAD_REACTORS
330
3C5
102
}
330
3C5
100
AcDbVisualStyle
  2

 70
    11
 71
     2
 72
     2
 73
     0
 90
        0
 40
-0.6
 41
-30.0
 62
     5
 63
     7
 74
     1
 91
        4
 64
     7
 65
   257
 75
     1
175
     1
 42
1.0
 92
        8
 66
     7
 43
1.0
 76
     1
 77
     6
 78
     2
 67
     7
 79
     5
170
     0
171
     0
290
     0
174
     0
 93
        1
 44
-50.0
173
     0
291
     1
 45
0.0
1001
ACAD
1000
AcDbSavedByObjectVersion
1070
     0
  0
VISUALSTYLE
  5
63B
102
{ACAD_XDICTIONARY
360
B9F
102
}
102
{ACAD_REACTORS
330
3C5
102
}
330
3C5
100
AcDbVisualStyle
  2

 70
    22
 71
     2
 72
     2
 73
     0
 90
        0
 40
-0.6
 41
-30.0
 62
     5
 63
     7
 74
     1
 91
        4
 64
     7
 65
   257
 75
     1
175
     1
 42
1.0
 92
        8
 66
     7
 43
1.0
 76
     1
 77
     6
 78
     2
 67
     7
 79
     5
170
     0
171
     0
290
     0
174
     0
 93
        1
 44
0.0
173
     0
291
     1
 45
0.0
1001
ACAD
1000
AcDbSavedByObjectVersion
1070
     0
  0
VISUALSTYLE
  5
3D4
102
{ACAD_XDICTIONARY
360
B97
102
}
102
{ACAD_REACTORS
330
3C5
102
}
330
3C5
100
AcDbVisualStyle
  2

 70
    15
 71
     2
 72
     2
 73
     0
 90
        0
 40
-0.6
 41
-30.0
 62
     5
 63
     7
 74
     1
 91
        4
 64
     7
 65
   257
 75
     1
175
     1
 42
1.0
 92
        8
 66
     7
 43
1.0
 76
     1
 77
     6
 78
     2
 67
     7
 79
     5
170
     0
171
     0
290
     0
174
     0
 93
        1
 44
0.0
173
     0
291
     1
 45
0.0
1001
ACAD
1000
AcDbSavedByObjectVersion
1070
     0
  0
VISUALSTYLE
  5
3C6
102
{ACAD_XDICTIONARY
360
B7B
102
}
102
{ACAD_REACTORS
330
3C5
102
}
330
3C5
100
AcDbVisualStyle
  2

 70
     0
 71
     2
 72
     1
 73
     1
 90
        2
 40
-0.6
 41
30.0
 62
     5
 63
     7
 74
     0
 91
        4
 64
     7
 65
   257
 75
     1
175
     1
 42
1.0
 92
        8
 66
     7
 43
1.0
 76
     1
 77
     6
 78
     2
 67
     7
 79
     5
170
     0
171
     0
290
     0
174
     0
 93
       13
 44
0.0
173
     0
291
     1
 45
0.0
1001
ACAD
1000
AcDbSavedByObjectVersion
1070
     0
  0
VISUALSTYLE
  5
3C7
102
{ACAD_XDICTIONARY
360
B7D
102
}
102
{ACAD_REACTORS
330
3C5
102
}
330
3C5
100
AcDbVisualStyle
  2

 70
     1
 71
     2
 72
     1
 73
     1
 90
        2
 40
-0.6
 41
30.0
 62
     5
 63
     7
 74
     1
 91
        4
 64
     7
 65
   257
 75
     1
175
     1
 42
1.0
 92
        0
 66
   257
 43
1.0
 76
     1
 77
     6
 78
     2
 67
     7
 79
     5
170
     0
171
     0
290
     0
174
     0
 93
       13
 44
0.0
173
     0
291
     1
 45
0.0
1001
ACAD
1000
AcDbSavedByObjectVersion
1070
     0
  0
VISUALSTYLE
  5
3C8
102
{ACAD_XDICTIONARY
360
B7F
102
}
102
{ACAD_REACTORS
330
3C5
102
}
330
3C5
100
AcDbVisualStyle
  2

 70
     2
 71
     2
 72
     2
 73
     1
 90
        2
 40
-0.6
 41
30.0
 62
     5
 63
     7
 74
     0
 91
        4
 64
     7
 65
   257
 75
     1
175
     1
 42
1.0
 92
        0
 66
     7
 43
1.0
 76
     1
 77
     6
 78
     2
 67
     7
 79
     5
170
     0
171
     0
290
     0
174
     0
 93
       13
 44
0.0
173
     0
291
     1
 45
0.0
1001
ACAD
1000
AcDbSavedByObjectVersion
1070
     0
  0
VISUALSTYLE
  5
3C9
102
{ACAD_XDICTIONARY
360
B81
102
}
102
{ACAD_REACTORS
330
3C5
102
}
330
3C5
100
AcDbVisualStyle
  2

 70
     3
 71
     2
 72
     2
 73
     1
 90
        2
 40
-0.6
 41
30.0
 62
     5
 63
     7
 74
     1
 91
        4
 64
     7
 65
   257
 75
     1
175
     1
 42
1.0
 92
        0
 66
   257
 43
1.0
 76
     1
 77
     6
 78
     2
 67
     7
 79
     5
170
     0
171
     0
290
     0
174
     0
 93
       13
 44
0.0
173
     0
291
     1
 45
0.0
1001
ACAD
1000
AcDbSavedByObjectVersion
1070
     0
  0
VISUALSTYLE
  5
699
102
{ACAD_XDICTIONARY
360
BA3
102
}
102
{ACAD_REACTORS
330
3C5
102
}
330
3C5
100
AcDbVisualStyle
  2

 70
     6
 71
     1
 72
     2
 73
     2
 90
        0
 40
-0.6
 41
-30.0
 62
     5
 63
     7
421
 16777215
 74
     2
 91
        2
 64
     7
 65
   257
 75
     2
175
     1
 42
40.0
 92
        0
 66
   257
 43
1.0
 76
     1
 77
     6
 78
     2
 67
     7
 79
     3
170
     0
171
     0
290
     0
174
     0
 93
        1
 44
0.0
173
     0
291
     0
 45
0.0
1001
ACAD
1000
AcDbSavedByObjectVersion
1070
     0
  0
VISUALSTYLE
  5
639
102
{ACAD_XDICTIONARY
360
B9B
102
}
102
{ACAD_REACTORS
330
3C5
102
}
330
3C5
100
AcDbVisualStyle
  2

 70
    20
 71
     2
 72
     2
 73
     0
 90
        0
 40
-0.6
 41
-30.0
 62
     5
 63
     7
 74
     1
 91
        4
 64
     7
 65
   257
 75
     1
175
     1
 42
1.0
 92
       10
 66
     7
 43
1.0
 76
     1
 77
     6
 78
     2
 67
     7
 79
     5
170
     0
171
     0
290
     0
174
     0
 93
        1
 44
0.0
173
     0
291
     1
 45
0.0
1001
ACAD
1000
AcDbSavedByObjectVersion
1070
     0
  0
VISUALSTYLE
  5
3D3
102
{ACAD_XDICTIONARY
360
B95
102
}
102
{ACAD_REACTORS
330
3C5
102
}
330
3C5
100
AcDbVisualStyle
  2

 70
    14
 71
     2
 72
     2
 73
     0
 90
        0
 40
-0.6
 41
-30.0
 62
     5
 63
     7
 74
     1
 91
        4
 64
     7
 65
   257
 75
     7
175
     7
 42
1.0
 92
        8
 66
     7
 43
1.0
 76
     1
 77
     6
 78
     2
 67
     7
 79
     5
170
     0
171
     0
290
     0
174
     0
 93
        1
 44
0.0
173
     0
291
     1
 45
0.0
1001
ACAD
1000
AcDbSavedByObjectVersion
1070
     0
  0
VISUALSTYLE
  5
63A
102
{ACAD_XDICTIONARY
360
B9D
102
}
102
{ACAD_REACTORS
330
3C5
102
}
330
3C5
100
AcDbVisualStyle
  2

 70
    21
 71
     2
 72
     2
 73
     0
 90
        0
 40
-0.6
 41
-30.0
 62
     5
 63
     7
 74
     1
 91
        4
 64
     7
 65
   257
 75
     1
175
     1
 42
1.0
 92
        9
 66
     7
 43
1.0
 76
     1
 77
     6
 78
     2
 67
     7
 79
     5
170
     0
171
     0
290
     0
174
     0
 93
        1
 44
0.0
173
     0
291
     1
 45
0.0
1001
ACAD
1000
AcDbSavedByObjectVersion
1070
     0
  0
VISUALSTYLE
  5
3CE
102
{ACAD_XDICTIONARY
360
B8B
102
}
102
{ACAD_REACTORS
330
3C5
102
}
330
3C5
100
AcDbVisualStyle
  2

 70
     8
 71
     2
 72
     2
 73
     0
 90
        0
 40
-0.6
 41
-30.0
 62
     5
 63
     7
 74
     1
 91
        0
 64
     7
 65
   257
 75
     1
175
     1
 42
1.0
 92
        8
 66
     8
 43
1.0
 76
     1
 77
     6
 78
     2
 67
     7
 79
     5
170
     0
171
     0
290
     0
174
     0
 93
       13
 44
0.0
173
     0
291
     0
 45
0.0
1001
ACAD
1000
AcDbSavedByObjectVersion
1070
     0
  0
VISUALSTYLE
  5
69E
102
{ACAD_XDICTIONARY
360
BAD
102
}
102
{ACAD_REACTORS
330
3C5
102
}
330
3C5
100
AcDbVisualStyle
  2

 70
    27
 71
     2
 72
     2
 73
     1
 90
        2
 40
-0.6
 41
30.0
 62
     5
 63
     7
421
 16777215
 74
     0
 91
        4
 64
     7
 65
   257
 75
     1
175
     1
 42
1.0
 92
        8
 66
   257
 43
1.0
 76
     1
 77
     6
 78
     2
 67
     8
425
  7895160
 79
     3
170
     0
171
     0
290
     0
174
     0
 93
        5
 44
0.0
173
     0
291
     0
 45
0.0
1001
ACAD
1000
AcDbSavedByObjectVersion
1070
     0
  0
VISUALSTYLE
  5
69D
102
{ACAD_XDICTIONARY
360
BAB
102
}
102
{ACAD_REACTORS
330
3C5
102
}
330
3C5
100
AcDbVisualStyle
  2

 70
    26
 71
     2
 72
     2
 73
     1
 90
        2
 40
-0.6
 41
30.0
 62
     5
 63
     7
421
 16777215
 74
     1
 91
       10
 64
     7
 65
   257
 75
     2
175
     1
 42
1.0
 92
        8
 66
   257
 43
1.0
 76
     1
 77
     6
 78
     2
 67
     7
 79
     3
170
     0
171
     0
290
     0
174
     0
 93
        5
 44
0.0
173
     0
291
     0
 45
0.0
1001
ACAD
1000
AcDbSavedByObjectVersion
1070
     0
  0
VISUALSTYLE
  5
69A
102
{ACAD_XDICTIONARY
360
BA5
102
}
102
{ACAD_REACTORS
330
3C5
102
}
330
3C5
100
AcDbVisualStyle
  2

 70
    23
 71
     2
 72
     2
 73
     3
 90
        0
 40
-0.6
 41
-30.0
 62
     5
 63
     7
421
 16777215
 74
     2
 91
        2
 64
     7
 65
     7
 75
     1
175
     1
 42
40.0
 92
        8
 66
     7
 43
1.0
 76
     1
 77
     6
 78
     2
 67
     7
 79
     3
170
     0
171
     0
290
     0
174
     0
 93
        1
 44
0.0
173
     0
291
     0
 45
0.0
1001
ACAD
1000
AcDbSavedByObjectVersion
1070
     0
  0
VISUALSTYLE
  5
69B
102
{ACAD_XDICTIONARY
360
BA7
102
}
102
{ACAD_REACTORS
330
3C5
102
}
330
3C5
100
AcDbVisualStyle
  2

 70
    24
 71
     1
 72
     2
 73
     2
 90
        0
 40
-0.6
 41
-30.0
 62
     5
 63
     7
421
 16777215
 74
     2
 91
        2
 64
     7
 65
     7
 75
     1
175
     1
 42
40.0
 92
       11
 66
     7
 43
1.0
 76
     1
 77
     6
 78
     2
 67
     7
 79
     6
170
     0
171
     0
290
     0
174
     0
 93
        1
 44
0.0
173
     0
291
     0
 45
0.0
1001
ACAD
1000
AcDbSavedByObjectVersion
1070
     0
  0
VISUALSTYLE
  5
3D2
102
{ACAD_XDICTIONARY
360
B93
102
}
102
{ACAD_REACTORS
330
3C5
102
}
330
3C5
100
AcDbVisualStyle
  2

 70
    13
 71
     2
 72
     2
 73
     0
 90
        0
 40
-0.6
 41
-30.0
 62
     5
 63
     7
 74
     1
 91
        4
 64
     7
 65
   257
 75
     1
175
     1
 42
1.0
 92
       12
 66
     7
 43
1.0
 76
     1
 77
     6
 78
     2
 67
     7
 79
     5
170
     0
171
     0
290
     0
174
     0
 93
        1
 44
0.0
173
     0
291
     1
 45
0.0
1001
ACAD
1000
AcDbSavedByObjectVersion
1070
     0
  0
VISUALSTYLE
  5
698
102
{ACAD_XDICTIONARY
360
BA1
102
}
102
{ACAD_REACTORS
330
3C5
102
}
330
3C5
100
AcDbVisualStyle
  2

 70
     5
 71
     0
 72
     2
 73
     0
 90
        0
 40
-0.6
 41
-30.0
 62
     5
 63
     7
421
 16777215
 74
     1
 91
        4
 64
     7
 65
   257
 75
     1
175
     1
 42
1.0
 92
        0
 66
   257
 43
1.0
 76
     1
 77
     6
 78
     2
 67
     7
 79
     3
170
     0
171
     0
290
     0
174
     0
 93
        1
 44
0.0
173
     0
291
     0
 45
0.0
1001
ACAD
1000
AcDbSavedByObjectVersion
1070
     0
  0
VISUALSTYLE
  5
69C
102
{ACAD_XDICTIONARY
360
BA9
102
}
102
{ACAD_REACTORS
330
3C5
102
}
330
3C5
100
AcDbVisualStyle
  2

 70
    25
 71
     2
 72
     2
 73
     1
 90
        1
 40
0.5
 41
-30.0
 62
     5
 63
     7
421
 16777215
 74
     1
 91
        0
 64
     7
 65
   257
 75
     1
175
     1
 42
1.0
 92
        8
 66
     7
 43
1.0
 76
     1
 77
     6
 78
     2
 67
     7
 79
     3
170
     0
171
     0
290
     0
174
     0
 93
       13
 44
0.0
173
     0
291
     0
 45
0.0
1001
ACAD
1000
AcDbSavedByObjectVersion
1070
     0
  0
DICTIONARYVAR
  5
610
102
{ACAD_REACTORS
330
357
102
}
330
357
100
DictionaryVariables
280
     0
  1
1:1
  0
DICTIONARYVAR
  5
682
102
{ACAD_REACTORS
330
357
102
}
330
357
100
DictionaryVariables
280
     0
  1
STANDARD
  0
DICTIONARYVAR
  5
38D
102
{ACAD_REACTORS
330
357
102
}
330
357
100
DictionaryVariables
280
     0
  1
STANDARD
  0
DICTIONARYVAR
  5
858
102
{ACAD_REACTORS
330
357
102
}
330
357
100
DictionaryVariables
280
     0
  1
Metric50
  0
DICTIONARYVAR
  5
859
102
{ACAD_REACTORS
330
357
102
}
330
357
100
DictionaryVariables
280
     0
  1
Metric50
  0
DICTIONARYVAR
  5
359
102
{ACAD_REACTORS
330
357
102
}
330
357
100
DictionaryVariables
280
     0
  1
2
  0
DICTIONARYVAR
  5
358
102
{ACAD_REACTORS
330
357
102
}
330
357
100
DictionaryVariables
280
     0
  1
1
  0
DICTIONARYVAR
  5
684
102
{ACAD_REACTORS
330
357
102
}
330
357
100
DictionaryVariables
280
     0
  1
0
  0
DICTIONARYVAR
  5
38E
102
{ACAD_REACTORS
330
357
102
}
330
357
100
DictionaryVariables
280
     0
  1

  0
DICTIONARYVAR
  5
683
102
{ACAD_REACTORS
330
357
102
}
330
357
100
DictionaryVariables
280
     0
  1
127
  0
DICTIONARYVAR
  5
B77
102
{ACAD_REACTORS
330
357
102
}
330
357
100
DictionaryVariables
280
     0
  1
2
  0
DICTIONARY
  5
BB1
330
6A2
100
AcDbDictionary
280
     1
281
     1
  3
ACAD_XREC_ROUNDTRIP
360
BB2
  0
DICTIONARY
  5
613
330
3C3
100
AcDbDictionary
280
     1
281
     1
  3
ACAD_XREC_ROUNDTRIP
360
614
  0
DICTIONARY
  5
611
330
3C2
100
AcDbDictionary
280
     1
281
     1
  3
ACAD_XREC_ROUNDTRIP
360
612
  0
DICTIONARY
  5
615
330
3C4
100
AcDbDictionary
280
     1
281
     1
  3
ACAD_XREC_ROUNDTRIP
360
616
  0
DICTIONARY
  5
BAF
330
6A0
100
AcDbDictionary
280
     1
281
     1
  3
ACAD_XREC_ROUNDTRIP
360
BB0
  0
DICTIONARY
  5
686
330
389
100
AcDbDictionary
280
     1
281
     1
  3
ACAD_ROUNDTRIP_2008_TABLESTYLE_CELLSTYLEMAP
360
B78
  3
ACAD_XREC_ROUNDTRIP
360
B7A
  0
DICTIONARY
  5
B83
330
3CA
100
AcDbDictionary
280
     1
281
     1
  3
ACAD_XREC_ROUNDTRIP
360
B84
  0
DICTIONARY
  5
B87
330
3CC
100
AcDbDictionary
280
     1
281
     1
  3
ACAD_XREC_ROUNDTRIP
360
B88
  0
DICTIONARY
  5
B85
330
3CB
100
AcDbDictionary
280
     1
281
     1
  3
ACAD_XREC_ROUNDTRIP
360
B86
  0
DICTIONARY
  5
B89
330
3CD
100
AcDbDictionary
280
     1
281
     1
  3
ACAD_XREC_ROUNDTRIP
360
B8A
  0
DICTIONARY
  5
B91
330
3D1
100
AcDbDictionary
280
     1
281
     1
  3
ACAD_XREC_ROUNDTRIP
360
B92
  0
DICTIONARY
  5
B99
330
3D5
100
AcDbDictionary
280
     1
281
     1
  3
ACAD_XREC_ROUNDTRIP
360
B9A
  0
DICTIONARY
  5
B8D
330
3CF
100
AcDbDictionary
280
     1
281
     1
  3
ACAD_XREC_ROUNDTRIP
360
B8E
  0
DICTIONARY
  5
B8F
330
3D0
100
AcDbDictionary
280
     1
281
     1
  3
ACAD_XREC_ROUNDTRIP
360
B90
  0
DICTIONARY
  5
B9F
330
63B
100
AcDbDictionary
280
     1
281
     1
  3
ACAD_XREC_ROUNDTRIP
360
BA0
  0
DICTIONARY
  5
B97
330
3D4
100
AcDbDictionary
280
     1
281
     1
  3
ACAD_XREC_ROUNDTRIP
360
B98
  0
DICTIONARY
  5
B7B
330
3C6
100
AcDbDictionary
280
     1
281
     1
  3
ACAD_XREC_ROUNDTRIP
360
B7C
  0
DICTIONARY
  5
B7D
330
3C7
100
AcDbDictionary
280
     1
281
     1
  3
ACAD_XREC_ROUNDTRIP
360
B7E
  0
DICTIONARY
  5
B7F
330
3C8
100
AcDbDictionary
280
     1
281
     1
  3
ACAD_XREC_ROUNDTRIP
360
B80
  0
DICTIONARY
  5
B81
330
3C9
100
AcDbDictionary
280
     1
281
     1
  3
ACAD_XREC_ROUNDTRIP
360
B82
  0
DICTIONARY
  5
BA3
330
699
100
AcDbDictionary
280
     1
281
     1
  3
ACAD_XREC_ROUNDTRIP
360
BA4
  0
DICTIONARY
  5
B9B
330
639
100
AcDbDictionary
280
     1
281
     1
  3
ACAD_XREC_ROUNDTRIP
360
B9C
  0
DICTIONARY
  5
B95
330
3D3
100
AcDbDictionary
280
     1
281
     1
  3
ACAD_XREC_ROUNDTRIP
360
B96
  0
DICTIONARY
  5
B9D
330
63A
100
AcDbDictionary
280
     1
281
     1
  3
ACAD_XREC_ROUNDTRIP
360
B9E
  0
DICTIONARY
  5
B8B
330
3CE
100
AcDbDictionary
280
     1
281
     1
  3
ACAD_XREC_ROUNDTRIP
360
B8C
  0
DICTIONARY
  5
BAD
330
69E
100
AcDbDictionary
280
     1
281
     1
  3
ACAD_XREC_ROUNDTRIP
360
BAE
  0
DICTIONARY
  5
BAB
330
69D
100
AcDbDictionary
280
     1
281
     1
  3
ACAD_XREC_ROUNDTRIP
360
BAC
  0
DICTIONARY
  5
BA5
330
69A
100
AcDbDictionary
280
     1
281
     1
  3
ACAD_XREC_ROUNDTRIP
360
BA6
  0
DICTIONARY
  5
BA7
330
69B
100
AcDbDictionary
280
     1
281
     1
  3
ACAD_XREC_ROUNDTRIP
360
BA8
  0
DICTIONARY
  5
B93
330
3D2
100
AcDbDictionary
280
     1
281
     1
  3
ACAD_XREC_ROUNDTRIP
360
B94
  0
DICTIONARY
  5
BA1
330
698
100
AcDbDictionary
280
     1
281
     1
  3
ACAD_XREC_ROUNDTRIP
360
BA2
  0
DICTIONARY
  5
BA9
330
69C
100
AcDbDictionary
280
     1
281
     1
  3
ACAD_XREC_ROUNDTRIP
360
BAA
  0
XRECORD
  5
BB2
102
{ACAD_REACTORS
330
BB1
102
}
330
BB1
100
AcDbXrecord
280
     1
102
DISPLAYNAME
  1
Metric50
102
FLAGS
 90
        0
  0
XRECORD
  5
614
102
{ACAD_REACTORS
330
613
102
}
330
613
100
AcDbXrecord
280
     1
102
MATERIAL
148
0.0
149
0.0
149
0.0
 93
        0
 94
      127
282
     0
 72
     1
 77
     1
171
     1
175
     1
179
     1
273
     0
  0
XRECORD
  5
612
102
{ACAD_REACTORS
330
611
102
}
330
611
100
AcDbXrecord
280
     1
102
MATERIAL
148
0.0
149
0.0
149
0.0
 93
        0
 94
      127
282
     0
 72
     1
 77
     1
171
     1
175
     1
179
     1
273
     0
  0
XRECORD
  5
616
102
{ACAD_REACTORS
330
615
102
}
330
615
100
AcDbXrecord
280
     1
102
MATERIAL
148
0.0
149
0.0
149
0.0
 93
        0
 94
      127
282
     0
 72
     1
 77
     1
171
     1
175
     1
179
     1
273
     0
  0
XRECORD
  5
BB0
102
{ACAD_REACTORS
330
BAF
102
}
330
BAF
100
AcDbXrecord
280
     1
102
DISPLAYNAME
  1
Metric50
102
FLAGS
 90
        0
  0
CELLSTYLEMAP
  5
B78
102
{ACAD_REACTORS
330
686
102
}
330
686
100
AcDbCellStyleMap
 90
        3
300
CELLSTYLE
  1
TABLEFORMAT_BEGIN
 90
        5
170
     1
 91
        0
 92
    32768
 62
   257
 93
        1
300
CONTENTFORMAT
  1
CONTENTFORMAT_BEGIN
 90
        0
 91
        0
 92
        4
 93
        0
300

 40
0.0
140
1.0
 94
        5
 62
     0
340
10
144
6.0
309
CONTENTFORMAT_END
171
     1
301
MARGIN
  1
CELLMARGIN_BEGIN
 40
1.5
 40
1.5
 40
1.5
 40
1.5
 40
0.18
 40
0.18
309
CELLMARGIN_END
 94
        6
 95
        1
302
GRIDFORMAT
  1
GRIDFORMAT_BEGIN
 90
        0
 91
        1
 62
     0
 92
       -2
340
0
 93
        0
 40
0.045
309
GRIDFORMAT_END
 95
        2
302
GRIDFORMAT
  1
GRIDFORMAT_BEGIN
 90
        0
 91
        1
 62
     0
 92
       -2
340
0
 93
        0
 40
0.045
309
GRIDFORMAT_END
 95
        4
302
GRIDFORMAT
  1
GRIDFORMAT_BEGIN
 90
        0
 91
        1
 62
     0
 92
       -2
340
0
 93
        0
 40
0.045
309
GRIDFORMAT_END
 95
        8
302
GRIDFORMAT
  1
GRIDFORMAT_BEGIN
 90
        0
 91
        1
 62
     0
 92
       -2
340
0
 93
        0
 40
0.045
309
GRIDFORMAT_END
 95
       16
302
GRIDFORMAT
  1
GRIDFORMAT_BEGIN
 90
        0
 91
        1
 62
     0
 92
       -2
340
0
 93
        0
 40
0.045
309
GRIDFORMAT_END
 95
       32
302
GRIDFORMAT
  1
GRIDFORMAT_BEGIN
 90
        0
 91
        1
 62
     0
 92
       -2
340
0
 93
        0
 40
0.045
309
GRIDFORMAT_END
309
TABLEFORMAT_END
  1
CELLSTYLE_BEGIN
 90
        1
 91
        1
300
_TITLE
309
CELLSTYLE_END
300
CELLSTYLE
  1
TABLEFORMAT_BEGIN
 90
        5
170
     1
 91
        0
 92
        0
 62
   257
 93
        1
300
CONTENTFORMAT
  1
CONTENTFORMAT_BEGIN
 90
        0
 91
        0
 92
        4
 93
        0
300

 40
0.0
140
1.0
 94
        5
 62
     0
340
10
144
4.5
309
CONTENTFORMAT_END
171
     1
301
MARGIN
  1
CELLMARGIN_BEGIN
 40
1.5
 40
1.5
 40
1.5
 40
1.5
 40
0.18
 40
0.18
309
CELLMARGIN_END
 94
        6
 95
        1
302
GRIDFORMAT
  1
GRIDFORMAT_BEGIN
 90
        0
 91
        1
 62
     0
 92
       -2
340
0
 93
        0
 40
0.045
309
GRIDFORMAT_END
 95
        2
302
GRIDFORMAT
  1
GRIDFORMAT_BEGIN
 90
        0
 91
        1
 62
     0
 92
       -2
340
0
 93
        0
 40
0.045
309
GRIDFORMAT_END
 95
        4
302
GRIDFORMAT
  1
GRIDFORMAT_BEGIN
 90
        0
 91
        1
 62
     0
 92
       -2
340
0
 93
        0
 40
0.045
309
GRIDFORMAT_END
 95
        8
302
GRIDFORMAT
  1
GRIDFORMAT_BEGIN
 90
        0
 91
        1
 62
     0
 92
       -2
340
0
 93
        0
 40
0.045
309
GRIDFORMAT_END
 95
       16
302
GRIDFORMAT
  1
GRIDFORMAT_BEGIN
 90
        0
 91
        1
 62
     0
 92
       -2
340
0
 93
        0
 40
0.045
309
GRIDFORMAT_END
 95
       32
302
GRIDFORMAT
  1
GRIDFORMAT_BEGIN
 90
        0
 91
        1
 62
     0
 92
       -2
340
0
 93
        0
 40
0.045
309
GRIDFORMAT_END
309
TABLEFORMAT_END
  1
CELLSTYLE_BEGIN
 90
        2
 91
        1
300
_HEADER
309
CELLSTYLE_END
300
CELLSTYLE
  1
TABLEFORMAT_BEGIN
 90
        5
170
     1
 91
        0
 92
        0
 62
   257
 93
        1
300
CONTENTFORMAT
  1
CONTENTFORMAT_BEGIN
 90
        0
 91
        0
 92
        4
 93
        0
300

 40
0.0
140
1.0
 94
        2
 62
     0
340
10
144
4.5
309
CONTENTFORMAT_END
171
     1
301
MARGIN
  1
CELLMARGIN_BEGIN
 40
1.5
 40
1.5
 40
1.5
 40
1.5
 40
0.18
 40
0.18
309
CELLMARGIN_END
 94
        6
 95
        1
302
GRIDFORMAT
  1
GRIDFORMAT_BEGIN
 90
        0
 91
        1
 62
     0
 92
       -2
340
0
 93
        0
 40
0.045
309
GRIDFORMAT_END
 95
        2
302
GRIDFORMAT
  1
GRIDFORMAT_BEGIN
 90
        0
 91
        1
 62
     0
 92
       -2
340
0
 93
        0
 40
0.045
309
GRIDFORMAT_END
 95
        4
302
GRIDFORMAT
  1
GRIDFORMAT_BEGIN
 90
        0
 91
        1
 62
     0
 92
       -2
340
0
 93
        0
 40
0.045
309
GRIDFORMAT_END
 95
        8
302
GRIDFORMAT
  1
GRIDFORMAT_BEGIN
 90
        0
 91
        1
 62
     0
 92
       -2
340
0
 93
        0
 40
0.045
309
GRIDFORMAT_END
 95
       16
302
GRIDFORMAT
  1
GRIDFORMAT_BEGIN
 90
        0
 91
        1
 62
     0
 92
       -2
340
0
 93
        0
 40
0.045
309
GRIDFORMAT_END
 95
       32
302
GRIDFORMAT
  1
GRIDFORMAT_BEGIN
 90
        0
 91
        1
 62
     0
 92
       -2
340
0
 93
        0
 40
0.045
309
GRIDFORMAT_END
309
TABLEFORMAT_END
  1
CELLSTYLE_BEGIN
 90
        3
 91
        2
300
_DATA
309
CELLSTYLE_END
  0
XRECORD
  5
B7A
102
{ACAD_REACTORS
330
686
102
}
330
686
100
AcDbXrecord
280
     1
102
ACAD_ROUNDTRIP_PRE2007_TABLESTYLE
 90
        4
 91
        0
  1

 92
        4
 93
        0
  2

 94
        4
 95
        0
  3

  0
XRECORD
  5
B84
102
{ACAD_REACTORS
330
B83
102
}
330
B83
100
AcDbXrecord
280
     1
102
RTVSPost2010Prop28
280
     1
102
RTVSPost2010PropOp28
 70
     1
102
RTVSPost2010Prop29
280
     1
102
RTVSPost2010PropOp29
 70
     1
102
RTVSPost2010Prop30
280
     0
102
RTVSPost2010PropOp30
 70
     1
102
RTVSPost2010Prop31
280
     0
102
RTVSPost2010PropOp31
 70
     1
102
RTVSPost2010Prop32
280
     0
102
RTVSPost2010PropOp32
 70
     1
102
RTVSPost2010Prop33
280
     0
102
RTVSPost2010PropOp33
 70
     1
102
RTVSPost2010Prop34
280
     0
102
RTVSPost2010PropOp34
 70
     1
102
RTVSPost2010Prop35
280
     0
102
RTVSPost2010PropOp35
 70
     1
102
RTVSPost2010Prop36
280
     0
102
RTVSPost2010PropOp36
 70
     1
102
RTVSPost2010Prop37
 90
       50
102
RTVSPost2010PropOp37
 70
     1
102
RTVSPost2010Prop38
140
0.0
102
RTVSPost2010PropOp38
 70
     1
102
RTVSPost2010Prop39
140
1.0
102
RTVSPost2010PropOp39
 70
     1
102
RTVSPost2010Prop40
 90
        0
102
RTVSPost2010PropOp40
 70
     1
102
RTVSPost2010Prop41ColorIndex
 90
       18
102
RTVSPost2010Prop41ColorRGB
 90
        0
102
RTVSPost2010PropOp41
 70
     1
102
RTVSPost2010Prop42
 90
       50
102
RTVSPost2010PropOp42
 70
     1
102
RTVSPost2010Prop43
 90
        3
102
RTVSPost2010PropOp43
 70
     1
102
RTVSPost2010Prop44ColorIndex
 90
        5
102
RTVSPost2010Prop44ColorRGB
 90
      255
102
RTVSPost2010PropOp44
 70
     1
102
RTVSPost2010Prop45
280
     0
102
RTVSPost2010PropOp45
 70
     1
102
RTVSPost2010Prop46
 90
       50
102
RTVSPost2010PropOp46
 70
     1
102
RTVSPost2010Prop47
 90
       50
102
RTVSPost2010PropOp47
 70
     1
102
RTVSPost2010Prop48
 90
       50
102
RTVSPost2010PropOp48
 70
     1
102
RTVSPost2010Prop49
280
     0
102
RTVSPost2010PropOp49
 70
     1
102
RTVSPost2010Prop50
 90
       50
102
RTVSPost2010PropOp50
 70
     1
102
RTVSPost2010Prop51ColorIndex
 90
      256
102
RTVSPost2010Prop51ColorRGB
 90
-16777216
102
RTVSPost2010PropOp51
 70
     0
102
RTVSPost2010Prop52
140
1.0
102
RTVSPost2010PropOp52
 70
     0
102
RTVSPost2010Prop53
 90
        2
102
RTVSPost2010PropOp53
 70
     1
102
RTVSPost2010Prop54
  1
strokes_ogs.tif
102
RTVSPost2010PropOp54
 70
     1
102
RTVSPost2010Prop55
280
     0
102
RTVSPost2010PropOp55
 70
     1
102
RTVSPost2010Prop56
140
1.0
102
RTVSPost2010PropOp56
 70
     1
102
RTVSPost2010Prop57
140
1.0
102
RTVSPost2010PropOp57
 70
     1
102
RTVSPropertyOp0
 70
     1
102
RTVSPropertyOp1
 70
     1
102
RTVSPropertyOp2
 70
     1
102
RTVSPropertyOp3
 70
     1
102
RTVSPropertyOp4
 70
     1
102
RTVSPropertyOp5
 70
     1
102
RTVSPropertyOp6
 70
     1
102
RTVSPropertyOp7
 70
     1
102
RTVSPropertyOp8
 70
     1
102
RTVSPropertyOp9
 70
     1
102
RTVSPropertyOp10
 70
     1
102
RTVSPropertyOp11
 70
     1
102
RTVSPropertyOp12
 70
     1
102
RTVSPropertyOp13
 70
     1
102
RTVSPropertyOp14
 70
     1
102
RTVSPropertyOp15
 70
     1
102
RTVSPropertyOp16
 70
     1
102
RTVSPropertyOp17
 70
     1
102
RTVSPropertyOp18
 70
     1
102
RTVSPropertyOp19
 70
     1
102
RTVSPropertyOp20
 70
     1
102
RTVSPropertyOp21
 70
     1
102
RTVSPropertyOp22
 70
     1
102
RTVSPropertyOp23
 70
     1
102
RTVSPropertyOp24
 70
     1
102
RTVSPropertyOp25
 70
     1
102
RTVSPropertyOp26
 70
     1
102
RTVSPropertyOp27
 70
     1
102
RTVSPropertyOp28
 70
     1
102
RTVSPropertyOp29
 70
     1
102
RTVSPropertyOp30
 70
     1
102
RTVSPropertyOp31
 70
     1
102
RTVSPropertyOp32
 70
     1
102
RTVSPropertyOp33
 70
     1
102
RTVSPropertyOp34
 70
     1
102
RTVSPropertyOp35
 70
     1
102
RTVSPropertyOp36
 70
     1
102
RTVSPropertyOp37
 70
     1
102
RTVSPropertyOp38
 70
     1
102
RTVSPropertyOp39
 70
     1
102
RTVSPropertyOp40
 70
     1
102
RTVSPropertyOp41
 70
     1
102
RTVSPropertyOp42
 70
     1
102
RTVSPropertyOp43
 70
     1
102
RTVSPropertyOp44
 70
     1
102
RTVSPropertyOp45
 70
     1
102
RTVSPropertyOp46
 70
     1
102
RTVSPropertyOp47
 70
     1
102
RTVSPropertyOp48
 70
     1
102
RTVSPropertyOp49
 70
     1
102
RTVSPropertyOp50
 70
     1
102
RTVSPropertyOp51
 70
     0
102
RTVSPropertyOp52
 70
     0
102
RTVSPropertyOp53
 70
     1
102
RTVSPropertyOp54
 70
     1
102
RTVSPropertyOp55
 70
     1
102
RTVSPropertyOp56
 70
     1
102
RTVSPropertyOp57
 70
     1
102
RTVSPropertyOp58
 70
     1
102
RTVSPropertyOp59
 70
     1
102
RTVSPropertyOp60
 70
     1
102
RTVSPropertyOp61
 70
     1
102
RTVSPropertyOp62
 70
     1
  0
XRECORD
  5
B88
102
{ACAD_REACTORS
330
B87
102
}
330
B87
100
AcDbXrecord
280
     1
102
RTVSPost2010Prop28
280
     0
102
RTVSPost2010PropOp28
 70
     1
102
RTVSPost2010Prop29
280
     1
102
RTVSPost2010PropOp29
 70
     1
102
RTVSPost2010Prop30
280
     1
102
RTVSPost2010PropOp30
 70
     1
102
RTVSPost2010Prop31
280
     0
102
RTVSPost2010PropOp31
 70
     1
102
RTVSPost2010Prop32
280
     0
102
RTVSPost2010PropOp32
 70
     1
102
RTVSPost2010Prop33
280
     0
102
RTVSPost2010PropOp33
 70
     1
102
RTVSPost2010Prop34
280
     0
102
RTVSPost2010PropOp34
 70
     1
102
RTVSPost2010Prop35
280
     0
102
RTVSPost2010PropOp35
 70
     1
102
RTVSPost2010Prop36
280
     0
102
RTVSPost2010PropOp36
 70
     1
102
RTVSPost2010Prop37
 90
       50
102
RTVSPost2010PropOp37
 70
     1
102
RTVSPost2010Prop38
140
0.0
102
RTVSPost2010PropOp38
 70
     1
102
RTVSPost2010Prop39
140
1.0
102
RTVSPost2010PropOp39
 70
     1
102
RTVSPost2010Prop40
 90
        0
102
RTVSPost2010PropOp40
 70
     1
102
RTVSPost2010Prop41ColorIndex
 90
       18
102
RTVSPost2010Prop41ColorRGB
 90
        0
102
RTVSPost2010PropOp41
 70
     1
102
RTVSPost2010Prop42
 90
       50
102
RTVSPost2010PropOp42
 70
     1
102
RTVSPost2010Prop43
 90
        3
102
RTVSPost2010PropOp43
 70
     1
102
RTVSPost2010Prop44ColorIndex
 90
        5
102
RTVSPost2010Prop44ColorRGB
 90
      255
102
RTVSPost2010PropOp44
 70
     1
102
RTVSPost2010Prop45
280
     0
102
RTVSPost2010PropOp45
 70
     1
102
RTVSPost2010Prop46
 90
       50
102
RTVSPost2010PropOp46
 70
     1
102
RTVSPost2010Prop47
 90
       50
102
RTVSPost2010PropOp47
 70
     1
102
RTVSPost2010Prop48
 90
       50
102
RTVSPost2010PropOp48
 70
     1
102
RTVSPost2010Prop49
280
     0
102
RTVSPost2010PropOp49
 70
     1
102
RTVSPost2010Prop50
 90
       50
102
RTVSPost2010PropOp50
 70
     1
102
RTVSPost2010Prop51ColorIndex
 90
      256
102
RTVSPost2010Prop51ColorRGB
 90
-16777216
102
RTVSPost2010PropOp51
 70
     0
102
RTVSPost2010Prop52
140
1.0
102
RTVSPost2010PropOp52
 70
     0
102
RTVSPost2010Prop53
 90
        2
102
RTVSPost2010PropOp53
 70
     1
102
RTVSPost2010Prop54
  1
strokes_ogs.tif
102
RTVSPost2010PropOp54
 70
     1
102
RTVSPost2010Prop55
280
     0
102
RTVSPost2010PropOp55
 70
     1
102
RTVSPost2010Prop56
140
1.0
102
RTVSPost2010PropOp56
 70
     1
102
RTVSPost2010Prop57
140
1.0
102
RTVSPost2010PropOp57
 70
     1
102
RTVSPropertyOp0
 70
     1
102
RTVSPropertyOp1
 70
     1
102
RTVSPropertyOp2
 70
     1
102
RTVSPropertyOp3
 70
     1
102
RTVSPropertyOp4
 70
     1
102
RTVSPropertyOp5
 70
     1
102
RTVSPropertyOp6
 70
     1
102
RTVSPropertyOp7
 70
     1
102
RTVSPropertyOp8
 70
     1
102
RTVSPropertyOp9
 70
     1
102
RTVSPropertyOp10
 70
     1
102
RTVSPropertyOp11
 70
     1
102
RTVSPropertyOp12
 70
     1
102
RTVSPropertyOp13
 70
     1
102
RTVSPropertyOp14
 70
     1
102
RTVSPropertyOp15
 70
     1
102
RTVSPropertyOp16
 70
     1
102
RTVSPropertyOp17
 70
     1
102
RTVSPropertyOp18
 70
     1
102
RTVSPropertyOp19
 70
     1
102
RTVSPropertyOp20
 70
     1
102
RTVSPropertyOp21
 70
     1
102
RTVSPropertyOp22
 70
     1
102
RTVSPropertyOp23
 70
     1
102
RTVSPropertyOp24
 70
     1
102
RTVSPropertyOp25
 70
     1
102
RTVSPropertyOp26
 70
     1
102
RTVSPropertyOp27
 70
     1
102
RTVSPropertyOp28
 70
     1
102
RTVSPropertyOp29
 70
     1
102
RTVSPropertyOp30
 70
     1
102
RTVSPropertyOp31
 70
     1
102
RTVSPropertyOp32
 70
     1
102
RTVSPropertyOp33
 70
     1
102
RTVSPropertyOp34
 70
     1
102
RTVSPropertyOp35
 70
     1
102
RTVSPropertyOp36
 70
     1
102
RTVSPropertyOp37
 70
     1
102
RTVSPropertyOp38
 70
     1
102
RTVSPropertyOp39
 70
     1
102
RTVSPropertyOp40
 70
     1
102
RTVSPropertyOp41
 70
     1
102
RTVSPropertyOp42
 70
     1
102
RTVSPropertyOp43
 70
     1
102
RTVSPropertyOp44
 70
     1
102
RTVSPropertyOp45
 70
     1
102
RTVSPropertyOp46
 70
     1
102
RTVSPropertyOp47
 70
     1
102
RTVSPropertyOp48
 70
     1
102
RTVSPropertyOp49
 70
     1
102
RTVSPropertyOp50
 70
     1
102
RTVSPropertyOp51
 70
     0
102
RTVSPropertyOp52
 70
     0
102
RTVSPropertyOp53
 70
     1
102
RTVSPropertyOp54
 70
     1
102
RTVSPropertyOp55
 70
     1
102
RTVSPropertyOp56
 70
     1
102
RTVSPropertyOp57
 70
     1
102
RTVSPropertyOp58
 70
     1
102
RTVSPropertyOp59
 70
     1
102
RTVSPropertyOp60
 70
     1
102
RTVSPropertyOp61
 70
     1
102
RTVSPropertyOp62
 70
     1
  0
XRECORD
  5
B86
102
{ACAD_REACTORS
330
B85
102
}
330
B85
100
AcDbXrecord
280
     1
102
RTVSPost2010Prop28
280
     0
102
RTVSPost2010PropOp28
 70
     1
102
RTVSPost2010Prop29
280
     1
102
RTVSPost2010PropOp29
 70
     1
102
RTVSPost2010Prop30
280
     1
102
RTVSPost2010PropOp30
 70
     1
102
RTVSPost2010Prop31
280
     0
102
RTVSPost2010PropOp31
 70
     1
102
RTVSPost2010Prop32
280
     0
102
RTVSPost2010PropOp32
 70
     1
102
RTVSPost2010Prop33
280
     0
102
RTVSPost2010PropOp33
 70
     1
102
RTVSPost2010Prop34
280
     0
102
RTVSPost2010PropOp34
 70
     1
102
RTVSPost2010Prop35
280
     0
102
RTVSPost2010PropOp35
 70
     1
102
RTVSPost2010Prop36
280
     0
102
RTVSPost2010PropOp36
 70
     1
102
RTVSPost2010Prop37
 90
       50
102
RTVSPost2010PropOp37
 70
     1
102
RTVSPost2010Prop38
140
0.0
102
RTVSPost2010PropOp38
 70
     1
102
RTVSPost2010Prop39
140
1.0
102
RTVSPost2010PropOp39
 70
     1
102
RTVSPost2010Prop40
 90
        0
102
RTVSPost2010PropOp40
 70
     1
102
RTVSPost2010Prop41ColorIndex
 90
       18
102
RTVSPost2010Prop41ColorRGB
 90
        0
102
RTVSPost2010PropOp41
 70
     1
102
RTVSPost2010Prop42
 90
       50
102
RTVSPost2010PropOp42
 70
     1
102
RTVSPost2010Prop43
 90
        3
102
RTVSPost2010PropOp43
 70
     1
102
RTVSPost2010Prop44ColorIndex
 90
        5
102
RTVSPost2010Prop44ColorRGB
 90
      255
102
RTVSPost2010PropOp44
 70
     1
102
RTVSPost2010Prop45
280
     0
102
RTVSPost2010PropOp45
 70
     1
102
RTVSPost2010Prop46
 90
       50
102
RTVSPost2010PropOp46
 70
     1
102
RTVSPost2010Prop47
 90
       50
102
RTVSPost2010PropOp47
 70
     1
102
RTVSPost2010Prop48
 90
       50
102
RTVSPost2010PropOp48
 70
     1
102
RTVSPost2010Prop49
280
     0
102
RTVSPost2010PropOp49
 70
     1
102
RTVSPost2010Prop50
 90
       50
102
RTVSPost2010PropOp50
 70
     1
102
RTVSPost2010Prop51ColorIndex
 90
      256
102
RTVSPost2010Prop51ColorRGB
 90
-16777216
102
RTVSPost2010PropOp51
 70
     0
102
RTVSPost2010Prop52
140
1.0
102
RTVSPost2010PropOp52
 70
     0
102
RTVSPost2010Prop53
 90
        2
102
RTVSPost2010PropOp53
 70
     1
102
RTVSPost2010Prop54
  1
strokes_ogs.tif
102
RTVSPost2010PropOp54
 70
     1
102
RTVSPost2010Prop55
280
     0
102
RTVSPost2010PropOp55
 70
     1
102
RTVSPost2010Prop56
140
1.0
102
RTVSPost2010PropOp56
 70
     1
102
RTVSPost2010Prop57
140
1.0
102
RTVSPost2010PropOp57
 70
     1
102
RTVSPropertyOp0
 70
     1
102
RTVSPropertyOp1
 70
     1
102
RTVSPropertyOp2
 70
     1
102
RTVSPropertyOp3
 70
     1
102
RTVSPropertyOp4
 70
     1
102
RTVSPropertyOp5
 70
     1
102
RTVSPropertyOp6
 70
     1
102
RTVSPropertyOp7
 70
     1
102
RTVSPropertyOp8
 70
     1
102
RTVSPropertyOp9
 70
     1
102
RTVSPropertyOp10
 70
     1
102
RTVSPropertyOp11
 70
     1
102
RTVSPropertyOp12
 70
     1
102
RTVSPropertyOp13
 70
     1
102
RTVSPropertyOp14
 70
     1
102
RTVSPropertyOp15
 70
     1
102
RTVSPropertyOp16
 70
     1
102
RTVSPropertyOp17
 70
     1
102
RTVSPropertyOp18
 70
     1
102
RTVSPropertyOp19
 70
     1
102
RTVSPropertyOp20
 70
     1
102
RTVSPropertyOp21
 70
     1
102
RTVSPropertyOp22
 70
     1
102
RTVSPropertyOp23
 70
     1
102
RTVSPropertyOp24
 70
     1
102
RTVSPropertyOp25
 70
     1
102
RTVSPropertyOp26
 70
     1
102
RTVSPropertyOp27
 70
     1
102
RTVSPropertyOp28
 70
     1
102
RTVSPropertyOp29
 70
     1
102
RTVSPropertyOp30
 70
     1
102
RTVSPropertyOp31
 70
     1
102
RTVSPropertyOp32
 70
     1
102
RTVSPropertyOp33
 70
     1
102
RTVSPropertyOp34
 70
     1
102
RTVSPropertyOp35
 70
     1
102
RTVSPropertyOp36
 70
     1
102
RTVSPropertyOp37
 70
     1
102
RTVSPropertyOp38
 70
     1
102
RTVSPropertyOp39
 70
     1
102
RTVSPropertyOp40
 70
     1
102
RTVSPropertyOp41
 70
     1
102
RTVSPropertyOp42
 70
     1
102
RTVSPropertyOp43
 70
     1
102
RTVSPropertyOp44
 70
     1
102
RTVSPropertyOp45
 70
     1
102
RTVSPropertyOp46
 70
     1
102
RTVSPropertyOp47
 70
     1
102
RTVSPropertyOp48
 70
     1
102
RTVSPropertyOp49
 70
     1
102
RTVSPropertyOp50
 70
     1
102
RTVSPropertyOp51
 70
     0
102
RTVSPropertyOp52
 70
     0
102
RTVSPropertyOp53
 70
     1
102
RTVSPropertyOp54
 70
     1
102
RTVSPropertyOp55
 70
     1
102
RTVSPropertyOp56
 70
     1
102
RTVSPropertyOp57
 70
     1
102
RTVSPropertyOp58
 70
     1
102
RTVSPropertyOp59
 70
     1
102
RTVSPropertyOp60
 70
     1
102
RTVSPropertyOp61
 70
     1
102
RTVSPropertyOp62
 70
     1
  0
XRECORD
  5
B8A
102
{ACAD_REACTORS
330
B89
102
}
330
B89
100
AcDbXrecord
280
     1
102
RTVSPost2010Prop28
280
     0
102
RTVSPost2010PropOp28
 70
     1
102
RTVSPost2010Prop29
280
     1
102
RTVSPost2010PropOp29
 70
     1
102
RTVSPost2010Prop30
280
     1
102
RTVSPost2010PropOp30
 70
     1
102
RTVSPost2010Prop31
280
     0
102
RTVSPost2010PropOp31
 70
     1
102
RTVSPost2010Prop32
280
     0
102
RTVSPost2010PropOp32
 70
     1
102
RTVSPost2010Prop33
280
     0
102
RTVSPost2010PropOp33
 70
     1
102
RTVSPost2010Prop34
280
     0
102
RTVSPost2010PropOp34
 70
     1
102
RTVSPost2010Prop35
280
     0
102
RTVSPost2010PropOp35
 70
     1
102
RTVSPost2010Prop36
280
     0
102
RTVSPost2010PropOp36
 70
     1
102
RTVSPost2010Prop37
 90
       50
102
RTVSPost2010PropOp37
 70
     1
102
RTVSPost2010Prop38
140
0.0
102
RTVSPost2010PropOp38
 70
     1
102
RTVSPost2010Prop39
140
1.0
102
RTVSPost2010PropOp39
 70
     1
102
RTVSPost2010Prop40
 90
        0
102
RTVSPost2010PropOp40
 70
     1
102
RTVSPost2010Prop41ColorIndex
 90
       18
102
RTVSPost2010Prop41ColorRGB
 90
        0
102
RTVSPost2010PropOp41
 70
     1
102
RTVSPost2010Prop42
 90
       50
102
RTVSPost2010PropOp42
 70
     1
102
RTVSPost2010Prop43
 90
        3
102
RTVSPost2010PropOp43
 70
     1
102
RTVSPost2010Prop44ColorIndex
 90
        5
102
RTVSPost2010Prop44ColorRGB
 90
      255
102
RTVSPost2010PropOp44
 70
     1
102
RTVSPost2010Prop45
280
     0
102
RTVSPost2010PropOp45
 70
     1
102
RTVSPost2010Prop46
 90
       50
102
RTVSPost2010PropOp46
 70
     1
102
RTVSPost2010Prop47
 90
       50
102
RTVSPost2010PropOp47
 70
     1
102
RTVSPost2010Prop48
 90
       50
102
RTVSPost2010PropOp48
 70
     1
102
RTVSPost2010Prop49
280
     0
102
RTVSPost2010PropOp49
 70
     1
102
RTVSPost2010Prop50
 90
       50
102
RTVSPost2010PropOp50
 70
     1
102
RTVSPost2010Prop51ColorIndex
 90
      256
102
RTVSPost2010Prop51ColorRGB
 90
-16777216
102
RTVSPost2010PropOp51
 70
     0
102
RTVSPost2010Prop52
140
1.0
102
RTVSPost2010PropOp52
 70
     0
102
RTVSPost2010Prop53
 90
        2
102
RTVSPost2010PropOp53
 70
     1
102
RTVSPost2010Prop54
  1
strokes_ogs.tif
102
RTVSPost2010PropOp54
 70
     1
102
RTVSPost2010Prop55
280
     0
102
RTVSPost2010PropOp55
 70
     1
102
RTVSPost2010Prop56
140
1.0
102
RTVSPost2010PropOp56
 70
     1
102
RTVSPost2010Prop57
140
1.0
102
RTVSPost2010PropOp57
 70
     1
102
RTVSPropertyOp0
 70
     1
102
RTVSPropertyOp1
 70
     1
102
RTVSPropertyOp2
 70
     1
102
RTVSPropertyOp3
 70
     1
102
RTVSPropertyOp4
 70
     1
102
RTVSPropertyOp5
 70
     1
102
RTVSPropertyOp6
 70
     1
102
RTVSPropertyOp7
 70
     1
102
RTVSPropertyOp8
 70
     1
102
RTVSPropertyOp9
 70
     1
102
RTVSPropertyOp10
 70
     1
102
RTVSPropertyOp11
 70
     1
102
RTVSPropertyOp12
 70
     1
102
RTVSPropertyOp13
 70
     1
102
RTVSPropertyOp14
 70
     1
102
RTVSPropertyOp15
 70
     1
102
RTVSPropertyOp16
 70
     1
102
RTVSPropertyOp17
 70
     1
102
RTVSPropertyOp18
 70
     1
102
RTVSPropertyOp19
 70
     1
102
RTVSPropertyOp20
 70
     1
102
RTVSPropertyOp21
 70
     1
102
RTVSPropertyOp22
 70
     1
102
RTVSPropertyOp23
 70
     1
102
RTVSPropertyOp24
 70
     1
102
RTVSPropertyOp25
 70
     1
102
RTVSPropertyOp26
 70
     1
102
RTVSPropertyOp27
 70
     1
102
RTVSPropertyOp28
 70
     1
102
RTVSPropertyOp29
 70
     1
102
RTVSPropertyOp30
 70
     1
102
RTVSPropertyOp31
 70
     1
102
RTVSPropertyOp32
 70
     1
102
RTVSPropertyOp33
 70
     1
102
RTVSPropertyOp34
 70
     1
102
RTVSPropertyOp35
 70
     1
102
RTVSPropertyOp36
 70
     1
102
RTVSPropertyOp37
 70
     1
102
RTVSPropertyOp38
 70
     1
102
RTVSPropertyOp39
 70
     1
102
RTVSPropertyOp40
 70
     1
102
RTVSPropertyOp41
 70
     1
102
RTVSPropertyOp42
 70
     1
102
RTVSPropertyOp43
 70
     1
102
RTVSPropertyOp44
 70
     1
102
RTVSPropertyOp45
 70
     1
102
RTVSPropertyOp46
 70
     1
102
RTVSPropertyOp47
 70
     1
102
RTVSPropertyOp48
 70
     1
102
RTVSPropertyOp49
 70
     1
102
RTVSPropertyOp50
 70
     1
102
RTVSPropertyOp51
 70
     0
102
RTVSPropertyOp52
 70
     0
102
RTVSPropertyOp53
 70
     1
102
RTVSPropertyOp54
 70
     1
102
RTVSPropertyOp55
 70
     1
102
RTVSPropertyOp56
 70
     1
102
RTVSPropertyOp57
 70
     1
102
RTVSPropertyOp58
 70
     1
102
RTVSPropertyOp59
 70
     1
102
RTVSPropertyOp60
 70
     1
102
RTVSPropertyOp61
 70
     1
102
RTVSPropertyOp62
 70
     1
  0
XRECORD
  5
B92
102
{ACAD_REACTORS
330
B91
102
}
330
B91
100
AcDbXrecord
280
     1
102
RTVSPost2010Prop28
280
     0
102
RTVSPost2010PropOp28
 70
     1
102
RTVSPost2010Prop29
280
     1
102
RTVSPost2010PropOp29
 70
     1
102
RTVSPost2010Prop30
280
     1
102
RTVSPost2010PropOp30
 70
     1
102
RTVSPost2010Prop31
280
     0
102
RTVSPost2010PropOp31
 70
     1
102
RTVSPost2010Prop32
280
     0
102
RTVSPost2010PropOp32
 70
     1
102
RTVSPost2010Prop33
280
     0
102
RTVSPost2010PropOp33
 70
     1
102
RTVSPost2010Prop34
280
     0
102
RTVSPost2010PropOp34
 70
     1
102
RTVSPost2010Prop35
280
     0
102
RTVSPost2010PropOp35
 70
     1
102
RTVSPost2010Prop36
280
     0
102
RTVSPost2010PropOp36
 70
     1
102
RTVSPost2010Prop37
 90
       50
102
RTVSPost2010PropOp37
 70
     1
102
RTVSPost2010Prop38
140
0.0
102
RTVSPost2010PropOp38
 70
     1
102
RTVSPost2010Prop39
140
1.0
102
RTVSPost2010PropOp39
 70
     1
102
RTVSPost2010Prop40
 90
        0
102
RTVSPost2010PropOp40
 70
     1
102
RTVSPost2010Prop41ColorIndex
 90
       18
102
RTVSPost2010Prop41ColorRGB
 90
        0
102
RTVSPost2010PropOp41
 70
     1
102
RTVSPost2010Prop42
 90
       50
102
RTVSPost2010PropOp42
 70
     1
102
RTVSPost2010Prop43
 90
        3
102
RTVSPost2010PropOp43
 70
     1
102
RTVSPost2010Prop44ColorIndex
 90
        5
102
RTVSPost2010Prop44ColorRGB
 90
      255
102
RTVSPost2010PropOp44
 70
     1
102
RTVSPost2010Prop45
280
     0
102
RTVSPost2010PropOp45
 70
     1
102
RTVSPost2010Prop46
 90
       50
102
RTVSPost2010PropOp46
 70
     1
102
RTVSPost2010Prop47
 90
       50
102
RTVSPost2010PropOp47
 70
     1
102
RTVSPost2010Prop48
 90
       50
102
RTVSPost2010PropOp48
 70
     1
102
RTVSPost2010Prop49
280
     0
102
RTVSPost2010PropOp49
 70
     1
102
RTVSPost2010Prop50
 90
       50
102
RTVSPost2010PropOp50
 70
     1
102
RTVSPost2010Prop51ColorIndex
 90
      256
102
RTVSPost2010Prop51ColorRGB
 90
-16777216
102
RTVSPost2010PropOp51
 70
     0
102
RTVSPost2010Prop52
140
1.0
102
RTVSPost2010PropOp52
 70
     0
102
RTVSPost2010Prop53
 90
        2
102
RTVSPost2010PropOp53
 70
     1
102
RTVSPost2010Prop54
  1
strokes_ogs.tif
102
RTVSPost2010PropOp54
 70
     1
102
RTVSPost2010Prop55
280
     0
102
RTVSPost2010PropOp55
 70
     1
102
RTVSPost2010Prop56
140
1.0
102
RTVSPost2010PropOp56
 70
     1
102
RTVSPost2010Prop57
140
1.0
102
RTVSPost2010PropOp57
 70
     1
102
RTVSPropertyOp0
 70
     1
102
RTVSPropertyOp1
 70
     1
102
RTVSPropertyOp2
 70
     1
102
RTVSPropertyOp3
 70
     1
102
RTVSPropertyOp4
 70
     1
102
RTVSPropertyOp5
 70
     1
102
RTVSPropertyOp6
 70
     1
102
RTVSPropertyOp7
 70
     1
102
RTVSPropertyOp8
 70
     1
102
RTVSPropertyOp9
 70
     1
102
RTVSPropertyOp10
 70
     1
102
RTVSPropertyOp11
 70
     1
102
RTVSPropertyOp12
 70
     1
102
RTVSPropertyOp13
 70
     1
102
RTVSPropertyOp14
 70
     1
102
RTVSPropertyOp15
 70
     1
102
RTVSPropertyOp16
 70
     1
102
RTVSPropertyOp17
 70
     1
102
RTVSPropertyOp18
 70
     1
102
RTVSPropertyOp19
 70
     1
102
RTVSPropertyOp20
 70
     1
102
RTVSPropertyOp21
 70
     1
102
RTVSPropertyOp22
 70
     1
102
RTVSPropertyOp23
 70
     1
102
RTVSPropertyOp24
 70
     1
102
RTVSPropertyOp25
 70
     1
102
RTVSPropertyOp26
 70
     1
102
RTVSPropertyOp27
 70
     1
102
RTVSPropertyOp28
 70
     1
102
RTVSPropertyOp29
 70
     1
102
RTVSPropertyOp30
 70
     1
102
RTVSPropertyOp31
 70
     1
102
RTVSPropertyOp32
 70
     1
102
RTVSPropertyOp33
 70
     1
102
RTVSPropertyOp34
 70
     1
102
RTVSPropertyOp35
 70
     1
102
RTVSPropertyOp36
 70
     1
102
RTVSPropertyOp37
 70
     1
102
RTVSPropertyOp38
 70
     1
102
RTVSPropertyOp39
 70
     1
102
RTVSPropertyOp40
 70
     1
102
RTVSPropertyOp41
 70
     1
102
RTVSPropertyOp42
 70
     1
102
RTVSPropertyOp43
 70
     1
102
RTVSPropertyOp44
 70
     1
102
RTVSPropertyOp45
 70
     1
102
RTVSPropertyOp46
 70
     1
102
RTVSPropertyOp47
 70
     1
102
RTVSPropertyOp48
 70
     1
102
RTVSPropertyOp49
 70
     1
102
RTVSPropertyOp50
 70
     1
102
RTVSPropertyOp51
 70
     0
102
RTVSPropertyOp52
 70
     0
102
RTVSPropertyOp53
 70
     1
102
RTVSPropertyOp54
 70
     1
102
RTVSPropertyOp55
 70
     1
102
RTVSPropertyOp56
 70
     1
102
RTVSPropertyOp57
 70
     1
102
RTVSPropertyOp58
 70
     1
102
RTVSPropertyOp59
 70
     1
102
RTVSPropertyOp60
 70
     1
102
RTVSPropertyOp61
 70
     1
102
RTVSPropertyOp62
 70
     1
  0
XRECORD
  5
B9A
102
{ACAD_REACTORS
330
B99
102
}
330
B99
100
AcDbXrecord
280
     1
102
RTVSPost2010Prop28
280
     0
102
RTVSPost2010PropOp28
 70
     1
102
RTVSPost2010Prop29
280
     1
102
RTVSPost2010PropOp29
 70
     1
102
RTVSPost2010Prop30
280
     1
102
RTVSPost2010PropOp30
 70
     1
102
RTVSPost2010Prop31
280
     0
102
RTVSPost2010PropOp31
 70
     1
102
RTVSPost2010Prop32
280
     0
102
RTVSPost2010PropOp32
 70
     1
102
RTVSPost2010Prop33
280
     0
102
RTVSPost2010PropOp33
 70
     1
102
RTVSPost2010Prop34
280
     0
102
RTVSPost2010PropOp34
 70
     1
102
RTVSPost2010Prop35
280
     0
102
RTVSPost2010PropOp35
 70
     1
102
RTVSPost2010Prop36
280
     0
102
RTVSPost2010PropOp36
 70
     1
102
RTVSPost2010Prop37
 90
       50
102
RTVSPost2010PropOp37
 70
     1
102
RTVSPost2010Prop38
140
0.0
102
RTVSPost2010PropOp38
 70
     1
102
RTVSPost2010Prop39
140
1.0
102
RTVSPost2010PropOp39
 70
     1
102
RTVSPost2010Prop40
 90
        0
102
RTVSPost2010PropOp40
 70
     1
102
RTVSPost2010Prop41ColorIndex
 90
       18
102
RTVSPost2010Prop41ColorRGB
 90
        0
102
RTVSPost2010PropOp41
 70
     1
102
RTVSPost2010Prop42
 90
       50
102
RTVSPost2010PropOp42
 70
     1
102
RTVSPost2010Prop43
 90
        3
102
RTVSPost2010PropOp43
 70
     1
102
RTVSPost2010Prop44ColorIndex
 90
        5
102
RTVSPost2010Prop44ColorRGB
 90
      255
102
RTVSPost2010PropOp44
 70
     1
102
RTVSPost2010Prop45
280
     0
102
RTVSPost2010PropOp45
 70
     1
102
RTVSPost2010Prop46
 90
       50
102
RTVSPost2010PropOp46
 70
     1
102
RTVSPost2010Prop47
 90
       50
102
RTVSPost2010PropOp47
 70
     1
102
RTVSPost2010Prop48
 90
       50
102
RTVSPost2010PropOp48
 70
     1
102
RTVSPost2010Prop49
280
     0
102
RTVSPost2010PropOp49
 70
     1
102
RTVSPost2010Prop50
 90
       50
102
RTVSPost2010PropOp50
 70
     1
102
RTVSPost2010Prop51ColorIndex
 90
      256
102
RTVSPost2010Prop51ColorRGB
 90
-16777216
102
RTVSPost2010PropOp51
 70
     0
102
RTVSPost2010Prop52
140
1.0
102
RTVSPost2010PropOp52
 70
     0
102
RTVSPost2010Prop53
 90
        2
102
RTVSPost2010PropOp53
 70
     1
102
RTVSPost2010Prop54
  1
strokes_ogs.tif
102
RTVSPost2010PropOp54
 70
     1
102
RTVSPost2010Prop55
280
     0
102
RTVSPost2010PropOp55
 70
     1
102
RTVSPost2010Prop56
140
1.0
102
RTVSPost2010PropOp56
 70
     1
102
RTVSPost2010Prop57
140
1.0
102
RTVSPost2010PropOp57
 70
     1
102
RTVSPropertyOp0
 70
     1
102
RTVSPropertyOp1
 70
     1
102
RTVSPropertyOp2
 70
     1
102
RTVSPropertyOp3
 70
     1
102
RTVSPropertyOp4
 70
     1
102
RTVSPropertyOp5
 70
     1
102
RTVSPropertyOp6
 70
     1
102
RTVSPropertyOp7
 70
     1
102
RTVSPropertyOp8
 70
     1
102
RTVSPropertyOp9
 70
     1
102
RTVSPropertyOp10
 70
     1
102
RTVSPropertyOp11
 70
     1
102
RTVSPropertyOp12
 70
     1
102
RTVSPropertyOp13
 70
     1
102
RTVSPropertyOp14
 70
     1
102
RTVSPropertyOp15
 70
     1
102
RTVSPropertyOp16
 70
     1
102
RTVSPropertyOp17
 70
     1
102
RTVSPropertyOp18
 70
     1
102
RTVSPropertyOp19
 70
     1
102
RTVSPropertyOp20
 70
     1
102
RTVSPropertyOp21
 70
     1
102
RTVSPropertyOp22
 70
     1
102
RTVSPropertyOp23
 70
     1
102
RTVSPropertyOp24
 70
     1
102
RTVSPropertyOp25
 70
     1
102
RTVSPropertyOp26
 70
     1
102
RTVSPropertyOp27
 70
     1
102
RTVSPropertyOp28
 70
     1
102
RTVSPropertyOp29
 70
     1
102
RTVSPropertyOp30
 70
     1
102
RTVSPropertyOp31
 70
     1
102
RTVSPropertyOp32
 70
     1
102
RTVSPropertyOp33
 70
     1
102
RTVSPropertyOp34
 70
     1
102
RTVSPropertyOp35
 70
     1
102
RTVSPropertyOp36
 70
     1
102
RTVSPropertyOp37
 70
     1
102
RTVSPropertyOp38
 70
     1
102
RTVSPropertyOp39
 70
     1
102
RTVSPropertyOp40
 70
     1
102
RTVSPropertyOp41
 70
     1
102
RTVSPropertyOp42
 70
     1
102
RTVSPropertyOp43
 70
     1
102
RTVSPropertyOp44
 70
     1
102
RTVSPropertyOp45
 70
     1
102
RTVSPropertyOp46
 70
     1
102
RTVSPropertyOp47
 70
     1
102
RTVSPropertyOp48
 70
     1
102
RTVSPropertyOp49
 70
     1
102
RTVSPropertyOp50
 70
     1
102
RTVSPropertyOp51
 70
     0
102
RTVSPropertyOp52
 70
     0
102
RTVSPropertyOp53
 70
     1
102
RTVSPropertyOp54
 70
     1
102
RTVSPropertyOp55
 70
     1
102
RTVSPropertyOp56
 70
     1
102
RTVSPropertyOp57
 70
     1
102
RTVSPropertyOp58
 70
     1
102
RTVSPropertyOp59
 70
     1
102
RTVSPropertyOp60
 70
     1
102
RTVSPropertyOp61
 70
     1
102
RTVSPropertyOp62
 70
     1
  0
XRECORD
  5
B8E
102
{ACAD_REACTORS
330
B8D
102
}
330
B8D
100
AcDbXrecord
280
     1
102
RTVSPost2010Prop28
280
     0
102
RTVSPost2010PropOp28
 70
     1
102
RTVSPost2010Prop29
280
     1
102
RTVSPost2010PropOp29
 70
     1
102
RTVSPost2010Prop30
280
     1
102
RTVSPost2010PropOp30
 70
     1
102
RTVSPost2010Prop31
280
     0
102
RTVSPost2010PropOp31
 70
     1
102
RTVSPost2010Prop32
280
     0
102
RTVSPost2010PropOp32
 70
     1
102
RTVSPost2010Prop33
280
     0
102
RTVSPost2010PropOp33
 70
     1
102
RTVSPost2010Prop34
280
     0
102
RTVSPost2010PropOp34
 70
     1
102
RTVSPost2010Prop35
280
     0
102
RTVSPost2010PropOp35
 70
     1
102
RTVSPost2010Prop36
280
     0
102
RTVSPost2010PropOp36
 70
     1
102
RTVSPost2010Prop37
 90
       50
102
RTVSPost2010PropOp37
 70
     1
102
RTVSPost2010Prop38
140
0.0
102
RTVSPost2010PropOp38
 70
     1
102
RTVSPost2010Prop39
140
1.0
102
RTVSPost2010PropOp39
 70
     1
102
RTVSPost2010Prop40
 90
        0
102
RTVSPost2010PropOp40
 70
     1
102
RTVSPost2010Prop41ColorIndex
 90
       18
102
RTVSPost2010Prop41ColorRGB
 90
        0
102
RTVSPost2010PropOp41
 70
     1
102
RTVSPost2010Prop42
 90
       50
102
RTVSPost2010PropOp42
 70
     1
102
RTVSPost2010Prop43
 90
        3
102
RTVSPost2010PropOp43
 70
     1
102
RTVSPost2010Prop44ColorIndex
 90
        5
102
RTVSPost2010Prop44ColorRGB
 90
      255
102
RTVSPost2010PropOp44
 70
     1
102
RTVSPost2010Prop45
280
     0
102
RTVSPost2010PropOp45
 70
     1
102
RTVSPost2010Prop46
 90
       50
102
RTVSPost2010PropOp46
 70
     1
102
RTVSPost2010Prop47
 90
       50
102
RTVSPost2010PropOp47
 70
     1
102
RTVSPost2010Prop48
 90
       50
102
RTVSPost2010PropOp48
 70
     1
102
RTVSPost2010Prop49
280
     0
102
RTVSPost2010PropOp49
 70
     1
102
RTVSPost2010Prop50
 90
       50
102
RTVSPost2010PropOp50
 70
     1
102
RTVSPost2010Prop51ColorIndex
 90
      256
102
RTVSPost2010Prop51ColorRGB
 90
-16777216
102
RTVSPost2010PropOp51
 70
     0
102
RTVSPost2010Prop52
140
1.0
102
RTVSPost2010PropOp52
 70
     0
102
RTVSPost2010Prop53
 90
        2
102
RTVSPost2010PropOp53
 70
     1
102
RTVSPost2010Prop54
  1
strokes_ogs.tif
102
RTVSPost2010PropOp54
 70
     1
102
RTVSPost2010Prop55
280
     0
102
RTVSPost2010PropOp55
 70
     1
102
RTVSPost2010Prop56
140
1.0
102
RTVSPost2010PropOp56
 70
     1
102
RTVSPost2010Prop57
140
1.0
102
RTVSPost2010PropOp57
 70
     1
102
RTVSPropertyOp0
 70
     1
102
RTVSPropertyOp1
 70
     1
102
RTVSPropertyOp2
 70
     1
102
RTVSPropertyOp3
 70
     1
102
RTVSPropertyOp4
 70
     1
102
RTVSPropertyOp5
 70
     1
102
RTVSPropertyOp6
 70
     1
102
RTVSPropertyOp7
 70
     1
102
RTVSPropertyOp8
 70
     1
102
RTVSPropertyOp9
 70
     1
102
RTVSPropertyOp10
 70
     1
102
RTVSPropertyOp11
 70
     1
102
RTVSPropertyOp12
 70
     1
102
RTVSPropertyOp13
 70
     1
102
RTVSPropertyOp14
 70
     1
102
RTVSPropertyOp15
 70
     1
102
RTVSPropertyOp16
 70
     1
102
RTVSPropertyOp17
 70
     1
102
RTVSPropertyOp18
 70
     1
102
RTVSPropertyOp19
 70
     1
102
RTVSPropertyOp20
 70
     1
102
RTVSPropertyOp21
 70
     1
102
RTVSPropertyOp22
 70
     1
102
RTVSPropertyOp23
 70
     1
102
RTVSPropertyOp24
 70
     1
102
RTVSPropertyOp25
 70
     1
102
RTVSPropertyOp26
 70
     1
102
RTVSPropertyOp27
 70
     1
102
RTVSPropertyOp28
 70
     1
102
RTVSPropertyOp29
 70
     1
102
RTVSPropertyOp30
 70
     1
102
RTVSPropertyOp31
 70
     1
102
RTVSPropertyOp32
 70
     1
102
RTVSPropertyOp33
 70
     1
102
RTVSPropertyOp34
 70
     1
102
RTVSPropertyOp35
 70
     1
102
RTVSPropertyOp36
 70
     1
102
RTVSPropertyOp37
 70
     1
102
RTVSPropertyOp38
 70
     1
102
RTVSPropertyOp39
 70
     1
102
RTVSPropertyOp40
 70
     1
102
RTVSPropertyOp41
 70
     1
102
RTVSPropertyOp42
 70
     1
102
RTVSPropertyOp43
 70
     1
102
RTVSPropertyOp44
 70
     1
102
RTVSPropertyOp45
 70
     1
102
RTVSPropertyOp46
 70
     1
102
RTVSPropertyOp47
 70
     1
102
RTVSPropertyOp48
 70
     1
102
RTVSPropertyOp49
 70
     1
102
RTVSPropertyOp50
 70
     1
102
RTVSPropertyOp51
 70
     0
102
RTVSPropertyOp52
 70
     0
102
RTVSPropertyOp53
 70
     1
102
RTVSPropertyOp54
 70
     1
102
RTVSPropertyOp55
 70
     1
102
RTVSPropertyOp56
 70
     1
102
RTVSPropertyOp57
 70
     1
102
RTVSPropertyOp58
 70
     1
102
RTVSPropertyOp59
 70
     1
102
RTVSPropertyOp60
 70
     1
102
RTVSPropertyOp61
 70
     1
102
RTVSPropertyOp62
 70
     1
  0
XRECORD
  5
B90
102
{ACAD_REACTORS
330
B8F
102
}
330
B8F
100
AcDbXrecord
280
     1
102
RTVSPost2010Prop28
280
     0
102
RTVSPost2010PropOp28
 70
     1
102
RTVSPost2010Prop29
280
     1
102
RTVSPost2010PropOp29
 70
     1
102
RTVSPost2010Prop30
280
     1
102
RTVSPost2010PropOp30
 70
     1
102
RTVSPost2010Prop31
280
     0
102
RTVSPost2010PropOp31
 70
     1
102
RTVSPost2010Prop32
280
     0
102
RTVSPost2010PropOp32
 70
     1
102
RTVSPost2010Prop33
280
     0
102
RTVSPost2010PropOp33
 70
     1
102
RTVSPost2010Prop34
280
     0
102
RTVSPost2010PropOp34
 70
     1
102
RTVSPost2010Prop35
280
     0
102
RTVSPost2010PropOp35
 70
     1
102
RTVSPost2010Prop36
280
     0
102
RTVSPost2010PropOp36
 70
     1
102
RTVSPost2010Prop37
 90
       50
102
RTVSPost2010PropOp37
 70
     1
102
RTVSPost2010Prop38
140
0.0
102
RTVSPost2010PropOp38
 70
     1
102
RTVSPost2010Prop39
140
1.0
102
RTVSPost2010PropOp39
 70
     1
102
RTVSPost2010Prop40
 90
        0
102
RTVSPost2010PropOp40
 70
     1
102
RTVSPost2010Prop41ColorIndex
 90
       18
102
RTVSPost2010Prop41ColorRGB
 90
        0
102
RTVSPost2010PropOp41
 70
     1
102
RTVSPost2010Prop42
 90
       50
102
RTVSPost2010PropOp42
 70
     1
102
RTVSPost2010Prop43
 90
        3
102
RTVSPost2010PropOp43
 70
     1
102
RTVSPost2010Prop44ColorIndex
 90
        5
102
RTVSPost2010Prop44ColorRGB
 90
      255
102
RTVSPost2010PropOp44
 70
     1
102
RTVSPost2010Prop45
280
     0
102
RTVSPost2010PropOp45
 70
     1
102
RTVSPost2010Prop46
 90
       50
102
RTVSPost2010PropOp46
 70
     1
102
RTVSPost2010Prop47
 90
       50
102
RTVSPost2010PropOp47
 70
     1
102
RTVSPost2010Prop48
 90
       50
102
RTVSPost2010PropOp48
 70
     1
102
RTVSPost2010Prop49
280
     0
102
RTVSPost2010PropOp49
 70
     1
102
RTVSPost2010Prop50
 90
       50
102
RTVSPost2010PropOp50
 70
     1
102
RTVSPost2010Prop51ColorIndex
 90
      256
102
RTVSPost2010Prop51ColorRGB
 90
-16777216
102
RTVSPost2010PropOp51
 70
     0
102
RTVSPost2010Prop52
140
1.0
102
RTVSPost2010PropOp52
 70
     0
102
RTVSPost2010Prop53
 90
        2
102
RTVSPost2010PropOp53
 70
     1
102
RTVSPost2010Prop54
  1
strokes_ogs.tif
102
RTVSPost2010PropOp54
 70
     1
102
RTVSPost2010Prop55
280
     0
102
RTVSPost2010PropOp55
 70
     1
102
RTVSPost2010Prop56
140
1.0
102
RTVSPost2010PropOp56
 70
     1
102
RTVSPost2010Prop57
140
1.0
102
RTVSPost2010PropOp57
 70
     1
102
RTVSPropertyOp0
 70
     1
102
RTVSPropertyOp1
 70
     1
102
RTVSPropertyOp2
 70
     1
102
RTVSPropertyOp3
 70
     1
102
RTVSPropertyOp4
 70
     1
102
RTVSPropertyOp5
 70
     1
102
RTVSPropertyOp6
 70
     1
102
RTVSPropertyOp7
 70
     1
102
RTVSPropertyOp8
 70
     1
102
RTVSPropertyOp9
 70
     1
102
RTVSPropertyOp10
 70
     1
102
RTVSPropertyOp11
 70
     1
102
RTVSPropertyOp12
 70
     1
102
RTVSPropertyOp13
 70
     1
102
RTVSPropertyOp14
 70
     1
102
RTVSPropertyOp15
 70
     1
102
RTVSPropertyOp16
 70
     1
102
RTVSPropertyOp17
 70
     1
102
RTVSPropertyOp18
 70
     1
102
RTVSPropertyOp19
 70
     1
102
RTVSPropertyOp20
 70
     1
102
RTVSPropertyOp21
 70
     1
102
RTVSPropertyOp22
 70
     1
102
RTVSPropertyOp23
 70
     1
102
RTVSPropertyOp24
 70
     1
102
RTVSPropertyOp25
 70
     1
102
RTVSPropertyOp26
 70
     1
102
RTVSPropertyOp27
 70
     1
102
RTVSPropertyOp28
 70
     1
102
RTVSPropertyOp29
 70
     1
102
RTVSPropertyOp30
 70
     1
102
RTVSPropertyOp31
 70
     1
102
RTVSPropertyOp32
 70
     1
102
RTVSPropertyOp33
 70
     1
102
RTVSPropertyOp34
 70
     1
102
RTVSPropertyOp35
 70
     1
102
RTVSPropertyOp36
 70
     1
102
RTVSPropertyOp37
 70
     1
102
RTVSPropertyOp38
 70
     1
102
RTVSPropertyOp39
 70
     1
102
RTVSPropertyOp40
 70
     1
102
RTVSPropertyOp41
 70
     1
102
RTVSPropertyOp42
 70
     1
102
RTVSPropertyOp43
 70
     1
102
RTVSPropertyOp44
 70
     1
102
RTVSPropertyOp45
 70
     1
102
RTVSPropertyOp46
 70
     1
102
RTVSPropertyOp47
 70
     1
102
RTVSPropertyOp48
 70
     1
102
RTVSPropertyOp49
 70
     1
102
RTVSPropertyOp50
 70
     1
102
RTVSPropertyOp51
 70
     0
102
RTVSPropertyOp52
 70
     0
102
RTVSPropertyOp53
 70
     1
102
RTVSPropertyOp54
 70
     1
102
RTVSPropertyOp55
 70
     1
102
RTVSPropertyOp56
 70
     1
102
RTVSPropertyOp57
 70
     1
102
RTVSPropertyOp58
 70
     1
102
RTVSPropertyOp59
 70
     1
102
RTVSPropertyOp60
 70
     1
102
RTVSPropertyOp61
 70
     1
102
RTVSPropertyOp62
 70
     1
  0
XRECORD
  5
BA0
102
{ACAD_REACTORS
330
B9F
102
}
330
B9F
100
AcDbXrecord
280
     1
102
RTVSPost2010Prop28
280
     0
102
RTVSPost2010PropOp28
 70
     1
102
RTVSPost2010Prop29
280
     1
102
RTVSPost2010PropOp29
 70
     1
102
RTVSPost2010Prop30
280
     1
102
RTVSPost2010PropOp30
 70
     1
102
RTVSPost2010Prop31
280
     0
102
RTVSPost2010PropOp31
 70
     1
102
RTVSPost2010Prop32
280
     0
102
RTVSPost2010PropOp32
 70
     1
102
RTVSPost2010Prop33
280
     0
102
RTVSPost2010PropOp33
 70
     1
102
RTVSPost2010Prop34
280
     0
102
RTVSPost2010PropOp34
 70
     1
102
RTVSPost2010Prop35
280
     0
102
RTVSPost2010PropOp35
 70
     1
102
RTVSPost2010Prop36
280
     0
102
RTVSPost2010PropOp36
 70
     1
102
RTVSPost2010Prop37
 90
       50
102
RTVSPost2010PropOp37
 70
     1
102
RTVSPost2010Prop38
140
0.0
102
RTVSPost2010PropOp38
 70
     1
102
RTVSPost2010Prop39
140
1.0
102
RTVSPost2010PropOp39
 70
     1
102
RTVSPost2010Prop40
 90
        0
102
RTVSPost2010PropOp40
 70
     1
102
RTVSPost2010Prop41ColorIndex
 90
       18
102
RTVSPost2010Prop41ColorRGB
 90
        0
102
RTVSPost2010PropOp41
 70
     1
102
RTVSPost2010Prop42
 90
       50
102
RTVSPost2010PropOp42
 70
     1
102
RTVSPost2010Prop43
 90
        3
102
RTVSPost2010PropOp43
 70
     1
102
RTVSPost2010Prop44ColorIndex
 90
        5
102
RTVSPost2010Prop44ColorRGB
 90
      255
102
RTVSPost2010PropOp44
 70
     1
102
RTVSPost2010Prop45
280
     0
102
RTVSPost2010PropOp45
 70
     1
102
RTVSPost2010Prop46
 90
       50
102
RTVSPost2010PropOp46
 70
     1
102
RTVSPost2010Prop47
 90
       50
102
RTVSPost2010PropOp47
 70
     1
102
RTVSPost2010Prop48
 90
       50
102
RTVSPost2010PropOp48
 70
     1
102
RTVSPost2010Prop49
280
     0
102
RTVSPost2010PropOp49
 70
     1
102
RTVSPost2010Prop50
 90
       50
102
RTVSPost2010PropOp50
 70
     1
102
RTVSPost2010Prop51ColorIndex
 90
      256
102
RTVSPost2010Prop51ColorRGB
 90
-16777216
102
RTVSPost2010PropOp51
 70
     0
102
RTVSPost2010Prop52
140
1.0
102
RTVSPost2010PropOp52
 70
     0
102
RTVSPost2010Prop53
 90
        2
102
RTVSPost2010PropOp53
 70
     1
102
RTVSPost2010Prop54
  1
strokes_ogs.tif
102
RTVSPost2010PropOp54
 70
     1
102
RTVSPost2010Prop55
280
     0
102
RTVSPost2010PropOp55
 70
     1
102
RTVSPost2010Prop56
140
1.0
102
RTVSPost2010PropOp56
 70
     1
102
RTVSPost2010Prop57
140
1.0
102
RTVSPost2010PropOp57
 70
     1
102
RTVSPropertyOp0
 70
     0
102
RTVSPropertyOp1
 70
     0
102
RTVSPropertyOp2
 70
     0
102
RTVSPropertyOp3
 70
     0
102
RTVSPropertyOp4
 70
     0
102
RTVSPropertyOp5
 70
     0
102
RTVSPropertyOp6
 70
     0
102
RTVSPropertyOp7
 70
     0
102
RTVSPropertyOp8
 70
     0
102
RTVSPropertyOp9
 70
     0
102
RTVSPropertyOp10
 70
     0
102
RTVSPropertyOp11
 70
     0
102
RTVSPropertyOp12
 70
     0
102
RTVSPropertyOp13
 70
     0
102
RTVSPropertyOp14
 70
     2
102
RTVSPropertyOp15
 70
     0
102
RTVSPropertyOp16
 70
     0
102
RTVSPropertyOp17
 70
     0
102
RTVSPropertyOp18
 70
     0
102
RTVSPropertyOp19
 70
     0
102
RTVSPropertyOp20
 70
     0
102
RTVSPropertyOp21
 70
     0
102
RTVSPropertyOp22
 70
     0
102
RTVSPropertyOp23
 70
     0
102
RTVSPropertyOp24
 70
     0
102
RTVSPropertyOp25
 70
     0
102
RTVSPropertyOp26
 70
     0
102
RTVSPropertyOp27
 70
     0
102
RTVSPropertyOp28
 70
     1
102
RTVSPropertyOp29
 70
     1
102
RTVSPropertyOp30
 70
     1
102
RTVSPropertyOp31
 70
     1
102
RTVSPropertyOp32
 70
     1
102
RTVSPropertyOp33
 70
     1
102
RTVSPropertyOp34
 70
     1
102
RTVSPropertyOp35
 70
     1
102
RTVSPropertyOp36
 70
     1
102
RTVSPropertyOp37
 70
     1
102
RTVSPropertyOp38
 70
     1
102
RTVSPropertyOp39
 70
     1
102
RTVSPropertyOp40
 70
     1
102
RTVSPropertyOp41
 70
     1
102
RTVSPropertyOp42
 70
     1
102
RTVSPropertyOp43
 70
     1
102
RTVSPropertyOp44
 70
     1
102
RTVSPropertyOp45
 70
     1
102
RTVSPropertyOp46
 70
     1
102
RTVSPropertyOp47
 70
     1
102
RTVSPropertyOp48
 70
     1
102
RTVSPropertyOp49
 70
     1
102
RTVSPropertyOp50
 70
     1
102
RTVSPropertyOp51
 70
     0
102
RTVSPropertyOp52
 70
     0
102
RTVSPropertyOp53
 70
     1
102
RTVSPropertyOp54
 70
     1
102
RTVSPropertyOp55
 70
     1
102
RTVSPropertyOp56
 70
     1
102
RTVSPropertyOp57
 70
     1
102
RTVSPropertyOp58
 70
     1
102
RTVSPropertyOp59
 70
     1
102
RTVSPropertyOp60
 70
     1
102
RTVSPropertyOp61
 70
     1
102
RTVSPropertyOp62
 70
     1
  0
XRECORD
  5
B98
102
{ACAD_REACTORS
330
B97
102
}
330
B97
100
AcDbXrecord
280
     1
102
RTVSPost2010Prop28
280
     0
102
RTVSPost2010PropOp28
 70
     1
102
RTVSPost2010Prop29
280
     1
102
RTVSPost2010PropOp29
 70
     1
102
RTVSPost2010Prop30
280
     1
102
RTVSPost2010PropOp30
 70
     1
102
RTVSPost2010Prop31
280
     0
102
RTVSPost2010PropOp31
 70
     1
102
RTVSPost2010Prop32
280
     0
102
RTVSPost2010PropOp32
 70
     1
102
RTVSPost2010Prop33
280
     0
102
RTVSPost2010PropOp33
 70
     1
102
RTVSPost2010Prop34
280
     0
102
RTVSPost2010PropOp34
 70
     1
102
RTVSPost2010Prop35
280
     0
102
RTVSPost2010PropOp35
 70
     1
102
RTVSPost2010Prop36
280
     0
102
RTVSPost2010PropOp36
 70
     1
102
RTVSPost2010Prop37
 90
       50
102
RTVSPost2010PropOp37
 70
     1
102
RTVSPost2010Prop38
140
0.0
102
RTVSPost2010PropOp38
 70
     1
102
RTVSPost2010Prop39
140
1.0
102
RTVSPost2010PropOp39
 70
     1
102
RTVSPost2010Prop40
 90
        0
102
RTVSPost2010PropOp40
 70
     1
102
RTVSPost2010Prop41ColorIndex
 90
       18
102
RTVSPost2010Prop41ColorRGB
 90
        0
102
RTVSPost2010PropOp41
 70
     1
102
RTVSPost2010Prop42
 90
       50
102
RTVSPost2010PropOp42
 70
     1
102
RTVSPost2010Prop43
 90
        3
102
RTVSPost2010PropOp43
 70
     1
102
RTVSPost2010Prop44ColorIndex
 90
        5
102
RTVSPost2010Prop44ColorRGB
 90
      255
102
RTVSPost2010PropOp44
 70
     1
102
RTVSPost2010Prop45
280
     0
102
RTVSPost2010PropOp45
 70
     1
102
RTVSPost2010Prop46
 90
       50
102
RTVSPost2010PropOp46
 70
     1
102
RTVSPost2010Prop47
 90
       50
102
RTVSPost2010PropOp47
 70
     1
102
RTVSPost2010Prop48
 90
       50
102
RTVSPost2010PropOp48
 70
     1
102
RTVSPost2010Prop49
280
     0
102
RTVSPost2010PropOp49
 70
     1
102
RTVSPost2010Prop50
 90
       50
102
RTVSPost2010PropOp50
 70
     1
102
RTVSPost2010Prop51ColorIndex
 90
      256
102
RTVSPost2010Prop51ColorRGB
 90
-16777216
102
RTVSPost2010PropOp51
 70
     0
102
RTVSPost2010Prop52
140
1.0
102
RTVSPost2010PropOp52
 70
     0
102
RTVSPost2010Prop53
 90
        2
102
RTVSPost2010PropOp53
 70
     1
102
RTVSPost2010Prop54
  1
strokes_ogs.tif
102
RTVSPost2010PropOp54
 70
     1
102
RTVSPost2010Prop55
280
     0
102
RTVSPost2010PropOp55
 70
     1
102
RTVSPost2010Prop56
140
1.0
102
RTVSPost2010PropOp56
 70
     1
102
RTVSPost2010Prop57
140
1.0
102
RTVSPost2010PropOp57
 70
     1
102
RTVSPropertyOp0
 70
     1
102
RTVSPropertyOp1
 70
     1
102
RTVSPropertyOp2
 70
     1
102
RTVSPropertyOp3
 70
     1
102
RTVSPropertyOp4
 70
     1
102
RTVSPropertyOp5
 70
     1
102
RTVSPropertyOp6
 70
     1
102
RTVSPropertyOp7
 70
     1
102
RTVSPropertyOp8
 70
     1
102
RTVSPropertyOp9
 70
     1
102
RTVSPropertyOp10
 70
     1
102
RTVSPropertyOp11
 70
     1
102
RTVSPropertyOp12
 70
     1
102
RTVSPropertyOp13
 70
     1
102
RTVSPropertyOp14
 70
     1
102
RTVSPropertyOp15
 70
     1
102
RTVSPropertyOp16
 70
     1
102
RTVSPropertyOp17
 70
     1
102
RTVSPropertyOp18
 70
     1
102
RTVSPropertyOp19
 70
     1
102
RTVSPropertyOp20
 70
     1
102
RTVSPropertyOp21
 70
     1
102
RTVSPropertyOp22
 70
     1
102
RTVSPropertyOp23
 70
     1
102
RTVSPropertyOp24
 70
     1
102
RTVSPropertyOp25
 70
     1
102
RTVSPropertyOp26
 70
     1
102
RTVSPropertyOp27
 70
     1
102
RTVSPropertyOp28
 70
     1
102
RTVSPropertyOp29
 70
     1
102
RTVSPropertyOp30
 70
     1
102
RTVSPropertyOp31
 70
     1
102
RTVSPropertyOp32
 70
     1
102
RTVSPropertyOp33
 70
     1
102
RTVSPropertyOp34
 70
     1
102
RTVSPropertyOp35
 70
     1
102
RTVSPropertyOp36
 70
     1
102
RTVSPropertyOp37
 70
     1
102
RTVSPropertyOp38
 70
     1
102
RTVSPropertyOp39
 70
     1
102
RTVSPropertyOp40
 70
     1
102
RTVSPropertyOp41
 70
     1
102
RTVSPropertyOp42
 70
     1
102
RTVSPropertyOp43
 70
     1
102
RTVSPropertyOp44
 70
     1
102
RTVSPropertyOp45
 70
     1
102
RTVSPropertyOp46
 70
     1
102
RTVSPropertyOp47
 70
     1
102
RTVSPropertyOp48
 70
     1
102
RTVSPropertyOp49
 70
     1
102
RTVSPropertyOp50
 70
     1
102
RTVSPropertyOp51
 70
     0
102
RTVSPropertyOp52
 70
     0
102
RTVSPropertyOp53
 70
     1
102
RTVSPropertyOp54
 70
     1
102
RTVSPropertyOp55
 70
     1
102
RTVSPropertyOp56
 70
     1
102
RTVSPropertyOp57
 70
     1
102
RTVSPropertyOp58
 70
     1
102
RTVSPropertyOp59
 70
     1
102
RTVSPropertyOp60
 70
     1
102
RTVSPropertyOp61
 70
     1
102
RTVSPropertyOp62
 70
     1
  0
XRECORD
  5
B7C
102
{ACAD_REACTORS
330
B7B
102
}
330
B7B
100
AcDbXrecord
280
     1
102
RTVSPost2010Prop28
280
     0
102
RTVSPost2010PropOp28
 70
     1
102
RTVSPost2010Prop29
280
     1
102
RTVSPost2010PropOp29
 70
     1
102
RTVSPost2010Prop30
280
     1
102
RTVSPost2010PropOp30
 70
     1
102
RTVSPost2010Prop31
280
     0
102
RTVSPost2010PropOp31
 70
     1
102
RTVSPost2010Prop32
280
     0
102
RTVSPost2010PropOp32
 70
     1
102
RTVSPost2010Prop33
280
     0
102
RTVSPost2010PropOp33
 70
     1
102
RTVSPost2010Prop34
280
     0
102
RTVSPost2010PropOp34
 70
     1
102
RTVSPost2010Prop35
280
     0
102
RTVSPost2010PropOp35
 70
     1
102
RTVSPost2010Prop36
280
     0
102
RTVSPost2010PropOp36
 70
     1
102
RTVSPost2010Prop37
 90
       50
102
RTVSPost2010PropOp37
 70
     1
102
RTVSPost2010Prop38
140
0.0
102
RTVSPost2010PropOp38
 70
     1
102
RTVSPost2010Prop39
140
1.0
102
RTVSPost2010PropOp39
 70
     1
102
RTVSPost2010Prop40
 90
        0
102
RTVSPost2010PropOp40
 70
     1
102
RTVSPost2010Prop41ColorIndex
 90
       18
102
RTVSPost2010Prop41ColorRGB
 90
        0
102
RTVSPost2010PropOp41
 70
     1
102
RTVSPost2010Prop42
 90
       50
102
RTVSPost2010PropOp42
 70
     1
102
RTVSPost2010Prop43
 90
        3
102
RTVSPost2010PropOp43
 70
     1
102
RTVSPost2010Prop44ColorIndex
 90
        5
102
RTVSPost2010Prop44ColorRGB
 90
      255
102
RTVSPost2010PropOp44
 70
     1
102
RTVSPost2010Prop45
280
     0
102
RTVSPost2010PropOp45
 70
     1
102
RTVSPost2010Prop46
 90
       50
102
RTVSPost2010PropOp46
 70
     1
102
RTVSPost2010Prop47
 90
       50
102
RTVSPost2010PropOp47
 70
     1
102
RTVSPost2010Prop48
 90
       50
102
RTVSPost2010PropOp48
 70
     1
102
RTVSPost2010Prop49
280
     0
102
RTVSPost2010PropOp49
 70
     1
102
RTVSPost2010Prop50
 90
       50
102
RTVSPost2010PropOp50
 70
     1
102
RTVSPost2010Prop51ColorIndex
 90
      256
102
RTVSPost2010Prop51ColorRGB
 90
-16777216
102
RTVSPost2010PropOp51
 70
     0
102
RTVSPost2010Prop52
140
1.0
102
RTVSPost2010PropOp52
 70
     0
102
RTVSPost2010Prop53
 90
        2
102
RTVSPost2010PropOp53
 70
     1
102
RTVSPost2010Prop54
  1
strokes_ogs.tif
102
RTVSPost2010PropOp54
 70
     1
102
RTVSPost2010Prop55
280
     0
102
RTVSPost2010PropOp55
 70
     1
102
RTVSPost2010Prop56
140
1.0
102
RTVSPost2010PropOp56
 70
     1
102
RTVSPost2010Prop57
140
1.0
102
RTVSPost2010PropOp57
 70
     1
102
RTVSPropertyOp0
 70
     1
102
RTVSPropertyOp1
 70
     1
102
RTVSPropertyOp2
 70
     1
102
RTVSPropertyOp3
 70
     1
102
RTVSPropertyOp4
 70
     1
102
RTVSPropertyOp5
 70
     1
102
RTVSPropertyOp6
 70
     1
102
RTVSPropertyOp7
 70
     1
102
RTVSPropertyOp8
 70
     1
102
RTVSPropertyOp9
 70
     1
102
RTVSPropertyOp10
 70
     1
102
RTVSPropertyOp11
 70
     1
102
RTVSPropertyOp12
 70
     1
102
RTVSPropertyOp13
 70
     1
102
RTVSPropertyOp14
 70
     1
102
RTVSPropertyOp15
 70
     1
102
RTVSPropertyOp16
 70
     1
102
RTVSPropertyOp17
 70
     1
102
RTVSPropertyOp18
 70
     1
102
RTVSPropertyOp19
 70
     1
102
RTVSPropertyOp20
 70
     1
102
RTVSPropertyOp21
 70
     1
102
RTVSPropertyOp22
 70
     1
102
RTVSPropertyOp23
 70
     1
102
RTVSPropertyOp24
 70
     1
102
RTVSPropertyOp25
 70
     1
102
RTVSPropertyOp26
 70
     1
102
RTVSPropertyOp27
 70
     1
102
RTVSPropertyOp28
 70
     1
102
RTVSPropertyOp29
 70
     1
102
RTVSPropertyOp30
 70
     1
102
RTVSPropertyOp31
 70
     1
102
RTVSPropertyOp32
 70
     1
102
RTVSPropertyOp33
 70
     1
102
RTVSPropertyOp34
 70
     1
102
RTVSPropertyOp35
 70
     1
102
RTVSPropertyOp36
 70
     1
102
RTVSPropertyOp37
 70
     1
102
RTVSPropertyOp38
 70
     1
102
RTVSPropertyOp39
 70
     1
102
RTVSPropertyOp40
 70
     1
102
RTVSPropertyOp41
 70
     1
102
RTVSPropertyOp42
 70
     1
102
RTVSPropertyOp43
 70
     1
102
RTVSPropertyOp44
 70
     1
102
RTVSPropertyOp45
 70
     1
102
RTVSPropertyOp46
 70
     1
102
RTVSPropertyOp47
 70
     1
102
RTVSPropertyOp48
 70
     1
102
RTVSPropertyOp49
 70
     1
102
RTVSPropertyOp50
 70
     1
102
RTVSPropertyOp51
 70
     0
102
RTVSPropertyOp52
 70
     0
102
RTVSPropertyOp53
 70
     1
102
RTVSPropertyOp54
 70
     1
102
RTVSPropertyOp55
 70
     1
102
RTVSPropertyOp56
 70
     1
102
RTVSPropertyOp57
 70
     1
102
RTVSPropertyOp58
 70
     1
102
RTVSPropertyOp59
 70
     1
102
RTVSPropertyOp60
 70
     1
102
RTVSPropertyOp61
 70
     1
102
RTVSPropertyOp62
 70
     1
  0
XRECORD
  5
B7E
102
{ACAD_REACTORS
330
B7D
102
}
330
B7D
100
AcDbXrecord
280
     1
102
RTVSPost2010Prop28
280
     0
102
RTVSPost2010PropOp28
 70
     1
102
RTVSPost2010Prop29
280
     1
102
RTVSPost2010PropOp29
 70
     1
102
RTVSPost2010Prop30
280
     1
102
RTVSPost2010PropOp30
 70
     1
102
RTVSPost2010Prop31
280
     0
102
RTVSPost2010PropOp31
 70
     1
102
RTVSPost2010Prop32
280
     0
102
RTVSPost2010PropOp32
 70
     1
102
RTVSPost2010Prop33
280
     0
102
RTVSPost2010PropOp33
 70
     1
102
RTVSPost2010Prop34
280
     0
102
RTVSPost2010PropOp34
 70
     1
102
RTVSPost2010Prop35
280
     0
102
RTVSPost2010PropOp35
 70
     1
102
RTVSPost2010Prop36
280
     0
102
RTVSPost2010PropOp36
 70
     1
102
RTVSPost2010Prop37
 90
       50
102
RTVSPost2010PropOp37
 70
     1
102
RTVSPost2010Prop38
140
0.0
102
RTVSPost2010PropOp38
 70
     1
102
RTVSPost2010Prop39
140
1.0
102
RTVSPost2010PropOp39
 70
     1
102
RTVSPost2010Prop40
 90
        0
102
RTVSPost2010PropOp40
 70
     1
102
RTVSPost2010Prop41ColorIndex
 90
       18
102
RTVSPost2010Prop41ColorRGB
 90
        0
102
RTVSPost2010PropOp41
 70
     1
102
RTVSPost2010Prop42
 90
       50
102
RTVSPost2010PropOp42
 70
     1
102
RTVSPost2010Prop43
 90
        3
102
RTVSPost2010PropOp43
 70
     1
102
RTVSPost2010Prop44ColorIndex
 90
        5
102
RTVSPost2010Prop44ColorRGB
 90
      255
102
RTVSPost2010PropOp44
 70
     1
102
RTVSPost2010Prop45
280
     0
102
RTVSPost2010PropOp45
 70
     1
102
RTVSPost2010Prop46
 90
       50
102
RTVSPost2010PropOp46
 70
     1
102
RTVSPost2010Prop47
 90
       50
102
RTVSPost2010PropOp47
 70
     1
102
RTVSPost2010Prop48
 90
       50
102
RTVSPost2010PropOp48
 70
     1
102
RTVSPost2010Prop49
280
     0
102
RTVSPost2010PropOp49
 70
     1
102
RTVSPost2010Prop50
 90
       50
102
RTVSPost2010PropOp50
 70
     1
102
RTVSPost2010Prop51ColorIndex
 90
      256
102
RTVSPost2010Prop51ColorRGB
 90
-16777216
102
RTVSPost2010PropOp51
 70
     0
102
RTVSPost2010Prop52
140
1.0
102
RTVSPost2010PropOp52
 70
     0
102
RTVSPost2010Prop53
 90
        2
102
RTVSPost2010PropOp53
 70
     1
102
RTVSPost2010Prop54
  1
strokes_ogs.tif
102
RTVSPost2010PropOp54
 70
     1
102
RTVSPost2010Prop55
280
     0
102
RTVSPost2010PropOp55
 70
     1
102
RTVSPost2010Prop56
140
1.0
102
RTVSPost2010PropOp56
 70
     1
102
RTVSPost2010Prop57
140
1.0
102
RTVSPost2010PropOp57
 70
     1
102
RTVSPropertyOp0
 70
     1
102
RTVSPropertyOp1
 70
     1
102
RTVSPropertyOp2
 70
     1
102
RTVSPropertyOp3
 70
     1
102
RTVSPropertyOp4
 70
     1
102
RTVSPropertyOp5
 70
     1
102
RTVSPropertyOp6
 70
     1
102
RTVSPropertyOp7
 70
     1
102
RTVSPropertyOp8
 70
     1
102
RTVSPropertyOp9
 70
     1
102
RTVSPropertyOp10
 70
     1
102
RTVSPropertyOp11
 70
     1
102
RTVSPropertyOp12
 70
     1
102
RTVSPropertyOp13
 70
     1
102
RTVSPropertyOp14
 70
     1
102
RTVSPropertyOp15
 70
     1
102
RTVSPropertyOp16
 70
     1
102
RTVSPropertyOp17
 70
     1
102
RTVSPropertyOp18
 70
     1
102
RTVSPropertyOp19
 70
     1
102
RTVSPropertyOp20
 70
     1
102
RTVSPropertyOp21
 70
     1
102
RTVSPropertyOp22
 70
     1
102
RTVSPropertyOp23
 70
     1
102
RTVSPropertyOp24
 70
     1
102
RTVSPropertyOp25
 70
     1
102
RTVSPropertyOp26
 70
     1
102
RTVSPropertyOp27
 70
     1
102
RTVSPropertyOp28
 70
     1
102
RTVSPropertyOp29
 70
     1
102
RTVSPropertyOp30
 70
     1
102
RTVSPropertyOp31
 70
     1
102
RTVSPropertyOp32
 70
     1
102
RTVSPropertyOp33
 70
     1
102
RTVSPropertyOp34
 70
     1
102
RTVSPropertyOp35
 70
     1
102
RTVSPropertyOp36
 70
     1
102
RTVSPropertyOp37
 70
     1
102
RTVSPropertyOp38
 70
     1
102
RTVSPropertyOp39
 70
     1
102
RTVSPropertyOp40
 70
     1
102
RTVSPropertyOp41
 70
     1
102
RTVSPropertyOp42
 70
     1
102
RTVSPropertyOp43
 70
     1
102
RTVSPropertyOp44
 70
     1
102
RTVSPropertyOp45
 70
     1
102
RTVSPropertyOp46
 70
     1
102
RTVSPropertyOp47
 70
     1
102
RTVSPropertyOp48
 70
     1
102
RTVSPropertyOp49
 70
     1
102
RTVSPropertyOp50
 70
     1
102
RTVSPropertyOp51
 70
     0
102
RTVSPropertyOp52
 70
     0
102
RTVSPropertyOp53
 70
     1
102
RTVSPropertyOp54
 70
     1
102
RTVSPropertyOp55
 70
     1
102
RTVSPropertyOp56
 70
     1
102
RTVSPropertyOp57
 70
     1
102
RTVSPropertyOp58
 70
     1
102
RTVSPropertyOp59
 70
     1
102
RTVSPropertyOp60
 70
     1
102
RTVSPropertyOp61
 70
     1
102
RTVSPropertyOp62
 70
     1
  0
XRECORD
  5
B80
102
{ACAD_REACTORS
330
B7F
102
}
330
B7F
100
AcDbXrecord
280
     1
102
RTVSPost2010Prop28
280
     0
102
RTVSPost2010PropOp28
 70
     1
102
RTVSPost2010Prop29
280
     1
102
RTVSPost2010PropOp29
 70
     1
102
RTVSPost2010Prop30
280
     1
102
RTVSPost2010PropOp30
 70
     1
102
RTVSPost2010Prop31
280
     0
102
RTVSPost2010PropOp31
 70
     1
102
RTVSPost2010Prop32
280
     0
102
RTVSPost2010PropOp32
 70
     1
102
RTVSPost2010Prop33
280
     0
102
RTVSPost2010PropOp33
 70
     1
102
RTVSPost2010Prop34
280
     0
102
RTVSPost2010PropOp34
 70
     1
102
RTVSPost2010Prop35
280
     0
102
RTVSPost2010PropOp35
 70
     1
102
RTVSPost2010Prop36
280
     0
102
RTVSPost2010PropOp36
 70
     1
102
RTVSPost2010Prop37
 90
       50
102
RTVSPost2010PropOp37
 70
     1
102
RTVSPost2010Prop38
140
0.0
102
RTVSPost2010PropOp38
 70
     1
102
RTVSPost2010Prop39
140
1.0
102
RTVSPost2010PropOp39
 70
     1
102
RTVSPost2010Prop40
 90
        0
102
RTVSPost2010PropOp40
 70
     1
102
RTVSPost2010Prop41ColorIndex
 90
       18
102
RTVSPost2010Prop41ColorRGB
 90
        0
102
RTVSPost2010PropOp41
 70
     1
102
RTVSPost2010Prop42
 90
       50
102
RTVSPost2010PropOp42
 70
     1
102
RTVSPost2010Prop43
 90
        3
102
RTVSPost2010PropOp43
 70
     1
102
RTVSPost2010Prop44ColorIndex
 90
        5
102
RTVSPost2010Prop44ColorRGB
 90
      255
102
RTVSPost2010PropOp44
 70
     1
102
RTVSPost2010Prop45
280
     0
102
RTVSPost2010PropOp45
 70
     1
102
RTVSPost2010Prop46
 90
       50
102
RTVSPost2010PropOp46
 70
     1
102
RTVSPost2010Prop47
 90
       50
102
RTVSPost2010PropOp47
 70
     1
102
RTVSPost2010Prop48
 90
       50
102
RTVSPost2010PropOp48
 70
     1
102
RTVSPost2010Prop49
280
     0
102
RTVSPost2010PropOp49
 70
     1
102
RTVSPost2010Prop50
 90
       50
102
RTVSPost2010PropOp50
 70
     1
102
RTVSPost2010Prop51ColorIndex
 90
      256
102
RTVSPost2010Prop51ColorRGB
 90
-16777216
102
RTVSPost2010PropOp51
 70
     0
102
RTVSPost2010Prop52
140
1.0
102
RTVSPost2010PropOp52
 70
     0
102
RTVSPost2010Prop53
 90
        2
102
RTVSPost2010PropOp53
 70
     1
102
RTVSPost2010Prop54
  1
strokes_ogs.tif
102
RTVSPost2010PropOp54
 70
     1
102
RTVSPost2010Prop55
280
     0
102
RTVSPost2010PropOp55
 70
     1
102
RTVSPost2010Prop56
140
1.0
102
RTVSPost2010PropOp56
 70
     1
102
RTVSPost2010Prop57
140
1.0
102
RTVSPost2010PropOp57
 70
     1
102
RTVSPropertyOp0
 70
     1
102
RTVSPropertyOp1
 70
     1
102
RTVSPropertyOp2
 70
     1
102
RTVSPropertyOp3
 70
     1
102
RTVSPropertyOp4
 70
     1
102
RTVSPropertyOp5
 70
     1
102
RTVSPropertyOp6
 70
     1
102
RTVSPropertyOp7
 70
     1
102
RTVSPropertyOp8
 70
     1
102
RTVSPropertyOp9
 70
     1
102
RTVSPropertyOp10
 70
     1
102
RTVSPropertyOp11
 70
     1
102
RTVSPropertyOp12
 70
     1
102
RTVSPropertyOp13
 70
     1
102
RTVSPropertyOp14
 70
     1
102
RTVSPropertyOp15
 70
     1
102
RTVSPropertyOp16
 70
     1
102
RTVSPropertyOp17
 70
     1
102
RTVSPropertyOp18
 70
     1
102
RTVSPropertyOp19
 70
     1
102
RTVSPropertyOp20
 70
     1
102
RTVSPropertyOp21
 70
     1
102
RTVSPropertyOp22
 70
     1
102
RTVSPropertyOp23
 70
     1
102
RTVSPropertyOp24
 70
     1
102
RTVSPropertyOp25
 70
     1
102
RTVSPropertyOp26
 70
     1
102
RTVSPropertyOp27
 70
     1
102
RTVSPropertyOp28
 70
     1
102
RTVSPropertyOp29
 70
     1
102
RTVSPropertyOp30
 70
     1
102
RTVSPropertyOp31
 70
     1
102
RTVSPropertyOp32
 70
     1
102
RTVSPropertyOp33
 70
     1
102
RTVSPropertyOp34
 70
     1
102
RTVSPropertyOp35
 70
     1
102
RTVSPropertyOp36
 70
     1
102
RTVSPropertyOp37
 70
     1
102
RTVSPropertyOp38
 70
     1
102
RTVSPropertyOp39
 70
     1
102
RTVSPropertyOp40
 70
     1
102
RTVSPropertyOp41
 70
     1
102
RTVSPropertyOp42
 70
     1
102
RTVSPropertyOp43
 70
     1
102
RTVSPropertyOp44
 70
     1
102
RTVSPropertyOp45
 70
     1
102
RTVSPropertyOp46
 70
     1
102
RTVSPropertyOp47
 70
     1
102
RTVSPropertyOp48
 70
     1
102
RTVSPropertyOp49
 70
     1
102
RTVSPropertyOp50
 70
     1
102
RTVSPropertyOp51
 70
     0
102
RTVSPropertyOp52
 70
     0
102
RTVSPropertyOp53
 70
     1
102
RTVSPropertyOp54
 70
     1
102
RTVSPropertyOp55
 70
     1
102
RTVSPropertyOp56
 70
     1
102
RTVSPropertyOp57
 70
     1
102
RTVSPropertyOp58
 70
     1
102
RTVSPropertyOp59
 70
     1
102
RTVSPropertyOp60
 70
     1
102
RTVSPropertyOp61
 70
     1
102
RTVSPropertyOp62
 70
     1
  0
XRECORD
  5
B82
102
{ACAD_REACTORS
330
B81
102
}
330
B81
100
AcDbXrecord
280
     1
102
RTVSPost2010Prop28
280
     0
102
RTVSPost2010PropOp28
 70
     1
102
RTVSPost2010Prop29
280
     1
102
RTVSPost2010PropOp29
 70
     1
102
RTVSPost2010Prop30
280
     1
102
RTVSPost2010PropOp30
 70
     1
102
RTVSPost2010Prop31
280
     0
102
RTVSPost2010PropOp31
 70
     1
102
RTVSPost2010Prop32
280
     0
102
RTVSPost2010PropOp32
 70
     1
102
RTVSPost2010Prop33
280
     0
102
RTVSPost2010PropOp33
 70
     1
102
RTVSPost2010Prop34
280
     0
102
RTVSPost2010PropOp34
 70
     1
102
RTVSPost2010Prop35
280
     0
102
RTVSPost2010PropOp35
 70
     1
102
RTVSPost2010Prop36
280
     0
102
RTVSPost2010PropOp36
 70
     1
102
RTVSPost2010Prop37
 90
       50
102
RTVSPost2010PropOp37
 70
     1
102
RTVSPost2010Prop38
140
0.0
102
RTVSPost2010PropOp38
 70
     1
102
RTVSPost2010Prop39
140
1.0
102
RTVSPost2010PropOp39
 70
     1
102
RTVSPost2010Prop40
 90
        0
102
RTVSPost2010PropOp40
 70
     1
102
RTVSPost2010Prop41ColorIndex
 90
       18
102
RTVSPost2010Prop41ColorRGB
 90
        0
102
RTVSPost2010PropOp41
 70
     1
102
RTVSPost2010Prop42
 90
       50
102
RTVSPost2010PropOp42
 70
     1
102
RTVSPost2010Prop43
 90
        3
102
RTVSPost2010PropOp43
 70
     1
102
RTVSPost2010Prop44ColorIndex
 90
        5
102
RTVSPost2010Prop44ColorRGB
 90
      255
102
RTVSPost2010PropOp44
 70
     1
102
RTVSPost2010Prop45
280
     0
102
RTVSPost2010PropOp45
 70
     1
102
RTVSPost2010Prop46
 90
       50
102
RTVSPost2010PropOp46
 70
     1
102
RTVSPost2010Prop47
 90
       50
102
RTVSPost2010PropOp47
 70
     1
102
RTVSPost2010Prop48
 90
       50
102
RTVSPost2010PropOp48
 70
     1
102
RTVSPost2010Prop49
280
     0
102
RTVSPost2010PropOp49
 70
     1
102
RTVSPost2010Prop50
 90
       50
102
RTVSPost2010PropOp50
 70
     1
102
RTVSPost2010Prop51ColorIndex
 90
      256
102
RTVSPost2010Prop51ColorRGB
 90
-16777216
102
RTVSPost2010PropOp51
 70
     0
102
RTVSPost2010Prop52
140
1.0
102
RTVSPost2010PropOp52
 70
     0
102
RTVSPost2010Prop53
 90
        2
102
RTVSPost2010PropOp53
 70
     1
102
RTVSPost2010Prop54
  1
strokes_ogs.tif
102
RTVSPost2010PropOp54
 70
     1
102
RTVSPost2010Prop55
280
     0
102
RTVSPost2010PropOp55
 70
     1
102
RTVSPost2010Prop56
140
1.0
102
RTVSPost2010PropOp56
 70
     1
102
RTVSPost2010Prop57
140
1.0
102
RTVSPost2010PropOp57
 70
     1
102
RTVSPropertyOp0
 70
     1
102
RTVSPropertyOp1
 70
     1
102
RTVSPropertyOp2
 70
     1
102
RTVSPropertyOp3
 70
     1
102
RTVSPropertyOp4
 70
     1
102
RTVSPropertyOp5
 70
     1
102
RTVSPropertyOp6
 70
     1
102
RTVSPropertyOp7
 70
     1
102
RTVSPropertyOp8
 70
     1
102
RTVSPropertyOp9
 70
     1
102
RTVSPropertyOp10
 70
     1
102
RTVSPropertyOp11
 70
     1
102
RTVSPropertyOp12
 70
     1
102
RTVSPropertyOp13
 70
     1
102
RTVSPropertyOp14
 70
     1
102
RTVSPropertyOp15
 70
     1
102
RTVSPropertyOp16
 70
     1
102
RTVSPropertyOp17
 70
     1
102
RTVSPropertyOp18
 70
     1
102
RTVSPropertyOp19
 70
     1
102
RTVSPropertyOp20
 70
     1
102
RTVSPropertyOp21
 70
     1
102
RTVSPropertyOp22
 70
     1
102
RTVSPropertyOp23
 70
     1
102
RTVSPropertyOp24
 70
     1
102
RTVSPropertyOp25
 70
     1
102
RTVSPropertyOp26
 70
     1
102
RTVSPropertyOp27
 70
     1
102
RTVSPropertyOp28
 70
     1
102
RTVSPropertyOp29
 70
     1
102
RTVSPropertyOp30
 70
     1
102
RTVSPropertyOp31
 70
     1
102
RTVSPropertyOp32
 70
     1
102
RTVSPropertyOp33
 70
     1
102
RTVSPropertyOp34
 70
     1
102
RTVSPropertyOp35
 70
     1
102
RTVSPropertyOp36
 70
     1
102
RTVSPropertyOp37
 70
     1
102
RTVSPropertyOp38
 70
     1
102
RTVSPropertyOp39
 70
     1
102
RTVSPropertyOp40
 70
     1
102
RTVSPropertyOp41
 70
     1
102
RTVSPropertyOp42
 70
     1
102
RTVSPropertyOp43
 70
     1
102
RTVSPropertyOp44
 70
     1
102
RTVSPropertyOp45
 70
     1
102
RTVSPropertyOp46
 70
     1
102
RTVSPropertyOp47
 70
     1
102
RTVSPropertyOp48
 70
     1
102
RTVSPropertyOp49
 70
     1
102
RTVSPropertyOp50
 70
     1
102
RTVSPropertyOp51
 70
     0
102
RTVSPropertyOp52
 70
     0
102
RTVSPropertyOp53
 70
     1
102
RTVSPropertyOp54
 70
     1
102
RTVSPropertyOp55
 70
     1
102
RTVSPropertyOp56
 70
     1
102
RTVSPropertyOp57
 70
     1
102
RTVSPropertyOp58
 70
     1
102
RTVSPropertyOp59
 70
     1
102
RTVSPropertyOp60
 70
     1
102
RTVSPropertyOp61
 70
     1
102
RTVSPropertyOp62
 70
     1
  0
XRECORD
  5
BA4
102
{ACAD_REACTORS
330
BA3
102
}
330
BA3
100
AcDbXrecord
280
     1
102
RTVSPost2010Prop28
280
     0
102
RTVSPost2010PropOp28
 70
     1
102
RTVSPost2010Prop29
280
     1
102
RTVSPost2010PropOp29
 70
     1
102
RTVSPost2010Prop30
280
     1
102
RTVSPost2010PropOp30
 70
     1
102
RTVSPost2010Prop31
280
     0
102
RTVSPost2010PropOp31
 70
     1
102
RTVSPost2010Prop32
280
     0
102
RTVSPost2010PropOp32
 70
     1
102
RTVSPost2010Prop33
280
     0
102
RTVSPost2010PropOp33
 70
     1
102
RTVSPost2010Prop34
280
     0
102
RTVSPost2010PropOp34
 70
     1
102
RTVSPost2010Prop35
280
     0
102
RTVSPost2010PropOp35
 70
     1
102
RTVSPost2010Prop36
280
     0
102
RTVSPost2010PropOp36
 70
     1
102
RTVSPost2010Prop37
 90
       50
102
RTVSPost2010PropOp37
 70
     1
102
RTVSPost2010Prop38
140
0.0
102
RTVSPost2010PropOp38
 70
     1
102
RTVSPost2010Prop39
140
1.0
102
RTVSPost2010PropOp39
 70
     1
102
RTVSPost2010Prop40
 90
        0
102
RTVSPost2010PropOp40
 70
     1
102
RTVSPost2010Prop41ColorIndex
 90
       18
102
RTVSPost2010Prop41ColorRGB
 90
        0
102
RTVSPost2010PropOp41
 70
     1
102
RTVSPost2010Prop42
 90
       50
102
RTVSPost2010PropOp42
 70
     1
102
RTVSPost2010Prop43
 90
        3
102
RTVSPost2010PropOp43
 70
     1
102
RTVSPost2010Prop44ColorIndex
 90
        5
102
RTVSPost2010Prop44ColorRGB
 90
      255
102
RTVSPost2010PropOp44
 70
     1
102
RTVSPost2010Prop45
280
     0
102
RTVSPost2010PropOp45
 70
     1
102
RTVSPost2010Prop46
 90
       50
102
RTVSPost2010PropOp46
 70
     1
102
RTVSPost2010Prop47
 90
       50
102
RTVSPost2010PropOp47
 70
     1
102
RTVSPost2010Prop48
 90
       50
102
RTVSPost2010PropOp48
 70
     1
102
RTVSPost2010Prop49
280
     0
102
RTVSPost2010PropOp49
 70
     1
102
RTVSPost2010Prop50
 90
       50
102
RTVSPost2010PropOp50
 70
     1
102
RTVSPost2010Prop51ColorIndex
 90
      256
102
RTVSPost2010Prop51ColorRGB
 90
-16777216
102
RTVSPost2010PropOp51
 70
     0
102
RTVSPost2010Prop52
140
1.0
102
RTVSPost2010PropOp52
 70
     0
102
RTVSPost2010Prop53
 90
        2
102
RTVSPost2010PropOp53
 70
     1
102
RTVSPost2010Prop54
  1
strokes_ogs.tif
102
RTVSPost2010PropOp54
 70
     1
102
RTVSPost2010Prop55
280
     0
102
RTVSPost2010PropOp55
 70
     1
102
RTVSPost2010Prop56
140
1.0
102
RTVSPost2010PropOp56
 70
     1
102
RTVSPost2010Prop57
140
1.0
102
RTVSPost2010PropOp57
 70
     1
102
RTVSPropertyOp0
 70
     1
102
RTVSPropertyOp1
 70
     1
102
RTVSPropertyOp2
 70
     1
102
RTVSPropertyOp3
 70
     1
102
RTVSPropertyOp4
 70
     1
102
RTVSPropertyOp5
 70
     1
102
RTVSPropertyOp6
 70
     1
102
RTVSPropertyOp7
 70
     1
102
RTVSPropertyOp8
 70
     1
102
RTVSPropertyOp9
 70
     1
102
RTVSPropertyOp10
 70
     1
102
RTVSPropertyOp11
 70
     1
102
RTVSPropertyOp12
 70
     1
102
RTVSPropertyOp13
 70
     1
102
RTVSPropertyOp14
 70
     1
102
RTVSPropertyOp15
 70
     1
102
RTVSPropertyOp16
 70
     1
102
RTVSPropertyOp17
 70
     1
102
RTVSPropertyOp18
 70
     1
102
RTVSPropertyOp19
 70
     1
102
RTVSPropertyOp20
 70
     1
102
RTVSPropertyOp21
 70
     1
102
RTVSPropertyOp22
 70
     1
102
RTVSPropertyOp23
 70
     1
102
RTVSPropertyOp24
 70
     1
102
RTVSPropertyOp25
 70
     1
102
RTVSPropertyOp26
 70
     1
102
RTVSPropertyOp27
 70
     1
102
RTVSPropertyOp28
 70
     1
102
RTVSPropertyOp29
 70
     1
102
RTVSPropertyOp30
 70
     1
102
RTVSPropertyOp31
 70
     1
102
RTVSPropertyOp32
 70
     1
102
RTVSPropertyOp33
 70
     1
102
RTVSPropertyOp34
 70
     1
102
RTVSPropertyOp35
 70
     1
102
RTVSPropertyOp36
 70
     1
102
RTVSPropertyOp37
 70
     1
102
RTVSPropertyOp38
 70
     1
102
RTVSPropertyOp39
 70
     1
102
RTVSPropertyOp40
 70
     1
102
RTVSPropertyOp41
 70
     1
102
RTVSPropertyOp42
 70
     1
102
RTVSPropertyOp43
 70
     1
102
RTVSPropertyOp44
 70
     1
102
RTVSPropertyOp45
 70
     1
102
RTVSPropertyOp46
 70
     1
102
RTVSPropertyOp47
 70
     1
102
RTVSPropertyOp48
 70
     1
102
RTVSPropertyOp49
 70
     1
102
RTVSPropertyOp50
 70
     1
102
RTVSPropertyOp51
 70
     0
102
RTVSPropertyOp52
 70
     0
102
RTVSPropertyOp53
 70
     1
102
RTVSPropertyOp54
 70
     1
102
RTVSPropertyOp55
 70
     1
102
RTVSPropertyOp56
 70
     1
102
RTVSPropertyOp57
 70
     1
102
RTVSPropertyOp58
 70
     1
102
RTVSPropertyOp59
 70
     1
102
RTVSPropertyOp60
 70
     1
102
RTVSPropertyOp61
 70
     1
102
RTVSPropertyOp62
 70
     1
  0
XRECORD
  5
B9C
102
{ACAD_REACTORS
330
B9B
102
}
330
B9B
100
AcDbXrecord
280
     1
102
RTVSPost2010Prop28
280
     0
102
RTVSPost2010PropOp28
 70
     1
102
RTVSPost2010Prop29
280
     1
102
RTVSPost2010PropOp29
 70
     1
102
RTVSPost2010Prop30
280
     1
102
RTVSPost2010PropOp30
 70
     1
102
RTVSPost2010Prop31
280
     0
102
RTVSPost2010PropOp31
 70
     1
102
RTVSPost2010Prop32
280
     0
102
RTVSPost2010PropOp32
 70
     1
102
RTVSPost2010Prop33
280
     0
102
RTVSPost2010PropOp33
 70
     1
102
RTVSPost2010Prop34
280
     0
102
RTVSPost2010PropOp34
 70
     1
102
RTVSPost2010Prop35
280
     0
102
RTVSPost2010PropOp35
 70
     1
102
RTVSPost2010Prop36
280
     0
102
RTVSPost2010PropOp36
 70
     1
102
RTVSPost2010Prop37
 90
       50
102
RTVSPost2010PropOp37
 70
     1
102
RTVSPost2010Prop38
140
0.0
102
RTVSPost2010PropOp38
 70
     1
102
RTVSPost2010Prop39
140
1.0
102
RTVSPost2010PropOp39
 70
     1
102
RTVSPost2010Prop40
 90
        0
102
RTVSPost2010PropOp40
 70
     1
102
RTVSPost2010Prop41ColorIndex
 90
       18
102
RTVSPost2010Prop41ColorRGB
 90
        0
102
RTVSPost2010PropOp41
 70
     1
102
RTVSPost2010Prop42
 90
       50
102
RTVSPost2010PropOp42
 70
     1
102
RTVSPost2010Prop43
 90
        3
102
RTVSPost2010PropOp43
 70
     1
102
RTVSPost2010Prop44ColorIndex
 90
        5
102
RTVSPost2010Prop44ColorRGB
 90
      255
102
RTVSPost2010PropOp44
 70
     1
102
RTVSPost2010Prop45
280
     0
102
RTVSPost2010PropOp45
 70
     1
102
RTVSPost2010Prop46
 90
       50
102
RTVSPost2010PropOp46
 70
     1
102
RTVSPost2010Prop47
 90
       50
102
RTVSPost2010PropOp47
 70
     1
102
RTVSPost2010Prop48
 90
       50
102
RTVSPost2010PropOp48
 70
     1
102
RTVSPost2010Prop49
280
     0
102
RTVSPost2010PropOp49
 70
     1
102
RTVSPost2010Prop50
 90
       50
102
RTVSPost2010PropOp50
 70
     1
102
RTVSPost2010Prop51ColorIndex
 90
      256
102
RTVSPost2010Prop51ColorRGB
 90
-16777216
102
RTVSPost2010PropOp51
 70
     0
102
RTVSPost2010Prop52
140
1.0
102
RTVSPost2010PropOp52
 70
     0
102
RTVSPost2010Prop53
 90
        2
102
RTVSPost2010PropOp53
 70
     1
102
RTVSPost2010Prop54
  1
strokes_ogs.tif
102
RTVSPost2010PropOp54
 70
     1
102
RTVSPost2010Prop55
280
     0
102
RTVSPost2010PropOp55
 70
     1
102
RTVSPost2010Prop56
140
1.0
102
RTVSPost2010PropOp56
 70
     1
102
RTVSPost2010Prop57
140
1.0
102
RTVSPost2010PropOp57
 70
     1
102
RTVSPropertyOp0
 70
     0
102
RTVSPropertyOp1
 70
     0
102
RTVSPropertyOp2
 70
     0
102
RTVSPropertyOp3
 70
     0
102
RTVSPropertyOp4
 70
     0
102
RTVSPropertyOp5
 70
     0
102
RTVSPropertyOp6
 70
     0
102
RTVSPropertyOp7
 70
     0
102
RTVSPropertyOp8
 70
     0
102
RTVSPropertyOp9
 70
     0
102
RTVSPropertyOp10
 70
     0
102
RTVSPropertyOp11
 70
     0
102
RTVSPropertyOp12
 70
     0
102
RTVSPropertyOp13
 70
     0
102
RTVSPropertyOp14
 70
     2
102
RTVSPropertyOp15
 70
     0
102
RTVSPropertyOp16
 70
     0
102
RTVSPropertyOp17
 70
     0
102
RTVSPropertyOp18
 70
     0
102
RTVSPropertyOp19
 70
     0
102
RTVSPropertyOp20
 70
     0
102
RTVSPropertyOp21
 70
     0
102
RTVSPropertyOp22
 70
     0
102
RTVSPropertyOp23
 70
     0
102
RTVSPropertyOp24
 70
     0
102
RTVSPropertyOp25
 70
     0
102
RTVSPropertyOp26
 70
     0
102
RTVSPropertyOp27
 70
     0
102
RTVSPropertyOp28
 70
     1
102
RTVSPropertyOp29
 70
     1
102
RTVSPropertyOp30
 70
     1
102
RTVSPropertyOp31
 70
     1
102
RTVSPropertyOp32
 70
     1
102
RTVSPropertyOp33
 70
     1
102
RTVSPropertyOp34
 70
     1
102
RTVSPropertyOp35
 70
     1
102
RTVSPropertyOp36
 70
     1
102
RTVSPropertyOp37
 70
     1
102
RTVSPropertyOp38
 70
     1
102
RTVSPropertyOp39
 70
     1
102
RTVSPropertyOp40
 70
     1
102
RTVSPropertyOp41
 70
     1
102
RTVSPropertyOp42
 70
     1
102
RTVSPropertyOp43
 70
     1
102
RTVSPropertyOp44
 70
     1
102
RTVSPropertyOp45
 70
     1
102
RTVSPropertyOp46
 70
     1
102
RTVSPropertyOp47
 70
     1
102
RTVSPropertyOp48
 70
     1
102
RTVSPropertyOp49
 70
     1
102
RTVSPropertyOp50
 70
     1
102
RTVSPropertyOp51
 70
     0
102
RTVSPropertyOp52
 70
     0
102
RTVSPropertyOp53
 70
     1
102
RTVSPropertyOp54
 70
     1
102
RTVSPropertyOp55
 70
     1
102
RTVSPropertyOp56
 70
     1
102
RTVSPropertyOp57
 70
     1
102
RTVSPropertyOp58
 70
     1
102
RTVSPropertyOp59
 70
     1
102
RTVSPropertyOp60
 70
     1
102
RTVSPropertyOp61
 70
     1
102
RTVSPropertyOp62
 70
     1
  0
XRECORD
  5
B96
102
{ACAD_REACTORS
330
B95
102
}
330
B95
100
AcDbXrecord
280
     1
102
RTVSPost2010Prop28
280
     0
102
RTVSPost2010PropOp28
 70
     1
102
RTVSPost2010Prop29
280
     1
102
RTVSPost2010PropOp29
 70
     1
102
RTVSPost2010Prop30
280
     1
102
RTVSPost2010PropOp30
 70
     1
102
RTVSPost2010Prop31
280
     0
102
RTVSPost2010PropOp31
 70
     1
102
RTVSPost2010Prop32
280
     0
102
RTVSPost2010PropOp32
 70
     1
102
RTVSPost2010Prop33
280
     0
102
RTVSPost2010PropOp33
 70
     1
102
RTVSPost2010Prop34
280
     0
102
RTVSPost2010PropOp34
 70
     1
102
RTVSPost2010Prop35
280
     0
102
RTVSPost2010PropOp35
 70
     1
102
RTVSPost2010Prop36
280
     0
102
RTVSPost2010PropOp36
 70
     1
102
RTVSPost2010Prop37
 90
       50
102
RTVSPost2010PropOp37
 70
     1
102
RTVSPost2010Prop38
140
0.0
102
RTVSPost2010PropOp38
 70
     1
102
RTVSPost2010Prop39
140
1.0
102
RTVSPost2010PropOp39
 70
     1
102
RTVSPost2010Prop40
 90
        0
102
RTVSPost2010PropOp40
 70
     1
102
RTVSPost2010Prop41ColorIndex
 90
       18
102
RTVSPost2010Prop41ColorRGB
 90
        0
102
RTVSPost2010PropOp41
 70
     1
102
RTVSPost2010Prop42
 90
       50
102
RTVSPost2010PropOp42
 70
     1
102
RTVSPost2010Prop43
 90
        3
102
RTVSPost2010PropOp43
 70
     1
102
RTVSPost2010Prop44ColorIndex
 90
        5
102
RTVSPost2010Prop44ColorRGB
 90
      255
102
RTVSPost2010PropOp44
 70
     1
102
RTVSPost2010Prop45
280
     0
102
RTVSPost2010PropOp45
 70
     1
102
RTVSPost2010Prop46
 90
       50
102
RTVSPost2010PropOp46
 70
     1
102
RTVSPost2010Prop47
 90
       50
102
RTVSPost2010PropOp47
 70
     1
102
RTVSPost2010Prop48
 90
       50
102
RTVSPost2010PropOp48
 70
     1
102
RTVSPost2010Prop49
280
     0
102
RTVSPost2010PropOp49
 70
     1
102
RTVSPost2010Prop50
 90
       50
102
RTVSPost2010PropOp50
 70
     1
102
RTVSPost2010Prop51ColorIndex
 90
      256
102
RTVSPost2010Prop51ColorRGB
 90
-16777216
102
RTVSPost2010PropOp51
 70
     0
102
RTVSPost2010Prop52
140
1.0
102
RTVSPost2010PropOp52
 70
     0
102
RTVSPost2010Prop53
 90
        2
102
RTVSPost2010PropOp53
 70
     1
102
RTVSPost2010Prop54
  1
strokes_ogs.tif
102
RTVSPost2010PropOp54
 70
     1
102
RTVSPost2010Prop55
280
     0
102
RTVSPost2010PropOp55
 70
     1
102
RTVSPost2010Prop56
140
1.0
102
RTVSPost2010PropOp56
 70
     1
102
RTVSPost2010Prop57
140
1.0
102
RTVSPost2010PropOp57
 70
     1
102
RTVSPropertyOp0
 70
     1
102
RTVSPropertyOp1
 70
     1
102
RTVSPropertyOp2
 70
     1
102
RTVSPropertyOp3
 70
     1
102
RTVSPropertyOp4
 70
     1
102
RTVSPropertyOp5
 70
     1
102
RTVSPropertyOp6
 70
     1
102
RTVSPropertyOp7
 70
     1
102
RTVSPropertyOp8
 70
     1
102
RTVSPropertyOp9
 70
     1
102
RTVSPropertyOp10
 70
     1
102
RTVSPropertyOp11
 70
     1
102
RTVSPropertyOp12
 70
     1
102
RTVSPropertyOp13
 70
     1
102
RTVSPropertyOp14
 70
     1
102
RTVSPropertyOp15
 70
     1
102
RTVSPropertyOp16
 70
     1
102
RTVSPropertyOp17
 70
     1
102
RTVSPropertyOp18
 70
     1
102
RTVSPropertyOp19
 70
     1
102
RTVSPropertyOp20
 70
     1
102
RTVSPropertyOp21
 70
     1
102
RTVSPropertyOp22
 70
     1
102
RTVSPropertyOp23
 70
     1
102
RTVSPropertyOp24
 70
     1
102
RTVSPropertyOp25
 70
     1
102
RTVSPropertyOp26
 70
     1
102
RTVSPropertyOp27
 70
     1
102
RTVSPropertyOp28
 70
     1
102
RTVSPropertyOp29
 70
     1
102
RTVSPropertyOp30
 70
     1
102
RTVSPropertyOp31
 70
     1
102
RTVSPropertyOp32
 70
     1
102
RTVSPropertyOp33
 70
     1
102
RTVSPropertyOp34
 70
     1
102
RTVSPropertyOp35
 70
     1
102
RTVSPropertyOp36
 70
     1
102
RTVSPropertyOp37
 70
     1
102
RTVSPropertyOp38
 70
     1
102
RTVSPropertyOp39
 70
     1
102
RTVSPropertyOp40
 70
     1
102
RTVSPropertyOp41
 70
     1
102
RTVSPropertyOp42
 70
     1
102
RTVSPropertyOp43
 70
     1
102
RTVSPropertyOp44
 70
     1
102
RTVSPropertyOp45
 70
     1
102
RTVSPropertyOp46
 70
     1
102
RTVSPropertyOp47
 70
     1
102
RTVSPropertyOp48
 70
     1
102
RTVSPropertyOp49
 70
     1
102
RTVSPropertyOp50
 70
     1
102
RTVSPropertyOp51
 70
     0
102
RTVSPropertyOp52
 70
     0
102
RTVSPropertyOp53
 70
     1
102
RTVSPropertyOp54
 70
     1
102
RTVSPropertyOp55
 70
     1
102
RTVSPropertyOp56
 70
     1
102
RTVSPropertyOp57
 70
     1
102
RTVSPropertyOp58
 70
     1
102
RTVSPropertyOp59
 70
     1
102
RTVSPropertyOp60
 70
     1
102
RTVSPropertyOp61
 70
     1
102
RTVSPropertyOp62
 70
     1
  0
XRECORD
  5
B9E
102
{ACAD_REACTORS
330
B9D
102
}
330
B9D
100
AcDbXrecord
280
     1
102
RTVSPost2010Prop28
280
     0
102
RTVSPost2010PropOp28
 70
     1
102
RTVSPost2010Prop29
280
     1
102
RTVSPost2010PropOp29
 70
     1
102
RTVSPost2010Prop30
280
     1
102
RTVSPost2010PropOp30
 70
     1
102
RTVSPost2010Prop31
280
     0
102
RTVSPost2010PropOp31
 70
     1
102
RTVSPost2010Prop32
280
     0
102
RTVSPost2010PropOp32
 70
     1
102
RTVSPost2010Prop33
280
     0
102
RTVSPost2010PropOp33
 70
     1
102
RTVSPost2010Prop34
280
     0
102
RTVSPost2010PropOp34
 70
     1
102
RTVSPost2010Prop35
280
     0
102
RTVSPost2010PropOp35
 70
     1
102
RTVSPost2010Prop36
280
     0
102
RTVSPost2010PropOp36
 70
     1
102
RTVSPost2010Prop37
 90
       50
102
RTVSPost2010PropOp37
 70
     1
102
RTVSPost2010Prop38
140
0.0
102
RTVSPost2010PropOp38
 70
     1
102
RTVSPost2010Prop39
140
1.0
102
RTVSPost2010PropOp39
 70
     1
102
RTVSPost2010Prop40
 90
        0
102
RTVSPost2010PropOp40
 70
     1
102
RTVSPost2010Prop41ColorIndex
 90
       18
102
RTVSPost2010Prop41ColorRGB
 90
        0
102
RTVSPost2010PropOp41
 70
     1
102
RTVSPost2010Prop42
 90
       50
102
RTVSPost2010PropOp42
 70
     1
102
RTVSPost2010Prop43
 90
        3
102
RTVSPost2010PropOp43
 70
     1
102
RTVSPost2010Prop44ColorIndex
 90
        5
102
RTVSPost2010Prop44ColorRGB
 90
      255
102
RTVSPost2010PropOp44
 70
     1
102
RTVSPost2010Prop45
280
     0
102
RTVSPost2010PropOp45
 70
     1
102
RTVSPost2010Prop46
 90
       50
102
RTVSPost2010PropOp46
 70
     1
102
RTVSPost2010Prop47
 90
       50
102
RTVSPost2010PropOp47
 70
     1
102
RTVSPost2010Prop48
 90
       50
102
RTVSPost2010PropOp48
 70
     1
102
RTVSPost2010Prop49
280
     0
102
RTVSPost2010PropOp49
 70
     1
102
RTVSPost2010Prop50
 90
       50
102
RTVSPost2010PropOp50
 70
     1
102
RTVSPost2010Prop51ColorIndex
 90
      256
102
RTVSPost2010Prop51ColorRGB
 90
-16777216
102
RTVSPost2010PropOp51
 70
     0
102
RTVSPost2010Prop52
140
1.0
102
RTVSPost2010PropOp52
 70
     0
102
RTVSPost2010Prop53
 90
        2
102
RTVSPost2010PropOp53
 70
     1
102
RTVSPost2010Prop54
  1
strokes_ogs.tif
102
RTVSPost2010PropOp54
 70
     1
102
RTVSPost2010Prop55
280
     0
102
RTVSPost2010PropOp55
 70
     1
102
RTVSPost2010Prop56
140
1.0
102
RTVSPost2010PropOp56
 70
     1
102
RTVSPost2010Prop57
140
1.0
102
RTVSPost2010PropOp57
 70
     1
102
RTVSPropertyOp0
 70
     0
102
RTVSPropertyOp1
 70
     0
102
RTVSPropertyOp2
 70
     0
102
RTVSPropertyOp3
 70
     0
102
RTVSPropertyOp4
 70
     0
102
RTVSPropertyOp5
 70
     0
102
RTVSPropertyOp6
 70
     0
102
RTVSPropertyOp7
 70
     0
102
RTVSPropertyOp8
 70
     0
102
RTVSPropertyOp9
 70
     0
102
RTVSPropertyOp10
 70
     0
102
RTVSPropertyOp11
 70
     0
102
RTVSPropertyOp12
 70
     0
102
RTVSPropertyOp13
 70
     0
102
RTVSPropertyOp14
 70
     2
102
RTVSPropertyOp15
 70
     0
102
RTVSPropertyOp16
 70
     0
102
RTVSPropertyOp17
 70
     0
102
RTVSPropertyOp18
 70
     0
102
RTVSPropertyOp19
 70
     0
102
RTVSPropertyOp20
 70
     0
102
RTVSPropertyOp21
 70
     0
102
RTVSPropertyOp22
 70
     0
102
RTVSPropertyOp23
 70
     0
102
RTVSPropertyOp24
 70
     0
102
RTVSPropertyOp25
 70
     0
102
RTVSPropertyOp26
 70
     0
102
RTVSPropertyOp27
 70
     0
102
RTVSPropertyOp28
 70
     1
102
RTVSPropertyOp29
 70
     1
102
RTVSPropertyOp30
 70
     1
102
RTVSPropertyOp31
 70
     1
102
RTVSPropertyOp32
 70
     1
102
RTVSPropertyOp33
 70
     1
102
RTVSPropertyOp34
 70
     1
102
RTVSPropertyOp35
 70
     1
102
RTVSPropertyOp36
 70
     1
102
RTVSPropertyOp37
 70
     1
102
RTVSPropertyOp38
 70
     1
102
RTVSPropertyOp39
 70
     1
102
RTVSPropertyOp40
 70
     1
102
RTVSPropertyOp41
 70
     1
102
RTVSPropertyOp42
 70
     1
102
RTVSPropertyOp43
 70
     1
102
RTVSPropertyOp44
 70
     1
102
RTVSPropertyOp45
 70
     1
102
RTVSPropertyOp46
 70
     1
102
RTVSPropertyOp47
 70
     1
102
RTVSPropertyOp48
 70
     1
102
RTVSPropertyOp49
 70
     1
102
RTVSPropertyOp50
 70
     1
102
RTVSPropertyOp51
 70
     0
102
RTVSPropertyOp52
 70
     0
102
RTVSPropertyOp53
 70
     1
102
RTVSPropertyOp54
 70
     1
102
RTVSPropertyOp55
 70
     1
102
RTVSPropertyOp56
 70
     1
102
RTVSPropertyOp57
 70
     1
102
RTVSPropertyOp58
 70
     1
102
RTVSPropertyOp59
 70
     1
102
RTVSPropertyOp60
 70
     1
102
RTVSPropertyOp61
 70
     1
102
RTVSPropertyOp62
 70
     1
  0
XRECORD
  5
B8C
102
{ACAD_REACTORS
330
B8B
102
}
330
B8B
100
AcDbXrecord
280
     1
102
RTVSPost2010Prop28
280
     0
102
RTVSPost2010PropOp28
 70
     1
102
RTVSPost2010Prop29
280
     1
102
RTVSPost2010PropOp29
 70
     1
102
RTVSPost2010Prop30
280
     1
102
RTVSPost2010PropOp30
 70
     1
102
RTVSPost2010Prop31
280
     0
102
RTVSPost2010PropOp31
 70
     1
102
RTVSPost2010Prop32
280
     0
102
RTVSPost2010PropOp32
 70
     1
102
RTVSPost2010Prop33
280
     0
102
RTVSPost2010PropOp33
 70
     1
102
RTVSPost2010Prop34
280
     0
102
RTVSPost2010PropOp34
 70
     1
102
RTVSPost2010Prop35
280
     0
102
RTVSPost2010PropOp35
 70
     1
102
RTVSPost2010Prop36
280
     0
102
RTVSPost2010PropOp36
 70
     1
102
RTVSPost2010Prop37
 90
       50
102
RTVSPost2010PropOp37
 70
     1
102
RTVSPost2010Prop38
140
0.0
102
RTVSPost2010PropOp38
 70
     1
102
RTVSPost2010Prop39
140
1.0
102
RTVSPost2010PropOp39
 70
     1
102
RTVSPost2010Prop40
 90
        0
102
RTVSPost2010PropOp40
 70
     1
102
RTVSPost2010Prop41ColorIndex
 90
       18
102
RTVSPost2010Prop41ColorRGB
 90
        0
102
RTVSPost2010PropOp41
 70
     1
102
RTVSPost2010Prop42
 90
       50
102
RTVSPost2010PropOp42
 70
     1
102
RTVSPost2010Prop43
 90
        3
102
RTVSPost2010PropOp43
 70
     1
102
RTVSPost2010Prop44ColorIndex
 90
        5
102
RTVSPost2010Prop44ColorRGB
 90
      255
102
RTVSPost2010PropOp44
 70
     1
102
RTVSPost2010Prop45
280
     0
102
RTVSPost2010PropOp45
 70
     1
102
RTVSPost2010Prop46
 90
       50
102
RTVSPost2010PropOp46
 70
     1
102
RTVSPost2010Prop47
 90
       50
102
RTVSPost2010PropOp47
 70
     1
102
RTVSPost2010Prop48
 90
       50
102
RTVSPost2010PropOp48
 70
     1
102
RTVSPost2010Prop49
280
     0
102
RTVSPost2010PropOp49
 70
     1
102
RTVSPost2010Prop50
 90
       50
102
RTVSPost2010PropOp50
 70
     1
102
RTVSPost2010Prop51ColorIndex
 90
      256
102
RTVSPost2010Prop51ColorRGB
 90
-16777216
102
RTVSPost2010PropOp51
 70
     0
102
RTVSPost2010Prop52
140
1.0
102
RTVSPost2010PropOp52
 70
     0
102
RTVSPost2010Prop53
 90
        2
102
RTVSPost2010PropOp53
 70
     1
102
RTVSPost2010Prop54
  1
strokes_ogs.tif
102
RTVSPost2010PropOp54
 70
     1
102
RTVSPost2010Prop55
280
     0
102
RTVSPost2010PropOp55
 70
     1
102
RTVSPost2010Prop56
140
1.0
102
RTVSPost2010PropOp56
 70
     1
102
RTVSPost2010Prop57
140
1.0
102
RTVSPost2010PropOp57
 70
     1
102
RTVSPropertyOp0
 70
     1
102
RTVSPropertyOp1
 70
     1
102
RTVSPropertyOp2
 70
     1
102
RTVSPropertyOp3
 70
     1
102
RTVSPropertyOp4
 70
     1
102
RTVSPropertyOp5
 70
     1
102
RTVSPropertyOp6
 70
     1
102
RTVSPropertyOp7
 70
     1
102
RTVSPropertyOp8
 70
     1
102
RTVSPropertyOp9
 70
     1
102
RTVSPropertyOp10
 70
     1
102
RTVSPropertyOp11
 70
     1
102
RTVSPropertyOp12
 70
     1
102
RTVSPropertyOp13
 70
     1
102
RTVSPropertyOp14
 70
     1
102
RTVSPropertyOp15
 70
     1
102
RTVSPropertyOp16
 70
     1
102
RTVSPropertyOp17
 70
     1
102
RTVSPropertyOp18
 70
     1
102
RTVSPropertyOp19
 70
     1
102
RTVSPropertyOp20
 70
     1
102
RTVSPropertyOp21
 70
     1
102
RTVSPropertyOp22
 70
     1
102
RTVSPropertyOp23
 70
     1
102
RTVSPropertyOp24
 70
     1
102
RTVSPropertyOp25
 70
     1
102
RTVSPropertyOp26
 70
     1
102
RTVSPropertyOp27
 70
     1
102
RTVSPropertyOp28
 70
     1
102
RTVSPropertyOp29
 70
     1
102
RTVSPropertyOp30
 70
     1
102
RTVSPropertyOp31
 70
     1
102
RTVSPropertyOp32
 70
     1
102
RTVSPropertyOp33
 70
     1
102
RTVSPropertyOp34
 70
     1
102
RTVSPropertyOp35
 70
     1
102
RTVSPropertyOp36
 70
     1
102
RTVSPropertyOp37
 70
     1
102
RTVSPropertyOp38
 70
     1
102
RTVSPropertyOp39
 70
     1
102
RTVSPropertyOp40
 70
     1
102
RTVSPropertyOp41
 70
     1
102
RTVSPropertyOp42
 70
     1
102
RTVSPropertyOp43
 70
     1
102
RTVSPropertyOp44
 70
     1
102
RTVSPropertyOp45
 70
     1
102
RTVSPropertyOp46
 70
     1
102
RTVSPropertyOp47
 70
     1
102
RTVSPropertyOp48
 70
     1
102
RTVSPropertyOp49
 70
     1
102
RTVSPropertyOp50
 70
     1
102
RTVSPropertyOp51
 70
     0
102
RTVSPropertyOp52
 70
     0
102
RTVSPropertyOp53
 70
     1
102
RTVSPropertyOp54
 70
     1
102
RTVSPropertyOp55
 70
     1
102
RTVSPropertyOp56
 70
     1
102
RTVSPropertyOp57
 70
     1
102
RTVSPropertyOp58
 70
     1
102
RTVSPropertyOp59
 70
     1
102
RTVSPropertyOp60
 70
     1
102
RTVSPropertyOp61
 70
     1
102
RTVSPropertyOp62
 70
     1
  0
XRECORD
  5
BAE
102
{ACAD_REACTORS
330
BAD
102
}
330
BAD
100
AcDbXrecord
280
     1
102
RTVSPost2010Prop28
280
     0
102
RTVSPost2010PropOp28
 70
     1
102
RTVSPost2010Prop29
280
     1
102
RTVSPost2010PropOp29
 70
     1
102
RTVSPost2010Prop30
280
     1
102
RTVSPost2010PropOp30
 70
     1
102
RTVSPost2010Prop31
280
     0
102
RTVSPost2010PropOp31
 70
     1
102
RTVSPost2010Prop32
280
     0
102
RTVSPost2010PropOp32
 70
     1
102
RTVSPost2010Prop33
280
     0
102
RTVSPost2010PropOp33
 70
     1
102
RTVSPost2010Prop34
280
     0
102
RTVSPost2010PropOp34
 70
     1
102
RTVSPost2010Prop35
280
     0
102
RTVSPost2010PropOp35
 70
     1
102
RTVSPost2010Prop36
280
     0
102
RTVSPost2010PropOp36
 70
     1
102
RTVSPost2010Prop37
 90
       50
102
RTVSPost2010PropOp37
 70
     1
102
RTVSPost2010Prop38
140
0.0
102
RTVSPost2010PropOp38
 70
     1
102
RTVSPost2010Prop39
140
1.0
102
RTVSPost2010PropOp39
 70
     1
102
RTVSPost2010Prop40
 90
        0
102
RTVSPost2010PropOp40
 70
     1
102
RTVSPost2010Prop41ColorIndex
 90
       18
102
RTVSPost2010Prop41ColorRGB
 90
        0
102
RTVSPost2010PropOp41
 70
     1
102
RTVSPost2010Prop42
 90
       50
102
RTVSPost2010PropOp42
 70
     1
102
RTVSPost2010Prop43
 90
        3
102
RTVSPost2010PropOp43
 70
     1
102
RTVSPost2010Prop44ColorIndex
 90
        5
102
RTVSPost2010Prop44ColorRGB
 90
      255
102
RTVSPost2010PropOp44
 70
     1
102
RTVSPost2010Prop45
280
     0
102
RTVSPost2010PropOp45
 70
     1
102
RTVSPost2010Prop46
 90
       50
102
RTVSPost2010PropOp46
 70
     1
102
RTVSPost2010Prop47
 90
       50
102
RTVSPost2010PropOp47
 70
     1
102
RTVSPost2010Prop48
 90
       50
102
RTVSPost2010PropOp48
 70
     1
102
RTVSPost2010Prop49
280
     0
102
RTVSPost2010PropOp49
 70
     1
102
RTVSPost2010Prop50
 90
       50
102
RTVSPost2010PropOp50
 70
     1
102
RTVSPost2010Prop51ColorIndex
 90
      256
102
RTVSPost2010Prop51ColorRGB
 90
-16777216
102
RTVSPost2010PropOp51
 70
     0
102
RTVSPost2010Prop52
140
1.0
102
RTVSPost2010PropOp52
 70
     0
102
RTVSPost2010Prop53
 90
        2
102
RTVSPost2010PropOp53
 70
     1
102
RTVSPost2010Prop54
  1
strokes_ogs.tif
102
RTVSPost2010PropOp54
 70
     1
102
RTVSPost2010Prop55
280
     0
102
RTVSPost2010PropOp55
 70
     1
102
RTVSPost2010Prop56
140
1.0
102
RTVSPost2010PropOp56
 70
     1
102
RTVSPost2010Prop57
140
1.0
102
RTVSPost2010PropOp57
 70
     1
102
RTVSPropertyOp0
 70
     1
102
RTVSPropertyOp1
 70
     1
102
RTVSPropertyOp2
 70
     1
102
RTVSPropertyOp3
 70
     1
102
RTVSPropertyOp4
 70
     1
102
RTVSPropertyOp5
 70
     1
102
RTVSPropertyOp6
 70
     1
102
RTVSPropertyOp7
 70
     1
102
RTVSPropertyOp8
 70
     1
102
RTVSPropertyOp9
 70
     1
102
RTVSPropertyOp10
 70
     1
102
RTVSPropertyOp11
 70
     1
102
RTVSPropertyOp12
 70
     1
102
RTVSPropertyOp13
 70
     1
102
RTVSPropertyOp14
 70
     1
102
RTVSPropertyOp15
 70
     1
102
RTVSPropertyOp16
 70
     1
102
RTVSPropertyOp17
 70
     1
102
RTVSPropertyOp18
 70
     1
102
RTVSPropertyOp19
 70
     1
102
RTVSPropertyOp20
 70
     1
102
RTVSPropertyOp21
 70
     1
102
RTVSPropertyOp22
 70
     1
102
RTVSPropertyOp23
 70
     1
102
RTVSPropertyOp24
 70
     1
102
RTVSPropertyOp25
 70
     1
102
RTVSPropertyOp26
 70
     1
102
RTVSPropertyOp27
 70
     1
102
RTVSPropertyOp28
 70
     1
102
RTVSPropertyOp29
 70
     1
102
RTVSPropertyOp30
 70
     1
102
RTVSPropertyOp31
 70
     1
102
RTVSPropertyOp32
 70
     1
102
RTVSPropertyOp33
 70
     1
102
RTVSPropertyOp34
 70
     1
102
RTVSPropertyOp35
 70
     1
102
RTVSPropertyOp36
 70
     1
102
RTVSPropertyOp37
 70
     1
102
RTVSPropertyOp38
 70
     1
102
RTVSPropertyOp39
 70
     1
102
RTVSPropertyOp40
 70
     1
102
RTVSPropertyOp41
 70
     1
102
RTVSPropertyOp42
 70
     1
102
RTVSPropertyOp43
 70
     1
102
RTVSPropertyOp44
 70
     1
102
RTVSPropertyOp45
 70
     1
102
RTVSPropertyOp46
 70
     1
102
RTVSPropertyOp47
 70
     1
102
RTVSPropertyOp48
 70
     1
102
RTVSPropertyOp49
 70
     1
102
RTVSPropertyOp50
 70
     1
102
RTVSPropertyOp51
 70
     0
102
RTVSPropertyOp52
 70
     0
102
RTVSPropertyOp53
 70
     1
102
RTVSPropertyOp54
 70
     1
102
RTVSPropertyOp55
 70
     1
102
RTVSPropertyOp56
 70
     1
102
RTVSPropertyOp57
 70
     1
102
RTVSPropertyOp58
 70
     1
102
RTVSPropertyOp59
 70
     1
102
RTVSPropertyOp60
 70
     1
102
RTVSPropertyOp61
 70
     1
102
RTVSPropertyOp62
 70
     1
  0
XRECORD
  5
BAC
102
{ACAD_REACTORS
330
BAB
102
}
330
BAB
100
AcDbXrecord
280
     1
102
RTVSPost2010Prop28
280
     0
102
RTVSPost2010PropOp28
 70
     1
102
RTVSPost2010Prop29
280
     1
102
RTVSPost2010PropOp29
 70
     1
102
RTVSPost2010Prop30
280
     1
102
RTVSPost2010PropOp30
 70
     1
102
RTVSPost2010Prop31
280
     0
102
RTVSPost2010PropOp31
 70
     1
102
RTVSPost2010Prop32
280
     0
102
RTVSPost2010PropOp32
 70
     1
102
RTVSPost2010Prop33
280
     0
102
RTVSPost2010PropOp33
 70
     1
102
RTVSPost2010Prop34
280
     0
102
RTVSPost2010PropOp34
 70
     1
102
RTVSPost2010Prop35
280
     0
102
RTVSPost2010PropOp35
 70
     1
102
RTVSPost2010Prop36
280
     0
102
RTVSPost2010PropOp36
 70
     1
102
RTVSPost2010Prop37
 90
       50
102
RTVSPost2010PropOp37
 70
     1
102
RTVSPost2010Prop38
140
0.0
102
RTVSPost2010PropOp38
 70
     1
102
RTVSPost2010Prop39
140
1.0
102
RTVSPost2010PropOp39
 70
     1
102
RTVSPost2010Prop40
 90
        0
102
RTVSPost2010PropOp40
 70
     1
102
RTVSPost2010Prop41ColorIndex
 90
       18
102
RTVSPost2010Prop41ColorRGB
 90
        0
102
RTVSPost2010PropOp41
 70
     1
102
RTVSPost2010Prop42
 90
       50
102
RTVSPost2010PropOp42
 70
     1
102
RTVSPost2010Prop43
 90
        3
102
RTVSPost2010PropOp43
 70
     1
102
RTVSPost2010Prop44ColorIndex
 90
        5
102
RTVSPost2010Prop44ColorRGB
 90
      255
102
RTVSPost2010PropOp44
 70
     1
102
RTVSPost2010Prop45
280
     0
102
RTVSPost2010PropOp45
 70
     1
102
RTVSPost2010Prop46
 90
       50
102
RTVSPost2010PropOp46
 70
     1
102
RTVSPost2010Prop47
 90
       50
102
RTVSPost2010PropOp47
 70
     1
102
RTVSPost2010Prop48
 90
       50
102
RTVSPost2010PropOp48
 70
     1
102
RTVSPost2010Prop49
280
     0
102
RTVSPost2010PropOp49
 70
     1
102
RTVSPost2010Prop50
 90
       50
102
RTVSPost2010PropOp50
 70
     1
102
RTVSPost2010Prop51ColorIndex
 90
      256
102
RTVSPost2010Prop51ColorRGB
 90
-16777216
102
RTVSPost2010PropOp51
 70
     0
102
RTVSPost2010Prop52
140
1.0
102
RTVSPost2010PropOp52
 70
     0
102
RTVSPost2010Prop53
 90
        2
102
RTVSPost2010PropOp53
 70
     1
102
RTVSPost2010Prop54
  1
strokes_ogs.tif
102
RTVSPost2010PropOp54
 70
     1
102
RTVSPost2010Prop55
280
     0
102
RTVSPost2010PropOp55
 70
     1
102
RTVSPost2010Prop56
140
1.0
102
RTVSPost2010PropOp56
 70
     1
102
RTVSPost2010Prop57
140
1.0
102
RTVSPost2010PropOp57
 70
     1
102
RTVSPropertyOp0
 70
     1
102
RTVSPropertyOp1
 70
     1
102
RTVSPropertyOp2
 70
     1
102
RTVSPropertyOp3
 70
     1
102
RTVSPropertyOp4
 70
     1
102
RTVSPropertyOp5
 70
     1
102
RTVSPropertyOp6
 70
     1
102
RTVSPropertyOp7
 70
     1
102
RTVSPropertyOp8
 70
     1
102
RTVSPropertyOp9
 70
     1
102
RTVSPropertyOp10
 70
     1
102
RTVSPropertyOp11
 70
     1
102
RTVSPropertyOp12
 70
     1
102
RTVSPropertyOp13
 70
     1
102
RTVSPropertyOp14
 70
     1
102
RTVSPropertyOp15
 70
     1
102
RTVSPropertyOp16
 70
     1
102
RTVSPropertyOp17
 70
     1
102
RTVSPropertyOp18
 70
     1
102
RTVSPropertyOp19
 70
     1
102
RTVSPropertyOp20
 70
     1
102
RTVSPropertyOp21
 70
     1
102
RTVSPropertyOp22
 70
     1
102
RTVSPropertyOp23
 70
     1
102
RTVSPropertyOp24
 70
     1
102
RTVSPropertyOp25
 70
     1
102
RTVSPropertyOp26
 70
     1
102
RTVSPropertyOp27
 70
     1
102
RTVSPropertyOp28
 70
     1
102
RTVSPropertyOp29
 70
     1
102
RTVSPropertyOp30
 70
     1
102
RTVSPropertyOp31
 70
     1
102
RTVSPropertyOp32
 70
     1
102
RTVSPropertyOp33
 70
     1
102
RTVSPropertyOp34
 70
     1
102
RTVSPropertyOp35
 70
     1
102
RTVSPropertyOp36
 70
     1
102
RTVSPropertyOp37
 70
     1
102
RTVSPropertyOp38
 70
     1
102
RTVSPropertyOp39
 70
     1
102
RTVSPropertyOp40
 70
     1
102
RTVSPropertyOp41
 70
     1
102
RTVSPropertyOp42
 70
     1
102
RTVSPropertyOp43
 70
     1
102
RTVSPropertyOp44
 70
     1
102
RTVSPropertyOp45
 70
     1
102
RTVSPropertyOp46
 70
     1
102
RTVSPropertyOp47
 70
     1
102
RTVSPropertyOp48
 70
     1
102
RTVSPropertyOp49
 70
     1
102
RTVSPropertyOp50
 70
     1
102
RTVSPropertyOp51
 70
     0
102
RTVSPropertyOp52
 70
     0
102
RTVSPropertyOp53
 70
     1
102
RTVSPropertyOp54
 70
     1
102
RTVSPropertyOp55
 70
     1
102
RTVSPropertyOp56
 70
     1
102
RTVSPropertyOp57
 70
     1
102
RTVSPropertyOp58
 70
     1
102
RTVSPropertyOp59
 70
     1
102
RTVSPropertyOp60
 70
     1
102
RTVSPropertyOp61
 70
     1
102
RTVSPropertyOp62
 70
     1
  0
XRECORD
  5
BA6
102
{ACAD_REACTORS
330
BA5
102
}
330
BA5
100
AcDbXrecord
280
     1
102
RTVSPost2010Prop28
280
     0
102
RTVSPost2010PropOp28
 70
     1
102
RTVSPost2010Prop29
280
     1
102
RTVSPost2010PropOp29
 70
     1
102
RTVSPost2010Prop30
280
     1
102
RTVSPost2010PropOp30
 70
     1
102
RTVSPost2010Prop31
280
     0
102
RTVSPost2010PropOp31
 70
     1
102
RTVSPost2010Prop32
280
     0
102
RTVSPost2010PropOp32
 70
     1
102
RTVSPost2010Prop33
280
     0
102
RTVSPost2010PropOp33
 70
     1
102
RTVSPost2010Prop34
280
     0
102
RTVSPost2010PropOp34
 70
     1
102
RTVSPost2010Prop35
280
     0
102
RTVSPost2010PropOp35
 70
     1
102
RTVSPost2010Prop36
280
     0
102
RTVSPost2010PropOp36
 70
     1
102
RTVSPost2010Prop37
 90
       50
102
RTVSPost2010PropOp37
 70
     1
102
RTVSPost2010Prop38
140
0.0
102
RTVSPost2010PropOp38
 70
     1
102
RTVSPost2010Prop39
140
1.0
102
RTVSPost2010PropOp39
 70
     1
102
RTVSPost2010Prop40
 90
        0
102
RTVSPost2010PropOp40
 70
     1
102
RTVSPost2010Prop41ColorIndex
 90
       18
102
RTVSPost2010Prop41ColorRGB
 90
        0
102
RTVSPost2010PropOp41
 70
     1
102
RTVSPost2010Prop42
 90
       50
102
RTVSPost2010PropOp42
 70
     1
102
RTVSPost2010Prop43
 90
        3
102
RTVSPost2010PropOp43
 70
     1
102
RTVSPost2010Prop44ColorIndex
 90
        5
102
RTVSPost2010Prop44ColorRGB
 90
      255
102
RTVSPost2010PropOp44
 70
     1
102
RTVSPost2010Prop45
280
     0
102
RTVSPost2010PropOp45
 70
     1
102
RTVSPost2010Prop46
 90
       50
102
RTVSPost2010PropOp46
 70
     1
102
RTVSPost2010Prop47
 90
       50
102
RTVSPost2010PropOp47
 70
     1
102
RTVSPost2010Prop48
 90
       50
102
RTVSPost2010PropOp48
 70
     1
102
RTVSPost2010Prop49
280
     0
102
RTVSPost2010PropOp49
 70
     1
102
RTVSPost2010Prop50
 90
       50
102
RTVSPost2010PropOp50
 70
     1
102
RTVSPost2010Prop51ColorIndex
 90
      256
102
RTVSPost2010Prop51ColorRGB
 90
-16777216
102
RTVSPost2010PropOp51
 70
     0
102
RTVSPost2010Prop52
140
1.0
102
RTVSPost2010PropOp52
 70
     0
102
RTVSPost2010Prop53
 90
        2
102
RTVSPost2010PropOp53
 70
     1
102
RTVSPost2010Prop54
  1
strokes_ogs.tif
102
RTVSPost2010PropOp54
 70
     1
102
RTVSPost2010Prop55
280
     0
102
RTVSPost2010PropOp55
 70
     1
102
RTVSPost2010Prop56
140
1.0
102
RTVSPost2010PropOp56
 70
     1
102
RTVSPost2010Prop57
140
1.0
102
RTVSPost2010PropOp57
 70
     1
102
RTVSPropertyOp0
 70
     1
102
RTVSPropertyOp1
 70
     1
102
RTVSPropertyOp2
 70
     1
102
RTVSPropertyOp3
 70
     1
102
RTVSPropertyOp4
 70
     1
102
RTVSPropertyOp5
 70
     1
102
RTVSPropertyOp6
 70
     1
102
RTVSPropertyOp7
 70
     1
102
RTVSPropertyOp8
 70
     1
102
RTVSPropertyOp9
 70
     1
102
RTVSPropertyOp10
 70
     1
102
RTVSPropertyOp11
 70
     1
102
RTVSPropertyOp12
 70
     1
102
RTVSPropertyOp13
 70
     1
102
RTVSPropertyOp14
 70
     1
102
RTVSPropertyOp15
 70
     1
102
RTVSPropertyOp16
 70
     1
102
RTVSPropertyOp17
 70
     1
102
RTVSPropertyOp18
 70
     1
102
RTVSPropertyOp19
 70
     1
102
RTVSPropertyOp20
 70
     1
102
RTVSPropertyOp21
 70
     1
102
RTVSPropertyOp22
 70
     1
102
RTVSPropertyOp23
 70
     1
102
RTVSPropertyOp24
 70
     1
102
RTVSPropertyOp25
 70
     1
102
RTVSPropertyOp26
 70
     1
102
RTVSPropertyOp27
 70
     1
102
RTVSPropertyOp28
 70
     1
102
RTVSPropertyOp29
 70
     1
102
RTVSPropertyOp30
 70
     1
102
RTVSPropertyOp31
 70
     1
102
RTVSPropertyOp32
 70
     1
102
RTVSPropertyOp33
 70
     1
102
RTVSPropertyOp34
 70
     1
102
RTVSPropertyOp35
 70
     1
102
RTVSPropertyOp36
 70
     1
102
RTVSPropertyOp37
 70
     1
102
RTVSPropertyOp38
 70
     1
102
RTVSPropertyOp39
 70
     1
102
RTVSPropertyOp40
 70
     1
102
RTVSPropertyOp41
 70
     1
102
RTVSPropertyOp42
 70
     1
102
RTVSPropertyOp43
 70
     1
102
RTVSPropertyOp44
 70
     1
102
RTVSPropertyOp45
 70
     1
102
RTVSPropertyOp46
 70
     1
102
RTVSPropertyOp47
 70
     1
102
RTVSPropertyOp48
 70
     1
102
RTVSPropertyOp49
 70
     1
102
RTVSPropertyOp50
 70
     1
102
RTVSPropertyOp51
 70
     0
102
RTVSPropertyOp52
 70
     0
102
RTVSPropertyOp53
 70
     1
102
RTVSPropertyOp54
 70
     1
102
RTVSPropertyOp55
 70
     1
102
RTVSPropertyOp56
 70
     1
102
RTVSPropertyOp57
 70
     1
102
RTVSPropertyOp58
 70
     1
102
RTVSPropertyOp59
 70
     1
102
RTVSPropertyOp60
 70
     1
102
RTVSPropertyOp61
 70
     1
102
RTVSPropertyOp62
 70
     1
  0
XRECORD
  5
BA8
102
{ACAD_REACTORS
330
BA7
102
}
330
BA7
100
AcDbXrecord
280
     1
102
RTVSPost2010Prop28
280
     0
102
RTVSPost2010PropOp28
 70
     1
102
RTVSPost2010Prop29
280
     1
102
RTVSPost2010PropOp29
 70
     1
102
RTVSPost2010Prop30
280
     1
102
RTVSPost2010PropOp30
 70
     1
102
RTVSPost2010Prop31
280
     0
102
RTVSPost2010PropOp31
 70
     1
102
RTVSPost2010Prop32
280
     0
102
RTVSPost2010PropOp32
 70
     1
102
RTVSPost2010Prop33
280
     0
102
RTVSPost2010PropOp33
 70
     1
102
RTVSPost2010Prop34
280
     0
102
RTVSPost2010PropOp34
 70
     1
102
RTVSPost2010Prop35
280
     0
102
RTVSPost2010PropOp35
 70
     1
102
RTVSPost2010Prop36
280
     0
102
RTVSPost2010PropOp36
 70
     1
102
RTVSPost2010Prop37
 90
       50
102
RTVSPost2010PropOp37
 70
     1
102
RTVSPost2010Prop38
140
0.0
102
RTVSPost2010PropOp38
 70
     1
102
RTVSPost2010Prop39
140
1.0
102
RTVSPost2010PropOp39
 70
     1
102
RTVSPost2010Prop40
 90
        0
102
RTVSPost2010PropOp40
 70
     1
102
RTVSPost2010Prop41ColorIndex
 90
       18
102
RTVSPost2010Prop41ColorRGB
 90
        0
102
RTVSPost2010PropOp41
 70
     1
102
RTVSPost2010Prop42
 90
       50
102
RTVSPost2010PropOp42
 70
     1
102
RTVSPost2010Prop43
 90
        3
102
RTVSPost2010PropOp43
 70
     1
102
RTVSPost2010Prop44ColorIndex
 90
        5
102
RTVSPost2010Prop44ColorRGB
 90
      255
102
RTVSPost2010PropOp44
 70
     1
102
RTVSPost2010Prop45
280
     0
102
RTVSPost2010PropOp45
 70
     1
102
RTVSPost2010Prop46
 90
       50
102
RTVSPost2010PropOp46
 70
     1
102
RTVSPost2010Prop47
 90
       50
102
RTVSPost2010PropOp47
 70
     1
102
RTVSPost2010Prop48
 90
       50
102
RTVSPost2010PropOp48
 70
     1
102
RTVSPost2010Prop49
280
     0
102
RTVSPost2010PropOp49
 70
     1
102
RTVSPost2010Prop50
 90
       50
102
RTVSPost2010PropOp50
 70
     1
102
RTVSPost2010Prop51ColorIndex
 90
      256
102
RTVSPost2010Prop51ColorRGB
 90
-16777216
102
RTVSPost2010PropOp51
 70
     0
102
RTVSPost2010Prop52
140
1.0
102
RTVSPost2010PropOp52
 70
     0
102
RTVSPost2010Prop53
 90
        2
102
RTVSPost2010PropOp53
 70
     1
102
RTVSPost2010Prop54
  1
strokes_ogs.tif
102
RTVSPost2010PropOp54
 70
     1
102
RTVSPost2010Prop55
280
     0
102
RTVSPost2010PropOp55
 70
     1
102
RTVSPost2010Prop56
140
1.0
102
RTVSPost2010PropOp56
 70
     1
102
RTVSPost2010Prop57
140
1.0
102
RTVSPost2010PropOp57
 70
     1
102
RTVSPropertyOp0
 70
     1
102
RTVSPropertyOp1
 70
     1
102
RTVSPropertyOp2
 70
     1
102
RTVSPropertyOp3
 70
     1
102
RTVSPropertyOp4
 70
     1
102
RTVSPropertyOp5
 70
     1
102
RTVSPropertyOp6
 70
     1
102
RTVSPropertyOp7
 70
     1
102
RTVSPropertyOp8
 70
     1
102
RTVSPropertyOp9
 70
     1
102
RTVSPropertyOp10
 70
     1
102
RTVSPropertyOp11
 70
     1
102
RTVSPropertyOp12
 70
     1
102
RTVSPropertyOp13
 70
     1
102
RTVSPropertyOp14
 70
     1
102
RTVSPropertyOp15
 70
     1
102
RTVSPropertyOp16
 70
     1
102
RTVSPropertyOp17
 70
     1
102
RTVSPropertyOp18
 70
     1
102
RTVSPropertyOp19
 70
     1
102
RTVSPropertyOp20
 70
     1
102
RTVSPropertyOp21
 70
     1
102
RTVSPropertyOp22
 70
     1
102
RTVSPropertyOp23
 70
     1
102
RTVSPropertyOp24
 70
     1
102
RTVSPropertyOp25
 70
     1
102
RTVSPropertyOp26
 70
     1
102
RTVSPropertyOp27
 70
     1
102
RTVSPropertyOp28
 70
     1
102
RTVSPropertyOp29
 70
     1
102
RTVSPropertyOp30
 70
     1
102
RTVSPropertyOp31
 70
     1
102
RTVSPropertyOp32
 70
     1
102
RTVSPropertyOp33
 70
     1
102
RTVSPropertyOp34
 70
     1
102
RTVSPropertyOp35
 70
     1
102
RTVSPropertyOp36
 70
     1
102
RTVSPropertyOp37
 70
     1
102
RTVSPropertyOp38
 70
     1
102
RTVSPropertyOp39
 70
     1
102
RTVSPropertyOp40
 70
     1
102
RTVSPropertyOp41
 70
     1
102
RTVSPropertyOp42
 70
     1
102
RTVSPropertyOp43
 70
     1
102
RTVSPropertyOp44
 70
     1
102
RTVSPropertyOp45
 70
     1
102
RTVSPropertyOp46
 70
     1
102
RTVSPropertyOp47
 70
     1
102
RTVSPropertyOp48
 70
     1
102
RTVSPropertyOp49
 70
     1
102
RTVSPropertyOp50
 70
     1
102
RTVSPropertyOp51
 70
     0
102
RTVSPropertyOp52
 70
     0
102
RTVSPropertyOp53
 70
     1
102
RTVSPropertyOp54
 70
     1
102
RTVSPropertyOp55
 70
     1
102
RTVSPropertyOp56
 70
     1
102
RTVSPropertyOp57
 70
     1
102
RTVSPropertyOp58
 70
     1
102
RTVSPropertyOp59
 70
     1
102
RTVSPropertyOp60
 70
     1
102
RTVSPropertyOp61
 70
     1
102
RTVSPropertyOp62
 70
     1
  0
XRECORD
  5
B94
102
{ACAD_REACTORS
330
B93
102
}
330
B93
100
AcDbXrecord
280
     1
102
RTVSPost2010Prop28
280
     0
102
RTVSPost2010PropOp28
 70
     1
102
RTVSPost2010Prop29
280
     1
102
RTVSPost2010PropOp29
 70
     1
102
RTVSPost2010Prop30
280
     1
102
RTVSPost2010PropOp30
 70
     1
102
RTVSPost2010Prop31
280
     0
102
RTVSPost2010PropOp31
 70
     1
102
RTVSPost2010Prop32
280
     0
102
RTVSPost2010PropOp32
 70
     1
102
RTVSPost2010Prop33
280
     0
102
RTVSPost2010PropOp33
 70
     1
102
RTVSPost2010Prop34
280
     0
102
RTVSPost2010PropOp34
 70
     1
102
RTVSPost2010Prop35
280
     0
102
RTVSPost2010PropOp35
 70
     1
102
RTVSPost2010Prop36
280
     0
102
RTVSPost2010PropOp36
 70
     1
102
RTVSPost2010Prop37
 90
       50
102
RTVSPost2010PropOp37
 70
     1
102
RTVSPost2010Prop38
140
0.0
102
RTVSPost2010PropOp38
 70
     1
102
RTVSPost2010Prop39
140
1.0
102
RTVSPost2010PropOp39
 70
     1
102
RTVSPost2010Prop40
 90
        0
102
RTVSPost2010PropOp40
 70
     1
102
RTVSPost2010Prop41ColorIndex
 90
       18
102
RTVSPost2010Prop41ColorRGB
 90
        0
102
RTVSPost2010PropOp41
 70
     1
102
RTVSPost2010Prop42
 90
       50
102
RTVSPost2010PropOp42
 70
     1
102
RTVSPost2010Prop43
 90
        3
102
RTVSPost2010PropOp43
 70
     1
102
RTVSPost2010Prop44ColorIndex
 90
        5
102
RTVSPost2010Prop44ColorRGB
 90
      255
102
RTVSPost2010PropOp44
 70
     1
102
RTVSPost2010Prop45
280
     0
102
RTVSPost2010PropOp45
 70
     1
102
RTVSPost2010Prop46
 90
       50
102
RTVSPost2010PropOp46
 70
     1
102
RTVSPost2010Prop47
 90
       50
102
RTVSPost2010PropOp47
 70
     1
102
RTVSPost2010Prop48
 90
       50
102
RTVSPost2010PropOp48
 70
     1
102
RTVSPost2010Prop49
280
     0
102
RTVSPost2010PropOp49
 70
     1
102
RTVSPost2010Prop50
 90
       50
102
RTVSPost2010PropOp50
 70
     1
102
RTVSPost2010Prop51ColorIndex
 90
      256
102
RTVSPost2010Prop51ColorRGB
 90
-16777216
102
RTVSPost2010PropOp51
 70
     0
102
RTVSPost2010Prop52
140
1.0
102
RTVSPost2010PropOp52
 70
     0
102
RTVSPost2010Prop53
 90
        2
102
RTVSPost2010PropOp53
 70
     1
102
RTVSPost2010Prop54
  1
strokes_ogs.tif
102
RTVSPost2010PropOp54
 70
     1
102
RTVSPost2010Prop55
280
     0
102
RTVSPost2010PropOp55
 70
     1
102
RTVSPost2010Prop56
140
1.0
102
RTVSPost2010PropOp56
 70
     1
102
RTVSPost2010Prop57
140
1.0
102
RTVSPost2010PropOp57
 70
     1
102
RTVSPropertyOp0
 70
     1
102
RTVSPropertyOp1
 70
     1
102
RTVSPropertyOp2
 70
     1
102
RTVSPropertyOp3
 70
     1
102
RTVSPropertyOp4
 70
     1
102
RTVSPropertyOp5
 70
     1
102
RTVSPropertyOp6
 70
     1
102
RTVSPropertyOp7
 70
     1
102
RTVSPropertyOp8
 70
     1
102
RTVSPropertyOp9
 70
     1
102
RTVSPropertyOp10
 70
     1
102
RTVSPropertyOp11
 70
     1
102
RTVSPropertyOp12
 70
     1
102
RTVSPropertyOp13
 70
     1
102
RTVSPropertyOp14
 70
     1
102
RTVSPropertyOp15
 70
     1
102
RTVSPropertyOp16
 70
     1
102
RTVSPropertyOp17
 70
     1
102
RTVSPropertyOp18
 70
     1
102
RTVSPropertyOp19
 70
     1
102
RTVSPropertyOp20
 70
     1
102
RTVSPropertyOp21
 70
     1
102
RTVSPropertyOp22
 70
     1
102
RTVSPropertyOp23
 70
     1
102
RTVSPropertyOp24
 70
     1
102
RTVSPropertyOp25
 70
     1
102
RTVSPropertyOp26
 70
     1
102
RTVSPropertyOp27
 70
     1
102
RTVSPropertyOp28
 70
     1
102
RTVSPropertyOp29
 70
     1
102
RTVSPropertyOp30
 70
     1
102
RTVSPropertyOp31
 70
     1
102
RTVSPropertyOp32
 70
     1
102
RTVSPropertyOp33
 70
     1
102
RTVSPropertyOp34
 70
     1
102
RTVSPropertyOp35
 70
     1
102
RTVSPropertyOp36
 70
     1
102
RTVSPropertyOp37
 70
     1
102
RTVSPropertyOp38
 70
     1
102
RTVSPropertyOp39
 70
     1
102
RTVSPropertyOp40
 70
     1
102
RTVSPropertyOp41
 70
     1
102
RTVSPropertyOp42
 70
     1
102
RTVSPropertyOp43
 70
     1
102
RTVSPropertyOp44
 70
     1
102
RTVSPropertyOp45
 70
     1
102
RTVSPropertyOp46
 70
     1
102
RTVSPropertyOp47
 70
     1
102
RTVSPropertyOp48
 70
     1
102
RTVSPropertyOp49
 70
     1
102
RTVSPropertyOp50
 70
     1
102
RTVSPropertyOp51
 70
     0
102
RTVSPropertyOp52
 70
     0
102
RTVSPropertyOp53
 70
     1
102
RTVSPropertyOp54
 70
     1
102
RTVSPropertyOp55
 70
     1
102
RTVSPropertyOp56
 70
     1
102
RTVSPropertyOp57
 70
     1
102
RTVSPropertyOp58
 70
     1
102
RTVSPropertyOp59
 70
     1
102
RTVSPropertyOp60
 70
     1
102
RTVSPropertyOp61
 70
     1
102
RTVSPropertyOp62
 70
     1
  0
XRECORD
  5
BA2
102
{ACAD_REACTORS
330
BA1
102
}
330
BA1
100
AcDbXrecord
280
     1
102
RTVSPost2010Prop28
280
     0
102
RTVSPost2010PropOp28
 70
     1
102
RTVSPost2010Prop29
280
     1
102
RTVSPost2010PropOp29
 70
     1
102
RTVSPost2010Prop30
280
     1
102
RTVSPost2010PropOp30
 70
     1
102
RTVSPost2010Prop31
280
     0
102
RTVSPost2010PropOp31
 70
     1
102
RTVSPost2010Prop32
280
     0
102
RTVSPost2010PropOp32
 70
     1
102
RTVSPost2010Prop33
280
     0
102
RTVSPost2010PropOp33
 70
     1
102
RTVSPost2010Prop34
280
     0
102
RTVSPost2010PropOp34
 70
     1
102
RTVSPost2010Prop35
280
     0
102
RTVSPost2010PropOp35
 70
     1
102
RTVSPost2010Prop36
280
     0
102
RTVSPost2010PropOp36
 70
     1
102
RTVSPost2010Prop37
 90
       50
102
RTVSPost2010PropOp37
 70
     1
102
RTVSPost2010Prop38
140
0.0
102
RTVSPost2010PropOp38
 70
     1
102
RTVSPost2010Prop39
140
1.0
102
RTVSPost2010PropOp39
 70
     1
102
RTVSPost2010Prop40
 90
        0
102
RTVSPost2010PropOp40
 70
     1
102
RTVSPost2010Prop41ColorIndex
 90
       18
102
RTVSPost2010Prop41ColorRGB
 90
        0
102
RTVSPost2010PropOp41
 70
     1
102
RTVSPost2010Prop42
 90
       50
102
RTVSPost2010PropOp42
 70
     1
102
RTVSPost2010Prop43
 90
        3
102
RTVSPost2010PropOp43
 70
     1
102
RTVSPost2010Prop44ColorIndex
 90
        5
102
RTVSPost2010Prop44ColorRGB
 90
      255
102
RTVSPost2010PropOp44
 70
     1
102
RTVSPost2010Prop45
280
     0
102
RTVSPost2010PropOp45
 70
     1
102
RTVSPost2010Prop46
 90
       50
102
RTVSPost2010PropOp46
 70
     1
102
RTVSPost2010Prop47
 90
       50
102
RTVSPost2010PropOp47
 70
     1
102
RTVSPost2010Prop48
 90
       50
102
RTVSPost2010PropOp48
 70
     1
102
RTVSPost2010Prop49
280
     0
102
RTVSPost2010PropOp49
 70
     1
102
RTVSPost2010Prop50
 90
       50
102
RTVSPost2010PropOp50
 70
     1
102
RTVSPost2010Prop51ColorIndex
 90
      256
102
RTVSPost2010Prop51ColorRGB
 90
-16777216
102
RTVSPost2010PropOp51
 70
     0
102
RTVSPost2010Prop52
140
1.0
102
RTVSPost2010PropOp52
 70
     0
102
RTVSPost2010Prop53
 90
        2
102
RTVSPost2010PropOp53
 70
     1
102
RTVSPost2010Prop54
  1
strokes_ogs.tif
102
RTVSPost2010PropOp54
 70
     1
102
RTVSPost2010Prop55
280
     0
102
RTVSPost2010PropOp55
 70
     1
102
RTVSPost2010Prop56
140
1.0
102
RTVSPost2010PropOp56
 70
     1
102
RTVSPost2010Prop57
140
1.0
102
RTVSPost2010PropOp57
 70
     1
102
RTVSPropertyOp0
 70
     1
102
RTVSPropertyOp1
 70
     1
102
RTVSPropertyOp2
 70
     1
102
RTVSPropertyOp3
 70
     1
102
RTVSPropertyOp4
 70
     1
102
RTVSPropertyOp5
 70
     1
102
RTVSPropertyOp6
 70
     1
102
RTVSPropertyOp7
 70
     1
102
RTVSPropertyOp8
 70
     1
102
RTVSPropertyOp9
 70
     1
102
RTVSPropertyOp10
 70
     1
102
RTVSPropertyOp11
 70
     1
102
RTVSPropertyOp12
 70
     1
102
RTVSPropertyOp13
 70
     1
102
RTVSPropertyOp14
 70
     1
102
RTVSPropertyOp15
 70
     1
102
RTVSPropertyOp16
 70
     1
102
RTVSPropertyOp17
 70
     1
102
RTVSPropertyOp18
 70
     1
102
RTVSPropertyOp19
 70
     1
102
RTVSPropertyOp20
 70
     1
102
RTVSPropertyOp21
 70
     1
102
RTVSPropertyOp22
 70
     1
102
RTVSPropertyOp23
 70
     1
102
RTVSPropertyOp24
 70
     1
102
RTVSPropertyOp25
 70
     1
102
RTVSPropertyOp26
 70
     1
102
RTVSPropertyOp27
 70
     1
102
RTVSPropertyOp28
 70
     1
102
RTVSPropertyOp29
 70
     1
102
RTVSPropertyOp30
 70
     1
102
RTVSPropertyOp31
 70
     1
102
RTVSPropertyOp32
 70
     1
102
RTVSPropertyOp33
 70
     1
102
RTVSPropertyOp34
 70
     1
102
RTVSPropertyOp35
 70
     1
102
RTVSPropertyOp36
 70
     1
102
RTVSPropertyOp37
 70
     1
102
RTVSPropertyOp38
 70
     1
102
RTVSPropertyOp39
 70
     1
102
RTVSPropertyOp40
 70
     1
102
RTVSPropertyOp41
 70
     1
102
RTVSPropertyOp42
 70
     1
102
RTVSPropertyOp43
 70
     1
102
RTVSPropertyOp44
 70
     1
102
RTVSPropertyOp45
 70
     1
102
RTVSPropertyOp46
 70
     1
102
RTVSPropertyOp47
 70
     1
102
RTVSPropertyOp48
 70
     1
102
RTVSPropertyOp49
 70
     1
102
RTVSPropertyOp50
 70
     1
102
RTVSPropertyOp51
 70
     0
102
RTVSPropertyOp52
 70
     0
102
RTVSPropertyOp53
 70
     1
102
RTVSPropertyOp54
 70
     1
102
RTVSPropertyOp55
 70
     1
102
RTVSPropertyOp56
 70
     1
102
RTVSPropertyOp57
 70
     1
102
RTVSPropertyOp58
 70
     1
102
RTVSPropertyOp59
 70
     1
102
RTVSPropertyOp60
 70
     1
102
RTVSPropertyOp61
 70
     1
102
RTVSPropertyOp62
 70
     1
  0
XRECORD
  5
BAA
102
{ACAD_REACTORS
330
BA9
102
}
330
BA9
100
AcDbXrecord
280
     1
102
RTVSPost2010Prop28
280
     0
102
RTVSPost2010PropOp28
 70
     1
102
RTVSPost2010Prop29
280
     1
102
RTVSPost2010PropOp29
 70
     1
102
RTVSPost2010Prop30
280
     1
102
RTVSPost2010PropOp30
 70
     1
102
RTVSPost2010Prop31
280
     0
102
RTVSPost2010PropOp31
 70
     1
102
RTVSPost2010Prop32
280
     0
102
RTVSPost2010PropOp32
 70
     1
102
RTVSPost2010Prop33
280
     0
102
RTVSPost2010PropOp33
 70
     1
102
RTVSPost2010Prop34
280
     0
102
RTVSPost2010PropOp34
 70
     1
102
RTVSPost2010Prop35
280
     0
102
RTVSPost2010PropOp35
 70
     1
102
RTVSPost2010Prop36
280
     0
102
RTVSPost2010PropOp36
 70
     1
102
RTVSPost2010Prop37
 90
       50
102
RTVSPost2010PropOp37
 70
     1
102
RTVSPost2010Prop38
140
0.0
102
RTVSPost2010PropOp38
 70
     1
102
RTVSPost2010Prop39
140
1.0
102
RTVSPost2010PropOp39
 70
     1
102
RTVSPost2010Prop40
 90
        0
102
RTVSPost2010PropOp40
 70
     1
102
RTVSPost2010Prop41ColorIndex
 90
       18
102
RTVSPost2010Prop41ColorRGB
 90
        0
102
RTVSPost2010PropOp41
 70
     1
102
RTVSPost2010Prop42
 90
       50
102
RTVSPost2010PropOp42
 70
     1
102
RTVSPost2010Prop43
 90
        3
102
RTVSPost2010PropOp43
 70
     1
102
RTVSPost2010Prop44ColorIndex
 90
        5
102
RTVSPost2010Prop44ColorRGB
 90
      255
102
RTVSPost2010PropOp44
 70
     1
102
RTVSPost2010Prop45
280
     0
102
RTVSPost2010PropOp45
 70
     1
102
RTVSPost2010Prop46
 90
       50
102
RTVSPost2010PropOp46
 70
     1
102
RTVSPost2010Prop47
 90
       50
102
RTVSPost2010PropOp47
 70
     1
102
RTVSPost2010Prop48
 90
       50
102
RTVSPost2010PropOp48
 70
     1
102
RTVSPost2010Prop49
280
     0
102
RTVSPost2010PropOp49
 70
     1
102
RTVSPost2010Prop50
 90
       50
102
RTVSPost2010PropOp50
 70
     1
102
RTVSPost2010Prop51ColorIndex
 90
      256
102
RTVSPost2010Prop51ColorRGB
 90
-16777216
102
RTVSPost2010PropOp51
 70
     0
102
RTVSPost2010Prop52
140
1.0
102
RTVSPost2010PropOp52
 70
     0
102
RTVSPost2010Prop53
 90
        2
102
RTVSPost2010PropOp53
 70
     1
102
RTVSPost2010Prop54
  1
strokes_ogs.tif
102
RTVSPost2010PropOp54
 70
     1
102
RTVSPost2010Prop55
280
     0
102
RTVSPost2010PropOp55
 70
     1
102
RTVSPost2010Prop56
140
1.0
102
RTVSPost2010PropOp56
 70
     1
102
RTVSPost2010Prop57
140
1.0
102
RTVSPost2010PropOp57
 70
     1
102
RTVSPropertyOp0
 70
     1
102
RTVSPropertyOp1
 70
     1
102
RTVSPropertyOp2
 70
     1
102
RTVSPropertyOp3
 70
     1
102
RTVSPropertyOp4
 70
     1
102
RTVSPropertyOp5
 70
     1
102
RTVSPropertyOp6
 70
     1
102
RTVSPropertyOp7
 70
     1
102
RTVSPropertyOp8
 70
     1
102
RTVSPropertyOp9
 70
     1
102
RTVSPropertyOp10
 70
     1
102
RTVSPropertyOp11
 70
     1
102
RTVSPropertyOp12
 70
     1
102
RTVSPropertyOp13
 70
     1
102
RTVSPropertyOp14
 70
     1
102
RTVSPropertyOp15
 70
     1
102
RTVSPropertyOp16
 70
     1
102
RTVSPropertyOp17
 70
     1
102
RTVSPropertyOp18
 70
     1
102
RTVSPropertyOp19
 70
     1
102
RTVSPropertyOp20
 70
     1
102
RTVSPropertyOp21
 70
     1
102
RTVSPropertyOp22
 70
     1
102
RTVSPropertyOp23
 70
     1
102
RTVSPropertyOp24
 70
     1
102
RTVSPropertyOp25
 70
     1
102
RTVSPropertyOp26
 70
     1
102
RTVSPropertyOp27
 70
     1
102
RTVSPropertyOp28
 70
     1
102
RTVSPropertyOp29
 70
     1
102
RTVSPropertyOp30
 70
     1
102
RTVSPropertyOp31
 70
     1
102
RTVSPropertyOp32
 70
     1
102
RTVSPropertyOp33
 70
     1
102
RTVSPropertyOp34
 70
     1
102
RTVSPropertyOp35
 70
     1
102
RTVSPropertyOp36
 70
     1
102
RTVSPropertyOp37
 70
     1
102
RTVSPropertyOp38
 70
     1
102
RTVSPropertyOp39
 70
     1
102
RTVSPropertyOp40
 70
     1
102
RTVSPropertyOp41
 70
     1
102
RTVSPropertyOp42
 70
     1
102
RTVSPropertyOp43
 70
     1
102
RTVSPropertyOp44
 70
     1
102
RTVSPropertyOp45
 70
     1
102
RTVSPropertyOp46
 70
     1
102
RTVSPropertyOp47
 70
     1
102
RTVSPropertyOp48
 70
     1
102
RTVSPropertyOp49
 70
     1
102
RTVSPropertyOp50
 70
     1
102
RTVSPropertyOp51
 70
     0
102
RTVSPropertyOp52
 70
     0
102
RTVSPropertyOp53
 70
     1
102
RTVSPropertyOp54
 70
     1
102
RTVSPropertyOp55
 70
     1
102
RTVSPropertyOp56
 70
     1
102
RTVSPropertyOp57
 70
     1
102
RTVSPropertyOp58
 70
     1
102
RTVSPropertyOp59
 70
     1
102
RTVSPropertyOp60
 70
     1
102
RTVSPropertyOp61
 70
     1
102
RTVSPropertyOp62
 70
     1
  0
ENDSEC
  0
EOF
