0
SECTION
2
HEADER
9
$ACADVER
1
AC1015
9
$DWGCODEPAGE
3
ANSI_1252
9
$HANDSEED
5
2f9
9
$ANGBASE
50
0
9
$ANGDIR
70
0
9
$ATTMODE
70
1
9
$AUNITS
70
0
9
$AUPREC
70
0
9
$CECOLOR
62
256
9
$CELTSCALE
40
1
9
$CELTYPE
6
ByLayer
9
$CELWEIGHT
370
18
9
$CLAYER
8
0
9
$CMLJUST
70
0
9
$CMLSCALE
40
1
9
$CMLSTYLE
2
Standard
9
$DIMSTYLE
2
Standard
9
$TEXTSIZE
40
0.2
9
$TEXTSTYLE
7
Standard
9
$LUNITS
70
2
9
$LUPREC
70
4
9
$EXTNAMES
290
1
9
$INSUNITS
70
4
9
$LTSCALE
40
1
9
$LWDISPLAY
290
1
9
$PDMODE
70
0
9
$PDSIZE
40
0
9
$PLINEGEN
70
0
0
ENDSEC
0
SECTION
2
CLASSES
0
CLASS
1
RASTERVARIABLES
2
AcDbRasterVariables
3
ISM
90
0
280
0
281
0
0
ENDSEC
0
SECTION
2
TABLES
0
TABLE
2
VPORT
5
2ef
100
AcDbSymbolTable
0
VPORT
5
1
100
AcDbSymbolTableRecord
100
AcDbViewportTableRecord
2
*Active
70
0
10
0
20
0
11
1
21
1
12
-1
22
1
13
0
23
0
14
0.5
24
0.5
15
10
25
10
16
0
26
0
36
1
17
0
27
0
37
0
0
ENDTAB
0
TABLE
2
LTYPE
5
2f0
100
AcDbSymbolTable
0
LTYPE
5
14
100
AcDbSymbolTableRecord
100
AcDbLinetypeTableRecord
70
0
2
ByBlock
3

72
65
73
0
40
0
0
LTYPE
5
15
100
AcDbSymbolTableRecord
100
AcDbLinetypeTableRecord
70
0
2
ByLayer
3

72
65
73
0
40
0
0
LTYPE
5
16
100
AcDbSymbolTableRecord
100
AcDbLinetypeTableRecord
70
0
2
CONTINUOUS
3
Solid line
72
65
73
0
40
0
0
LTYPE
5
6A
100
AcDbSymbolTableRecord
100
AcDbLinetypeTableRecord
70
0
2
CENTER
3
____ _ ____ _ ____ _ ____
72
65
73
4
40
47.5
49
22
74
0
49
-8.5
74
0
49
8.5
74
0
49
-8.5
74
0
0
LTYPE
5
6B
100
AcDbSymbolTableRecord
100
AcDbLinetypeTableRecord
70
0
2
DASHED
3
__ __ __ __ __ __ __ __ __
72
65
73
2
40
25.72
49
12.86
74
0
49
-12.86
74
0
0
ENDTAB
0
TABLE
2
LAYER
5
2f1
100
AcDbSymbolTable
0
LAYER
5
10
100
AcDbSymbolTableRecord
100
AcDbLayerTableRecord
2
0
70
0
62
7
6
CONTINUOUS
290
1
370
-3
390
0
0
LAYER
5
6D
100
AcDbSymbolTableRecord
100
AcDbLayerTableRecord
2
80
70
0
62
-6
6
CONTINUOUS
290
1
370
-3
390
0
0
LAYER
5
6F
100
AcDbSymbolTableRecord
100
AcDbLayerTableRecord
2
81
70
0
62
-3
6
CONTINUOUS
290
1
370
-3
390
0
0
LAYER
5
71
100
AcDbSymbolTableRecord
100
AcDbLayerTableRecord
2
4
70
0
62
-2
6
CENTER
290
1
370
-3
390
0
0
LAYER
5
77
100
AcDbSymbolTableRecord
100
AcDbLayerTableRecord
2
1
70
0
62
4
6
CONTINUOUS
290
1
370
-3
390
0
0
LAYER
5
24B
100
AcDbSymbolTableRecord
100
AcDbLayerTableRecord
2
2
70
0
62
7
6
CONTINUOUS
290
1
370
-3
390
0
0
LAYER
5
2d9
100
AcDbSymbolTableRecord
100
AcDbLayerTableRecord
2
SK4
70
0
62
2
6
CENTER
290
1
370
-3
390
0
0
LAYER
5
2da
100
AcDbSymbolTableRecord
100
AcDbLayerTableRecord
2
SK1
70
0
62
4
6
CONTINUOUS
290
1
370
-3
390
0
0
LAYER
5
2db
100
AcDbSymbolTableRecord
100
AcDbLayerTableRecord
2
SK6
70
0
62
5
6
CONTINUOUS
290
1
370
-3
390
0
0
LAYER
5
2dc
100
AcDbSymbolTableRecord
100
AcDbLayerTableRecord
2
SK2
70
0
62
7
6
CONTINUOUS
290
1
370
-3
390
0
0
ENDTAB
0
TABLE
2
STYLE
5
2f2
100
AcDbSymbolTable
0
STYLE
5
11
100
AcDbSymbolTableRecord
100
AcDbTextStyleTableRecord
2
Standard
3
txt
70
0
71
0
40
0
41
1
42
0
50
0
0
STYLE
5
246
100
AcDbSymbolTableRecord
100
AcDbTextStyleTableRecord
2
iso_b_vert
3
simplex.shx
70
0
71
0
40
0
41
1
42
0
50
0
0
STYLE
5
247
100
AcDbSymbolTableRecord
100
AcDbTextStyleTableRecord
2
DWGDirectTextStyle
3
simplex
70
0
71
0
40
0
41
1
42
0
50
0
0
ENDTAB
0
TABLE
2
DIMSTYLE
5
2f3
100
AcDbSymbolTable
100
AcDbDimStyleTable
0
DIMSTYLE
105
27
100
AcDbSymbolTableRecord
100
AcDbDimStyleTableRecord
2
Standard
70
0
3
<>
41
0.18
42
0.0625
44
0.18
140
0.18
147
0.09
73
0
74
0
77
1
271
2
275
0
278
52
280
0
340
11
0
ENDTAB
0
TABLE
2
VIEW
5
2f4
100
AcDbSymbolTable
0
ENDTAB
0
TABLE
2
UCS
5
2f5
100
AcDbSymbolTable
0
ENDTAB
0
TABLE
2
APPID
5
2f6
100
AcDbSymbolTable
0
APPID
5
12
100
AcDbSymbolTableRecord
100
AcDbRegAppTableRecord
2
ACAD
70
0
0
ENDTAB
0
TABLE
2
BLOCK_RECORD
5
2f7
100
AcDbSymbolTable
0
BLOCK_RECORD
5
1F
100
AcDbSymbolTableRecord
100
AcDbBlockTableRecord
2
*Model_Space
340
0
70
0
0
BLOCK_RECORD
5
1B
100
AcDbSymbolTableRecord
100
AcDbBlockTableRecord
2
*Paper_Space
340
0
70
0
0
BLOCK_RECORD
5
23
100
AcDbSymbolTableRecord
100
AcDbBlockTableRecord
2
*Paper_Space0
340
0
70
0
0
BLOCK_RECORD
5
249
100
AcDbSymbolTableRecord
100
AcDbBlockTableRecord
2
DimnDraft3D1
340
0
70
0
0
BLOCK_RECORD
5
254
100
AcDbSymbolTableRecord
100
AcDbBlockTableRecord
2
DimnDraft3D2
340
0
70
0
0
BLOCK_RECORD
5
25E
100
AcDbSymbolTableRecord
100
AcDbBlockTableRecord
2
DimnDraft3D3
340
0
70
0
0
BLOCK_RECORD
5
268
100
AcDbSymbolTableRecord
100
AcDbBlockTableRecord
2
DimnDraft3D4
340
0
70
0
0
ENDTAB
0
ENDSEC
0
SECTION
2
BLOCKS
0
BLOCK
5
20
100
AcDbEntity
8
0
100
AcDbBlockBegin
2
*Model_Space
70
0
10
0
20
0
30
0
3
*Model_Space
0
ENDBLK
5
21
100
AcDbEntity
8
0
100
AcDbBlockEnd
0
BLOCK
5
1C
100
AcDbEntity
8
0
100
AcDbBlockBegin
2
*Paper_Space
70
0
10
0
20
0
30
0
3
*Paper_Space
0
ENDBLK
5
1D
100
AcDbEntity
8
0
100
AcDbBlockEnd
0
BLOCK
5
24
100
AcDbEntity
8
0
100
AcDbBlockBegin
2
*Paper_Space0
70
0
10
0
20
0
30
0
3
*Paper_Space0
0
ENDBLK
5
25
100
AcDbEntity
8
0
100
AcDbBlockEnd
0
BLOCK
5
251
100
AcDbEntity
8
0
100
AcDbBlockBegin
2
DimnDraft3D1
70
0
10
0
20
0
30
0
3
DimnDraft3D1
0
MTEXT
5
24A
100
AcDbEntity
8
2
62
256
6
ByLayer
370
18
48
1
60
0
100
AcDbMText
10
201.424153
20
56.884329
30
0
210
0
220
0
230
1
1
\W0.7141;410.0
40
3
41
0
44
1.084337
50
0
71
7
72
5
7
iso_b_vert
0
LINE
5
24C
100
AcDbEntity
8
2
62
256
6
ByLayer
370
13
48
1
60
0
100
AcDbLine
10
0
20
41.7
30
0
11
0
21
58.134329
31
0
39
0
210
0
220
0
230
1
0
LINE
5
24D
100
AcDbEntity
8
2
62
256
6
ByLayer
370
13
48
1
60
0
100
AcDbLine
10
410.000937
20
46.488699
30
0
11
410.000937
21
58.134329
31
0
39
0
210
0
220
0
230
1
0
LINE
5
24E
100
AcDbEntity
8
2
62
256
6
ByLayer
370
13
48
1
60
0
100
AcDbLine
10
0
20
56.134329
30
0
11
410.000937
21
56.134329
31
0
39
0
210
0
220
0
230
1
0
SOLID
5
24F
100
AcDbEntity
8
2
62
256
6
ByLayer
370
13
48
1
60
0
100
AcDbTrace
10
0
20
56.134329
30
0
11
3.174998
21
56.552326
31
0
12
3.175002
22
55.716332
32
0
13
0
23
56.134329
33
0
39
0
210
0
220
0
230
1
0
SOLID
5
250
100
AcDbEntity
8
2
62
256
6
ByLayer
370
13
48
1
60
0
100
AcDbTrace
10
410.000937
20
56.134329
30
0
11
406.825939
21
55.716332
31
0
12
406.825935
22
56.552326
32
0
13
410.000937
23
56.134329
33
0
39
0
210
0
220
0
230
1
0
ENDBLK
5
252
100
AcDbEntity
8
0
100
AcDbBlockEnd
0
BLOCK
5
25B
100
AcDbEntity
8
0
100
AcDbBlockBegin
2
DimnDraft3D2
70
0
10
0
20
0
30
0
3
DimnDraft3D2
0
MTEXT
5
255
100
AcDbEntity
8
2
62
256
6
ByLayer
370
18
48
1
60
0
100
AcDbMText
10
448.441209
20
-11.320899
30
0
210
0
220
0
230
1
1
\W0.7071;Dc=89.0-116.0
40
3
41
0
44
1.084337
50
90
71
7
72
5
7
iso_b_vert
0
LINE
5
256
100
AcDbEntity
8
2
62
256
6
ByLayer
370
13
48
1
60
0
100
AcDbLine
10
412.000937
20
44.488699
30
0
11
451.191209
21
44.488699
31
0
39
0
210
0
220
0
230
1
0
LINE
5
257
100
AcDbEntity
8
2
62
256
6
ByLayer
370
13
48
1
60
0
100
AcDbLine
10
411.207187
20
-44.488392
30
0
11
451.191209
21
-44.488392
31
0
39
0
210
0
220
0
230
1
0
LINE
5
258
100
AcDbEntity
8
2
62
256
6
ByLayer
370
13
48
1
60
0
100
AcDbLine
10
449.191209
20
44.488699
30
0
11
449.191209
21
-44.488392
31
0
39
0
210
0
220
0
230
1
0
SOLID
5
259
100
AcDbEntity
8
2
62
256
6
ByLayer
370
13
48
1
60
0
100
AcDbTrace
10
449.191209
20
44.488699
30
0
11
449.609205
21
41.3137
31
0
12
448.773212
22
41.313697
32
0
13
449.191209
23
44.488699
33
0
39
0
210
0
220
0
230
1
0
SOLID
5
25A
100
AcDbEntity
8
2
62
256
6
ByLayer
370
13
48
1
60
0
100
AcDbTrace
10
449.191209
20
-44.488392
30
0
11
448.773212
21
-41.313394
31
0
12
449.609205
22
-41.313391
32
0
13
449.191209
23
-44.488392
33
0
39
0
210
0
220
0
230
1
0
ENDBLK
5
25C
100
AcDbEntity
8
0
100
AcDbBlockEnd
0
BLOCK
5
265
100
AcDbEntity
8
0
100
AcDbBlockBegin
2
DimnDraft3D3
70
0
10
0
20
0
30
0
3
DimnDraft3D3
0
MTEXT
5
25F
100
AcDbEntity
8
2
62
256
6
ByLayer
370
18
48
1
60
0
100
AcDbMText
10
424.146252
20
27.577294
30
0
210
0
220
0
230
1
1
\W0.5899;90%%d
40
3
41
0
44
1.084337
50
45
71
7
72
5
7
iso_b_vert
0
LINE
5
260
100
AcDbEntity
8
2
62
256
6
ByLayer
370
13
48
1
60
0
100
AcDbLine
10
410.000937
20
30.416336
30
0
11
410.000937
21
19.778281
31
0
39
0
210
0
220
0
230
1
0
LINE
5
261
100
AcDbEntity
8
2
62
256
6
ByLayer
370
13
48
1
60
0
100
AcDbLine
10
414.000937
20
44.488699
30
0
11
434.711354
21
44.488699
31
0
39
0
210
0
220
0
230
1
0
ARC
5
262
100
AcDbEntity
8
2
62
256
6
ByLayer
370
13
48
1
60
0
100
AcDbCircle
39
0
10
410.000937
20
44.488699
30
0
40
22.7104173960126
210
0
220
0
230
1
100
AcDbArc
50
270
51
0
0
SOLID
5
263
100
AcDbEntity
8
2
62
256
6
ByLayer
370
13
48
1
60
0
100
AcDbTrace
10
410.000937
20
21.778281
30
0
11
413.15942
21
22.30679
31
0
12
413.188588
22
21.471306
32
0
13
410.000937
23
21.778281
33
0
39
0
210
0
220
0
230
1
0
SOLID
5
264
100
AcDbEntity
8
2
62
256
6
ByLayer
370
13
48
1
60
0
100
AcDbTrace
10
432.711354
20
44.488699
30
0
11
433.01833
21
41.30105
31
0
12
432.182846
22
41.330213
32
0
13
432.711354
23
44.488699
33
0
39
0
210
0
220
0
230
1
0
ENDBLK
5
266
100
AcDbEntity
8
0
100
AcDbBlockEnd
0
BLOCK
5
271
100
AcDbEntity
8
0
100
AcDbBlockBegin
2
DimnDraft3D4
70
0
10
0
20
0
30
0
3
DimnDraft3D4
0
MTEXT
5
269
100
AcDbEntity
8
SK2
62
256
6
ByLayer
370
18
48
1
60
0
100
AcDbMText
10
-64.401502
20
1.164474
30
0
210
0
220
0
230
1
1
\W0.6337;80
40
3
41
0
44
1.084337
50
90
71
7
72
5
7
iso_b_vert
0
MTEXT
5
26B
100
AcDbEntity
8
SK2
62
256
6
ByLayer
370
18
48
1
60
0
100
AcDbMText
10
-64.401502
20
-3.248684
30
0
210
0
220
0
230
1
1
\W1.1719;%%c
40
3
41
0
44
1.084337
50
90
71
7
72
5
7
iso_b_vert
0
LINE
5
26C
100
AcDbEntity
8
SK2
62
256
6
ByLayer
370
13
48
1
60
0
100
AcDbLine
10
-1.7
20
40
30
0
11
-65.651502
21
40
31
0
39
0
210
0
220
0
230
1
0
LINE
5
26D
100
AcDbEntity
8
SK2
62
256
6
ByLayer
370
13
48
1
60
0
100
AcDbLine
10
-1.7
20
-40
30
0
11
-65.651502
21
-40
31
0
39
0
210
0
220
0
230
1
0
LINE
5
26E
100
AcDbEntity
8
SK2
62
256
6
ByLayer
370
13
48
1
60
0
100
AcDbLine
10
-63.651502
20
40
30
0
11
-63.651502
21
-40
31
0
39
0
210
0
220
0
230
1
0
SOLID
5
26F
100
AcDbEntity
8
SK2
62
256
6
ByLayer
370
13
48
1
60
0
100
AcDbTrace
10
-63.651502
20
40
30
0
11
-63.233506
21
36.825002
31
0
12
-64.069499
22
36.824998
32
0
13
-63.651502
23
40
33
0
39
0
210
0
220
0
230
1
0
SOLID
5
270
100
AcDbEntity
8
SK2
62
256
6
ByLayer
370
13
48
1
60
0
100
AcDbTrace
10
-63.651502
20
-40
30
0
11
-64.069499
21
-36.825002
31
0
12
-63.233506
22
-36.824998
32
0
13
-63.651502
23
-40
33
0
39
0
210
0
220
0
230
1
0
ENDBLK
5
272
100
AcDbEntity
8
0
100
AcDbBlockEnd
0
ENDSEC
0
SECTION
2
ENTITIES
0
ARC
5
15B
100
AcDbEntity
8
SK1
62
256
6
ByLayer
370
18
48
1
60
0
100
AcDbCircle
39
0
10
0.6
20
-29.6
30
0
40
1.00000000000001
210
0
220
0
230
-1
100
AcDbArc
50
113.578178
51
126.870857
0
ARC
5
15C
100
AcDbEntity
8
SK1
62
256
6
ByLayer
370
18
48
1
60
0
100
AcDbCircle
39
0
10
0.6
20
29.6
30
0
40
1.00000000000001
210
0
220
0
230
-1
100
AcDbArc
50
233.129143
51
246.421822
0
ARC
5
15D
100
AcDbEntity
8
1
62
256
6
ByLayer
370
18
48
1
60
0
100
AcDbCircle
39
0
10
-404.039188
20
17.500153
30
0
40
5.63825058181408
210
0
220
0
230
-1
100
AcDbArc
50
25.967712
51
76
0
ARC
5
15E
100
AcDbEntity
8
1
62
256
6
ByLayer
370
18
48
1
60
0
100
AcDbCircle
39
0
10
-404.039188
20
17.500153
30
0
40
5.63825058182109
210
0
220
0
230
-1
100
AcDbArc
50
0
51
9.79433
0
ARC
5
160
100
AcDbEntity
8
1
62
256
6
ByLayer
370
18
48
1
60
0
100
AcDbCircle
39
0
10
373.050212
20
37.5
30
0
40
1.25
210
0
220
0
230
1
100
AcDbArc
50
345
51
15
0
ARC
5
161
100
AcDbEntity
8
1
62
256
6
ByLayer
370
18
48
1
60
0
100
AcDbCircle
39
0
10
-373.050212
20
-37.5
30
0
40
0.9
210
0
220
0
230
-1
100
AcDbArc
50
352.477326
51
322.477326
0
ARC
5
162
100
AcDbEntity
8
1
62
256
6
ByLayer
370
18
48
1
60
0
100
AcDbCircle
39
0
10
373.050212
20
-37.5
30
0
40
1.15358983848623
210
0
220
0
230
1
100
AcDbArc
50
217.522674
51
187.522674
0
ARC
5
163
100
AcDbEntity
8
1
62
256
6
ByLayer
370
18
48
1
60
0
100
AcDbCircle
39
0
10
370.7
20
-39.7
30
0
40
0.3
210
0
220
0
230
1
100
AcDbArc
50
270
51
0
0
ARC
5
164
100
AcDbEntity
8
1
62
256
6
ByLayer
370
18
48
1
60
0
100
AcDbCircle
39
0
10
370.7
20
39.7
30
0
40
0.3
210
0
220
0
230
1
100
AcDbArc
50
0
51
90
0
ARC
5
165
100
AcDbEntity
8
1
62
256
6
ByLayer
370
18
48
1
60
0
100
AcDbCircle
39
0
10
373.050212
20
37.5
30
0
40
1.15358983848623
210
0
220
0
230
1
100
AcDbArc
50
15
51
345
0
ARC
5
166
100
AcDbEntity
8
1
62
256
6
ByLayer
370
18
48
1
60
0
100
AcDbCircle
39
0
10
373.050212
20
37.5
30
0
40
0.9
210
0
220
0
230
1
100
AcDbArc
50
15
51
345
0
ARC
5
167
100
AcDbEntity
8
1
62
256
6
ByLayer
370
18
48
1
60
0
100
AcDbCircle
39
0
10
379.5
20
25
30
0
40
8.00000000000457
210
0
220
0
230
1
100
AcDbArc
50
201.703704
51
270
0
CIRCLE
5
15F
100
AcDbEntity
8
1
62
256
6
ByLayer
370
18
48
1
60
0
100
AcDbCircle
10
-373.050212
20
37.5
30
0
40
1.5
39
0
210
0
220
0
230
-1
0
ELLIPSE
5
168
100
AcDbEntity
8
1
62
256
6
ByLayer
370
18
48
1
60
0
100
AcDbEllipse
10
403.308059
20
-35.667461
30
0
11
2.60000000000001
21
0
31
0
210
0
220
0
230
1
40
0.997185
41
0.0245088240689805
42
0.544676538066306
0
ELLIPSE
5
169
100
AcDbEntity
8
1
62
256
6
ByLayer
370
18
48
1
60
0
100
AcDbEllipse
10
388.468101
20
-15.268091
30
0
11
-1.74507280009014E-15
21
28.5001428359934
31
0
210
0
220
0
230
-1
40
0.139651
41
-2.28237047790881
42
-2.10700880436024
0
ELLIPSE
5
16A
100
AcDbEntity
8
1
62
256
6
ByLayer
370
18
48
1
60
0
100
AcDbEllipse
10
388.468101
20
-15.268091
30
0
11
-1.74507280009014E-15
21
28.5001428359934
31
0
210
0
220
0
230
-1
40
0.139651
41
-2.28237047790881
42
-2.10700880436024
0
ELLIPSE
5
16B
100
AcDbEntity
8
1
62
256
6
ByLayer
370
18
48
1
60
0
100
AcDbEllipse
10
403.308059
20
-35.540372
30
0
11
-3.50000000000002
21
4.28612223837835E-16
31
0
210
0
220
0
230
1
40
0.997185
41
-3.05747545725498
42
-1.0179265142234E-14
0
ELLIPSE
5
16C
100
AcDbEntity
8
1
62
256
6
ByLayer
370
13
48
1
60
0
100
AcDbEllipse
10
409.207187
20
-43.339791
30
0
11
-0.208988528699989
21
2.55928680121997E-17
31
0
210
0
220
0
230
1
40
0.997185
41
1.39626340159556
42
-3.14159265358973
0
ELLIPSE
5
16D
100
AcDbEntity
8
1
62
256
6
ByLayer
370
13
48
1
60
0
100
AcDbEllipse
10
409.207187
20
-43.696877
30
0
11
0.793750000000069
21
0
31
0
210
0
220
0
230
1
40
0.997185
41
-1.74532925199434
42
1.79539794634667E-14
0
ELLIPSE
5
16E
100
AcDbEntity
8
1
62
256
6
ByLayer
370
13
48
1
60
0
100
AcDbEllipse
10
398.094687
20
-41.742959
30
0
11
0.793750000000069
21
0
31
0
210
0
220
0
230
1
40
0.997185
41
-3.14159265358978
42
-1.74532925199434
0
ELLIPSE
5
16F
100
AcDbEntity
8
1
62
256
6
ByLayer
370
13
48
1
60
0
100
AcDbEllipse
10
409.207187
20
-32.444711
30
0
11
0.793750000000069
21
0
31
0
210
0
220
0
230
1
40
0.997185
41
0
42
1.39626340159545
0
ELLIPSE
5
170
100
AcDbEntity
8
1
62
256
6
ByLayer
370
13
48
1
60
0
100
AcDbEllipse
10
409.207187
20
-32.087625
30
0
11
-0.208988528699989
21
2.55928680121997E-17
31
0
210
0
220
0
230
1
40
0.997185
41
-3.14159265358976
42
-1.74532925199451
0
ELLIPSE
5
171
100
AcDbEntity
8
1
62
256
6
ByLayer
370
13
48
1
60
0
100
AcDbEllipse
10
398.094687
20
-41.385873
30
0
11
-0.208988528699989
21
2.55928680121997E-17
31
0
210
0
220
0
230
1
40
0.997185
41
0
42
1.39626340159556
0
ELLIPSE
5
172
100
AcDbEntity
8
1
62
256
6
ByLayer
370
18
48
1
60
0
100
AcDbEllipse
10
408.550937
20
-42.558029
30
0
11
0.8
21
0
31
0
210
0
220
0
230
1
40
0.997185
41
-1.7453292519943
42
-5.34411419967275E-14
0
ELLIPSE
5
173
100
AcDbEntity
8
1
62
256
6
ByLayer
370
18
48
1
60
0
100
AcDbEllipse
10
398.750937
20
-40.539098
30
0
11
-0.4
21
4.89842541528951E-17
31
0
210
0
220
0
230
1
40
0.997185
41
0.349086969560487
42
1.39626340159549
0
ELLIPSE
5
174
100
AcDbEntity
8
1
62
256
6
ByLayer
370
18
48
1
60
0
100
AcDbEllipse
10
398.750937
20
-40.834889
30
0
11
0.8
21
0
31
0
210
0
220
0
230
1
40
0.997185
41
3.14159265358979
42
-1.7453292519943
0
ELLIPSE
5
175
100
AcDbEntity
8
1
62
256
6
ByLayer
370
18
48
1
60
0
100
AcDbEllipse
10
408.550937
20
-32.361562
30
0
11
-0.8
21
9.79685083057902E-17
31
0
210
0
220
0
230
1
40
0.997185
41
3.14159265358974
42
-1.8234975703014
0
ELLIPSE
5
176
100
AcDbEntity
8
1
62
256
6
ByLayer
370
18
48
1
60
0
100
AcDbEllipse
10
408.550937
20
-42.284732
30
0
11
-0.8
21
9.79685083057902E-17
31
0
210
0
220
0
230
1
40
0.997185
41
1.39626340159542
42
3.14159265358974
0
ELLIPSE
5
177
100
AcDbEntity
8
1
62
256
6
ByLayer
370
18
48
1
60
0
100
AcDbEllipse
10
398.750937
20
-40.561591
30
0
11
0.7
21
0
31
0
210
0
220
0
230
1
40
0.997185
41
-3.05932182518715
42
-1.7453292519943
0
ELLIPSE
5
178
100
AcDbEntity
8
1
62
256
6
ByLayer
370
18
48
1
60
0
100
AcDbEllipse
10
408.550937
20
-42.262238
30
0
11
-0.4
21
4.89842541528951E-17
31
0
210
0
220
0
230
1
40
0.997185
41
1.39626340159549
42
3.14159265358972
0
ELLIPSE
5
179
100
AcDbEntity
8
1
62
256
6
ByLayer
370
18
48
1
60
0
100
AcDbEllipse
10
408.550937
20
-32.339069
30
0
11
-0.4
21
4.89842541528951E-17
31
0
210
0
220
0
230
1
40
0.997185
41
3.14159265358972
42
-2.09439498323864
0
ELLIPSE
5
17A
100
AcDbEntity
8
1
62
256
6
ByLayer
370
18
48
1
60
0
100
AcDbEllipse
10
398.750937
20
-40.561591
30
0
11
-0.8
21
9.79685083057902E-17
31
0
210
0
220
0
230
1
40
0.997185
41
0.0495890630146279
42
1.39626340159549
0
ELLIPSE
5
17B
100
AcDbEntity
8
1
62
256
6
ByLayer
370
18
48
1
60
0
100
AcDbEllipse
10
408.550937
20
-42.284732
30
0
11
0.7
21
0
31
0
210
0
220
0
230
1
40
0.997185
41
-1.74532925199447
42
-2.03585302844683E-14
0
ELLIPSE
5
17C
100
AcDbEntity
8
1
62
256
6
ByLayer
370
18
48
1
60
0
100
AcDbEllipse
10
408.550937
20
-32.361562
30
0
11
0.7
21
0
31
0
210
0
220
0
230
1
40
0.997185
41
0
42
1.28102759312395
0
ELLIPSE
5
17D
100
AcDbEntity
8
1
62
256
6
ByLayer
370
18
48
1
60
0
100
AcDbEllipse
10
403.650937
20
-35.966342
30
0
11
2.5
21
0
31
0
210
0
220
0
230
1
40
0.997185
41
0.725805976245024
42
-2.38849419709332
0
ELLIPSE
5
17E
100
AcDbEntity
8
1
62
256
6
ByLayer
370
18
48
1
60
0
100
AcDbEllipse
10
403.650937
20
-35.97384
30
0
11
-2
21
2.44921270764475E-16
31
0
210
0
220
0
230
1
40
0.997185
41
0
42
6.28318530717959
0
ELLIPSE
5
17F
100
AcDbEntity
8
1
62
256
6
ByLayer
370
18
48
1
60
0
100
AcDbEllipse
10
403.650937
20
-36.003832
30
0
11
3
21
0
31
0
210
0
220
0
230
1
40
0.997185
41
1.96241551870798
42
2.88417851163521
0
ELLIPSE
5
180
100
AcDbEntity
8
1
62
256
6
ByLayer
370
18
48
1
60
0
100
AcDbEllipse
10
403.650937
20
-35.966342
30
0
11
2.1
21
0
31
0
210
0
220
0
230
1
40
0.997185
41
-0.423329521602635
42
0
0
ELLIPSE
5
181
100
AcDbEntity
8
1
62
256
6
ByLayer
370
18
48
1
60
0
100
AcDbEllipse
10
403.650937
20
-35.966342
30
0
11
2.1
21
0
31
0
210
0
220
0
230
1
40
0.997185
41
0
42
-1.36561105436409
0
ELLIPSE
5
182
100
AcDbEntity
8
1
62
256
6
ByLayer
370
18
48
1
60
0
100
AcDbEllipse
10
397.423137
20
-12
30
0
11
-1.60814287233912E-15
21
10
31
0
210
0
220
0
230
1
40
0.104528
41
-2.58204237319359
42
-0.559543894220136
0
ELLIPSE
5
183
100
AcDbEntity
8
1
62
256
6
ByLayer
370
13
48
1
60
0
100
AcDbEllipse
10
403.650937
20
37.042569
30
0
11
-3.87386517135003
21
4.74395990268646E-16
31
0
210
0
220
0
230
1
40
0.99956
41
0
42
6.28318530717959
0
ELLIPSE
5
184
100
AcDbEntity
8
1
62
256
6
ByLayer
370
13
48
1
60
0
100
AcDbEllipse
10
403.650937
20
37.076532
30
0
11
-4.07132534818233
21
4.98577088986218E-16
31
0
210
0
220
0
230
1
40
0.99956
41
0
42
6.28318530717959
0
ELLIPSE
5
185
100
AcDbEntity
8
1
62
256
6
ByLayer
370
13
48
1
60
0
100
AcDbEllipse
10
398.094687
20
30.457765
30
0
11
-0.793750000000021
21
9.72031293346538E-17
31
0
210
0
220
0
230
1
40
0.99956
41
0
42
1.74532925199435
0
ELLIPSE
5
186
100
AcDbEntity
8
1
62
256
6
ByLayer
370
13
48
1
60
0
100
AcDbEllipse
10
398.094687
20
41.736727
30
0
11
-0.793750000000021
21
9.72031293346538E-17
31
0
210
0
220
0
230
1
40
0.99956
41
-1.39626340159544
42
1.79113199920736E-14
0
ELLIPSE
5
187
100
AcDbEntity
8
1
62
256
6
ByLayer
370
13
48
1
60
0
100
AcDbEllipse
10
403.650937
20
37.051843
30
0
11
4.01313034289947
21
0
31
0
210
0
220
0
230
1
40
0.99956
41
0
42
6.28318530717959
0
ELLIPSE
5
188
100
AcDbEntity
8
1
62
256
6
ByLayer
370
13
48
1
60
0
100
AcDbEllipse
10
409.207187
20
32.416336
30
0
11
-0.793750000000021
21
9.72031293346538E-17
31
0
210
0
220
0
230
1
40
0.99956
41
1.74532925199435
42
3.14159265358979
0
ELLIPSE
5
189
100
AcDbEntity
8
1
62
256
6
ByLayer
370
13
48
1
60
0
100
AcDbEllipse
10
409.207187
20
43.695298
30
0
11
-0.793750000000021
21
9.72031293346538E-17
31
0
210
0
220
0
230
1
40
0.99956
41
3.14159265358979
42
-1.39626340159544
0
ELLIPSE
5
18A
100
AcDbEntity
8
1
62
256
6
ByLayer
370
18
48
1
60
0
100
AcDbEllipse
10
403.650937
20
-36.037849
30
0
11
-1.6
21
1.9593701661158E-16
31
0
210
0
220
0
230
1
40
0.997185
41
0
42
6.28318530717959
0
ELLIPSE
5
18B
100
AcDbEntity
8
1
62
256
6
ByLayer
370
18
48
1
60
0
100
AcDbEllipse
10
403.650937
20
-36.067841
30
0
11
2
21
0
31
0
210
0
220
0
230
1
40
0.997185
41
0.0238563990897977
42
3.11783441956641
0
ELLIPSE
5
18C
100
AcDbEntity
8
1
62
256
6
ByLayer
370
18
48
1
60
0
100
AcDbEllipse
10
407.368356
20
-12
30
0
11
-1.1148450462491E-15
21
6.9325
31
0
210
0
220
0
230
1
40
0.104528
41
-2.42638939399087
42
-0.78530002409775
0
ELLIPSE
5
18D
100
AcDbEntity
8
1
62
256
6
ByLayer
370
18
48
1
60
0
100
AcDbEllipse
10
406.373834
20
-12
30
0
11
-1.4571284852544E-15
21
-7.9325
31
0
210
0
220
0
230
1
40
0.104528
41
0
42
-3.14159230321668
0
ELLIPSE
5
18E
100
AcDbEntity
8
1
62
256
6
ByLayer
370
18
48
1
60
0
100
AcDbEllipse
10
407.668356
20
12
30
0
11
-8.59037571757271E-16
21
-4.67653718043597
31
0
210
0
220
0
230
1
40
0.104528
41
2.66195104369532
42
-2.57403671228761
0
ELLIPSE
5
18F
100
AcDbEntity
8
1
62
256
6
ByLayer
370
18
48
1
60
0
100
AcDbEllipse
10
407.668356
20
12
30
0
11
-8.59037571757271E-16
21
-4.67653718043597
31
0
210
0
220
0
230
1
40
0.104528
41
1.61475349249877
42
2.66195104369532
0
ELLIPSE
5
190
100
AcDbEntity
8
1
62
256
6
ByLayer
370
18
48
1
60
0
100
AcDbEllipse
10
407.668356
20
12
30
0
11
-8.59037571757271E-16
21
-4.67653718043597
31
0
210
0
220
0
230
1
40
0.104528
41
-1.52683916109102
42
-0.479641609894485
0
ELLIPSE
5
191
100
AcDbEntity
8
1
62
256
6
ByLayer
370
18
48
1
60
0
100
AcDbEllipse
10
406.673834
20
12
30
0
11
-1.4571284852544E-15
21
-7.9325
31
0
210
0
220
0
230
1
40
0.104528
41
-3.14149411014497
42
-2.14233553171306E-15
0
ELLIPSE
5
192
100
AcDbEntity
8
1
62
256
6
ByLayer
370
18
48
1
60
0
100
AcDbEllipse
10
407.668356
20
12
30
0
11
-8.59037571757271E-16
21
-4.67653718043597
31
0
210
0
220
0
230
1
40
0.104528
41
0.567555941302186
42
1.61475349249877
0
ELLIPSE
5
193
100
AcDbEntity
8
1
62
256
6
ByLayer
370
18
48
1
60
0
100
AcDbEllipse
10
407.668356
20
12
30
0
11
-1.1148450462491E-15
21
6.9325
31
0
210
0
220
0
230
1
40
0.104528
41
0
42
6.28318530717959
0
ELLIPSE
5
194
100
AcDbEntity
8
1
62
256
6
ByLayer
370
18
48
1
60
0
100
AcDbEllipse
10
407.668356
20
12
30
0
11
-8.59037571757271E-16
21
-4.67653718043597
31
0
210
0
220
0
230
1
40
0.104528
41
-0.479641609894485
42
0.567555941302186
0
ELLIPSE
5
195
100
AcDbEntity
8
1
62
256
6
ByLayer
370
18
48
1
60
0
100
AcDbEllipse
10
407.668356
20
12
30
0
11
-8.59037571757271E-16
21
-4.67653718043597
31
0
210
0
220
0
230
1
40
0.104528
41
-2.57403671228761
42
-1.52683916109102
0
ELLIPSE
5
196
100
AcDbEntity
8
1
62
256
6
ByLayer
370
18
48
1
60
0
100
AcDbEllipse
10
403.650937
20
37.01323
30
0
11
1.2903
21
0
31
0
210
0
220
0
230
1
40
0.99956
41
2.96705972839036
42
-2.39372454961317
0
ELLIPSE
5
197
100
AcDbEntity
8
1
62
256
6
ByLayer
370
18
48
1
60
0
100
AcDbEllipse
10
403.650937
20
37.074045
30
0
11
1.6764
21
0
31
0
210
0
220
0
230
1
40
0.99956
41
1.39626340159546
42
2.44346095279204
0
ELLIPSE
5
198
100
AcDbEntity
8
1
62
256
6
ByLayer
370
18
48
1
60
0
100
AcDbEllipse
10
403.650937
20
37.01323
30
0
11
-1.2903
21
1.58010957833701E-16
31
0
210
0
220
0
230
1
40
0.99956
41
-2.26892802759264
42
-1.22173047639605
0
ELLIPSE
5
199
100
AcDbEntity
8
1
62
256
6
ByLayer
370
18
48
1
60
0
100
AcDbEllipse
10
403.650937
20
37.074045
30
0
11
1.6764
21
0
31
0
210
0
220
0
230
1
40
0.99956
41
-0.698131700797711
42
0.349065850398867
0
ELLIPSE
5
19A
100
AcDbEntity
8
1
62
256
6
ByLayer
370
18
48
1
60
0
100
AcDbEllipse
10
403.650937
20
37.074045
30
0
11
1.6764
21
0
31
0
210
0
220
0
230
1
40
0.99956
41
-2.79252680319092
42
-1.7453292519943
0
ELLIPSE
5
19B
100
AcDbEntity
8
1
62
256
6
ByLayer
370
18
48
1
60
0
100
AcDbEllipse
10
403.650937
20
37.01323
30
0
11
1.2903
21
0
31
0
210
0
220
0
230
1
40
0.99956
41
1.91986217719375
42
2.83699418070072
0
ELLIPSE
5
19C
100
AcDbEntity
8
1
62
256
6
ByLayer
370
18
48
1
60
0
100
AcDbEllipse
10
402.190172
20
37.270689
30
0
11
0.0684531957761644
21
0.387938658070953
31
0
210
0
220
0
230
-1
40
0.489926
41
1.57069926001182
42
2.85256268586324
0
ELLIPSE
5
19D
100
AcDbEntity
8
1
62
256
6
ByLayer
370
18
48
1
60
0
100
AcDbEllipse
10
403.650937
20
37.072089
30
0
11
-3.425
21
4.19427676184164E-16
31
0
210
0
220
0
230
1
40
0.99956
41
0
42
6.28318530717959
0
ELLIPSE
5
19E
100
AcDbEntity
8
1
62
256
6
ByLayer
370
18
48
1
60
0
100
AcDbEllipse
10
403.908527
20
38.473451
30
0
11
0.388115982357809
21
-0.0683862093433295
31
0
210
0
220
0
230
-1
40
0.489521
41
2.94579404795297
42
-0.189478893555353
0
ELLIPSE
5
19F
100
AcDbEntity
8
1
62
256
6
ByLayer
370
18
48
1
60
0
100
AcDbEllipse
10
403.650937
20
37.01323
30
0
11
1.2903
21
0
31
0
210
0
220
0
230
1
40
0.99956
41
-1.05602746961857
42
-0.174532925199459
0
ELLIPSE
5
1A0
100
AcDbEntity
8
1
62
256
6
ByLayer
370
18
48
1
60
0
100
AcDbEllipse
10
403.650937
20
37.026579
30
0
11
-3.425
21
4.19427676184164E-16
31
0
210
0
220
0
230
1
40
0.99956
41
0
42
3.14159264592717
0
ELLIPSE
5
1A1
100
AcDbEntity
8
1
62
256
6
ByLayer
370
18
48
1
60
0
100
AcDbEllipse
10
403.650937
20
37.074045
30
0
11
1.6764
21
0
31
0
210
0
220
0
230
1
40
0.99956
41
-1.7453292519943
42
-0.698131700797711
0
ELLIPSE
5
1A2
100
AcDbEntity
8
1
62
256
6
ByLayer
370
18
48
1
60
0
100
AcDbEllipse
10
405.044877
20
37.520359
30
0
11
0.134823216998074
21
-0.370157822321206
31
0
210
0
220
0
230
-1
40
0.489889
41
2.94587951519263
42
-0.920085792944737
0
ELLIPSE
5
1A3
100
AcDbEntity
8
1
62
256
6
ByLayer
370
18
48
1
60
0
100
AcDbEllipse
10
404.604384
20
38.149003
30
0
11
0.301932748847845
21
-0.253169818890001
31
0
210
0
220
0
230
-1
40
0.489686
41
0.289212170205027
42
1.57107559607398
0
ELLIPSE
5
1A4
100
AcDbEntity
8
1
62
256
6
ByLayer
370
18
48
1
60
0
100
AcDbEllipse
10
403.650937
20
37.01323
30
0
11
1.2903
21
0
31
0
210
0
220
0
230
1
40
0.99956
41
-2.1505945731826
42
-1.34310740039888
0
ELLIPSE
5
1A5
100
AcDbEntity
8
1
62
256
6
ByLayer
370
18
48
1
60
0
100
AcDbEllipse
10
404.787287
20
36.060138
30
0
11
0.253363886396321
21
0.301730586882823
31
0
210
0
220
0
230
-1
40
0.489761
41
-0.196174880449623
42
0.402789835094125
0
ELLIPSE
5
1A6
100
AcDbEntity
8
1
62
256
6
ByLayer
370
18
48
1
60
0
100
AcDbEllipse
10
403.650937
20
37.074045
30
0
11
1.6764
21
0
31
0
210
0
220
0
230
1
40
0.99956
41
0.349065850398867
42
1.39626340159546
0
ELLIPSE
5
1A7
100
AcDbEntity
8
1
62
256
6
ByLayer
370
18
48
1
60
0
100
AcDbEllipse
10
402.256997
20
36.5061
30
0
11
0.134823216998091
21
-0.370157822321219
31
0
210
0
220
0
230
-1
40
0.489889
41
2.22150656677179
42
-2.94551470892125
0
ELLIPSE
5
1A8
100
AcDbEntity
8
1
62
256
6
ByLayer
370
18
48
1
60
0
100
AcDbEllipse
10
402.514587
20
37.966321
30
0
11
0.253363886396347
21
0.301730586882829
31
0
210
0
220
0
230
-1
40
0.489761
41
-2.73880403729519
42
0.195616202615715
0
ELLIPSE
5
1A9
100
AcDbEntity
8
1
62
256
6
ByLayer
370
18
48
1
60
0
100
AcDbEllipse
10
403.143619
20
38.406462
30
0
11
0.370344882874746
21
0.134697779889905
31
0
210
0
220
0
230
-1
40
0.489558
41
1.57061412419666
42
2.85247755006515
0
ELLIPSE
5
1AA
100
AcDbEntity
8
1
62
256
6
ByLayer
370
18
48
1
60
0
100
AcDbEllipse
10
403.650937
20
37.074045
30
0
11
1.6764
21
0
31
0
210
0
220
0
230
1
40
0.99956
41
2.44346095279204
42
-2.79252680319092
0
ELLIPSE
5
1AB
100
AcDbEntity
8
1
62
256
6
ByLayer
370
18
48
1
60
0
100
AcDbEllipse
10
405.111702
20
36.755771
30
0
11
0.0684531957751165
21
0.387938658064504
31
0
210
0
220
0
230
-1
40
0.489926
41
-2.85275681944712
42
-1.96260228197417
0
ELLIPSE
5
1AC
100
AcDbEntity
8
1
62
256
6
ByLayer
370
18
48
1
60
0
100
AcDbEllipse
10
404.604384
20
38.149003
30
0
11
0.301932748853436
21
-0.253169818894553
31
0
210
0
220
0
230
-1
40
0.489686
41
1.57107559607499
42
2.85293902192723
0
ELLIPSE
5
1AD
100
AcDbEntity
8
1
62
256
6
ByLayer
370
18
48
1
60
0
100
AcDbEllipse
10
403.650937
20
37.01323
30
0
11
1.2903
21
0
31
0
210
0
220
0
230
1
40
0.99956
41
-0.120536744565459
42
0.872664625997159
0
ELLIPSE
5
1AE
100
AcDbEntity
8
1
62
256
6
ByLayer
370
18
48
1
60
0
100
AcDbEllipse
10
403.650937
20
37.074045
30
0
11
-2.4
21
2.93905524917371E-16
31
0
210
0
220
0
230
1
40
0.99956
41
0
42
6.28318530717959
0
ELLIPSE
5
1AF
100
AcDbEntity
8
1
62
256
6
ByLayer
370
18
48
1
60
0
100
AcDbEllipse
10
404.039188
20
17.500153
30
0
11
5.63825058463663
21
5.69823624317474E-15
31
0
210
0
220
0
230
-1
40
1
41
-2.85904365566711
42
-2.68837058007401
0
ELLIPSE
5
1B0
100
AcDbEntity
8
1
62
256
6
ByLayer
370
18
48
1
60
0
100
AcDbEllipse
10
394.208842
20
33.023633
30
0
11
0.278487522109071
21
1.82810435470004
31
0
210
0
220
0
230
-1
40
0.421396
41
0
42
6.28318530717959
0
ELLIPSE
5
1B1
100
AcDbEntity
8
1
62
256
6
ByLayer
370
18
48
1
60
0
100
AcDbEllipse
10
393.641683
20
25.638645
30
0
11
0.0379557603180919
21
-1.99991444461851
31
0
210
0
220
0
230
-1
40
0.487384
41
0.707381349338029
42
1.58004597533263
0
ELLIPSE
5
1B2
100
AcDbEntity
8
1
62
256
6
ByLayer
370
18
48
1
60
0
100
AcDbEllipse
10
394.939845
20
37.000153
30
0
11
0.0948894007961515
21
-4.99978611151619
31
0
210
0
220
0
230
-1
40
0.487384
41
1.58004597533324
42
2.46024291680475
0
ELLIPSE
5
1B3
100
AcDbEntity
8
1
62
256
6
ByLayer
370
18
48
1
60
0
100
AcDbEllipse
10
394.23663
20
52.833039
30
0
11
8.64348611616485
21
-8.84614517859513
31
0
210
0
220
0
230
-1
40
0.940983
41
0.698666226457114
42
0.769314437509954
0
ELLIPSE
5
1B4
100
AcDbEntity
8
1
62
256
6
ByLayer
370
18
48
1
60
0
100
AcDbEllipse
10
285.712329
20
37.000153
30
0
11
143.181267674664
21
4.99780470278821
31
0
210
0
220
0
230
-1
40
0.001035
41
-0.853756201908583
42
-0.720233863028805
0
ELLIPSE
5
1B5
100
AcDbEntity
8
1
62
256
6
ByLayer
370
18
48
1
60
0
100
AcDbEllipse
10
397.272708
20
30.367636
30
0
11
1.6
21
0
31
0
210
0
220
0
230
1
40
0.99956
41
2.97888068228609
42
3.06688134720208
0
ELLIPSE
5
1B6
100
AcDbEntity
8
1
62
256
6
ByLayer
370
18
48
1
60
0
100
AcDbEllipse
10
397.272708
20
30.364669
30
0
11
-1.5
21
1.83690953073357E-16
31
0
210
0
220
0
230
1
40
0.99956
41
-0.177725125316876
42
0.35394838762621
0
ELLIPSE
5
1B7
100
AcDbEntity
8
1
62
256
6
ByLayer
370
18
48
1
60
0
100
AcDbEllipse
10
397.367453
20
31.346863
30
0
11
1.74151216462639
21
0
31
0
210
0
220
0
230
1
40
0.99956
41
1.74532925199434
42
-2.86143051998277
0
ELLIPSE
5
1B8
100
AcDbEntity
8
1
62
256
6
ByLayer
370
18
48
1
60
0
100
AcDbEllipse
10
397.367453
20
31.105083
30
0
11
-1.64151216462638
21
2.01020622667819E-16
31
0
210
0
220
0
230
1
40
0.99956
41
-1.39626340159545
42
0.293918115557338
0
ELLIPSE
5
1B9
100
AcDbEntity
8
1
62
256
6
ByLayer
370
18
48
1
60
0
100
AcDbEllipse
10
397.272708
20
30.606449
30
0
11
-1.6
21
1.9593701661158E-16
31
0
210
0
220
0
230
1
40
0.99956
41
-0.162711971303705
42
2.57261900163208
0
ELLIPSE
5
1BA
100
AcDbEntity
8
1
62
256
6
ByLayer
370
18
48
1
60
0
100
AcDbEllipse
10
397.367453
20
31.10805
30
0
11
1.74151216462639
21
0
31
0
210
0
220
0
230
1
40
0.99956
41
1.74532925199431
42
3.07292726062351
0
ELLIPSE
5
1BB
100
AcDbEntity
8
1
62
256
6
ByLayer
370
18
48
1
60
0
100
AcDbEllipse
10
394.23663
20
52.756138
30
0
11
12
21
0
31
0
210
0
220
0
230
1
40
0.99956
41
-1.46524153040568
42
-1.39626340159547
0
ELLIPSE
5
1BC
100
AcDbEntity
8
1
62
256
6
ByLayer
370
18
48
1
60
0
100
AcDbEllipse
10
394.177321
20
37.048118
30
0
11
0.242536748986849
21
1.73416897702193
31
0
210
0
220
0
230
-1
40
0.452512
41
0
42
6.28318530717959
0
ELLIPSE
5
1BD
100
AcDbEntity
8
1
62
256
6
ByLayer
370
18
48
1
60
0
100
AcDbEllipse
10
386.894969
20
-39.998793
30
0
11
0.999996502512433
21
-0.0352180852448288
31
0
210
0
220
0
230
-1
40
0.075098
41
-0.726956441912358
42
2.15283682387805
0
ELLIPSE
5
1BE
100
AcDbEntity
8
1
62
256
6
ByLayer
370
18
48
1
60
0
100
AcDbEllipse
10
251.294586
20
-15.268091
30
0
11
161.631930912882
21
-28.42466576496
31
0
210
0
220
0
230
-1
40
0.012824
41
-0.459533624304738
42
-0.246285458516278
0
ELLIPSE
5
1BF
100
AcDbEntity
8
1
62
256
6
ByLayer
370
18
48
1
60
0
100
AcDbEllipse
10
384.000937
20
-40.476412
30
0
11
2.02499291758752
21
-0.0713166226207684
31
0
210
0
220
0
230
-1
40
0.075098
41
0
42
6.28318530717959
0
ELLIPSE
5
1C0
100
AcDbEntity
8
1
62
256
6
ByLayer
370
18
48
1
60
0
100
AcDbEllipse
10
409.387102
20
-15.268091
30
0
11
0.227092030864733
21
-28.5001328983259
31
0
210
0
220
0
230
-1
40
0.104802
41
0.364331299393865
42
0.526463712156115
0
ELLIPSE
5
1C1
100
AcDbEntity
8
1
62
256
6
ByLayer
370
18
48
1
60
0
100
AcDbEllipse
10
403.308059
20
-35.270471
30
0
11
2.48780361935736
21
-2.66089183057419
31
0
210
0
220
0
230
-1
40
0.925207
41
2.94240479616346
42
-0.864277153832128
0
ELLIPSE
5
1C2
100
AcDbEntity
8
1
62
256
6
ByLayer
370
18
48
1
60
0
100
AcDbEllipse
10
441.096934
20
-15.26809
30
0
11
33.9488325795484
21
28.4724935244221
31
0
210
0
220
0
230
-1
40
0.03697
41
-2.86656585306521
42
-2.82214897129015
0
ELLIPSE
5
1C3
100
AcDbEntity
8
1
62
256
6
ByLayer
370
18
48
1
60
0
100
AcDbEllipse
10
280.860565
20
-36.999846
30
0
11
143.181266682124
21
-4.98595981862606
31
0
210
0
220
0
230
-1
40
0.002615
41
0.678814507994518
42
0.810707895066044
0
ELLIPSE
5
1C4
100
AcDbEntity
8
1
62
256
6
ByLayer
370
18
48
1
60
0
100
AcDbEllipse
10
421.698244
20
-15.268091
30
0
11
3.2712706901418
21
-28.3248335839441
31
0
210
0
220
0
230
-1
40
0.964841
41
1.00497513089584
42
1.14555670955824
0
ELLIPSE
5
1C5
100
AcDbEntity
8
1
62
256
6
ByLayer
370
18
48
1
60
0
100
AcDbEllipse
10
388.478827
20
-15.268091
30
0
11
-1.74507280100896E-15
21
28.5001428509994
31
0
210
0
220
0
230
-1
40
0.141431
41
-2.5734903754096
42
-2.28237670706572
0
ELLIPSE
5
1C6
100
AcDbEntity
8
1
62
256
6
ByLayer
370
18
48
1
60
0
100
AcDbEllipse
10
403.308059
20
-35.540372
30
0
11
2.60000000000001
21
0
31
0
210
0
220
0
230
1
40
0.997185
41
0
42
6.28318530717959
0
ELLIPSE
5
1C7
100
AcDbEntity
8
1
62
256
6
ByLayer
370
18
48
1
60
0
100
AcDbEllipse
10
421.698244
20
-15.268091
30
0
11
3.27127269526702
21
-28.3248331072587
31
0
210
0
220
0
230
-1
40
0.964841
41
0.636601572459295
42
0.701642865107386
0
ELLIPSE
5
1C8
100
AcDbEntity
8
1
62
256
6
ByLayer
370
18
48
1
60
0
100
AcDbEllipse
10
394.23663
20
-52.857997
30
0
11
8.87913463185892
21
9.4144940117756
31
0
210
0
220
0
230
-1
40
0.857426
41
-0.798056570128668
42
-0.752517522141094
0
ELLIPSE
5
1C9
100
AcDbEntity
8
1
62
256
6
ByLayer
370
18
48
1
60
0
100
AcDbEllipse
10
-332.619407
20
-15.268064
30
0
11
816.138119489262
21
-28.4201405878831
31
0
210
0
220
0
230
-1
40
0.002615
41
-0.493143951117306
42
-0.471085818726147
0
ELLIPSE
5
1CA
100
AcDbEntity
8
1
62
256
6
ByLayer
370
18
48
1
60
0
100
AcDbEllipse
10
394.23663
20
-52.709755
30
0
11
-12
21
1.46952762458685E-15
31
0
210
0
220
0
230
1
40
0.997185
41
-1.74532925199432
42
-1.65124195959379
0
ELLIPSE
5
1CB
100
AcDbEntity
8
1
62
256
6
ByLayer
370
18
48
1
60
0
100
AcDbEllipse
10
388.6785
20
0
30
0
11
-2.51044302535549E-15
21
41.0000000003203
31
0
210
0
220
0
230
-1
40
0.139651
41
-2.54335668091584
42
-2.4544757338992
0
ELLIPSE
5
1CC
100
AcDbEntity
8
1
62
256
6
ByLayer
370
18
48
1
60
0
100
AcDbEllipse
10
388.6785
20
0
30
0
11
-2.51044302535549E-15
21
41.0000000003203
31
0
210
0
220
0
230
-1
40
0.139651
41
-2.92027821124227
42
-2.90708292234795
0
ELLIPSE
5
1CD
100
AcDbEntity
8
1
62
256
6
ByLayer
370
18
48
1
60
0
100
AcDbEllipse
10
361
20
14.984264
30
0
11
2
21
0
31
0
210
0
220
0
230
1
40
0.927184
41
0
42
6.28318530717959
0
ELLIPSE
5
1CE
100
AcDbEntity
8
1
62
256
6
ByLayer
370
18
48
1
60
0
100
AcDbEllipse
10
361
20
-37.087354
30
0
11
1.99999999999997
21
0
31
0
210
0
220
0
230
1
40
0.374607
41
0
42
6.28318530717959
0
ELLIPSE
5
1CF
100
AcDbEntity
8
1
62
256
6
ByLayer
370
18
48
1
60
0
100
AcDbEllipse
10
409.294067
20
0
30
0
11
-31.1158255693156
21
35.7827591770006
31
0
210
0
220
0
230
1
40
0.574537
41
0.523857488772558
42
0.845666479051103
0
ELLIPSE
5
1D0
100
AcDbEntity
8
1
62
256
6
ByLayer
370
18
48
1
60
0
100
AcDbEllipse
10
409.294067
20
0
30
0
11
4.68581336926539E-14
21
40.0000000000025
31
0
210
0
220
0
230
1
40
0.932352
41
1.30899693899577
42
2.43378613707313
0
ELLIPSE
5
1D1
100
AcDbEntity
8
1
62
256
6
ByLayer
370
18
48
1
60
0
100
AcDbEllipse
10
388.6785
20
0
30
0
11
4.68581336935093E-14
21
40.0000000007327
31
0
210
0
220
0
230
1
40
0.139651
41
2.43378613707943
42
2.9528044677105
0
ELLIPSE
5
1D2
100
AcDbEntity
8
1
62
256
6
ByLayer
370
18
48
1
60
0
100
AcDbEllipse
10
380.123402
20
0.000124
30
0
11
-7.23215987478236
21
39.3408940130114
31
0
210
0
220
0
230
1
40
0.999998
41
3.13586654785828
42
-3.1346077591253
0
ELLIPSE
5
1D3
100
AcDbEntity
8
1
62
256
6
ByLayer
370
18
48
1
60
0
100
AcDbEllipse
10
-6.763884
20
0
30
0
11
18.7348357595633
21
39.4834983054995
31
0
210
0
220
0
230
1
40
0.341999
41
-1.0879467671693
42
-0.161099005228965
0
ELLIPSE
5
1D4
100
AcDbEntity
8
1
62
256
6
ByLayer
370
18
48
1
60
0
100
AcDbEllipse
10
30.763884
20
0
30
0
11
-18.7348357595629
21
39.483498305499
31
0
210
0
220
0
230
1
40
0.341999
41
0.161099005228965
42
1.08794676716931
0
ELLIPSE
5
1D5
100
AcDbEntity
8
1
62
256
6
ByLayer
370
18
48
1
60
0
100
AcDbEllipse
10
-6.763884
20
0
30
0
11
-18.7348357595629
21
39.4834983054989
31
0
210
0
220
0
230
1
40
0.341999
41
-2.98049364836083
42
-2.05364588642048
0
ELLIPSE
5
1D6
100
AcDbEntity
8
1
62
256
6
ByLayer
370
18
48
1
60
0
100
AcDbEllipse
10
30.763884
20
0
30
0
11
18.7348357595634
21
39.4834983054996
31
0
210
0
220
0
230
1
40
0.341999
41
2.0536458864205
42
2.98049364836083
0
POINT
5
6C
100
AcDbEntity
8
80
62
256
6
ByLayer
370
13
48
1
60
0
100
AcDbPoint
10
0
20
0
30
0
39
0
210
0
220
0
230
1
50
360
0
POINT
5
6E
100
AcDbEntity
8
81
62
256
6
ByLayer
370
18
48
1
60
0
100
AcDbPoint
10
410.000937
20
44.488699
30
0
39
0
210
0
220
0
230
1
50
360
0
SPLINE
5
1D7
100
AcDbEntity
8
1
62
256
6
ByLayer
370
18
48
1
60
0
100
AcDbSpline
70
4
71
2
72
6
73
3
40
0
40
0
40
0
40
1
40
1
40
1
41
0.500000876768344
10
387.344409728519
20
-39.8776209962345
30
0
41
0.499999123231656
10
387.34623929152
20
-39.877714489346
30
0
41
0.500000876768344
10
387.348068631609
20
-39.8778079747943
30
0
0
SPLINE
5
1D8
100
AcDbEntity
8
1
62
256
6
ByLayer
370
18
48
1
60
0
100
AcDbSpline
70
4
71
3
72
8
73
4
40
0
40
0
40
0
40
0
40
1
40
1
40
1
40
1
41
1
10
400.709916392702
20
-35.615110722773
30
0
41
1
10
400.714359708732
20
-35.4919856545565
30
0
41
1
10
400.727733169049
20
-35.3678639774042
30
0
41
1
10
400.749841211719
20
-35.2420168256469
30
0
0
SPLINE
5
1D9
100
AcDbEntity
8
1
62
256
6
ByLayer
370
18
48
1
60
0
100
AcDbSpline
70
4
71
3
72
12
73
8
40
0
40
0
40
0
40
0
40
0.235720591450101
40
0.485163493072733
40
0.737541132918702
40
0.992699254608547
40
1
40
1
40
1
40
1
41
1
10
402.505945663833
20
-33.2387334114688
30
0
41
1
10
402.7776227204
20
-33.1519094496142
30
0
41
1
10
403.33028681657
20
-33.0603183916852
30
0
41
1
10
404.193416191248
20
-33.1998439060677
30
0
41
1
10
404.968218435099
20
-33.6195913281331
30
0
41
1
10
405.36976007287
20
-34.0641457552111
30
0
41
1
10
405.527470383885
20
-34.3170249183985
30
0
41
1
10
405.531826319726
20
-34.3240854822818
30
0
0
SPLINE
5
1DA
100
AcDbEntity
8
1
62
256
6
ByLayer
370
18
48
1
60
0
100
AcDbSpline
70
4
71
3
72
8
73
4
40
0
40
0
40
0
40
0
40
1
40
1
40
1
40
1
41
1
10
400.709916392702
20
-35.615110722773
30
0
41
1
10
400.714359708732
20
-35.4919856545565
30
0
41
1
10
400.727733169049
20
-35.3678639774042
30
0
41
1
10
400.749841211719
20
-35.2420168256469
30
0
0
SPLINE
5
1DB
100
AcDbEntity
8
1
62
256
6
ByLayer
370
18
48
1
60
0
100
AcDbSpline
70
4
71
3
72
12
73
8
40
0
40
0
40
0
40
0
40
0.235720591450101
40
0.485163493072733
40
0.737541132918702
40
0.992699254608547
40
1
40
1
40
1
40
1
41
1
10
402.505945663833
20
-33.2387334114688
30
0
41
1
10
402.7776227204
20
-33.1519094496142
30
0
41
1
10
403.33028681657
20
-33.0603183916852
30
0
41
1
10
404.193416191248
20
-33.1998439060677
30
0
41
1
10
404.968218435099
20
-33.6195913281331
30
0
41
1
10
405.36976007287
20
-34.0641457552111
30
0
41
1
10
405.527470383885
20
-34.3170249183985
30
0
41
1
10
405.531826319726
20
-34.3240854822818
30
0
0
SPLINE
5
1DC
100
AcDbEntity
8
SK1
62
256
6
ByLayer
370
18
48
1
60
0
100
AcDbSpline
70
4
71
2
72
6
73
3
40
0
40
0
40
0
40
1
40
1
40
1
41
1
10
-46.5
20
-26.3937603074471
30
0
41
1
10
-24.349999999999
20
-26.9499706126624
30
0
41
1
10
-2.19999999999999
20
-27.506180857905
30
0
0
SPLINE
5
1DD
100
AcDbEntity
8
SK1
62
256
6
ByLayer
370
18
48
1
60
0
100
AcDbSpline
70
4
71
2
72
6
73
3
40
0
40
0
40
0
40
1
40
1
40
1
41
1
10
-2.19999999999999
20
27.5061808177903
30
0
41
1
10
-24.349999999999
20
26.9499705725249
30
0
41
1
10
-46.5
20
26.3937602673102
30
0
0
SPLINE
5
1DE
100
AcDbEntity
8
SK1
62
256
6
ByLayer
370
18
48
1
60
0
100
AcDbSpline
70
4
71
3
72
13
73
9
40
0
40
0
40
0
40
0
40
0.239456135589017
40
0.368359721696244
40
0.499998983755028
40
0.631638415030047
40
0.76054246757783
40
1
40
1
40
1
40
1
41
1
10
-2.19999999999999
20
-27.5200986636549
30
0
41
1
10
-2.19909198642051
20
-27.4940411875707
30
0
41
1
10
-2.19103284106728
20
-27.4566686032803
30
0
41
1
10
-2.16563592203039
20
-27.4104494295044
30
0
41
1
10
-2.13886378678808
20
-27.3791678756855
30
0
41
1
10
-2.10627712749323
20
-27.3540005055177
30
0
41
1
10
-2.05884064232885
20
-27.3309567030813
30
0
41
1
10
-2.02111030872419
20
-27.3247844480697
30
0
41
1
10
-1.99503997793931
20
-27.3251860880175
30
0
0
SPLINE
5
1DF
100
AcDbEntity
8
SK1
62
256
6
ByLayer
370
18
48
1
60
0
100
AcDbSpline
70
4
71
3
72
13
73
9
40
0
40
0
40
0
40
0
40
0.23945753242716
40
0.368361584976481
40
0.500001016252312
40
0.631640278310556
40
0.760543864416139
40
1
40
1
40
1
40
1
41
1
10
-1.99503997793926
20
27.3251860847968
30
0
41
1
10
-2.02111030872419
20
27.3247844448489
30
0
41
1
10
-2.05884064232873
20
27.33095669986
30
0
41
1
10
-2.10627712749317
20
27.3540005022953
30
0
41
1
10
-2.13886378678791
20
27.3791678724618
30
0
41
1
10
-2.16563592203022
20
27.4104494262793
30
0
41
1
10
-2.19103284106723
20
27.4566686000527
30
0
41
1
10
-2.19909198642046
20
27.4940411843415
30
0
41
1
10
-2.19999999999993
20
27.5200986604247
30
0
0
SPLINE
5
1E0
100
AcDbEntity
8
SK1
62
256
6
ByLayer
370
18
48
1
60
0
100
AcDbSpline
70
4
71
2
72
6
73
3
40
0
40
0
40
0
40
1
40
1
40
1
41
1
10
-1.99503997793931
20
-27.3251858139979
30
0
41
1
10
-1.19500843340728
20
-27.3452852646243
30
0
41
1
10
-0.394976888875249
20
-27.3653847152514
30
0
0
SPLINE
5
1E1
100
AcDbEntity
8
SK1
62
256
6
ByLayer
370
18
48
1
60
0
100
AcDbSpline
70
4
71
2
72
6
73
3
40
0
40
0
40
0
40
1
40
1
40
1
41
1
10
-0.394976888875306
20
27.3653847121227
30
0
41
1
10
-1.19500843340728
20
27.3452852614965
30
0
41
1
10
-1.99503997793931
20
27.3251858108711
30
0
0
SPLINE
5
1E2
100
AcDbEntity
8
SK1
62
256
6
ByLayer
370
18
48
1
60
0
100
AcDbSpline
70
4
71
2
72
6
73
3
40
0
40
0
40
0
40
1
40
1
40
1
41
1
10
-48
20
-25.5410840926423
30
0
41
1
10
-47.2499999994058
20
-25.9740938984543
30
0
41
1
10
-46.5
20
-26.407103720226
30
0
0
SPLINE
5
1E3
100
AcDbEntity
8
SK1
62
256
6
ByLayer
370
18
48
1
60
0
100
AcDbSpline
70
4
71
2
72
6
73
3
40
0
40
0
40
0
40
1
40
1
40
1
41
1
10
-46.5
20
26.4071037337152
30
0
41
1
10
-47.249999999406
20
25.9740939119355
30
0
41
1
10
-48
20
25.5410841061085
30
0
0
SPLINE
5
1E4
100
AcDbEntity
8
SK1
62
256
6
ByLayer
370
18
48
1
60
0
100
AcDbSpline
70
4
71
2
72
6
73
3
40
0
40
0
40
0
40
1
40
1
40
1
41
1
10
-0.241994084393639
20
27.3724299991456
30
0
41
1
10
-0.267024100700382
20
27.38641982782
30
0
41
1
10
-0.394976888875306
20
27.3653849865938
30
0
0
SPLINE
5
1E5
100
AcDbEntity
8
SK1
62
256
6
ByLayer
370
18
48
1
60
0
100
AcDbSpline
70
4
71
2
72
6
73
3
40
0
40
0
40
0
40
1
40
1
40
1
41
1
10
-0.394976888875249
20
-27.3653849898142
30
0
41
1
10
-0.267024105978066
20
-27.3864192541247
30
0
41
1
10
-0.241994090375556
20
-27.3724291363865
30
0
0
SPLINE
5
1E6
100
AcDbEntity
8
1
62
256
6
ByLayer
370
18
48
1
60
0
100
AcDbSpline
70
4
71
3
72
18
73
14
40
0
40
0
40
0
40
0
40
0.11583427892118
40
0.233874554188677
40
0.353071988157434
40
0.474433384825346
40
0.600467423745774
40
0.7397768761161
40
0.817797170726121
40
0.870766846061319
40
0.922449249355871
40
0.974047759224605
40
1
40
1
40
1
40
1
41
1
10
408.291627914291
20
15.6535708177398
30
0
41
1
10
408.275096771231
20
15.9155404231216
30
0
41
1
10
408.23833082396
20
16.420879835063
30
0
41
1
10
408.17222092523
20
17.1159210995901
30
0
41
1
10
408.094997989537
20
17.7395008139713
30
0
41
1
10
408.005815510867
20
18.2870955906645
30
0
41
1
10
407.896477274361
20
18.770629725431
30
0
41
1
10
407.777811105126
20
19.1299448841852
30
0
41
1
10
407.610961774215
20
19.4324467131124
30
0
41
1
10
407.413621765099
20
19.658478256599
30
0
41
1
10
407.162810244447
20
19.8305422964077
30
0
41
1
10
406.896314833123
20
19.9269261883881
30
0
41
1
10
406.729473763306
20
19.9248675668874
30
0
41
1
10
406.671984692921
20
19.9192248268215
30
0
0
SPLINE
5
1E7
100
AcDbEntity
8
1
62
256
6
ByLayer
370
18
48
1
60
0
100
AcDbSpline
70
4
71
3
72
10
73
6
40
0
40
0
40
0
40
0
40
0.281746743914672
40
0.842435194955593
40
1
40
1
40
1
40
1
41
1
10
408.282847565065
20
8.23830641154063
30
0
41
1
10
408.29214811911
20
8.36640240937595
30
0
41
1
10
408.317938362628
20
8.75832174693358
30
0
41
1
10
408.342765002208
20
9.25858435883129
30
0
41
1
10
408.354940914225
20
9.63410375897899
30
0
41
1
10
408.357384341632
20
9.7173729372256
30
0
0
SPLINE
5
1E8
100
AcDbEntity
8
1
62
256
6
ByLayer
370
18
48
1
60
0
100
AcDbSpline
70
4
71
3
72
19
73
15
40
0
40
0
40
0
40
0
40
0.0413172073919761
40
0.0924679700607669
40
0.141380598192696
40
0.192585246599125
40
0.251758897358013
40
0.329354182006975
40
0.449138531316511
40
0.574004287789365
40
0.692712983565958
40
0.817744125378603
40
0.939683344060747
40
1
40
1
40
1
40
1
41
1
10
406.679311579888
20
4.08019217075525
30
0
41
1
10
406.770970633162
20
4.07598287381427
30
0
41
1
10
406.964899681207
20
4.08938769350982
30
0
41
1
10
407.23597214729
20
4.21090066521504
30
0
41
1
10
407.454613790786
20
4.38338346957084
30
0
41
1
10
407.611066354276
20
4.57461320994923
30
0
41
1
10
407.730360394284
20
4.78264140859073
30
0
41
1
10
407.839595743371
20
5.04967493362335
30
0
41
1
10
407.939799964171
20
5.4033813464182
30
0
41
1
10
408.035022215228
20
5.87688319605616
30
0
41
1
10
408.120077643399
20
6.44415057230151
30
0
41
1
10
408.193985670148
20
7.09584227704374
30
0
41
1
10
408.248591782694
20
7.70469865306916
30
0
41
1
10
408.274745374182
20
8.10290991340798
30
0
41
1
10
408.282847565065
20
8.23830641154063
30
0
0
SPLINE
5
1E9
100
AcDbEntity
8
1
62
256
6
ByLayer
370
18
48
1
60
0
100
AcDbSpline
70
4
71
3
72
17
73
13
40
0
40
0
40
0
40
0
40
0.115631832945531
40
0.272553694097509
40
0.43430670857228
40
0.608523548115079
40
0.716025867735306
40
0.787739500021234
40
0.856136699850651
40
0.923175331552376
40
0.990470714536476
40
1
40
1
40
1
40
1
41
1
10
407.871280019892
20
-6.92088074163701
30
0
41
1
10
407.853926510567
20
-6.75183038940315
30
0
41
1
10
407.810466328835
20
-6.3740418173727
30
0
41
1
10
407.73144571011
20
-5.85590365391477
30
0
41
1
10
407.629406341549
20
-5.3566441972672
30
0
41
1
10
407.519463039236
20
-4.98497068910388
30
0
41
1
10
407.386998070824
20
-4.69423824877197
30
0
41
1
10
407.233751002062
20
-4.47005251573876
30
0
41
1
10
407.032441613913
20
-4.27254247896087
30
0
41
1
10
406.754387844297
20
-4.12465931743429
30
0
41
1
10
406.513954891545
20
-4.05605361024152
30
0
41
1
10
406.387873169326
20
-4.0714830593455
30
0
41
1
10
406.372158428124
20
-4.07390366071854
30
0
0
SPLINE
5
1EA
100
AcDbEntity
8
1
62
256
6
ByLayer
370
18
48
1
60
0
100
AcDbSpline
70
4
71
3
72
17
73
13
40
0
40
0
40
0
40
0
40
0.0381783889536921
40
0.111275887868723
40
0.179527337778254
40
0.249250243859427
40
0.327439953546684
40
0.426152177952289
40
0.571130607421993
40
0.749508307472799
40
0.916561276868557
40
1
40
1
40
1
40
1
41
1
10
406.372341133696
20
-19.9192436378171
30
0
41
1
10
406.432094813932
20
-19.9248542574773
30
0
41
1
10
406.600959757331
20
-19.9258833350848
30
0
41
1
10
406.86126895754
20
-19.8302824303767
30
0
41
1
10
407.101102169563
20
-19.6675688169709
30
0
41
1
10
407.272520435118
20
-19.4793926291292
30
0
41
1
10
407.399406020823
20
-19.278338578524
30
0
41
1
10
407.508664471777
20
-19.0351411846267
30
0
41
1
10
407.610686594255
20
-18.7129096570707
30
0
41
1
10
407.706895050617
20
-18.2761014722714
30
0
41
1
10
407.781567832334
20
-17.8314326378004
30
0
41
1
10
407.819440168067
20
-17.5227499648225
30
0
41
1
10
407.831495296509
20
-17.4154902840298
30
0
0
SPLINE
5
1EB
100
AcDbEntity
8
1
62
256
6
ByLayer
370
18
48
1
60
0
100
AcDbSpline
70
4
71
3
72
10
73
6
40
0
40
0
40
0
40
0
40
0.5
40
0.5
40
1
40
1
40
1
40
1
41
1
10
408.156715280741
20
12.2055011255164
30
0
41
1
10
407.90034219855
20
11.5272309948419
30
0
41
1
10
407.721815983297
20
10.8325753614498
30
0
41
1
10
407.64611025792
20
9.42166414852193
30
0
41
1
10
407.748749326009
20
8.7340886163073
30
0
41
1
10
407.931138600656
20
8.05666270341067
30
0
0
SPLINE
5
1EC
100
AcDbEntity
8
1
62
256
6
ByLayer
370
18
48
1
60
0
100
AcDbSpline
70
4
71
3
72
8
73
4
40
0
40
0
40
0
40
0
40
1
40
1
40
1
40
1
41
1
10
407.931138600657
20
8.05666270341078
30
0
41
1
10
407.707923454884
20
8.03160979499091
30
0
41
1
10
407.526047149509
20
8.00583027219056
30
0
41
1
10
407.414327670646
20
7.97986158330298
30
0
0
SPLINE
5
1ED
100
AcDbEntity
8
1
62
256
6
ByLayer
370
18
48
1
60
0
100
AcDbSpline
70
4
71
3
72
10
73
6
40
0
40
0
40
0
40
0
40
0.5
40
0.5
40
1
40
1
40
1
40
1
41
1
10
408.156715280741
20
12.2055011255163
30
0
41
1
10
407.894259650217
20
12.8501750393521
30
0
41
1
10
407.709503945746
20
13.5104228457853
30
0
41
1
10
407.621145539293
20
14.8514485117813
30
0
41
1
10
407.717618610652
20
15.5049669100777
30
0
41
1
10
407.893932907689
20
16.1488384221057
30
0
0
SPLINE
5
1EE
100
AcDbEntity
8
1
62
256
6
ByLayer
370
18
48
1
60
0
100
AcDbSpline
70
4
71
3
72
8
73
4
40
0
40
0
40
0
40
0
40
1
40
1
40
1
40
1
41
1
10
407.893932907689
20
16.1488384221055
30
0
41
1
10
407.697257257085
20
16.1267642163167
30
0
41
1
10
407.532674742905
20
16.10412590824
30
0
41
1
10
407.419897989055
20
16.0812911334218
30
0
0
SPLINE
5
1EF
100
AcDbEntity
8
1
62
256
6
ByLayer
370
18
48
1
60
0
100
AcDbSpline
70
4
71
3
72
8
73
4
40
0
40
0
40
0
40
0
40
1
40
1
40
1
40
1
41
1
10
403.019181076699
20
35.7148211647051
30
0
41
1
10
403.020194562942
20
35.7212985445804
30
0
41
1
10
403.021208178646
20
35.727776811426
30
0
41
1
10
403.022221928856
20
35.7342559998987
30
0
0
SPLINE
5
1F0
100
AcDbEntity
8
1
62
256
6
ByLayer
370
18
48
1
60
0
100
AcDbSpline
70
4
71
3
72
26
73
22
40
0
40
0
40
0
40
0
40
0.061121235079714
40
0.061121235079714
40
0.145349009858797
40
0.145349009858797
40
0.228936526328754
40
0.228936526328754
40
0.391532191220772
40
0.391532191220772
40
0.475817926908345
40
0.475817926908345
40
0.589557559273631
40
0.589557559273631
40
0.70314906037655
40
0.70314906037655
40
0.816673845780387
40
0.816673845780387
40
0.930168712116273
40
0.930168712116273
40
1
40
1
40
1
40
1
41
1
10
403.780560265361
20
35.5806285607183
30
0
41
1
10
403.782533015328
20
35.5715582441195
30
0
41
1
10
403.783321647539
20
35.562196617684
30
0
41
1
10
403.781819534537
20
35.540271880731
30
0
41
1
10
403.778175248879
20
35.5274861048807
30
0
41
1
10
403.766027079118
20
35.5042058954299
30
0
41
1
10
403.757453026026
20
35.493389679814
30
0
41
1
10
403.728260710393
20
35.4658225956628
30
0
41
1
10
403.703349652817
20
35.4519822011304
30
0
41
1
10
403.66395646228
20
35.4364322563744
30
0
41
1
10
403.649900368337
20
35.4319719153179
30
0
41
1
10
403.616391320014
20
35.4232517114132
30
0
41
1
10
403.596666388297
20
35.4195741702259
30
0
41
1
10
403.556970884689
20
35.4143578606639
30
0
41
1
10
403.536921518104
20
35.4128098885701
30
0
41
1
10
403.496792234091
20
35.4115048228483
30
0
41
1
10
403.476661657218
20
35.4117470149528
30
0
41
1
10
403.436510655394
20
35.4138226994029
30
0
41
1
10
403.416452183107
20
35.4156586536296
30
0
41
1
10
403.38424216173
20
35.4198248045773
30
0
41
1
10
403.372011176352
20
35.4216940536414
30
0
41
1
10
403.359833220205
20
35.4238404107667
30
0
0
SPLINE
5
1F1
100
AcDbEntity
8
1
62
256
6
ByLayer
370
18
48
1
60
0
100
AcDbSpline
70
4
71
3
72
8
73
4
40
0
40
0
40
0
40
0
40
1
40
1
40
1
40
1
41
1
10
404.991948388758
20
36.4508622550738
30
0
41
1
10
404.996961995047
20
36.4465758793885
30
0
41
1
10
405.00197493612
20
36.4422901343834
30
0
41
1
10
405.006987236937
20
36.4380049963186
30
0
0
SPLINE
5
1F2
100
AcDbEntity
8
1
62
256
6
ByLayer
370
18
48
1
60
0
100
AcDbSpline
70
4
71
3
72
26
73
22
40
0
40
0
40
0
40
0
40
0.0611212350797038
40
0.0611212350797038
40
0.145349009858834
40
0.145349009858834
40
0.228936526328756
40
0.228936526328756
40
0.391532191220721
40
0.391532191220721
40
0.475817926908378
40
0.475817926908378
40
0.589557559273623
40
0.589557559273623
40
0.703149060376474
40
0.703149060376474
40
0.81667384578036
40
0.81667384578036
40
0.93016871211621
40
0.93016871211621
40
1
40
1
40
1
40
1
41
1
10
405.006987236937
20
36.4380049963186
30
0
41
1
10
405.015971258461
20
36.4352577904106
30
0
41
1
10
405.024618444862
20
36.4313415386091
30
0
41
1
10
405.043191082593
20
36.4192681358289
30
0
41
1
10
405.05263424585
20
36.4098288699404
30
0
41
1
10
405.067066632889
20
36.3878668734963
30
0
41
1
10
405.072304428921
20
36.3751253167608
30
0
41
1
10
405.081981483875
20
36.3362960507219
30
0
41
1
10
405.081709938306
20
36.3079228727592
30
0
41
1
10
405.075711082778
20
36.2661773527823
30
0
41
1
10
405.072614031278
20
36.2518179974567
30
0
41
1
10
405.063551167203
20
36.2185297066252
30
0
41
1
10
405.05693838549
20
36.1996527723039
30
0
41
1
10
405.041715567626
20
36.1627433106191
30
0
41
1
10
405.033074266039
20
36.1446380642589
30
0
41
1
10
405.014208695578
20
36.109287294896
30
0
41
1
10
405.003959773089
20
36.0919975947491
30
0
41
1
10
404.98212515234
20
36.0583016147892
30
0
41
1
10
404.97051832068
20
36.0418636438833
30
0
41
1
10
404.950815355572
20
36.0160710099718
30
0
41
1
10
404.943082526052
20
36.006419218233
30
0
41
1
10
404.93513392969
20
35.9969506193056
30
0
0
SPLINE
5
1F3
100
AcDbEntity
8
1
62
256
6
ByLayer
370
18
48
1
60
0
100
AcDbSpline
70
4
71
3
72
24
73
20
40
0
40
0
40
0
40
0
40
0.158126111965986
40
0.158126111965986
40
0.27156339360726
40
0.27156339360726
40
0.385066230469757
40
0.385066230469757
40
0.498714519310266
40
0.498714519310266
40
0.612721087896027
40
0.612721087896027
40
0.746221642583568
40
0.746221642583568
40
0.824913378297493
40
0.824913378297493
40
0.908986128606032
40
0.908986128606032
40
1
40
1
40
1
40
1
41
1
10
402.366740120801
20
38.1511403547495
30
0
41
1
10
402.348750672534
20
38.1297108013025
30
0
41
1
10
402.331844183059
20
38.1073009575979
30
0
41
1
10
402.305018223532
20
38.067372847139
30
0
41
1
10
402.294448565519
20
38.0502150259942
30
0
41
1
10
402.27487269684
20
38.0150801995903
30
0
41
1
10
402.265842992692
20
37.9970625175285
30
0
41
1
10
402.249726328308
20
37.9602577073634
30
0
41
1
10
402.242610159992
20
37.941406034266
30
0
41
1
10
402.230977931571
20
37.9030550687248
30
0
41
1
10
402.2264268294
20
37.8834316392749
30
0
41
1
10
402.220701493021
20
37.8408292364503
30
0
41
1
10
402.220168374372
20
37.8173456878518
30
0
41
1
10
402.226023549796
20
37.7820932858976
30
0
41
1
10
402.229754477909
20
37.7692613552953
30
0
41
1
10
402.241073641975
20
37.7453091250306
30
0
41
1
10
402.249100340947
20
37.7340974590398
30
0
41
1
10
402.269127156042
20
37.7156059154677
30
0
41
1
10
402.281676527935
20
37.7084389950542
30
0
41
1
10
402.294886813554
20
37.7039274272378
30
0
0
SPLINE
5
1F4
100
AcDbEntity
8
1
62
256
6
ByLayer
370
18
48
1
60
0
100
AcDbSpline
70
4
71
3
72
24
73
20
40
0
40
0
40
0
40
0
40
0.158126111965972
40
0.158126111965972
40
0.271563393607288
40
0.271563393607288
40
0.385066230469757
40
0.385066230469757
40
0.49871451931028
40
0.49871451931028
40
0.612721087896033
40
0.612721087896033
40
0.746221642583571
40
0.746221642583571
40
0.824913378297477
40
0.824913378297477
40
0.908986128606059
40
0.908986128606059
40
1
40
1
40
1
40
1
41
1
10
405.226237734731
20
37.6471556955663
30
0
41
1
10
405.235809720224
20
37.6208684567231
30
0
41
1
10
405.244033014228
20
37.5940295044574
30
0
41
1
10
405.255594742517
20
37.5473355881218
30
0
41
1
10
405.259665187973
20
37.5275974579321
30
0
41
1
10
405.266062603256
20
37.4878848565367
30
0
41
1
10
405.268397750268
20
37.4678641265928
30
0
41
1
10
405.270986956057
20
37.4277624185537
30
0
41
1
10
405.271246426392
20
37.407610793775
30
0
41
1
10
405.269111364496
20
37.3675859585965
30
0
41
1
10
405.266707453388
20
37.3475840880697
30
0
41
1
10
405.257601176058
20
37.305577573965
30
0
41
1
10
405.250127622707
20
37.2833172726252
30
0
41
1
10
405.232686267788
20
37.2521708695179
30
0
41
1
10
405.224842083306
20
37.2413790452432
30
0
41
1
10
405.206129819665
20
37.2227198352574
30
0
41
1
10
405.194820965847
20
37.2149160483066
30
0
41
1
10
405.169825874188
20
37.2043595875337
30
0
41
1
10
405.155664792608
20
37.2019003677752
30
0
41
1
10
405.141788214071
20
37.2021628427605
30
0
0
SPLINE
5
1F5
100
AcDbEntity
8
1
62
256
6
ByLayer
370
18
48
1
60
0
100
AcDbSpline
70
4
71
3
72
8
73
4
40
0
40
0
40
0
40
0
40
1
40
1
40
1
40
1
41
1
10
404.858420073693
20
37.921588579499
30
0
41
1
10
404.864735542205
20
37.9238401693128
30
0
41
1
10
404.871050172767
20
37.9260915223364
30
0
41
1
10
404.877363996821
20
37.9283426473785
30
0
0
SPLINE
5
1F6
100
AcDbEntity
8
1
62
256
6
ByLayer
370
18
48
1
60
0
100
AcDbSpline
70
4
71
3
72
8
73
4
40
0
40
0
40
0
40
0
40
1
40
1
40
1
40
1
41
1
10
402.807444714512
20
38.2830716988952
30
0
41
1
10
402.802243056463
20
38.2873531750347
30
0
41
1
10
402.79704208858
20
38.2916341450545
30
0
41
1
10
402.791841784967
20
38.295914627869
30
0
0
SPLINE
5
1F7
100
AcDbEntity
8
1
62
256
6
ByLayer
370
18
48
1
60
0
100
AcDbSpline
70
4
71
3
72
8
73
4
40
0
40
0
40
0
40
0
40
1
40
1
40
1
40
1
41
1
10
402.443453976798
20
36.2196862237261
30
0
41
1
10
402.437138508287
20
36.2176537470881
30
0
41
1
10
402.430823877724
20
36.2156216020784
30
0
41
1
10
402.42451005367
20
36.213589776178
30
0
0
SPLINE
5
1F8
100
AcDbEntity
8
1
62
256
6
ByLayer
370
18
48
1
60
0
100
AcDbSpline
70
4
71
3
72
26
73
22
40
0
40
0
40
0
40
0
40
0.0611212350797867
40
0.0611212350797867
40
0.145349009858884
40
0.145349009858884
40
0.228936526328821
40
0.228936526328821
40
0.391532191220748
40
0.391532191220748
40
0.475817926908304
40
0.475817926908304
40
0.589557559273564
40
0.589557559273564
40
0.703149060376431
40
0.703149060376431
40
0.816673845780297
40
0.816673845780297
40
0.930168712116137
40
0.930168712116137
40
1
40
1
40
1
40
1
41
1
10
402.791841784967
20
38.295914627869
30
0
41
1
10
402.787416928326
20
38.3044138545002
30
0
41
1
10
402.781895550846
20
38.3123812066751
30
0
41
1
10
402.766402294084
20
38.3288799021419
30
0
41
1
10
402.755249192725
20
38.3367153476585
30
0
41
1
10
402.730722693573
20
38.3474293499049
30
0
41
1
10
402.717085005464
20
38.3505192338341
30
0
41
1
10
402.676706155567
20
38.3536733723867
30
0
41
1
10
402.648579894601
20
38.348662788503
30
0
41
1
10
402.608236124895
20
38.33572338904
30
0
41
1
10
402.59455084048
20
38.3302447055895
30
0
41
1
10
402.563172460896
20
38.3156731139977
30
0
41
1
10
402.545650282602
20
38.3059462212524
30
0
41
1
10
402.511809010882
20
38.2846526211416
30
0
41
1
10
402.495423521494
20
38.2730426598163
30
0
41
1
10
402.463792722954
20
38.2483984741564
30
0
41
1
10
402.448508104593
20
38.235332364769
30
0
41
1
10
402.419056319349
20
38.2080251315473
30
0
41
1
10
402.404861572417
20
38.1937577236193
30
0
41
1
10
402.38285776416
20
38.169894876596
30
0
41
1
10
402.374688717163
20
38.1606089536768
30
0
41
1
10
402.366740120801
20
38.1511403547495
30
0
0
SPLINE
5
1F9
100
AcDbEntity
8
1
62
256
6
ByLayer
370
18
48
1
60
0
100
AcDbSpline
70
4
71
3
72
24
73
20
40
0
40
0
40
0
40
0
40
0.158126111966083
40
0.158126111966083
40
0.271563393607406
40
0.271563393607406
40
0.385066230469867
40
0.385066230469867
40
0.498714519310413
40
0.498714519310413
40
0.612721087896142
40
0.612721087896142
40
0.746221642583634
40
0.746221642583634
40
0.824913378297577
40
0.824913378297577
40
0.908986128606095
40
0.908986128606095
40
1
40
1
40
1
40
1
41
1
10
403.359833220205
20
35.4238404107667
30
0
41
1
10
403.332271786445
20
35.4286980961631
30
0
41
1
10
403.30491778973
20
35.434979908787
30
0
41
1
10
403.258721017262
20
35.4482492448528
30
0
41
1
10
403.239607638792
20
35.4545547710396
30
0
41
1
10
403.202063007138
20
35.4687669859993
30
0
41
1
10
403.183587634453
20
35.4766896425526
30
0
41
1
10
403.147644922831
20
35.4943324743593
30
0
41
1
10
403.130113796842
20
35.5040830677501
30
0
41
1
10
403.096647356719
20
35.5256947022799
30
0
41
1
10
403.080605686431
20
35.5376274540173
30
0
41
1
10
403.048994422595
20
35.5661147491728
30
0
41
1
10
403.033598832922
20
35.5834475313061
30
0
41
1
10
403.015645632512
20
35.6135793134919
30
0
41
1
10
403.010350429572
20
35.6255355590699
30
0
41
1
10
403.003844006981
20
35.6505371696085
30
0
41
1
10
403.002914629279
20
35.6639212916944
30
0
41
1
10
403.00664889883
20
35.6901734469496
30
0
41
1
10
403.011810896204
20
35.7032942378559
30
0
41
1
10
403.019181076699
20
35.7148211647051
30
0
0
SPLINE
5
1FA
100
AcDbEntity
8
1
62
256
6
ByLayer
370
18
48
1
60
0
100
AcDbSpline
70
4
71
3
72
30
73
26
40
0
40
0
40
0
40
0
40
0.0728681126381063
40
0.0728681126381063
40
0.127812593477841
40
0.127812593477841
40
0.19909239789355
40
0.19909239789355
40
0.288874798004157
40
0.288874798004157
40
0.393641276926408
40
0.393641276926408
40
0.499915621932911
40
0.499915621932911
40
0.631623646297731
40
0.631623646297731
40
0.734868911743522
40
0.734868911743522
40
0.796951047610502
40
0.796951047610502
40
0.859105215562984
40
0.859105215562984
40
0.921420364650275
40
0.921420364650275
40
1
40
1
40
1
40
1
41
1
10
405.123144432368
20
37.1945845060437
30
0
41
1
10
405.106007486096
20
37.187618837426
30
0
41
1
10
405.089898481058
20
37.1769794772028
30
0
41
1
10
405.064201251337
20
37.1550339616408
30
0
41
1
10
405.053815638575
20
37.1443867440468
30
0
41
1
10
405.03155316202
20
37.1182527926289
30
0
41
1
10
405.020049975206
20
37.1021593621911
30
0
41
1
10
404.996298291782
20
37.0640572452501
30
0
41
1
10
404.984526143364
20
37.0414326057396
30
0
41
1
10
404.961963843469
20
36.9908202613166
30
0
41
1
10
404.951574216948
20
36.9623560408726
30
0
41
1
10
404.934087045417
20
36.9039509343445
30
0
41
1
10
404.926982842265
20
36.8737915932907
30
0
41
1
10
404.915017331349
20
36.8059616765629
30
0
41
1
10
404.911025554484
20
36.7678691518173
30
0
41
1
10
404.909142556741
20
36.7007693178016
30
0
41
1
10
404.910115675736
20
36.671344925175
30
0
41
1
10
404.915061951496
20
36.6253563307856
30
0
41
1
10
404.917697580194
20
36.6082643406689
30
0
41
1
10
404.924750676257
20
36.5748676380633
30
0
41
1
10
404.929182617494
20
36.5584933696574
30
0
41
1
10
404.940199066595
20
36.5269988461399
30
0
41
1
10
404.946822113305
20
36.5117767022897
30
0
41
1
10
404.964756120038
20
36.4799393971323
30
0
41
1
10
404.977060537384
20
36.4635906027864
30
0
41
1
10
404.991948388758
20
36.4508622550737
30
0
0
SPLINE
5
1FB
100
AcDbEntity
8
1
62
256
6
ByLayer
370
18
48
1
60
0
100
AcDbSpline
70
4
71
3
72
8
73
4
40
0
40
0
40
0
40
0
40
1
40
1
40
1
40
1
41
1
10
402.16008583642
20
36.939769580796
30
0
41
1
10
402.166299626277
20
36.9420761274275
30
0
41
1
10
402.172514209863
20
36.9443830282603
30
0
41
1
10
402.178729618123
20
36.9466902971814
30
0
0
SPLINE
5
1FC
100
AcDbEntity
8
1
62
256
6
ByLayer
370
18
48
1
60
0
100
AcDbSpline
70
4
71
3
72
8
73
4
40
0
40
0
40
0
40
0
40
1
40
1
40
1
40
1
41
1
10
403.51740871018
20
38.5413637260378
30
0
41
1
10
403.518710572403
20
38.5480112481248
30
0
41
1
10
403.520012261893
20
38.5546579501604
30
0
41
1
10
403.52131378513
20
38.561303862838
30
0
0
SPLINE
5
1FD
100
AcDbEntity
8
1
62
256
6
ByLayer
370
18
48
1
60
0
100
AcDbSpline
70
4
71
3
72
26
73
22
40
0
40
0
40
0
40
0
40
0.061121235079727
40
0.061121235079727
40
0.145349009858828
40
0.145349009858828
40
0.228936526328798
40
0.228936526328798
40
0.391532191220715
40
0.391532191220715
40
0.475817926908378
40
0.475817926908378
40
0.58955755927366
40
0.58955755927366
40
0.703149060376468
40
0.703149060376468
40
0.816673845780401
40
0.816673845780401
40
0.930168712116279
40
0.930168712116279
40
1
40
1
40
1
40
1
41
1
10
403.52131378513
20
38.561303862838
30
0
41
1
10
403.519341035163
20
38.5706951904877
30
0
41
1
10
403.518552402952
20
38.580384362891
30
0
41
1
10
403.520054515954
20
38.6030661444512
30
0
41
1
10
403.523698801612
20
38.6162850278781
30
0
41
1
10
403.535846971373
20
38.6403416427586
30
0
41
1
10
403.544421024465
20
38.6515123810641
30
0
41
1
10
403.573613340098
20
38.6799772078838
30
0
41
1
10
403.598524397674
20
38.694262132792
30
0
41
1
10
403.637917588211
20
38.7103318397417
30
0
41
1
10
403.651973682154
20
38.7149457481627
30
0
41
1
10
403.685482730477
20
38.7239808540829
30
0
41
1
10
403.705207662194
20
38.7278048337879
30
0
41
1
10
403.744903165803
20
38.7332646505899
30
0
41
1
10
403.764952532387
20
38.7349100555447
30
0
41
1
10
403.8050818164
20
38.7363729081339
30
0
41
1
10
403.825212393273
20
38.7361912022152
30
0
41
1
10
403.865363395098
20
38.7342061614943
30
0
41
1
10
403.885421867384
20
38.7324004184987
30
0
41
1
10
403.917631888761
20
38.7282611068107
30
0
41
1
10
403.929862874139
20
38.7263969204135
30
0
41
1
10
403.942040830286
20
38.7242505632883
30
0
0
SPLINE
5
1FE
100
AcDbEntity
8
1
62
256
6
ByLayer
370
18
48
1
60
0
100
AcDbSpline
70
4
71
3
72
26
73
22
40
0
40
0
40
0
40
0
40
0.0727938302380672
40
0.0727938302380672
40
0.12768230018694
40
0.12768230018694
40
0.198889441338002
40
0.198889441338002
40
0.288580316474547
40
0.288580316474547
40
0.393239995518859
40
0.393239995518859
40
0.499406003515831
40
0.499406003515831
40
0.600539842293477
40
0.600539842293477
40
0.795411350082964
40
0.795411350082964
40
0.921875057553193
40
0.921875057553193
40
1
40
1
40
1
40
1
41
1
10
402.309925661733
20
37.6904125481514
30
0
41
1
10
402.323749033909
20
37.6779901428448
30
0
41
1
10
402.335345086452
20
37.6624677836171
30
0
41
1
10
402.352142101141
20
37.6330326841568
30
0
41
1
10
402.358322566607
20
37.6194657056757
30
0
41
1
10
402.370437417297
20
37.5872727719139
30
0
41
1
10
402.375810534144
20
37.5682049035514
30
0
41
1
10
402.385234290606
20
37.5242556361588
30
0
41
1
10
402.388622737526
20
37.4989589512379
30
0
41
1
10
402.392627316671
20
37.4436642110635
30
0
41
1
10
402.392700204336
20
37.4133559790631
30
0
41
1
10
402.389214906725
20
37.3524830510476
30
0
41
1
10
402.385587954842
20
37.3217108466407
30
0
41
1
10
402.375143231502
20
37.262501948721
30
0
41
1
10
402.368453160285
20
37.2338509281255
30
0
41
1
10
402.344495127534
20
37.1526673467098
30
0
41
1
10
402.322899671534
20
37.1009312968896
30
0
41
1
10
402.276508219593
20
37.0264583250537
30
0
41
1
10
402.25501516024
20
36.99919678094
30
0
41
1
10
402.214448927522
20
36.9646793130938
30
0
41
1
10
402.197186207865
20
36.953541708082
30
0
41
1
10
402.178729618123
20
36.9466902971814
30
0
0
SPLINE
5
1FF
100
AcDbEntity
8
1
62
256
6
ByLayer
370
18
48
1
60
0
100
AcDbSpline
70
4
71
3
72
30
73
26
40
0
40
0
40
0
40
0
40
0.0728681126381071
40
0.0728681126381071
40
0.127812593477827
40
0.127812593477827
40
0.199092397893553
40
0.199092397893553
40
0.288874798004168
40
0.288874798004168
40
0.393641276926417
40
0.393641276926417
40
0.499915621932912
40
0.499915621932912
40
0.631623646297734
40
0.631623646297734
40
0.734868911743537
40
0.734868911743537
40
0.79695104761053
40
0.79695104761053
40
0.859105215562959
40
0.859105215562959
40
0.921420364650291
40
0.921420364650291
40
1
40
1
40
1
40
1
41
1
10
404.279652121635
20
38.4070188033264
30
0
41
1
10
404.276857038488
20
38.3885504371829
30
0
41
1
10
404.277769829044
20
38.3691414000224
30
0
41
1
10
404.283533289117
20
38.335692182655
30
0
41
1
10
404.287402368547
20
38.3212842987358
30
0
41
1
10
404.298566259635
20
38.2887453963266
30
0
41
1
10
404.306579969711
20
38.270638202283
30
0
41
1
10
404.327356743998
20
38.2308192767193
30
0
41
1
10
404.34090129721
20
38.2092174851997
30
0
41
1
10
404.373164600303
20
38.1642035524148
30
0
41
1
10
404.392506153
20
38.140905454141
30
0
41
1
10
404.434196368439
20
38.0964678311749
30
0
41
1
10
404.456731667549
20
38.0752137162552
30
0
41
1
10
404.509517209384
20
38.0309408823896
30
0
41
1
10
404.540590739571
20
38.008477133338
30
0
41
1
10
404.5980169788
20
37.9734310903821
30
0
41
1
10
404.624139190636
20
37.9596433089779
30
0
41
1
10
404.666746473729
20
37.9410976905261
30
0
41
1
10
404.682995995656
20
37.9349042482086
30
0
41
1
10
404.715731668533
20
37.9244694911433
30
0
41
1
10
404.732285900274
20
37.9202062624563
30
0
41
1
10
404.765412037578
20
37.914186255795
30
0
41
1
10
404.782092618021
20
37.9124125455556
30
0
41
1
10
404.819080355856
20
37.9122703679767
30
0
41
1
10
404.83966635608
20
37.9149025071245
30
0
41
1
10
404.858420073693
20
37.921588579499
30
0
0
SPLINE
5
200
100
AcDbEntity
8
1
62
256
6
ByLayer
370
18
48
1
60
0
100
AcDbSpline
70
4
71
3
72
8
73
4
40
0
40
0
40
0
40
0
40
1
40
1
40
1
40
1
41
1
10
403.784465340311
20
35.5999110771872
30
0
41
1
10
403.783163478088
20
35.5934826682761
30
0
41
1
10
403.781861788598
20
35.5870551742544
30
0
41
1
10
403.780560265361
20
35.5806285607183
30
0
0
SPLINE
5
201
100
AcDbEntity
8
1
62
256
6
ByLayer
370
18
48
1
60
0
100
AcDbSpline
70
4
71
3
72
8
73
4
40
0
40
0
40
0
40
0
40
1
40
1
40
1
40
1
41
1
10
404.510032265524
20
35.8460177956873
30
0
41
1
10
404.504831961912
20
35.8500789793602
30
0
41
1
10
404.499630994028
20
35.8541407413662
30
0
41
1
10
404.494429335979
20
35.8582031043299
30
0
0
SPLINE
5
202
100
AcDbEntity
8
1
62
256
6
ByLayer
370
18
48
1
60
0
100
AcDbSpline
70
4
71
3
72
8
73
4
40
0
40
0
40
0
40
0
40
1
40
1
40
1
40
1
41
1
10
402.294886813554
20
37.7039274272378
30
0
41
1
10
402.299899114371
20
37.6994229900314
30
0
41
1
10
402.304912055444
20
37.6949180370124
30
0
41
1
10
402.309925661733
20
37.6904125481514
30
0
0
SPLINE
5
203
100
AcDbEntity
8
1
62
256
6
ByLayer
370
18
48
1
60
0
100
AcDbSpline
70
4
71
3
72
30
73
26
40
0
40
0
40
0
40
0
40
0.072868112638118
40
0.072868112638118
40
0.127812593477843
40
0.127812593477843
40
0.199092397893576
40
0.199092397893576
40
0.288874798004151
40
0.288874798004151
40
0.393641276926446
40
0.393641276926446
40
0.499915621932939
40
0.499915621932939
40
0.631623646297717
40
0.631623646297717
40
0.734868911743519
40
0.734868911743519
40
0.796951047610516
40
0.796951047610516
40
0.859105215563006
40
0.859105215563006
40
0.921420364650285
40
0.921420364650285
40
1
40
1
40
1
40
1
41
1
10
403.022221928856
20
35.7342559998987
30
0
41
1
10
403.025017012003
20
35.752120233447
30
0
41
1
10
403.024104221447
20
35.7709505115537
30
0
41
1
10
403.018340761374
20
35.8034725252678
30
0
41
1
10
403.014471681944
20
35.8175042918092
30
0
41
1
10
403.003307790856
20
35.8492410250486
30
0
41
1
10
402.99529408078
20
35.8669369730277
30
0
41
1
10
402.974517306493
20
35.9059264611948
30
0
41
1
10
402.960972753281
20
35.927132335135
30
0
41
1
10
402.928709450188
20
35.9714389246398
30
0
41
1
10
402.909367897491
20
35.9944479517643
30
0
41
1
10
402.867677682052
20
36.0384959725644
30
0
41
1
10
402.845142382943
20
36.0596511598225
30
0
41
1
10
402.792356841107
20
36.1039239936881
30
0
41
1
10
402.76128331092
20
36.1265396304889
30
0
41
1
10
402.703857071691
20
36.16212119419
30
0
41
1
10
402.677734859855
20
36.1762371358499
30
0
41
1
10
402.635127576762
20
36.19545060896
30
0
41
1
10
402.618878054836
20
36.2019281951249
30
0
41
1
10
402.586142381958
20
36.2129954414573
30
0
41
1
10
402.569588150218
20
36.2176083547444
30
0
41
1
10
402.536462012913
20
36.224392079333
30
0
41
1
10
402.519781432471
20
36.2265824275993
30
0
41
1
10
402.482793694635
20
36.2277326272753
30
0
41
1
10
402.462207694411
20
36.2257216418194
30
0
41
1
10
402.443453976798
20
36.2196862237261
30
0
0
SPLINE
5
204
100
AcDbEntity
8
1
62
256
6
ByLayer
370
18
48
1
60
0
100
AcDbSpline
70
4
71
3
72
24
73
20
40
0
40
0
40
0
40
0
40
0.158126111966027
40
0.158126111966027
40
0.271563393607373
40
0.271563393607373
40
0.385066230469787
40
0.385066230469787
40
0.498714519310287
40
0.498714519310287
40
0.612721087896074
40
0.612721087896074
40
0.746221642583656
40
0.746221642583656
40
0.824913378297521
40
0.824913378297521
40
0.908986128606075
40
0.908986128606075
40
1
40
1
40
1
40
1
41
1
10
404.93513392969
20
35.9969506193056
30
0
41
1
10
404.917144481423
20
35.9755210658586
30
0
41
1
10
404.898013778713
20
35.9549767372104
30
0
41
1
10
404.863378734533
20
35.9215983427425
30
0
41
1
10
404.848335801519
20
35.9081923929263
30
0
41
1
10
404.817188585148
20
35.8827628065584
30
0
41
1
10
404.801048359475
20
35.8707089344199
30
0
41
1
10
404.767694853643
20
35.8483611856255
30
0
41
1
10
404.750423197989
20
35.8380272275709
30
0
41
1
10
404.71482169597
20
35.8197800183044
30
0
41
1
10
404.696376114573
20
35.8118103097216
30
0
41
1
10
404.655658573407
20
35.7985569296644
30
0
41
1
10
404.632789430384
20
35.7938072817132
30
0
41
1
10
404.597394875054
20
35.7931522792203
30
0
41
1
10
404.584255487633
20
35.7944699935947
30
0
41
1
10
404.5590368014
20
35.8011631658363
30
0
41
1
10
404.546798569881
20
35.8069483112788
30
0
41
1
10
404.525537747772
20
35.8230859604552
30
0
41
1
10
404.516538663565
20
35.8339923833058
30
0
41
1
10
404.510032265524
20
35.8460177956873
30
0
0
SPLINE
5
205
100
AcDbEntity
8
1
62
256
6
ByLayer
370
18
48
1
60
0
100
AcDbSpline
70
4
71
3
72
26
73
22
40
0
40
0
40
0
40
0
40
0.0611212350797292
40
0.0611212350797292
40
0.145349009858832
40
0.145349009858832
40
0.228936526328706
40
0.228936526328706
40
0.39153219122069
40
0.39153219122069
40
0.475817926908346
40
0.475817926908346
40
0.589557559273587
40
0.589557559273587
40
0.703149060376444
40
0.703149060376444
40
0.816673845780327
40
0.816673845780327
40
0.930168712116187
40
0.930168712116187
40
1
40
1
40
1
40
1
41
1
10
402.42451005367
20
36.213589776178
30
0
41
1
10
402.417498782112
20
36.2074271710126
30
0
41
1
10
402.409640227922
20
36.2021455693624
30
0
41
1
10
402.389565477189
20
36.192672757493
30
0
41
1
10
402.376478028274
20
36.1895428013197
30
0
41
1
10
402.349897471475
20
36.1886127910278
30
0
41
1
10
402.336085622351
20
36.1907153934923
30
0
41
1
10
402.297216251764
20
36.2024264467141
30
0
41
1
10
402.272576739756
20
36.2171814953325
30
0
41
1
10
402.239182404748
20
36.2436369516502
30
0
41
1
10
402.228223362305
20
36.2536127496018
30
0
41
1
10
402.203777178057
20
36.2783382875361
30
0
41
1
10
402.190665028053
20
36.2936108999288
30
0
41
1
10
402.166192342308
20
36.3254258056718
30
0
41
1
10
402.154784277311
20
36.3420317963686
30
0
41
1
10
402.133520563758
20
36.3761563934434
30
0
41
1
10
402.123638909375
20
36.3937185287876
30
0
41
1
10
402.105322528299
20
36.4295355150623
30
0
41
1
10
402.096870887672
20
36.4478245458106
30
0
41
1
10
402.084363831404
20
36.4777967502995
30
0
41
1
10
402.079865675545
20
36.489320322436
30
0
41
1
10
402.07563631576
20
36.5009352784887
30
0
0
SPLINE
5
206
100
AcDbEntity
8
1
62
256
6
ByLayer
370
18
48
1
60
0
100
AcDbSpline
70
4
71
3
72
24
73
20
40
0
40
0
40
0
40
0
40
0.158126111965998
40
0.158126111965998
40
0.2715633936073
40
0.2715633936073
40
0.385066230469785
40
0.385066230469785
40
0.498714519310306
40
0.498714519310306
40
0.612721087896066
40
0.612721087896066
40
0.746221642583596
40
0.746221642583596
40
0.824913378297575
40
0.824913378297575
40
0.908986128606082
40
0.908986128606082
40
1
40
1
40
1
40
1
41
1
10
402.07563631576
20
36.5009352784887
30
0
41
1
10
402.066064330268
20
36.527222517332
30
0
41
1
10
402.057841036263
20
36.5540358476107
30
0
41
1
10
402.046279307974
20
36.6006373923423
30
0
41
1
10
402.042208862519
20
36.6203222141589
30
0
41
1
10
402.035811447236
20
36.6598932154184
30
0
41
1
10
402.033476300223
20
36.6798255428583
30
0
41
1
10
402.030887094434
20
36.7197049960213
30
0
41
1
10
402.030627624099
20
36.7397224741333
30
0
41
1
10
402.032762685995
20
36.7794153265475
30
0
41
1
10
402.035166597103
20
36.7992183766611
30
0
41
1
10
402.044272874433
20
36.8406932129818
30
0
41
1
10
402.051746427784
20
36.8625977718111
30
0
41
1
10
402.069187782703
20
36.8930249380612
30
0
41
1
10
402.077031967185
20
36.9035101761937
30
0
41
1
10
402.095744230827
20
36.9214678428018
30
0
41
1
10
402.107053084644
20
36.9288620091377
30
0
41
1
10
402.132048176303
20
36.9385345605227
30
0
41
1
10
402.146209257884
20
36.9405040768752
30
0
41
1
10
402.16008583642
20
36.939769580796
30
0
0
SPLINE
5
207
100
AcDbEntity
8
1
62
256
6
ByLayer
370
18
48
1
60
0
100
AcDbSpline
70
4
71
3
72
30
73
26
40
0
40
0
40
0
40
0
40
0.0728681126380928
40
0.0728681126380928
40
0.127812593477842
40
0.127812593477842
40
0.199092397893543
40
0.199092397893543
40
0.28887479800414
40
0.28887479800414
40
0.393641276926402
40
0.393641276926402
40
0.499915621932929
40
0.499915621932929
40
0.631623646297713
40
0.631623646297713
40
0.734868911743535
40
0.734868911743535
40
0.796951047610515
40
0.796951047610515
40
0.859105215562973
40
0.859105215562973
40
0.921420364650271
40
0.921420364650271
40
1
40
1
40
1
40
1
41
1
10
404.494429335979
20
35.8582031043299
30
0
41
1
10
404.480087472853
20
35.8694037355582
30
0
41
1
10
404.46306567726
20
35.8778840329685
30
0
41
1
10
404.431604987465
20
35.8889241329472
30
0
41
1
10
404.417350295273
20
35.8924967405834
30
0
41
1
10
404.383923927631
20
35.89850060699
30
0
41
1
10
404.364407030741
20
35.9003087475634
30
0
41
1
10
404.31987857303
20
35.9016108374879
30
0
41
1
10
404.2945618714
20
35.9003900307072
30
0
41
1
10
404.239736268411
20
35.8944379474291
30
0
41
1
10
404.210005089194
20
35.8891272896842
30
0
41
1
10
404.150827702224
20
35.8749650050393
30
0
41
1
10
404.121188199962
20
35.8660103150744
30
0
41
1
10
404.05643714721
20
35.8424532322122
30
0
41
1
10
404.021371840159
20
35.8269004003928
30
0
41
1
10
403.962062603186
20
35.7951143697056
30
0
41
1
10
403.936913510346
20
35.7796418386112
30
0
41
1
10
403.899252503013
20
35.7525327900025
30
0
41
1
10
403.885638609784
20
35.741776314127
30
0
41
1
10
403.859956032969
20
35.7191306132204
30
0
41
1
10
403.847833742466
20
35.7071944158014
30
0
41
1
10
403.825724054262
20
35.6821017579089
30
0
41
1
10
403.81566652053
20
35.6688616433115
30
0
41
1
10
403.796612789427
20
35.6376705267816
30
0
41
1
10
403.78833120655
20
35.619000170134
30
0
41
1
10
403.784465340311
20
35.5999110771872
30
0
0
SPLINE
5
208
100
AcDbEntity
8
1
62
256
6
ByLayer
370
18
48
1
60
0
100
AcDbSpline
70
4
71
3
72
26
73
22
40
0
40
0
40
0
40
0
40
0.061121235079665
40
0.061121235079665
40
0.145349009858765
40
0.145349009858765
40
0.228936526328742
40
0.228936526328742
40
0.39153219122072
40
0.39153219122072
40
0.475817926908302
40
0.475817926908302
40
0.589557559273548
40
0.589557559273548
40
0.703149060376412
40
0.703149060376412
40
0.816673845780297
40
0.816673845780297
40
0.930168712116161
40
0.930168712116161
40
1
40
1
40
1
40
1
41
1
10
404.877363996821
20
37.9283426473785
30
0
41
1
10
404.884375268379
20
37.9348262635947
30
0
41
1
10
404.892233822569
20
37.9404354112125
30
0
41
1
10
404.912308573302
20
37.9506652676892
30
0
41
1
10
404.925396022217
20
37.9542283314391
30
0
41
1
10
404.951976579016
20
37.9559347471606
30
0
41
1
10
404.96578842814
20
37.9541866673858
30
0
41
1
10
405.004657798727
20
37.9433733568324
30
0
41
1
10
405.029297310735
20
37.92906283859
30
0
41
1
10
405.062691645743
20
37.903127144466
30
0
41
1
10
405.073650688186
20
37.893304913879
30
0
41
1
10
405.098096872434
20
37.8688942779601
30
0
41
1
10
405.111209022438
20
37.8537681040849
30
0
41
1
10
405.135681708183
20
37.8221967055821
30
0
41
1
10
405.147089773181
20
37.8056881477461
30
0
41
1
10
405.168353486733
20
37.7717213375388
30
0
41
1
10
405.178235141116
20
37.7542196883803
30
0
41
1
10
405.196551522192
20
37.7184933458349
30
0
41
1
10
405.205003162819
20
37.7002345263178
30
0
41
1
10
405.217510219087
20
37.6702891610885
30
0
41
1
10
405.222008374946
20
37.6587706516191
30
0
41
1
10
405.226237734731
20
37.6471556955663
30
0
0
SPLINE
5
209
100
AcDbEntity
8
1
62
256
6
ByLayer
370
18
48
1
60
0
100
AcDbSpline
70
4
71
3
72
8
73
4
40
0
40
0
40
0
40
0
40
1
40
1
40
1
40
1
41
1
10
405.141788214071
20
37.2021628427605
30
0
41
1
10
405.135574424215
20
37.1996369969872
30
0
41
1
10
405.129359840628
20
37.1971108881406
30
0
41
1
10
405.123144432368
20
37.1945845060437
30
0
0
SPLINE
5
20A
100
AcDbEntity
8
1
62
256
6
ByLayer
370
18
48
1
60
0
100
AcDbSpline
70
4
71
3
72
8
73
4
40
0
40
0
40
0
40
0
40
1
40
1
40
1
40
1
41
1
10
404.282692973793
20
38.4271112588513
30
0
41
1
10
404.281679487549
20
38.4204145798343
30
0
41
1
10
404.280665871845
20
38.4137171049749
30
0
41
1
10
404.279652121635
20
38.4070188033264
30
0
0
SPLINE
5
20B
100
AcDbEntity
8
1
62
256
6
ByLayer
370
18
48
1
60
0
100
AcDbSpline
70
4
71
3
72
24
73
20
40
0
40
0
40
0
40
0
40
0.158126111966089
40
0.158126111966089
40
0.27156339360742
40
0.27156339360742
40
0.385066230469888
40
0.385066230469888
40
0.498714519310348
40
0.498714519310348
40
0.612721087896084
40
0.612721087896084
40
0.74622164258364
40
0.74622164258364
40
0.824913378297556
40
0.824913378297556
40
0.90898612860608
40
0.90898612860608
40
1
40
1
40
1
40
1
41
1
10
403.942040830286
20
38.7242505632883
30
0
41
1
10
403.969602264046
20
38.719392877892
30
0
41
1
10
403.996956260761
20
38.713085443281
30
0
41
1
10
404.043153033229
20
38.6997237356112
30
0
41
1
10
404.062266411699
20
38.6933649010513
30
0
41
1
10
404.099811043353
20
38.6790110859557
30
0
41
1
10
404.118286416038
20
38.6710000268985
30
0
41
1
10
404.15422912766
20
38.6531349402156
30
0
41
1
10
404.171760253649
20
38.6432502001582
30
0
41
1
10
404.205226693772
20
38.6213065828639
30
0
41
1
10
404.22126836406
20
38.6091750107133
30
0
41
1
10
404.252879627896
20
38.5801560377739
30
0
41
1
10
404.268275217569
20
38.5624675131302
30
0
41
1
10
404.286228417979
20
38.5316164940873
30
0
41
1
10
404.291523620919
20
38.5193536623669
30
0
41
1
10
404.29803004351
20
38.4936505084507
30
0
41
1
10
404.298959421212
20
38.4798567657499
30
0
41
1
10
404.295225151661
20
38.4527207011066
30
0
41
1
10
404.290063154288
20
38.4391102067947
30
0
41
1
10
404.282692973793
20
38.4271112588513
30
0
0
SPLINE
5
20C
100
AcDbEntity
8
1
62
256
6
ByLayer
370
18
48
1
60
0
100
AcDbSpline
70
4
71
3
72
28
73
24
40
0
40
0
40
0
40
0
40
0.0405984349493267
40
0.0405984349493267
40
0.136918028510162
40
0.136918028510162
40
0.284178405664806
40
0.284178405664806
40
0.500822929974462
40
0.500822929974462
40
0.56675882483482
40
0.56675882483482
40
0.632050095044803
40
0.632050095044803
40
0.735175839208393
40
0.735175839208393
40
0.797186106051242
40
0.797186106051242
40
0.859268321592033
40
0.859268321592033
40
0.921511331908815
40
0.921511331908815
40
1
40
1
40
1
40
1
41
1
10
403.51740871018
20
38.5413637260378
30
0
41
1
10
403.515383367263
20
38.5310219928361
30
0
41
1
10
403.512143593185
20
38.5208053847518
30
0
41
1
10
403.498349196194
20
38.4876358526541
30
0
41
1
10
403.483741620244
20
38.4656872689005
30
0
41
1
10
403.441087815199
20
38.4150069552115
30
0
41
1
10
403.409289515682
20
38.3877789642771
30
0
41
1
10
403.325018932881
20
38.3291770278057
30
0
41
1
10
403.268105449461
20
38.3006586884774
30
0
41
1
10
403.191614257962
20
38.27283042531
30
0
41
1
10
403.173344007411
20
38.2669308567203
30
0
41
1
10
403.136728117438
20
38.2565993359343
30
0
41
1
10
403.118340348619
20
38.2521407851788
30
0
41
1
10
403.070861611092
20
38.2425912651502
30
0
41
1
10
403.041540842518
20
38.2385752742342
30
0
41
1
10
402.995043064734
20
38.2357343668195
30
0
41
1
10
402.977605681252
20
38.2354782204303
30
0
41
1
10
402.943165532738
20
38.2368831597106
30
0
41
1
10
402.926091065267
20
38.2385469681456
30
0
41
1
10
402.892772147348
20
38.2442378607513
30
0
41
1
10
402.876419336567
20
38.2482862649773
30
0
41
1
10
402.841441125418
20
38.2608280407245
30
0
41
1
10
402.822890983622
20
38.2703579003326
30
0
41
1
10
402.807444714512
20
38.2830716988952
30
0
0
SPLINE
5
20D
100
AcDbEntity
8
1
62
256
6
ByLayer
370
18
48
1
60
0
100
AcDbSpline
70
4
71
3
72
8
73
4
40
0
40
0
40
0
40
0
40
1
40
1
40
1
40
1
41
1
10
395.693841800474
20
30.6267135633368
30
0
41
1
10
395.727978864565
20
30.6277299926871
30
0
41
1
10
395.762141722417
20
30.6287389521085
30
0
41
1
10
395.796335714962
20
30.6297388677541
30
0
0
SPLINE
5
20E
100
AcDbEntity
8
1
62
256
6
ByLayer
370
18
48
1
60
0
100
AcDbSpline
70
4
71
3
72
12
73
8
40
0
40
0
40
0
40
0
40
0.393086026967576
40
0.393086026967576
40
0.785864155566651
40
0.785864155566651
40
1
40
1
40
1
40
1
41
1
10
398.483116000737
20
18.4592866138371
30
0
41
1
10
398.498894555438
20
18.5506886333513
30
0
41
1
10
398.517265670311
20
18.6429206577556
30
0
41
1
10
398.555414960121
20
18.8138384661444
30
0
41
1
10
398.57569234616
20
18.8949248315881
30
0
41
1
10
398.605024368617
20
19.0039298822211
30
0
41
1
10
398.615142962215
20
19.0398724517526
30
0
41
1
10
398.624505574941
20
19.0721221683323
30
0
0
SPLINE
5
20F
100
AcDbEntity
8
1
62
256
6
ByLayer
370
18
48
1
60
0
100
AcDbSpline
70
4
71
3
72
8
73
4
40
0
40
0
40
0
40
0
40
1
40
1
40
1
40
1
41
1
10
394.655424263031
20
-39.6239003283598
30
0
41
1
10
395.230621183872
20
-39.6468876732981
30
0
41
1
10
395.785020548311
20
-39.7160922511382
30
0
41
1
10
396.320408434604
20
-39.8246146580462
30
0
0
SPLINE
5
210
100
AcDbEntity
8
1
62
256
6
ByLayer
370
18
48
1
60
0
100
AcDbSpline
70
4
71
3
72
8
73
4
40
0
40
0
40
0
40
0
40
1
40
1
40
1
40
1
41
1
10
386.013750963739
20
-13.1153674074073
30
0
41
1
10
386.013750963739
20
-12.5050834473153
30
0
41
1
10
386.013750963739
20
-11.8947994872232
30
0
41
1
10
386.013750963739
20
-11.284515527131
30
0
0
SPLINE
5
211
100
AcDbEntity
8
1
62
256
6
ByLayer
370
18
48
1
60
0
100
AcDbSpline
70
4
71
3
72
8
73
4
40
0
40
0
40
0
40
0
40
1
40
1
40
1
40
1
41
1
10
386.013750963739
20
-11.284515527131
30
0
41
1
10
388.013750963739
20
-11.284515527131
30
0
41
1
10
390.013750963739
20
-11.284515527131
30
0
41
1
10
392.013750963739
20
-11.284515527131
30
0
0
SPLINE
5
212
100
AcDbEntity
8
1
62
256
6
ByLayer
370
18
48
1
60
0
100
AcDbSpline
70
4
71
3
72
8
73
4
40
0
40
0
40
0
40
0
40
1
40
1
40
1
40
1
41
1
10
386.75051228377
20
-13.5476007151587
30
0
41
1
10
386.782745591521
20
-13.6937250436315
30
0
41
1
10
386.838002690523
20
-13.8152906614365
30
0
41
1
10
386.91474866136
20
-13.9135255041073
30
0
0
SPLINE
5
213
100
AcDbEntity
8
1
62
256
6
ByLayer
370
18
48
1
60
0
100
AcDbSpline
70
4
71
3
72
18
73
14
40
0
40
0
40
0
40
0
40
0.191325435437369
40
0.191325435437369
40
0.382650870874738
40
0.382650870874738
40
0.536214707212626
40
0.536214707212626
40
0.690626528447004
40
0.690626528447004
40
0.845885455798057
40
0.845885455798057
40
1
40
1
40
1
40
1
41
1
10
389.206383350538
20
-14.0056206691111
30
0
41
1
10
389.098938991367
20
-14.2954134549899
30
0
41
1
10
388.917818500193
20
-14.5188977220658
30
0
41
1
10
388.405155415005
20
-14.8307933475455
30
0
41
1
10
388.102776289909
20
-14.9093812216821
30
0
41
1
10
387.471924409633
20
-14.9093812216821
30
0
41
1
10
387.210988108789
20
-14.8614917358801
30
0
41
1
10
386.727692698945
20
-14.6718675495977
30
0
41
1
10
386.541763243094
20
-14.554507852534
30
0
41
1
10
386.280111191556
20
-14.2737705925304
30
0
41
1
10
386.181057180162
20
-14.1001717051818
30
0
41
1
10
386.046482069469
20
-13.6793186317416
30
0
41
1
10
386.013750963739
20
-13.4198954196867
30
0
41
1
10
386.013750963739
20
-13.1153674074073
30
0
0
SPLINE
5
214
100
AcDbEntity
8
1
62
256
6
ByLayer
370
18
48
1
60
0
100
AcDbSpline
70
4
71
3
72
8
73
4
40
0
40
0
40
0
40
0
40
1
40
1
40
1
40
1
41
1
10
391.306153112626
20
-11.9193581978908
30
0
41
1
10
390.701394862434
20
-11.9193581978908
30
0
41
1
10
390.096636612242
20
-11.9193581978908
30
0
41
1
10
389.49187836205
20
-11.9193581978908
30
0
0
SPLINE
5
215
100
AcDbEntity
8
1
62
256
6
ByLayer
370
18
48
1
60
0
100
AcDbSpline
70
4
71
3
72
8
73
4
40
0
40
0
40
0
40
0
40
1
40
1
40
1
40
1
41
1
10
388.784280510937
20
-11.9193581978908
30
0
41
1
10
388.096636612242
20
-11.9193581978908
30
0
41
1
10
387.408992713547
20
-11.9193581978908
30
0
41
1
10
386.721348814852
20
-11.9193581978908
30
0
0
SPLINE
5
216
100
AcDbEntity
8
1
62
256
6
ByLayer
370
18
48
1
60
0
100
AcDbSpline
70
4
71
3
72
10
73
6
40
0
40
0
40
0
40
0
40
0.660338983050848
40
0.660338983050848
40
1
40
1
40
1
40
1
41
1
10
386.721348814852
20
-11.9193581978908
30
0
41
1
10
386.721348814852
20
-12.3180279343963
30
0
41
1
10
386.721348814852
20
-12.7166976709019
30
0
41
1
10
386.721348814852
20
-13.3204326414825
30
0
41
1
10
386.730558331352
20
-13.4641010988886
30
0
41
1
10
386.75051228377
20
-13.5476007151587
30
0
0
SPLINE
5
217
100
AcDbEntity
8
1
62
256
6
ByLayer
370
18
48
1
60
0
100
AcDbSpline
70
4
71
3
72
18
73
14
40
0
40
0
40
0
40
0
40
0.252026352812656
40
0.252026352812656
40
0.405612964547159
40
0.405612964547159
40
0.559855857535999
40
0.559855857535999
40
0.714098750524838
40
0.714098750524838
40
0.857201879020039
40
0.857201879020039
40
1
40
1
40
1
40
1
41
1
10
392.013750963739
20
-11.284515527131
30
0
41
1
10
392.013750963739
20
-11.8849760029561
30
0
41
1
10
392.013750963739
20
-12.4854364787811
30
0
41
1
10
392.013750963739
20
-13.4518217435547
30
0
41
1
10
391.952354187069
20
-13.7465262715669
30
0
41
1
10
391.709318776613
20
-14.1895275260704
30
0
41
1
10
391.522576750385
20
-14.362949909326
30
0
41
1
10
391.019123181697
20
-14.6134487581364
30
0
41
1
10
390.75511704202
20
-14.676073470339
30
0
41
1
10
390.222500004414
20
-14.676073470339
30
0
41
1
10
389.981517655987
20
-14.6208163713368
30
0
41
1
10
389.52766569071
20
-14.3975702694977
30
0
41
1
10
389.344526098044
20
-14.2303328717205
30
0
41
1
10
389.206383350538
20
-14.0056206691111
30
0
0
SPLINE
5
218
100
AcDbEntity
8
1
62
256
6
ByLayer
370
18
48
1
60
0
100
AcDbSpline
70
4
71
3
72
12
73
8
40
0
40
0
40
0
40
0
40
0.304948371461944
40
0.304948371461944
40
0.652474185730969
40
0.652474185730969
40
1
40
1
40
1
40
1
41
1
10
398.662460082051
20
-19.9597499250665
30
0
41
1
10
398.931969643116
20
-20.5130044543076
30
0
41
1
10
399.279704998207
20
-20.9942791911677
30
0
41
1
10
400.100402000796
20
-21.8529313831183
30
0
41
1
10
400.581194593615
20
-22.2032483442202
30
0
41
1
10
401.553926667395
20
-22.7266565411772
30
0
41
1
10
402.098011904937
20
-22.9015131439241
30
0
41
1
10
402.375171338446
20
-22.9706167519502
30
0
0
SPLINE
5
219
100
AcDbEntity
8
1
62
256
6
ByLayer
370
18
48
1
60
0
100
AcDbSpline
70
4
71
3
72
8
73
4
40
0
40
0
40
0
40
0
40
1
40
1
40
1
40
1
41
1
10
399.808059489868
20
-35.1815350962233
30
0
41
1
10
399.808059489868
20
-34.4988884108848
30
0
41
1
10
399.972228007246
20
-33.7842609958276
30
0
41
1
10
400.382306167517
20
-33.117643055318
30
0
0
SPLINE
5
21A
100
AcDbEntity
8
1
62
256
6
ByLayer
370
18
48
1
60
0
100
AcDbSpline
70
4
71
3
72
18
73
14
40
0
40
0
40
0
40
0
40
0.144086644560489
40
0.144086644560489
40
0.287731062505122
40
0.287731062505122
40
0.456860780407674
40
0.456860780407674
40
0.627194363444237
40
0.627194363444237
40
0.795871414023979
40
0.795871414023979
40
1
40
1
40
1
40
1
41
1
10
386.91474866136
20
-13.9135255041073
30
0
41
1
10
386.989959712779
20
-14.011760346778
30
0
41
1
10
387.102008830201
20
-14.0928040919814
30
0
41
1
10
387.393195980949
20
-14.22031341273
30
0
41
1
10
387.56248465522
20
-14.251207775788
30
0
41
1
10
387.976912897737
20
-14.251207775788
30
0
41
1
10
388.171847663662
20
-14.2057741610528
30
0
41
1
10
388.501489453186
20
-14.0209282977685
30
0
41
1
10
388.616974294514
20
-13.8951064711065
30
0
41
1
10
388.751390395958
20
-13.5700638985247
30
0
41
1
10
388.784280510937
20
-13.3351678678832
30
0
41
1
10
388.784280510937
20
-12.6593940126772
30
0
41
1
10
388.784280510937
20
-12.2893761052841
30
0
41
1
10
388.784280510937
20
-11.9193581978908
30
0
0
SPLINE
5
21B
100
AcDbEntity
8
1
62
256
6
ByLayer
370
18
48
1
60
0
100
AcDbSpline
70
4
71
3
72
22
73
18
40
0
40
0
40
0
40
0
40
0.125919801008143
40
0.125919801008143
40
0.228173823812628
40
0.228173823812628
40
0.362000949327649
40
0.362000949327649
40
0.497453699158084
40
0.497453699158084
40
0.624996799363383
40
0.624996799363383
40
0.753577031326435
40
0.753577031326435
40
0.881194351724582
40
0.881194351724582
40
1
40
1
40
1
40
1
41
1
10
389.49187836205
20
-11.9193581978908
30
0
41
1
10
389.49187836205
20
-12.2656360183053
30
0
41
1
10
389.49187836205
20
-12.6119138387197
30
0
41
1
10
389.49187836205
20
-13.2393888962791
30
0
41
1
10
389.516437072718
20
-13.4407703237542
30
0
41
1
10
389.622750407453
20
-13.7242725497136
30
0
41
1
10
389.72211627456
20
-13.8472169853045
30
0
41
1
10
390.000079816593
20
-14.0102889299637
30
0
41
1
10
390.174917502495
20
-14.0510542838464
30
0
41
1
10
390.583206067346
20
-14.0510542838464
30
0
41
1
10
390.75972180027
20
-14.0129882823114
30
0
41
1
10
391.061789181014
20
-13.8601051998122
30
0
41
1
10
391.166475445703
20
-13.7514380137005
30
0
41
1
10
391.276575834378
20
-13.4676236784511
30
0
41
1
10
391.306153112626
20
-13.2234257343451
30
0
41
1
10
391.306153112626
20
-12.5595219226286
30
0
41
1
10
391.306153112626
20
-12.2394400602598
30
0
41
1
10
391.306153112626
20
-11.9193581978908
30
0
0
SPLINE
5
21C
100
AcDbEntity
8
SK1
62
256
6
ByLayer
370
18
48
1
60
0
100
AcDbSpline
70
4
71
3
72
24
73
20
40
0
40
0
40
0
40
0
40
0.492398027467277
40
0.492398027467277
40
0.668310127338856
40
0.668310127338856
40
0.846552263551676
40
0.846552263551676
40
0.878720061957127
40
0.878720061957127
40
0.911383033671987
40
0.911383033671987
40
0.931691696537675
40
0.931691696537675
40
0.95209301473688
40
0.95209301473688
40
0.977060216128463
40
0.977060216128463
40
1
40
1
40
1
40
1
41
1
10
-0.199999999999989
20
-6.57657332251961
30
0
41
1
10
-0.199999999999989
20
-6.44656682134712
30
0
41
1
10
-0.204502849321955
20
-6.31531168325705
30
0
41
1
10
-0.226582266321202
20
-6.13779637612026
30
0
41
1
10
-0.233974873652585
20
-6.09095488980506
30
0
41
1
10
-0.255353240585578
20
-5.99815512584257
30
0
41
1
10
-0.268322675838249
20
-5.95031064681496
30
0
41
1
10
-0.298180738230599
20
-5.90175502052421
30
0
41
1
10
-0.303352297620847
20
-5.89445922534446
30
0
41
1
10
-0.315220218164882
20
-5.88122229557996
30
0
41
1
10
-0.322100367577718
20
-5.87514733941885
30
0
41
1
10
-0.334669352278866
20
-5.86818428946981
30
0
41
1
10
-0.339945766887354
20
-5.86618567675112
30
0
41
1
10
-0.350686231006989
20
-5.86421072309599
30
0
41
1
10
-0.356276575016636
20
-5.86423055154353
30
0
41
1
10
-0.368095241519768
20
-5.86629174119173
30
0
41
1
10
-0.374371038114646
20
-5.86876466767728
30
0
41
1
10
-0.38540650056683
20
-5.87491523412279
30
0
41
1
10
-0.390359298661053
20
-5.8785208933615
30
0
41
1
10
-0.394976888875476
20
-5.88246902087076
30
0
0
SPLINE
5
21D
100
AcDbEntity
8
SK1
62
256
6
ByLayer
370
18
48
1
60
0
100
AcDbSpline
70
4
71
3
72
301
73
297
40
0
40
0
40
0
40
0
40
0.0031724596612614
40
0.0066467921533353
40
0.0101211246454091
40
0.013595457137483
40
0.0170697896295569
40
0.0205441221216308
40
0.0240184546137047
40
0.0274927871057785
40
0.0344414520899263
40
0.0413901170740741
40
0.0448644495661479
40
0.0483387820582218
40
0.0518131145502957
40
0.0552874470423696
40
0.0587617795344435
40
0.0622361120265173
40
0.0657104445185912
40
0.0691847770106651
40
0.0761334419948129
40
0.0796077744868867
40
0.0830821069789606
40
0.0865564394710345
40
0.0900307719631084
40
0.0935051044551822
40
0.0969794369472561
40
0.10045376943933
40
0.103928101931404
40
0.107402434423478
40
0.110876766915552
40
0.117825431899699
40
0.121299764391773
40
0.124774096883847
40
0.131722761867995
40
0.138671426852143
40
0.142145759344217
40
0.14562009183629
40
0.152568756820438
40
0.159517421804586
40
0.166466086788734
40
0.169940419280808
40
0.173414751772881
40
0.180363416757029
40
0.187312081741177
40
0.194260746725325
40
0.201209411709473
40
0.20815807669362
40
0.215106741677768
40
0.218581074169842
40
0.222055406661916
40
0.229004071646064
40
0.235952736630211
40
0.242901401614359
40
0.246375734106433
40
0.249850066598507
40
0.256798731582655
40
0.263747396566802
40
0.267221729058876
40
0.27069606155095
40
0.277644726535098
40
0.284593391519246
40
0.28806772401132
40
0.291542056503393
40
0.298490721487541
40
0.301965053979615
40
0.305439386471689
40
0.308913718963763
40
0.312388051455837
40
0.315862383947911
40
0.319336716439984
40
0.322811048932058
40
0.326285381424132
40
0.329759713916206
40
0.33323404640828
40
0.336708378900354
40
0.340182711392428
40
0.347131376376575
40
0.350605708868649
40
0.354080041360723
40
0.357554373852797
40
0.361028706344871
40
0.364503038836945
40
0.367977371329019
40
0.374926036313166
40
0.37840036880524
40
0.381874701297314
40
0.385349033789388
40
0.388823366281462
40
0.392297698773536
40
0.39577203126561
40
0.399246363757684
40
0.402720696249757
40
0.406195028741831
40
0.409669361233905
40
0.413143693725979
40
0.416618026218053
40
0.420092358710127
40
0.423566691202201
40
0.427041023694275
40
0.430515356186349
40
0.433989688678422
40
0.437464021170496
40
0.439201187416533
40
0.44093835366257
40
0.444412686154644
40
0.447887018646718
40
0.449624184892755
40
0.451361351138792
40
0.454835683630866
40
0.456572849876903
40
0.458310016122939
40
0.459178599245958
40
0.460047182368977
40
0.461784348615013
40
0.46352151486105
40
0.465258681107087
40
0.466995847353124
40
0.468733013599161
40
0.470470179845198
40
0.471338762968216
40
0.472207346091235
40
0.473075929214254
40
0.473944512337272
40
0.47481309546029
40
0.475681678583309
40
0.477418844829346
40
0.478287427952364
40
0.479156011075383
40
0.48089317732142
40
0.481761760444438
40
0.482630343567457
40
0.484367509813494
40
0.485236092936512
40
0.486104676059531
40
0.487841842305567
40
0.489579008551605
40
0.491316174797641
40
0.49218475792066
40
0.493053341043678
40
0.493921924166697
40
0.494790507289715
40
0.495659090412734
40
0.496527673535752
40
0.497396256658771
40
0.498264839781789
40
0.499133422904808
40
0.500002006027826
40
0.500870589150845
40
0.501739172273863
40
0.502607755396882
40
0.5034763385199
40
0.504344921642918
40
0.505213504765937
40
0.506082087888955
40
0.506950671011974
40
0.507819254134992
40
0.508687837258011
40
0.510425003504048
40
0.512162169750085
40
0.513899335996122
40
0.51476791911914
40
0.515636502242159
40
0.517373668488195
40
0.518242251611214
40
0.519110834734232
40
0.520848000980269
40
0.521716584103288
40
0.522585167226306
40
0.524322333472343
40
0.525190916595362
40
0.52605949971838
40
0.526928082841399
40
0.527796665964417
40
0.528665249087436
40
0.529533832210454
40
0.531270998456491
40
0.533008164702528
40
0.534745330948565
40
0.536482497194602
40
0.538219663440639
40
0.539956829686676
40
0.540825412809694
40
0.541693995932713
40
0.54343116217875
40
0.545168328424786
40
0.54864266091686
40
0.550379827162897
40
0.552116993408934
40
0.555591325901008
40
0.559065658393082
40
0.560802824639119
40
0.562539990885156
40
0.56601432337723
40
0.569488655869304
40
0.572962988361378
40
0.576437320853451
40
0.579911653345525
40
0.583385985837599
40
0.586860318329673
40
0.590334650821747
40
0.593808983313821
40
0.597283315805895
40
0.600757648297969
40
0.604231980790042
40
0.607706313282116
40
0.61118064577419
40
0.614654978266264
40
0.618129310758338
40
0.625077975742486
40
0.632026640726634
40
0.635500973218707
40
0.638975305710781
40
0.642449638202855
40
0.645923970694929
40
0.649398303187003
40
0.652872635679077
40
0.659821300663225
40
0.663295633155298
40
0.666769965647372
40
0.670244298139446
40
0.67371863063152
40
0.677192963123594
40
0.680667295615668
40
0.684141628107742
40
0.687615960599816
40
0.691090293091889
40
0.692827459337926
40
0.694564625583963
40
0.698038958076037
40
0.701513290568111
40
0.708461955552259
40
0.711936288044333
40
0.715410620536407
40
0.722359285520554
40
0.729307950504702
40
0.732782282996776
40
0.73625661548885
40
0.743205280472998
40
0.750153945457145
40
0.753628277949219
40
0.757102610441293
40
0.764051275425441
40
0.770999940409589
40
0.777948605393736
40
0.78142293788581
40
0.784897270377884
40
0.791845935362032
40
0.79879460034618
40
0.805743265330327
40
0.812691930314475
40
0.819640595298623
40
0.826589260282771
40
0.830063592774845
40
0.833537925266919
40
0.840486590251066
40
0.847435255235214
40
0.854383920219362
40
0.857858252711436
40
0.861332585203509
40
0.868281250187657
40
0.875229915171805
40
0.878704247663879
40
0.882178580155953
40
0.88391574640199
40
0.885652912648027
40
0.889127245140101
40
0.892601577632174
40
0.896075910124248
40
0.899550242616322
40
0.903024575108396
40
0.90649890760047
40
0.909973240092544
40
0.913447572584618
40
0.916921905076692
40
0.920396237568765
40
0.923870570060839
40
0.930819235044987
40
0.934293567537061
40
0.937767900029135
40
0.941242232521209
40
0.944716565013283
40
0.948190897505357
40
0.95166522999743
40
0.955139562489504
40
0.958613894981578
40
0.965562559965726
40
0.972511224949874
40
0.975985557441948
40
0.979459889934021
40
0.982934222426095
40
0.986408554918169
40
0.989882887410243
40
0.993357219902317
40
0.996831552394391
40
1
40
1
40
1
40
1
41
1
10
-1.99503997793937
20
-27.325161421075
30
0
41
1
10
-1.99503997793937
20
-27.3252986673967
30
0
41
1
10
-1.99503997793937
20
-27.3243853605014
30
0
41
1
10
-1.99503997793931
20
-27.319236569139
30
0
41
1
10
-1.99503997793931
20
-27.3099684620727
30
0
41
1
10
-1.99503997793931
20
-27.2968118938474
30
0
41
1
10
-1.99503997793931
20
-27.2798390261951
30
0
41
1
10
-1.99503997793931
20
-27.2591194581005
30
0
41
1
10
-1.99503997793931
20
-27.2347185022954
30
0
41
1
10
-1.99503997793931
20
-27.197345231477
30
0
41
1
10
-1.99503997793931
20
-27.1417627098538
30
0
41
1
10
-1.99503997793931
20
-27.0746927526657
30
0
41
1
10
-1.99503997793931
20
-27.0143096332649
30
0
41
1
10
-1.99503997793931
20
-26.9657374886259
30
0
41
1
10
-1.99503997793931
20
-26.9139106605824
30
0
41
1
10
-1.99503997793931
20
-26.8588742790415
30
0
41
1
10
-1.99503997793931
20
-26.8006684388868
30
0
41
1
10
-1.99503997793931
20
-26.7393343627507
30
0
41
1
10
-1.99503997793931
20
-26.6749108160321
30
0
41
1
10
-1.99503997793931
20
-26.5849135103433
30
0
41
1
10
-1.99503997793931
20
-26.4889678259813
30
0
41
1
10
-1.99503997793931
20
-26.3870356638969
30
0
41
1
10
-1.99503997793931
20
-26.307691573879
30
0
41
1
10
-1.99503997793931
20
-26.2254595012835
30
0
41
1
10
-1.99503997793931
20
-26.1403699560892
30
0
41
1
10
-1.99503997793931
20
-26.0524524072106
30
0
41
1
10
-1.99503997793931
20
-25.961732550658
30
0
41
1
10
-1.99503997793931
20
-25.8682384460151
30
0
41
1
10
-1.99503997793931
20
-25.7719963599905
30
0
41
1
10
-1.99503997793931
20
-25.6730299792936
30
0
41
1
10
-1.99503997793931
20
-25.5374379046987
30
0
41
1
10
-1.99503997793931
20
-25.3966072761119
30
0
41
1
10
-1.99503997793931
20
-25.2503982620474
30
0
41
1
10
-1.99503997793931
20
-25.1007072668634
30
0
41
1
10
-1.99503997793931
20
-24.9072094682151
30
0
41
1
10
-1.99503997793931
20
-24.7052121640853
30
0
41
1
10
-1.99503997793931
20
-24.5385089830443
30
0
41
1
10
-1.99503997793931
20
-24.3684762369578
30
0
41
1
10
-1.99503997793931
20
-24.1498376513415
30
0
41
1
10
-1.99503997793931
20
-23.8776317176071
30
0
41
1
10
-1.99503997793931
20
-23.6427893382923
30
0
41
1
10
-1.99503997793931
20
-23.4500539432773
30
0
41
1
10
-1.99503997793931
20
-23.2541536051907
30
0
41
1
10
-1.99503997793931
20
-23.0034924093454
30
0
41
1
10
-1.99503997793931
20
-22.6933032821098
30
0
41
1
10
-1.99503997793931
20
-22.3738761877812
30
0
41
1
10
-1.99503997793931
20
-22.0453025545601
30
0
41
1
10
-1.99503997793931
20
-21.7076686178739
30
0
41
1
10
-1.99503997793931
20
-21.4188827033322
30
0
41
1
10
-1.99503997793931
20
-21.183296231241
30
0
41
1
10
-1.99503997793931
20
-20.9447536987916
30
0
41
1
10
-1.99503997793931
20
-20.6411931765509
30
0
41
1
10
-1.99503997793931
20
-20.2680830241603
30
0
41
1
10
-1.99503997793931
20
-19.9499723474756
30
0
41
1
10
-1.99503997793931
20
-19.6910450149659
30
0
41
1
10
-1.99503997793931
20
-19.429246386098
30
0
41
1
10
-1.99503997793931
20
-19.0967848636162
30
0
41
1
10
-1.99503997793931
20
-18.7572123771118
30
0
41
1
10
-1.99503997793931
20
-18.4811831142102
30
0
41
1
10
-1.99503997793931
20
-18.2023325900281
30
0
41
1
10
-1.99503997793931
20
-17.8486596771386
30
0
41
1
10
-1.99503997793931
20
-17.487986711463
30
0
41
1
10
-1.99503997793931
20
-17.1951273582894
30
0
41
1
10
-1.99503997793931
20
-16.8994865286445
30
0
41
1
10
-1.99503997793931
20
-16.5999232967459
30
0
41
1
10
-1.99503997793931
20
-16.2959645253135
30
0
41
1
10
-1.99503997793931
20
-16.0659886092783
30
0
41
1
10
-1.99503997793931
20
-15.8339451945693
30
0
41
1
10
-1.99503997793931
20
-15.5998376412757
30
0
41
1
10
-1.99503997793931
20
-15.3636701740731
30
0
41
1
10
-1.99503997793931
20
-15.1254443246959
30
0
41
1
10
-1.99503997793931
20
-14.8851633083157
30
0
41
1
10
-1.99503997793931
20
-14.6428305016925
30
0
41
1
10
-1.99503997793931
20
-14.3984468746313
30
0
41
1
10
-1.99503997793931
20
-14.1520156345788
30
0
41
1
10
-1.99503997793931
20
-13.903538977374
30
0
41
1
10
-1.99503997793931
20
-13.5694124056225
30
0
41
1
10
-1.99503997793931
20
-13.2315065874855
30
0
41
1
10
-1.99503997793931
20
-12.8892094092454
30
0
41
1
10
-1.99503997793931
20
-12.630529996325
30
0
41
1
10
-1.99503997793931
20
-12.3698136542137
30
0
41
1
10
-1.99503997793931
20
-12.1070624597528
30
0
41
1
10
-1.99503997793931
20
-11.8422771763273
30
0
41
1
10
-1.99503997793931
20
-11.4864047926356
30
0
41
1
10
-1.99503997793931
20
-11.1268240668469
30
0
41
1
10
-1.99503997793931
20
-10.7628135122141
30
0
41
1
10
-1.99503997793931
20
-10.4878712580384
30
0
41
1
10
-1.99503997793931
20
-10.2109002476074
30
0
41
1
10
-1.99503997793931
20
-9.93190148567101
30
0
41
1
10
-1.99503997793931
20
-9.65087577167401
30
0
41
1
10
-1.99503997793931
20
-9.36782442184722
30
0
41
1
10
-1.99503997793931
20
-9.08274836934049
30
0
41
1
10
-1.99503997793931
20
-8.79565051892371
30
0
41
1
10
-1.99503997793931
20
-8.50653184364376
30
0
41
1
10
-1.99503997793931
20
-8.21539468387994
30
0
41
1
10
-1.99503997793931
20
-7.92224242464158
30
0
41
1
10
-1.99503997793931
20
-7.62707899667748
30
0
41
1
10
-1.99503997793931
20
-7.32990848936902
30
0
41
1
10
-1.99503997793931
20
-7.03073643509242
30
0
41
1
10
-1.99503997793931
20
-6.72956956222447
30
0
41
1
10
-1.99503997793931
20
-6.42641644899936
30
0
41
1
10
-1.99503997793931
20
-6.12128654405478
30
0
41
1
10
-1.99503997793931
20
-5.86547224264382
30
0
41
1
10
-1.99503997793931
20
-5.65966031194296
30
0
41
1
10
-1.99503997793931
20
-5.45320486068488
30
0
41
1
10
-1.99503997793931
20
-5.19417516976091
30
0
41
1
10
-1.99503997793931
20
-4.93354783719792
30
0
41
1
10
-1.99503997793931
20
-4.7238949146082
30
0
41
1
10
-1.99503997793931
20
-4.51362418453471
30
0
41
1
10
-1.99503997793931
20
-4.30279737234503
30
0
41
1
10
-1.99503997793931
20
-4.09068017699951
30
0
41
1
10
-1.99503997793931
20
-3.95788264175951
30
0
41
1
10
-1.99503997793931
20
-3.85130375742835
30
0
41
1
10
-1.99503997793931
20
-3.74458054435991
30
0
41
1
10
-1.99503997793931
20
-3.61106188513384
30
0
41
1
10
-1.99503997793931
20
-3.45032619783547
30
0
41
1
10
-1.99503997793931
20
-3.28917309238056
30
0
41
1
10
-1.99503997793931
20
-3.12761066714143
30
0
41
1
10
-1.99503997793931
20
-2.96564924759366
30
0
41
1
10
-1.99503997793931
20
-2.83043415716213
30
0
41
1
10
-1.99503997793931
20
-2.72193088426968
30
0
41
1
10
-1.99503997793931
20
-2.64052218961081
30
0
41
1
10
-1.99503997793931
20
-2.55902307088399
30
0
41
1
10
-1.99503997793931
20
-2.4774350126512
30
0
41
1
10
-1.99503997793931
20
-2.39575870345573
30
0
41
1
10
-1.99503997793931
20
-2.28665935771653
30
0
41
1
10
-1.99503997793931
20
-2.17765163493266
30
0
41
1
10
-1.99503997793931
20
-2.06822032104492
30
0
41
1
10
-1.99503997793931
20
-1.95868775414533
30
0
41
1
10
-1.99503997793931
20
-1.84927659960158
30
0
41
1
10
-1.99503997793931
20
-1.73944749852944
30
0
41
1
10
-1.99503997793931
20
-1.62953014673872
30
0
41
1
10
-1.99503997793931
20
-1.51976604695517
30
0
41
1
10
-1.99503997793931
20
-1.40959256793394
30
0
41
1
10
-1.99503997793931
20
-1.29934600948991
30
0
41
1
10
-1.99503997793931
20
-1.16162399896859
30
0
41
1
10
-1.99503997793931
20
-0.996043871846723
30
0
41
1
10
-1.99503997793931
20
-0.858021465650268
30
0
41
1
10
-1.99503997793931
20
-0.747348246925981
30
0
41
1
10
-1.99503997793931
20
-0.664391443726458
30
0
41
1
10
-1.99503997793931
20
-0.581404932400346
30
0
41
1
10
-1.99503997793931
20
-0.498392839537701
30
0
41
1
10
-1.99503997793931
20
-0.415360877837088
30
0
41
1
10
-1.99503997793931
20
-0.332310822055092
30
0
41
1
10
-1.99503997793931
20
-0.249244906780291
30
0
41
1
10
-1.99503997793931
20
-0.166169118100811
30
0
41
1
10
-1.99503997793931
20
-0.0830872457044052
30
0
41
1
10
-1.99503997793931
20
7.3694082E-09
30
0
41
1
10
-1.99503997793931
20
0.083087258687442
30
0
41
1
10
-1.99503997793931
20
0.16616912676011
30
0
41
1
10
-1.99503997793931
20
0.249244909992626
30
0
41
1
10
-1.99503997793931
20
0.332310821896385
30
0
41
1
10
-1.99503997793931
20
0.415360879438595
30
0
41
1
10
-1.99503997793931
20
0.49839284769439
30
0
41
1
10
-1.99503997793931
20
0.581404948836621
30
0
41
1
10
-1.99503997793931
20
0.664391463462948
30
0
41
1
10
-1.99503997793931
20
0.747348262111132
30
0
41
1
10
-1.99503997793931
20
0.858021466226546
30
0
41
1
10
-1.99503997793931
20
0.996043867302774
30
0
41
1
10
-1.99503997793931
20
1.1616240155829
30
0
41
1
10
-1.99503997793931
20
1.29934603509321
30
0
41
1
10
-1.99503997793931
20
1.40959257648001
30
0
41
1
10
-1.99503997793931
20
1.51976603752371
30
0
41
1
10
-1.99503997793931
20
1.6295301381889
30
0
41
1
10
-1.99503997793931
20
1.73944751085298
30
0
41
1
10
-1.99503997793931
20
1.84927662995438
30
0
41
1
10
-1.99503997793931
20
1.95868778076374
30
0
41
1
10
-1.99503997793931
20
2.06822032488083
30
0
41
1
10
-1.99503997793931
20
2.17765162048647
30
0
41
1
10
-1.99503997793931
20
2.28665934688649
30
0
41
1
10
-1.99503997793931
20
2.39575871579825
30
0
41
1
10
-1.99503997793931
20
2.47743504267544
30
0
41
1
10
-1.99503997793931
20
2.55902310675026
30
0
41
1
10
-1.99503997793931
20
2.64052221841848
30
0
41
1
10
-1.99503997793931
20
2.72193089625398
30
0
41
1
10
-1.99503997793931
20
2.83043414688223
30
0
41
1
10
-1.99503997793931
20
2.96564923158394
30
0
41
1
10
-1.99503997793931
20
3.12761068170505
30
0
41
1
10
-1.99503997793931
20
3.28917313145485
30
0
41
1
10
-1.99503997793931
20
3.45032621656435
30
0
41
1
10
-1.99503997793931
20
3.61106187073108
30
0
41
1
10
-1.99503997793931
20
3.74458052899695
30
0
41
1
10
-1.99503997793931
20
3.8513037606989
30
0
41
1
10
-1.99503997793931
20
3.95788266698423
30
0
41
1
10
-1.99503997793931
20
4.09068021746157
30
0
41
1
10
-1.99503997793931
20
4.30279738744866
30
0
41
1
10
-1.99503997793931
20
4.51362416489167
30
0
41
1
10
-1.99503997793931
20
4.72389491984234
30
0
41
1
10
-1.99503997793931
20
4.93354787471697
30
0
41
1
10
-1.99503997793931
20
5.19417519283297
30
0
41
1
10
-1.99503997793931
20
5.45320484016281
30
0
41
1
10
-1.99503997793931
20
5.65966031743471
30
0
41
1
10
-1.99503997793931
20
5.86547227949211
30
0
41
1
10
-1.99503997793931
20
6.1212865745357
30
0
41
1
10
-1.99503997793931
20
6.4264164329453
30
0
41
1
10
-1.99503997793931
20
6.72956956969858
30
0
41
1
10
-1.99503997793931
20
7.03073644813685
30
0
41
1
10
-1.99503997793931
20
7.32990842680408
30
0
41
1
10
-1.99503997793931
20
7.62707900817009
30
0
41
1
10
-1.99503997793931
20
7.92224261249635
30
0
41
1
10
-1.99503997793931
20
8.2153947490774
30
0
41
1
10
-1.99503997793931
20
8.50653166333223
30
0
41
1
10
-1.99503997793931
20
8.79565052315388
30
0
41
1
10
-1.99503997793931
20
9.08274869992738
30
0
41
1
10
-1.99503997793931
20
9.36782441803416
30
0
41
1
10
-1.99503997793931
20
9.65087566691977
30
0
41
1
10
-1.99503997793931
20
9.93190145357084
30
0
41
1
10
-1.99503997793931
20
10.2109002581502
30
0
41
1
10
-1.99503997793931
20
10.5803285804451
30
0
41
1
10
-1.99503997793931
20
11.036753378672
30
0
41
1
10
-1.99503997793931
20
11.4864047694407
30
0
41
1
10
-1.99503997793931
20
11.8422771919954
30
0
41
1
10
-1.99503997793931
20
12.1070624362612
30
0
41
1
10
-1.99503997793931
20
12.3698135917845
30
0
41
1
10
-1.99503997793931
20
12.6305299496176
30
0
41
1
10
-1.99503997793931
20
12.8892093803249
30
0
41
1
10
-1.99503997793931
20
13.2315065950278
30
0
41
1
10
-1.99503997793931
20
13.5694123671834
30
0
41
1
10
-1.99503997793931
20
13.9035389822172
30
0
41
1
10
-1.99503997793931
20
14.1520156158997
30
0
41
1
10
-1.99503997793931
20
14.3984468555777
30
0
41
1
10
-1.99503997793931
20
14.6428305081908
30
0
41
1
10
-1.99503997793931
20
14.8851632986275
30
0
41
1
10
-1.99503997793931
20
15.1254444180464
30
0
41
1
10
-1.99503997793931
20
15.3636702284228
30
0
41
1
10
-1.99503997793931
20
15.5998373978987
30
0
41
1
10
-1.99503997793931
20
15.7948829493702
30
0
41
1
10
-1.99503997793931
20
15.9499656619051
30
0
41
1
10
-1.99503997793931
20
16.1043598435705
30
0
41
1
10
-1.99503997793931
20
16.2959649333064
30
0
41
1
10
-1.99503997793931
20
16.5999232615433
30
0
41
1
10
-1.99503997793931
20
16.8994864797488
30
0
41
1
10
-1.99503997793931
20
17.1951273648909
30
0
41
1
10
-1.99503997793931
20
17.4879867071929
30
0
41
1
10
-1.99503997793931
20
17.8486596758477
30
0
41
1
10
-1.99503997793931
20
18.202332595015
30
0
41
1
10
-1.99503997793931
20
18.4811831112868
30
0
41
1
10
-1.99503997793931
20
18.7572123739996
30
0
41
1
10
-1.99503997793931
20
19.096784863067
30
0
41
1
10
-1.99503997793931
20
19.4292463867237
30
0
41
1
10
-1.99503997793931
20
19.6910450135594
30
0
41
1
10
-1.99503997793931
20
19.9499723423375
30
0
41
1
10
-1.99503997793931
20
20.2680830253803
30
0
41
1
10
-1.99503997793931
20
20.6411931750869
30
0
41
1
10
-1.99503997793931
20
20.9447536956121
30
0
41
1
10
-1.99503997793931
20
21.1832962289191
30
0
41
1
10
-1.99503997793931
20
21.4188827024374
30
0
41
1
10
-1.99503997793931
20
21.7076686135251
30
0
41
1
10
-1.99503997793931
20
22.0453025532578
30
0
41
1
10
-1.99503997793931
20
22.3738761836524
30
0
41
1
10
-1.99503997793931
20
22.6933032792698
30
0
41
1
10
-1.99503997793931
20
23.0034924076521
30
0
41
1
10
-1.99503997793931
20
23.2541535983722
30
0
41
1
10
-1.99503997793931
20
23.4500539403358
30
0
41
1
10
-1.99503997793931
20
23.6427893362144
30
0
41
1
10
-1.99503997793931
20
23.8776317120835
30
0
41
1
10
-1.99503997793931
20
24.1498376426061
30
0
41
1
10
-1.99503997793931
20
24.3684762393368
30
0
41
1
10
-1.99503997793931
20
24.5385089750245
30
0
41
1
10
-1.99503997793931
20
24.7052121586236
30
0
41
1
10
-1.99503997793931
20
24.9072094601535
30
0
41
1
10
-1.99503997793931
20
25.1007072283818
30
0
41
1
10
-1.99503997793931
20
25.2503983881992
30
0
41
1
10
-1.99503997793931
20
25.3417349423789
30
0
41
1
10
-1.99503997793931
20
25.4135236324805
30
0
41
1
10
-1.99503997793931
20
25.4844312429182
30
0
41
1
10
-1.99503997793931
20
25.5713637005869
30
0
41
1
10
-1.99503997793931
20
25.6730295553062
30
0
41
1
10
-1.99503997793931
20
25.7719964787433
30
0
41
1
10
-1.99503997793931
20
25.8682385377286
30
0
41
1
10
-1.99503997793931
20
25.9617325512637
30
0
41
1
10
-1.99503997793931
20
26.0524523997801
30
0
41
1
10
-1.99503997793931
20
26.1403699848693
30
0
41
1
10
-1.99503997793931
20
26.2254595087627
30
0
41
1
10
-1.99503997793931
20
26.3076915686753
30
0
41
1
10
-1.99503997793931
20
26.387035697685
30
0
41
1
10
-1.99503997793931
20
26.4889678074055
30
0
41
1
10
-1.99503997793931
20
26.5849135587966
30
0
41
1
10
-1.99503997793931
20
26.674910802648
30
0
41
1
10
-1.99503997793931
20
26.7393343904956
30
0
41
1
10
-1.99503997793931
20
26.8006684557748
30
0
41
1
10
-1.99503997793931
20
26.8588742679962
30
0
41
1
10
-1.99503997793931
20
26.9139107109326
30
0
41
1
10
-1.99503997793931
20
26.9657375531884
30
0
41
1
10
-1.99503997793931
20
27.0143097024856
30
0
41
1
10
-1.99503997793931
20
27.074692746873
30
0
41
1
10
-1.99503997793931
20
27.1417627231677
30
0
41
1
10
-1.99503997793931
20
27.197345310989
30
0
41
1
10
-1.99503997793931
20
27.2347184649703
30
0
41
1
10
-1.99503997793931
20
27.2591194067693
30
0
41
1
10
-1.99503997793931
20
27.2798390211927
30
0
41
1
10
-1.99503997793931
20
27.2968118977756
30
0
41
1
10
-1.99503997793931
20
27.309968420024
30
0
41
1
10
-1.99503997793931
20
27.319236545434
30
0
41
1
10
-1.99503997793931
20
27.3243833766306
30
0
41
1
10
-1.99503997793926
20
27.3252975802244
30
0
41
1
10
-1.99503997793937
20
27.3251619257123
30
0
0
SPLINE
5
21E
100
AcDbEntity
8
1
62
256
6
ByLayer
370
18
48
1
60
0
100
AcDbSpline
70
4
71
3
72
8
73
4
40
0
40
0
40
0
40
0
40
1
40
1
40
1
40
1
41
1
10
374.415000577459
20
-1.09434488058264
30
0
41
1
10
374.446276418214
20
-1.24046920905539
30
0
41
1
10
374.499892145222
20
-1.36203482686051
30
0
41
1
10
374.574358432734
20
-1.46026966953127
30
0
0
SPLINE
5
21F
100
AcDbEntity
8
1
62
256
6
ByLayer
370
18
48
1
60
0
100
AcDbSpline
70
4
71
3
72
10
73
6
40
0
40
0
40
0
40
0
40
0.339661016949153
40
0.339661016949153
40
1
40
1
40
1
40
1
41
1
10
374.366616198339
20
-1.09434488058264
30
0
41
1
10
374.347254963586
20
-1.01084526431259
30
0
41
1
10
374.338319009085
20
-0.867176806906514
30
0
41
1
10
374.338319009085
20
-0.263441836325796
30
0
41
1
10
374.338319009085
20
0.135227900179643
30
0
41
1
10
374.338319009085
20
0.533897636685197
30
0
0
SPLINE
5
220
100
AcDbEntity
8
1
62
256
6
ByLayer
370
18
48
1
60
0
100
AcDbSpline
70
4
71
3
72
8
73
4
40
0
40
0
40
0
40
0
40
1
40
1
40
1
40
1
41
1
10
373.700124217348
20
1.16874030744498
30
0
41
1
10
375.6407156699
20
1.16874030744498
30
0
41
1
10
377.581307122452
20
1.16874030744498
30
0
41
1
10
379.521898575004
20
1.16874030744498
30
0
0
SPLINE
5
221
100
AcDbEntity
8
SK1
62
256
6
ByLayer
370
18
48
1
60
0
100
AcDbSpline
70
4
71
3
72
22
73
18
40
0
40
0
40
0
40
0
40
0.0276166365282475
40
0.0276166365282475
40
0.0512803322740609
40
0.0512803322740609
40
0.0708603965379502
40
0.0708603965379502
40
0.090380093346315
40
0.090380093346315
40
0.120092976656546
40
0.120092976656546
40
0.176362445146317
40
0.176362445146317
40
0.365833743481014
40
0.365833743481014
40
1
40
1
40
1
40
1
41
1
10
-0.394976888875249
20
5.88246916452647
30
0
41
1
10
-0.389431041122748
20
5.87772735505644
30
0
41
1
10
-0.383385953788945
20
5.87346388577339
30
0
41
1
10
-0.371253136804057
20
5.86750502434097
30
0
41
1
10
-0.365168155452693
20
5.86550357178896
30
0
41
1
10
-0.353783340186624
20
5.86416305490638
30
0
41
1
10
-0.34841570063179
20
5.86443681096557
30
0
41
1
10
-0.338160192115538
20
5.8667992026102
30
0
41
1
10
-0.333157430693518
20
5.86889480045636
30
0
41
1
10
-0.321590654821307
20
5.87567407240635
30
0
41
1
10
-0.315341997586472
20
5.88118861362102
30
0
41
1
10
-0.299493306550062
20
5.89858604824292
30
0
41
1
10
-0.291331302219021
20
5.91203800602841
30
0
41
1
10
-0.261121692327663
20
5.97162491315771
30
0
41
1
10
-0.248739051700454
20
6.0224672435852
30
0
41
1
10
-0.20496744481045
20
6.23921058743338
30
0
41
1
10
-0.200000000000159
20
6.40949348740787
30
0
41
1
10
-0.200000000000159
20
6.5765733851174
30
0
0
SPLINE
5
222
100
AcDbEntity
8
1
62
256
6
ByLayer
370
18
48
1
60
0
100
AcDbSpline
70
4
71
3
72
8
73
4
40
0
40
0
40
0
40
0
40
1
40
1
40
1
40
1
41
1
10
376.388357196516
20
0.533897636685197
30
0
41
1
10
375.721139260412
20
0.533897636685197
30
0
41
1
10
375.053921324308
20
0.533897636685197
30
0
41
1
10
374.386703388204
20
0.533897636685197
30
0
0
SPLINE
5
223
100
AcDbEntity
8
1
62
256
6
ByLayer
370
18
48
1
60
0
100
AcDbSpline
70
4
71
3
72
10
73
6
40
0
40
0
40
0
40
0
40
0.660338983050847
40
0.660338983050847
40
1
40
1
40
1
40
1
41
1
10
374.386703388204
20
0.533897636685197
30
0
41
1
10
374.386703388204
20
0.135227900179643
30
0
41
1
10
374.386703388204
20
-0.263441836325796
30
0
41
1
10
374.386703388204
20
-0.867176806906514
30
0
41
1
10
374.395639342706
20
-1.01084526431259
30
0
41
1
10
374.415000577459
20
-1.09434488058264
30
0
0
SPLINE
5
224
100
AcDbEntity
8
SK1
62
256
6
ByLayer
370
18
48
1
60
0
100
AcDbSpline
70
4
71
3
72
110
73
106
40
0
40
0
40
0
40
0
40
0.0065953833734406
40
0.0145535998017218
40
0.022511816230003
40
0.0304700326582842
40
0.0384282490865654
40
0.0463864655148466
40
0.0543446819431278
40
0.062302898371409
40
0.0702611147996902
40
0.0782193312279714
40
0.0861775476562526
40
0.0941357640845338
40
0.102093980512815
40
0.110052196941096
40
0.118010413369377
40
0.125968629797659
40
0.141885062654221
40
0.157801495510783
40
0.165759711939065
40
0.173717928367346
40
0.181676144795627
40
0.189634361223908
40
0.197592577652189
40
0.205550794080471
40
0.221467226937033
40
0.229425443365314
40
0.237383659793595
40
0.245341876221877
40
0.253300092650158
40
0.261258309078439
40
0.26921652550672
40
0.277174741935002
40
0.285132958363283
40
0.293091174791564
40
0.297070283005704
40
0.301049391219845
40
0.309007607648126
40
0.316965824076408
40
0.33288225693297
40
0.340840473361251
40
0.348798689789532
40
0.364715122646095
40
0.380631555502657
40
0.388589771930938
40
0.39654798835922
40
0.412464421215782
40
0.428380854072344
40
0.436339070500625
40
0.444297286928907
40
0.460213719785469
40
0.476130152642032
40
0.492046585498594
40
0.500004801926875
40
0.507963018355156
40
0.523879451211719
40
0.539795884068281
40
0.555712316924844
40
0.571628749781406
40
0.587545182637968
40
0.603461615494531
40
0.611419831922812
40
0.619378048351093
40
0.635294481207656
40
0.651210914064218
40
0.66712734692078
40
0.675085563349062
40
0.683043779777343
40
0.698960212633905
40
0.714876645490468
40
0.722834861918749
40
0.73079307834703
40
0.734772186561171
40
0.738751294775311
40
0.746709511203592
40
0.754667727631874
40
0.762625944060155
40
0.770584160488436
40
0.778542376916717
40
0.786500593344998
40
0.79445880977328
40
0.802417026201561
40
0.810375242629842
40
0.818333459058123
40
0.826291675486404
40
0.842208108342967
40
0.850166324771248
40
0.858124541199529
40
0.866082757627811
40
0.874040974056092
40
0.881999190484373
40
0.889957406912654
40
0.897915623340935
40
0.905873839769216
40
0.921790272625779
40
0.937706705482341
40
0.945664921910622
40
0.953623138338904
40
0.961581354767185
40
0.969539571195466
40
0.977497787623747
40
0.985456004052028
40
0.99341422048031
40
1
40
1
40
1
40
1
41
1
10
-0.394976888875249
20
5.88246916452647
30
0
41
1
10
-0.394976888875249
20
5.96764092579406
30
0
41
1
10
-0.394976888875249
20
6.15502928738749
30
0
41
1
10
-0.394976888875249
20
6.44325210311729
30
0
41
1
10
-0.394976888875249
20
6.7469277713501
30
0
41
1
10
-0.394976888875249
20
7.04859942112898
30
0
41
1
10
-0.394976888875249
20
7.34825961897889
30
0
41
1
10
-0.394976888875249
20
7.64590290818535
30
0
41
1
10
-0.394976888875249
20
7.94152469111089
30
0
41
1
10
-0.394976888875249
20
8.23512137696343
30
0
41
1
10
-0.394976888875249
20
8.52669000819799
30
0
41
1
10
-0.394976888875249
20
8.81622850233532
30
0
41
1
10
-0.394976888875249
20
9.10373490192171
30
0
41
1
10
-0.394976888875249
20
9.38920806992326
30
0
41
1
10
-0.394976888875249
20
9.67264656600764
30
0
41
1
10
-0.394976888875249
20
9.95404991412454
30
0
41
1
10
-0.394976888875249
20
10.2334171055167
30
0
41
1
10
-0.394976888875249
20
10.6032942253079
30
0
41
1
10
-0.394976888875249
20
11.0603255640275
30
0
41
1
10
-0.394976888875249
20
11.51055947116
30
0
41
1
10
-0.394976888875249
20
11.8668345044804
30
0
41
1
10
-0.394976888875249
20
12.1319348240103
30
0
41
1
10
-0.394976888875249
20
12.3949946525975
30
0
41
1
10
-0.394976888875249
20
12.6560136144781
30
0
41
1
10
-0.394976888875249
20
12.9149897871744
30
0
41
1
10
-0.394976888875249
20
13.2576504503012
30
0
41
1
10
-0.394976888875249
20
13.595980784257
30
0
41
1
10
-0.394976888875249
20
13.9304519502906
30
0
41
1
10
-0.394976888875249
20
14.1791991341329
30
0
41
1
10
-0.394976888875249
20
14.4258961509421
30
0
41
1
10
-0.394976888875249
20
14.6705410876498
30
0
41
1
10
-0.394976888875249
20
14.9131307556186
30
0
41
1
10
-0.394976888875249
20
15.1536644316209
30
0
41
1
10
-0.394976888875249
20
15.3921387609621
30
0
41
1
10
-0.394976888875249
20
15.6285504084944
30
0
41
1
10
-0.394976888875249
20
15.8238065102557
30
0
41
1
10
-0.394976888875249
20
15.9790378411121
30
0
41
1
10
-0.394976888875249
20
16.1335794000815
30
0
41
1
10
-0.394976888875249
20
16.3253883940748
30
0
41
1
10
-0.394976888875249
20
16.6296334809576
30
0
41
1
10
-0.394976888875249
20
16.9295332745893
30
0
41
1
10
-0.394976888875249
20
17.2254485445636
30
0
41
1
10
-0.394976888875249
20
17.5185779629222
30
0
41
1
10
-0.394976888875249
20
17.8796208110748
30
0
41
1
10
-0.394976888875249
20
18.2336536051105
30
0
41
1
10
-0.394976888875249
20
18.5127557060901
30
0
41
1
10
-0.394976888875249
20
18.789032857947
30
0
41
1
10
-0.394976888875249
20
19.1289452116702
30
0
41
1
10
-0.394976888875249
20
19.4617376778078
30
0
41
1
10
-0.394976888875249
20
19.7237678579096
30
0
41
1
10
-0.394976888875249
20
19.9829235092941
30
0
41
1
10
-0.394976888875249
20
20.3013474418474
30
0
41
1
10
-0.394976888875249
20
20.6748062117952
30
0
41
1
10
-0.394976888875249
20
20.9786637899232
30
0
41
1
10
-0.394976888875249
20
21.2174142726432
30
0
41
1
10
-0.394976888875249
20
21.453205904272
30
0
41
1
10
-0.394976888875249
20
21.7422733615616
30
0
41
1
10
-0.394976888875249
20
22.0802205832225
30
0
41
1
10
-0.394976888875249
20
22.4090991723375
30
0
41
1
10
-0.394976888875249
20
22.7288230545111
30
0
41
1
10
-0.394976888875249
20
23.0393009244132
30
0
41
1
10
-0.394976888875249
20
23.2902077684041
30
0
41
1
10
-0.394976888875249
20
23.4862798848862
30
0
41
1
10
-0.394976888875249
20
23.6791846777825
30
0
41
1
10
-0.394976888875249
20
23.9142591485119
30
0
41
1
10
-0.394976888875249
20
24.1867224773567
30
0
41
1
10
-0.394976888875249
20
24.4055794218945
30
0
41
1
10
-0.394976888875249
20
24.5757644878036
30
0
41
1
10
-0.394976888875249
20
24.7426176812545
30
0
41
1
10
-0.394976888875249
20
24.9448199373791
30
0
41
1
10
-0.394976888875249
20
25.1385155212165
30
0
41
1
10
-0.394976888875249
20
25.2883442684716
30
0
41
1
10
-0.394976888875249
20
25.3797753879956
30
0
41
1
10
-0.394976888875249
20
25.4516306650615
30
0
41
1
10
-0.394976888875249
20
25.5226042889744
30
0
41
1
10
-0.394976888875249
20
25.609627837172
30
0
41
1
10
-0.394976888875249
20
25.7113956543376
30
0
41
1
10
-0.394976888875249
20
25.810462475175
30
0
41
1
10
-0.394976888875249
20
25.90680231755
30
0
41
1
10
-0.394976888875249
20
26.0003919407076
30
0
41
1
10
-0.394976888875249
20
26.0912052473129
30
0
41
1
10
-0.394976888875249
20
26.1792140698964
30
0
41
1
10
-0.394976888875249
20
26.2643925590693
30
0
41
1
10
-0.394976888875249
20
26.3467113117503
30
0
41
1
10
-0.394976888875249
20
26.4261397788478
30
0
41
1
10
-0.394976888875249
20
26.5281744083644
30
0
41
1
10
-0.394976888875249
20
26.6242375656597
30
0
41
1
10
-0.394976888875249
20
26.7143277379812
30
0
41
1
10
-0.394976888875249
20
26.7788231109009
30
0
41
1
10
-0.394976888875249
20
26.8402262313527
30
0
41
1
10
-0.394976888875249
20
26.8984983126749
30
0
41
1
10
-0.394976888875249
20
26.9535981308651
30
0
41
1
10
-0.394976888875249
20
27.0054853645574
30
0
41
1
10
-0.394976888875249
20
27.0541148220589
30
0
41
1
10
-0.394976888875249
20
27.1145655761239
30
0
41
1
10
-0.394976888875249
20
27.1817216262674
30
0
41
1
10
-0.394976888875249
20
27.2373773347496
30
0
41
1
10
-0.394976888875249
20
27.27479540739
30
0
41
1
10
-0.394976888875249
20
27.2992282088758
30
0
41
1
10
-0.394976888875249
20
27.3199753370632
30
0
41
1
10
-0.394976888875249
20
27.3369711539198
30
0
41
1
10
-0.394976888875249
20
27.350145787712
30
0
41
1
10
-0.394976888875249
20
27.3594269183726
30
0
41
1
10
-0.394976888875249
20
27.3644317037775
30
0
41
1
10
-0.394976888875249
20
27.3654109980479
30
0
41
1
10
-0.394976888875249
20
27.3653838082718
30
0
0
SPLINE
5
225
100
AcDbEntity
8
1
62
256
6
ByLayer
370
18
48
1
60
0
100
AcDbSpline
70
4
71
3
72
22
73
18
40
0
40
0
40
0
40
0
40
0.125919801008142
40
0.125919801008142
40
0.228173823812626
40
0.228173823812626
40
0.362000949327647
40
0.362000949327647
40
0.497453699158081
40
0.497453699158081
40
0.624996799363382
40
0.624996799363382
40
0.753577031326435
40
0.753577031326435
40
0.881194351724582
40
0.881194351724582
40
1
40
1
40
1
40
1
41
1
10
377.074936367373
20
0.533897636685197
30
0
41
1
10
377.074936367373
20
0.18761981627074
30
0
41
1
10
377.074936367373
20
-0.158658004143717
30
0
41
1
10
377.074936367373
20
-0.78613306170314
30
0
41
1
10
377.098765579377
20
-0.987514489178238
30
0
41
1
10
377.201920953716
20
-1.27101671513765
30
0
41
1
10
377.298335229907
20
-1.3939611507285
30
0
41
1
10
377.568042066802
20
-1.55703309538774
30
0
41
1
10
377.737686326226
20
-1.59779844927038
30
0
41
1
10
378.133846975788
20
-1.59779844927038
30
0
41
1
10
378.305119437064
20
-1.55973244773543
30
0
41
1
10
378.598214125648
20
-1.4068493652361
30
0
41
1
10
378.699790760876
20
-1.29818217912452
30
0
41
1
10
378.806620697468
20
-1.01436784387511
30
0
41
1
10
378.835319404147
20
-0.770169899769144
30
0
41
1
10
378.835319404147
20
-0.106266088052621
30
0
41
1
10
378.835319404147
20
0.213815774316231
30
0
41
1
10
378.835319404147
20
0.533897636685197
30
0
0
SPLINE
5
226
100
AcDbEntity
8
SK1
62
256
6
ByLayer
370
18
48
1
60
0
100
AcDbSpline
70
4
71
3
72
20
73
16
40
0
40
0
40
0
40
0
40
0.040649643571122
40
0.040649643571122
40
0.0819863282288986
40
0.0819863282288986
40
0.119736700183767
40
0.119736700183767
40
0.159331058537086
40
0.159331058537086
40
0.224709017028576
40
0.224709017028576
40
0.413512533702576
40
0.413512533702576
40
1
40
1
40
1
40
1
41
1
10
-0.394976888875249
20
-5.88246902087485
30
0
41
1
10
-0.416011566091868
20
-5.90045407019966
30
0
41
1
10
-0.43906108838496
20
-5.91682924661427
30
0
41
1
10
-0.489461725989997
20
-5.94275107838655
30
0
41
1
10
-0.517648772344842
20
-5.95236129920659
30
0
41
1
10
-0.572820404185563
20
-5.95923768888179
30
0
41
1
10
-0.600427368008241
20
-5.95744746962771
30
0
41
1
10
-0.653338858151528
20
-5.94441127726418
30
0
41
1
10
-0.679289501071992
20
-5.93273995114203
30
0
41
1
10
-0.741510950838688
20
-5.89499382317194
30
0
41
1
10
-0.775142572169216
20
-5.86418184504055
30
0
41
1
10
-0.889702195357359
20
-5.73722946405996
30
0
41
1
10
-0.948923318613026
20
-5.62404508257816
30
0
41
1
10
-1.15697823913786
20
-5.15876570946284
30
0
41
1
10
-1.23929188630859
20
-4.77638761348987
30
0
41
1
10
-1.30710678118652
20
-4.3932391538923
30
0
0
SPLINE
5
227
100
AcDbEntity
8
1
62
256
6
ByLayer
370
18
48
1
60
0
100
AcDbSpline
70
4
71
3
72
16
73
12
40
0
40
0
40
0
40
0
40
0.038048536540096
40
0.038048536540096
40
0.245826769634401
40
0.245826769634401
40
0.453605002728712
40
0.453605002728712
40
0.660499169421016
40
0.660499169421016
40
1
40
1
40
1
40
1
41
1
10
377.838645192538
20
-2.21635020610859
30
0
41
1
10
377.886587044926
20
-2.22066497316371
30
0
41
1
10
377.935097645383
20
-2.22281763576302
30
0
41
1
10
378.252267080694
20
-2.22281763576302
30
0
41
1
10
378.508431109734
20
-2.16019292356043
30
0
41
1
10
378.996929955809
20
-1.90969407474995
30
0
41
1
10
379.178124945775
20
-1.73627169149438
30
0
41
1
10
379.413941165874
20
-1.29327043699095
30
0
41
1
10
379.473514195884
20
-0.998565908978662
30
0
41
1
10
379.473514195884
20
-0.0321806442051411
30
0
41
1
10
379.473514195884
20
0.568279831619975
30
0
41
1
10
379.473514195884
20
1.16874030744498
30
0
0
SPLINE
5
228
100
AcDbEntity
8
1
62
256
6
ByLayer
370
18
48
1
60
0
100
AcDbSpline
70
4
71
3
72
16
73
12
40
0
40
0
40
0
40
0
40
0.0007519841135428
40
0.0007519841135428
40
0.272839399974559
40
0.272839399974559
40
0.541661382540975
40
0.541661382540975
40
0.747061663163512
40
0.747061663163512
40
1
40
1
40
1
40
1
41
1
10
377.895030768529
20
-1.59779746543904
30
0
41
1
10
377.894467217021
20
-1.59779812132661
30
0
41
1
10
377.89390348577
20
-1.59779844927038
30
0
41
1
10
377.689301947106
20
-1.59779844927038
30
0
41
1
10
377.519657687683
20
-1.55703309538774
30
0
41
1
10
377.249950850788
20
-1.3939611507285
30
0
41
1
10
377.153536574596
20
-1.27101671513765
30
0
41
1
10
377.050381200256
20
-0.987514489178238
30
0
41
1
10
377.026551988253
20
-0.78613306170314
30
0
41
1
10
377.026551988253
20
-0.158658004143717
30
0
41
1
10
377.026551988253
20
0.18761981627074
30
0
41
1
10
377.026551988253
20
0.533897636685197
30
0
0
SPLINE
5
229
100
AcDbEntity
8
SK1
62
256
6
ByLayer
370
18
48
1
60
0
100
AcDbSpline
70
4
71
3
72
297
73
293
40
0
40
0
40
0
40
0
40
0.0034445104030421
40
0.006966178702991
40
0.0104878470029398
40
0.0140095153028887
40
0.0175311836028375
40
0.0210528519027864
40
0.0280961885026841
40
0.0351395251025818
40
0.0386611934025307
40
0.0421828617024795
40
0.0457045300024284
40
0.0492261983023773
40
0.0527478666023261
40
0.056269534902275
40
0.0597912032022238
40
0.0633128715021727
40
0.0703562081020704
40
0.0738778764020193
40
0.0773995447019681
40
0.080921213001917
40
0.0844428813018659
40
0.0879645496018147
40
0.0914862179017636
40
0.0950078862017124
40
0.0985295545016612
40
0.10205122280161
40
0.105572891101559
40
0.112616227701457
40
0.116137896001406
40
0.119659564301355
40
0.126702900901252
40
0.13374623750115
40
0.137267905801099
40
0.140789574101048
40
0.147832910700945
40
0.154876247300843
40
0.161919583900741
40
0.16544125220069
40
0.168962920500638
40
0.176006257100536
40
0.183049593700434
40
0.190092930300332
40
0.197136266900229
40
0.204179603500127
40
0.211222940100025
40
0.214744608399974
40
0.218266276699922
40
0.22530961329982
40
0.232352949899718
40
0.239396286499616
40
0.242917954799565
40
0.246439623099513
40
0.253482959699411
40
0.260526296299309
40
0.264047964599258
40
0.267569632899206
40
0.274612969499104
40
0.281656306099002
40
0.285177974398951
40
0.2886996426989
40
0.295742979298797
40
0.299264647598746
40
0.302786315898695
40
0.306307984198644
40
0.309829652498593
40
0.313351320798542
40
0.31687298909849
40
0.320394657398439
40
0.323916325698388
40
0.327437993998337
40
0.330959662298286
40
0.334481330598235
40
0.338002998898184
40
0.345046335498082
40
0.34856800379803
40
0.352089672097979
40
0.355611340397928
40
0.359133008697877
40
0.362654676997826
40
0.366176345297775
40
0.373219681897672
40
0.376741350197621
40
0.38026301849757
40
0.383784686797519
40
0.387306355097468
40
0.390828023397417
40
0.394349691697365
40
0.397871359997314
40
0.401393028297263
40
0.404914696597212
40
0.408436364897161
40
0.41195803319711
40
0.415479701497058
40
0.419001369797007
40
0.422523038096956
40
0.426044706396905
40
0.429566374696854
40
0.433088042996803
40
0.436609711296752
40
0.438370545446726
40
0.440131379596701
40
0.44365304789665
40
0.447174716196598
40
0.448935550346573
40
0.450696384496547
40
0.454218052796496
40
0.45597888694647
40
0.457739721096445
40
0.458620138171432
40
0.459500555246419
40
0.461261389396394
40
0.463022223546368
40
0.464783057696343
40
0.466543891846317
40
0.468304725996292
40
0.470065560146266
40
0.470945977221253
40
0.47182639429624
40
0.472706811371228
40
0.473587228446215
40
0.474467645521202
40
0.475348062596189
40
0.477108896746164
40
0.477989313821151
40
0.478869730896138
40
0.480630565046113
40
0.4815109821211
40
0.482391399196087
40
0.484152233346061
40
0.485032650421048
40
0.485913067496036
40
0.48767390164601
40
0.489434735795985
40
0.491195569945959
40
0.492075987020946
40
0.492956404095934
40
0.493836821170921
40
0.494717238245908
40
0.495597655320895
40
0.496478072395882
40
0.49735848947087
40
0.498238906545857
40
0.499119323620844
40
0.499999740695831
40
0.500880157770818
40
0.501760574845806
40
0.502640991920793
40
0.50352140899578
40
0.504401826070767
40
0.505282243145754
40
0.506162660220742
40
0.507043077295729
40
0.507923494370716
40
0.508803911445703
40
0.510564745595678
40
0.512325579745652
40
0.514086413895627
40
0.514966830970614
40
0.515847248045601
40
0.517608082195576
40
0.518488499270563
40
0.51936891634555
40
0.521129750495524
40
0.522010167570512
40
0.522890584645499
40
0.524651418795473
40
0.52553183587046
40
0.526412252945448
40
0.527292670020435
40
0.528173087095422
40
0.529053504170409
40
0.529933921245397
40
0.531694755395371
40
0.533455589545345
40
0.53521642369532
40
0.536977257845294
40
0.538738091995269
40
0.540498926145243
40
0.54137934322023
40
0.542259760295217
40
0.544020594445192
40
0.545781428595166
40
0.549303096895115
40
0.55106393104509
40
0.552824765195064
40
0.556346433495013
40
0.559868101794962
40
0.561628935944936
40
0.563389770094911
40
0.56691143839486
40
0.570433106694808
40
0.573954774994757
40
0.577476443294706
40
0.580998111594655
40
0.584519779894604
40
0.588041448194553
40
0.591563116494502
40
0.59508478479445
40
0.598606453094399
40
0.602128121394348
40
0.605649789694297
40
0.609171457994246
40
0.612693126294195
40
0.616214794594144
40
0.619736462894092
40
0.62677979949399
40
0.633823136093888
40
0.637344804393837
40
0.640866472693785
40
0.644388140993734
40
0.647909809293683
40
0.651431477593632
40
0.654953145893581
40
0.661996482493479
40
0.665518150793428
40
0.669039819093376
40
0.672561487393325
40
0.676083155693274
40
0.679604823993223
40
0.683126492293172
40
0.686648160593121
40
0.69016982889307
40
0.693691497193018
40
0.695452331342993
40
0.697213165492968
40
0.700734833792916
40
0.704256502092865
40
0.711299838692763
40
0.714821506992712
40
0.71834317529266
40
0.725386511892558
40
0.732429848492456
40
0.735951516792405
40
0.739473185092354
40
0.746516521692251
40
0.753559858292149
40
0.757081526592098
40
0.760603194892047
40
0.767646531491944
40
0.774689868091842
40
0.78173320469174
40
0.785254872991689
40
0.788776541291638
40
0.795819877891535
40
0.802863214491433
40
0.809906551091331
40
0.816949887691229
40
0.823993224291126
40
0.831036560891024
40
0.834558229190973
40
0.838079897490922
40
0.845123234090819
40
0.852166570690717
40
0.859209907290615
40
0.862731575590564
40
0.866253243890513
40
0.87329658049041
40
0.880339917090308
40
0.883861585390257
40
0.887383253690206
40
0.88914408784018
40
0.890904921990154
40
0.894426590290103
40
0.897948258590052
40
0.901469926890001
40
0.90499159518995
40
0.908513263489899
40
0.912034931789848
40
0.915556600089797
40
0.919078268389746
40
0.922599936689694
40
0.926121604989643
40
0.929643273289592
40
0.93668660988949
40
0.940208278189439
40
0.943729946489387
40
0.947251614789336
40
0.950773283089285
40
0.954294951389234
40
0.957816619689183
40
0.961338287989132
40
0.964859956289081
40
0.971903292888978
40
0.978946629488876
40
0.982468297788825
40
0.985989966088774
40
0.989511634388723
40
0.993033302688671
40
0.99655497098862
40
1
40
1
40
1
40
1
41
1
10
-46.5000000000001
20
-26.4005849807149
30
0
41
1
10
-46.5
20
-26.3982590121593
30
0
41
1
10
-46.5
20
-26.3923165563954
30
0
41
1
10
-46.5
20
-26.3796666797908
30
0
41
1
10
-46.5
20
-26.3632177086405
30
0
41
1
10
-46.5
20
-26.3431264926158
30
0
41
1
10
-46.5
20
-26.3194531526336
30
0
41
1
10
-46.5
20
-26.2831057174252
30
0
41
1
10
-46.5
20
-26.2291930886236
30
0
41
1
10
-46.5
20
-26.1640888761727
30
0
41
1
10
-46.5
20
-26.1052520927383
30
0
41
1
10
-46.5
20
-26.0579887211792
30
0
41
1
10
-46.5
20
-26.0075410833254
30
0
41
1
10
-46.5
20
-25.9539520563292
30
0
41
1
10
-46.5
20
-25.8972596671495
30
0
41
1
10
-46.5
20
-25.8375026350058
30
0
41
1
10
-46.5
20
-25.7747185038326
30
0
41
1
10
-46.5
20
-25.6868434692657
30
0
41
1
10
-46.5
20
-25.5935790625545
30
0
41
1
10
-46.5
20
-25.4939882216236
30
0
41
1
10
-46.5
20
-25.4165702112604
30
0
41
1
10
-46.5
20
-25.3363180229215
30
0
41
1
10
-46.5
20
-25.2532602220169
30
0
41
1
10
-46.5
20
-25.1674263269856
30
0
41
1
10
-46.5
20
-25.0788408868142
30
0
41
1
10
-46.5
20
-24.9875302738736
30
0
41
1
10
-46.5
20
-24.8935210874344
30
0
41
1
10
-46.5
20
-24.7968362527739
30
0
41
1
10
-46.5
20
-24.6641535645997
30
0
41
1
10
-46.5
20
-24.5269227085665
30
0
41
1
10
-46.5
20
-24.3838015939208
30
0
41
1
10
-46.5
20
-24.2372525971634
30
0
41
1
10
-46.5
20
-24.0482725228685
30
0
41
1
10
-46.5
20
-23.850955898421
30
0
41
1
10
-46.5
20
-23.6876786019558
30
0
41
1
10
-46.5
20
-23.5211247254417
30
0
41
1
10
-46.5
20
-23.3074726991927
30
0
41
1
10
-46.5
20
-23.0411451576491
30
0
41
1
10
-46.5
20
-22.811603290218
30
0
41
1
10
-46.5
20
-22.6227365313406
30
0
41
1
10
-46.5
20
-22.430759131675
30
0
41
1
10
-46.5
20
-22.1857080938538
30
0
41
1
10
-46.5
20
-21.8821131574231
30
0
41
1
10
-46.5
20
-21.5694639882747
30
0
41
1
10
-46.5
20
-21.2478549114363
30
0
41
1
10
-46.5
20
-20.9173756153364
30
0
41
1
10
-46.5
20
-20.6350195698474
30
0
41
1
10
-46.5
20
-20.4041184359554
30
0
41
1
10
-46.5
20
-20.1703249928589
30
0
41
1
10
-46.5
20
-19.8735485854937
30
0
41
1
10
-46.5
20
-19.5084001148029
30
0
41
1
10
-46.5
20
-19.197443340025
30
0
41
1
10
-46.5
20
-18.9437303760812
30
0
41
1
10
-46.5
20
-18.6872198879946
30
0
41
1
10
-46.5
20
-18.3623163297431
30
0
41
1
10
-46.5
20
-18.0305055738421
30
0
41
1
10
-46.5
20
-17.760137536785
30
0
41
1
10
-46.5
20
-17.4870326238008
30
0
41
1
10
-46.5
20
-17.141578419983
30
0
41
1
10
-46.5
20
-16.7893526613563
30
0
41
1
10
-46.5
20
-16.5026611888573
30
0
41
1
10
-46.5
20
-16.213286735967
30
0
41
1
10
-46.5
20
-15.9214104773834
30
0
41
1
10
-46.5
20
-15.6239999053158
30
0
41
1
10
-46.5
20
-15.3993479391742
30
0
41
1
10
-46.5
20
-15.1727131739385
30
0
41
1
10
-46.5
20
-14.9440989510647
30
0
41
1
10
-46.5
20
-14.7135145143936
30
0
41
1
10
-46.5
20
-14.4809638211463
30
0
41
1
10
-46.5
20
-14.246450720846
30
0
41
1
10
-46.5
20
-14.0099844817145
30
0
41
1
10
-46.5
20
-13.7715679573404
30
0
41
1
10
-46.5
20
-13.5312065194643
30
0
41
1
10
-46.5
20
-13.2889085465965
30
0
41
1
10
-46.5
20
-12.9626507598828
30
0
41
1
10
-46.5
20
-12.6344409449825
30
0
41
1
10
-46.5
20
-12.3004440311799
30
0
41
1
10
-46.5
20
-12.0485415833541
30
0
41
1
10
-46.5
20
-11.7947361066789
30
0
41
1
10
-46.5
20
-11.5390343183575
30
0
41
1
10
-46.5
20
-11.281444487853
30
0
41
1
10
-46.5
20
-10.9347667406994
30
0
41
1
10
-46.5
20
-10.586566157494
30
0
41
1
10
-46.5
20
-10.232343426472
30
0
41
1
10
-46.5
20
-9.96542491303103
30
0
41
1
10
-46.5
20
-9.69666702608527
30
0
41
1
10
-46.5
20
-9.42608142898109
30
0
41
1
10
-46.5
20
-9.15367874030949
30
0
41
1
10
-46.5
20
-8.87947149804472
30
0
41
1
10
-46.5
20
-8.60347117534138
30
0
41
1
10
-46.5
20
-8.32569604592516
30
0
41
1
10
-46.5
20
-8.0461621387675
30
0
41
1
10
-46.5
20
-7.76488418006784
30
0
41
1
10
-46.5
20
-7.48188354614013
30
0
41
1
10
-46.5
20
-7.1971840165611
30
0
41
1
10
-46.5
20
-6.91080958282794
30
0
41
1
10
-46.5
20
-6.62278719976098
30
0
41
1
10
-46.5
20
-6.33314802823861
30
0
41
1
10
-46.5
20
-6.04192849679623
30
0
41
1
10
-46.5
20
-5.74916632270845
30
0
41
1
10
-46.5
20
-5.50455825405027
30
0
41
1
10
-46.5
20
-5.30698791061081
30
0
41
1
10
-46.5
20
-5.10896440271245
30
0
41
1
10
-46.5
20
-4.86210999380614
30
0
41
1
10
-46.5
20
-4.61410932418949
30
0
41
1
10
-46.5
20
-4.41377359776482
30
0
41
1
10
-46.5
20
-4.21306090369296
30
0
41
1
10
-46.5
20
-4.0140732255627
30
0
41
1
10
-46.5
20
-3.81214209897178
30
0
41
1
10
-46.5
20
-3.68664870804332
30
0
41
1
10
-46.5
20
-3.58538042142959
30
0
41
1
10
-46.5
20
-3.48404272537243
30
0
41
1
10
-46.5
20
-3.35820741865734
30
0
41
1
10
-46.5
20
-3.20645087454693
30
0
41
1
10
-46.5
20
-3.05450118032695
30
0
41
1
10
-46.5
20
-2.90237254212093
30
0
41
1
10
-46.5
20
-2.75008154091461
30
0
41
1
10
-46.5
20
-2.62353075560304
30
0
41
1
10
-46.5
20
-2.52133341402544
30
0
41
1
10
-46.5
20
-2.44503916247595
30
0
41
1
10
-46.5
20
-2.36872116745508
30
0
41
1
10
-46.5
20
-2.29238035464516
30
0
41
1
10
-46.5
20
-2.21601232318562
30
0
41
1
10
-46.5
20
-2.11363864625321
30
0
41
1
10
-46.5
20
-2.01284840665642
30
0
41
1
10
-46.5
20
-1.9103786891003
30
0
41
1
10
-46.5
20
-1.80790519746154
30
0
41
1
10
-46.5
20
-1.70711241828644
30
0
41
1
10
-46.5
20
-1.60457738401556
30
0
41
1
10
-46.5
20
-1.50205137220064
30
0
41
1
10
-46.5
20
-1.40129786220382
30
0
41
1
10
-46.5
20
-1.29873778818728
30
0
41
1
10
-46.5
20
-1.19620002438899
30
0
41
1
10
-46.5
20
-1.06942535695816
30
0
41
1
10
-46.5
20
-0.916562784856865
30
0
41
1
10
-46.5
20
-0.789831419581219
30
0
41
1
10
-46.5
20
-0.68730636387329
30
0
41
1
10
-46.5
20
-0.610920589347302
30
0
41
1
10
-46.5
20
-0.534534693051569
30
0
41
1
10
-46.5
20
-0.458151977723787
30
0
41
1
10
-46.5
20
-0.381785863077653
30
0
41
1
10
-46.5
20
-0.305424686924198
30
0
41
1
10
-46.5
20
-0.229059030613598
30
0
41
1
10
-46.5
20
-0.152702843052907
30
0
41
1
10
-46.5
20
-0.0763563105774665
30
0
41
1
10
-46.5
20
2.80731456E-08
30
0
41
1
10
-46.5
20
0.0763563556610052
30
0
41
1
10
-46.5
20
0.152702860966656
30
0
41
1
10
-46.5
20
0.229059014473137
30
0
41
1
10
-46.5
20
0.305424650134683
30
0
41
1
10
-46.5
20
0.381785837912503
30
0
41
1
10
-46.5
20
0.458151993845604
30
0
41
1
10
-46.5
20
0.534534760307793
30
0
41
1
10
-46.5
20
0.610920675348439
30
0
41
1
10
-46.5
20
0.687306419565971
30
0
41
1
10
-46.5
20
0.789831382943021
30
0
41
1
10
-46.5
20
0.91656272213288
30
0
41
1
10
-46.5
20
1.06942542909599
30
0
41
1
10
-46.5
20
1.19620014128839
30
0
41
1
10
-46.5
20
1.29873779453158
30
0
41
1
10
-46.5
20
1.40129776039692
30
0
41
1
10
-46.5
20
1.50205128730931
30
0
41
1
10
-46.5
20
1.60457743182712
30
0
41
1
10
-46.5
20
1.70711256984475
30
0
41
1
10
-46.5
20
1.80790531000537
30
0
41
1
10
-46.5
20
1.91037865662702
30
0
41
1
10
-46.5
20
2.01284827062045
30
0
41
1
10
-46.5
20
2.11363855078116
30
0
41
1
10
-46.5
20
2.21601237541188
30
0
41
1
10
-46.5
20
2.29238050761501
30
0
41
1
10
-46.5
20
2.36872134228486
30
0
41
1
10
-46.5
20
2.44503927940082
30
0
41
1
10
-46.5
20
2.52133342108164
30
0
41
1
10
-46.5
20
2.62353063115779
30
0
41
1
10
-46.5
20
2.75008141374235
30
0
41
1
10
-46.5
20
2.90237261804771
30
0
41
1
10
-46.5
20
3.05450136741513
30
0
41
1
10
-46.5
20
3.20645090100777
30
0
41
1
10
-46.5
20
3.35820726744203
30
0
41
1
10
-46.5
20
3.48404260664449
30
0
41
1
10
-46.5
20
3.58538042770658
30
0
41
1
10
-46.5
20
3.68664884198915
30
0
41
1
10
-46.5
20
3.81214228534714
30
0
41
1
10
-46.5
20
4.01407320205544
30
0
41
1
10
-46.5
20
4.21306074878714
30
0
41
1
10
-46.5
20
4.41377363153026
30
0
41
1
10
-46.5
20
4.6141095005429
30
0
41
1
10
-46.5
20
4.86210998685601
30
0
41
1
10
-46.5
20
5.10896425509634
30
0
41
1
10
-46.5
20
5.3069879511437
30
0
41
1
10
-46.5
20
5.50455842781798
30
0
41
1
10
-46.5
20
5.74916634577846
30
0
41
1
10
-46.5
20
6.04192837587698
30
0
41
1
10
-46.5
20
6.33314809321132
30
0
41
1
10
-46.5
20
6.62278715303694
30
0
41
1
10
-46.5
20
6.9108093263759
30
0
41
1
10
-46.5
20
7.19718434586196
30
0
41
1
10
-46.5
20
7.48188420282088
30
0
41
1
10
-46.5
20
7.76488385459561
30
0
41
1
10
-46.5
20
8.04616134412481
30
0
41
1
10
-46.5
20
8.32569671953036
30
0
41
1
10
-46.5
20
8.60347202441494
30
0
41
1
10
-46.5
20
8.8794708993521
30
0
41
1
10
-46.5
20
9.1536783112208
30
0
41
1
10
-46.5
20
9.42608146076122
30
0
41
1
10
-46.5
20
9.69666715624226
30
0
41
1
10
-46.5
20
10.0558459740262
30
0
41
1
10
-46.5
20
10.498418779835
30
0
41
1
10
-46.5
20
10.934766834136
30
0
41
1
10
-46.5
20
11.2814445510786
30
0
41
1
10
-46.5
20
11.5390341996307
30
0
41
1
10
-46.5
20
11.7947359709947
30
0
41
1
10
-46.5
20
12.0485415470732
30
0
41
1
10
-46.5
20
12.3004440719815
30
0
41
1
10
-46.5
20
12.6344409590498
30
0
41
1
10
-46.5
20
12.9626507143561
30
0
41
1
10
-46.5
20
13.288908575541
30
0
41
1
10
-46.5
20
13.5312064646772
30
0
41
1
10
-46.5
20
13.7715679648215
30
0
41
1
10
-46.5
20
14.009984488545
30
0
41
1
10
-46.5
20
14.2464507858614
30
0
41
1
10
-46.5
20
14.4809640927087
30
0
41
1
10
-46.5
20
14.7135143004555
30
0
41
1
10
-46.5
20
14.9440981523704
30
0
41
1
10
-46.5
20
15.1343352185844
30
0
41
1
10
-46.5
20
15.28602382984
30
0
41
1
10
-46.5
20
15.4370522522144
30
0
41
1
10
-46.5
20
15.6240006368157
30
0
41
1
10
-46.5
20
15.9214100558918
30
0
41
1
10
-46.5
20
16.2132866640401
30
0
41
1
10
-46.5
20
16.5026612295204
30
0
41
1
10
-46.5
20
16.7893526547043
30
0
41
1
10
-46.5
20
17.1415784247604
30
0
41
1
10
-46.5
20
17.4870326281007
30
0
41
1
10
-46.5
20
17.7601375272069
30
0
41
1
10
-46.5
20
18.0305055709471
30
0
41
1
10
-46.5
20
18.362316331505
30
0
41
1
10
-46.5
20
18.687219888641
30
0
41
1
10
-46.5
20
18.9437303704574
30
0
41
1
10
-46.5
20
19.1974433350662
30
0
41
1
10
-46.5
20
19.5084001184169
30
0
41
1
10
-46.5
20
19.8735485821408
30
0
41
1
10
-46.5
20
20.1703249889741
30
0
41
1
10
-46.5
20
20.4041184350775
30
0
41
1
10
-46.5
20
20.6350195683323
30
0
41
1
10
-46.5
20
20.9173756105157
30
0
41
1
10
-46.5
20
21.2478549102086
30
0
41
1
10
-46.5
20
21.5694639835234
30
0
41
1
10
-46.5
20
21.8821131555325
30
0
41
1
10
-46.5
20
22.1857080904646
30
0
41
1
10
-46.5
20
22.430759124426
30
0
41
1
10
-46.5
20
22.6227365307309
30
0
41
1
10
-46.5
20
22.8116032876094
30
0
41
1
10
-46.5
20
23.0411451496901
30
0
41
1
10
-46.5
20
23.307472693444
30
0
41
1
10
-46.5
20
23.5211247275232
30
0
41
1
10
-46.5
20
23.6876785906568
30
0
41
1
10
-46.5
20
23.8509558936155
30
0
41
1
10
-46.5
20
24.0482725027174
30
0
41
1
10
-46.5
20
24.2372526165609
30
0
41
1
10
-46.5
20
24.3838015951593
30
0
41
1
10
-46.5
20
24.4729784939732
30
0
41
1
10
-46.5
20
24.5432464906718
30
0
41
1
10
-46.5
20
24.6126465048792
30
0
41
1
10
-46.5
20
24.6974986639861
30
0
41
1
10
-46.5
20
24.7968359305099
30
0
41
1
10
-46.5
20
24.8935214266578
30
0
41
1
10
-46.5
20
24.9875303375031
30
0
41
1
10
-46.5
20
25.078840846753
30
0
41
1
10
-46.5
20
25.1674263270686
30
0
41
1
10
-46.5
20
25.2532602572421
30
0
41
1
10
-46.5
20
25.3363180183903
30
0
41
1
10
-46.5
20
25.4165702144948
30
0
41
1
10
-46.5
20
25.4939882551943
30
0
41
1
10
-46.5
20
25.5935790481261
30
0
41
1
10
-46.5
20
25.6868435181955
30
0
41
1
10
-46.5
20
25.7747184891248
30
0
41
1
10
-46.5
20
25.8375026707195
30
0
41
1
10
-46.5
20
25.8972596743867
30
0
41
1
10
-46.5
20
25.9539520524798
30
0
41
1
10
-46.5
20
26.0075411501124
30
0
41
1
10
-46.5
20
26.0579887905966
30
0
41
1
10
-46.5
20
26.1052521520729
30
0
41
1
10
-46.5
20
26.1640888628635
30
0
41
1
10
-46.5
20
26.2291931100504
30
0
41
1
10
-46.5
20
26.2831057898449
30
0
41
1
10
-46.5
20
26.3194531047684
30
0
41
1
10
-46.5
20
26.3431264444613
30
0
41
1
10
-46.5
20
26.3632177076784
30
0
41
1
10
-46.5
20
26.3796666810734
30
0
41
1
10
-46.5
20
26.3923171393772
30
0
41
1
10
-46.4999999999999
20
26.3982598688847
30
0
41
1
10
-46.4999999999999
20
26.4005860193433
30
0
0
SPLINE
5
22A
100
AcDbEntity
8
1
62
256
6
ByLayer
370
18
48
1
60
0
100
AcDbSpline
70
4
71
3
72
8
73
4
40
0
40
0
40
0
40
0
40
1
40
1
40
1
40
1
41
1
10
371
20
-40
30
0
41
1
10
371.316346082623
20
-40
30
0
41
1
10
371.650642254503
20
-40
30
0
41
1
10
372
20
-40
30
0
0
SPLINE
5
22B
100
AcDbEntity
8
SK1
62
256
6
ByLayer
370
18
48
1
60
0
100
AcDbSpline
70
4
71
3
72
297
73
293
40
0
40
0
40
0
40
0
40
0.0006515105887044
40
0.0041929884538886
40
0.0077344663190727
40
0.0112759441842569
40
0.0148174220494411
40
0.0183588999146253
40
0.0254418556449936
40
0.032524811375362
40
0.0360662892405462
40
0.0396077671057303
40
0.0431492449709145
40
0.0466907228360987
40
0.0502322007012829
40
0.0537736785664671
40
0.0573151564316512
40
0.0608566342968354
40
0.0679395900272038
40
0.071481067892388
40
0.0750225457575721
40
0.0785640236227563
40
0.0821055014879405
40
0.0856469793531247
40
0.0891884572183089
40
0.092729935083493
40
0.0962714129486772
40
0.0998128908138614
40
0.103354368679046
40
0.110437324409414
40
0.113978802274598
40
0.117520280139782
40
0.124603235870151
40
0.131686191600519
40
0.135227669465703
40
0.138769147330887
40
0.145852103061256
40
0.152935058791624
40
0.160018014521992
40
0.163559492387177
40
0.167100970252361
40
0.174183925982729
40
0.181266881713097
40
0.188349837443466
40
0.195432793173834
40
0.202515748904203
40
0.209598704634571
40
0.213140182499755
40
0.216681660364939
40
0.223764616095308
40
0.230847571825676
40
0.237930527556044
40
0.241472005421229
40
0.245013483286413
40
0.252096439016781
40
0.25917939474715
40
0.262720872612334
40
0.266262350477518
40
0.273345306207886
40
0.280428261938254
40
0.283969739803439
40
0.287511217668623
40
0.294594173398991
40
0.298135651264175
40
0.30167712912936
40
0.305218606994544
40
0.308760084859728
40
0.312301562724912
40
0.315843040590096
40
0.31938451845528
40
0.322925996320465
40
0.326467474185649
40
0.330008952050833
40
0.333550429916017
40
0.337091907781201
40
0.34417486351157
40
0.347716341376754
40
0.351257819241938
40
0.354799297107122
40
0.358340774972306
40
0.361882252837491
40
0.365423730702675
40
0.372506686433043
40
0.376048164298227
40
0.379589642163412
40
0.383131120028596
40
0.38667259789378
40
0.390214075758964
40
0.393755553624148
40
0.397297031489332
40
0.400838509354517
40
0.404379987219701
40
0.407921465084885
40
0.411462942950069
40
0.415004420815253
40
0.418545898680438
40
0.422087376545622
40
0.425628854410806
40
0.42917033227599
40
0.432711810141174
40
0.436253288006358
40
0.43802402693895
40
0.439794765871543
40
0.443336243736727
40
0.446877721601911
40
0.448648460534503
40
0.450419199467095
40
0.453960677332279
40
0.455731416264871
40
0.457502155197464
40
0.458387524663759
40
0.459272894130056
40
0.461043633062648
40
0.46281437199524
40
0.464585110927832
40
0.466355849860424
40
0.468126588793016
40
0.469897327725608
40
0.470782697191904
40
0.4716680666582
40
0.472553436124496
40
0.473438805590792
40
0.474324175057088
40
0.475209544523384
40
0.476980283455976
40
0.477865652922273
40
0.478751022388568
40
0.480521761321161
40
0.481407130787457
40
0.482292500253753
40
0.484063239186345
40
0.484948608652641
40
0.485833978118937
40
0.487604717051529
40
0.489375455984121
40
0.491146194916713
40
0.492031564383009
40
0.492916933849305
40
0.493802303315601
40
0.494687672781897
40
0.495573042248193
40
0.49645841171449
40
0.497343781180785
40
0.498229150647082
40
0.499114520113378
40
0.499999889579674
40
0.50088525904597
40
0.501770628512266
40
0.502655997978562
40
0.503541367444858
40
0.504426736911154
40
0.50531210637745
40
0.506197475843746
40
0.507082845310042
40
0.507968214776338
40
0.508853584242634
40
0.510624323175226
40
0.512395062107818
40
0.51416580104041
40
0.515051170506706
40
0.515936539973002
40
0.517707278905595
40
0.518592648371891
40
0.519478017838187
40
0.521248756770779
40
0.522134126237075
40
0.523019495703371
40
0.524790234635963
40
0.525675604102259
40
0.526560973568555
40
0.527446343034851
40
0.528331712501147
40
0.529217081967443
40
0.530102451433739
40
0.531873190366331
40
0.533643929298923
40
0.535414668231515
40
0.537185407164108
40
0.5389561460967
40
0.540726885029292
40
0.541612254495588
40
0.542497623961884
40
0.544268362894476
40
0.546039101827068
40
0.549580579692252
40
0.551351318624844
40
0.553122057557436
40
0.55666353542262
40
0.560205013287805
40
0.561975752220397
40
0.563746491152989
40
0.567287969018173
40
0.570829446883357
40
0.574370924748541
40
0.577912402613726
40
0.58145388047891
40
0.584995358344094
40
0.588536836209278
40
0.592078314074462
40
0.595619791939647
40
0.599161269804831
40
0.602702747670015
40
0.606244225535199
40
0.609785703400383
40
0.613327181265567
40
0.616868659130752
40
0.620410136995936
40
0.627493092726304
40
0.634576048456672
40
0.638117526321857
40
0.641659004187041
40
0.645200482052225
40
0.648741959917409
40
0.652283437782593
40
0.655824915647778
40
0.662907871378146
40
0.66644934924333
40
0.669990827108514
40
0.673532304973698
40
0.677073782838883
40
0.680615260704067
40
0.684156738569251
40
0.687698216434435
40
0.691239694299619
40
0.694781172164804
40
0.696551911097396
40
0.698322650029988
40
0.701864127895172
40
0.705405605760356
40
0.712488561490724
40
0.716030039355909
40
0.719571517221093
40
0.726654472951461
40
0.73373742868183
40
0.737278906547014
40
0.740820384412198
40
0.747903340142566
40
0.754986295872935
40
0.758527773738119
40
0.762069251603303
40
0.769152207333671
40
0.77623516306404
40
0.783318118794408
40
0.786859596659592
40
0.790401074524776
40
0.797484030255145
40
0.804566985985513
40
0.811649941715881
40
0.81873289744625
40
0.825815853176618
40
0.832898808906986
40
0.836440286772171
40
0.839981764637355
40
0.847064720367723
40
0.854147676098092
40
0.86123063182846
40
0.864772109693644
40
0.868313587558828
40
0.875396543289197
40
0.882479499019565
40
0.886020976884749
40
0.889562454749933
40
0.891333193682526
40
0.893103932615118
40
0.896645410480302
40
0.900186888345486
40
0.90372836621067
40
0.907269844075854
40
0.910811321941038
40
0.914352799806223
40
0.917894277671407
40
0.921435755536591
40
0.924977233401775
40
0.928518711266959
40
0.932060189132144
40
0.939143144862512
40
0.942684622727696
40
0.94622610059288
40
0.949767578458064
40
0.953309056323249
40
0.956850534188433
40
0.960392012053617
40
0.963933489918801
40
0.967474967783985
40
0.974557923514354
40
0.981640879244722
40
0.985182357109906
40
0.98872383497509
40
0.992265312840275
40
0.995806790705459
40
0.999348268570643
40
1
40
1
40
1
40
1
41
1
10
-2.19999999999999
20
-27.5061346863974
30
0
41
1
10
-2.19999999999999
20
-27.5054867256548
30
0
41
1
10
-2.19999999999999
20
-27.501174001321
30
0
41
1
10
-2.19999999999999
20
-27.4915322394785
30
0
41
1
10
-2.19999999999999
20
-27.4744481426486
30
0
41
1
10
-2.19999999999999
20
-27.4535951682728
30
0
41
1
10
-2.19999999999999
20
-27.4290397313646
30
0
41
1
10
-2.19999999999999
20
-27.391448663995
30
0
41
1
10
-2.19999999999999
20
-27.3355116051596
30
0
41
1
10
-2.19999999999999
20
-27.2680242980373
30
0
41
1
10
-2.19999999999999
20
-27.207312873948
30
0
41
1
10
-2.19999999999999
20
-27.1584628619196
30
0
41
1
10
-2.19999999999999
20
-27.1063432161342
30
0
41
1
10
-2.19999999999999
20
-27.0509995447849
30
0
41
1
10
-2.19999999999999
20
-26.9924723817989
30
0
41
1
10
-2.19999999999999
20
-26.9308034813115
30
0
41
1
10
-2.19999999999999
20
-26.8660318680526
30
0
41
1
10
-2.19999999999999
20
-26.7755839801004
30
0
41
1
10
-2.19999999999999
20
-26.6790690300398
30
0
41
1
10
-2.19999999999999
20
-26.5766397788825
30
0
41
1
10
-2.19999999999999
20
-26.496886760278
30
0
41
1
10
-2.19999999999999
20
-26.4142343357678
30
0
41
1
10
-2.19999999999999
20
-26.3287134281849
30
0
41
1
10
-2.19999999999999
20
-26.2403534959288
30
0
41
1
10
-2.19999999999999
20
-26.1491804785363
30
0
41
1
10
-2.19999999999999
20
-26.0552227938057
30
0
41
1
10
-2.19999999999999
20
-25.9585066378384
30
0
41
1
10
-2.19999999999999
20
-25.8590558590047
30
0
41
1
10
-2.19999999999999
20
-25.7228460886287
30
0
41
1
10
-2.19999999999999
20
-25.5812511874436
30
0
41
1
10
-2.19999999999999
20
-25.434386577261
30
0
41
1
10
-2.19999999999999
20
-25.284028500125
30
0
41
1
10
-2.19999999999999
20
-25.0895715372853
30
0
41
1
10
-2.19999999999999
20
-24.8865804716972
30
0
41
1
10
-2.19999999999999
20
-24.7191499364504
30
0
41
1
10
-2.19999999999999
20
-24.5483785868418
30
0
41
1
10
-2.19999999999999
20
-24.3286812980357
30
0
41
1
10
-2.19999999999999
20
-24.0552273148741
30
0
41
1
10
-2.19999999999999
20
-23.8192595766845
30
0
41
1
10
-2.19999999999999
20
-23.6257028262786
30
0
41
1
10
-2.19999999999999
20
-23.4289696038095
30
0
41
1
10
-2.19999999999999
20
-23.177117307697
30
0
41
1
10
-2.19999999999999
20
-22.8655281588585
30
0
41
1
10
-2.19999999999999
20
-22.5446620340323
30
0
41
1
10
-2.19999999999999
20
-22.2146097463897
30
0
41
1
10
-2.19999999999999
20
-21.8754567982466
30
0
41
1
10
-2.19999999999999
20
-21.5853057494762
30
0
41
1
10
-2.19999999999999
20
-21.3487245268705
30
0
41
1
10
-2.19999999999999
20
-21.1091737088126
30
0
41
1
10
-2.19999999999999
20
-20.8041728419317
30
0
41
1
10
-2.19999999999999
20
-20.4293723340896
30
0
41
1
10
-2.19999999999999
20
-20.1097428027781
30
0
41
1
10
-2.19999999999999
20
-19.8497084005983
30
0
41
1
10
-2.19999999999999
20
-19.5867870393814
30
0
41
1
10
-2.19999999999999
20
-19.2527208752522
30
0
41
1
10
-2.19999999999999
20
-18.9115004851851
30
0
41
1
10
-2.19999999999999
20
-18.634269279738
30
0
41
1
10
-2.19999999999999
20
-18.3541988970414
30
0
41
1
10
-2.19999999999999
20
-17.9987810588701
30
0
41
1
10
-2.19999999999999
20
-17.636314655197
30
0
41
1
10
-2.19999999999999
20
-17.342145790903
30
0
41
1
10
-2.19999999999999
20
-17.0451745383014
30
0
41
1
10
-2.19999999999999
20
-16.7439792746615
30
0
41
1
10
-2.19999999999999
20
-16.4386302461312
30
0
41
1
10
-2.19999999999999
20
-16.2075239950657
30
0
41
1
10
-2.19999999999999
20
-15.9743322626434
30
0
41
1
10
-2.19999999999999
20
-15.7390584129099
30
0
41
1
10
-2.19999999999999
20
-15.5017056049151
30
0
41
1
10
-2.19999999999999
20
-15.2622748554345
30
0
41
1
10
-2.19999999999999
20
-15.0207692449601
30
0
41
1
10
-2.19999999999999
20
-14.7771908994275
30
0
41
1
10
-2.19999999999999
20
-14.5315403886931
30
0
41
1
10
-2.19999999999999
20
-14.2838204606994
30
0
41
1
10
-2.19999999999999
20
-14.034031998634
30
0
41
1
10
-2.19999999999999
20
-13.6982347944476
30
0
41
1
10
-2.19999999999999
20
-13.3582704046987
30
0
41
1
10
-2.19999999999999
20
-13.0142109860464
30
0
41
1
10
-2.19999999999999
20
-12.7540927464655
30
0
41
1
10
-2.19999999999999
20
-12.4919091491304
30
0
41
1
10
-2.19999999999999
20
-12.2276612856808
30
0
41
1
10
-2.19999999999999
20
-11.9613483258762
30
0
41
1
10
-2.19999999999999
20
-11.6035238164174
30
0
41
1
10
-2.19999999999999
20
-11.2415269571055
30
0
41
1
10
-2.19999999999999
20
-10.8754383363527
30
0
41
1
10
-2.19999999999999
20
-10.5987925508875
30
0
41
1
10
-2.19999999999999
20
-10.3200778010582
30
0
41
1
10
-2.19999999999999
20
-10.0392928286735
30
0
41
1
10
-2.19999999999999
20
-9.75643634846188
30
0
41
1
10
-2.19999999999999
20
-9.47150729415068
30
0
41
1
10
-2.19999999999999
20
-9.1845043611271
30
0
41
1
10
-2.19999999999999
20
-8.89542719115695
30
0
41
1
10
-2.19999999999999
20
-8.60427356074342
30
0
41
1
10
-2.19999999999999
20
-8.31104318061546
30
0
41
1
10
-2.19999999999999
20
-8.01573561602436
30
0
41
1
10
-2.19999999999999
20
-7.71835058358692
30
0
41
1
10
-2.19999999999999
20
-7.41888794723957
30
0
41
1
10
-2.19999999999999
20
-7.11734869113025
30
0
41
1
10
-2.19999999999999
20
-6.81373435633816
30
0
41
1
10
-2.19999999999999
20
-6.50804760816209
30
0
41
1
10
-2.19999999999999
20
-6.20029189348725
30
0
41
1
10
-2.19999999999999
20
-5.94209838158554
30
0
41
1
10
-2.19999999999999
20
-5.73453666830335
30
0
41
1
10
-2.19999999999999
20
-5.52629101970228
30
0
41
1
10
-2.19999999999999
20
-5.26467637812243
30
0
41
1
10
-2.19999999999999
20
-5.00136826160576
30
0
41
1
10
-2.19999999999999
20
-4.78973719244789
30
0
41
1
10
-2.19999999999999
20
-4.57743718277368
30
0
41
1
10
-2.19999999999999
20
-4.36409678795758
30
0
41
1
10
-2.19999999999999
20
-4.14981697452481
30
0
41
1
10
-2.19999999999999
20
-4.01546868648904
30
0
41
1
10
-2.19999999999999
20
-3.90776230194615
30
0
41
1
10
-2.19999999999999
20
-3.79989568244889
30
0
41
1
10
-2.19999999999999
20
-3.66474576021937
30
0
41
1
10
-2.19999999999999
20
-3.5021036988395
30
0
41
1
10
-2.19999999999999
20
-3.33899660464965
30
0
41
1
10
-2.19999999999999
20
-3.17543127927684
30
0
41
1
10
-2.19999999999999
20
-3.01141672008134
30
0
41
1
10
-2.19999999999999
20
-2.87436209926591
30
0
41
1
10
-2.19999999999999
20
-2.76452000553434
30
0
41
1
10
-2.19999999999999
20
-2.68202545651479
30
0
41
1
10
-2.19999999999999
20
-2.59942632637944
30
0
41
1
10
-2.19999999999999
20
-2.51672421834655
30
0
41
1
10
-2.19999999999999
20
-2.4339209014978
30
0
41
1
10
-2.19999999999999
20
-2.32339361988261
30
0
41
1
10
-2.19999999999999
20
-2.21264123208619
30
0
41
1
10
-2.19999999999999
20
-2.10173189222928
30
0
41
1
10
-2.19999999999999
20
-1.99070060347674
30
0
41
1
10
-2.19999999999999
20
-1.87945966995699
30
0
41
1
10
-2.19999999999999
20
-1.76808195565889
30
0
41
1
10
-2.19999999999999
20
-1.65659533844246
30
0
41
1
10
-2.19999999999999
20
-1.54491818810743
30
0
41
1
10
-2.19999999999999
20
-1.43312829673266
30
0
41
1
10
-2.19999999999999
20
-1.32124507363096
30
0
41
1
10
-2.19999999999999
20
-1.18119881783468
30
0
41
1
10
-2.19999999999999
20
-1.01291860933941
30
0
41
1
10
-2.19999999999999
20
-0.87249898691482
30
0
41
1
10
-2.19999999999999
20
-0.760095820637503
30
0
41
1
10
-2.19999999999999
20
-0.675743913418614
30
0
41
1
10
-2.19999999999999
20
-0.591356016553505
30
0
41
1
10
-2.19999999999999
20
-0.506936431545682
30
0
41
1
10
-2.19999999999999
20
-0.422489234806449
30
0
41
1
10
-2.19999999999999
20
-0.338019053908852
30
0
41
1
10
-2.19999999999999
20
-0.253530597556278
30
0
41
1
10
-2.19999999999999
20
-0.169028161239794
30
0
41
1
10
-2.19999999999999
20
-0.08451629967999
30
0
41
1
10
-2.19999999999999
20
2.9738203E-09
30
0
41
1
10
-2.19999999999999
20
0.0845163058477283
30
0
41
1
10
-2.19999999999999
20
0.169028167934243
30
0
41
1
10
-2.19999999999999
20
0.253530604877369
30
0
41
1
10
-2.19999999999999
20
0.338019061527234
30
0
41
1
10
-2.19999999999999
20
0.422489242090819
30
0
41
1
10
-2.19999999999999
20
0.506936438011167
30
0
41
1
10
-2.19999999999999
20
0.591356022200102
30
0
41
1
10
-2.19999999999999
20
0.675743919086358
30
0
41
1
10
-2.19999999999999
20
0.760095827222472
30
0
41
1
10
-2.19999999999999
20
0.872498995392107
30
0
41
1
10
-2.19999999999999
20
1.01291861714776
30
0
41
1
10
-2.19999999999999
20
1.18119882266058
30
0
41
1
10
-2.19999999999999
20
1.32124507985111
30
0
41
1
10
-2.19999999999999
20
1.43312830574621
30
0
41
1
10
-2.19999999999999
20
1.54491819828843
30
0
41
1
10
-2.19999999999999
20
1.65659534610086
30
0
41
1
10
-2.19999999999999
20
1.76808196044794
30
0
41
1
10
-2.19999999999999
20
1.87945967457654
30
0
41
1
10
-2.19999999999999
20
1.99070061185216
30
0
41
1
10
-2.19999999999999
20
2.10173190377407
30
0
41
1
10
-2.19999999999999
20
2.21264124345487
30
0
41
1
10
-2.19999999999999
20
2.32339362702305
30
0
41
1
10
-2.19999999999999
20
2.43392090537259
30
0
41
1
10
-2.19999999999999
20
2.51672422226807
30
0
41
1
10
-2.19999999999999
20
2.59942633274227
30
0
41
1
10
-2.19999999999999
20
2.68202546661416
30
0
41
1
10
-2.19999999999999
20
2.7645200185649
30
0
41
1
10
-2.19999999999999
20
2.87436211322461
30
0
41
1
10
-2.19999999999999
20
3.01141672767267
30
0
41
1
10
-2.19999999999999
20
3.17543128081252
30
0
41
1
10
-2.19999999999999
20
3.33899661229884
30
0
41
1
10
-2.19999999999999
20
3.50210371592675
30
0
41
1
10
-2.19999999999999
20
3.66474577486338
30
0
41
1
10
-2.19999999999999
20
3.79989568903147
30
0
41
1
10
-2.19999999999999
20
3.90776230457834
30
0
41
1
10
-2.19999999999999
20
4.01546868863102
30
0
41
1
10
-2.19999999999999
20
4.14981698400788
30
0
41
1
10
-2.19999999999999
20
4.36409681125883
30
0
41
1
10
-2.19999999999999
20
4.5774371918485
30
0
41
1
10
-2.19999999999999
20
4.78973719162457
30
0
41
1
10
-2.19999999999999
20
5.00136826964865
30
0
41
1
10
-2.19999999999999
20
5.26467640756857
30
0
41
1
10
-2.19999999999999
20
5.52629102616368
30
0
41
1
10
-2.19999999999999
20
5.73453666635555
30
0
41
1
10
-2.19999999999999
20
5.94209838936433
30
0
41
1
10
-2.19999999999999
20
6.20029192554159
30
0
41
1
10
-2.19999999999999
20
6.50804761437212
30
0
41
1
10
-2.19999999999999
20
6.81373435160458
30
0
41
1
10
-2.19999999999999
20
7.11734871686417
30
0
41
1
10
-2.19999999999999
20
7.41888792583904
30
0
41
1
10
-2.19999999999999
20
7.71835052760537
30
0
41
1
10
-2.19999999999999
20
8.01573570434198
30
0
41
1
10
-2.19999999999999
20
8.31104332875668
30
0
41
1
10
-2.19999999999999
20
8.60427351086139
30
0
41
1
10
-2.19999999999999
20
8.89542705327119
30
0
41
1
10
-2.19999999999999
20
9.18450458163329
30
0
41
1
10
-2.19999999999999
20
9.47150741663734
30
0
41
1
10
-2.19999999999999
20
9.75643631256764
30
0
41
1
10
-2.19999999999999
20
10.0392927830109
30
0
41
1
10
-2.19999999999999
20
10.3200777862056
30
0
41
1
10
-2.19999999999999
20
10.6916821947193
30
0
41
1
10
-2.19999999999999
20
11.1510479282637
30
0
41
1
10
-2.19999999999999
20
11.6035237684601
30
0
41
1
10
-2.19999999999999
20
11.9613483314474
30
0
41
1
10
-2.19999999999999
20
12.2276612824087
30
0
41
1
10
-2.19999999999999
20
12.491909102254
30
0
41
1
10
-2.19999999999999
20
12.7540926975445
30
0
41
1
10
-2.19999999999999
20
13.0142109423232
30
0
41
1
10
-2.19999999999999
20
13.3582704108556
30
0
41
1
10
-2.19999999999999
20
13.6982347575132
30
0
41
1
10
-2.19999999999999
20
14.0340319983603
30
0
41
1
10
-2.19999999999999
20
14.2838204496866
30
0
41
1
10
-2.19999999999999
20
14.531540364006
30
0
41
1
10
-2.19999999999999
20
14.7771909058554
30
0
41
1
10
-2.19999999999999
20
15.0207692194115
30
0
41
1
10
-2.19999999999999
20
15.2622749109486
30
0
41
1
10
-2.19999999999999
20
15.5017057162253
30
0
41
1
10
-2.19999999999999
20
15.7390582874332
30
0
41
1
10
-2.19999999999999
20
15.9351247349383
30
0
41
1
10
-2.19999999999999
20
16.090928053724
30
0
41
1
10
-2.19999999999999
20
16.2460368243143
30
0
41
1
10
-2.19999999999999
20
16.4386305854399
30
0
41
1
10
-2.19999999999999
20
16.7439793214723
30
0
41
1
10
-2.19999999999999
20
17.0451744942956
30
0
41
1
10
-2.19999999999999
20
17.342145790273
30
0
41
1
10
-2.19999999999999
20
17.6363146514327
30
0
41
1
10
-2.19999999999999
20
17.9987810562909
30
0
41
1
10
-2.19999999999999
20
18.3541989021743
30
0
41
1
10
-2.19999999999999
20
18.6342692782274
30
0
41
1
10
-2.19999999999999
20
18.9115004820267
30
0
41
1
10
-2.19999999999999
20
19.2527208742123
30
0
41
1
10
-2.19999999999999
20
19.5867870400026
30
0
41
1
10
-2.19999999999999
20
19.8497084000872
30
0
41
1
10
-2.19999999999999
20
20.1097427976018
30
0
41
1
10
-2.19999999999999
20
20.4293723348014
30
0
41
1
10
-2.19999999999999
20
20.8041728408687
30
0
41
1
10
-2.19999999999999
20
21.1091737057828
30
0
41
1
10
-2.19999999999999
20
21.348724524242
30
0
41
1
10
-2.19999999999999
20
21.585305748713
30
0
41
1
10
-2.19999999999999
20
21.8754567939978
30
0
41
1
10
-2.19999999999999
20
22.2146097450715
30
0
41
1
10
-2.19999999999999
20
22.5446620300357
30
0
41
1
10
-2.19999999999999
20
22.865528155817
30
0
41
1
10
-2.19999999999999
20
23.1771173063638
30
0
41
1
10
-2.19999999999999
20
23.4289695970825
30
0
41
1
10
-2.19999999999999
20
23.6257028228421
30
0
41
1
10
-2.19999999999999
20
23.8192595747194
30
0
41
1
10
-2.19999999999999
20
24.0552273098675
30
0
41
1
10
-2.19999999999999
20
24.3286812886663
30
0
41
1
10
-2.19999999999999
20
24.5483785892839
30
0
41
1
10
-2.19999999999999
20
24.7191499291268
30
0
41
1
10
-2.19999999999999
20
24.8865804660961
30
0
41
1
10
-2.19999999999999
20
25.0895715317904
30
0
41
1
10
-2.19999999999999
20
25.2840284493551
30
0
41
1
10
-2.19999999999999
20
25.4343867299332
30
0
41
1
10
-2.19999999999999
20
25.5261818034759
30
0
41
1
10
-2.19999999999999
20
25.5982933540587
30
0
41
1
10
-2.19999999999999
20
25.6695210442988
30
0
41
1
10
-2.19999999999999
20
25.7568951729796
30
0
41
1
10
-2.19999999999999
20
25.8590554134204
30
0
41
1
10
-2.19999999999999
20
25.9585067097828
30
0
41
1
10
-2.19999999999999
20
26.0552228914818
30
0
41
1
10
-2.19999999999999
20
26.1491804877762
30
0
41
1
10
-2.19999999999999
20
26.2403534869032
30
0
41
1
10
-2.19999999999999
20
26.3287134555966
30
0
41
1
10
-2.19999999999999
20
26.4142343457969
30
0
41
1
10
-2.19999999999999
20
26.4968867532829
30
0
41
1
10
-2.19999999999999
20
26.5766398127168
30
0
41
1
10
-2.19999999999999
20
26.6790690105836
30
0
41
1
10
-2.19999999999999
20
26.7755840284526
30
0
41
1
10
-2.19999999999999
20
26.8660318549495
30
0
41
1
10
-2.19999999999999
20
26.9308035073645
30
0
41
1
10
-2.19999999999999
20
26.9924724007358
30
0
41
1
10
-2.19999999999999
20
27.0509995322118
30
0
41
1
10
-2.19999999999999
20
27.1063432629948
30
0
41
1
10
-2.19999999999999
20
27.1584629254513
30
0
41
1
10
-2.19999999999999
20
27.2073129452677
30
0
41
1
10
-2.19999999999999
20
27.2680242938405
30
0
41
1
10
-2.19999999999999
20
27.3355116167511
30
0
41
1
10
-2.19999999999999
20
27.3914487450129
30
0
41
1
10
-2.19999999999999
20
27.4290396962773
30
0
41
1
10
-2.19999999999999
20
27.4535951162672
30
0
41
1
10
-2.19999999999999
20
27.4744481367885
30
0
41
1
10
-2.19999999999999
20
27.4915322439684
30
0
41
1
10
-2.19999999999999
20
27.5011742473546
30
0
41
1
10
-2.19999999999999
20
27.5054871472849
30
0
41
1
10
-2.19999999999999
20
27.5061353124761
30
0
0
SPLINE
5
22C
100
AcDbEntity
8
1
62
256
6
ByLayer
370
18
48
1
60
0
100
AcDbSpline
70
4
71
3
72
8
73
4
40
0
40
0
40
0
40
0
40
1
40
1
40
1
40
1
41
1
10
378.835319404147
20
0.533897636685197
30
0
41
1
10
378.248525058555
20
0.533897636685197
30
0
41
1
10
377.661730712964
20
0.533897636685197
30
0
41
1
10
377.074936367373
20
0.533897636685197
30
0
0
SPLINE
5
22D
100
AcDbEntity
8
1
62
256
6
ByLayer
370
18
48
1
60
0
100
AcDbSpline
70
4
71
3
72
18
73
14
40
0
40
0
40
0
40
0
40
0.144086644560485
40
0.144086644560485
40
0.287731062505119
40
0.287731062505119
40
0.456860780407676
40
0.456860780407676
40
0.627194363444238
40
0.627194363444238
40
0.79587141402398
40
0.79587141402398
40
1
40
1
40
1
40
1
41
1
10
374.574358432734
20
-1.46026966953127
30
0
41
1
10
374.647335394495
20
-1.55850451220203
30
0
41
1
10
374.756056174262
20
-1.63954825740541
30
0
41
1
10
375.038593822179
20
-1.76705757815398
30
0
41
1
10
375.202853899331
20
-1.79795194121198
30
0
41
1
10
375.604971851894
20
-1.79795194121198
30
0
41
1
10
375.794116222173
20
-1.75251832647677
30
0
41
1
10
376.11396624175
20
-1.56767246319248
30
0
41
1
10
376.226020689741
20
-1.44185063653049
30
0
41
1
10
376.356444058514
20
-1.11680806394872
30
0
41
1
10
376.388357196516
20
-0.881912033307117
30
0
41
1
10
376.388357196516
20
-0.206138178101241
30
0
41
1
10
376.388357196516
20
0.163879729291921
30
0
41
1
10
376.388357196516
20
0.533897636685197
30
0
0
SPLINE
5
22E
100
AcDbEntity
8
SK1
62
256
6
ByLayer
370
18
48
1
60
0
100
AcDbSpline
70
4
71
3
72
299
73
295
40
0
40
0
40
0
40
0
40
0.0016670525126179
40
0.005176440329479
40
0.0086858281463402
40
0.0121952159632014
40
0.0157046037800626
40
0.0192139915969238
40
0.0227233794137849
40
0.0297421550475073
40
0.0367609306812296
40
0.0402703184980908
40
0.043779706314952
40
0.0472890941318131
40
0.0507984819486743
40
0.0543078697655355
40
0.0578172575823966
40
0.0613266453992578
40
0.064836033216119
40
0.0718548088498414
40
0.0753641966667025
40
0.0788735844835637
40
0.0823829723004249
40
0.0858923601172861
40
0.0894017479341472
40
0.0929111357510085
40
0.0964205235678696
40
0.0999299113847307
40
0.103439299201592
40
0.106948687018453
40
0.110458074835314
40
0.112212768743745
40
0.113967462652176
40
0.117476850469037
40
0.120986238285898
40
0.12800501391962
40
0.135023789553343
40
0.138533177370204
40
0.142042565187065
40
0.149061340820787
40
0.15608011645451
40
0.163098892088232
40
0.166608279905093
40
0.170117667721954
40
0.177136443355677
40
0.184155218989399
40
0.191173994623121
40
0.198192770256844
40
0.205211545890566
40
0.212230321524288
40
0.21573970934115
40
0.219249097158011
40
0.226267872791733
40
0.233286648425455
40
0.240305424059178
40
0.243814811876039
40
0.2473241996929
40
0.254342975326622
40
0.261361750960345
40
0.264871138777206
40
0.268380526594067
40
0.27539930222779
40
0.282418077861512
40
0.285927465678373
40
0.289436853495234
40
0.296455629128957
40
0.299965016945818
40
0.303474404762679
40
0.305229098671109
40
0.30698379257954
40
0.310493180396401
40
0.314002568213263
40
0.317511956030124
40
0.321021343846985
40
0.324530731663846
40
0.328040119480707
40
0.331549507297568
40
0.335058895114429
40
0.338568282931291
40
0.345587058565013
40
0.349096446381874
40
0.352605834198735
40
0.356115222015596
40
0.359624609832458
40
0.363133997649319
40
0.36664338546618
40
0.373662161099903
40
0.380680936733625
40
0.384190324550486
40
0.387699712367347
40
0.391209100184208
40
0.39471848800107
40
0.398227875817931
40
0.401737263634792
40
0.405246651451653
40
0.408756039268514
40
0.412265427085375
40
0.415774814902237
40
0.419284202719098
40
0.422793590535959
40
0.42630297835282
40
0.429812366169681
40
0.433321753986542
40
0.436831141803403
40
0.438585835711834
40
0.440340529620265
40
0.443849917437126
40
0.447359305253987
40
0.449113999162418
40
0.450868693070848
40
0.45437808088771
40
0.45613277479614
40
0.457887468704571
40
0.458764815658786
40
0.459642162613001
40
0.461396856521432
40
0.463151550429862
40
0.464906244338293
40
0.466660938246724
40
0.468415632155154
40
0.470170326063585
40
0.4710476730178
40
0.471925019972015
40
0.472802366926231
40
0.473679713880446
40
0.474557060834661
40
0.475434407788877
40
0.477189101697307
40
0.478066448651522
40
0.478943795605738
40
0.480698489514168
40
0.481575836468383
40
0.482453183422599
40
0.484207877331029
40
0.485085224285245
40
0.48596257123946
40
0.487717265147891
40
0.489471959056321
40
0.491226652964752
40
0.492103999918967
40
0.492981346873183
40
0.493858693827398
40
0.494736040781613
40
0.495613387735828
40
0.496490734690044
40
0.497368081644259
40
0.498245428598474
40
0.49912277555269
40
0.500000122506905
40
0.50087746946112
40
0.501754816415335
40
0.502632163369551
40
0.503509510323766
40
0.504386857277981
40
0.505264204232197
40
0.506141551186412
40
0.507018898140627
40
0.507896245094842
40
0.508773592049058
40
0.510528285957488
40
0.512282979865919
40
0.514037673774349
40
0.514915020728565
40
0.51579236768278
40
0.517547061591211
40
0.518424408545426
40
0.519301755499641
40
0.521056449408072
40
0.521933796362287
40
0.522811143316502
40
0.524565837224933
40
0.525443184179148
40
0.526320531133364
40
0.527197878087579
40
0.528075225041794
40
0.528952571996009
40
0.529829918950225
40
0.531584612858655
40
0.533339306767086
40
0.535094000675516
40
0.536848694583947
40
0.538603388492378
40
0.540358082400808
40
0.541235429355024
40
0.542112776309239
40
0.54386747021767
40
0.5456221641261
40
0.549131551942961
40
0.550886245851392
40
0.552640939759822
40
0.556150327576683
40
0.559659715393545
40
0.561414409301975
40
0.563169103210406
40
0.566678491027267
40
0.570187878844128
40
0.573697266660989
40
0.577206654477851
40
0.580716042294712
40
0.584225430111573
40
0.587734817928434
40
0.591244205745295
40
0.594753593562157
40
0.598262981379018
40
0.601772369195879
40
0.60528175701274
40
0.608791144829601
40
0.612300532646462
40
0.615809920463324
40
0.619319308280185
40
0.622828696097046
40
0.626338083913907
40
0.63335685954763
40
0.636866247364491
40
0.640375635181352
40
0.643885022998213
40
0.647394410815074
40
0.650903798631935
40
0.654413186448796
40
0.661431962082519
40
0.66494134989938
40
0.668450737716241
40
0.671960125533102
40
0.675469513349964
40
0.678978901166825
40
0.682488288983686
40
0.685997676800547
40
0.689507064617408
40
0.693016452434269
40
0.696525840251131
40
0.700035228067992
40
0.703544615884853
40
0.710563391518575
40
0.714072779335436
40
0.717582167152298
40
0.72460094278602
40
0.731619718419742
40
0.735129106236603
40
0.738638494053465
40
0.745657269687187
40
0.752676045320909
40
0.756185433137771
40
0.759694820954632
40
0.766713596588354
40
0.773732372222076
40
0.780751147855799
40
0.78426053567266
40
0.787769923489521
40
0.794788699123243
40
0.801807474756966
40
0.808826250390688
40
0.815845026024411
40
0.822863801658133
40
0.829882577291855
40
0.833391965108716
40
0.836901352925578
40
0.8439201285593
40
0.850938904193022
40
0.857957679826745
40
0.861467067643606
40
0.864976455460467
40
0.871995231094189
40
0.879014006727912
40
0.882523394544773
40
0.886032782361634
40
0.893051557995357
40
0.896560945812217
40
0.900070333629079
40
0.90357972144594
40
0.907089109262801
40
0.910598497079662
40
0.914107884896523
40
0.917617272713384
40
0.921126660530246
40
0.924636048347107
40
0.928145436163968
40
0.935164211797691
40
0.938673599614552
40
0.942182987431413
40
0.945692375248274
40
0.949201763065135
40
0.952711150881996
40
0.956220538698858
40
0.959729926515719
40
0.96323931433258
40
0.970258089966302
40
0.977276865600025
40
0.980786253416886
40
0.984295641233747
40
0.987805029050608
40
0.991314416867469
40
0.99482380468433
40
0.998333192501192
40
1
40
1
40
1
40
1
41
1
10
-48
20
25.5377456854206
30
0
41
1
10
-48
20
25.5369458636997
30
0
41
1
10
-48
20
25.5340236285146
30
0
41
1
10
-48
20
25.5268535273441
30
0
41
1
10
-48
20
25.5145008149315
30
0
41
1
10
-48
20
25.498546052428
30
0
41
1
10
-48
20
25.4790475285131
30
0
41
1
10
-48
20
25.4560605539616
30
0
41
1
10
-48
20
25.4206809385045
30
0
41
1
10
-48
20
25.3683435244346
30
0
41
1
10
-48
20
25.3050935983468
30
0
41
1
10
-48
20
25.2477155824513
30
0
41
1
10
-48
20
25.2016868330385
30
0
41
1
10
-48
20
25.152540227847
30
0
41
1
10
-48
20
25.1003164469937
30
0
41
1
10
-48
20
25.0450517289096
30
0
41
1
10
-48
20
24.9867824066374
30
0
41
1
10
-48
20
24.9255447176865
30
0
41
1
10
-48
20
24.839671739525
30
0
41
1
10
-48
20
24.7489365887334
30
0
41
1
10
-48
20
24.6515544180899
30
0
41
1
10
-48
20
24.5759533043403
30
0
41
1
10
-48
20
24.497568762949
30
0
41
1
10
-48
20
24.4164276140701
30
0
41
1
10
-48
20
24.3325592473394
30
0
41
1
10
-48
20
24.2459871695687
30
0
41
1
10
-48
20
24.1567364141524
30
0
41
1
10
-48
20
24.0648340874221
30
0
41
1
10
-48
20
23.9703007183102
30
0
41
1
10
-48
20
23.8731600668768
30
0
41
1
10
-48
20
23.7902703050809
30
0
41
1
10
-48
20
23.7222924438482
30
0
41
1
10
-48
20
23.653458955013
30
0
41
1
10
-48
20
23.5663193127548
30
0
41
1
10
-48
20
23.4227344317564
30
0
41
1
10
-48
20
23.2380159335195
30
0
41
1
10
-48
20
23.0451147378601
30
0
41
1
10
-48
20
22.8850691532134
30
0
41
1
10
-48
20
22.7217969969803
30
0
41
1
10
-48
20
22.5128489113235
30
0
41
1
10
-48
20
22.2520665958364
30
0
41
1
10
-48
20
22.0275248400849
30
0
41
1
10
-48
20
21.8423074664778
30
0
41
1
10
-48
20
21.6540306628311
30
0
41
1
10
-48
20
21.4142718291048
30
0
41
1
10
-48
20
21.1168973606635
30
0
41
1
10
-48
20
20.8106419723679
30
0
41
1
10
-48
20
20.4956027387563
30
0
41
1
10
-48
20
20.1718725887446
30
0
41
1
10
-48
20
19.8955820016259
30
0
41
1
10
-48
20
19.6691006662323
30
0
41
1
10
-48
20
19.4397871520623
30
0
41
1
10
-48
20
19.149410368202
30
0
41
1
10
-48
20
18.7917723606454
30
0
41
1
10
-48
20
18.4875640285875
30
0
41
1
10
-48
20
18.2387699032321
30
0
41
1
10
-48
20
17.9872478599777
30
0
41
1
10
-48
20
17.6694739204115
30
0
41
1
10
-48
20
17.3449849911693
30
0
41
1
10
-48
20
17.0799573159189
30
0
41
1
10
-48
20
16.8122724002143
30
0
41
1
10
-48
20
16.4745711156787
30
0
41
1
10
-48
20
16.1303137979014
30
0
41
1
10
-48
20
15.8494407221551
30
0
41
1
10
-48
20
15.5659773316763
30
0
41
1
10
-48
20
15.2813516937416
30
0
41
1
10
-48
20
14.9901200233614
30
0
41
1
10
-48
20
14.8075644243928
30
0
41
1
10
-48
20
14.6597110063681
30
0
41
1
10
-48
20
14.5112241351637
30
0
41
1
10
-48
20
14.325523032543
30
0
41
1
10
-48
20
14.100206062781
30
0
41
1
10
-48
20
13.8730097919851
30
0
41
1
10
-48
20
13.6439374060174
30
0
41
1
10
-48
20
13.4130051173936
30
0
41
1
10
-48
20
13.180217534584
30
0
41
1
10
-48
20
12.9455817705228
30
0
41
1
10
-48
20
12.7091124446063
30
0
41
1
10
-48
20
12.3902773743985
30
0
41
1
10
-48
20
12.0712141126493
30
0
41
1
10
-48
20
11.7450471308309
30
0
41
1
10
-48
20
11.4995374295111
30
0
41
1
10
-48
20
11.2522509655356
30
0
41
1
10
-48
20
11.0031990533662
30
0
41
1
10
-48
20
10.7523971889997
30
0
41
1
10
-48
20
10.4143930662712
30
0
41
1
10
-48
20
9.99059437973426
30
0
41
1
10
-48
20
9.56108850247722
30
0
41
1
10
-48
20
9.21157829691117
30
0
41
1
10
-48
20
8.94892889623657
30
0
41
1
10
-48
20
8.68465969448141
30
0
41
1
10
-48
20
8.41879489376458
30
0
41
1
10
-48
20
8.15135843047153
30
0
41
1
10
-48
20
7.88237762223332
30
0
41
1
10
-48
20
7.61188258574543
30
0
41
1
10
-48
20
7.33990573648225
30
0
41
1
10
-48
20
7.06648317582801
30
0
41
1
10
-48
20
6.79165403169532
30
0
41
1
10
-48
20
6.51546273390829
30
0
41
1
10
-48
20
6.23795844891299
30
0
41
1
10
-48
20
5.95919386675257
30
0
41
1
10
-48
20
5.67923124039953
30
0
41
1
10
-48
20
5.3981360899819
30
0
41
1
10
-48
20
5.16409942590656
30
0
41
1
10
-48
20
4.97430334712465
30
0
41
1
10
-48
20
4.78423355976418
30
0
41
1
10
-48
20
4.54886462907325
30
0
41
1
10
-48
20
4.31277534686876
30
0
41
1
10
-48
20
4.12122851639981
30
0
41
1
10
-48
20
3.92953181194162
30
0
41
1
10
-48
20
3.74171250564348
30
0
41
1
10
-48
20
3.54939053469457
30
0
41
1
10
-48
20
3.43078723702683
30
0
41
1
10
-48
20
3.33452834177103
30
0
41
1
10
-48
20
3.23827071234689
30
0
41
1
10
-48
20
3.11968323888186
30
0
41
1
10
-48
20
2.97639725762417
30
0
41
1
10
-48
20
2.83312966280698
30
0
41
1
10
-48
20
2.68989995735706
30
0
41
1
10
-48
20
2.54673093615281
30
0
41
1
10
-48
20
2.42835340498937
30
0
41
1
10
-48
20
2.33210483961739
30
0
41
1
10
-48
20
2.2606353669438
30
0
41
1
10
-48
20
2.18920496049077
30
0
41
1
10
-48
20
2.11781396766753
30
0
41
1
10
-48
20
2.04645318736368
30
0
41
1
10
-48
20
1.95042373572574
30
0
41
1
10
-48
20
1.85738517673588
30
0
41
1
10
-48
20
1.76148268994552
30
0
41
1
10
-48
20
1.66566845968214
30
0
41
1
10
-48
20
1.57300568038056
30
0
41
1
10
-48
20
1.47735113591227
30
0
41
1
10
-48
20
1.38179732051378
30
0
41
1
10
-48
20
1.2895436916582
30
0
41
1
10
-48
20
1.19416572492491
30
0
41
1
10
-48
20
1.0989000573677
30
0
41
1
10
-48
20
0.98245221211539
30
0
41
1
10
-48
20
0.841586183466234
30
0
41
1
10
-48
20
0.725505983440371
30
0
41
1
10
-48
20
0.630667457966069
30
0
41
1
10
-48
20
0.560480352627565
30
0
41
1
10
-48
20
0.490320947144596
30
0
41
1
10
-48
20
0.420191796768449
30
0
41
1
10
-48
20
0.350113667187884
30
0
41
1
10
-48
20
0.280062256420138
30
0
41
1
10
-48
20
0.210017157782545
30
0
41
1
10
-48
20
0.139999797921973
30
0
41
1
10
-48
20
0.0700069276307431
30
0
41
1
10
-48
20
4.76035211E-08
30
0
41
1
10
-48
20
-0.0700068522659194
30
0
41
1
10
-48
20
-0.139999771278326
30
0
41
1
10
-48
20
-0.210017192178839
30
0
41
1
10
-48
20
-0.280062327764426
30
0
41
1
10
-48
20
-0.350113717602767
30
0
41
1
10
-48
20
-0.420191773132956
30
0
41
1
10
-48
20
-0.490320831948679
30
0
41
1
10
-48
20
-0.560480204117312
30
0
41
1
10
-48
20
-0.630667364061651
30
0
41
1
10
-48
20
-0.725506055183928
30
0
41
1
10
-48
20
-0.84158630107288
30
0
41
1
10
-48
20
-0.982452087600677
30
0
41
1
10
-48
20
-1.09889985434643
30
0
41
1
10
-48
20
-1.19416572065757
30
0
41
1
10
-48
20
-1.28954388060515
30
0
41
1
10
-48
20
-1.38179747741992
30
0
41
1
10
-48
20
-1.47735105462402
30
0
41
1
10
-48
20
-1.57300541448592
30
0
41
1
10
-48
20
-1.66566826608278
30
0
41
1
10
-48
20
-1.76148275667015
30
0
41
1
10
-48
20
-1.85738542747038
30
0
41
1
10
-48
20
-1.95042391104266
30
0
41
1
10
-48
20
-2.04645309751425
30
0
41
1
10
-48
20
-2.11781369872006
30
0
41
1
10
-48
20
-2.18920465457325
30
0
41
1
10
-48
20
-2.26063516689567
30
0
41
1
10
-48
20
-2.33210483720984
30
0
41
1
10
-48
20
-2.42835363712959
30
0
41
1
10
-48
20
-2.54673116818742
30
0
41
1
10
-48
20
-2.68989982354515
30
0
41
1
10
-48
20
-2.83312933609363
30
0
41
1
10
-48
20
-2.97639722386975
30
0
41
1
10
-48
20
-3.11968351915573
30
0
41
1
10
-48
20
-3.23827092858153
30
0
41
1
10
-48
20
-3.3345283326579
30
0
41
1
10
-48
20
-3.43078700052172
30
0
41
1
10
-48
20
-3.5493902106756
30
0
41
1
10
-48
20
-3.74171256557349
30
0
41
1
10
-48
20
-3.92953209444397
30
0
41
1
10
-48
20
-4.12122845571991
30
0
41
1
10
-48
20
-4.31277503954936
30
0
41
1
10
-48
20
-4.54886466434414
30
0
41
1
10
-48
20
-4.78423382727124
30
0
41
1
10
-48
20
-4.97430327353652
30
0
41
1
10
-48
20
-5.16409912297945
30
0
41
1
10
-48
20
-5.39813607390261
30
0
41
1
10
-48
20
-5.67923146024089
30
0
41
1
10
-48
20
-5.95919374753976
30
0
41
1
10
-48
20
-6.23795855201797
30
0
41
1
10
-48
20
-6.5154631732587
30
0
41
1
10
-48
20
-6.79165340259817
30
0
41
1
10
-48
20
-7.06648207689204
30
0
41
1
10
-48
20
-7.3399064304831
30
0
41
1
10
-48
20
-7.61188395990189
30
0
41
1
10
-48
20
-7.88237631719016
30
0
41
1
10
-48
20
-8.15135709229651
30
0
41
1
10
-48
20
-8.41879605362203
30
0
41
1
10
-48
20
-8.68466042952298
30
0
41
1
10
-48
20
-8.94892880419638
30
0
41
1
10
-48
20
-9.21157805391897
30
0
41
1
10
-48
20
-9.47258829745533
30
0
41
1
10
-48
20
-9.73193781693988
30
0
41
1
10
-48
20
-10.0769274508059
30
0
41
1
10
-48
20
-10.414392862813
30
0
41
1
10
-48
20
-10.7523970809122
30
0
41
1
10
-48
20
-11.0031992619305
30
0
41
1
10
-48
20
-11.2522511703231
30
0
41
1
10
-48
20
-11.4995374559564
30
0
41
1
10
-48
20
-11.7450470242588
30
0
41
1
10
-48
20
-12.0712140924269
30
0
41
1
10
-48
20
-12.3902774266109
30
0
41
1
10
-48
20
-12.7091123929265
30
0
41
1
10
-48
20
-12.9455818593715
30
0
41
1
10
-48
20
-13.180217502072
30
0
41
1
10
-48
20
-13.4130051102497
30
0
41
1
10
-48
20
-13.6439372705323
30
0
41
1
10
-48
20
-13.8730093523109
30
0
41
1
10
-48
20
-14.1002065298018
30
0
41
1
10
-48
20
-14.3255243550819
30
0
41
1
10
-48
20
-14.5489565829083
30
0
41
1
10
-48
20
-14.7704892347369
30
0
41
1
10
-48
20
-14.9901189866895
30
0
41
1
10
-48
20
-15.281352479629
30
0
41
1
10
-48
20
-15.5659774253293
30
0
41
1
10
-48
20
-15.8494406493609
30
0
41
1
10
-48
20
-16.1303138068004
30
0
41
1
10
-48
20
-16.474571105177
30
0
41
1
10
-48
20
-16.8122723965627
30
0
41
1
10
-48
20
-17.0799573317746
30
0
41
1
10
-48
20
-17.3449849938593
30
0
41
1
10
-48
20
-17.6694739164694
30
0
41
1
10
-48
20
-17.9872478593115
30
0
41
1
10
-48
20
-18.2387699128343
30
0
41
1
10
-48
20
-18.487564033377
30
0
41
1
10
-48
20
-18.791772354773
30
0
41
1
10
-48
20
-19.1494103733365
30
0
41
1
10
-48
20
-19.4397871566124
30
0
41
1
10
-48
20
-19.6691006657479
30
0
41
1
10
-48
20
-19.895582003726
30
0
41
1
10
-48
20
-20.1718725940103
30
0
41
1
10
-48
20
-20.4956027399135
30
0
41
1
10
-48
20
-20.8106419777063
30
0
41
1
10
-48
20
-21.1168973616586
30
0
41
1
10
-48
20
-21.4142718340936
30
0
41
1
10
-48
20
-21.6540306704864
30
0
41
1
10
-48
20
-21.8423074648877
30
0
41
1
10
-48
20
-22.0275248431941
30
0
41
1
10
-48
20
-22.2520666060929
30
0
41
1
10
-48
20
-22.512848914255
30
0
41
1
10
-48
20
-22.7217969951793
30
0
41
1
10
-48
20
-22.8850691676056
30
0
41
1
10
-48
20
-23.0451147420464
30
0
41
1
10
-48
20
-23.2380159650749
30
0
41
1
10
-48
20
-23.4227343577602
30
0
41
1
10
-48
20
-23.56631942935
30
0
41
1
10
-48
20
-23.7065276517659
30
0
41
1
10
-48
20
-23.8403627529258
30
0
41
1
10
-48
20
-23.970300944616
30
0
41
1
10
-48
20
-24.0648335402233
30
0
41
1
10
-48
20
-24.1567363770153
30
0
41
1
10
-48
20
-24.2459872479919
30
0
41
1
10
-48
20
-24.332559240169
30
0
41
1
10
-48
20
-24.4164275727652
30
0
41
1
10
-48
20
-24.4975687788098
30
0
41
1
10
-48
20
-24.5759532931461
30
0
41
1
10
-48
20
-24.6515543847243
30
0
41
1
10
-48
20
-24.7489365992492
30
0
41
1
10
-48
20
-24.8396716901456
30
0
41
1
10
-48
20
-24.9255447336428
30
0
41
1
10
-48
20
-24.9867823634066
30
0
41
1
10
-48
20
-25.0450517307761
30
0
41
1
10
-48
20
-25.1003164440549
30
0
41
1
10
-48
20
-25.1525401455548
30
0
41
1
10
-48
20
-25.2016867590413
30
0
41
1
10
-48
20
-25.2477155324425
30
0
41
1
10
-48
20
-25.3050936187466
30
0
41
1
10
-48
20
-25.3683434953549
30
0
41
1
10
-48
20
-25.4206808727754
30
0
41
1
10
-48
20
-25.4560606117695
30
0
41
1
10
-48
20
-25.479047573671
30
0
41
1
10
-48
20
-25.4985460495789
30
0
41
1
10
-48
20
-25.5145008161446
30
0
41
1
10
-48
20
-25.5268535709615
30
0
41
1
10
-48
20
-25.534023447771
30
0
41
1
10
-48
20
-25.536945578193
30
0
41
1
10
-48
20
-25.5377453157092
30
0
0
SPLINE
5
22F
100
AcDbEntity
8
1
62
256
6
ByLayer
370
18
48
1
60
0
100
AcDbSpline
70
4
71
3
72
10
73
6
40
0
40
0
40
0
40
0
40
0.398150266124361
40
0.398150266124361
40
1
40
1
40
1
40
1
41
1
10
375.15979827223
20
-1.7873911529681
30
0
41
1
10
375.046575755095
20
-1.77345707145514
30
0
41
1
10
374.942756963928
20
-1.74564226084522
30
0
41
1
10
374.707671795142
20
-1.63954825740541
30
0
41
1
10
374.598951015375
20
-1.55850451220203
30
0
41
1
10
374.525974053614
20
-1.46026966953127
30
0
0
SPLINE
5
230
100
AcDbEntity
8
1
62
256
6
ByLayer
370
18
48
1
60
0
100
AcDbSpline
70
4
71
3
72
8
73
4
40
0
40
0
40
0
40
0
40
1
40
1
40
1
40
1
41
1
10
374.525974053614
20
-1.46026966953127
30
0
41
1
10
374.451507766102
20
-1.36203482686051
30
0
41
1
10
374.397892039094
20
-1.24046920905539
30
0
41
1
10
374.366616198339
20
-1.09434488058264
30
0
0
SPLINE
5
231
100
AcDbEntity
8
1
62
256
6
ByLayer
370
18
48
1
60
0
100
AcDbSpline
70
4
71
3
72
18
73
14
40
0
40
0
40
0
40
0
40
0.191325435437368
40
0.191325435437368
40
0.382650870874737
40
0.382650870874737
40
0.536214707212622
40
0.536214707212622
40
0.690626528446999
40
0.690626528446999
40
0.845885455798054
40
0.845885455798054
40
1
40
1
40
1
40
1
41
1
10
376.79792177783
20
-1.55236483453507
30
0
41
1
10
376.693668975314
20
-1.8421576204139
30
0
41
1
10
376.517928536786
20
-2.06564188748985
30
0
41
1
10
376.020493736209
20
-2.37753751296952
30
0
41
1
10
375.727096563413
20
-2.45612538710611
30
0
41
1
10
375.114983680068
20
-2.45612538710611
30
0
41
1
10
374.861798302528
20
-2.40823590130412
30
0
41
1
10
374.392858831829
20
-2.21861171502167
30
0
41
1
10
374.212452275427
20
-2.10125201795802
30
0
41
1
10
373.958572408048
20
-1.82051475795436
30
0
41
1
10
373.862460724123
20
-1.64691587060565
30
0
41
1
10
373.731883069354
20
-1.22606279716558
30
0
41
1
10
373.700124217348
20
-0.96663958511067
30
0
41
1
10
373.700124217348
20
-0.66211157283135
30
0
0
SPLINE
5
232
100
AcDbEntity
8
SK1
62
256
6
ByLayer
370
18
48
1
60
0
100
AcDbSpline
70
4
71
3
72
108
73
104
40
0
40
0
40
0
40
0
40
0.0065736698214512
40
0.0145319832358317
40
0.0224902966502123
40
0.0304486100645928
40
0.0384069234789734
40
0.046365236893354
40
0.0543235503077345
40
0.0622818637221151
40
0.0781984905508762
40
0.0941151173796373
40
0.102073430794018
40
0.110031744208398
40
0.117990057622779
40
0.12594837103716
40
0.13390668445154
40
0.141864997865921
40
0.149823311280301
40
0.157781624694682
40
0.173698251523443
40
0.181656564937824
40
0.189614878352204
40
0.197573191766585
40
0.205531505180965
40
0.213489818595346
40
0.221448132009726
40
0.229406445424107
40
0.237364758838487
40
0.245323072252868
40
0.253281385667249
40
0.26919801249601
40
0.27715632591039
40
0.285114639324771
40
0.301031266153532
40
0.316947892982293
40
0.324906206396674
40
0.332864519811054
40
0.348781146639815
40
0.364697773468576
40
0.380614400297338
40
0.388572713711718
40
0.396531027126099
40
0.41244765395486
40
0.428364280783621
40
0.444280907612382
40
0.460197534441143
40
0.476114161269904
40
0.492030788098665
40
0.499989101513046
40
0.507947414927427
40
0.523864041756188
40
0.539780668584949
40
0.55569729541371
40
0.563655608828091
40
0.571613922242471
40
0.587530549071232
40
0.603447175899993
40
0.611405489314374
40
0.619363802728754
40
0.635280429557516
40
0.651197056386277
40
0.659155369800657
40
0.667113683215038
40
0.683030310043799
40
0.69098862345818
40
0.69894693687256
40
0.706905250286941
40
0.714863563701321
40
0.722821877115702
40
0.730780190530082
40
0.738738503944463
40
0.746696817358844
40
0.754655130773224
40
0.762613444187604
40
0.770571757601985
40
0.778530071016366
40
0.794446697845127
40
0.802405011259507
40
0.810363324673888
40
0.818321638088268
40
0.826279951502649
40
0.83423826491703
40
0.84219657833141
40
0.858113205160171
40
0.866071518574552
40
0.874029831988932
40
0.881988145403313
40
0.889946458817693
40
0.897904772232074
40
0.905863085646455
40
0.913821399060835
40
0.921779712475216
40
0.929738025889596
40
0.937696339303977
40
0.945654652718357
40
0.953612966132738
40
0.961571279547119
40
0.969529592961499
40
0.97748790637588
40
0.98544621979026
40
0.993404533204641
40
1
40
1
40
1
40
1
41
1
10
-0.394976888875306
20
-27.3653839596462
30
0
41
1
10
-0.394976888875249
20
-27.3654093351202
30
0
41
1
10
-0.394976888875249
20
-27.3644289378229
30
0
41
1
10
-0.394976888875249
20
-27.3594269422325
30
0
41
1
10
-0.394976888875249
20
-27.3501458297252
30
0
41
1
10
-0.394976888875249
20
-27.3369711498757
30
0
41
1
10
-0.394976888875249
20
-27.3199753422425
30
0
41
1
10
-0.394976888875249
20
-27.299228260346
30
0
41
1
10
-0.394976888875249
20
-27.2747954442535
30
0
41
1
10
-0.394976888875249
20
-27.2373772549269
30
0
41
1
10
-0.394976888875249
20
-27.1817216133088
30
0
41
1
10
-0.394976888875249
20
-27.1145655815875
30
0
41
1
10
-0.394976888875249
20
-27.0541147524053
30
0
41
1
10
-0.394976888875249
20
-27.0054853002076
30
0
41
1
10
-0.394976888875249
20
-26.9535980812345
30
0
41
1
10
-0.394976888875249
20
-26.8984983240354
30
0
41
1
10
-0.394976888875249
20
-26.8402262140422
30
0
41
1
10
-0.394976888875249
20
-26.778823083505
30
0
41
1
10
-0.394976888875249
20
-26.7143277513072
30
0
41
1
10
-0.394976888875249
20
-26.6242375172271
30
0
41
1
10
-0.394976888875249
20
-26.5281744271217
30
0
41
1
10
-0.394976888875249
20
-26.4261397450501
30
0
41
1
10
-0.394976888875249
20
-26.3467113173234
30
0
41
1
10
-0.394976888875249
20
-26.2643925510641
30
0
41
1
10
-0.394976888875249
20
-26.1792140413985
30
0
41
1
10
-0.394976888875249
20
-26.0912052550724
30
0
41
1
10
-0.394976888875249
20
-26.0003919383211
30
0
41
1
10
-0.394976888875249
20
-25.9068022246068
30
0
41
1
10
-0.394976888875249
20
-25.810462366076
30
0
41
1
10
-0.394976888875249
20
-25.7113960827791
30
0
41
1
10
-0.394976888875249
20
-25.5756766141877
30
0
41
1
10
-0.394976888875249
20
-25.4346883615025
30
0
41
1
10
-0.394976888875249
20
-25.2883441368502
30
0
41
1
10
-0.394976888875249
20
-25.1385155622326
30
0
41
1
10
-0.394976888875249
20
-24.9448199449114
30
0
41
1
10
-0.394976888875249
20
-24.7426176867451
30
0
41
1
10
-0.394976888875249
20
-24.5757644956798
30
0
41
1
10
-0.394976888875249
20
-24.4055794195024
30
0
41
1
10
-0.394976888875249
20
-24.1867224862228
30
0
41
1
10
-0.394976888875249
20
-23.9142591539288
30
0
41
1
10
-0.394976888875249
20
-23.6791846798371
30
0
41
1
10
-0.394976888875249
20
-23.4862798879298
30
0
41
1
10
-0.394976888875249
20
-23.2902077752037
30
0
41
1
10
-0.394976888875249
20
-23.0393009260323
30
0
41
1
10
-0.394976888875249
20
-22.7288230573926
30
0
41
1
10
-0.394976888875249
20
-22.4090991764391
30
0
41
1
10
-0.394976888875249
20
-22.0802205845281
30
0
41
1
10
-0.394976888875249
20
-21.7422733658897
30
0
41
1
10
-0.394976888875249
20
-21.4532059051397
30
0
41
1
10
-0.394976888875249
20
-21.2174142750283
30
0
41
1
10
-0.394976888875249
20
-20.9786637930718
30
0
41
1
10
-0.394976888875249
20
-20.6748062131766
30
0
41
1
10
-0.394976888875249
20
-20.3013474407322
30
0
41
1
10
-0.394976888875249
20
-19.98292351444
30
0
41
1
10
-0.394976888875249
20
-19.7237678591314
30
0
41
1
10
-0.394976888875249
20
-19.4617376771831
30
0
41
1
10
-0.394976888875249
20
-19.1289452123206
30
0
41
1
10
-0.394976888875249
20
-18.7890328610688
30
0
41
1
10
-0.394976888875249
20
-18.5127557087221
30
0
41
1
10
-0.394976888875249
20
-18.2336536000934
30
0
41
1
10
-0.394976888875249
20
-17.8796208126314
30
0
41
1
10
-0.394976888875249
20
-17.5185779670879
30
0
41
1
10
-0.394976888875249
20
-17.2254485394535
30
0
41
1
10
-0.394976888875249
20
-16.9295333224765
30
0
41
1
10
-0.394976888875249
20
-16.6296334992458
30
0
41
1
10
-0.394976888875249
20
-16.3253880002474
30
0
41
1
10
-0.394976888875249
20
-16.0951789631496
30
0
41
1
10
-0.394976888875249
20
-15.8628987186173
30
0
41
1
10
-0.394976888875249
20
-15.6285506275557
30
0
41
1
10
-0.394976888875249
20
-15.3921386948649
30
0
41
1
10
-0.394976888875249
20
-15.1536643460738
30
0
41
1
10
-0.394976888875249
20
-14.9131307685778
30
0
41
1
10
-0.394976888875249
20
-14.6705410811659
30
0
41
1
10
-0.394976888875249
20
-14.4258961711576
30
0
41
1
10
-0.394976888875249
20
-14.1791991512308
30
0
41
1
10
-0.394976888875249
20
-13.9304519465027
30
0
41
1
10
-0.394976888875249
20
-13.5959808223857
30
0
41
1
10
-0.394976888875249
20
-13.2576504430446
30
0
41
1
10
-0.394976888875249
20
-12.9149898191478
30
0
41
1
10
-0.394976888875249
20
-12.656013661642
30
0
41
1
10
-0.394976888875249
20
-12.394994711819
30
0
41
1
10
-0.394976888875249
20
-12.1319348433318
30
0
41
1
10
-0.394976888875249
20
-11.8668344908947
30
0
41
1
10
-0.394976888875249
20
-11.510559499462
30
0
41
1
10
-0.394976888875249
20
-11.1504804686582
30
0
41
1
10
-0.394976888875249
20
-10.7860413322607
30
0
41
1
10
-0.394976888875249
20
-10.5107477406375
30
0
41
1
10
-0.394976888875249
20
-10.2334171002114
30
0
41
1
10
-0.394976888875249
20
-9.95404994902185
30
0
41
1
10
-0.394976888875249
20
-9.67264665656012
30
0
41
1
10
-0.394976888875249
20
-9.38920804768816
30
0
41
1
10
-0.394976888875249
20
-9.10373459403797
30
0
41
1
10
-0.394976888875249
20
-8.81622852741521
30
0
41
1
10
-0.394976888875249
20
-8.52669016160962
30
0
41
1
10
-0.394976888875249
20
-8.23512129465951
30
0
41
1
10
-0.394976888875249
20
-7.94152452378478
30
0
41
1
10
-0.394976888875249
20
-7.6459029106087
30
0
41
1
10
-0.394976888875249
20
-7.34825967305403
30
0
41
1
10
-0.394976888875249
20
-7.04859940546737
30
0
41
1
10
-0.394976888875249
20
-6.74692776639381
30
0
41
1
10
-0.394976888875249
20
-6.44325211457954
30
0
41
1
10
-0.394976888875249
20
-6.15502922001531
30
0
41
1
10
-0.394976888875249
20
-5.9676408167627
30
0
41
1
10
-0.394976888875249
20
-5.88246902087042
30
0
0
SPLINE
5
233
100
AcDbEntity
8
1
62
256
6
ByLayer
370
18
48
1
60
0
100
AcDbSpline
70
4
71
3
72
18
73
14
40
0
40
0
40
0
40
0
40
0.252026352812658
40
0.252026352812658
40
0.40561296454716
40
0.40561296454716
40
0.559855857536003
40
0.559855857536003
40
0.714098750524841
40
0.714098750524841
40
0.85720187902004
40
0.85720187902004
40
1
40
1
40
1
40
1
41
1
10
379.521898575004
20
1.16874030744498
30
0
41
1
10
379.521898575004
20
0.568279831619975
30
0
41
1
10
379.521898575004
20
-0.0321806442051411
30
0
41
1
10
379.521898575004
20
-0.998565908978662
30
0
41
1
10
379.462325544994
20
-1.29327043699095
30
0
41
1
10
379.226509324894
20
-1.73627169149438
30
0
41
1
10
379.045314334929
20
-1.90969407474995
30
0
41
1
10
378.556815488853
20
-2.16019292356043
30
0
41
1
10
378.300651459813
20
-2.22281763576302
30
0
41
1
10
377.783855424483
20
-2.22281763576302
30
0
41
1
10
377.550031281697
20
-2.16756053676079
30
0
41
1
10
377.109660659426
20
-1.94431443492169
30
0
41
1
10
376.931961095351
20
-1.77707703714452
30
0
41
1
10
376.79792177783
20
-1.55236483453507
30
0
0
SPLINE
5
234
100
AcDbEntity
8
1
62
256
6
ByLayer
370
18
48
1
60
0
100
AcDbSpline
70
4
71
3
72
8
73
4
40
0
40
0
40
0
40
0
40
1
40
1
40
1
40
1
41
1
10
373.700124217348
20
-0.66211157283135
30
0
41
1
10
373.700124217348
20
-0.0518276127392028
30
0
41
1
10
373.700124217348
20
0.558456347352831
30
0
41
1
10
373.700124217348
20
1.16874030744498
30
0
0
SPLINE
5
235
100
AcDbEntity
8
1
62
256
6
ByLayer
370
18
48
1
60
0
100
AcDbSpline
70
4
71
3
72
8
73
4
40
0
40
0
40
0
40
0
40
1
40
1
40
1
40
1
41
1
10
370.273180999998
20
-40
30
0
41
1
10
370.273533510364
20
-40
30
0
41
1
10
370.518014108872
20
-40
30
0
41
1
10
371
20
-40
30
0
0
SPLINE
5
236
100
AcDbEntity
8
SK1
62
256
6
ByLayer
370
18
48
1
60
0
100
AcDbSpline
70
4
71
3
72
10
73
6
40
0
40
0
40
0
40
0
40
0.5
40
0.5
40
1
40
1
40
1
40
1
41
1
10
-1.30710678118658
20
4.3932393797021
30
0
41
1
10
-1.55689427820664
20
2.98196218343321
30
0
41
1
10
-1.74566864435434
20
1.49340994193858
30
0
41
1
10
-1.74565958557639
20
-1.49352420170635
30
0
41
1
10
-1.55700927680107
20
-2.98131104552101
30
0
41
1
10
-1.30710678118658
20
-4.3932391538923
30
0
0
SPLINE
5
237
100
AcDbEntity
8
SK1
62
256
6
ByLayer
370
18
48
1
60
0
100
AcDbSpline
70
4
71
3
72
22
73
18
40
0
40
0
40
0
40
0
40
0.351178839520645
40
0.351178839520645
40
0.705337869169047
40
0.705337869169047
40
0.812145382793218
40
0.812145382793218
40
0.852465533746092
40
0.852465533746092
40
0.893471625808601
40
0.893471625808601
40
0.930614638571559
40
0.930614638571559
40
0.970742440112558
40
0.970742440112558
40
1
40
1
40
1
40
1
41
1
10
-1.30710678118658
20
4.3932393797021
30
0
41
1
10
-1.26636350256149
20
4.62343528906808
30
0
41
1
10
-1.2178149710619
20
4.85138819750034
30
0
41
1
10
-1.09024836612519
20
5.29777381436577
30
0
41
1
10
-1.01544432095773
20
5.52235561861335
30
0
41
1
10
-0.850589253306566
20
5.77920802132758
30
0
41
1
10
-0.806248488510846
20
5.837425886505
30
0
41
1
10
-0.729216148055571
20
5.90188259982585
30
0
41
1
10
-0.705961072671698
20
5.91804026534476
30
0
41
1
10
-0.655328261638829
20
5.94346452812465
30
0
41
1
10
-0.627111790028721
20
5.95278241265123
30
0
41
1
10
-0.57247718565452
20
5.9591887160658
30
0
41
1
10
-0.545441337239367
20
5.95730944596096
30
0
41
1
10
-0.492971508296478
20
5.94432172621578
30
0
41
1
10
-0.467008693786113
20
5.93251770241091
30
0
41
1
10
-0.426325229837971
20
5.90753636851105
30
0
41
1
10
-0.410149891228343
20
5.89544238150927
30
0
41
1
10
-0.394976888875249
20
5.88246916452647
30
0
0
SPLINE
5
238
100
AcDbEntity
8
1
62
256
6
ByLayer
370
18
48
1
60
0
100
AcDbSpline
70
4
71
3
72
12
73
8
40
0
40
0
40
0
40
0
40
0.0182541466315888
40
0.0182541466315888
40
0.509127073315795
40
0.509127073315795
40
1
40
1
40
1
40
1
41
1
10
375.301388128966
20
-2.45581710959755
30
0
41
1
10
375.313932496106
20
-2.45602258722829
30
0
41
1
10
375.326518424198
20
-2.45612538710611
30
0
41
1
10
375.678712184293
20
-2.45612538710611
30
0
41
1
10
375.972109357089
20
-2.37753751296952
30
0
41
1
10
376.469544157666
20
-2.06564188748985
30
0
41
1
10
376.645284596194
20
-1.8421576204139
30
0
41
1
10
376.74953739871
20
-1.55236483453507
30
0
0
SPLINE
5
239
100
AcDbEntity
8
1
62
256
6
ByLayer
370
18
48
1
60
0
100
AcDbSpline
70
4
71
3
72
18
73
14
40
0
40
0
40
0
40
0
40
0.153141656747942
40
0.393533741625448
40
0.514348626842764
40
0.635437395418243
40
0.748069537904032
40
0.826392408130462
40
0.902196927537861
40
0.942838161111098
40
0.970282411035909
40
0.988673986012735
40
1
40
1
40
1
40
1
41
1
10
372.677124344491
20
-39.9999999999783
30
0
41
1
10
372.676644122411
20
-39.9999857444817
30
0
41
1
10
372.690230608665
20
-39.9887696478539
30
0
41
1
10
372.750608909621
20
-39.9363003780064
30
0
41
1
10
372.860148006267
20
-39.8551541342685
30
0
41
1
10
372.975221000717
20
-39.7801535634441
30
0
41
1
10
373.118541928344
20
-39.7016954087243
30
0
41
1
10
373.290058057984
20
-39.6273593868672
30
0
41
1
10
373.461918168817
20
-39.5701125082436
30
0
41
1
10
373.644262686289
20
-39.5298258807794
30
0
41
1
10
373.789497941434
20
-39.509595956886
30
0
41
1
10
373.908601344621
20
-39.5012315055303
30
0
41
1
10
373.974224801873
20
-39.5000652338331
30
0
41
1
10
374
20
-39.5
30
0
0
SPLINE
5
23A
100
AcDbEntity
8
1
62
256
6
ByLayer
370
18
48
1
60
0
100
AcDbSpline
70
4
71
3
72
17
73
13
40
0
40
0
40
0
40
0
40
0.0174277655370249
40
0.0397912643075418
40
0.0791334483884263
40
0.138630898789361
40
0.199666479057516
40
0.318008924097054
40
0.43737399257556
40
0.679461707901478
40
0.915838812240282
40
1
40
1
40
1
40
1
41
1
10
374
20
39.5
30
0
41
1
10
373.959756370872
20
39.5002489019991
30
0
41
1
10
373.872613337053
20
39.502583427356
30
0
41
1
10
373.718591357352
20
39.517581922518
30
0
41
1
10
373.543331431243
20
39.5497304194103
30
0
41
1
10
373.379054815463
20
39.5964414132462
30
0
41
1
10
373.195471807247
20
39.6651541434998
30
0
41
1
10
373.035488011046
20
39.7449736836621
30
0
41
1
10
372.856757420322
20
39.8543445035824
30
0
41
1
10
372.731224863187
20
39.9525063579701
30
0
41
1
10
372.682952400424
20
39.9949688195129
30
0
41
1
10
372.677039854652
20
39.999997503394
30
0
41
1
10
372.677124344491
20
39.9999999999783
30
0
0
SPLINE
5
23B
100
AcDbEntity
8
1
62
256
6
ByLayer
370
18
48
1
60
0
100
AcDbSpline
70
4
71
3
72
13
73
9
40
0
40
0
40
0
40
0
40
0.0482836945315965
40
0.256324683943231
40
0.464383162883112
40
0.676723272024545
40
0.889078531190705
40
1
40
1
40
1
40
1
41
1
10
372.067130660614
20
22.0415454399953
30
0
41
1
10
372.048265347198
20
22.0889743278668
30
0
41
1
10
371.950701579871
20
22.3409975689268
30
0
41
1
10
371.799238798633
20
22.8009734388156
30
0
41
1
10
371.647808115124
20
23.4254378861026
30
0
41
1
10
371.547944218513
20
24.0522965756931
30
0
41
1
10
371.506343111004
20
24.5784839278106
30
0
41
1
10
371.499945146004
20
24.8925741265306
30
0
41
1
10
371.5
20
25
30
0
0
SPLINE
5
23C
100
AcDbEntity
8
1
62
256
6
ByLayer
370
18
48
1
60
0
100
AcDbSpline
70
2053
71
3
72
38
73
34
40
0
40
0
40
0
40
0
40
0.0116893827792344
40
0.0261237158571564
40
0.0492845790131247
40
0.0725105197235112
40
0.0958010443012628
40
0.149961682259719
40
0.204267436491401
40
0.276390215351816
40
0.348701420245428
40
0.420588156167311
40
0.447917873396436
40
0.47610107721995
40
0.490285663267294
40
0.497139239308953
40
0.50403109149499
40
0.51041067558356
40
0.521690440982141
40
0.536223624913278
40
0.550823197783533
40
0.600608746747855
40
0.650599362525271
40
0.717103572928718
40
0.783759494561877
40
0.850131575321011
40
0.893751727730591
40
0.919541245804513
40
0.945262994916908
40
0.964162912247999
40
0.983216624450215
40
0.995017392261302
40
1
40
1
40
1
40
1
41
1
10
373.050214302237
20
-36.2503365722161
30
0
41
1
10
372.983367394591
20
-36.2509670722239
30
0
41
1
10
372.841985416087
20
-36.2611538839205
30
0
41
1
10
372.603860081019
20
-36.3227026010157
30
0
41
1
10
372.386471619359
20
-36.4314543543119
30
0
41
1
10
372.204345918714
20
-36.5706240155823
30
0
41
1
10
372.012536849931
20
-36.780232979766
30
0
41
1
10
371.859973033798
20
-37.0565685020827
30
0
41
1
10
371.787370433699
20
-37.4215017326144
30
0
41
1
10
371.803167758123
20
-37.7959130267261
30
0
41
1
10
371.952386550476
20
-38.1679272469704
30
0
41
1
10
372.192012634673
20
-38.4312792812584
30
0
41
1
10
372.453069582969
20
-38.6053716097384
30
0
41
1
10
372.646787353883
20
-38.6917687909881
30
0
41
1
10
372.854293994353
20
-38.7381573202754
30
0
41
1
10
373.002532440746
20
-38.7508702068208
30
0
41
1
10
373.11619514033
20
-38.7498645098933
30
0
41
1
10
373.24380861275
20
-38.7373181784228
30
0
41
1
10
373.382031695459
20
-38.708304359381
30
0
41
1
10
373.516998510322
20
-38.6628891342822
30
0
41
1
10
373.725251266993
20
-38.5637791398947
30
0
41
1
10
373.941408691595
20
-38.4021232170281
30
0
41
1
10
374.135904077395
20
-38.1427915632204
30
0
41
1
10
374.280631239712
20
-37.8295199962174
30
0
41
1
10
374.32479193759
20
-37.4568522319243
30
0
41
1
10
374.253158182811
20
-37.102541656842
30
0
41
1
10
374.109333035544
20
-36.8186718917153
30
0
41
1
10
373.947910482179
20
-36.6195995718415
30
0
41
1
10
373.779608552005
20
-36.4762973351112
30
0
41
1
10
373.574469468405
20
-36.3573857225131
30
0
41
1
10
373.360797542155
20
-36.2813416773373
30
0
41
1
10
373.17003868603
20
-36.2529623152891
30
0
41
1
10
373.078013328215
20
-36.2500743718135
30
0
41
1
10
373.050214302237
20
-36.2503365722161
30
0
0
SPLINE
5
23D
100
AcDbEntity
8
1
62
256
6
ByLayer
370
18
48
1
60
0
100
AcDbSpline
70
4
71
3
72
12
73
8
40
0
40
0
40
0
40
0
40
0.461496606459213
40
0.644603598368428
40
0.829135084730646
40
0.943881603054116
40
1
40
1
40
1
40
1
41
1
10
13.8943375672976
20
12.6576002058709
30
0
41
1
10
13.8701993920775
20
12.5472081556611
30
0
41
1
10
13.8103873525191
20
12.4071457443531
30
0
41
1
10
13.6939055914889
20
12.2440057683967
30
0
41
1
10
13.6020076979314
20
12.1672894414737
30
0
41
1
10
13.5176052461322
20
12.1366767581889
30
0
41
1
10
13.4754647845541
20
12.1331987498286
30
0
41
1
10
13.4613248654054
20
12.1330899674711
30
0
0
SPLINE
5
23E
100
AcDbEntity
8
1
62
256
6
ByLayer
370
18
48
1
60
0
100
AcDbSpline
70
4
71
3
72
12
73
8
40
0
40
0
40
0
40
0
40
0.111846568705924
40
0.249849579957856
40
0.468129172257736
40
0.8893932200331
40
1
40
1
40
1
40
1
41
1
10
13.4613248654054
20
38.1154578595253
30
0
41
1
10
13.4901161707262
20
38.1151802213103
30
0
41
1
10
13.551003362885
20
38.1120412852889
30
0
41
1
10
13.6530511696465
20
38.0931739610654
30
0
41
1
10
13.7786253284998
20
38.0473472461931
30
0
41
1
10
13.8510872152817
20
37.9928971102796
30
0
41
1
10
13.8876421136685
20
37.9529549354054
30
0
41
1
10
13.8943375672977
20
37.9445010117189
30
0
0
SPLINE
5
23F
100
AcDbEntity
8
1
62
256
6
ByLayer
370
18
48
1
60
0
100
AcDbSpline
70
4
71
3
72
12
73
8
40
0
40
0
40
0
40
0
40
0.461496606459177
40
0.644603598368393
40
0.829135084730617
40
0.943881603054092
40
1
40
1
40
1
40
1
41
1
10
10.1056624327028
20
37.9445010117189
30
0
41
1
10
10.1298006079228
20
37.9812146884711
30
0
41
1
10
10.1896126474812
20
38.0273449690883
30
0
41
1
10
10.3060944085114
20
38.0800194568859
30
0
41
1
10
10.3979923020689
20
38.104567783355
30
0
41
1
10
10.4823947538681
20
38.1143154797902
30
0
41
1
10
10.5245352154462
20
38.1154239008461
30
0
41
1
10
10.5386751345949
20
38.1154578595254
30
0
0
SPLINE
5
240
100
AcDbEntity
8
1
62
256
6
ByLayer
370
18
48
1
60
0
100
AcDbSpline
70
4
71
3
72
12
73
8
40
0
40
0
40
0
40
0
40
0.111846568705929
40
0.249849579957851
40
0.468129172257759
40
0.88939322003312
40
1
40
1
40
1
40
1
41
1
10
10.538675134595
20
12.1330899674713
30
0
41
1
10
10.5098838292741
20
12.1339783930272
30
0
41
1
10
10.4489966371153
20
12.1438207689768
30
0
41
1
10
10.3469488303538
20
12.2029755047046
30
0
41
1
10
10.2213746715005
20
12.3455702428975
30
0
41
1
10
10.1489127847186
20
12.5121443240355
30
0
41
1
10
10.1123578863318
20
12.632248446144
30
0
41
1
10
10.1056624327027
20
12.6576002058709
30
0
0
SPLINE
5
241
100
AcDbEntity
8
1
62
256
6
ByLayer
370
18
48
1
60
0
100
AcDbSpline
70
4
71
3
72
12
73
8
40
0
40
0
40
0
40
0
40
0.461496606459193
40
0.644603598368417
40
0.829135084730639
40
0.943881603054114
40
1
40
1
40
1
40
1
41
1
10
13.8943375672976
20
-37.9445010117189
30
0
41
1
10
13.8701993920775
20
-37.9812146884711
30
0
41
1
10
13.8103873525191
20
-38.0273449690883
30
0
41
1
10
13.6939055914889
20
-38.0800194568859
30
0
41
1
10
13.6020076979314
20
-38.104567783355
30
0
41
1
10
13.5176052461322
20
-38.1143154797902
30
0
41
1
10
13.4754647845541
20
-38.115423900846
30
0
41
1
10
13.4613248654054
20
-38.1154578595254
30
0
0
SPLINE
5
242
100
AcDbEntity
8
1
62
256
6
ByLayer
370
18
48
1
60
0
100
AcDbSpline
70
4
71
3
72
12
73
8
40
0
40
0
40
0
40
0
40
0.111846568705925
40
0.249849579957861
40
0.468129172257745
40
0.889393220033041
40
1
40
1
40
1
40
1
41
1
10
13.4613248654054
20
-12.1330899674712
30
0
41
1
10
13.4901161707262
20
-12.1339783930272
30
0
41
1
10
13.551003362885
20
-12.1438207689768
30
0
41
1
10
13.6530511696465
20
-12.2029755047046
30
0
41
1
10
13.7786253284998
20
-12.3455702428975
30
0
41
1
10
13.8510872152817
20
-12.5121443240355
30
0
41
1
10
13.8876421136685
20
-12.632248446144
30
0
41
1
10
13.8943375672977
20
-12.6576002058709
30
0
0
SPLINE
5
243
100
AcDbEntity
8
1
62
256
6
ByLayer
370
18
48
1
60
0
100
AcDbSpline
70
4
71
3
72
12
73
8
40
0
40
0
40
0
40
0
40
0.461496606459171
40
0.644603598368379
40
0.829135084730593
40
0.943881603054074
40
1
40
1
40
1
40
1
41
1
10
10.1056624327028
20
-12.6576002058709
30
0
41
1
10
10.1298006079228
20
-12.5472081556611
30
0
41
1
10
10.1896126474812
20
-12.4071457443531
30
0
41
1
10
10.3060944085114
20
-12.2440057683967
30
0
41
1
10
10.3979923020689
20
-12.1672894414737
30
0
41
1
10
10.4823947538681
20
-12.1366767581889
30
0
41
1
10
10.5245352154462
20
-12.1331987498287
30
0
41
1
10
10.5386751345949
20
-12.1330899674711
30
0
0
SPLINE
5
244
100
AcDbEntity
8
1
62
256
6
ByLayer
370
18
48
1
60
0
100
AcDbSpline
70
4
71
3
72
12
73
8
40
0
40
0
40
0
40
0
40
0.111846568705929
40
0.249849579957861
40
0.468129172257746
40
0.889393220033092
40
1
40
1
40
1
40
1
41
1
10
10.538675134595
20
-38.1154578595253
30
0
41
1
10
10.5098838292741
20
-38.1151802213103
30
0
41
1
10
10.4489966371153
20
-38.1120412852889
30
0
41
1
10
10.3469488303539
20
-38.0931739610654
30
0
41
1
10
10.2213746715005
20
-38.0473472461931
30
0
41
1
10
10.1489127847186
20
-37.9928971102795
30
0
41
1
10
10.1123578863319
20
-37.9529549354054
30
0
41
1
10
10.1056624327027
20
-37.9445010117189
30
0
0
LINE
5
70
100
AcDbEntity
8
4
62
256
6
ByLayer
370
13
48
0.05
60
0
100
AcDbLine
10
0
20
0
30
0
11
410
21
0
31
0
39
0
210
0
220
0
230
1
0
LINE
5
72
100
AcDbEntity
8
80
62
256
6
ByLayer
370
13
48
1
60
0
100
AcDbLine
10
0
20
0
30
0
11
-4.28511
21
0
31
0
39
0
210
0
220
0
230
1
0
LINE
5
73
100
AcDbEntity
8
SK4
62
256
6
ByLayer
370
13
48
0.05
60
0
100
AcDbLine
10
-52.5
20
0
30
0
11
413.5
21
0
31
0
39
0
210
0
220
0
230
1
0
LINE
5
75
100
AcDbEntity
8
81
62
256
6
ByLayer
370
13
48
1
60
0
100
AcDbLine
10
410.000937
20
44.488699
30
0
11
412.000937
21
44.488699
31
0
39
0
210
0
220
0
230
1
0
LINE
5
76
100
AcDbEntity
8
1
62
256
6
ByLayer
370
18
48
1
60
1
100
AcDbLine
10
0
20
0
30
0
11
0
21
420
31
0
39
0
210
0
220
0
230
1
0
LINE
5
78
100
AcDbEntity
8
1
62
256
6
ByLayer
370
18
48
1
60
1
100
AcDbLine
10
594
20
420
30
0
11
0
21
420
31
0
39
0
210
0
220
0
230
1
0
LINE
5
79
100
AcDbEntity
8
1
62
256
6
ByLayer
370
18
48
1
60
1
100
AcDbLine
10
594
20
420
30
0
11
594
21
0
31
0
39
0
210
0
220
0
230
1
0
LINE
5
7A
100
AcDbEntity
8
1
62
256
6
ByLayer
370
18
48
1
60
1
100
AcDbLine
10
0
20
0
30
0
11
594
21
0
31
0
39
0
210
0
220
0
230
1
0
LINE
5
7B
100
AcDbEntity
8
1
62
256
6
ByLayer
370
18
48
1
60
1
100
AcDbLine
10
0
20
0
30
0
11
0
21
420
31
0
39
0
210
0
220
0
230
1
0
LINE
5
7C
100
AcDbEntity
8
1
62
256
6
ByLayer
370
18
48
1
60
1
100
AcDbLine
10
594
20
420
30
0
11
0
21
420
31
0
39
0
210
0
220
0
230
1
0
LINE
5
7D
100
AcDbEntity
8
1
62
256
6
ByLayer
370
18
48
1
60
1
100
AcDbLine
10
594
20
420
30
0
11
594
21
0
31
0
39
0
210
0
220
0
230
1
0
LINE
5
7E
100
AcDbEntity
8
1
62
256
6
ByLayer
370
18
48
1
60
1
100
AcDbLine
10
0
20
0
30
0
11
594
21
0
31
0
39
0
210
0
220
0
230
1
0
LINE
5
7F
100
AcDbEntity
8
1
62
256
6
ByLayer
370
18
48
1
60
1
100
AcDbLine
10
0
20
0
30
0
11
0
21
420
31
0
39
0
210
0
220
0
230
1
0
LINE
5
80
100
AcDbEntity
8
1
62
256
6
ByLayer
370
18
48
1
60
1
100
AcDbLine
10
594
20
420
30
0
11
0
21
420
31
0
39
0
210
0
220
0
230
1
0
LINE
5
81
100
AcDbEntity
8
1
62
256
6
ByLayer
370
18
48
1
60
1
100
AcDbLine
10
594
20
420
30
0
11
594
21
0
31
0
39
0
210
0
220
0
230
1
0
LINE
5
82
100
AcDbEntity
8
1
62
256
6
ByLayer
370
18
48
1
60
1
100
AcDbLine
10
0
20
0
30
0
11
594
21
0
31
0
39
0
210
0
220
0
230
1
0
LINE
5
83
100
AcDbEntity
8
1
62
256
6
ByLayer
370
18
48
1
60
1
100
AcDbLine
10
0
20
0
30
0
11
0
21
420
31
0
39
0
210
0
220
0
230
1
0
LINE
5
84
100
AcDbEntity
8
1
62
256
6
ByLayer
370
18
48
1
60
1
100
AcDbLine
10
594
20
420
30
0
11
0
21
420
31
0
39
0
210
0
220
0
230
1
0
LINE
5
85
100
AcDbEntity
8
1
62
256
6
ByLayer
370
18
48
1
60
1
100
AcDbLine
10
594
20
420
30
0
11
594
21
0
31
0
39
0
210
0
220
0
230
1
0
LINE
5
86
100
AcDbEntity
8
1
62
256
6
ByLayer
370
18
48
1
60
1
100
AcDbLine
10
0
20
0
30
0
11
594
21
0
31
0
39
0
210
0
220
0
230
1
0
LINE
5
87
100
AcDbEntity
8
1
62
256
6
ByLayer
370
18
48
1
60
1
100
AcDbLine
10
0
20
0
30
0
11
0
21
420
31
0
39
0
210
0
220
0
230
1
0
LINE
5
88
100
AcDbEntity
8
1
62
256
6
ByLayer
370
18
48
1
60
1
100
AcDbLine
10
594
20
420
30
0
11
0
21
420
31
0
39
0
210
0
220
0
230
1
0
LINE
5
89
100
AcDbEntity
8
1
62
256
6
ByLayer
370
18
48
1
60
1
100
AcDbLine
10
594
20
420
30
0
11
594
21
0
31
0
39
0
210
0
220
0
230
1
0
LINE
5
8A
100
AcDbEntity
8
1
62
256
6
ByLayer
370
18
48
1
60
1
100
AcDbLine
10
0
20
0
30
0
11
594
21
0
31
0
39
0
210
0
220
0
230
1
0
LINE
5
8B
100
AcDbEntity
8
1
62
256
6
ByLayer
370
18
48
1
60
1
100
AcDbLine
10
0
20
0
30
0
11
0
21
420
31
0
39
0
210
0
220
0
230
1
0
LINE
5
8C
100
AcDbEntity
8
1
62
256
6
ByLayer
370
18
48
1
60
1
100
AcDbLine
10
594
20
420
30
0
11
0
21
420
31
0
39
0
210
0
220
0
230
1
0
LINE
5
8D
100
AcDbEntity
8
1
62
256
6
ByLayer
370
18
48
1
60
1
100
AcDbLine
10
594
20
420
30
0
11
594
21
0
31
0
39
0
210
0
220
0
230
1
0
LINE
5
8E
100
AcDbEntity
8
1
62
256
6
ByLayer
370
18
48
1
60
1
100
AcDbLine
10
0
20
0
30
0
11
594
21
0
31
0
39
0
210
0
220
0
230
1
0
LINE
5
8F
100
AcDbEntity
8
1
62
256
6
ByLayer
370
18
48
1
60
1
100
AcDbLine
10
0
20
0
30
0
11
0
21
841
31
0
39
0
210
0
220
0
230
1
0
LINE
5
90
100
AcDbEntity
8
1
62
256
6
ByLayer
370
18
48
1
60
1
100
AcDbLine
10
1189
20
841
30
0
11
0
21
841
31
0
39
0
210
0
220
0
230
1
0
LINE
5
91
100
AcDbEntity
8
1
62
256
6
ByLayer
370
18
48
1
60
1
100
AcDbLine
10
1189
20
841
30
0
11
1189
21
0
31
0
39
0
210
0
220
0
230
1
0
LINE
5
92
100
AcDbEntity
8
1
62
256
6
ByLayer
370
18
48
1
60
1
100
AcDbLine
10
0
20
0
30
0
11
1189
21
0
31
0
39
0
210
0
220
0
230
1
0
LINE
5
93
100
AcDbEntity
8
1
62
256
6
ByLayer
370
18
48
1
60
1
100
AcDbLine
10
0
20
0
30
0
11
0
21
841
31
0
39
0
210
0
220
0
230
1
0
LINE
5
94
100
AcDbEntity
8
1
62
256
6
ByLayer
370
18
48
1
60
1
100
AcDbLine
10
1189
20
841
30
0
11
0
21
841
31
0
39
0
210
0
220
0
230
1
0
LINE
5
95
100
AcDbEntity
8
1
62
256
6
ByLayer
370
18
48
1
60
1
100
AcDbLine
10
1189
20
841
30
0
11
1189
21
0
31
0
39
0
210
0
220
0
230
1
0
LINE
5
96
100
AcDbEntity
8
1
62
256
6
ByLayer
370
18
48
1
60
1
100
AcDbLine
10
0
20
0
30
0
11
1189
21
0
31
0
39
0
210
0
220
0
230
1
0
LINE
5
97
100
AcDbEntity
8
1
62
256
6
ByLayer
370
18
48
1
60
0
100
AcDbLine
10
375.339146
20
-1.797952
30
0
11
375.38753
21
-1.797952
31
0
39
0
210
0
220
0
230
1
0
LINE
5
98
100
AcDbEntity
8
1
62
256
6
ByLayer
370
18
48
1
60
0
100
AcDbLine
10
377.89334
20
-1.597798
30
0
11
377.941724
21
-1.597798
31
0
39
0
210
0
220
0
230
1
0
LINE
5
99
100
AcDbEntity
8
1
62
256
6
ByLayer
370
18
48
1
60
0
100
AcDbLine
10
385.426162
20
-33.879446
30
0
11
385.453851
21
-33.879446
31
0
39
0
210
0
220
0
230
1
0
LINE
5
9A
100
AcDbEntity
8
1
62
256
6
ByLayer
370
18
48
1
60
0
100
AcDbLine
10
385.04663
20
12.000154
30
0
11
385.67506
21
16.500154
31
0
39
0
210
0
220
0
230
1
0
LINE
5
9B
100
AcDbEntity
8
1
62
256
6
ByLayer
370
18
48
1
60
0
100
AcDbLine
10
387.484552
20
-39.956073
30
0
11
387.348069
21
-39.877808
31
0
39
0
210
0
220
0
230
1
0
LINE
5
9C
100
AcDbEntity
8
1
62
256
6
ByLayer
370
18
48
1
60
0
100
AcDbLine
10
400.225937
20
37.072089
30
0
11
400.225937
21
37.026579
31
0
39
0
210
0
220
0
230
1
0
LINE
5
9D
100
AcDbEntity
8
1
62
256
6
ByLayer
370
18
48
1
60
0
100
AcDbLine
10
407.075937
20
37.026579
30
0
11
407.075937
21
37.072089
31
0
39
0
210
0
220
0
230
1
0
LINE
5
9E
100
AcDbEntity
8
1
62
256
6
ByLayer
370
18
48
1
60
0
100
AcDbLine
10
402.392184
20
37.370591
30
0
11
402.392184
21
37.425142
31
0
39
0
210
0
220
0
230
1
0
LINE
5
9F
100
AcDbEntity
8
1
62
256
6
ByLayer
370
18
48
1
60
0
100
AcDbLine
10
404.90969
20
36.710408
30
0
11
404.90969
21
36.655868
31
0
39
0
210
0
220
0
230
1
0
LINE
5
A0
100
AcDbEntity
8
1
62
256
6
ByLayer
370
18
48
1
60
0
100
AcDbLine
10
404.27799
20
38.384105
30
0
11
404.27799
21
38.327041
31
0
39
0
210
0
220
0
230
1
0
LINE
5
A1
100
AcDbEntity
8
1
62
256
6
ByLayer
370
18
48
1
60
0
100
AcDbLine
10
406.673834
20
19.9325
30
0
11
398.952599
21
19.9325
31
0
39
0
210
0
220
0
230
1
0
LINE
5
A2
100
AcDbEntity
8
1
62
256
6
ByLayer
370
18
48
1
60
0
100
AcDbLine
10
398.401013
20
4.0675
30
0
11
406.673834
21
4.0675
31
0
39
0
210
0
220
0
230
1
0
LINE
5
A3
100
AcDbEntity
8
1
62
256
6
ByLayer
370
18
48
1
60
0
100
AcDbLine
10
406.373834
20
-4.0675
30
0
11
398.059616
21
-4.0675
31
0
39
0
210
0
220
0
230
1
0
LINE
5
A4
100
AcDbEntity
8
1
62
256
6
ByLayer
370
18
48
1
60
0
100
AcDbLine
10
398.059616
20
-19.9325
30
0
11
406.373834
21
-19.9325
31
0
39
0
210
0
220
0
230
1
0
LINE
5
A5
100
AcDbEntity
8
1
62
256
6
ByLayer
370
13
48
1
60
0
100
AcDbLine
10
397.558288
20
-41.029507
30
0
11
397.372459
21
-41.110309
31
0
39
0
210
0
220
0
230
1
0
LINE
5
A6
100
AcDbEntity
8
1
62
256
6
ByLayer
370
13
48
1
60
0
100
AcDbLine
10
409.069354
20
-44.476368
30
0
11
397.956854
21
-42.522449
31
0
39
0
210
0
220
0
230
1
0
LINE
5
A7
100
AcDbEntity
8
1
62
256
6
ByLayer
370
13
48
1
60
0
100
AcDbLine
10
397.300937
20
-41.742959
30
0
11
397.885698
21
-41.385873
31
0
39
0
210
0
220
0
230
1
0
LINE
5
A8
100
AcDbEntity
8
1
62
256
6
ByLayer
370
13
48
1
60
0
100
AcDbLine
10
408.750849
20
-31.560747
30
0
11
409.34502
21
-31.66522
31
0
39
0
210
0
220
0
230
1
0
LINE
5
A9
100
AcDbEntity
8
1
62
256
6
ByLayer
370
13
48
1
60
0
100
AcDbLine
10
409.416176
20
-43.339791
30
0
11
410.000937
21
-43.696877
31
0
39
0
210
0
220
0
230
1
0
LINE
5
AA
100
AcDbEntity
8
1
62
256
6
ByLayer
370
13
48
1
60
0
100
AcDbLine
10
410.000937
20
-32.444711
30
0
11
410.000937
21
-43.696877
31
0
39
0
210
0
220
0
230
1
0
LINE
5
AB
100
AcDbEntity
8
1
62
256
6
ByLayer
370
13
48
1
60
0
100
AcDbLine
10
398.058397
20
-41.591107
30
0
11
397.956854
21
-42.522449
31
0
39
0
210
0
220
0
230
1
0
LINE
5
AC
100
AcDbEntity
8
1
62
256
6
ByLayer
370
13
48
1
60
0
100
AcDbLine
10
409.243478
20
-31.882391
30
0
11
409.34502
21
-31.66522
31
0
39
0
210
0
220
0
230
1
0
LINE
5
AD
100
AcDbEntity
8
1
62
256
6
ByLayer
370
13
48
1
60
0
100
AcDbLine
10
397.300937
20
-41.742959
30
0
11
397.300937
21
-41.097717
31
0
39
0
210
0
220
0
230
1
0
LINE
5
AE
100
AcDbEntity
8
1
62
256
6
ByLayer
370
13
48
1
60
0
100
AcDbLine
10
398.058397
20
-41.591107
30
0
11
409.170897
21
-43.545025
31
0
39
0
210
0
220
0
230
1
0
LINE
5
AF
100
AcDbEntity
8
1
62
256
6
ByLayer
370
13
48
1
60
0
100
AcDbLine
10
409.416176
20
-43.339791
30
0
11
409.416176
21
-32.087625
31
0
39
0
210
0
220
0
230
1
0
LINE
5
B0
100
AcDbEntity
8
1
62
256
6
ByLayer
370
13
48
1
60
0
100
AcDbLine
10
409.243478
20
-31.882391
30
0
11
409.182185
21
-31.871614
31
0
39
0
210
0
220
0
230
1
0
LINE
5
B1
100
AcDbEntity
8
1
62
256
6
ByLayer
370
13
48
1
60
0
100
AcDbLine
10
410.000937
20
-32.444711
30
0
11
409.416176
21
-32.087625
31
0
39
0
210
0
220
0
230
1
0
LINE
5
B2
100
AcDbEntity
8
1
62
256
6
ByLayer
370
13
48
1
60
0
100
AcDbLine
10
409.069354
20
-44.476368
30
0
11
409.170897
21
-43.545025
31
0
39
0
210
0
220
0
230
1
0
LINE
5
B3
100
AcDbEntity
8
1
62
256
6
ByLayer
370
13
48
1
60
0
100
AcDbLine
10
397.885698
20
-40.58943
30
0
11
397.885698
21
-41.385873
31
0
39
0
210
0
220
0
230
1
0
LINE
5
B4
100
AcDbEntity
8
1
62
256
6
ByLayer
370
18
48
1
60
0
100
AcDbLine
10
397.950937
20
-40.834889
30
0
11
397.950937
21
-40.600951
31
0
39
0
210
0
220
0
230
1
0
LINE
5
B5
100
AcDbEntity
8
1
62
256
6
ByLayer
370
18
48
1
60
0
100
AcDbLine
10
408.950937
20
-42.262238
30
0
11
409.250937
21
-42.284732
31
0
39
0
210
0
220
0
230
1
0
LINE
5
B6
100
AcDbEntity
8
1
62
256
6
ByLayer
370
18
48
1
60
0
100
AcDbLine
10
398.612018
20
-41.620517
30
0
11
398.612018
21
-41.34722
31
0
39
0
210
0
220
0
230
1
0
LINE
5
B7
100
AcDbEntity
8
1
62
256
6
ByLayer
370
18
48
1
60
0
100
AcDbLine
10
408.412018
20
-43.343658
30
0
11
408.412018
21
-43.07036
31
0
39
0
210
0
220
0
230
1
0
LINE
5
B8
100
AcDbEntity
8
1
62
256
6
ByLayer
370
18
48
1
60
0
100
AcDbLine
10
408.950937
20
-32.339069
30
0
11
409.250937
21
-32.361562
31
0
39
0
210
0
220
0
230
1
0
LINE
5
B9
100
AcDbEntity
8
1
62
256
6
ByLayer
370
18
48
1
60
0
100
AcDbLine
10
398.629383
20
-41.249016
30
0
11
398.681478
21
-40.931912
31
0
39
0
210
0
220
0
230
1
0
LINE
5
BA
100
AcDbEntity
8
1
62
256
6
ByLayer
370
18
48
1
60
0
100
AcDbLine
10
409.350937
20
-42.284732
30
0
11
409.350937
21
-32.361562
31
0
39
0
210
0
220
0
230
1
0
LINE
5
BB
100
AcDbEntity
8
1
62
256
6
ByLayer
370
18
48
1
60
0
100
AcDbLine
10
408.429383
20
-42.972157
30
0
11
408.481478
21
-42.655052
31
0
39
0
210
0
220
0
230
1
0
LINE
5
BC
100
AcDbEntity
8
1
62
256
6
ByLayer
370
18
48
1
60
0
100
AcDbLine
10
398.612018
20
-41.34722
30
0
11
408.412018
21
-43.07036
31
0
39
0
210
0
220
0
230
1
0
LINE
5
BD
100
AcDbEntity
8
1
62
256
6
ByLayer
370
18
48
1
60
0
100
AcDbLine
10
398.681478
20
-40.931912
30
0
11
408.481478
21
-42.655052
31
0
39
0
210
0
220
0
230
1
0
LINE
5
BE
100
AcDbEntity
8
1
62
256
6
ByLayer
370
18
48
1
60
0
100
AcDbLine
10
408.412018
20
-43.343658
30
0
11
398.612018
21
-41.620517
31
0
39
0
210
0
220
0
230
1
0
LINE
5
BF
100
AcDbEntity
8
1
62
256
6
ByLayer
370
18
48
1
60
0
100
AcDbLine
10
408.950937
20
-42.262238
30
0
11
408.950937
21
-32.339069
31
0
39
0
210
0
220
0
230
1
0
LINE
5
C0
100
AcDbEntity
8
1
62
256
6
ByLayer
370
18
48
1
60
0
100
AcDbLine
10
409.350937
20
-42.558029
30
0
11
409.350937
21
-42.284732
31
0
39
0
210
0
220
0
230
1
0
LINE
5
C1
100
AcDbEntity
8
1
62
256
6
ByLayer
370
18
48
1
60
0
100
AcDbLine
10
408.429383
20
-42.972157
30
0
11
398.629383
21
-41.249016
31
0
39
0
210
0
220
0
230
1
0
LINE
5
C2
100
AcDbEntity
8
1
62
256
6
ByLayer
370
18
48
1
60
0
100
AcDbLine
10
409.250937
20
-32.361562
30
0
11
409.250937
21
-42.284732
31
0
39
0
210
0
220
0
230
1
0
LINE
5
C3
100
AcDbEntity
8
1
62
256
6
ByLayer
370
13
48
1
60
0
100
AcDbLine
10
410.000937
20
32.416336
30
0
11
410.000937
21
43.695298
31
0
39
0
210
0
220
0
230
1
0
LINE
5
C4
100
AcDbEntity
8
1
62
256
6
ByLayer
370
13
48
1
60
0
100
AcDbLine
10
409.069354
20
44.476645
30
0
11
397.956854
21
42.518074
31
0
39
0
210
0
220
0
230
1
0
LINE
5
C5
100
AcDbEntity
8
1
62
256
6
ByLayer
370
13
48
1
60
0
100
AcDbLine
10
398.23252
20
29.676418
30
0
11
409.34502
21
31.634989
31
0
39
0
210
0
220
0
230
1
0
LINE
5
C6
100
AcDbEntity
8
1
62
256
6
ByLayer
370
13
48
1
60
0
100
AcDbLine
10
397.300937
20
41.736727
30
0
11
397.300937
21
30.457765
31
0
39
0
210
0
220
0
230
1
0
LINE
5
C7
100
AcDbEntity
8
1
62
256
6
ByLayer
370
18
48
1
60
0
100
AcDbLine
10
407.405518
20
8.056663
30
0
11
407.931139
21
8.056663
31
0
39
0
210
0
220
0
230
1
0
LINE
5
C8
100
AcDbEntity
8
1
62
256
6
ByLayer
370
18
48
1
60
0
100
AcDbLine
10
406.673834
20
4.0675
30
0
11
406.674486
21
4.067502
31
0
39
0
210
0
220
0
230
1
0
LINE
5
C9
100
AcDbEntity
8
1
62
256
6
ByLayer
370
18
48
1
60
0
100
AcDbLine
10
407.179986
20
12.205501
30
0
11
408.156715
21
12.205501
31
0
39
0
210
0
220
0
230
1
0
LINE
5
CA
100
AcDbEntity
8
1
62
256
6
ByLayer
370
18
48
1
60
0
100
AcDbLine
10
403.78056
20
35.580629
30
0
11
403.78056
21
35.556022
31
0
39
0
210
0
220
0
230
1
0
LINE
5
CB
100
AcDbEntity
8
1
62
256
6
ByLayer
370
18
48
1
60
0
100
AcDbLine
10
402.17873
20
36.889283
30
0
11
402.160086
21
36.882033
31
0
39
0
210
0
220
0
230
1
0
LINE
5
CC
100
AcDbEntity
8
1
62
256
6
ByLayer
370
18
48
1
60
0
100
AcDbLine
10
405.006987
20
36.438005
30
0
11
405.006987
21
36.380268
31
0
39
0
210
0
220
0
230
1
0
LINE
5
CD
100
AcDbEntity
8
1
62
256
6
ByLayer
370
18
48
1
60
0
100
AcDbLine
10
404.991948
20
36.450862
30
0
11
404.991948
21
36.393455
31
0
39
0
210
0
220
0
230
1
0
LINE
5
CE
100
AcDbEntity
8
1
62
256
6
ByLayer
370
18
48
1
60
0
100
AcDbLine
10
404.877364
20
37.928343
30
0
11
404.877364
21
37.870606
31
0
39
0
210
0
220
0
230
1
0
LINE
5
CF
100
AcDbEntity
8
1
62
256
6
ByLayer
370
18
48
1
60
0
100
AcDbLine
10
403.521314
20
38.561304
30
0
11
403.521314
21
38.503567
31
0
39
0
210
0
220
0
230
1
0
LINE
5
D0
100
AcDbEntity
8
1
62
256
6
ByLayer
370
18
48
1
60
0
100
AcDbLine
10
404.85842
20
37.921589
30
0
11
404.85842
21
37.864181
31
0
39
0
210
0
220
0
230
1
0
LINE
5
D1
100
AcDbEntity
8
1
62
256
6
ByLayer
370
18
48
1
60
0
100
AcDbLine
10
402.17873
20
36.94669
30
0
11
402.17873
21
36.889283
31
0
39
0
210
0
220
0
230
1
0
LINE
5
D2
100
AcDbEntity
8
1
62
256
6
ByLayer
370
18
48
1
60
0
100
AcDbLine
10
405.006987
20
36.380268
30
0
11
404.991948
21
36.393455
31
0
39
0
210
0
220
0
230
1
0
LINE
5
D3
100
AcDbEntity
8
1
62
256
6
ByLayer
370
18
48
1
60
0
100
AcDbLine
10
402.791842
20
38.295915
30
0
11
402.791842
21
38.238178
31
0
39
0
210
0
220
0
230
1
0
LINE
5
D4
100
AcDbEntity
8
1
62
256
6
ByLayer
370
18
48
1
60
0
100
AcDbLine
10
403.022222
20
35.734256
30
0
11
403.022222
21
35.676848
31
0
39
0
210
0
220
0
230
1
0
LINE
5
D5
100
AcDbEntity
8
1
62
256
6
ByLayer
370
18
48
1
60
0
100
AcDbLine
10
402.807445
20
38.283072
30
0
11
402.807445
21
38.225664
31
0
39
0
210
0
220
0
230
1
0
LINE
5
D6
100
AcDbEntity
8
1
62
256
6
ByLayer
370
18
48
1
60
0
100
AcDbLine
10
403.019181
20
35.714821
30
0
11
403.019181
21
35.657085
31
0
39
0
210
0
220
0
230
1
0
LINE
5
D7
100
AcDbEntity
8
1
62
256
6
ByLayer
370
18
48
1
60
0
100
AcDbLine
10
402.807445
20
38.225664
30
0
11
402.791842
21
38.238178
31
0
39
0
210
0
220
0
230
1
0
LINE
5
D8
100
AcDbEntity
8
1
62
256
6
ByLayer
370
18
48
1
60
0
100
AcDbLine
10
404.877364
20
37.870606
30
0
11
404.85842
21
37.864181
31
0
39
0
210
0
220
0
230
1
0
LINE
5
D9
100
AcDbEntity
8
1
62
256
6
ByLayer
370
18
48
1
60
0
100
AcDbLine
10
402.160086
20
36.93977
30
0
11
402.160086
21
36.882033
31
0
39
0
210
0
220
0
230
1
0
LINE
5
DA
100
AcDbEntity
8
1
62
256
6
ByLayer
370
18
48
1
60
0
100
AcDbLine
10
397.065043
20
32.82235
30
0
11
397.082408
21
32.720945
31
0
39
0
210
0
220
0
230
1
0
LINE
5
DB
100
AcDbEntity
8
1
62
256
6
ByLayer
370
18
48
1
60
0
100
AcDbLine
10
379.800937
20
24.106557
30
0
11
379.800937
21
25.638645
31
0
39
0
210
0
220
0
230
1
0
LINE
5
DC
100
AcDbEntity
8
1
62
256
6
ByLayer
370
18
48
1
60
0
100
AcDbLine
10
395.500937
20
40.828179
30
0
11
395.500937
21
19.968943
31
0
39
0
210
0
220
0
230
1
0
LINE
5
DD
100
AcDbEntity
8
1
62
256
6
ByLayer
370
18
48
1
60
0
100
AcDbLine
10
397.300937
20
41.116464
30
0
11
396.320408
21
40.943646
31
0
39
0
210
0
220
0
230
1
0
LINE
5
DE
100
AcDbEntity
8
1
62
256
6
ByLayer
370
18
48
1
60
0
100
AcDbLine
10
398.400937
20
15.530182
30
0
11
397.606659
21
15.530182
31
0
39
0
210
0
220
0
230
1
0
LINE
5
DF
100
AcDbEntity
8
1
62
256
6
ByLayer
370
18
48
1
60
0
100
AcDbLine
10
397.065043
20
32.82235
30
0
11
397.300941
21
32.863926
31
0
39
0
210
0
220
0
230
1
0
LINE
5
E0
100
AcDbEntity
8
1
62
256
6
ByLayer
370
18
48
1
60
0
100
AcDbLine
10
397.300941
20
32.759462
30
0
11
397.082408
21
32.720945
31
0
39
0
210
0
220
0
230
1
0
LINE
5
E1
100
AcDbEntity
8
1
62
256
6
ByLayer
370
18
48
1
60
0
100
AcDbLine
10
392.502256
20
37.000153
30
0
11
392.666647
21
25.638645
31
0
39
0
210
0
220
0
230
1
0
LINE
5
E2
100
AcDbEntity
8
1
62
256
6
ByLayer
370
18
48
1
60
0
100
AcDbLine
10
398.400937
20
-4.067241
30
0
11
398.400937
21
15.530182
31
0
39
0
210
0
220
0
230
1
0
LINE
5
E3
100
AcDbEntity
8
1
62
256
6
ByLayer
370
18
48
1
60
0
100
AcDbLine
10
379.800937
20
19.072122
30
0
11
398.624506
21
19.072122
31
0
39
0
210
0
220
0
230
1
0
LINE
5
E4
100
AcDbEntity
8
1
62
256
6
ByLayer
370
18
48
1
60
0
100
AcDbLine
10
408.750937
20
24.485782
30
0
11
408.750937
21
31.530239
31
0
39
0
210
0
220
0
230
1
0
LINE
5
E5
100
AcDbEntity
8
1
62
256
6
ByLayer
370
18
48
1
60
0
100
AcDbLine
10
379.800937
20
25.638645
30
0
11
379.800937
21
37.000153
31
0
39
0
210
0
220
0
230
1
0
LINE
5
E6
100
AcDbEntity
8
1
62
256
6
ByLayer
370
18
48
1
60
0
100
AcDbLine
10
398.400937
20
15.530182
30
0
11
398.400937
21
16.059333
31
0
39
0
210
0
220
0
230
1
0
LINE
5
E7
100
AcDbEntity
8
1
62
256
6
ByLayer
370
18
48
1
60
0
100
AcDbLine
10
393.03711
20
24.106557
30
0
11
379.800937
21
24.106557
31
0
39
0
210
0
220
0
230
1
0
LINE
5
E8
100
AcDbEntity
8
1
62
256
6
ByLayer
370
18
48
1
60
0
100
AcDbLine
10
395.500937
20
19.968943
30
0
11
398.97017
21
19.968943
31
0
39
0
210
0
220
0
230
1
0
LINE
5
E9
100
AcDbEntity
8
1
62
256
6
ByLayer
370
18
48
1
60
0
100
AcDbLine
10
379.800937
20
16.929729
30
0
11
379.800937
21
18.459287
31
0
39
0
210
0
220
0
230
1
0
LINE
5
EA
100
AcDbEntity
8
1
62
256
6
ByLayer
370
18
48
1
60
0
100
AcDbLine
10
392.502256
20
37.000153
30
0
11
379.800937
21
37.000153
31
0
39
0
210
0
220
0
230
1
0
LINE
5
EB
100
AcDbEntity
8
1
62
256
6
ByLayer
370
18
48
1
60
0
100
AcDbLine
10
398.483116
20
18.459287
30
0
11
379.800937
21
18.459287
31
0
39
0
210
0
220
0
230
1
0
LINE
5
EC
100
AcDbEntity
8
1
62
256
6
ByLayer
370
18
48
1
60
0
100
AcDbLine
10
379.800937
20
19.072122
30
0
11
379.800937
21
24.106557
31
0
39
0
210
0
220
0
230
1
0
LINE
5
ED
100
AcDbEntity
8
1
62
256
6
ByLayer
370
18
48
1
60
0
100
AcDbLine
10
394.655424
20
40.820155
30
0
11
393.331333
21
40.854474
31
0
39
0
210
0
220
0
230
1
0
LINE
5
EE
100
AcDbEntity
8
1
62
256
6
ByLayer
370
18
48
1
60
0
100
AcDbLine
10
397.065043
20
33.061163
30
0
11
397.065043
21
32.82235
31
0
39
0
210
0
220
0
230
1
0
LINE
5
EF
100
AcDbEntity
8
1
62
256
6
ByLayer
370
18
48
1
60
0
100
AcDbLine
10
379.800937
20
40.396162
30
0
11
379.800937
21
37.000153
31
0
39
0
210
0
220
0
230
1
0
LINE
5
F0
100
AcDbEntity
8
1
62
256
6
ByLayer
370
18
48
1
60
0
100
AcDbLine
10
393.03711
20
24.106557
30
0
11
395.500937
21
19.968943
31
0
39
0
210
0
220
0
230
1
0
LINE
5
F1
100
AcDbEntity
8
1
62
256
6
ByLayer
370
18
48
1
60
0
100
AcDbLine
10
379.800937
20
25.638645
30
0
11
392.666647
21
25.638645
31
0
39
0
210
0
220
0
230
1
0
LINE
5
F2
100
AcDbEntity
8
1
62
256
6
ByLayer
370
18
48
1
60
0
100
AcDbLine
10
408.750937
20
24.485782
30
0
11
402.675171
21
22.970923
31
0
39
0
210
0
220
0
230
1
0
LINE
5
F3
100
AcDbEntity
8
1
62
256
6
ByLayer
370
18
48
1
60
0
100
AcDbLine
10
398.400937
20
16.059333
30
0
11
398.400937
21
17.500153
31
0
39
0
210
0
220
0
230
1
0
LINE
5
F4
100
AcDbEntity
8
1
62
256
6
ByLayer
370
18
48
1
60
0
100
AcDbLine
10
395.693842
20
30.865527
30
0
11
395.693842
21
30.626714
31
0
39
0
210
0
220
0
230
1
0
LINE
5
F5
100
AcDbEntity
8
1
62
256
6
ByLayer
370
18
48
1
60
0
100
AcDbLine
10
398.400937
20
16.059333
30
0
11
397.55115
21
16.059333
31
0
39
0
210
0
220
0
230
1
0
LINE
5
F6
100
AcDbEntity
8
1
62
256
6
ByLayer
370
18
48
1
60
0
100
AcDbLine
10
379.800937
20
18.459287
30
0
11
379.800937
21
19.072122
31
0
39
0
210
0
220
0
230
1
0
LINE
5
F7
100
AcDbEntity
8
1
62
256
6
ByLayer
370
18
48
1
60
0
100
AcDbLine
10
397.065043
20
33.061163
30
0
11
397.300934
21
33.102738
31
0
39
0
210
0
220
0
230
1
0
LINE
5
F8
100
AcDbEntity
8
1
62
256
6
ByLayer
370
18
48
1
60
0
100
AcDbLine
10
398.100937
20
12.886511
30
0
11
398.100937
21
-4.067133
31
0
39
0
210
0
220
0
230
1
0
LINE
5
F9
100
AcDbEntity
8
1
62
256
6
ByLayer
370
18
48
1
60
0
100
AcDbLine
10
396.320408
20
-39.824615
30
0
11
396.320408
21
-40.925327
31
0
39
0
210
0
220
0
230
1
0
LINE
5
FA
100
AcDbEntity
8
1
62
256
6
ByLayer
370
18
48
1
60
0
100
AcDbLine
10
397.882746
20
12.905754
30
0
11
398.100937
21
12.886511
31
0
39
0
210
0
220
0
230
1
0
LINE
5
FB
100
AcDbEntity
8
1
62
256
6
ByLayer
370
18
48
1
60
0
100
AcDbLine
10
386.310122
20
-39.291532
30
0
11
387.3444
21
-39.877616
31
0
39
0
210
0
220
0
230
1
0
LINE
5
FC
100
AcDbEntity
8
1
62
256
6
ByLayer
370
18
48
1
60
0
100
AcDbLine
10
385.675196
20
16.500154
30
0
11
397.504979
21
16.500154
31
0
39
0
210
0
220
0
230
1
0
LINE
5
FD
100
AcDbEntity
8
1
62
256
6
ByLayer
370
18
48
1
60
0
100
AcDbLine
10
399.808059
20
-38.939391
30
0
11
399.808059
21
-35.181535
31
0
39
0
210
0
220
0
230
1
0
LINE
5
FE
100
AcDbEntity
8
1
62
256
6
ByLayer
370
18
48
1
60
0
100
AcDbLine
10
406.795684
20
-35.247137
30
0
11
406.556677
21
-38.939391
31
0
39
0
210
0
220
0
230
1
0
LINE
5
FF
100
AcDbEntity
8
1
62
256
6
ByLayer
370
18
48
1
60
0
100
AcDbLine
10
394.655424
20
-39.6239
30
0
11
394.655424
21
-40.834684
31
0
39
0
210
0
220
0
230
1
0
LINE
5
100
100
AcDbEntity
8
1
62
256
6
ByLayer
370
18
48
1
60
0
100
AcDbLine
10
397.504979
20
16.500154
30
0
11
397.977948
21
12.000154
31
0
39
0
210
0
220
0
230
1
0
LINE
5
101
100
AcDbEntity
8
1
62
256
6
ByLayer
370
18
48
1
60
0
100
AcDbLine
10
397.558285
20
-41.029509
30
0
11
397.673424
21
-40.972033
31
0
39
0
210
0
220
0
230
1
0
LINE
5
102
100
AcDbEntity
8
1
62
256
6
ByLayer
370
18
48
1
60
0
100
AcDbLine
10
397.372444
20
-41.110307
30
0
11
396.320408
21
-40.925327
31
0
39
0
210
0
220
0
230
1
0
LINE
5
103
100
AcDbEntity
8
1
62
256
6
ByLayer
370
18
48
1
60
0
100
AcDbLine
10
397.773502
20
-40.569748
30
0
11
397.673424
21
-40.55965
31
0
39
0
210
0
220
0
230
1
0
LINE
5
104
100
AcDbEntity
8
1
62
256
6
ByLayer
370
18
48
1
60
0
100
AcDbLine
10
402.375171
20
-22.970617
30
0
11
402.492405
21
-22.999846
31
0
39
0
210
0
220
0
230
1
0
LINE
5
105
100
AcDbEntity
8
1
62
256
6
ByLayer
370
18
48
1
60
0
100
AcDbLine
10
408.750937
20
-41.87938
30
0
11
408.750937
21
-31.36627
31
0
39
0
210
0
220
0
230
1
0
LINE
5
106
100
AcDbEntity
8
1
62
256
6
ByLayer
370
18
48
1
60
0
100
AcDbLine
10
408.138101
20
-42.392163
30
0
11
408.750937
21
-41.87938
31
0
39
0
210
0
220
0
230
1
0
LINE
5
107
100
AcDbEntity
8
1
62
256
6
ByLayer
370
18
48
1
60
0
100
AcDbLine
10
385.046769
20
12.000154
30
0
11
397.977948
21
12.000154
31
0
39
0
210
0
220
0
230
1
0
LINE
5
108
100
AcDbEntity
8
1
62
256
6
ByLayer
370
18
48
1
60
0
100
AcDbLine
10
397.977948
20
-22.999846
30
0
11
398.098927
21
-22.999846
31
0
39
0
210
0
220
0
230
1
0
LINE
5
109
100
AcDbEntity
8
1
62
256
6
ByLayer
370
18
48
1
60
0
100
AcDbLine
10
385.046804
20
-29.82835
30
0
11
398.152739
21
-29.82835
31
0
39
0
210
0
220
0
230
1
0
LINE
5
10A
100
AcDbEntity
8
1
62
256
6
ByLayer
370
18
48
1
60
0
100
AcDbLine
10
386.343032
20
-40.042165
30
0
11
386.140753
21
-40.025014
31
0
39
0
210
0
220
0
230
1
0
LINE
5
10B
100
AcDbEntity
8
1
62
256
6
ByLayer
370
18
48
1
60
0
100
AcDbLine
10
408.082606
20
-39.920962
30
0
11
407.960001
21
-24.363071
31
0
39
0
210
0
220
0
230
1
0
LINE
5
10C
100
AcDbEntity
8
1
62
256
6
ByLayer
370
18
48
1
60
0
100
AcDbLine
10
397.773502
20
-40.569748
30
0
11
408.138101
21
-42.392163
31
0
39
0
210
0
220
0
230
1
0
LINE
5
10D
100
AcDbEntity
8
1
62
256
6
ByLayer
370
18
48
1
60
0
100
AcDbLine
10
394.655424
20
-40.834684
30
0
11
392.292878
21
-41.115606
31
0
39
0
210
0
220
0
230
1
0
LINE
5
10E
100
AcDbEntity
8
1
62
256
6
ByLayer
370
18
48
1
60
0
100
AcDbLine
10
408.138101
20
-42.329678
30
0
11
408.138101
21
-42.392163
31
0
39
0
210
0
220
0
230
1
0
LINE
5
10F
100
AcDbEntity
8
1
62
256
6
ByLayer
370
18
48
1
60
0
100
AcDbLine
10
408.750937
20
-24.560274
30
0
11
407.960001
21
-24.363071
31
0
39
0
210
0
220
0
230
1
0
LINE
5
110
100
AcDbEntity
8
1
62
256
6
ByLayer
370
18
48
1
60
0
100
AcDbLine
10
399.808059
20
-38.939391
30
0
11
406.556677
21
-38.939391
31
0
39
0
210
0
220
0
230
1
0
LINE
5
111
100
AcDbEntity
8
1
62
256
6
ByLayer
370
18
48
1
60
0
100
AcDbLine
10
387.484555
20
-39.956073
30
0
11
387.643925
21
-39.975198
31
0
39
0
210
0
220
0
230
1
0
LINE
5
112
100
AcDbEntity
8
1
62
256
6
ByLayer
370
18
48
1
60
0
100
AcDbLine
10
398.152739
20
-29.82835
30
0
11
398.098927
21
-22.999846
31
0
39
0
210
0
220
0
230
1
0
LINE
5
113
100
AcDbEntity
8
1
62
256
6
ByLayer
370
18
48
1
60
0
100
AcDbLine
10
408.750937
20
-41.87938
30
0
11
408.534995
21
-41.906019
31
0
39
0
210
0
220
0
230
1
0
LINE
5
114
100
AcDbEntity
8
1
62
256
6
ByLayer
370
18
48
1
60
0
100
AcDbLine
10
398.098927
20
-22.999846
30
0
11
402.492405
21
-22.999846
31
0
39
0
210
0
220
0
230
1
0
LINE
5
115
100
AcDbEntity
8
1
62
256
6
ByLayer
370
18
48
1
60
0
100
AcDbLine
10
397.977948
20
12.000154
30
0
11
397.977948
21
-22.999846
31
0
39
0
210
0
220
0
230
1
0
LINE
5
116
100
AcDbEntity
8
1
62
256
6
ByLayer
370
18
48
1
60
0
100
AcDbLine
10
397.673424
20
-40.55965
30
0
11
397.673424
21
-40.972033
31
0
39
0
210
0
220
0
230
1
0
LINE
5
117
100
AcDbEntity
8
1
62
256
6
ByLayer
370
18
48
1
60
0
100
AcDbLine
10
402.492405
20
-22.999846
30
0
11
407.960001
21
-24.363071
31
0
39
0
210
0
220
0
230
1
0
LINE
5
118
100
AcDbEntity
8
1
62
256
6
ByLayer
370
18
48
1
60
0
100
AcDbLine
10
408.750937
20
-24.560274
30
0
11
408.750937
21
-31.36627
31
0
39
0
210
0
220
0
230
1
0
LINE
5
119
100
AcDbEntity
8
1
62
256
6
ByLayer
370
18
48
1
60
0
100
AcDbLine
10
385.04663
20
12.664524
30
0
11
385.04663
21
-31.696198
31
0
39
0
210
0
220
0
230
1
0
LINE
5
11A
100
AcDbEntity
8
1
62
256
6
ByLayer
370
18
48
1
60
0
100
AcDbLine
10
374.386703
20
0.533898
30
0
11
374.338319
21
0.533898
31
0
39
0
210
0
220
0
230
1
0
LINE
5
11B
100
AcDbEntity
8
1
62
256
6
ByLayer
370
18
48
1
60
0
100
AcDbLine
10
379
20
40
30
0
11
379.801019
21
40
31
0
39
0
210
0
220
0
230
1
0
LINE
5
11C
100
AcDbEntity
8
1
62
256
6
ByLayer
370
18
48
1
60
0
100
AcDbLine
10
376.797922
20
-1.552365
30
0
11
376.749537
21
-1.552365
31
0
39
0
210
0
220
0
230
1
0
LINE
5
11D
100
AcDbEntity
8
1
62
256
6
ByLayer
370
18
48
1
60
0
100
AcDbLine
10
385.640835
20
16.623639
30
0
11
387.626477
21
16.519576
31
0
39
0
210
0
220
0
230
1
0
LINE
5
11E
100
AcDbEntity
8
SK1
62
256
6
ByLayer
370
18
48
1
60
0
100
AcDbLine
10
-0.2
20
6.576573
30
0
11
-0.2
21
28.683485
31
0
39
0
210
0
220
0
230
1
0
LINE
5
120
100
AcDbEntity
8
1
62
256
6
ByLayer
370
18
48
1
60
0
100
AcDbLine
10
387.421641
20
-40
30
0
11
387.626477
21
-40
31
0
39
0
210
0
220
0
230
1
0
LINE
5
121
100
AcDbEntity
8
1
62
256
6
ByLayer
370
18
48
1
60
0
100
AcDbLine
10
374.574358
20
-1.46027
30
0
11
374.525974
21
-1.46027
31
0
39
0
210
0
220
0
230
1
0
LINE
5
122
100
AcDbEntity
8
1
62
256
6
ByLayer
370
18
48
1
60
0
100
AcDbLine
10
377.074936
20
0.533898
30
0
11
377.026552
21
0.533898
31
0
39
0
210
0
220
0
230
1
0
LINE
5
123
100
AcDbEntity
8
1
62
256
6
ByLayer
370
18
48
1
60
0
100
AcDbLine
10
385.640835
20
16.623639
30
0
11
385.04663
21
12.664524
31
0
39
0
210
0
220
0
230
1
0
LINE
5
124
100
AcDbEntity
8
SK1
62
256
6
ByLayer
370
18
48
1
60
0
100
AcDbLine
10
-0.2
20
-28.683485
30
0
11
-0.2
21
-6.576573
31
0
39
0
210
0
220
0
230
1
0
LINE
5
125
100
AcDbEntity
8
1
62
256
6
ByLayer
370
18
48
1
60
0
100
AcDbLine
10
379
20
39
30
0
11
379
21
16.97167
31
0
39
0
210
0
220
0
230
1
0
LINE
5
126
100
AcDbEntity
8
1
62
256
6
ByLayer
370
18
48
1
60
0
100
AcDbLine
10
374.415001
20
-1.094345
30
0
11
374.366616
21
-1.094345
31
0
39
0
210
0
220
0
230
1
0
LINE
5
127
100
AcDbEntity
8
1
62
256
6
ByLayer
370
18
48
1
60
0
100
AcDbLine
10
379
20
39
30
0
11
379
21
40
31
0
39
0
210
0
220
0
230
1
0
LINE
5
128
100
AcDbEntity
8
SK1
62
256
6
ByLayer
370
18
48
1
60
0
100
AcDbLine
10
-1.307107
20
-4.393239
30
0
11
-1.307107
21
4.393239
31
0
39
0
210
0
220
0
230
1
0
LINE
5
129
100
AcDbEntity
8
1
62
256
6
ByLayer
370
18
48
1
60
0
100
AcDbLine
10
387.626477
20
16.519576
30
0
11
387.626477
21
16.500147
31
0
39
0
210
0
220
0
230
1
0
LINE
5
12A
100
AcDbEntity
8
1
62
256
6
ByLayer
370
18
48
1
60
0
100
AcDbLine
10
387.626477
20
-39.972623
30
0
11
387.626477
21
-40
31
0
39
0
210
0
220
0
230
1
0
LINE
5
12B
100
AcDbEntity
8
1
62
256
6
ByLayer
370
18
48
1
60
0
100
AcDbLine
10
0.3
20
40
30
0
11
0
21
39.7
31
0
39
0
210
0
220
0
230
1
0
LINE
5
12C
100
AcDbEntity
8
1
62
256
6
ByLayer
370
18
48
1
60
0
100
AcDbLine
10
372.685365
20
40
30
0
11
371
21
40
31
0
39
0
210
0
220
0
230
1
0
LINE
5
12D
100
AcDbEntity
8
1
62
256
6
ByLayer
370
18
48
1
60
0
100
AcDbLine
10
371
20
-40
30
0
11
372.685365
21
-40
31
0
39
0
210
0
220
0
230
1
0
LINE
5
12E
100
AcDbEntity
8
1
62
256
6
ByLayer
370
18
48
1
60
0
100
AcDbLine
10
379.000212
20
39.5
30
0
11
374
21
39.5
31
0
39
0
210
0
220
0
230
1
0
LINE
5
12F
100
AcDbEntity
8
1
62
256
6
ByLayer
370
18
48
1
60
0
100
AcDbLine
10
371.5
20
39.417762
30
0
11
379.000212
21
39.417762
31
0
39
0
210
0
220
0
230
1
0
LINE
5
130
100
AcDbEntity
8
1
62
256
6
ByLayer
370
18
48
1
60
0
100
AcDbLine
10
387.130174
20
-39.381537
30
0
11
379.000212
21
-39.381537
31
0
39
0
210
0
220
0
230
1
0
LINE
5
131
100
AcDbEntity
8
1
62
256
6
ByLayer
370
18
48
1
60
0
100
AcDbLine
10
374
20
-39.5
30
0
11
379.000212
21
-39.5
31
0
39
0
210
0
220
0
230
1
0
LINE
5
132
100
AcDbEntity
8
1
62
256
6
ByLayer
370
18
48
1
60
0
100
AcDbLine
10
385.04663
20
6.968488
30
0
11
373.270765
21
10.352762
31
0
39
0
210
0
220
0
230
1
0
LINE
5
133
100
AcDbEntity
8
1
62
256
6
ByLayer
370
18
48
1
60
0
100
AcDbLine
10
385.04663
20
6.968488
30
0
11
385.04663
21
-30.391593
31
0
39
0
210
0
220
0
230
1
0
LINE
5
134
100
AcDbEntity
8
1
62
256
6
ByLayer
370
18
48
1
60
0
100
AcDbLine
10
386.02459
20
17
30
0
11
379.5
21
17
31
0
39
0
210
0
220
0
230
1
0
LINE
5
135
100
AcDbEntity
8
1
62
256
6
ByLayer
370
18
48
1
60
0
100
AcDbLine
10
386.02459
20
17
30
0
11
385.04663
21
6.968488
31
0
39
0
210
0
220
0
230
1
0
LINE
5
136
100
AcDbEntity
8
1
62
256
6
ByLayer
370
18
48
1
60
0
100
AcDbLine
10
379.000212
20
17.015627
30
0
11
379.000212
21
39.417762
31
0
39
0
210
0
220
0
230
1
0
LINE
5
137
100
AcDbEntity
8
1
62
256
6
ByLayer
370
18
48
1
60
0
100
AcDbLine
10
371.906551
20
-37.651026
30
0
11
372.157959
21
-37.617827
31
0
39
0
210
0
220
0
230
1
0
LINE
5
138
100
AcDbEntity
8
1
62
256
6
ByLayer
370
18
48
1
60
0
100
AcDbLine
10
372.135286
20
-38.202623
30
0
11
372.336411
21
-38.048168
31
0
39
0
210
0
220
0
230
1
0
LINE
5
139
100
AcDbEntity
8
1
62
256
6
ByLayer
370
18
48
1
60
0
100
AcDbLine
10
371.906551
20
-37.651026
30
0
11
371.819091
21
-37.662576
31
0
39
0
210
0
220
0
230
1
0
LINE
5
13A
100
AcDbEntity
8
1
62
256
6
ByLayer
370
18
48
1
60
0
100
AcDbLine
10
372.066439
20
-38.255495
30
0
11
372.135286
21
-38.202623
31
0
39
0
210
0
220
0
230
1
0
LINE
5
13B
100
AcDbEntity
8
1
62
256
6
ByLayer
370
18
48
1
60
0
100
AcDbLine
10
0
20
-39.7
30
0
11
0.3
21
-40
31
0
39
0
210
0
220
0
230
1
0
LINE
5
13C
100
AcDbEntity
8
1
62
256
6
ByLayer
370
18
48
1
60
0
100
AcDbLine
10
0.3
20
-40
30
0
11
370.7
21
-40
31
0
39
0
210
0
220
0
230
1
0
LINE
5
13D
100
AcDbEntity
8
1
62
256
6
ByLayer
370
18
48
1
60
0
100
AcDbLine
10
370.7
20
40
30
0
11
0.3
21
40
31
0
39
0
210
0
220
0
230
1
0
LINE
5
13E
100
AcDbEntity
8
1
62
256
6
ByLayer
370
18
48
1
60
0
100
AcDbLine
10
13.461325
20
12.13309
30
0
11
10.538675
21
12.13309
31
0
39
0
210
0
220
0
230
1
0
LINE
5
13F
100
AcDbEntity
8
1
62
256
6
ByLayer
370
18
48
1
60
0
100
AcDbLine
10
10.538675
20
38.115458
30
0
11
13.461325
21
38.115458
31
0
39
0
210
0
220
0
230
1
0
LINE
5
140
100
AcDbEntity
8
1
62
256
6
ByLayer
370
18
48
1
60
0
100
AcDbLine
10
13.461325
20
-38.115458
30
0
11
10.538675
21
-38.115458
31
0
39
0
210
0
220
0
230
1
0
LINE
5
141
100
AcDbEntity
8
1
62
256
6
ByLayer
370
18
48
1
60
0
100
AcDbLine
10
10.538675
20
-12.13309
30
0
11
13.461325
21
-12.13309
31
0
39
0
210
0
220
0
230
1
0
LINE
5
142
100
AcDbEntity
8
1
62
256
6
ByLayer
370
18
48
1
60
0
100
AcDbLine
10
13.894338
20
12.6576
30
0
11
13.894338
21
37.944501
31
0
39
0
210
0
220
0
230
1
0
LINE
5
143
100
AcDbEntity
8
1
62
256
6
ByLayer
370
18
48
1
60
0
100
AcDbLine
10
13.461325
20
12.13309
30
0
11
13.461325
21
38.115458
31
0
39
0
210
0
220
0
230
1
0
LINE
5
144
100
AcDbEntity
8
1
62
256
6
ByLayer
370
18
48
1
60
0
100
AcDbLine
10
10.538675
20
-38.115458
30
0
11
10.538675
21
-12.13309
31
0
39
0
210
0
220
0
230
1
0
LINE
5
145
100
AcDbEntity
8
1
62
256
6
ByLayer
370
18
48
1
60
0
100
AcDbLine
10
10.105662
20
-37.944501
30
0
11
10.105662
21
-12.6576
31
0
39
0
210
0
220
0
230
1
0
LINE
5
146
100
AcDbEntity
8
1
62
256
6
ByLayer
370
18
48
1
60
0
100
AcDbLine
10
13.894338
20
-37.944501
30
0
11
13.894338
21
-12.6576
31
0
39
0
210
0
220
0
230
1
0
LINE
5
147
100
AcDbEntity
8
1
62
256
6
ByLayer
370
18
48
1
60
0
100
AcDbLine
10
13.461325
20
-38.115458
30
0
11
13.461325
21
-12.13309
31
0
39
0
210
0
220
0
230
1
0
LINE
5
148
100
AcDbEntity
8
1
62
256
6
ByLayer
370
18
48
1
60
0
100
AcDbLine
10
10.538675
20
12.13309
30
0
11
10.538675
21
38.115458
31
0
39
0
210
0
220
0
230
1
0
LINE
5
149
100
AcDbEntity
8
1
62
256
6
ByLayer
370
18
48
1
60
0
100
AcDbLine
10
10.105662
20
12.6576
30
0
11
10.105662
21
37.944501
31
0
39
0
210
0
220
0
230
1
0
LINE
5
14A
100
AcDbEntity
8
1
62
256
6
ByLayer
370
18
48
1
60
0
100
AcDbLine
10
374.164495
20
37.201429
30
0
11
374.499101
21
37.111771
31
0
39
0
210
0
220
0
230
1
0
LINE
5
14B
100
AcDbEntity
8
1
62
256
6
ByLayer
370
18
48
1
60
0
100
AcDbLine
10
374.499101
20
37.888229
30
0
11
374.164495
21
37.798571
31
0
39
0
210
0
220
0
230
1
0
LINE
5
14C
100
AcDbEntity
8
1
62
256
6
ByLayer
370
18
48
1
60
0
100
AcDbLine
10
373.919546
20
37.267063
30
0
11
374.164495
21
37.201429
31
0
39
0
210
0
220
0
230
1
0
LINE
5
14D
100
AcDbEntity
8
1
62
256
6
ByLayer
370
18
48
1
60
0
100
AcDbLine
10
373.919546
20
37.732937
30
0
11
374.164495
21
37.798571
31
0
39
0
210
0
220
0
230
1
0
LINE
5
14E
100
AcDbEntity
8
1
62
256
6
ByLayer
370
18
48
1
60
0
100
AcDbLine
10
371
20
40
30
0
11
371
21
-40
31
0
39
0
210
0
220
0
230
1
0
LINE
5
14F
100
AcDbEntity
8
1
62
256
6
ByLayer
370
18
48
1
60
0
100
AcDbLine
10
379.000212
20
39.5
30
0
11
379.000212
21
39.417762
31
0
39
0
210
0
220
0
230
1
0
LINE
5
150
100
AcDbEntity
8
1
62
256
6
ByLayer
370
18
48
1
60
0
100
AcDbLine
10
371.5
20
25
30
0
11
371.5
21
39.417762
31
0
39
0
210
0
220
0
230
1
0
LINE
5
151
100
AcDbEntity
8
1
62
256
6
ByLayer
370
18
48
1
60
0
100
AcDbLine
10
379.000212
20
-39.381537
30
0
11
379.000212
21
-39.5
31
0
39
0
210
0
220
0
230
1
0
LINE
5
152
100
AcDbEntity
8
1
62
256
6
ByLayer
370
18
48
1
60
0
100
AcDbLine
10
0
20
-39.7
30
0
11
0
21
0
31
0
39
0
210
0
220
0
230
1
0
LINE
5
153
100
AcDbEntity
8
1
62
256
6
ByLayer
370
18
48
1
60
0
100
AcDbLine
10
0.3
20
-40
30
0
11
0.3
21
0
31
0
39
0
210
0
220
0
230
1
0
LINE
5
154
100
AcDbEntity
8
1
62
256
6
ByLayer
370
18
48
1
60
0
100
AcDbLine
10
0
20
0
30
0
11
0
21
39.7
31
0
39
0
210
0
220
0
230
1
0
LINE
5
155
100
AcDbEntity
8
1
62
256
6
ByLayer
370
18
48
1
60
0
100
AcDbLine
10
0.3
20
0
30
0
11
0.3
21
40
31
0
39
0
210
0
220
0
230
1
0
LINE
5
156
100
AcDbEntity
8
1
62
256
6
ByLayer
370
18
48
1
60
0
100
AcDbLine
10
370.7
20
-40
30
0
11
370.7
21
0
31
0
39
0
210
0
220
0
230
1
0
LINE
5
157
100
AcDbEntity
8
1
62
256
6
ByLayer
370
18
48
1
60
0
100
AcDbLine
10
370.7
20
0
30
0
11
370.7
21
40
31
0
39
0
210
0
220
0
230
1
0
LINE
5
158
100
AcDbEntity
8
1
62
256
6
ByLayer
370
18
48
1
60
0
100
AcDbLine
10
379.500937
20
-39.381537
30
0
11
379.500937
21
-40.706485
31
0
39
0
210
0
220
0
230
1
0
LINE
5
159
100
AcDbEntity
8
1
62
256
6
ByLayer
370
18
48
1
60
0
100
AcDbLine
10
386.140753
20
-40.025014
30
0
11
386.140753
21
-39.381537
31
0
39
0
210
0
220
0
230
1
0
LINE
5
15A
100
AcDbEntity
8
1
62
256
6
ByLayer
370
18
48
1
60
0
100
AcDbLine
10
386.343032
20
-40.042165
30
0
11
386.343032
21
-39.381537
31
0
39
0
210
0
220
0
230
1
0
MTEXT
5
245
100
AcDbEntity
8
SK6
62
256
6
ByLayer
370
18
48
1
60
0
100
AcDbMText
10
416.787765
20
47.43736
30
0
210
0
220
0
230
1
1
\W0.7064;BR20D-116CC12F-C8S
40
3
41
0
44
1.084337
50
0
71
7
72
5
7
iso_b_vert
0
DIMENSION
5
253
100
AcDbEntity
8
2
62
256
6
ByLayer
370
13
48
1
60
0
100
AcDbDimension
2
DimnDraft3D1
10
410.000937
20
56.134329
30
0
11
200.674153
21
56.134329
31
0
70
32
71
5
72
1
41
1
210
0
220
0
230
1
3
Standard
100
AcDbAlignedDimension
13
0
23
41.7
33
0
14
410.000937
24
46.488699
34
0
50
0
100
AcDbRotatedDimension
1001
ACAD
1000
DSTYLE
1002
{
1070
   279
1070
     0
1070
   172
1070
     1
1070
   173
1070
     1
1070
   340
1005
246
1070
   271
1070
     1
1070
    77
1070
     1
1070
    73
1070
     0
1070
   171
1070
     4
1070
   274
1070
     4
1070
   177
1070
     7
1070
   176
1070
     7
1070
   178
1070
     7
1070
    41
1041
3.175
1070
   147
1041
1.5
1070
    42
1041
2.0
1070
    44
1041
2.0
1070
   140
1041
3.0
1070
   343
1005
0
1070
   344
1005
0
1002
}
0
DIMENSION
5
25D
100
AcDbEntity
8
2
62
256
6
ByLayer
370
13
48
1
60
0
100
AcDbDimension
2
DimnDraft3D2
10
449.191209
20
-44.488392
30
0
11
449.191209
21
-12.070899
31
0
70
32
71
5
72
1
41
1
210
0
220
0
230
1
3
Standard
100
AcDbAlignedDimension
13
412.000937
23
44.488699
33
0
14
411.207187
24
-44.488392
34
0
50
90
100
AcDbRotatedDimension
1001
ACAD
1000
DSTYLE
1002
{
1070
    74
1070
     0
1070
   279
1070
     0
1070
   172
1070
     1
1070
   173
1070
     1
1070
   340
1005
246
1070
   271
1070
     1
1070
    77
1070
     1
1070
    73
1070
     0
1070
   171
1070
     4
1070
   274
1070
     4
1070
   177
1070
     7
1070
   176
1070
     7
1070
   178
1070
     7
1070
    41
1041
3.175
1070
   147
1041
1.5
1070
    42
1041
2.0
1070
    44
1041
2.0
1070
   140
1041
3.0
1070
   343
1005
0
1070
   344
1005
0
1002
}
0
DIMENSION
5
267
100
AcDbEntity
8
2
62
256
6
ByLayer
370
13
48
1
60
0
100
AcDbDimension
2
DimnDraft3D3
10
411.000937
20
44.488699
30
0
11
423.938307
21
30.551329
31
0
70
34
71
5
72
1
41
1
210
0
220
0
230
1
3
Standard
100
AcDb2LineAngularDimension
13
410.000937
23
32.416336
33
0
14
410.000937
24
43.695298
34
0
15
410.000937
25
44.488699
35
0
16
426.059627
26
28.430009
36
0
40
0
0
DIMENSION
5
273
100
AcDbEntity
8
SK2
62
256
6
ByLayer
370
13
48
1
60
0
100
AcDbDimension
2
DimnDraft3D4
10
-65.651502
20
-40
30
0
11
-65.151502
21
0.414474
31
0
70
33
71
5
72
1
41
1
210
0
220
0
230
1
3
Standard
100
AcDbAlignedDimension
13
-1.7
23
40
33
0
14
-1.7
24
-40
34
0
1001
ACAD
1000
DSTYLE
1002
{
1070
   279
1070
     0
1070
    74
1070
     0
1070
   173
1070
     1
1070
   340
1005
246
1070
   271
1070
     0
1070
    77
1070
     1
1070
    73
1070
     0
1070
   171
1070
     4
1070
   274
1070
     4
1070
   177
1070
     7
1070
   176
1070
     7
1070
   178
1070
     7
1070
    41
1041
3.175
1070
   147
1041
1.5
1070
    42
1041
2.0
1070
    44
1041
2.0
1070
   140
1041
3.0
1070
   343
1005
0
1070
   344
1005
0
1002
}
0
ENDSEC
0
SECTION
2
OBJECTS
0
DICTIONARY
5
2eb
330
0
100
AcDbDictionary
280
0
281
1
3
ACAD_GROUP
350
2ec
3
ACAD_GROUP
350
2ed
3
ACAD_MLINESTYLE
350
2ee
0
DICTIONARY
5
2ec
330
0
100
AcDbDictionary
280
0
281
1
0
DICTIONARY
5
2ed
330
0
100
AcDbDictionary
280
0
281
1
3
<200939244NDI000_00>
350
27E
3
<200939244NDI000_00>4
350
27F
3
<200939429NDI000_00>
350
280
3
<200939429NDI000_00>6
350
281
3
<200940349NDI000_00>
350
282
3
<200940349NDI000_00>8
350
283
3
<200940960NDI000_00>
350
284
3
<200940960NDI000_00>10
350
285
3
<201106040MOD000_00>
350
27C
3
391_68A_1_03213C06B_A1
350
27D
3
DIT-000-00-C8_BR20D_G_388_A1
350
287
3
Group11
350
286
0
DICTIONARY
5
2ee
330
0
100
AcDbDictionary
280
0
281
1
3
Standard
350
18
0
GROUP
5
27E
330
2ed
100
AcDbGroup
300

70
0
71
1
340
76
340
78
340
79
340
7A
0
GROUP
5
27F
330
2ed
100
AcDbGroup
300

70
0
71
1
340
7B
340
7C
340
7D
340
7E
0
GROUP
5
280
330
2ed
100
AcDbGroup
300

70
0
71
1
340
7F
340
80
340
81
340
82
0
GROUP
5
281
330
2ed
100
AcDbGroup
300

70
0
71
1
340
83
340
84
340
85
340
86
0
GROUP
5
282
330
2ed
100
AcDbGroup
300

70
0
71
1
340
87
340
88
340
89
340
8A
0
GROUP
5
283
330
2ed
100
AcDbGroup
300

70
0
71
1
340
8B
340
8C
340
8D
340
8E
0
GROUP
5
284
330
2ed
100
AcDbGroup
300

70
0
71
1
340
8F
340
90
340
91
340
92
0
GROUP
5
285
330
2ed
100
AcDbGroup
300

70
0
71
1
340
93
340
94
340
95
340
96
340
97
340
98
340
99
340
9A
340
9B
340
9C
340
9D
340
9E
340
9F
340
A0
340
A1
340
A2
340
A3
340
A4
340
A5
340
A6
340
A7
340
A8
340
A9
340
AA
340
AB
340
AC
340
AD
340
AE
340
AF
340
B0
340
B1
340
B2
340
B3
340
B4
340
B5
340
B6
340
B7
340
B8
340
B9
340
BA
340
BB
340
BC
340
BD
340
BE
340
BF
340
C0
340
C1
340
C2
340
C3
340
C4
340
C5
340
C6
340
C7
340
C8
340
C9
340
CA
340
CB
340
CC
340
CD
340
CE
340
CF
340
D0
340
D1
340
D2
340
D3
340
D4
340
D5
340
D6
340
D7
340
D8
340
D9
340
DA
340
DB
340
DC
340
DD
340
DE
340
DF
340
E0
340
E1
340
E2
340
E3
340
E4
340
E5
340
E6
340
E7
340
E8
340
E9
340
EA
340
EB
340
EC
340
ED
340
EE
340
EF
340
F0
340
F1
340
F2
340
F3
340
F4
340
F5
340
F6
340
F7
340
F8
340
F9
340
FA
340
FB
340
FC
340
159
340
FD
340
FE
340
158
340
FF
340
100
340
101
340
102
340
103
340
104
340
15A
340
105
340
106
340
107
340
108
340
109
340
10A
340
10B
340
10C
340
10D
340
10E
340
10F
340
110
340
111
340
112
340
113
340
114
340
115
340
116
340
117
340
118
340
119
340
11A
340
11B
340
11C
340
11D
340
11E
340
120
340
121
340
122
340
123
340
124
340
125
340
126
340
127
340
128
340
129
340
12A
340
15B
340
15C
340
15D
340
15E
340
168
340
169
340
16A
340
16B
340
16C
340
16D
340
16E
340
16F
340
170
340
171
340
172
340
173
340
174
340
175
340
176
340
177
340
178
340
179
340
17A
340
17B
340
17C
340
17D
340
17E
340
17F
340
180
340
181
340
182
340
183
340
184
340
185
340
186
340
187
340
188
340
189
340
18A
340
18B
340
18C
340
18D
340
18E
340
18F
340
190
340
191
340
192
340
193
340
194
340
195
340
196
340
197
340
198
340
199
340
19A
340
19B
340
19C
340
19D
340
19E
340
19F
340
1A0
340
1A1
340
1A2
340
1A3
340
1A4
340
1A5
340
1A6
340
1A7
340
1A8
340
1A9
340
1AA
340
1AB
340
1AC
340
1AD
340
1AE
340
1AF
340
1B0
340
1B1
340
1B2
340
1B3
340
1B4
340
1B5
340
1B6
340
1B7
340
1B8
340
1B9
340
1BA
340
1BB
340
1BC
340
1BD
340
1BE
340
1BF
340
1C0
340
1C1
340
1C2
340
1C3
340
1C4
340
1C5
340
1C6
340
1C7
340
1C8
340
1C9
340
1CA
340
1CB
340
1CC
340
1D7
340
1D8
340
1D9
340
1DA
340
1DB
340
1DC
340
1DD
340
1DE
340
1DF
340
1E0
340
1E1
340
1E2
340
1E3
340
1E4
340
1E5
340
1E6
340
1E7
340
1E8
340
1E9
340
1EA
340
1EB
340
1EC
340
1ED
340
1EE
340
1EF
340
1F0
340
1F1
340
1F2
340
1F3
340
1F4
340
1F5
340
1F6
340
1F7
340
1F8
340
1F9
340
1FA
340
1FB
340
1FC
340
1FD
340
1FE
340
1FF
340
200
340
201
340
202
340
203
340
204
340
205
340
206
340
207
340
208
340
209
340
20A
340
20B
340
20C
340
20D
340
20E
340
20F
340
210
340
211
340
212
340
213
340
214
340
215
340
216
340
217
340
218
340
219
340
21A
340
21B
340
21C
340
21D
340
21E
340
21F
340
220
340
221
340
222
340
223
340
224
340
225
340
226
340
227
340
228
340
229
340
22A
340
22B
340
22C
340
22D
340
22E
340
22F
340
230
340
231
340
232
340
233
340
234
340
235
340
236
340
237
340
238
0
GROUP
5
27C
330
2ed
100
AcDbGroup
300

70
0
71
1
340
6C
340
6E
340
70
340
72
340
73
340
75
340
76
340
78
340
79
340
7A
340
7B
340
7C
340
7D
340
7E
340
7F
340
80
340
81
340
82
340
83
340
84
340
85
340
86
340
87
340
88
340
89
340
8A
340
8B
340
8C
340
8D
340
8E
340
8F
340
90
340
91
340
92
340
93
340
94
340
95
340
96
340
97
340
98
340
99
340
9A
340
9B
340
9C
340
9D
340
9E
340
9F
340
A0
340
A1
340
A2
340
A3
340
A4
340
A5
340
A6
340
A7
340
A8
340
A9
340
AA
340
AB
340
AC
340
AD
340
AE
340
AF
340
B0
340
B1
340
B2
340
B3
340
B4
340
B5
340
B6
340
B7
340
B8
340
B9
340
BA
340
BB
340
BC
340
BD
340
BE
340
BF
340
C0
340
C1
340
C2
340
C3
340
C4
340
C5
340
C6
340
C7
340
C8
340
C9
340
CA
340
CB
340
CC
340
CD
340
CE
340
CF
340
D0
340
D1
340
D2
340
D3
340
D4
340
D5
340
D6
340
D7
340
D8
340
D9
340
DA
340
DB
340
DC
340
DD
340
DE
340
DF
340
E0
340
E1
340
E2
340
E3
340
E4
340
E5
340
E6
340
E7
340
E8
340
E9
340
EA
340
EB
340
EC
340
ED
340
EE
340
EF
340
F0
340
F1
340
F2
340
F3
340
F4
340
F5
340
F6
340
F7
340
F8
340
F9
340
FA
340
FB
340
FC
340
FD
340
FE
340
FF
340
100
340
101
340
102
340
103
340
104
340
105
340
106
340
107
340
108
340
109
340
10A
340
10B
340
10C
340
10D
340
10E
340
10F
340
110
340
111
340
112
340
113
340
114
340
115
340
116
340
117
340
118
340
119
340
11A
340
11B
340
11C
340
11D
340
11E
340
120
340
121
340
122
340
123
340
124
340
125
340
126
340
127
340
128
340
129
340
12A
340
12B
340
12C
340
12D
340
12E
340
12F
340
130
340
131
340
132
340
133
340
134
340
135
340
136
340
137
340
138
340
139
340
13A
340
13B
340
13C
340
13D
340
13E
340
13F
340
140
340
141
340
142
340
143
340
144
340
145
340
146
340
147
340
148
340
149
340
14A
340
14B
340
14C
340
14D
340
14E
340
14F
340
150
340
151
340
152
340
153
340
154
340
155
340
156
340
157
340
158
340
159
340
15A
340
15B
340
15C
340
15D
340
15E
340
15F
340
160
340
161
340
162
340
163
340
164
340
165
340
166
340
167
340
168
340
169
340
16A
340
16B
340
16C
340
16D
340
16E
340
16F
340
170
340
171
340
172
340
173
340
174
340
175
340
176
340
177
340
178
340
179
340
17A
340
17B
340
17C
340
17D
340
17E
340
17F
340
180
340
181
340
182
340
183
340
184
340
185
340
186
340
187
340
188
340
189
340
18A
340
18B
340
18C
340
18D
340
18E
340
18F
340
190
340
191
340
192
340
193
340
194
340
195
340
196
340
197
340
198
340
199
340
19A
340
19B
340
19C
340
19D
340
19E
340
19F
340
1A0
340
1A1
340
1A2
340
1A3
340
1A4
340
1A5
340
1A6
340
1A7
340
1A8
340
1A9
340
1AA
340
1AB
340
1AC
340
1AD
340
1AE
340
1AF
340
1B0
340
1B1
340
1B2
340
1B3
340
1B4
340
1B5
340
1B6
340
1B7
340
1B8
340
1B9
340
1BA
340
1BB
340
1BC
340
1BD
340
1BE
340
1BF
340
1C0
340
1C1
340
1C2
340
1C3
340
1C4
340
1C5
340
1C6
340
1C7
340
1C8
340
1C9
340
1CA
340
1CB
340
1CC
340
1CD
340
1CE
340
1CF
340
1D0
340
1D1
340
1D2
340
1D3
340
1D4
340
1D5
340
1D6
340
1D7
340
1D8
340
1D9
340
1DA
340
1DB
340
1DC
340
1DD
340
1DE
340
1DF
340
1E0
340
1E1
340
1E2
340
1E3
340
1E4
340
1E5
340
1E6
340
1E7
340
1E8
340
1E9
340
1EA
340
1EB
340
1EC
340
1ED
340
1EE
340
1EF
340
1F0
340
1F1
340
1F2
340
1F3
340
1F4
340
1F5
340
1F6
340
1F7
340
1F8
340
1F9
340
1FA
340
1FB
340
1FC
340
1FD
340
1FE
340
1FF
340
200
340
201
340
202
340
203
340
204
340
205
340
206
340
207
340
208
340
209
340
20A
340
20B
340
20C
340
20D
340
20E
340
20F
340
210
340
211
340
212
340
213
340
214
340
215
340
216
340
217
340
218
340
219
340
21A
340
21B
340
21C
340
21D
340
21E
340
21F
340
220
340
221
340
222
340
223
340
224
340
225
340
226
340
227
340
228
340
229
340
22A
340
22B
340
22C
340
22D
340
22E
340
22F
340
230
340
231
340
232
340
233
340
234
340
235
340
236
340
237
340
238
340
239
340
23A
340
23B
340
23C
340
23D
340
23E
340
23F
340
240
340
241
340
242
340
243
340
244
340
75
340
245
340
25D
340
267
340
76
340
78
340
79
340
7A
340
7B
340
7C
340
7D
340
7E
340
7F
340
80
340
81
340
82
340
83
340
84
340
85
340
86
340
87
340
88
340
89
340
8A
340
8B
340
8C
340
8D
340
8E
340
8F
340
90
340
91
340
92
340
93
340
94
340
95
340
96
340
97
340
98
340
99
340
9A
340
9B
340
9C
340
9D
340
9E
340
9F
340
A0
340
A1
340
A2
340
A3
340
A4
340
A5
340
A6
340
A7
340
A8
340
A9
340
AA
340
AB
340
AC
340
AD
340
AE
340
AF
340
B0
340
B1
340
B2
340
B3
340
B4
340
B5
340
B6
340
B7
340
B8
340
B9
340
BA
340
BB
340
BC
340
BD
340
BE
340
BF
340
C0
340
C1
340
C2
340
C3
340
C4
340
C5
340
C6
340
C7
340
C8
340
C9
340
CA
340
CB
340
CC
340
CD
340
CE
340
CF
340
D0
340
D1
340
D2
340
D3
340
D4
340
D5
340
D6
340
D7
340
D8
340
D9
340
DA
340
DB
340
DC
340
DD
340
DE
340
DF
340
E0
340
E1
340
E2
340
E3
340
E4
340
E5
340
E6
340
E7
340
E8
340
E9
340
EA
340
EB
340
EC
340
ED
340
EE
340
EF
340
F0
340
F1
340
F2
340
F3
340
F4
340
F5
340
F6
340
F7
340
F8
340
F9
340
FA
340
FB
340
FC
340
159
340
FD
340
FE
340
158
340
FF
340
100
340
101
340
102
340
103
340
104
340
15A
340
105
340
106
340
107
340
108
340
109
340
10A
340
10B
340
10C
340
10D
340
10E
340
10F
340
110
340
111
340
112
340
113
340
114
340
115
340
116
340
117
340
118
340
119
340
11A
340
11B
340
11C
340
11D
340
11E
340
120
340
121
340
122
340
123
340
124
340
125
340
126
340
127
340
128
340
129
340
12A
340
15B
340
15C
340
15D
340
15E
340
168
340
169
340
16A
340
16B
340
16C
340
16D
340
16E
340
16F
340
170
340
171
340
172
340
173
340
174
340
175
340
176
340
177
340
178
340
179
340
17A
340
17B
340
17C
340
17D
340
17E
340
17F
340
180
340
181
340
182
340
183
340
184
340
185
340
186
340
187
340
188
340
189
340
18A
340
18B
340
18C
340
18D
340
18E
340
18F
340
190
340
191
340
192
340
193
340
194
340
195
340
196
340
197
340
198
340
199
340
19A
340
19B
340
19C
340
19D
340
19E
340
19F
340
1A0
340
1A1
340
1A2
340
1A3
340
1A4
340
1A5
340
1A6
340
1A7
340
1A8
340
1A9
340
1AA
340
1AB
340
1AC
340
1AD
340
1AE
340
1AF
340
1B0
340
1B1
340
1B2
340
1B3
340
1B4
340
1B5
340
1B6
340
1B7
340
1B8
340
1B9
340
1BA
340
1BB
340
1BC
340
1BD
340
1BE
340
1BF
340
1C0
340
1C1
340
1C2
340
1C3
340
1C4
340
1C5
340
1C6
340
1C7
340
1C8
340
1C9
340
1CA
340
1CB
340
1CC
340
1D7
340
1D8
340
1D9
340
1DA
340
1DB
340
1DC
340
1DD
340
1DE
340
1DF
340
1E0
340
1E1
340
1E2
340
1E3
340
1E4
340
1E5
340
1E6
340
1E7
340
1E8
340
1E9
340
1EA
340
1EB
340
1EC
340
1ED
340
1EE
340
1EF
340
1F0
340
1F1
340
1F2
340
1F3
340
1F4
340
1F5
340
1F6
340
1F7
340
1F8
340
1F9
340
1FA
340
1FB
340
1FC
340
1FD
340
1FE
340
1FF
340
200
340
201
340
202
340
203
340
204
340
205
340
206
340
207
340
208
340
209
340
20A
340
20B
340
20C
340
20D
340
20E
340
20F
340
210
340
211
340
212
340
213
340
214
340
215
340
216
340
217
340
218
340
219
340
21A
340
21B
340
21C
340
21D
340
21E
340
21F
340
220
340
221
340
222
340
223
340
224
340
225
340
226
340
227
340
228
340
229
340
22A
340
22B
340
22C
340
22D
340
22E
340
22F
340
230
340
231
340
232
340
233
340
234
340
235
340
236
340
237
340
238
340
12C
340
12D
340
12E
340
12F
340
130
340
131
340
132
340
133
340
134
340
135
340
136
340
137
340
138
340
139
340
13A
340
12B
340
13B
340
13C
340
13D
340
13E
340
13F
340
140
340
141
340
142
340
143
340
144
340
145
340
146
340
147
340
148
340
149
340
14A
340
14B
340
14C
340
14D
340
14E
340
14F
340
150
340
151
340
15F
340
160
340
1CD
340
1CE
340
161
340
162
340
152
340
153
340
154
340
155
340
156
340
163
340
164
340
157
340
165
340
166
340
1CF
340
1D0
340
1D1
340
1D2
340
167
340
1D3
340
1D4
340
1D5
340
1D6
340
239
340
23A
340
23B
340
23C
340
23D
340
23E
340
23F
340
240
340
241
340
242
340
243
340
244
340
12C
340
12D
340
12E
340
12F
340
130
340
131
340
132
340
133
340
134
340
135
340
136
340
137
340
138
340
139
340
13A
340
12B
340
13B
340
13C
340
13D
340
13E
340
13F
340
140
340
141
340
142
340
143
340
144
340
145
340
146
340
147
340
148
340
149
340
14A
340
14B
340
14C
340
14D
340
14E
340
14F
340
150
340
151
340
152
340
153
340
154
340
155
340
156
340
157
340
15F
340
160
340
161
340
162
340
163
340
164
340
165
340
166
340
167
340
1CD
340
1CE
340
1CF
340
1D0
340
1D1
340
1D2
340
1D3
340
1D4
340
1D5
340
1D6
340
239
340
23A
340
23B
340
23C
340
23D
340
23E
340
23F
340
240
340
241
340
242
340
243
340
244
340
12C
340
12D
340
12E
340
12F
340
130
340
131
340
132
340
133
340
134
340
135
340
136
340
137
340
138
340
139
340
13A
340
12B
340
13B
340
13C
340
13D
340
13E
340
13F
340
140
340
141
340
142
340
143
340
144
340
145
340
146
340
147
340
148
340
149
340
14A
340
14B
340
14C
340
14D
340
14E
340
14F
340
150
340
151
340
15F
340
160
340
1CD
340
1CE
340
161
340
162
340
152
340
153
340
154
340
155
340
156
340
163
340
164
340
157
340
165
340
166
340
1CF
340
1D0
340
1D1
340
1D2
340
167
340
1D3
340
1D4
340
1D5
340
1D6
340
239
340
23A
340
23B
340
23C
340
23D
340
23E
340
23F
340
240
340
241
340
242
340
243
340
244
340
245
340
253
340
25D
340
267
340
273
0
GROUP
5
27D
330
2ed
100
AcDbGroup
300

70
0
71
1
340
75
340
245
340
25D
340
267
0
GROUP
5
287
330
2ed
100
AcDbGroup
300

70
0
71
1
340
12C
340
12D
340
12E
340
12F
340
130
340
131
340
132
340
133
340
134
340
135
340
136
340
137
340
138
340
139
340
13A
340
12B
340
13B
340
13C
340
13D
340
13E
340
13F
340
140
340
141
340
142
340
143
340
144
340
145
340
146
340
147
340
148
340
149
340
14A
340
14B
340
14C
340
14D
340
14E
340
14F
340
150
340
151
340
152
340
153
340
154
340
155
340
156
340
157
340
15F
340
160
340
161
340
162
340
163
340
164
340
165
340
166
340
167
340
1CD
340
1CE
340
1CF
340
1D0
340
1D1
340
1D2
340
1D3
340
1D4
340
1D5
340
1D6
340
239
340
23A
340
23B
340
23C
340
23D
340
23E
340
23F
340
240
340
241
340
242
340
243
340
244
340
12C
340
12D
340
12E
340
12F
340
130
340
131
340
132
340
133
340
134
340
135
340
136
340
137
340
138
340
139
340
13A
340
12B
340
13B
340
13C
340
13D
340
13E
340
13F
340
140
340
141
340
142
340
143
340
144
340
145
340
146
340
147
340
148
340
149
340
14A
340
14B
340
14C
340
14D
340
14E
340
14F
340
150
340
151
340
15F
340
160
340
1CD
340
1CE
340
161
340
162
340
152
340
153
340
154
340
155
340
156
340
163
340
164
340
157
340
165
340
166
340
1CF
340
1D0
340
1D1
340
1D2
340
167
340
1D3
340
1D4
340
1D5
340
1D6
340
239
340
23A
340
23B
340
23C
340
23D
340
23E
340
23F
340
240
340
241
340
242
340
243
340
244
0
GROUP
5
286
330
2ed
100
AcDbGroup
300

70
0
71
1
340
12C
340
12D
340
12E
340
12F
340
130
340
131
340
132
340
133
340
134
340
135
340
136
340
137
340
138
340
139
340
13A
340
12B
340
13B
340
13C
340
13D
340
13E
340
13F
340
140
340
141
340
142
340
143
340
144
340
145
340
146
340
147
340
148
340
149
340
14A
340
14B
340
14C
340
14D
340
14E
340
14F
340
150
340
151
340
15F
340
160
340
1CD
340
1CE
340
161
340
162
340
152
340
153
340
154
340
155
340
156
340
163
340
164
340
157
340
165
340
166
340
1CF
340
1D0
340
1D1
340
1D2
340
167
340
1D3
340
1D4
340
1D5
340
1D6
340
239
340
23A
340
23B
340
23C
340
23D
340
23E
340
23F
340
240
340
241
340
242
340
243
340
244
0
MLINESTYLE
5
18
330
2ee
100
AcDbMlineStyle
2
Standard
70
0
3

62
256
51
90
52
90
71
2
49
-0.5
62
256
6
ByLayer
49
0.5
62
256
6
ByLayer
0
RASTERVARIABLES
5
2d8
330

100
AcDbRasterVariables
90
0
70
1
71
1
72
1
0
ENDSEC
0
EOF
