0
SECTION
2
HEADER
9
$ACADVER
1
AC1015
9
$DWGCODEPAGE
3
ANSI_1252
9
$HANDSEED
5
2de
9
$ANGBASE
50
0
9
$ANGDIR
70
0
9
$ATTMODE
70
1
9
$AUNITS
70
0
9
$AUPREC
70
0
9
$CECOLOR
62
256
9
$CELTSCALE
40
1
9
$CELTYPE
6
ByLayer
9
$CELWEIGHT
370
18
9
$CLAYER
8
0
9
$CMLJUST
70
0
9
$CMLSCALE
40
1
9
$CMLSTYLE
2
Standard
9
$DIMSTYLE
2
Standard
9
$TEXTSIZE
40
0.2
9
$TEXTSTYLE
7
Standard
9
$LUNITS
70
2
9
$LUPREC
70
4
9
$EXTNAMES
290
1
9
$INSUNITS
70
4
9
$LTSCALE
40
1
9
$LWDISPLAY
290
1
9
$PDMODE
70
0
9
$PDSIZE
40
0
9
$PLINEGEN
70
0
0
ENDSEC
0
SECTION
2
CLASSES
0
CLASS
1
RASTERVARIABLES
2
AcDbRasterVariables
3
ISM
90
0
280
0
281
0
0
ENDSEC
0
SECTION
2
TABLES
0
TABLE
2
VPORT
5
2d4
100
AcDbSymbolTable
0
VPORT
5
1
100
AcDbSymbolTableRecord
100
AcDbViewportTableRecord
2
*Active
70
0
10
0
20
0
11
1
21
1
12
-1
22
1
13
0
23
0
14
0.5
24
0.5
15
10
25
10
16
0
26
0
36
1
17
0
27
0
37
0
0
ENDTAB
0
TABLE
2
LTYPE
5
2d5
100
AcDbSymbolTable
0
LTYPE
5
14
100
AcDbSymbolTableRecord
100
AcDbLinetypeTableRecord
70
0
2
ByBlock
3

72
65
73
0
40
0
0
LTYPE
5
15
100
AcDbSymbolTableRecord
100
AcDbLinetypeTableRecord
70
0
2
ByLayer
3

72
65
73
0
40
0
0
LTYPE
5
16
100
AcDbSymbolTableRecord
100
AcDbLinetypeTableRecord
70
0
2
CONTINUOUS
3
Solid line
72
65
73
0
40
0
0
LTYPE
5
6A
100
AcDbSymbolTableRecord
100
AcDbLinetypeTableRecord
70
0
2
CENTER
3
____ _ ____ _ ____ _ ____
72
65
73
4
40
47.5
49
22
74
0
49
-8.5
74
0
49
8.5
74
0
49
-8.5
74
0
0
LTYPE
5
6B
100
AcDbSymbolTableRecord
100
AcDbLinetypeTableRecord
70
0
2
DASHED
3
__ __ __ __ __ __ __ __ __
72
65
73
2
40
25.72
49
12.86
74
0
49
-12.86
74
0
0
ENDTAB
0
TABLE
2
LAYER
5
2d6
100
AcDbSymbolTable
0
LAYER
5
10
100
AcDbSymbolTableRecord
100
AcDbLayerTableRecord
2
0
70
0
62
7
6
CONTINUOUS
290
1
370
-3
390
0
0
LAYER
5
6D
100
AcDbSymbolTableRecord
100
AcDbLayerTableRecord
2
80
70
0
62
-6
6
CONTINUOUS
290
1
370
-3
390
0
0
LAYER
5
6F
100
AcDbSymbolTableRecord
100
AcDbLayerTableRecord
2
81
70
0
62
-3
6
CONTINUOUS
290
1
370
-3
390
0
0
LAYER
5
71
100
AcDbSymbolTableRecord
100
AcDbLayerTableRecord
2
4
70
0
62
-2
6
CENTER
290
1
370
-3
390
0
0
LAYER
5
76
100
AcDbSymbolTableRecord
100
AcDbLayerTableRecord
2
2
70
0
62
7
6
CONTINUOUS
290
1
370
-3
390
0
0
LAYER
5
79
100
AcDbSymbolTableRecord
100
AcDbLayerTableRecord
2
1
70
0
62
4
6
CONTINUOUS
290
1
370
-3
390
0
0
LAYER
5
2be
100
AcDbSymbolTableRecord
100
AcDbLayerTableRecord
2
SK4
70
0
62
2
6
CENTER
290
1
370
-3
390
0
0
LAYER
5
2bf
100
AcDbSymbolTableRecord
100
AcDbLayerTableRecord
2
SK1
70
0
62
4
6
CONTINUOUS
290
1
370
-3
390
0
0
LAYER
5
2c0
100
AcDbSymbolTableRecord
100
AcDbLayerTableRecord
2
SK6
70
0
62
5
6
CONTINUOUS
290
1
370
-3
390
0
0
LAYER
5
2c1
100
AcDbSymbolTableRecord
100
AcDbLayerTableRecord
2
SK2
70
0
62
7
6
CONTINUOUS
290
1
370
-3
390
0
0
ENDTAB
0
TABLE
2
STYLE
5
2d7
100
AcDbSymbolTable
0
STYLE
5
11
100
AcDbSymbolTableRecord
100
AcDbTextStyleTableRecord
2
Standard
3
txt
70
0
71
0
40
0
41
1
42
0
50
0
0
STYLE
5
229
100
AcDbSymbolTableRecord
100
AcDbTextStyleTableRecord
2
iso_b_vert
3
simplex.shx
70
0
71
0
40
0
41
1
42
0
50
0
0
STYLE
5
22A
100
AcDbSymbolTableRecord
100
AcDbTextStyleTableRecord
2
DWGDirectTextStyle
3
simplex
70
0
71
0
40
0
41
1
42
0
50
0
0
ENDTAB
0
TABLE
2
DIMSTYLE
5
2d8
100
AcDbSymbolTable
100
AcDbDimStyleTable
0
DIMSTYLE
105
27
100
AcDbSymbolTableRecord
100
AcDbDimStyleTableRecord
2
Standard
70
0
3
<>
41
0.18
42
0.0625
44
0.18
140
0.18
147
0.09
73
0
74
0
77
1
271
2
275
0
278
52
280
0
340
11
0
ENDTAB
0
TABLE
2
VIEW
5
2d9
100
AcDbSymbolTable
0
ENDTAB
0
TABLE
2
UCS
5
2da
100
AcDbSymbolTable
0
ENDTAB
0
TABLE
2
APPID
5
2db
100
AcDbSymbolTable
0
APPID
5
12
100
AcDbSymbolTableRecord
100
AcDbRegAppTableRecord
2
ACAD
70
0
0
ENDTAB
0
TABLE
2
BLOCK_RECORD
5
2dc
100
AcDbSymbolTable
0
BLOCK_RECORD
5
1F
100
AcDbSymbolTableRecord
100
AcDbBlockTableRecord
2
*Model_Space
340
0
70
0
0
BLOCK_RECORD
5
1B
100
AcDbSymbolTableRecord
100
AcDbBlockTableRecord
2
*Paper_Space
340
0
70
0
0
BLOCK_RECORD
5
23
100
AcDbSymbolTableRecord
100
AcDbBlockTableRecord
2
*Paper_Space0
340
0
70
0
0
BLOCK_RECORD
5
22C
100
AcDbSymbolTableRecord
100
AcDbBlockTableRecord
2
DimnDraft3D1
340
0
70
0
0
BLOCK_RECORD
5
236
100
AcDbSymbolTableRecord
100
AcDbBlockTableRecord
2
DimnDraft3D2
340
0
70
0
0
BLOCK_RECORD
5
240
100
AcDbSymbolTableRecord
100
AcDbBlockTableRecord
2
DimnDraft3D3
340
0
70
0
0
BLOCK_RECORD
5
24A
100
AcDbSymbolTableRecord
100
AcDbBlockTableRecord
2
DimnDraft3D4
340
0
70
0
0
BLOCK_RECORD
5
254
100
AcDbSymbolTableRecord
100
AcDbBlockTableRecord
2
DimnDraft3D5
340
0
70
0
0
ENDTAB
0
ENDSEC
0
SECTION
2
BLOCKS
0
BLOCK
5
20
100
AcDbEntity
8
0
100
AcDbBlockBegin
2
*Model_Space
70
0
10
0
20
0
30
0
3
*Model_Space
0
ENDBLK
5
21
100
AcDbEntity
8
0
100
AcDbBlockEnd
0
BLOCK
5
1C
100
AcDbEntity
8
0
100
AcDbBlockBegin
2
*Paper_Space
70
0
10
0
20
0
30
0
3
*Paper_Space
0
ENDBLK
5
1D
100
AcDbEntity
8
0
100
AcDbBlockEnd
0
BLOCK
5
24
100
AcDbEntity
8
0
100
AcDbBlockBegin
2
*Paper_Space0
70
0
10
0
20
0
30
0
3
*Paper_Space0
0
ENDBLK
5
25
100
AcDbEntity
8
0
100
AcDbBlockEnd
0
BLOCK
5
233
100
AcDbEntity
8
0
100
AcDbBlockBegin
2
DimnDraft3D1
70
0
10
0
20
0
30
0
3
DimnDraft3D1
0
MTEXT
5
22D
100
AcDbEntity
8
2
62
256
6
ByLayer
370
18
48
1
60
0
100
AcDbMText
10
104.581579
20
44.25
30
0
210
0
220
0
230
1
1
\W0.6869;216.0
40
3
41
0
44
1.084337
50
0
71
7
72
5
7
iso_b_vert
0
LINE
5
22E
100
AcDbEntity
8
2
62
256
6
ByLayer
370
13
48
1
60
0
100
AcDbLine
10
0
20
17.7
30
0
11
0
21
45.5
31
0
39
0
210
0
220
0
230
1
0
LINE
5
22F
100
AcDbEntity
8
2
62
256
6
ByLayer
370
13
48
1
60
0
100
AcDbLine
10
216
20
15.998411
30
0
11
216
21
45.5
31
0
39
0
210
0
220
0
230
1
0
LINE
5
230
100
AcDbEntity
8
2
62
256
6
ByLayer
370
13
48
1
60
0
100
AcDbLine
10
0
20
43.5
30
0
11
216
21
43.5
31
0
39
0
210
0
220
0
230
1
0
SOLID
5
231
100
AcDbEntity
8
2
62
256
6
ByLayer
370
13
48
1
60
0
100
AcDbTrace
10
0
20
43.5
30
0
11
3.174998
21
43.917997
31
0
12
3.175002
22
43.082003
32
0
13
0
23
43.5
33
0
39
0
210
0
220
0
230
1
0
SOLID
5
232
100
AcDbEntity
8
2
62
256
6
ByLayer
370
13
48
1
60
0
100
AcDbTrace
10
216
20
43.5
30
0
11
212.825002
21
43.082003
31
0
12
212.824998
22
43.917997
32
0
13
216
23
43.5
33
0
39
0
210
0
220
0
230
1
0
ENDBLK
5
234
100
AcDbEntity
8
0
100
AcDbBlockEnd
0
BLOCK
5
23D
100
AcDbEntity
8
0
100
AcDbBlockBegin
2
DimnDraft3D2
70
0
10
0
20
0
30
0
3
DimnDraft3D2
0
MTEXT
5
237
100
AcDbEntity
8
2
62
256
6
ByLayer
370
18
48
1
60
0
100
AcDbMText
10
119.790789
20
29.25
30
0
210
0
220
0
230
1
1
\W0.7395;LU = 6.0 X Dc
40
3
41
0
44
1.084337
50
0
71
7
72
5
7
iso_b_vert
0
LINE
5
238
100
AcDbEntity
8
2
62
256
6
ByLayer
370
13
48
1
60
0
100
AcDbLine
10
216
20
15.998411
30
0
11
216
21
30.5
31
0
39
0
210
0
220
0
230
1
0
LINE
5
239
100
AcDbEntity
8
2
62
256
6
ByLayer
370
13
48
1
60
0
100
AcDbLine
10
48
20
15.998411
30
0
11
48
21
30.5
31
0
39
0
210
0
220
0
230
1
0
LINE
5
23A
100
AcDbEntity
8
2
62
256
6
ByLayer
370
13
48
1
60
0
100
AcDbLine
10
216
20
28.5
30
0
11
48
21
28.5
31
0
39
0
210
0
220
0
230
1
0
SOLID
5
23B
100
AcDbEntity
8
2
62
256
6
ByLayer
370
13
48
1
60
0
100
AcDbTrace
10
216
20
28.5
30
0
11
212.825002
21
28.082003
31
0
12
212.824998
22
28.917997
32
0
13
216
23
28.5
33
0
39
0
210
0
220
0
230
1
0
SOLID
5
23C
100
AcDbEntity
8
2
62
256
6
ByLayer
370
13
48
1
60
0
100
AcDbTrace
10
48
20
28.5
30
0
11
51.174998
21
28.917997
31
0
12
51.175002
22
28.082003
32
0
13
48
23
28.5
33
0
39
0
210
0
220
0
230
1
0
ENDBLK
5
23E
100
AcDbEntity
8
0
100
AcDbBlockEnd
0
BLOCK
5
247
100
AcDbEntity
8
0
100
AcDbBlockBegin
2
DimnDraft3D3
70
0
10
0
20
0
30
0
3
DimnDraft3D3
0
MTEXT
5
241
100
AcDbEntity
8
2
62
256
6
ByLayer
370
18
48
1
60
0
100
AcDbMText
10
238.708633
20
-10.969652
30
0
210
0
220
0
230
1
1
\W0.7221;Dc=28.0-36.0
40
3
41
0
44
1.084337
50
90
71
7
72
5
7
iso_b_vert
0
LINE
5
242
100
AcDbEntity
8
2
62
256
6
ByLayer
370
13
48
1
60
0
100
AcDbLine
10
218
20
13.998411
30
0
11
241.458633
21
13.998411
31
0
39
0
210
0
220
0
230
1
0
LINE
5
243
100
AcDbEntity
8
2
62
256
6
ByLayer
370
13
48
1
60
0
100
AcDbLine
10
217.603125
20
-13.998241
30
0
11
241.458633
21
-13.998241
31
0
39
0
210
0
220
0
230
1
0
LINE
5
244
100
AcDbEntity
8
2
62
256
6
ByLayer
370
13
48
1
60
0
100
AcDbLine
10
239.458633
20
21.498411
30
0
11
239.458633
21
-21.498241
31
0
39
0
210
0
220
0
230
1
0
SOLID
5
245
100
AcDbEntity
8
2
62
256
6
ByLayer
370
13
48
1
60
0
100
AcDbTrace
10
239.458633
20
13.998411
30
0
11
239.040636
21
17.17341
31
0
12
239.87663
22
17.173413
32
0
13
239.458633
23
13.998411
33
0
39
0
210
0
220
0
230
1
0
SOLID
5
246
100
AcDbEntity
8
2
62
256
6
ByLayer
370
13
48
1
60
0
100
AcDbTrace
10
239.458633
20
-13.998241
30
0
11
239.87663
21
-17.17324
31
0
12
239.040636
22
-17.173243
32
0
13
239.458633
23
-13.998241
33
0
39
0
210
0
220
0
230
1
0
ENDBLK
5
248
100
AcDbEntity
8
0
100
AcDbBlockEnd
0
BLOCK
5
251
100
AcDbEntity
8
0
100
AcDbBlockBegin
2
DimnDraft3D4
70
0
10
0
20
0
30
0
3
DimnDraft3D4
0
MTEXT
5
24B
100
AcDbEntity
8
2
62
256
6
ByLayer
370
18
48
1
60
0
100
AcDbMText
10
223.852285
20
3.380036
30
0
210
0
220
0
230
1
1
\W0.5899;90%%d
40
3
41
0
44
1.084337
50
45
71
7
72
5
7
iso_b_vert
0
LINE
5
24C
100
AcDbEntity
8
2
62
256
6
ByLayer
370
13
48
1
60
0
100
AcDbLine
10
216
20
5.968988
30
0
11
216
21
-1.812318
31
0
39
0
210
0
220
0
230
1
0
LINE
5
24D
100
AcDbEntity
8
2
62
256
6
ByLayer
370
13
48
1
60
0
100
AcDbLine
10
220
20
13.998411
30
0
11
231.810729
21
13.998411
31
0
39
0
210
0
220
0
230
1
0
ARC
5
24E
100
AcDbEntity
8
2
62
256
6
ByLayer
370
13
48
1
60
0
100
AcDbCircle
39
0
10
216
20
13.998411
30
0
40
13.8107293068217
210
0
220
0
230
1
100
AcDbArc
50
270
51
0
0
SOLID
5
24F
100
AcDbEntity
8
2
62
256
6
ByLayer
370
13
48
1
60
0
100
AcDbTrace
10
216
20
0.187682
30
0
11
219.145896
21
0.786576
31
0
12
219.193711
22
-0.048049
32
0
13
216
23
0.187682
33
0
39
0
210
0
220
0
230
1
0
SOLID
5
250
100
AcDbEntity
8
2
62
256
6
ByLayer
370
13
48
1
60
0
100
AcDbTrace
10
229.810729
20
13.998411
30
0
11
230.04646
21
10.804704
31
0
12
229.211835
22
10.852512
32
0
13
229.810729
23
13.998411
33
0
39
0
210
0
220
0
230
1
0
ENDBLK
5
252
100
AcDbEntity
8
0
100
AcDbBlockEnd
0
BLOCK
5
25D
100
AcDbEntity
8
0
100
AcDbBlockBegin
2
DimnDraft3D5
70
0
10
0
20
0
30
0
3
DimnDraft3D5
0
MTEXT
5
255
100
AcDbEntity
8
SK2
62
256
6
ByLayer
370
18
48
1
60
0
100
AcDbMText
10
-29.25
20
1.164474
30
0
210
0
220
0
230
1
1
\W0.6337;32
40
3
41
0
44
1.084337
50
90
71
7
72
5
7
iso_b_vert
0
MTEXT
5
257
100
AcDbEntity
8
SK2
62
256
6
ByLayer
370
18
48
1
60
0
100
AcDbMText
10
-29.25
20
-3.248684
30
0
210
0
220
0
230
1
1
\W1.1719;%%c
40
3
41
0
44
1.084337
50
90
71
7
72
5
7
iso_b_vert
0
LINE
5
258
100
AcDbEntity
8
SK2
62
256
6
ByLayer
370
13
48
1
60
0
100
AcDbLine
10
-1.7
20
16
30
0
11
-30.5
21
16
31
0
39
0
210
0
220
0
230
1
0
LINE
5
259
100
AcDbEntity
8
SK2
62
256
6
ByLayer
370
13
48
1
60
0
100
AcDbLine
10
-1.7
20
-16
30
0
11
-30.5
21
-16
31
0
39
0
210
0
220
0
230
1
0
LINE
5
25A
100
AcDbEntity
8
SK2
62
256
6
ByLayer
370
13
48
1
60
0
100
AcDbLine
10
-28.5
20
16
30
0
11
-28.5
21
-16
31
0
39
0
210
0
220
0
230
1
0
SOLID
5
25B
100
AcDbEntity
8
SK2
62
256
6
ByLayer
370
13
48
1
60
0
100
AcDbTrace
10
-28.5
20
16
30
0
11
-28.082003
21
12.825002
31
0
12
-28.917997
22
12.824998
32
0
13
-28.5
23
16
33
0
39
0
210
0
220
0
230
1
0
SOLID
5
25C
100
AcDbEntity
8
SK2
62
256
6
ByLayer
370
13
48
1
60
0
100
AcDbTrace
10
-28.5
20
-16
30
0
11
-28.917997
21
-12.825002
31
0
12
-28.082003
22
-12.824998
32
0
13
-28.5
23
-16
33
0
39
0
210
0
220
0
230
1
0
ENDBLK
5
25E
100
AcDbEntity
8
0
100
AcDbBlockEnd
0
ENDSEC
0
SECTION
2
ENTITIES
0
ARC
5
13F
100
AcDbEntity
8
1
62
256
6
ByLayer
370
18
48
1
60
0
100
AcDbCircle
39
0
10
-212.340437
20
1.350084
30
0
40
2.34043735454473
210
0
220
0
230
-1
100
AcDbArc
50
360
51
26.229206
0
ARC
5
140
100
AcDbEntity
8
1
62
256
6
ByLayer
370
18
48
1
60
0
100
AcDbCircle
39
0
10
196.1
20
10.2
30
0
40
0.605662432702594
210
0
220
0
230
1
100
AcDbArc
50
154.34238
51
139.34238
0
ARC
5
141
100
AcDbEntity
8
1
62
256
6
ByLayer
370
18
48
1
60
0
100
AcDbCircle
39
0
10
-196.1
20
10.2
30
0
40
0.45
210
0
220
0
230
-1
100
AcDbArc
50
40.65762
51
25.65762
0
ARC
5
143
100
AcDbEntity
8
1
62
256
6
ByLayer
370
18
48
1
60
0
100
AcDbCircle
39
0
10
-195.825159
20
10.2
30
0
40
0.400000000000001
210
0
220
0
230
-1
100
AcDbArc
50
100.792224
51
79.207776
0
ARC
5
144
100
AcDbEntity
8
1
62
256
6
ByLayer
370
18
48
1
60
0
100
AcDbCircle
39
0
10
-195.825159
20
10.2
30
0
40
0.586792319645751
210
0
220
0
230
-1
100
AcDbArc
50
102.133057
51
77.866943
0
ARC
5
146
100
AcDbEntity
8
1
62
256
6
ByLayer
370
18
48
1
60
0
100
AcDbCircle
39
0
10
197
20
13.5
30
0
40
2
210
0
220
0
230
1
100
AcDbArc
50
226.197767
51
270
0
ARC
5
148
100
AcDbEntity
8
1
62
256
6
ByLayer
370
18
48
1
60
0
100
AcDbCircle
39
0
10
-48.158646
20
-15.5
30
0
40
3
210
0
220
0
230
-1
100
AcDbArc
50
83.945808
51
90
0
ARC
5
149
100
AcDbEntity
8
1
62
256
6
ByLayer
370
18
48
1
60
0
100
AcDbCircle
39
0
10
-48.158646
20
15.5
30
0
40
3
210
0
220
0
230
-1
100
AcDbArc
50
270
51
276.054192
0
ARC
5
14A
100
AcDbEntity
8
1
62
256
6
ByLayer
370
18
48
1
60
0
100
AcDbCircle
39
0
10
193.7
20
-12.2
30
0
40
0.3
210
0
220
0
230
1
100
AcDbArc
50
270
51
0
0
ARC
5
14B
100
AcDbEntity
8
1
62
256
6
ByLayer
370
18
48
1
60
0
100
AcDbCircle
39
0
10
193.7
20
12.2
30
0
40
0.3
210
0
220
0
230
1
100
AcDbArc
50
0
51
90
0
ARC
5
14C
100
AcDbEntity
8
1
62
256
6
ByLayer
370
18
48
1
60
0
100
AcDbCircle
39
0
10
195.825159
20
-10.2
30
0
40
0.586792319645751
210
0
220
0
230
1
100
AcDbArc
50
124.655731
51
100.389616
0
ARC
5
14D
100
AcDbEntity
8
1
62
256
6
ByLayer
370
18
48
1
60
0
100
AcDbCircle
39
0
10
195.825159
20
-10.2
30
0
40
0.4
210
0
220
0
230
1
100
AcDbArc
50
123.314897
51
101.73045
0
CIRCLE
5
142
100
AcDbEntity
8
1
62
256
6
ByLayer
370
18
48
1
60
0
100
AcDbCircle
10
-196.1
20
10.2
30
0
40
0.749999999999999
39
0
210
0
220
0
230
-1
0
CIRCLE
5
145
100
AcDbEntity
8
1
62
256
6
ByLayer
370
18
48
1
60
0
100
AcDbCircle
10
-195.825159
20
10.2
30
0
40
0.75
39
0
210
0
220
0
230
-1
0
CIRCLE
5
147
100
AcDbEntity
8
1
62
256
6
ByLayer
370
18
48
1
60
0
100
AcDbCircle
10
-195.825159
20
-10.2
30
0
40
0.75
39
0
210
0
220
0
230
-1
0
ELLIPSE
5
14E
100
AcDbEntity
8
1
62
256
6
ByLayer
370
18
48
1
60
0
100
AcDbEllipse
10
209.391026
20
-2.55
30
0
11
-3.45629266800459E-16
21
2.14924477635326
31
0
210
0
220
0
230
1
40
0.104528
41
-2.22994152023154
42
-0.911748945262044
0
ELLIPSE
5
14F
100
AcDbEntity
8
1
62
256
6
ByLayer
370
18
48
1
60
0
100
AcDbEllipse
10
213.411897
20
10.93826
30
0
11
0.185234161887987
21
-0.155022673993511
31
0
210
0
220
0
230
-1
40
0.504
41
0.340184318183542
42
1.57183457992759
0
ELLIPSE
5
150
100
AcDbEntity
8
1
62
256
6
ByLayer
370
18
48
1
60
0
100
AcDbEllipse
10
212.825
20
10.295735
30
0
11
1.03505
21
0
31
0
210
0
220
0
230
1
40
0.998441
41
-1.74532925199436
42
-0.698131700797737
0
ELLIPSE
5
151
100
AcDbEntity
8
1
62
256
6
ByLayer
370
18
48
1
60
0
100
AcDbEllipse
10
212.825
20
10.239914
30
0
11
0.7912
21
0
31
0
210
0
220
0
230
1
40
0.998441
41
1.91986217719384
42
2.83635687134778
0
ELLIPSE
5
152
100
AcDbEntity
8
1
62
256
6
ByLayer
370
18
48
1
60
0
100
AcDbEllipse
10
212.125448
20
10.825992
30
0
11
0.155458682867185
21
0.184782877974805
31
0
210
0
220
0
230
-1
40
0.504273
41
-2.64745155033349
42
0.19400348360133
0
ELLIPSE
5
153
100
AcDbEntity
8
1
62
256
6
ByLayer
370
18
48
1
60
0
100
AcDbEllipse
10
212.825
20
10.239914
30
0
11
0.7912
21
0
31
0
210
0
220
0
230
1
40
0.998441
41
-1.01045898158901
42
-0.220462487180731
0
ELLIPSE
5
154
100
AcDbEntity
8
1
62
256
6
ByLayer
370
18
48
1
60
0
100
AcDbEllipse
10
212.512719
20
11.096562
30
0
11
0.227151852729154
21
0.0824600002096361
31
0
210
0
220
0
230
-1
40
0.503535
41
0.338469444158077
42
1.57011970591021
0
ELLIPSE
5
155
100
AcDbEntity
8
1
62
256
6
ByLayer
370
18
48
1
60
0
100
AcDbEllipse
10
212.825
20
10.295735
30
0
11
1.03505
21
0
31
0
210
0
220
0
230
1
40
0.998441
41
0.349065850398934
42
1.39626340159549
0
ELLIPSE
5
156
100
AcDbEntity
8
1
62
256
6
ByLayer
370
18
48
1
60
0
100
AcDbEllipse
10
212.825
20
10.294471
30
0
11
-1.725
21
2.1124459603436E-16
31
0
210
0
220
0
230
1
40
0.998441
41
0
42
6.28318530717959
0
ELLIPSE
5
157
100
AcDbEntity
8
1
62
256
6
ByLayer
370
18
48
1
60
0
100
AcDbEllipse
10
211.925821
20
10.398216
30
0
11
0.0420141579287609
21
0.237649236545088
31
0
210
0
220
0
230
-1
40
0.504877
41
1.57043468881317
42
2.80208495057123
0
ELLIPSE
5
158
100
AcDbEntity
8
1
62
256
6
ByLayer
370
18
48
1
60
0
100
AcDbEllipse
10
211.966873
20
9.928068
30
0
11
0.0827440357789736
21
-0.226741246976095
31
0
210
0
220
0
230
-1
40
0.50474
41
2.24503432221496
42
-2.94587062383908
0
ELLIPSE
5
159
100
AcDbEntity
8
1
62
256
6
ByLayer
370
18
48
1
60
0
100
AcDbEllipse
10
212.825
20
10.295735
30
0
11
1.03505
21
0
31
0
210
0
220
0
230
1
40
0.998441
41
-0.698131700797737
42
0.349065850398934
0
ELLIPSE
5
15A
100
AcDbEntity
8
1
62
256
6
ByLayer
370
18
48
1
60
0
100
AcDbEllipse
10
213.524552
20
9.653835
30
0
11
0.155458682867174
21
0.184782877974818
31
0
210
0
220
0
230
-1
40
0.504273
41
-0.196081882996841
42
0.494141624128392
0
ELLIPSE
5
15B
100
AcDbEntity
8
1
62
256
6
ByLayer
370
18
48
1
60
0
100
AcDbEllipse
10
212.825
20
10.239914
30
0
11
-0.791199999999999
21
9.68908547144264E-17
31
0
210
0
220
0
230
1
40
0.998441
41
-2.2689280275926
42
-1.22173047639603
0
ELLIPSE
5
15C
100
AcDbEntity
8
1
62
256
6
ByLayer
370
18
48
1
60
0
100
AcDbEllipse
10
212.825
20
10.295735
30
0
11
1.03505
21
0
31
0
210
0
220
0
230
1
40
0.998441
41
2.44346095279209
42
-2.79252680319091
0
ELLIPSE
5
15D
100
AcDbEntity
8
1
62
256
6
ByLayer
370
18
48
1
60
0
100
AcDbEllipse
10
212.825
20
10.239914
30
0
11
0.7912
21
0
31
0
210
0
220
0
230
1
40
0.998441
41
-0.0963525687680025
42
0.872664625997242
0
ELLIPSE
5
15E
100
AcDbEntity
8
1
62
256
6
ByLayer
370
18
48
1
60
0
100
AcDbEllipse
10
212.825
20
10.295735
30
0
11
1.03505
21
0
31
0
210
0
220
0
230
1
40
0.998441
41
-2.79252680319091
42
-1.74532925199436
0
ELLIPSE
5
15F
100
AcDbEntity
8
1
62
256
6
ByLayer
370
18
48
1
60
0
100
AcDbEllipse
10
212.825
20
10.245496
30
0
11
-1.725
21
2.1124459603436E-16
31
0
210
0
220
0
230
1
40
0.998441
41
0
42
3.14159253208135
0
ELLIPSE
5
160
100
AcDbEntity
8
1
62
256
6
ByLayer
370
18
48
1
60
0
100
AcDbEllipse
10
212.825
20
10.295735
30
0
11
-1.3
21
1.59198825996909E-16
31
0
210
0
220
0
230
1
40
0.998441
41
0
42
6.28318530717959
0
ELLIPSE
5
161
100
AcDbEntity
8
1
62
256
6
ByLayer
370
18
48
1
60
0
100
AcDbEllipse
10
212.825
20
10.239914
30
0
11
0.7912
21
0
31
0
210
0
220
0
230
1
40
0.998441
41
2.96705972839034
42
-2.43633215372844
0
ELLIPSE
5
162
100
AcDbEntity
8
1
62
256
6
ByLayer
370
18
48
1
60
0
100
AcDbEllipse
10
212.825
20
10.239914
30
0
11
0.7912
21
0
31
0
210
0
220
0
230
1
40
0.998441
41
-2.12722921213751
42
-1.37822079966679
0
ELLIPSE
5
163
100
AcDbEntity
8
1
62
256
6
ByLayer
370
18
48
1
60
0
100
AcDbEllipse
10
213.411897
20
10.93826
30
0
11
0.185234161896659
21
-0.15502267399581
31
0
210
0
220
0
230
-1
40
0.504
41
1.57183457996191
42
2.8034848416767
0
ELLIPSE
5
164
100
AcDbEntity
8
1
62
256
6
ByLayer
370
18
48
1
60
0
100
AcDbEllipse
10
212.512719
20
11.096562
30
0
11
0.227151852734749
21
0.0824600002126995
31
0
210
0
220
0
230
-1
40
0.503535
41
1.57011970591893
42
2.80176996764415
0
ELLIPSE
5
165
100
AcDbEntity
8
1
62
256
6
ByLayer
370
18
48
1
60
0
100
AcDbEllipse
10
212.983576
20
11.137838
30
0
11
0.238035632757853
21
-0.0418622041876945
31
0
210
0
220
0
230
-1
40
0.503399
41
2.94690982927027
42
-0.311282776725962
0
ELLIPSE
5
166
100
AcDbEntity
8
1
62
256
6
ByLayer
370
18
48
1
60
0
100
AcDbEllipse
10
212.825
20
10.295735
30
0
11
1.03505
21
0
31
0
210
0
220
0
230
1
40
0.998441
41
1.39626340159549
42
2.44346095279209
0
ELLIPSE
5
167
100
AcDbEntity
8
1
62
256
6
ByLayer
370
18
48
1
60
0
100
AcDbEllipse
10
213.683127
20
10.55176
30
0
11
0.0827440357790028
21
-0.226741246976093
31
0
210
0
220
0
230
-1
40
0.50474
41
2.94722931674282
42
-0.896560869413522
0
ELLIPSE
5
168
100
AcDbEntity
8
1
62
256
6
ByLayer
370
18
48
1
60
0
100
AcDbEllipse
10
213.724179
20
10.081612
30
0
11
0.0420141579248255
21
0.237649236545802
31
0
210
0
220
0
230
-1
40
0.504877
41
-2.80280822649971
42
-1.96536314627489
0
ELLIPSE
5
169
100
AcDbEntity
8
1
62
256
6
ByLayer
370
18
48
1
60
0
100
AcDbEllipse
10
179.649872
20
10.700084
30
0
11
34.3460456493555
21
1.79720869452221
31
0
210
0
220
0
230
-1
40
0.002917
41
-0.929233571501995
42
-0.627457129091697
0
ELLIPSE
5
16A
100
AcDbEntity
8
1
62
256
6
ByLayer
370
18
48
1
60
0
100
AcDbEllipse
10
207.161142
20
24.221265
30
0
11
8.74060337294725
21
-8.9605356095682
31
0
210
0
220
0
230
-1
40
0.917583
41
0.662115602548102
42
0.763600001888076
0
ELLIPSE
5
16B
100
AcDbEntity
8
1
62
256
6
ByLayer
370
18
48
1
60
0
100
AcDbEllipse
10
208.212616
20
9.98065
30
0
11
0.174758201730566
21
0.6206711097055
31
0
210
0
220
0
230
-1
40
0.576617
41
0
42
6.28318530717959
0
ELLIPSE
5
16C
100
AcDbEntity
8
1
62
256
6
ByLayer
370
18
48
1
60
0
100
AcDbEllipse
10
202.676327
20
6.800084
30
0
11
-7.34763812292171E-17
21
1.19999999999795
31
0
210
0
220
0
230
-1
40
0.176327
41
-1.5707963267949
42
0
0
ELLIPSE
5
16D
100
AcDbEntity
8
1
62
256
6
ByLayer
370
18
48
1
60
0
100
AcDbEllipse
10
207.744001
20
7.23542
30
0
11
0.062393247161711
21
-0.999185037655706
31
0
210
0
220
0
230
-1
40
0.646931
41
0.985879778600774
42
1.61117139530747
0
ELLIPSE
5
16E
100
AcDbEntity
8
1
62
256
6
ByLayer
370
18
48
1
60
0
100
AcDbEllipse
10
210.244235
20
8.016326
30
0
11
1.26412544328357
21
0
31
0
210
0
220
0
230
1
40
0.998441
41
2.06018297049944
42
2.9639642919134
0
ELLIPSE
5
16F
100
AcDbEntity
8
1
62
256
6
ByLayer
370
18
48
1
60
0
100
AcDbEllipse
10
202.905552
20
7.23542
30
0
11
-6.12303176913258E-17
21
1.00000000000338
31
0
210
0
220
0
230
-1
40
0.176327
41
1.5707963267949
42
2.44346095278825
0
ELLIPSE
5
170
100
AcDbEntity
8
1
62
256
6
ByLayer
370
18
48
1
60
0
100
AcDbEllipse
10
208.137119
20
10.700084
30
0
11
0.112307844931124
21
-1.79853306776704
31
0
210
0
220
0
230
-1
40
0.646931
41
1.61117139534397
42
2.61020846680768
0
ELLIPSE
5
171
100
AcDbEntity
8
1
62
256
6
ByLayer
370
18
48
1
60
0
100
AcDbEllipse
10
207.161142
20
24.063201
30
0
11
-12
21
1.46952762458685E-15
31
0
210
0
220
0
230
1
40
0.998441
41
1.72464060371746
42
1.74532925199433
0
ELLIPSE
5
172
100
AcDbEntity
8
1
62
256
6
ByLayer
370
18
48
1
60
0
100
AcDbEllipse
10
210.142465
20
7.073926
30
0
11
1.05
21
0
31
0
210
0
220
0
230
1
40
0.998441
41
2.82923541806864
42
-0.264803625558542
0
ELLIPSE
5
173
100
AcDbEntity
8
1
62
256
6
ByLayer
370
18
48
1
60
0
100
AcDbEllipse
10
210.244235
20
7.909375
30
0
11
0.920768263307444
21
-0.943936750919295
31
0
210
0
220
0
230
-1
40
0.917583
41
2.20912784846211
42
2.56438457166163
0
ELLIPSE
5
174
100
AcDbEntity
8
1
62
256
6
ByLayer
370
18
48
1
60
0
100
AcDbEllipse
10
210.142465
20
6.953909
30
0
11
1.05
21
0
31
0
210
0
220
0
230
1
40
0.998441
41
2.0589416126237
42
2.70283606280789
0
ELLIPSE
5
175
100
AcDbEntity
8
1
62
256
6
ByLayer
370
18
48
1
60
0
100
AcDbEllipse
10
210.244235
20
7.901892
30
0
11
1.26412544328357
21
0
31
0
210
0
220
0
230
1
40
0.998441
41
2.06019747762677
42
3.09559853413725
0
ELLIPSE
5
176
100
AcDbEntity
8
1
62
256
6
ByLayer
370
18
48
1
60
0
100
AcDbEllipse
10
208.163592
20
8.436225
30
0
11
0.181097576918
21
0.622554236291006
31
0
210
0
220
0
230
-1
40
0.576029
41
0
42
6.28318530717959
0
ELLIPSE
5
177
100
AcDbEntity
8
1
62
256
6
ByLayer
370
18
48
1
60
0
100
AcDbEllipse
10
210.244235
20
8.016326
30
0
11
1.26412544328357
21
0
31
0
210
0
220
0
230
1
40
0.998441
41
-2.96396429191336
42
-2.62788392751729
0
ELLIPSE
5
178
100
AcDbEntity
8
1
62
256
6
ByLayer
370
18
48
1
60
0
100
AcDbEllipse
10
210.142465
20
6.942743
30
0
11
-1.05
21
1.2858366715135E-16
31
0
210
0
220
0
230
1
40
0.998441
41
-1.0826715507832
42
-0.0626356312397281
0
ELLIPSE
5
179
100
AcDbEntity
8
1
62
256
6
ByLayer
370
18
48
1
60
0
100
AcDbEllipse
10
210.244235
20
7.89631
30
0
11
-1.16412544328357
21
1.42559541449135E-16
31
0
210
0
220
0
230
1
40
0.998441
41
-1.03506637051601
42
0.441871870330171
0
ELLIPSE
5
17A
100
AcDbEntity
8
1
62
256
6
ByLayer
370
18
48
1
60
0
100
AcDbEllipse
10
212.825
20
-9.758512
30
0
11
-0.95
21
1.16337603613126E-16
31
0
210
0
220
0
230
1
40
0.996493
41
0
42
1.65296867571279
0
ELLIPSE
5
17B
100
AcDbEntity
8
1
62
256
6
ByLayer
370
18
48
1
60
0
100
AcDbEllipse
10
212.825
20
-9.758512
30
0
11
-0.95
21
1.16337603613126E-16
31
0
210
0
220
0
230
1
40
0.996493
41
2.45260202951225
42
0
0
ELLIPSE
5
17C
100
AcDbEntity
8
1
62
256
6
ByLayer
370
18
48
1
60
0
100
AcDbEllipse
10
212.825
20
-10.175359
30
0
11
1.36794919243112
21
0
31
0
210
0
220
0
230
1
40
0.996493
41
2.69627193476762
42
2.91667449308549
0
ELLIPSE
5
17D
100
AcDbEntity
8
1
62
256
6
ByLayer
370
18
48
1
60
0
100
AcDbEllipse
10
212.825
20
-10.175359
30
0
11
1.36794919243112
21
0
31
0
210
0
220
0
230
1
40
0.996493
41
0.00019646481250772
42
0.152171036781648
0
ELLIPSE
5
17E
100
AcDbEntity
8
1
62
256
6
ByLayer
370
18
48
1
60
0
100
AcDbEllipse
10
212.825
20
-9.783615
30
0
11
1.25
21
0
31
0
210
0
220
0
230
1
40
0.996493
41
0.790306927161936
42
-2.83096760394238
0
ELLIPSE
5
17F
100
AcDbEntity
8
1
62
256
6
ByLayer
370
18
48
1
60
0
100
AcDbEllipse
10
210.046875
20
12.623966
30
0
11
-0.396875000000001
21
4.86015646673257E-17
31
0
210
0
220
0
230
1
40
0.998441
41
-1.39626340159544
42
0
0
ELLIPSE
5
180
100
AcDbEntity
8
1
62
256
6
ByLayer
370
18
48
1
60
0
100
AcDbEllipse
10
215.603125
20
13.602155
30
0
11
-0.396875
21
4.86015646673256E-17
31
0
210
0
220
0
230
1
40
0.998441
41
3.14159265358979
42
-1.39626340159544
0
ELLIPSE
5
181
100
AcDbEntity
8
1
62
256
6
ByLayer
370
18
48
1
60
0
100
AcDbEllipse
10
212.825
20
10.258518
30
0
11
-1.875
21
2.29613691341696E-16
31
0
210
0
220
0
230
1
40
0.998441
41
0
42
6.28318530717959
0
ELLIPSE
5
182
100
AcDbEntity
8
1
62
256
6
ByLayer
370
18
48
1
60
0
100
AcDbEllipse
10
210.046875
20
6.990799
30
0
11
-0.396875
21
4.86015646673256E-17
31
0
210
0
220
0
230
1
40
0.998441
41
0
42
1.74532925199435
0
ELLIPSE
5
183
100
AcDbEntity
8
1
62
256
6
ByLayer
370
18
48
1
60
0
100
AcDbEllipse
10
215.603125
20
7.968988
30
0
11
-0.396875000000001
21
4.86015646673257E-17
31
0
210
0
220
0
230
1
40
0.998441
41
1.74532925199435
42
-3.14159265358972
0
ELLIPSE
5
184
100
AcDbEntity
8
1
62
256
6
ByLayer
370
18
48
1
60
0
100
AcDbEllipse
10
212.825
20
10.296477
30
0
11
1.92255023212159
21
0
31
0
210
0
220
0
230
1
40
0.998441
41
0
42
6.28318530717959
0
ELLIPSE
5
185
100
AcDbEntity
8
1
62
256
6
ByLayer
370
18
48
1
60
0
100
AcDbEllipse
10
213.486119
20
2.55
30
0
11
-2.83180824673314E-16
21
1.76091832102836
31
0
210
0
220
0
230
1
40
0.104528
41
-0.79944646799865
42
-0.528173034235409
0
ELLIPSE
5
186
100
AcDbEntity
8
1
62
256
6
ByLayer
370
18
48
1
60
0
100
AcDbEllipse
10
213.486119
20
2.55
30
0
11
-2.83180824673314E-16
21
1.76091832102836
31
0
210
0
220
0
230
1
40
0.104528
41
-2.89384157039182
42
-1.84664401919529
0
ELLIPSE
5
187
100
AcDbEntity
8
1
62
256
6
ByLayer
370
18
48
1
60
0
100
AcDbEllipse
10
213.486119
20
2.55
30
0
11
-2.83180824673314E-16
21
1.76091832102836
31
0
210
0
220
0
230
1
40
0.104528
41
-1.84664401919529
42
-0.79944646799865
0
ELLIPSE
5
188
100
AcDbEntity
8
1
62
256
6
ByLayer
370
18
48
1
60
0
100
AcDbEllipse
10
213.486119
20
2.55
30
0
11
-2.83180824673314E-16
21
1.76091832102836
31
0
210
0
220
0
230
1
40
0.104528
41
0.580301634638691
42
1.2949486343945
0
ELLIPSE
5
189
100
AcDbEntity
8
1
62
256
6
ByLayer
370
18
48
1
60
0
100
AcDbEllipse
10
213.08831
20
2.55
30
0
11
-6.42918335756748E-16
21
-3.5
31
0
210
0
220
0
230
1
40
0.104528
41
-1.9557394952517
42
-1.09602310890811
0
ELLIPSE
5
18A
100
AcDbEntity
8
1
62
256
6
ByLayer
370
18
48
1
60
0
100
AcDbEllipse
10
213.486119
20
2.55
30
0
11
-2.83180824673314E-16
21
1.76091832102836
31
0
210
0
220
0
230
1
40
0.104528
41
2.34214618559114
42
-2.89384157039182
0
ELLIPSE
5
18B
100
AcDbEntity
8
1
62
256
6
ByLayer
370
18
48
1
60
0
100
AcDbEllipse
10
213.486119
20
2.55
30
0
11
-2.83180824673314E-16
21
1.76091832102836
31
0
210
0
220
0
230
1
40
0.104528
41
1.2949486343945
42
2.34214618559114
0
ELLIPSE
5
18C
100
AcDbEntity
8
1
62
256
6
ByLayer
370
18
48
1
60
0
100
AcDbEllipse
10
213.486119
20
2.55
30
0
11
-4.98524290425129E-16
21
3.1
31
0
210
0
220
0
230
1
40
0.104528
41
1.0927833393627
42
2.18438864876812
0
ELLIPSE
5
18D
100
AcDbEntity
8
1
62
256
6
ByLayer
370
18
48
1
60
0
100
AcDbEllipse
10
213.486119
20
2.55
30
0
11
-4.98524290425129E-16
21
3.1
31
0
210
0
220
0
230
1
40
0.104528
41
-3.0025768511005
42
-1.04075049288918
0
ELLIPSE
5
18E
100
AcDbEntity
8
1
62
256
6
ByLayer
370
18
48
1
60
0
100
AcDbEllipse
10
215.603125
20
-7.980581
30
0
11
0.396875000000001
21
0
31
0
210
0
220
0
230
1
40
0.996493
41
0
42
1.39626340159558
0
ELLIPSE
5
18F
100
AcDbEntity
8
1
62
256
6
ByLayer
370
18
48
1
60
0
100
AcDbEllipse
10
215.603125
20
-13.4035
30
0
11
0.104494264349958
21
0
31
0
210
0
220
0
230
1
40
0.996493
41
-1.74532925199457
42
2.72950245958679E-13
0
ELLIPSE
5
190
100
AcDbEntity
8
1
62
256
6
ByLayer
370
18
48
1
60
0
100
AcDbEllipse
10
215.603125
20
-7.781323
30
0
11
0.10449426434996
21
0
31
0
210
0
220
0
230
1
40
0.996493
41
0
42
1.39626340159578
0
ELLIPSE
5
191
100
AcDbEntity
8
1
62
256
6
ByLayer
370
18
48
1
60
0
100
AcDbEllipse
10
212.825
20
-10.12395
30
0
11
1.4
21
0
31
0
210
0
220
0
230
1
40
0.996493
41
2.57394580267479
42
2.89762776336845
0
ELLIPSE
5
192
100
AcDbEntity
8
1
62
256
6
ByLayer
370
18
48
1
60
0
100
AcDbEllipse
10
212.825
20
-10.12395
30
0
11
1.4
21
0
31
0
210
0
220
0
230
1
40
0.996493
41
0
42
0.251916449885975
0
ELLIPSE
5
193
100
AcDbEntity
8
1
62
256
6
ByLayer
370
18
48
1
60
0
100
AcDbEllipse
10
210.046875
20
-12.626477
30
0
11
0.396875000000001
21
0
31
0
210
0
220
0
230
1
40
0.996493
41
3.14159265358979
42
-1.74532925199435
0
ELLIPSE
5
194
100
AcDbEntity
8
1
62
256
6
ByLayer
370
18
48
1
60
0
100
AcDbEllipse
10
210.046875
20
-12.427219
30
0
11
0.104494264349959
21
0
31
0
210
0
220
0
230
1
40
0.996493
41
3.14159265358979
42
-1.74532925199402
0
ELLIPSE
5
195
100
AcDbEntity
8
1
62
256
6
ByLayer
370
18
48
1
60
0
100
AcDbEllipse
10
215.603125
20
-13.602758
30
0
11
0.396875
21
0
31
0
210
0
220
0
230
1
40
0.996493
41
-1.74532925199435
42
0
0
ELLIPSE
5
196
100
AcDbEntity
8
1
62
256
6
ByLayer
370
18
48
1
60
0
100
AcDbEllipse
10
212.825
20
-10.104271
30
0
11
-1.4
21
1.71444889535133E-16
31
0
210
0
220
0
230
1
40
0.996493
41
2.87946592479143
42
-2.87946592940206
0
ELLIPSE
5
197
100
AcDbEntity
8
1
62
256
6
ByLayer
370
18
48
1
60
0
100
AcDbEllipse
10
212.825
20
-10.104271
30
0
11
-1.4
21
1.71444889535133E-16
31
0
210
0
220
0
230
1
40
0.996493
41
-0.589735757206782
42
-0.236699066159053
0
ELLIPSE
5
198
100
AcDbEntity
8
1
62
256
6
ByLayer
370
18
48
1
60
0
100
AcDbEllipse
10
209.397538
20
-2.55
30
0
11
-3.85751001454049E-16
21
-2.1
31
0
210
0
220
0
230
1
40
0.104528
41
0.911748958556781
42
2.22994166155409
0
ELLIPSE
5
199
100
AcDbEntity
8
1
62
256
6
ByLayer
370
18
48
1
60
0
100
AcDbEllipse
10
209.146305
20
-2.55
30
0
11
-7.34763812293426E-16
21
-4
31
0
210
0
220
0
230
1
40
0.104528
41
0.486946991249987
42
2.65474423259391
0
ELLIPSE
5
19A
100
AcDbEntity
8
1
62
256
6
ByLayer
370
18
48
1
60
0
100
AcDbEllipse
10
200.6945
20
0
30
0
11
3.86144697022971
21
-11.3617443050478
31
0
210
0
220
0
230
-1
40
1
41
0.00848835084408779
42
0.03116851726036
0
ELLIPSE
5
19B
100
AcDbEntity
8
1
62
256
6
ByLayer
370
18
48
1
60
0
100
AcDbEllipse
10
209.397538
20
-2.55
30
0
11
-5.62850005318694E-16
21
3.5
31
0
210
0
220
0
230
1
40
0.104528
41
-3.14159148265151
42
-2.42772522933056E-15
0
ELLIPSE
5
19C
100
AcDbEntity
8
1
62
256
6
ByLayer
370
18
48
1
60
0
100
AcDbEllipse
10
212.88831
20
-2.55
30
0
11
-6.42918335756748E-16
21
-3.5
31
0
210
0
220
0
230
1
40
0.104528
41
0
42
3.1415914826518
0
ELLIPSE
5
19D
100
AcDbEntity
8
1
62
256
6
ByLayer
370
18
48
1
60
0
100
AcDbEllipse
10
209.397538
20
-2.55
30
0
11
-3.53791431914607E-16
21
2.2
31
0
210
0
220
0
230
1
40
0.104528
41
-2.53261476241902
42
-0.609076554078588
0
ELLIPSE
5
19E
100
AcDbEntity
8
1
62
256
6
ByLayer
370
18
48
1
60
0
100
AcDbEllipse
10
213.286119
20
-2.55
30
0
11
-4.98524290425129E-16
21
3.1
31
0
210
0
220
0
230
1
40
0.104528
41
-2.88643649111218
42
-0.415671763300723
0
ELLIPSE
5
19F
100
AcDbEntity
8
1
62
256
6
ByLayer
370
18
48
1
60
0
100
AcDbEllipse
10
206.8657
20
-24.221371
30
0
11
8.86512253454428
21
9.20154981104963
31
0
210
0
220
0
230
-1
40
0.878941
41
-0.778869085342616
42
-0.677769020141143
0
ELLIPSE
5
1A0
100
AcDbEntity
8
1
62
256
6
ByLayer
370
18
48
1
60
0
100
AcDbEllipse
10
206.8657
20
-23.985016
30
0
11
12
21
0
31
0
210
0
220
0
230
1
40
0.996493
41
1.39626340159547
42
1.41733638399707
0
ELLIPSE
5
1A1
100
AcDbEntity
8
1
62
256
6
ByLayer
370
18
48
1
60
0
100
AcDbEllipse
10
204.454585
20
-11.588435
30
0
11
0.499995082294943
21
-0.0264820709525903
31
0
210
0
220
0
230
-1
40
0.083739
41
-0.728746823082247
42
2.15104644270794
0
ELLIPSE
5
1A2
100
AcDbEntity
8
1
62
256
6
ByLayer
370
18
48
1
60
0
100
AcDbEllipse
10
182.900546
20
-10.899914
30
0
11
34.3460452243652
21
-1.79372150649095
31
0
210
0
220
0
230
-1
40
0.004373
41
0.802318555701255
42
1.04944074123776
0
ELLIPSE
5
1A3
100
AcDbEntity
8
1
62
256
6
ByLayer
370
18
48
1
60
0
100
AcDbEllipse
10
212.677159
20
-9.803936
30
0
11
1.25
21
0
31
0
210
0
220
0
230
1
40
0.996493
41
1.64815797016279
42
3.01003840048378
0
ELLIPSE
5
1A4
100
AcDbEntity
8
1
62
256
6
ByLayer
370
18
48
1
60
0
100
AcDbEllipse
10
215.001878
20
-2.999914
30
0
11
0.0382277656159906
21
-4.24999805083078
31
0
210
0
220
0
230
-1
40
0.106476
41
-0.984596209246533
42
0.000957729054557611
0
ELLIPSE
5
1A5
100
AcDbEntity
8
1
62
256
6
ByLayer
370
18
48
1
60
0
100
AcDbEllipse
10
212.677159
20
-9.476839
30
0
11
1.25
21
0
31
0
210
0
220
0
230
1
40
0.996493
41
0
42
6.28318530717959
0
ELLIPSE
5
1A6
100
AcDbEntity
8
1
62
256
6
ByLayer
370
18
48
1
60
0
100
AcDbEllipse
10
212.677159
20
-9.476839
30
0
11
1.5
21
0
31
0
210
0
220
0
230
1
40
0.996493
41
0
42
3.14159265358977
0
ELLIPSE
5
1A7
100
AcDbEntity
8
1
62
256
6
ByLayer
370
18
48
1
60
0
100
AcDbEllipse
10
188
20
-11.589798
30
0
11
0.999999999999986
21
0
31
0
210
0
220
0
230
1
40
0.374607
41
0
42
6.28318530717959
0
ELLIPSE
5
1A8
100
AcDbEntity
8
1
62
256
6
ByLayer
370
18
48
1
60
0
100
AcDbEllipse
10
188
20
4.682582
30
0
11
0.999999999999998
21
0
31
0
210
0
220
0
230
1
40
0.927184
41
0
42
6.28318530717959
0
ELLIPSE
5
1A9
100
AcDbEntity
8
1
62
256
6
ByLayer
370
18
48
1
60
0
100
AcDbEllipse
10
256.260187
20
0
30
0
11
61.2601873440063
21
0
31
0
210
0
220
0
230
1
40
0.204048
41
2.60408114646012
42
-2.59913011052368
0
ELLIPSE
5
1AA
100
AcDbEntity
8
1
62
256
6
ByLayer
370
18
48
1
60
0
100
AcDbEllipse
10
-0.928203
20
0
30
0
11
7.49393430382562
21
15.7933993222002
31
0
210
0
220
0
230
1
40
0.341999
41
-1.08757920120051
42
-0.161466571197732
0
ELLIPSE
5
1AB
100
AcDbEntity
8
1
62
256
6
ByLayer
370
18
48
1
60
0
100
AcDbEllipse
10
12.928203
20
0
30
0
11
-7.49393430382501
21
15.7933993221995
31
0
210
0
220
0
230
1
40
0.341999
41
0.161466571197736
42
1.08757920120055
0
ELLIPSE
5
1AC
100
AcDbEntity
8
1
62
256
6
ByLayer
370
18
48
1
60
0
100
AcDbEllipse
10
-0.928203
20
0
30
0
11
-7.49393430382618
21
15.7933993222009
31
0
210
0
220
0
230
1
40
0.341999
41
-2.98012608239207
42
-2.05401345238932
0
ELLIPSE
5
1AD
100
AcDbEntity
8
1
62
256
6
ByLayer
370
18
48
1
60
0
100
AcDbEllipse
10
12.928203
20
0
30
0
11
7.49393430382494
21
15.7933993221993
31
0
210
0
220
0
230
1
40
0.341999
41
2.05401345238924
42
2.98012608239206
0
POINT
5
6C
100
AcDbEntity
8
80
62
256
6
ByLayer
370
13
48
1
60
0
100
AcDbPoint
10
0
20
0
30
0
39
0
210
0
220
0
230
1
50
360
0
POINT
5
6E
100
AcDbEntity
8
81
62
256
6
ByLayer
370
18
48
1
60
0
100
AcDbPoint
10
216
20
13.998411
30
0
39
0
210
0
220
0
230
1
50
360
0
SPLINE
5
1AE
100
AcDbEntity
8
1
62
256
6
ByLayer
370
18
48
1
60
0
100
AcDbSpline
70
4
71
3
72
12
73
8
40
0
40
0
40
0
40
0
40
0.195644886667
40
0.461106689606269
40
0.686297900388797
40
0.862503997484676
40
1
40
1
40
1
40
1
41
1
10
213.404443592292
20
0.374300148786176
30
0
41
1
10
213.395722585356
20
0.422853694645767
30
0
41
1
10
213.369617227358
20
0.532374369600518
30
0
41
1
10
213.319620933398
20
0.658600362456752
30
0
41
1
10
213.235944686143
20
0.798537771427334
30
0
41
1
10
213.081824090331
20
0.922223814117558
30
0
41
1
10
212.961547068972
20
0.940751435330526
30
0
41
1
10
212.902351128356
20
0.942627564290035
30
0
0
SPLINE
5
1AF
100
AcDbEntity
8
1
62
256
6
ByLayer
370
18
48
1
60
0
100
AcDbSpline
70
4
71
3
72
12
73
8
40
0
40
0
40
0
40
0
40
0.0375033345652268
40
0.269917180530139
40
0.472480228259742
40
0.707187381650697
40
1
40
1
40
1
40
1
41
1
10
212.874646273848
20
-6.04352739010346
30
0
41
1
10
212.885294041872
20
-6.04623648958329
30
0
41
1
10
212.961113867767
20
-6.0617705480384
30
0
41
1
10
213.101702097889
20
-6.00440186163451
30
0
41
1
10
213.229482875874
20
-5.90087391333282
30
0
41
1
10
213.304433817555
20
-5.78533442650144
30
0
41
1
10
213.341179607185
20
-5.70882357712628
30
0
41
1
10
213.352541839195
20
-5.66761987070441
30
0
0
SPLINE
5
1B0
100
AcDbEntity
8
1
62
256
6
ByLayer
370
18
48
1
60
0
100
AcDbSpline
70
4
71
3
72
16
73
12
40
0
40
0
40
0
40
0
40
0.0216951920078262
40
0.139864363951633
40
0.263364857398171
40
0.393611313551046
40
0.519401084984698
40
0.643645614540053
40
0.767265550341425
40
0.890641705540634
40
1
40
1
40
1
40
1
41
1
10
213.540560683256
20
-0.60069973707698
30
0
41
1
10
213.546236524891
20
-0.586588821089208
30
0
41
1
10
213.58033014664
20
-0.495374688070683
30
0
41
1
10
213.6286415706
20
-0.307667372659012
30
0
41
1
10
213.685904134274
20
0.0388977950188973
30
0
41
1
10
213.734327273067
20
0.481593477405397
30
0
41
1
10
213.772275604011
20
1.00291939080637
30
0
41
1
10
213.798254107698
20
1.5724559121096
30
0
41
1
10
213.812089141938
20
2.1738389012454
30
0
41
1
10
213.813419216514
20
2.76604221049365
30
0
41
1
10
213.806965764588
20
3.14383858661086
30
0
41
1
10
213.802314287568
20
3.32076783013423
30
0
0
SPLINE
5
1B1
100
AcDbEntity
8
1
62
256
6
ByLayer
370
18
48
1
60
0
100
AcDbSpline
70
4
71
3
72
9
73
5
40
0
40
0
40
0
40
0
40
0.370216014669427
40
1
40
1
40
1
40
1
41
1
10
213.802314287568
20
3.32076783013423
30
0
41
1
10
213.799567026463
20
3.42455913220164
30
0
41
1
10
213.790729061718
20
3.69935938058882
30
0
41
1
10
213.777931667278
20
3.96249177532536
30
0
41
1
10
213.768418458827
20
4.12061459240005
30
0
0
SPLINE
5
1B2
100
AcDbEntity
8
1
62
256
6
ByLayer
370
18
48
1
60
0
100
AcDbSpline
70
4
71
3
72
9
73
5
40
0
40
0
40
0
40
0
40
0.126637982734902
40
1
40
1
40
1
40
1
41
1
10
213.704573992373
20
-8.89855776788073
30
0
41
1
10
213.716076401211
20
-8.91479195487648
30
0
41
1
10
213.803393239925
20
-9.04456722970963
30
0
41
1
10
213.865358905229
20
-9.19186908476689
30
0
41
1
10
213.896328598774
20
-9.32582827969384
30
0
0
SPLINE
5
1B3
100
AcDbEntity
8
1
62
256
6
ByLayer
370
18
48
1
60
0
100
AcDbSpline
70
4
71
3
72
9
73
5
40
0
40
0
40
0
40
0
40
0.509222234628983
40
1
40
1
40
1
40
1
41
1
10
211.477916982623
20
-9.73715265472117
30
0
41
1
10
211.498900342547
20
-9.66689933461925
30
0
41
1
10
211.553534921772
20
-9.53177090123972
30
0
41
1
10
211.626120475458
20
-9.40594953919521
30
0
41
1
10
211.666019572125
20
-9.34726655044983
30
0
0
SPLINE
5
1B4
100
AcDbEntity
8
1
62
256
6
ByLayer
370
18
48
1
60
0
100
AcDbSpline
70
4
71
3
72
8
73
4
40
0
40
0
40
0
40
0
40
1
40
1
40
1
40
1
41
1
10
214.215580377131
20
-10.0298935639681
30
0
41
1
10
214.215955140442
20
-10.0669954569985
30
0
41
1
10
214.214473556985
20
-10.1043731753496
30
0
41
1
10
214.211265684576
20
-10.1421104391464
30
0
0
SPLINE
5
1B5
100
AcDbEntity
8
1
62
256
6
ByLayer
370
18
48
1
60
0
100
AcDbSpline
70
4
71
3
72
28
73
24
40
0
40
0
40
0
40
0
40
0.0150369069045381
40
0.0150369069045381
40
0.0981186418892346
40
0.0981186418892346
40
0.181219540015324
40
0.181219540015324
40
0.295253230617654
40
0.295253230617654
40
0.36736442676234
40
0.36736442676234
40
0.444270175322396
40
0.444270175322396
40
0.540606423814198
40
0.540606423814198
40
0.657731681456485
40
0.657731681456485
40
0.774746419986139
40
0.774746419986139
40
0.891711459272015
40
0.891711459272015
40
1
40
1
40
1
40
1
41
1
10
212.295954791631
20
11.0443295885558
30
0
41
1
10
212.295264871176
20
11.0456390924385
30
0
41
1
10
212.294537183873
20
11.0469273855844
30
0
41
1
10
212.289593997627
20
11.0550846030976
30
0
41
1
10
212.284169237898
20
11.0613190937262
30
0
41
1
10
212.271370670024
20
11.0712251169406
30
0
41
1
10
212.263841964409
20
11.0750062657497
30
0
41
1
10
212.245002805847
20
11.0806906005743
30
0
41
1
10
212.233011456616
20
11.0815445551416
30
0
41
1
10
212.213701293673
20
11.0800442695599
30
0
41
1
10
212.206134280599
20
11.0787543798202
30
0
41
1
10
212.190722373987
20
11.0750083185007
30
0
41
1
10
212.182843180946
20
11.07246995098
30
0
41
1
10
212.165455989514
20
11.0657565202102
30
0
41
1
10
212.155988868095
20
11.0613128531797
30
0
41
1
10
212.135605857761
20
11.0503529309464
30
0
41
1
10
212.124765177384
20
11.0435689838171
30
0
41
1
10
212.103868722609
20
11.0289127201686
30
0
41
1
10
212.093777539801
20
11.021014805681
30
0
41
1
10
212.074358074714
20
11.0043483313713
30
0
41
1
10
212.065006767365
20
10.9955594553472
30
0
41
1
10
212.047736945565
20
10.9779217286115
30
0
41
1
10
212.039749264773
20
10.9691103328716
30
0
41
1
10
212.032105699151
20
10.9600152895462
30
0
0
SPLINE
5
1B6
100
AcDbEntity
8
1
62
256
6
ByLayer
370
18
48
1
60
0
100
AcDbSpline
70
4
71
3
72
8
73
4
40
0
40
0
40
0
40
0
40
1
40
1
40
1
40
1
41
1
10
211.907965194714
20
10.2107367010992
30
0
41
1
10
211.914029118485
20
10.2133550240757
30
0
41
1
10
211.92009489768
20
10.2159744205565
30
0
41
1
10
211.926162648514
20
10.2185949587148
30
0
0
SPLINE
5
1B7
100
AcDbEntity
8
1
62
256
6
ByLayer
370
18
48
1
60
0
100
AcDbSpline
70
4
71
3
72
8
73
4
40
0
40
0
40
0
40
0
40
1
40
1
40
1
40
1
41
1
10
212.089553178601
20
9.77038312609153
30
0
41
1
10
212.083087701994
20
9.76885362667224
30
0
41
1
10
212.076624326261
20
9.76732491441135
30
0
41
1
10
212.07016292757
20
9.76579694203224
30
0
0
SPLINE
5
1B8
100
AcDbEntity
8
1
62
256
6
ByLayer
370
18
48
1
60
0
100
AcDbSpline
70
4
71
3
72
28
73
24
40
0
40
0
40
0
40
0
40
0.0150369069020851
40
0.0150369069020851
40
0.0981186418858948
40
0.0981186418858948
40
0.181219540011693
40
0.181219540011693
40
0.295253230613863
40
0.295253230613863
40
0.3673644267586
40
0.3673644267586
40
0.444270175317947
40
0.444270175317947
40
0.540606423808457
40
0.540606423808457
40
0.657731681451443
40
0.657731681451443
40
0.774746419981589
40
0.774746419981589
40
0.891711459267967
40
0.891711459267967
40
1
40
1
40
1
40
1
41
1
10
212.745959838714
20
11.2078626461575
30
0
41
1
10
212.745675012973
20
11.2093193625603
30
0
41
1
10
212.745432861676
20
11.2107841008107
30
0
41
1
10
212.744160599971
20
11.2202753422824
30
0
41
1
10
212.744468740721
20
11.2285931845305
30
0
41
1
10
212.748208703625
20
11.2445093547956
30
0
41
1
10
212.751692282413
20
11.2522923976989
30
0
41
1
10
212.762781180313
20
11.2688526696114
30
0
41
1
10
212.771575361829
20
11.2772601425622
30
0
41
1
10
212.787547239788
20
11.2885814465712
30
0
41
1
10
212.794248012538
20
11.2924765089926
30
0
41
1
10
212.80860135431
20
11.2995472198626
30
0
41
1
10
212.816332448969
20
11.3026816733337
30
0
41
1
10
212.83409558409
20
11.3087419668015
30
0
41
1
10
212.844265599095
20
11.3114344885385
30
0
41
1
10
212.86704413583
20
11.3161595898597
30
0
41
1
10
212.879763801416
20
11.3179375365113
30
0
41
1
10
212.905285149018
20
11.320149628449
30
0
41
1
10
212.918130534789
20
11.3205869253445
30
0
41
1
10
212.943783649803
20
11.3202999491882
30
0
41
1
10
212.956622135318
20
11.3195749042216
30
0
41
1
10
212.981227408823
20
11.3171547009712
30
0
41
1
10
212.993023924353
20
11.3155329359649
30
0
41
1
10
213.004734546293
20
11.31347125702
30
0
0
SPLINE
5
1B9
100
AcDbEntity
8
1
62
256
6
ByLayer
370
18
48
1
60
0
100
AcDbSpline
70
4
71
3
72
26
73
22
40
0
40
0
40
0
40
0
40
0.0086569148801343
40
0.0086569148801343
40
0.125591395712075
40
0.125591395712075
40
0.242553460374228
40
0.242553460374228
40
0.359581429954885
40
0.359581429954885
40
0.476756419376221
40
0.476756419376221
40
0.594287938353993
40
0.594287938353993
40
0.734087980384716
40
0.734087980384716
40
0.81681877365138
40
0.81681877365138
40
0.904422913955439
40
0.904422913955439
40
1
40
1
40
1
40
1
41
1
10
212.032105699151
20
10.9600152895462
30
0
41
1
10
212.03149410164
20
10.9592875525006
30
0
41
1
10
212.030884670894
20
10.958557945133
30
0
41
1
10
212.022081284849
20
10.9479538456186
30
0
41
1
10
212.01427381164
20
10.9377354085294
30
0
41
1
10
211.999546486647
20
10.9166954413234
30
0
41
1
10
211.992611716784
20
10.905852892209
30
0
41
1
10
211.979769846967
20
10.8836001179598
30
0
41
1
10
211.973846386567
20
10.8721622521344
30
0
41
1
10
211.963264137527
20
10.848755461678
30
0
41
1
10
211.958585682633
20
10.8367438557103
30
0
41
1
10
211.950902830468
20
10.8122683076538
30
0
41
1
10
211.947875457485
20
10.7997247001855
30
0
41
1
10
211.943909878089
20
10.7722062873013
30
0
41
1
10
211.943427298081
20
10.7568899588787
30
0
41
1
10
211.947015645932
20
10.7337656476734
30
0
41
1
10
211.949367510669
20
10.7253038352649
30
0
41
1
10
211.956556391874
20
10.7095098577068
30
0
41
1
10
211.961651460373
20
10.7020981479819
30
0
41
1
10
211.974469490779
20
10.6896861402696
30
0
41
1
10
211.982569843193
20
10.6847744969545
30
0
41
1
10
211.991122766284
20
10.6816113736667
30
0
0
SPLINE
5
1BA
100
AcDbEntity
8
1
62
256
6
ByLayer
370
18
48
1
60
0
100
AcDbSpline
70
4
71
3
72
30
73
26
40
0
40
0
40
0
40
0
40
0.0212218158487518
40
0.0212218158487518
40
0.126059559531388
40
0.126059559531388
40
0.201107055764783
40
0.201107055764783
40
0.294112283016312
40
0.294112283016312
40
0.397100605356959
40
0.397100605356959
40
0.500042881042598
40
0.500042881042598
40
0.583971495243447
40
0.583971495243447
40
0.666565148490927
40
0.666565148490927
40
0.767859984422824
40
0.767859984422824
40
0.838720561298834
40
0.838720561298834
40
0.909748878403698
40
0.909748878403698
40
1
40
1
40
1
40
1
41
1
10
213.337603456751
20
9.55066132190564
30
0
41
1
10
213.334931030995
20
9.552432238515
30
0
41
1
10
213.332146250871
20
9.5540751960321
30
0
41
1
10
213.315295267478
20
9.56300369571238
30
0
41
1
10
213.299162936784
20
9.5676252743412
30
0
41
1
10
213.270687198025
20
9.57224215761011
30
0
41
1
10
213.258356333482
20
9.57319586476677
30
0
41
1
10
213.230483851233
20
9.57360149379269
30
0
41
1
10
213.214759514814
20
9.57264237788149
30
0
41
1
10
213.181658466884
20
9.568641420559
30
0
41
1
10
213.164158407
20
9.56536957173631
30
0
41
1
10
213.129583745979
20
9.55688963148197
30
0
41
1
10
213.112399120285
20
9.55165343566915
30
0
41
1
10
213.081901693689
20
9.5405705879266
30
0
41
1
10
213.068397444356
20
9.534990974717
30
0
41
1
10
213.042328272654
20
9.52282888133158
30
0
41
1
10
213.029699960276
20
9.51624003032708
30
0
41
1
10
213.002673775721
20
9.50041259103494
30
0
41
1
10
212.988418966311
20
9.49085852274601
30
0
41
1
10
212.965984145555
20
9.47322928845028
30
0
41
1
10
212.957217402403
20
9.46553105703163
30
0
41
1
10
212.941093269662
20
9.44926907001303
30
0
41
1
10
212.93368359399
20
9.44065081492772
30
0
41
1
10
212.919289196267
20
9.42015861439984
30
0
41
1
10
212.912770201544
20
9.40778158044662
30
0
41
1
10
212.909230386212
20
9.39498938339369
30
0
0
SPLINE
5
1BB
100
AcDbEntity
8
1
62
256
6
ByLayer
370
18
48
1
60
0
100
AcDbSpline
70
4
71
3
72
8
73
4
40
0
40
0
40
0
40
0
40
1
40
1
40
1
40
1
41
1
10
212.909230386212
20
9.39498938339369
30
0
41
1
10
212.90749975994
20
9.38873524010984
30
0
41
1
10
212.905769696014
20
9.38248341919711
30
0
41
1
10
212.904040161287
20
9.37623378288862
30
0
0
SPLINE
5
1BC
100
AcDbEntity
8
1
62
256
6
ByLayer
370
18
48
1
60
0
100
AcDbSpline
70
4
71
3
72
30
73
26
40
0
40
0
40
0
40
0
40
0.0212218158488044
40
0.0212218158488044
40
0.126059559531388
40
0.126059559531388
40
0.201107055764847
40
0.201107055764847
40
0.294112283016338
40
0.294112283016338
40
0.397100605357008
40
0.397100605357008
40
0.500042881042586
40
0.500042881042586
40
0.583971495243467
40
0.583971495243467
40
0.666565148490922
40
0.666565148490922
40
0.767859984422831
40
0.767859984422831
40
0.838720561298834
40
0.838720561298834
40
0.909748878403702
40
0.909748878403702
40
1
40
1
40
1
40
1
41
1
10
213.211233894736
20
11.1050658142651
30
0
41
1
10
213.21094852467
20
11.1017216662804
30
0
41
1
10
213.210831575736
20
11.0983465182676
30
0
41
1
10
213.211027399402
20
11.0784724152791
30
0
41
1
10
213.214716095668
20
11.0615745930664
30
0
41
1
10
213.224398558349
20
11.0336913218717
30
0
41
1
10
213.229527713128
20
11.0221907512979
30
0
41
1
10
213.242696264955
20
10.9971681363077
30
0
41
1
10
213.251194253216
20
10.9837121342577
30
0
41
1
10
213.270877717516
20
10.9565074769145
30
0
41
1
10
213.282331298576
20
10.94277914914
30
0
41
1
10
213.306794995161
20
10.9168138112054
30
0
41
1
10
213.319883954749
20
10.9044947746704
30
0
41
1
10
213.344745684698
20
10.8836658341884
30
0
41
1
10
213.356367432268
20
10.8748307163068
30
0
41
1
10
213.380069473892
20
10.8585750262078
30
0
41
1
10
213.392186270058
20
10.8511015845758
30
0
41
1
10
213.419685043452
20
10.8360914168539
30
0
41
1
10
213.435284052425
20
10.828861940257
30
0
41
1
10
213.462175721333
20
10.8189401569002
30
0
41
1
10
213.473414868055
20
10.8155175769216
30
0
41
1
10
213.495978799418
20
10.8103922565005
30
0
41
1
10
213.507378362911
20
10.8086739144447
30
0
41
1
10
213.532889519205
20
10.8074064818173
30
0
41
1
10
213.547222364099
20
10.8085423306885
30
0
41
1
10
213.560446821399
20
10.8124982704988
30
0
0
SPLINE
5
1BD
100
AcDbEntity
8
1
62
256
6
ByLayer
370
18
48
1
60
0
100
AcDbSpline
70
4
71
3
72
30
73
26
40
0
40
0
40
0
40
0
40
0.0212218158488034
40
0.0212218158488034
40
0.126059559531392
40
0.126059559531392
40
0.201107055764802
40
0.201107055764802
40
0.294112283016345
40
0.294112283016345
40
0.397100605357013
40
0.397100605357013
40
0.500042881042593
40
0.500042881042593
40
0.583971495243471
40
0.583971495243471
40
0.666565148490925
40
0.666565148490925
40
0.767859984422833
40
0.767859984422833
40
0.838720561298835
40
0.838720561298835
40
0.909748878403703
40
0.909748878403703
40
1
40
1
40
1
40
1
41
1
10
212.438766105265
20
9.47781558232532
30
0
41
1
10
212.43905147533
20
9.48096251729288
30
0
41
1
10
212.439168424265
20
9.48414334621594
30
0
41
1
10
212.438972600598
20
9.50289847857528
30
0
41
1
10
212.435283904332
20
9.51894588906674
30
0
41
1
10
212.425601441651
20
9.54555906923366
30
0
41
1
10
212.420472286872
20
9.5565776052959
30
0
41
1
10
212.407303735046
20
9.58064134021953
30
0
41
1
10
212.398805746784
20
9.59364518443539
30
0
41
1
10
212.379122282484
20
9.62007186150868
30
0
41
1
10
212.367668701424
20
9.6334903402813
30
0
41
1
10
212.343205004839
20
9.65904306386483
30
0
41
1
10
212.330116045251
20
9.67125807761886
30
0
41
1
10
212.305254315302
20
9.69208701810084
30
0
41
1
10
212.293632567732
20
9.70099128691078
30
0
41
1
10
212.269930526109
20
9.71751981163555
30
0
41
1
10
212.257813729942
20
9.72519527953921
30
0
41
1
10
212.230314956548
20
9.74079875465469
30
0
41
1
10
212.214715947575
20
9.74845392128498
30
0
41
1
10
212.187824278667
20
9.75925894412524
30
0
41
1
10
212.176585131945
20
9.76309310880458
30
0
41
1
10
212.154021200582
20
9.76913285803914
30
0
41
1
10
212.142621637089
20
9.77135718969771
30
0
41
1
10
212.117110480795
20
9.77386854753763
30
0
41
1
10
212.102777635901
20
9.77351155744907
30
0
41
1
10
212.089553178601
20
9.77038312609153
30
0
0
SPLINE
5
1BE
100
AcDbEntity
8
1
62
256
6
ByLayer
370
18
48
1
60
0
100
AcDbSpline
70
4
71
3
72
28
73
24
40
0
40
0
40
0
40
0
40
0.0150369069021126
40
0.0150369069021126
40
0.0981186418858807
40
0.0981186418858807
40
0.181219540011661
40
0.181219540011661
40
0.295253230613783
40
0.295253230613783
40
0.36736442675854
40
0.36736442675854
40
0.444270175317881
40
0.444270175317881
40
0.540606423808327
40
0.540606423808327
40
0.657731681451321
40
0.657731681451321
40
0.774746419981572
40
0.774746419981572
40
0.891711459268008
40
0.891711459268008
40
1
40
1
40
1
40
1
41
1
10
213.658877233717
20
9.90248505537949
30
0
41
1
10
213.660243139381
20
9.9020722060726
30
0
41
1
10
213.661594547144
20
9.90161865150856
30
0
41
1
10
213.670203701975
20
9.89842183588468
30
0
41
1
10
213.677040361966
20
9.89438381602707
30
0
41
1
10
213.688553870216
20
9.88392139394028
30
0
41
1
10
213.693360115507
20
9.87736842847977
30
0
41
1
10
213.701752867942
20
9.86023810581531
30
0
41
1
10
213.70443530129
20
9.84879849333754
30
0
41
1
10
213.705981476731
20
9.82982494938761
30
0
41
1
10
213.705910306409
20
9.82225510797753
30
0
41
1
10
213.704684116606
20
9.806624376858
30
0
41
1
10
213.703455000466
20
9.79851463291851
30
0
41
1
10
213.699665998208
20
9.78040875787667
30
0
41
1
10
213.696839649431
20
9.77040150945425
30
0
41
1
10
213.689402861988
20
9.74859535461303
30
0
41
1
10
213.684520812869
20
9.73681931819272
30
0
41
1
10
213.673573557205
20
9.71382770231673
30
0
41
1
10
213.667489098244
20
9.70257298954073
30
0
41
1
10
213.654350020367
20
9.68064486161057
30
0
41
1
10
213.647279301702
20
9.66994532828011
30
0
41
1
10
213.632849403591
20
9.64992833824999
30
0
41
1
10
213.625537866471
20
9.6405504752388
30
0
41
1
10
213.61789430085
20
9.63145543191308
30
0
0
SPLINE
5
1BF
100
AcDbEntity
8
1
62
256
6
ByLayer
370
18
48
1
60
0
100
AcDbSpline
70
4
71
3
72
8
73
4
40
0
40
0
40
0
40
0
40
1
40
1
40
1
40
1
41
1
10
213.212989596917
20
11.1256411019796
30
0
41
1
10
213.212404545607
20
11.118784536143
30
0
41
1
10
213.211819315283
20
11.1119261447089
30
0
41
1
10
213.211233894736
20
11.1050658142651
30
0
0
SPLINE
5
1C0
100
AcDbEntity
8
1
62
256
6
ByLayer
370
18
48
1
60
0
100
AcDbSpline
70
4
71
3
72
26
73
22
40
0
40
0
40
0
40
0
40
0.0086569148768801
40
0.0086569148768801
40
0.125591395709216
40
0.125591395709216
40
0.242553460371839
40
0.242553460371839
40
0.359581429952917
40
0.359581429952917
40
0.47675641937469
40
0.47675641937469
40
0.594287938352869
40
0.594287938352869
40
0.734087980384768
40
0.734087980384768
40
0.816818773651367
40
0.816818773651367
40
0.904422913955489
40
0.904422913955489
40
1
40
1
40
1
40
1
41
1
10
211.852371152857
20
9.94227939325395
30
0
41
1
10
211.852045728619
20
9.94317209489486
30
0
41
1
10
211.851722964375
20
9.94406571909536
30
0
41
1
10
211.847082480255
20
9.9570337975976
30
0
41
1
10
211.843242735129
20
9.96928237857043
30
0
41
1
10
211.836597503406
20
9.99400677112652
30
0
41
1
10
211.833785189397
20
10.0065073766216
30
0
41
1
10
211.829313224828
20
10.0316486798944
30
0
41
1
10
211.827647644733
20
10.0443208013661
30
0
41
1
10
211.825677264909
20
10.0696781946201
30
0
41
1
10
211.825368542083
20
10.082409929719
30
0
41
1
10
211.826465998376
20
10.1076523423013
30
0
41
1
10
211.827877673134
20
10.1202445717025
30
0
41
1
10
211.833468841455
20
10.1468406593604
30
0
41
1
10
211.838188387765
20
10.1609810536421
30
0
41
1
10
211.849332312868
20
10.1806397373917
30
0
41
1
10
211.854377082939
20
10.1874263370386
30
0
41
1
10
211.86639696857
20
10.19898762713
30
0
41
1
10
211.87363893468
20
10.2037325940694
30
0
41
1
10
211.889751751687
20
10.2099771143548
30
0
41
1
10
211.898943528564
20
10.2112455954286
30
0
41
1
10
211.907965194714
20
10.2107367010992
30
0
0
SPLINE
5
1C1
100
AcDbEntity
8
1
62
256
6
ByLayer
370
18
48
1
60
0
100
AcDbSpline
70
4
71
3
72
28
73
24
40
0
40
0
40
0
40
0
40
0.0150369069020732
40
0.0150369069020732
40
0.0981186418858747
40
0.0981186418858747
40
0.181219540011657
40
0.181219540011657
40
0.295253230613742
40
0.295253230613742
40
0.367364426758577
40
0.367364426758577
40
0.444270175317952
40
0.444270175317952
40
0.540606423808405
40
0.540606423808405
40
0.657731681451346
40
0.657731681451346
40
0.774746419981662
40
0.774746419981662
40
0.891711459268048
40
0.891711459268048
40
1
40
1
40
1
40
1
41
1
10
212.07016292757
20
9.76579694203224
30
0
41
1
10
212.069081847646
20
9.76489152929372
30
0
41
1
10
212.067972591181
20
9.76401921035182
30
0
41
1
10
212.060635698055
20
9.75862220878031
30
0
41
1
10
212.053490897313
20
9.75511707217055
30
0
41
1
10
212.038237426159
20
9.75112235542503
30
0
41
1
10
212.02994760208
20
9.75059371740099
30
0
41
1
10
212.010465951745
20
9.75263998178224
30
0
41
1
10
211.998989336881
20
9.75640858826927
30
0
41
1
10
211.981471283481
20
9.76505601357513
30
0
41
1
10
211.974841681054
20
9.7690741544032
30
0
41
1
10
211.961714529085
20
9.77826537676992
30
0
41
1
10
211.955212550565
20
9.78352540240007
30
0
41
1
10
211.941238417702
20
9.7961382074227
30
0
41
1
10
211.933894751475
20
9.80371847579022
30
0
41
1
10
211.918553002182
20
9.82130438645646
30
0
41
1
10
211.910715385715
20
9.83152510539531
30
0
41
1
10
211.896141293778
20
9.85266883536065
30
0
41
1
10
211.889380366967
20
9.86362829216347
30
0
41
1
10
211.87686632983
20
9.88606338206597
30
0
41
1
10
211.87109856298
20
9.89756608535498
30
0
41
1
10
211.860923187586
20
9.92010022830635
30
0
41
1
10
211.856438209176
20
9.93112267098331
30
0
41
1
10
211.852371152857
20
9.94227939325395
30
0
0
SPLINE
5
1C2
100
AcDbEntity
8
1
62
256
6
ByLayer
370
18
48
1
60
0
100
AcDbSpline
70
4
71
3
72
28
73
24
40
0
40
0
40
0
40
0
40
0.0150369069020735
40
0.0150369069020735
40
0.0981186418858778
40
0.0981186418858778
40
0.181219540011658
40
0.181219540011658
40
0.295253230613745
40
0.295253230613745
40
0.36736442675858
40
0.36736442675858
40
0.444270175317959
40
0.444270175317959
40
0.540606423808414
40
0.540606423808414
40
0.657731681451359
40
0.657731681451359
40
0.774746419981683
40
0.774746419981683
40
0.891711459268065
40
0.891711459268065
40
1
40
1
40
1
40
1
41
1
10
213.57983707243
20
10.8182994870139
30
0
41
1
10
213.580918152354
20
10.8192972026574
30
0
41
1
10
213.582027408819
20
10.8202620980956
30
0
41
1
10
213.589364301946
20
10.8262573825179
30
0
41
1
10
213.596509102688
20
10.8302789763148
30
0
41
1
10
213.611762573842
20
10.8352463806822
30
0
41
1
10
213.62005239792
20
10.8362426449854
30
0
41
1
10
213.639534048255
20
10.8351805230237
30
0
41
1
10
213.651010663119
20
10.83190289451
30
0
41
1
10
213.668528716519
20
10.8239189261141
30
0
41
1
10
213.675158318946
20
10.820129693179
30
0
41
1
10
213.688285470916
20
10.8113592722238
30
0
41
1
10
213.694787449435
20
10.8062890700347
30
0
41
1
10
213.708761582298
20
10.7940544139779
30
0
41
1
10
213.716105248526
20
10.7866511733985
30
0
41
1
10
213.731446997818
20
10.769401834163
30
0
41
1
10
213.739284614285
20
10.7593295346709
30
0
41
1
10
213.753858706222
20
10.7384286087236
30
0
41
1
10
213.760619633033
20
10.727563845869
30
0
41
1
10
213.77313367017
20
10.7052754131772
30
0
41
1
10
213.77890143702
20
10.6938247932161
30
0
41
1
10
213.789076812414
20
10.6713552833787
30
0
41
1
10
213.793561790824
20
10.6603480504747
30
0
41
1
10
213.797628847143
20
10.649191328204
30
0
0
SPLINE
5
1C3
100
AcDbEntity
8
1
62
256
6
ByLayer
370
18
48
1
60
0
100
AcDbSpline
70
4
71
3
72
8
73
4
40
0
40
0
40
0
40
0
40
1
40
1
40
1
40
1
41
1
10
213.64467720761
20
9.91604695559732
30
0
41
1
10
213.649412057946
20
9.91152459740783
30
0
41
1
10
213.654145369753
20
9.90700399886794
30
0
41
1
10
213.658877233717
20
9.90248505537949
30
0
0
SPLINE
5
1C4
100
AcDbEntity
8
1
62
256
6
ByLayer
370
18
48
1
60
0
100
AcDbSpline
70
4
71
3
72
26
73
22
40
0
40
0
40
0
40
0
40
0.0742301486966562
40
0.0742301486966562
40
0.125696238145317
40
0.125696238145317
40
0.200645519550774
40
0.200645519550774
40
0.293529030649949
40
0.293529030649949
40
0.396382571938748
40
0.396382571938748
40
0.499190126833845
40
0.499190126833845
40
0.558129055849197
40
0.558129055849197
40
0.765978231675293
40
0.765978231675293
40
0.910227308046935
40
0.910227308046935
40
1
40
1
40
1
40
1
41
1
10
212.00532279239
20
10.6668344409931
30
0
41
1
10
212.013320297864
20
10.6585124998194
30
0
41
1
10
212.020039988964
20
10.6485951394429
30
0
41
1
10
212.029493681365
20
10.6306496003133
30
0
41
1
10
212.032861041852
20
10.6228849778524
30
0
41
1
10
212.040019556563
20
10.6032847724858
30
0
41
1
10
212.043339200008
20
10.5911266205715
30
0
41
1
10
212.049052189817
20
10.5633946340735
30
0
41
1
10
212.051059664293
20
10.5475799616685
30
0
41
1
10
212.053244952646
20
10.5140164196116
30
0
41
1
10
212.053209441256
20
10.496112924404
30
0
41
1
10
212.051052605737
20
10.4604736127257
30
0
41
1
10
212.048923286667
20
10.4426242123505
30
0
41
1
10
212.044037556372
20
10.4149590628108
30
0
41
1
10
212.041928675566
20
10.4049299489437
30
0
41
1
10
212.031043190082
20
10.360504486442
30
0
41
1
10
212.01859820784
20
10.3268226693992
30
0
41
1
10
211.990463635129
20
10.2764326851432
30
0
41
1
10
211.976628218321
20
10.2571496394133
30
0
41
1
10
211.950033733924
20
10.2321923859141
30
0
41
1
10
211.938573599272
20
10.2239549958911
30
0
41
1
10
211.926162648514
20
10.2185949587149
30
0
0
SPLINE
5
1C5
100
AcDbEntity
8
1
62
256
6
ByLayer
370
18
48
1
60
0
100
AcDbSpline
70
4
71
3
72
26
73
22
40
0
40
0
40
0
40
0
40
0.0086569148767698
40
0.0086569148767698
40
0.125591395709168
40
0.125591395709168
40
0.242553460371859
40
0.242553460371859
40
0.359581429952952
40
0.359581429952952
40
0.476756419374678
40
0.476756419374678
40
0.594287938352877
40
0.594287938352877
40
0.734087980384885
40
0.734087980384885
40
0.816818773651403
40
0.816818773651403
40
0.904422913955558
40
0.904422913955558
40
1
40
1
40
1
40
1
41
1
10
213.61789430085
20
9.63145543191308
30
0
41
1
10
213.617282703339
20
9.63072769486774
30
0
41
1
10
213.61666893312
20
9.63000172307267
30
0
41
1
10
213.607739718646
20
9.61950304151969
30
0
41
1
10
213.599026607948
20
9.61004333961858
30
0
41
1
10
213.580869894158
20
9.59187648443105
30
0
41
1
10
213.571408175914
20
9.58315099062878
30
0
41
1
10
213.55176792885
20
9.56659383753413
30
0
41
1
10
213.541565047348
20
9.55874123337799
30
0
41
1
10
213.52044333475
20
9.54416431355463
30
0
41
1
10
213.509486003062
20
9.53741309579482
30
0
41
1
10
213.486872339028
20
9.52544645168098
30
0
41
1
10
213.475142006069
20
9.52019410816234
30
0
41
1
10
213.449001679008
20
9.51125350544191
30
0
41
1
10
213.434190351542
20
9.5079416766489
30
0
41
1
10
213.411188713778
20
9.50709422344619
30
0
41
1
10
213.402618007855
20
9.5077832454599
30
0
41
1
10
213.386211012766
20
9.51175768723317
30
0
41
1
10
213.378259768749
20
9.51527606433046
30
0
41
1
10
213.364321153592
20
9.52528054087207
30
0
41
1
10
213.358365299233
20
9.5321450649792
30
0
41
1
10
213.354045208369
20
9.53976684049036
30
0
0
SPLINE
5
1C6
100
AcDbEntity
8
1
62
256
6
ByLayer
370
18
48
1
60
0
100
AcDbSpline
70
4
71
3
72
8
73
4
40
0
40
0
40
0
40
0
40
1
40
1
40
1
40
1
41
1
10
212.312396543249
20
11.0322200746847
30
0
41
1
10
212.306914212964
20
11.0362575812952
30
0
41
1
10
212.301433664092
20
11.0402940661364
30
0
41
1
10
212.295954791631
20
11.0443295885557
30
0
0
SPLINE
5
1C7
100
AcDbEntity
8
1
62
256
6
ByLayer
370
18
48
1
60
0
100
AcDbSpline
70
4
71
3
72
26
73
22
40
0
40
0
40
0
40
0
40
0.0271387234018224
40
0.0271387234018224
40
0.133143415962544
40
0.133143415962544
40
0.291286691905294
40
0.291286691905294
40
0.500757280309919
40
0.500757280309919
40
0.626885076481586
40
0.626885076481586
40
0.697530097276003
40
0.697530097276003
40
0.768209951104198
40
0.768209951104198
40
0.838963700896187
40
0.838963700896187
40
0.909884938037484
40
0.909884938037484
40
1
40
1
40
1
40
1
41
1
10
212.740769613789
20
11.1878920131965
30
0
41
1
10
212.739687052117
20
11.1837267758132
30
0
41
1
10
212.738325282068
20
11.179607544142
30
0
41
1
10
212.730601877533
20
11.1599642906216
30
0
41
1
10
212.72103639201
20
11.1452545041225
30
0
41
1
10
212.693309686925
20
11.1119849691112
30
0
41
1
10
212.67272568965
20
11.094359877018
30
0
41
1
10
212.621281809724
20
11.0590295179555
30
0
41
1
10
212.588298034546
20
11.042522900523
30
0
41
1
10
212.53381596296
20
11.0227239675808
30
0
41
1
10
212.512631510858
20
11.0166957633575
30
0
41
1
10
212.479439074176
20
11.0099326741725
30
0
41
1
10
212.467429137165
20
11.0080259648022
30
0
41
1
10
212.443474344983
20
11.0053958458292
30
0
41
1
10
212.431487861915
20
11.0046675939788
30
0
41
1
10
212.407749836648
20
11.0045739905841
30
0
41
1
10
212.395945578988
20
11.0052082490786
30
0
41
1
10
212.37283009807
20
11.0081248826206
30
0
41
1
10
212.361442722524
20
11.0104182277909
30
0
41
1
10
212.336822856809
20
11.0179764641244
30
0
41
1
10
212.323610077404
20
11.0239617764943
30
0
41
1
10
212.312396543249
20
11.0322200746847
30
0
0
SPLINE
5
1C8
100
AcDbEntity
8
1
62
256
6
ByLayer
370
18
48
1
60
0
100
AcDbSpline
70
4
71
3
72
8
73
4
40
0
40
0
40
0
40
0
40
1
40
1
40
1
40
1
41
1
10
212.740769613789
20
11.1878920131967
30
0
41
1
10
212.74250024006
20
11.1945507278307
30
0
41
1
10
212.744230303986
20
11.2012075689673
30
0
41
1
10
212.745959838714
20
11.2078626461575
30
0
0
SPLINE
5
1C9
100
AcDbEntity
8
1
62
256
6
ByLayer
370
18
48
1
60
0
100
AcDbSpline
70
4
71
3
72
30
73
26
40
0
40
0
40
0
40
0
40
0.0212218158487525
40
0.0212218158487525
40
0.126059559531384
40
0.126059559531384
40
0.201107055764792
40
0.201107055764792
40
0.294112283016302
40
0.294112283016302
40
0.397100605356965
40
0.397100605356965
40
0.500042881042593
40
0.500042881042593
40
0.583971495243412
40
0.583971495243412
40
0.666565148490885
40
0.666565148490885
40
0.767859984422803
40
0.767859984422803
40
0.838720561298793
40
0.838720561298793
40
0.909748878403641
40
0.909748878403641
40
1
40
1
40
1
40
1
41
1
10
213.723837351486
20
10.3642864378755
30
0
41
1
10
213.720879555665
20
10.3628118130088
30
0
41
1
10
213.717977826607
20
10.3611767820579
30
0
41
1
10
213.701322666881
20
10.3507906640643
30
0
41
1
10
213.688879032452
20
10.338939626341
30
0
41
1
10
213.670085756374
20
10.3163082839291
30
0
41
1
10
213.66288404661
20
10.3060024377678
30
0
41
1
10
213.648180116187
20
10.2818648918367
30
0
41
1
10
213.64095376803
20
10.2676758527926
30
0
41
1
10
213.6275361844
20
10.2368592282619
30
0
41
1
10
213.621489705576
20
10.2200139761657
30
0
41
1
10
213.611378741141
20
10.1857750051522
30
0
41
1
10
213.607283075034
20
10.1682717841949
30
0
41
1
10
213.601647378387
20
10.1363599959703
30
0
41
1
10
213.599764876624
20
10.121910689415
30
0
41
1
10
213.597397746546
20
10.0933564886176
30
0
41
1
10
213.596886230334
20
10.0791931828454
30
0
41
1
10
213.597358819173
20
10.0480589221345
30
0
41
1
10
213.598703018736
20
10.031062532232
30
0
41
1
10
213.603159866888
20
10.0030698948378
30
0
41
1
10
213.605632270458
20
9.99174329109013
30
0
41
1
10
213.61207206908
20
9.96989876924368
30
0
41
1
10
213.616061956901
20
9.95930917730118
30
0
41
1
10
213.627178715472
20
9.93692758153975
30
0
41
1
10
213.634992565643
20
9.92529696706629
30
0
41
1
10
213.64467720761
20
9.91604695559732
30
0
0
SPLINE
5
1CA
100
AcDbEntity
8
1
62
256
6
ByLayer
370
18
48
1
60
0
100
AcDbSpline
70
4
71
3
72
26
73
22
40
0
40
0
40
0
40
0
40
0.0086569148768294
40
0.0086569148768294
40
0.125591395709087
40
0.125591395709087
40
0.242553460371865
40
0.242553460371865
40
0.359581429952838
40
0.359581429952838
40
0.476756419374619
40
0.476756419374619
40
0.594287938352819
40
0.594287938352819
40
0.734087980384793
40
0.734087980384793
40
0.816818773651418
40
0.816818773651418
40
0.90442291395548
40
0.90442291395548
40
1
40
1
40
1
40
1
41
1
10
213.004734546293
20
11.31347125702
30
0
41
1
10
213.005671568043
20
11.3133062924244
30
0
41
1
10
213.006608102505
20
11.3131384930168
30
0
41
1
10
213.0201778011
20
11.3106648332895
30
0
41
1
10
213.032730656923
20
11.3078453951273
30
0
41
1
10
213.057532602436
20
11.3011704722968
30
0
41
1
10
213.06980663469
20
11.2973084540972
30
0
41
1
10
213.093918846322
20
11.2884848935191
30
0
41
1
10
213.105787307919
20
11.2835126605205
30
0
41
1
10
213.128879400342
20
11.2723432173067
30
0
41
1
10
213.140145454855
20
11.2661258894059
30
0
41
1
10
213.161661662596
20
11.2522613591071
30
0
41
1
10
213.171980320797
20
11.2445677356591
30
0
41
1
10
213.192529479537
20
11.2259580452649
30
0
41
1
10
213.202621260694
20
11.2144844684397
30
0
41
1
10
213.214478973354
20
11.1943652668888
30
0
41
1
10
213.218004909207
20
11.1863301151159
30
0
41
1
10
213.222392018664
20
11.1695179660869
30
0
41
1
10
213.223101296571
20
11.1605124481368
30
0
41
1
10
213.220927094721
20
11.1426522224613
30
0
41
1
10
213.217691172203
20
11.1336209460141
30
0
41
1
10
213.212989596917
20
11.1256411019796
30
0
0
SPLINE
5
1CB
100
AcDbEntity
8
1
62
256
6
ByLayer
370
18
48
1
60
0
100
AcDbSpline
70
4
71
3
72
8
73
4
40
0
40
0
40
0
40
0
40
1
40
1
40
1
40
1
41
1
10
213.742034805287
20
10.3733597279469
30
0
41
1
10
213.735970881515
20
10.3703359640888
30
0
41
1
10
213.72990510232
20
10.367311547384
30
0
41
1
10
213.723837351486
20
10.3642864378755
30
0
0
SPLINE
5
1CC
100
AcDbEntity
8
1
62
256
6
ByLayer
370
18
48
1
60
0
100
AcDbSpline
70
4
71
3
72
26
73
22
40
0
40
0
40
0
40
0
40
0.0086569148768297
40
0.0086569148768297
40
0.125591395709088
40
0.125591395709088
40
0.242553460371867
40
0.242553460371867
40
0.359581429952839
40
0.359581429952839
40
0.476756419374621
40
0.476756419374621
40
0.594287938352824
40
0.594287938352824
40
0.734087980384792
40
0.734087980384792
40
0.816818773651419
40
0.816818773651419
40
0.904422913955483
40
0.904422913955483
40
1
40
1
40
1
40
1
41
1
10
212.645265453707
20
9.2779994644381
30
0
41
1
10
212.644328431957
20
9.27816442903361
30
0
41
1
10
212.643391897495
20
9.27833213043971
30
0
41
1
10
212.6298221989
20
9.28080294831506
30
0
41
1
10
212.617269343077
20
9.28360201375028
30
0
41
1
10
212.592467397565
20
9.29019867960614
30
0
41
1
10
212.580193365311
20
9.29400276013456
30
0
41
1
10
212.556081153678
20
9.30266671377927
30
0
41
1
10
212.544212692081
20
9.30753713632259
30
0
41
1
10
212.521120599659
20
9.31844726634762
30
0
41
1
10
212.509854545145
20
9.32450672054057
30
0
41
1
10
212.488338337404
20
9.33797874295249
30
0
41
1
10
212.478019679203
20
9.34543654135683
30
0
41
1
10
212.457470520463
20
9.36341009477991
30
0
41
1
10
212.447378739306
20
9.37445366404745
30
0
41
1
10
212.435521026647
20
9.39370088492899
30
0
41
1
10
212.431995090793
20
9.40136301662704
30
0
41
1
10
212.427607981336
20
9.41732422087978
30
0
41
1
10
212.426898703429
20
9.42583495622097
30
0
41
1
10
212.429072905279
20
9.44262102933084
30
0
41
1
10
212.432308827797
20
9.45105345826715
30
0
41
1
10
212.437010403083
20
9.45845532706647
30
0
0
SPLINE
5
1CD
100
AcDbEntity
8
1
62
256
6
ByLayer
370
18
48
1
60
0
100
AcDbSpline
70
4
71
3
72
8
73
4
40
0
40
0
40
0
40
0
40
1
40
1
40
1
40
1
41
1
10
213.354045208369
20
9.53976684049036
30
0
41
1
10
213.348566335908
20
9.54339692202797
30
0
41
1
10
213.343085787036
20
9.54702838664531
30
0
41
1
10
213.337603456751
20
9.55066132190564
30
0
0
SPLINE
5
1CE
100
AcDbEntity
8
1
62
256
6
ByLayer
370
18
48
1
60
0
100
AcDbSpline
70
4
71
3
72
26
73
22
40
0
40
0
40
0
40
0
40
0.0086569148769029
40
0.0086569148769029
40
0.125591395709236
40
0.125591395709236
40
0.242553460371854
40
0.242553460371854
40
0.359581429952932
40
0.359581429952932
40
0.476756419374701
40
0.476756419374701
40
0.594287938352874
40
0.594287938352874
40
0.734087980384771
40
0.734087980384771
40
0.816818773651372
40
0.816818773651372
40
0.904422913955491
40
0.904422913955491
40
1
40
1
40
1
40
1
41
1
10
213.797628847143
20
10.649191328204
30
0
41
1
10
213.797954271381
20
10.6482986265632
30
0
41
1
10
213.798277035625
20
10.6474049043612
30
0
41
1
10
213.802917519745
20
10.6344339840069
30
0
41
1
10
213.806757264871
20
10.6221650303071
30
0
41
1
10
213.813402496594
20
10.5973623807764
30
0
41
1
10
213.816214810603
20
10.5848038376101
30
0
41
1
10
213.820686775172
20
10.559502927404
30
0
41
1
10
213.822352355267
20
10.5467289954769
30
0
41
1
10
213.824322735091
20
10.5211122890341
30
0
41
1
10
213.824631457917
20
10.5082226802275
30
0
41
1
10
213.823534001624
20
10.4825877597582
30
0
41
1
10
213.822122326866
20
10.4697597053134
30
0
41
1
10
213.816531158545
20
10.4425274806844
30
0
41
1
10
213.811811612235
20
10.427957078845
30
0
41
1
10
213.800667687132
20
10.4074264144261
30
0
41
1
10
213.795622917062
20
10.4002667947043
30
0
41
1
10
213.78360303143
20
10.3878545598367
30
0
41
1
10
213.77636106532
20
10.3826148102884
30
0
41
1
10
213.760248248313
20
10.3752961374373
30
0
41
1
10
213.751056471436
20
10.3734288088527
30
0
41
1
10
213.742034805287
20
10.3733597279469
30
0
0
SPLINE
5
1CF
100
AcDbEntity
8
1
62
256
6
ByLayer
370
18
48
1
60
0
100
AcDbSpline
70
4
71
3
72
8
73
4
40
0
40
0
40
0
40
0
40
1
40
1
40
1
40
1
41
1
10
212.437010403083
20
9.45845532706647
30
0
41
1
10
212.437595454393
20
9.46490645202141
30
0
41
1
10
212.438180684717
20
9.47135982323152
30
0
41
1
10
212.438766105265
20
9.47781558232532
30
0
0
SPLINE
5
1D0
100
AcDbEntity
8
1
62
256
6
ByLayer
370
18
48
1
60
0
100
AcDbSpline
70
4
71
3
72
8
73
4
40
0
40
0
40
0
40
0
40
1
40
1
40
1
40
1
41
1
10
213.560446821399
20
10.8124982704988
30
0
41
1
10
213.566912298006
20
10.8144323412682
30
0
41
1
10
213.573375673739
20
10.8163660737531
30
0
41
1
10
213.57983707243
20
10.8182994870139
30
0
0
SPLINE
5
1D1
100
AcDbEntity
8
1
62
256
6
ByLayer
370
18
48
1
60
0
100
AcDbSpline
70
4
71
3
72
8
73
4
40
0
40
0
40
0
40
0
40
1
40
1
40
1
40
1
41
1
10
211.991122766284
20
10.6816113736667
30
0
41
1
10
211.995854630247
20
10.6766869892965
30
0
41
1
10
212.000587942054
20
10.6717613705327
30
0
41
1
10
212.00532279239
20
10.6668344409931
30
0
0
SPLINE
5
1D2
100
AcDbEntity
8
1
62
256
6
ByLayer
370
18
48
1
60
0
100
AcDbSpline
70
4
71
3
72
28
73
24
40
0
40
0
40
0
40
0
40
0.0150369069020824
40
0.0150369069020824
40
0.098118641885891
40
0.098118641885891
40
0.181219540011688
40
0.181219540011688
40
0.29525323061385
40
0.29525323061385
40
0.367364426758587
40
0.367364426758587
40
0.444270175317935
40
0.444270175317935
40
0.540606423808283
40
0.540606423808283
40
0.657731681451437
40
0.657731681451437
40
0.774746419981585
40
0.774746419981585
40
0.891711459267966
40
0.891711459267966
40
1
40
1
40
1
40
1
41
1
10
212.904040161287
20
9.37623378288868
30
0
41
1
10
212.904324987027
20
9.37486936939081
30
0
41
1
10
212.904567138324
20
9.37349720763666
30
0
41
1
10
212.905839400029
20
9.36460424901588
30
0
41
1
10
212.905531259279
20
9.35680286395495
30
0
41
1
10
212.901791296375
20
9.34185938131168
30
0
41
1
10
212.898307717587
20
9.33454396468755
30
0
41
1
10
212.887218819687
20
9.31896783519454
30
0
41
1
10
212.878424638171
20
9.31105134021715
30
0
41
1
10
212.862452760212
20
9.30039349311807
30
0
41
1
10
212.855751987462
20
9.29672733858962
30
0
41
1
10
212.841398645691
20
9.29007742913109
30
0
41
1
10
212.833667551031
20
9.28713279910119
30
0
41
1
10
212.81590441591
20
9.2814506545991
30
0
41
1
10
212.805734400905
20
9.27893516065018
30
0
41
1
10
212.78295586417
20
9.27454663075974
30
0
41
1
10
212.770236198584
20
9.2729171035549
30
0
41
1
10
212.744714850982
20
9.27094781563522
30
0
41
1
10
212.731869465211
20
9.27060521268794
30
0
41
1
10
212.706216350197
20
9.27103884605498
30
0
41
1
10
212.693377864682
20
9.27181597434952
30
0
41
1
10
212.668772591177
20
9.27430081071384
30
0
41
1
10
212.656976075647
20
9.27593778549311
30
0
41
1
10
212.645265453707
20
9.2779994644381
30
0
0
SPLINE
5
1D3
100
AcDbEntity
8
1
62
256
6
ByLayer
370
18
48
1
60
0
100
AcDbSpline
70
4
71
3
72
14
73
10
40
0
40
0
40
0
40
0
40
0.370009536089796
40
0.370009536089796
40
0.677602824214919
40
0.677602824214919
40
0.920567215051617
40
0.920567215051617
40
1
40
1
40
1
40
1
41
1
10
211.774234313201
20
3.6210003109702
30
0
41
1
10
211.529290032988
20
3.55992884277686
30
0
41
1
10
211.292117758788
20
3.45781820502714
30
0
41
1
10
210.902000769075
20
3.20825747815684
30
0
41
1
10
210.737142322667
20
3.0679373028612
30
0
41
1
10
210.486624398619
20
2.78832103779678
30
0
41
1
10
210.389341916198
20
2.65202003637813
30
0
41
1
10
210.286245392645
20
2.47283588648872
30
0
41
1
10
210.262601955824
20
2.42834127055511
30
0
41
1
10
210.240987350635
20
2.38447105741602
30
0
0
SPLINE
5
1D4
100
AcDbEntity
8
1
62
256
6
ByLayer
370
18
48
1
60
0
100
AcDbSpline
70
4
71
3
72
8
73
4
40
0
40
0
40
0
40
0
40
1
40
1
40
1
40
1
41
1
10
209.191920660287
20
7.39926866818053
30
0
41
1
10
209.173294306942
20
7.36152512574381
30
0
41
1
10
209.156981049179
20
7.32220868743605
30
0
41
1
10
209.143272848929
20
7.28165613512755
30
0
0
SPLINE
5
1D5
100
AcDbEntity
8
1
62
256
6
ByLayer
370
18
48
1
60
0
100
AcDbSpline
70
4
71
3
72
10
73
6
40
0
40
0
40
0
40
0
40
0.535640370359121
40
0.535640370359121
40
1
40
1
40
1
40
1
41
1
10
213.531256102778
20
0.842848921595134
30
0
41
1
10
213.466534025756
20
1.05551925873266
30
0
41
1
10
213.435945031697
20
1.27887013216321
30
0
41
1
10
213.494394815995
20
1.69277419344707
30
0
41
1
10
213.567091667146
20
1.88528475877308
30
0
41
1
10
213.663226025514
20
2.07039156714075
30
0
0
SPLINE
5
1D6
100
AcDbEntity
8
1
62
256
6
ByLayer
370
18
48
1
60
0
100
AcDbSpline
70
4
71
3
72
8
73
4
40
0
40
0
40
0
40
0
40
1
40
1
40
1
40
1
41
1
10
213.618088542516
20
3.77754264554511
30
0
41
1
10
213.504180190027
20
3.85757036603019
30
0
41
1
10
213.419439574651
20
3.94146896815727
30
0
41
1
10
213.391484953974
20
4.02479182272293
30
0
0
SPLINE
5
1D7
100
AcDbEntity
8
1
62
256
6
ByLayer
370
18
48
1
60
0
100
AcDbSpline
70
4
71
3
72
8
73
4
40
0
40
0
40
0
40
0
40
1
40
1
40
1
40
1
41
1
10
213.663226025515
20
2.07039156714057
30
0
41
1
10
213.484043542313
20
2.62586511573545
30
0
41
1
10
213.469240915852
20
3.22563292755814
30
0
41
1
10
213.618088542518
20
3.77754264554517
30
0
0
SPLINE
5
1D8
100
AcDbEntity
8
1
62
256
6
ByLayer
370
18
48
1
60
0
100
AcDbSpline
70
4
71
3
72
12
73
8
40
0
40
0
40
0
40
0
40
0.0086314829836879
40
0.0086314829836879
40
0.504315741491843
40
0.504315741491843
40
1
40
1
40
1
40
1
41
1
10
196.65834624043
20
-1.54267550103151
30
0
41
1
10
196.661379673386
20
-1.54270036758118
30
0
41
1
10
196.664417795894
20
-1.54271280431521
30
0
41
1
10
196.84220161634
20
-1.54271280431521
30
0
41
1
10
196.993183978847
20
-1.49935237071088
30
0
41
1
10
197.24916422797
20
-1.3272656498437
30
0
41
1
10
197.339600363888
20
-1.20395941678134
30
0
41
1
10
197.393248919094
20
-1.04406781786537
30
0
0
SPLINE
5
1D9
100
AcDbEntity
8
1
62
256
6
ByLayer
370
18
48
1
60
0
100
AcDbSpline
70
4
71
3
72
18
73
14
40
0
40
0
40
0
40
0
40
0.144162319211354
40
0.144162319211354
40
0.287803952446087
40
0.287803952446087
40
0.456930391577304
40
0.456930391577304
40
0.627201285564253
40
0.627201285564253
40
0.795875204209621
40
0.795875204209621
40
1
40
1
40
1
40
1
41
1
10
196.259469068601
20
-0.993254809735276
30
0
41
1
10
196.297023057245
20
-1.04745535174072
30
0
41
1
10
196.352970836245
20
-1.09217079889515
30
0
41
1
10
196.498325372317
20
-1.16250425839064
30
0
41
1
10
196.582893215697
20
-1.17956917287893
30
0
41
1
10
196.789823357204
20
-1.17956917287893
30
0
41
1
10
196.887157164506
20
-1.15450142220141
30
0
41
1
10
197.051723382553
20
-1.05253156145312
30
0
41
1
10
197.109415464643
20
-0.983092208109269
30
0
41
1
10
197.17654308354
20
-0.803720535083585
30
0
41
1
10
197.192953929177
20
-0.674149118678372
30
0
41
1
10
197.192953929177
20
-0.301294556799405
30
0
41
1
10
197.192953929177
20
-0.0971391819123255
30
0
41
1
10
197.192953929177
20
0.107016192974754
30
0
0
SPLINE
5
1DA
100
AcDbEntity
8
1
62
256
6
ByLayer
370
18
48
1
60
0
100
AcDbSpline
70
4
71
3
72
8
73
4
40
0
40
0
40
0
40
0
40
1
40
1
40
1
40
1
41
1
10
195.809587612806
20
0.457287195684785
30
0
41
1
10
196.808217147561
20
0.457287195684785
30
0
41
1
10
197.806846682315
20
0.457287195684785
30
0
41
1
10
198.80547621707
20
0.457287195684785
30
0
0
SPLINE
5
1DB
100
AcDbEntity
8
1
62
256
6
ByLayer
370
18
48
1
60
0
100
AcDbSpline
70
4
71
3
72
10
73
6
40
0
40
0
40
0
40
0
40
0.339661016949153
40
0.339661016949153
40
1
40
1
40
1
40
1
41
1
10
196.166996228681
20
-0.791357790765062
30
0
41
1
10
196.157032925572
20
-0.745287330060478
30
0
41
1
10
196.152434477982
20
-0.666019037377566
30
0
41
1
10
196.152434477982
20
-0.332911539635916
30
0
41
1
10
196.152434477982
20
-0.112947673330552
30
0
41
1
10
196.152434477982
20
0.107016192974754
30
0
0
SPLINE
5
1DC
100
AcDbEntity
8
1
62
256
6
ByLayer
370
18
48
1
60
0
100
AcDbSpline
70
4
71
3
72
8
73
4
40
0
40
0
40
0
40
0
40
1
40
1
40
1
40
1
41
1
10
198.452162160645
20
0.107016192974754
30
0
41
1
10
198.150197435631
20
0.107016192974754
30
0
41
1
10
197.848232710617
20
0.107016192974754
30
0
41
1
10
197.546267985602
20
0.107016192974754
30
0
0
SPLINE
5
1DD
100
AcDbEntity
8
1
62
256
6
ByLayer
370
18
48
1
60
0
100
AcDbSpline
70
4
71
3
72
18
73
14
40
0
40
0
40
0
40
0
40
0.25201186049697
40
0.25201186049697
40
0.405589640513528
40
0.405589640513528
40
0.559851913068134
40
0.559851913068134
40
0.714114185622739
40
0.714114185622739
40
0.857235294048401
40
0.857235294048401
40
1
40
1
40
1
40
1
41
1
10
198.80547621707
20
0.457287195684785
30
0
41
1
10
198.80547621707
20
0.125986382676672
30
0
41
1
10
198.80547621707
20
-0.205314430331498
30
0
41
1
10
198.80547621707
20
-0.738512262309825
30
0
41
1
10
198.774819899809
20
-0.901113888326051
30
0
41
1
10
198.653457593529
20
-1.14555986105535
30
0
41
1
10
198.560225678987
20
-1.24122228941008
30
0
41
1
10
198.308843877453
20
-1.37943367152388
30
0
41
1
10
198.177021713233
20
-1.41398651705237
30
0
41
1
10
197.911078161
20
-1.41398651705237
30
0
41
1
10
197.790752115753
20
-1.38349871217429
30
0
41
1
10
197.564177829179
20
-1.26034600868917
30
0
41
1
10
197.472692824178
20
-1.16805155770277
30
0
41
1
10
197.403716110342
20
-1.04406781786537
30
0
0
SPLINE
5
1DE
100
AcDbEntity
8
1
62
256
6
ByLayer
370
18
48
1
60
0
100
AcDbSpline
70
4
71
3
72
8
73
4
40
0
40
0
40
0
40
0
40
1
40
1
40
1
40
1
41
1
10
196.17746341993
20
-0.791357790765062
30
0
41
1
10
196.193557986491
20
-0.871981096998127
30
0
41
1
10
196.221148672026
20
-0.93905426772983
30
0
41
1
10
196.259469068601
20
-0.993254809735276
30
0
0
SPLINE
5
1DF
100
AcDbEntity
8
1
62
256
6
ByLayer
370
18
48
1
60
0
100
AcDbSpline
70
4
71
3
72
22
73
18
40
0
40
0
40
0
40
0
40
0.125914321794557
40
0.125914321794557
40
0.228163895166733
40
0.228163895166733
40
0.362005340682979
40
0.362005340682979
40
0.497493843875514
40
0.497493843875514
40
0.625070609655346
40
0.625070609655346
40
0.75364085656554
40
0.75364085656554
40
0.881225123202375
40
0.881225123202375
40
1
40
1
40
1
40
1
41
1
10
197.546267985602
20
0.107016192974754
30
0
41
1
10
197.546267985602
20
-0.0840407175943483
30
0
41
1
10
197.546267985602
20
-0.275097628163451
30
0
41
1
10
197.546267985602
20
-0.621303590223079
30
0
41
1
10
197.558530512507
20
-0.732414701334164
30
0
41
1
10
197.611618860008
20
-0.88884886487574
30
0
41
1
10
197.661229175329
20
-0.956669443881594
30
0
41
1
10
197.800031432939
20
-1.04665060810282
30
0
41
1
10
197.887319515123
20
-1.06913556854289
30
0
41
1
10
198.091184024904
20
-1.06913556854289
30
0
41
1
10
198.179320937028
20
-1.04813285851577
30
0
41
1
10
198.330121781475
20
-0.963794908749549
30
0
41
1
10
198.382419038877
20
-0.903823915426358
30
0
41
1
10
198.437388822333
20
-0.747245041096505
30
0
41
1
10
198.452162160645
20
-0.612496002147225
30
0
41
1
10
198.452162160645
20
-0.246190672427247
30
0
41
1
10
198.452162160645
20
-0.0695872397262178
30
0
41
1
10
198.452162160645
20
0.107016192974754
30
0
0
SPLINE
5
1E0
100
AcDbEntity
8
1
62
256
6
ByLayer
370
18
48
1
60
0
100
AcDbSpline
70
4
71
3
72
10
73
6
40
0
40
0
40
0
40
0
40
0.364748231797287
40
0.364748231797287
40
1
40
1
40
1
40
1
41
1
10
196.552407256267
20
-1.17030283423571
30
0
41
1
10
196.502915152341
20
-1.161868158147
30
0
41
1
10
196.457117656539
20
-1.14762968003015
30
0
41
1
10
196.342503644996
20
-1.09217079889515
30
0
41
1
10
196.286555865996
20
-1.04745535174072
30
0
41
1
10
196.249001877352
20
-0.993254809735276
30
0
0
SPLINE
5
1E1
100
AcDbEntity
8
1
62
256
6
ByLayer
370
18
48
1
60
0
100
AcDbSpline
70
4
71
3
72
10
73
6
40
0
40
0
40
0
40
0
40
0.660338983050847
40
0.660338983050847
40
1
40
1
40
1
40
1
41
1
10
196.162901669231
20
0.107016192974754
30
0
41
1
10
196.162901669231
20
-0.112947673330552
30
0
41
1
10
196.162901669231
20
-0.332911539635916
30
0
41
1
10
196.162901669231
20
-0.666019037377566
30
0
41
1
10
196.16750011682
20
-0.745287330060478
30
0
41
1
10
196.17746341993
20
-0.791357790765062
30
0
0
SPLINE
5
1E2
100
AcDbEntity
8
1
62
256
6
ByLayer
370
18
48
1
60
0
100
AcDbSpline
70
4
71
3
72
8
73
4
40
0
40
0
40
0
40
0
40
1
40
1
40
1
40
1
41
1
10
196.249001877352
20
-0.993254809735276
30
0
41
1
10
196.210681480777
20
-0.93905426772983
30
0
41
1
10
196.183090795243
20
-0.871981096998127
30
0
41
1
10
196.166996228681
20
-0.791357790765062
30
0
0
SPLINE
5
1E3
100
AcDbEntity
8
1
62
256
6
ByLayer
370
18
48
1
60
0
100
AcDbSpline
70
4
71
3
72
16
73
12
40
0
40
0
40
0
40
0
40
0.0010794294295553
40
0.0010794294295553
40
0.273127525262253
40
0.273127525262253
40
0.541868485109217
40
0.541868485109217
40
0.74717595460039
40
0.74717595460039
40
1
40
1
40
1
40
1
41
1
10
197.983099467115
20
-1.0691344497352
30
0
41
1
10
197.982683238878
20
-1.06913519560703
30
0
41
1
10
197.982266819946
20
-1.06913556854289
30
0
41
1
10
197.876852323875
20
-1.06913556854289
30
0
41
1
10
197.78956424169
20
-1.04665060810282
30
0
41
1
10
197.65076198408
20
-0.956669443881594
30
0
41
1
10
197.601151668759
20
-0.88884886487574
30
0
41
1
10
197.548063321258
20
-0.732414701334164
30
0
41
1
10
197.535800794354
20
-0.621303590223079
30
0
41
1
10
197.535800794354
20
-0.275097628163451
30
0
41
1
10
197.535800794354
20
-0.0840407175943483
30
0
41
1
10
197.535800794354
20
0.107016192974754
30
0
0
SPLINE
5
1E4
100
AcDbEntity
8
1
62
256
6
ByLayer
370
18
48
1
60
0
100
AcDbSpline
70
4
71
3
72
16
73
12
40
0
40
0
40
0
40
0
40
0.0482445581190201
40
0.0482445581190201
40
0.253841870617075
40
0.253841870617075
40
0.459439183115131
40
0.459439183115131
40
0.664124219241803
40
0.664124219241803
40
1
40
1
40
1
40
1
41
1
10
197.932944871603
20
-1.40812467426622
30
0
41
1
10
197.964348277473
20
-1.41203622332779
30
0
41
1
10
197.996229551718
20
-1.41398651705237
30
0
41
1
10
198.166554521985
20
-1.41398651705237
30
0
41
1
10
198.298376686204
20
-1.37943367152388
30
0
41
1
10
198.549758487739
20
-1.24122228941008
30
0
41
1
10
198.642990402281
20
-1.14555986105535
30
0
41
1
10
198.764352708561
20
-0.901113888326051
30
0
41
1
10
198.795009025821
20
-0.738512262309825
30
0
41
1
10
198.795009025821
20
-0.205314430331498
30
0
41
1
10
198.795009025821
20
0.125986382676672
30
0
41
1
10
198.795009025821
20
0.457287195684785
30
0
0
SPLINE
5
1E5
100
AcDbEntity
8
1
62
256
6
ByLayer
370
18
48
1
60
0
100
AcDbSpline
70
4
71
3
72
18
73
14
40
0
40
0
40
0
40
0
40
0.191365141806888
40
0.191365141806888
40
0.382730283613776
40
0.382730283613776
40
0.53632598953772
40
0.53632598953772
40
0.69074598386202
40
0.69074598386202
40
0.845924953879706
40
0.845924953879706
40
1
40
1
40
1
40
1
41
1
10
197.403716110342
20
-1.04406781786537
30
0
41
1
10
197.350067555136
20
-1.20395941678134
30
0
41
1
10
197.259631419219
20
-1.3272656498437
30
0
41
1
10
197.003651170095
20
-1.49935237071088
30
0
41
1
10
196.852668807588
20
-1.54271280431521
30
0
41
1
10
196.537675147738
20
-1.54271280431521
30
0
41
1
10
196.407385799382
20
-1.5162900400876
30
0
41
1
10
196.166087965814
20
-1.41167403124973
30
0
41
1
10
196.073231941245
20
-1.34691334632066
30
0
41
1
10
195.942622406215
20
-1.19206218707319
30
0
41
1
10
195.89312607734
20
-1.09623583954556
30
0
41
1
10
195.82592207312
20
-0.864002497142565
30
0
41
1
10
195.809587612806
20
-0.720897086158061
30
0
41
1
10
195.809587612806
20
-0.552875405941222
30
0
0
SPLINE
5
1E6
100
AcDbEntity
8
1
62
256
6
ByLayer
370
18
48
1
60
0
100
AcDbSpline
70
4
71
3
72
8
73
4
40
0
40
0
40
0
40
0
40
1
40
1
40
1
40
1
41
1
10
195.809587612806
20
-0.552875405941222
30
0
41
1
10
195.809587612806
20
-0.216154538732553
30
0
41
1
10
195.809587612806
20
0.120566328476116
30
0
41
1
10
195.809587612806
20
0.457287195684785
30
0
0
SPLINE
5
1E7
100
AcDbEntity
8
1
62
256
6
ByLayer
370
18
48
1
60
0
100
AcDbSpline
70
4
71
3
72
8
73
4
40
0
40
0
40
0
40
0
40
1
40
1
40
1
40
1
41
1
10
197.808072892068
20
11.4999999999999
30
0
41
1
10
197.736273696338
20
11.4999999999999
30
0
41
1
10
197.663726303662
20
11.4999999999999
30
0
41
1
10
197.591927107932
20
11.4999999999999
30
0
0
SPLINE
5
1E8
100
AcDbEntity
8
1
62
256
6
ByLayer
370
18
48
1
60
0
100
AcDbSpline
70
4
71
3
72
8
73
4
40
0
40
0
40
0
40
0
40
1
40
1
40
1
40
1
41
1
10
197.192953929177
20
0.107016192974754
30
0
41
1
10
196.849603175862
20
0.107016192974754
30
0
41
1
10
196.506252422547
20
0.107016192974754
30
0
41
1
10
196.162901669231
20
0.107016192974754
30
0
0
SPLINE
5
1E9
100
AcDbEntity
8
1
62
256
6
ByLayer
370
18
48
1
60
0
100
AcDbSpline
70
4
71
3
72
8
73
4
40
0
40
0
40
0
40
0
40
1
40
1
40
1
40
1
41
1
10
211.177158849772
20
-10.9089018341331
30
0
41
1
10
212.177157732665
20
-10.9915649342252
30
0
41
1
10
213.177157730995
20
-11.0742146361347
30
0
41
1
10
214.177158849772
20
-11.1568508730976
30
0
0
SPLINE
5
1EA
100
AcDbEntity
8
1
62
256
6
ByLayer
370
18
48
1
60
0
100
AcDbSpline
70
4
71
3
72
10
73
6
40
0
40
0
40
0
40
0
40
0.5
40
0.5
40
1
40
1
40
1
40
1
41
1
10
208.949478261507
20
-11.7253818881979
30
0
41
1
10
209.980069858781
20
-11.928231265963
30
0
41
1
10
211.002116070938
20
-12.1318017985372
30
0
41
1
10
213.004846879579
20
-12.5424334176686
30
0
41
1
10
214.026872253968
20
-12.7529885929863
30
0
41
1
10
214.85832477958
20
-12.9567980912173
30
0
0
SPLINE
5
1EB
100
AcDbEntity
8
1
62
256
6
ByLayer
370
18
48
1
60
0
100
AcDbSpline
70
4
71
3
72
18
73
14
40
0
40
0
40
0
40
0
40
0.144086644560488
40
0.144086644560488
40
0.287731062505122
40
0.287731062505122
40
0.456860780407674
40
0.456860780407674
40
0.627194363444235
40
0.627194363444235
40
0.795871414023979
40
0.795871414023979
40
1
40
1
40
1
40
1
41
1
10
204.732196762345
20
-1.7069068154367
30
0
41
1
10
204.769802288055
20
-1.75602423677208
30
0
41
1
10
204.825826846765
20
-1.79654610937376
30
0
41
1
10
204.971420422139
20
-1.86030076974805
30
0
41
1
10
205.056064759275
20
-1.87574795127711
30
0
41
1
10
205.263278880534
20
-1.87574795127711
30
0
41
1
10
205.360746263496
20
-1.8530311439095
30
0
41
1
10
205.525567158258
20
-1.7606082122673
30
0
41
1
10
205.583309578922
20
-1.69769729893636
30
0
41
1
10
205.650517629644
20
-1.53517601264542
30
0
41
1
10
205.666962687134
20
-1.41772799732468
30
0
41
1
10
205.666962687134
20
-1.07984106972168
30
0
41
1
10
205.666962687134
20
-0.8948321160251
30
0
41
1
10
205.666962687134
20
-0.709823162328519
30
0
0
SPLINE
5
1EC
100
AcDbEntity
8
1
62
256
6
ByLayer
370
18
48
1
60
0
100
AcDbSpline
70
4
71
3
72
26
73
22
40
0
40
0
40
0
40
0
40
0.141727733321361
40
0.141727733321361
40
0.249499842453745
40
0.249499842453745
40
0.358505703680056
40
0.358505703680056
40
0.450823827748391
40
0.450823827748391
40
0.532196086252145
40
0.532196086252145
40
0.611334543426613
40
0.611334543426613
40
0.694427206356357
40
0.694427206356357
40
0.787402662849868
40
0.787402662849868
40
0.924306079203262
40
0.924306079203262
40
1
40
1
40
1
40
1
41
1
10
214.177158849772
20
-9.30666658823452
30
0
41
1
10
214.177158849772
20
-9.10638916509618
30
0
41
1
10
214.141713606441
20
-8.89512554510588
30
0
41
1
10
214.00136660327
20
-8.53751661159026
30
0
41
1
10
213.913166411533
20
-8.3842505830691
30
0
41
1
10
213.682039881973
20
-8.11100259847115
30
0
41
1
10
213.534211507466
20
-7.98734152880161
30
0
41
1
10
213.224891913547
20
-7.82025790635367
30
0
41
1
10
213.064168108568
20
-7.7652764939852
30
0
41
1
10
212.756715157912
20
-7.71781034409537
30
0
41
1
10
212.606396944316
20
-7.71807028441162
30
0
41
1
10
212.323606449939
20
-7.7620167983099
30
0
41
1
10
212.187153095415
20
-7.80496578556756
30
0
41
1
10
211.933363036446
20
-7.92578990173104
30
0
41
1
10
211.814184988527
20
-8.0065887954911
30
0
41
1
10
211.597226243946
20
-8.20023860375528
30
0
41
1
10
211.500979106438
20
-8.31781104246369
30
0
41
1
10
211.313683285651
20
-8.62030808370923
30
0
41
1
10
211.242556896321
20
-8.81567406094672
30
0
41
1
10
211.186640011182
20
-9.11384502584826
30
0
41
1
10
211.177158849772
20
-9.22071858113759
30
0
41
1
10
211.177158849772
20
-9.32572866749206
30
0
0
SPLINE
5
1ED
100
AcDbEntity
8
1
62
256
6
ByLayer
370
18
48
1
60
0
100
AcDbSpline
70
4
71
3
72
8
73
4
40
0
40
0
40
0
40
0
40
1
40
1
40
1
40
1
41
1
10
211.177158849772
20
-9.325728667492
30
0
41
1
10
211.177158849772
20
-9.92048570856826
30
0
41
1
10
211.177158849772
20
-10.4482100974486
30
0
41
1
10
211.177158849772
20
-10.908901834133
30
0
0
SPLINE
5
1EE
100
AcDbEntity
8
1
62
256
6
ByLayer
370
18
48
1
60
0
100
AcDbSpline
70
4
71
3
72
18
73
14
40
0
40
0
40
0
40
0
40
0.191325435437368
40
0.191325435437368
40
0.382650870874735
40
0.382650870874735
40
0.536214707212623
40
0.536214707212623
40
0.690626528447001
40
0.690626528447001
40
0.845885455798057
40
0.845885455798057
40
1
40
1
40
1
40
1
41
1
10
205.878014106934
20
-1.75295439793865
30
0
41
1
10
205.824291927349
20
-1.89785079087801
30
0
41
1
10
205.733731681761
20
-2.00959292441598
30
0
41
1
10
205.477400139167
20
-2.16554073715582
30
0
41
1
10
205.32621057662
20
-2.20483467422412
30
0
41
1
10
205.010784636481
20
-2.20483467422412
30
0
41
1
10
204.880316486059
20
-2.18088993132312
30
0
41
1
10
204.638668781138
20
-2.08607783818189
30
0
41
1
10
204.545704053212
20
-2.02739798965007
30
0
41
1
10
204.414878027443
20
-1.88702935964824
30
0
41
1
10
204.365351021746
20
-1.80022991597394
30
0
41
1
10
204.2980634664
20
-1.58980337925391
30
0
41
1
10
204.281697913534
20
-1.46009177322645
30
0
41
1
10
204.281697913534
20
-1.30782776708674
30
0
0
SPLINE
5
1EF
100
AcDbEntity
8
1
62
256
6
ByLayer
370
18
48
1
60
0
100
AcDbSpline
70
4
71
3
72
18
73
14
40
0
40
0
40
0
40
0
40
0.124195292277964
40
0.124195292277964
40
0.338810496837672
40
0.338810496837672
40
0.553418009095561
40
0.553418009095561
40
0.768022011065203
40
0.768022011065203
40
0.979379382796487
40
0.979379382796487
40
1
40
1
40
1
40
1
41
1
10
214.496777025144
20
-7.68806989508585
30
0
41
1
10
214.513807305265
20
-7.97121526502838
30
0
41
1
10
214.532225794786
20
-8.24792099218661
30
0
41
1
10
214.585879526474
20
-8.97974043923034
30
0
41
1
10
214.623807010834
20
-9.42071357827137
30
0
41
1
10
214.70597289333
20
-10.2397409959631
30
0
41
1
10
214.750491807673
20
-10.6205996167129
30
0
41
1
10
214.844569558803
20
-11.3095790134472
30
0
41
1
10
214.894448612826
20
-11.6200480294722
30
0
41
1
10
214.997074956757
20
-12.1562518259906
30
0
41
1
10
215.050106367464
20
-12.3849674413884
30
0
41
1
10
215.109487856744
20
-12.590010405635
30
0
41
1
10
215.114791186958
20
-12.6078890973494
30
0
41
1
10
215.120105437942
20
-12.6253718902524
30
0
0
SPLINE
5
1F0
100
AcDbEntity
8
1
62
256
6
ByLayer
370
18
48
1
60
0
100
AcDbSpline
70
4
71
3
72
8
73
4
40
0
40
0
40
0
40
0
40
1
40
1
40
1
40
1
41
1
10
205.666962687134
20
-0.709823162328519
30
0
41
1
10
205.323140737786
20
-0.709823162328519
30
0
41
1
10
204.979318788438
20
-0.709823162328519
30
0
41
1
10
204.635496839091
20
-0.709823162328519
30
0
0
SPLINE
5
1F1
100
AcDbEntity
8
1
62
256
6
ByLayer
370
18
48
1
60
0
100
AcDbSpline
70
4
71
3
72
22
73
18
40
0
40
0
40
0
40
0
40
0.125919801008139
40
0.125919801008139
40
0.228173823812622
40
0.228173823812622
40
0.362000949327641
40
0.362000949327641
40
0.497453699158078
40
0.497453699158078
40
0.624996799363381
40
0.624996799363381
40
0.753577031326435
40
0.753577031326435
40
0.881194351724582
40
0.881194351724582
40
1
40
1
40
1
40
1
41
1
10
206.02076161269
20
-0.709823162328519
30
0
41
1
10
206.02076161269
20
-0.882962072535747
30
0
41
1
10
206.02076161269
20
-1.05610098274292
30
0
41
1
10
206.02076161269
20
-1.36983851152269
30
0
41
1
10
206.033040968024
20
-1.47052922526018
30
0
41
1
10
206.086197635391
20
-1.61228033823988
30
0
41
1
10
206.135880568945
20
-1.67375255603537
30
0
41
1
10
206.274862339961
20
-1.75528852836499
30
0
41
1
10
206.362281182913
20
-1.77567120530625
30
0
41
1
10
206.566425465338
20
-1.77567120530625
30
0
41
1
10
206.6546833318
20
-1.75663820453877
30
0
41
1
10
206.805717022172
20
-1.68019666328917
30
0
41
1
10
206.858060154517
20
-1.62586307023332
30
0
41
1
10
206.913110348854
20
-1.48395590260861
30
0
41
1
10
206.927898987978
20
-1.36185693055569
30
0
41
1
10
206.927898987978
20
-1.02990502469743
30
0
41
1
10
206.927898987978
20
-0.869864093512945
30
0
41
1
10
206.927898987978
20
-0.709823162328519
30
0
0
SPLINE
5
1F2
100
AcDbEntity
8
1
62
256
6
ByLayer
370
18
48
1
60
0
100
AcDbSpline
70
4
71
3
72
8
73
4
40
0
40
0
40
0
40
0
40
1
40
1
40
1
40
1
41
1
10
209.341932510124
20
-7.23549218404975
30
0
41
1
10
209.341682195282
20
-7.240301963604
30
0
41
1
10
209.341431484923
20
-7.24510919846011
30
0
41
1
10
209.341180379304
20
-7.24991389027224
30
0
0
SPLINE
5
1F3
100
AcDbEntity
8
1
62
256
6
ByLayer
370
18
48
1
60
0
100
AcDbSpline
70
4
71
3
72
8
73
4
40
0
40
0
40
0
40
0
40
1
40
1
40
1
40
1
41
1
10
214.85832477958
20
-12.9567980912173
30
0
41
1
10
214.91227720061
20
-12.8730022501464
30
0
41
1
10
215.000674448566
20
-12.7616160895605
30
0
41
1
10
215.120105437942
20
-12.6253718902524
30
0
0
SPLINE
5
1F4
100
AcDbEntity
8
1
62
256
6
ByLayer
370
18
48
1
60
0
100
AcDbSpline
70
4
71
3
72
8
73
4
40
0
40
0
40
0
40
0
40
1
40
1
40
1
40
1
41
1
10
209.341180379304
20
-7.24991389027218
30
0
41
1
10
209.39618511823
20
-7.24991389027218
30
0
41
1
10
209.451190074577
20
-7.24991389027224
30
0
41
1
10
209.506195246458
20
-7.24991389027224
30
0
0
SPLINE
5
1F5
100
AcDbEntity
8
1
62
256
6
ByLayer
370
18
48
1
60
0
100
AcDbSpline
70
4
71
3
72
8
73
4
40
0
40
0
40
0
40
0
40
1
40
1
40
1
40
1
41
1
10
204.465111052694
20
-11.4153456235368
30
0
41
1
10
205.474157436808
20
-11.4599208333195
30
0
41
1
10
206.483764479234
20
-11.5050063599419
30
0
41
1
10
207.493731604419
20
-11.5504775096757
30
0
0
SPLINE
5
1F6
100
AcDbEntity
8
1
62
256
6
ByLayer
370
18
48
1
60
0
100
AcDbSpline
70
4
71
3
72
8
73
4
40
0
40
0
40
0
40
0
40
1
40
1
40
1
40
1
41
1
10
214.177158849772
20
-11.1568508730974
30
0
41
1
10
214.177158849772
20
-10.6264608754344
30
0
41
1
10
214.177158849772
20
-10.00973278048
30
0
41
1
10
214.177158849772
20
-9.30666658823446
30
0
0
SPLINE
5
1F7
100
AcDbEntity
8
1
62
256
6
ByLayer
370
18
48
1
60
0
100
AcDbSpline
70
4
71
3
72
8
73
4
40
0
40
0
40
0
40
0
40
1
40
1
40
1
40
1
41
1
10
207.493731604419
20
-11.5504775096757
30
0
41
1
10
207.988719268322
20
-11.5727630451357
30
0
41
1
10
208.47393758617
20
-11.6317821243832
30
0
41
1
10
208.949478261507
20
-11.7253818881979
30
0
0
SPLINE
5
1F8
100
AcDbEntity
8
1
62
256
6
ByLayer
370
18
48
1
60
0
100
AcDbSpline
70
4
71
3
72
10
73
6
40
0
40
0
40
0
40
0
40
0.660338983050846
40
0.660338983050846
40
1
40
1
40
1
40
1
41
1
10
204.635496839091
20
-0.709823162328519
30
0
41
1
10
204.635496839091
20
-0.909158030581239
30
0
41
1
10
204.635496839091
20
-1.10849289883402
30
0
41
1
10
204.635496839091
20
-1.41036038412437
30
0
41
1
10
204.640101597341
20
-1.48219461282736
30
0
41
1
10
204.65007857355
20
-1.52394442096244
30
0
0
SPLINE
5
1F9
100
AcDbEntity
8
1
62
256
6
ByLayer
370
18
48
1
60
0
100
AcDbSpline
70
4
71
3
72
8
73
4
40
0
40
0
40
0
40
0
40
1
40
1
40
1
40
1
41
1
10
206.927898987978
20
-0.709823162328519
30
0
41
1
10
206.625519862882
20
-0.709823162328519
30
0
41
1
10
206.323140737786
20
-0.709823162328519
30
0
41
1
10
206.02076161269
20
-0.709823162328519
30
0
0
SPLINE
5
1FA
100
AcDbEntity
8
1
62
256
6
ByLayer
370
18
48
1
60
0
100
AcDbSpline
70
4
71
3
72
8
73
4
40
0
40
0
40
0
40
0
40
1
40
1
40
1
40
1
41
1
10
204.465111052693
20
-11.4153456235316
30
0
41
1
10
204.170961435858
20
-10.4843778802506
30
0
41
1
10
203.924869196016
20
-8.81365600110502
30
0
41
1
10
203.781697913534
20
-6.74732261090054
30
0
0
SPLINE
5
1FB
100
AcDbEntity
8
1
62
256
6
ByLayer
370
18
48
1
60
0
100
AcDbSpline
70
4
71
3
72
8
73
4
40
0
40
0
40
0
40
0
40
1
40
1
40
1
40
1
41
1
10
204.65007857355
20
-1.52394442096244
30
0
41
1
10
204.666195227425
20
-1.59700658519881
30
0
41
1
10
204.693823776927
20
-1.65778939410131
30
0
41
1
10
204.732196762345
20
-1.7069068154367
30
0
0
SPLINE
5
1FC
100
AcDbEntity
8
1
62
256
6
ByLayer
370
18
48
1
60
0
100
AcDbSpline
70
4
71
3
72
8
73
4
40
0
40
0
40
0
40
0
40
1
40
1
40
1
40
1
41
1
10
204.281697913534
20
-1.30782776708674
30
0
41
1
10
204.281697913534
20
-1.00268578704072
30
0
41
1
10
204.281697913534
20
-0.697543806994645
30
0
41
1
10
204.281697913534
20
-0.392401826948628
30
0
0
SPLINE
5
1FD
100
AcDbEntity
8
1
62
256
6
ByLayer
370
18
48
1
60
0
100
AcDbSpline
70
4
71
3
72
8
73
4
40
0
40
0
40
0
40
0
40
1
40
1
40
1
40
1
41
1
10
204.281697913534
20
-0.392401826948628
30
0
41
1
10
205.281697913534
20
-0.392401826948628
30
0
41
1
10
206.281697913534
20
-0.392401826948628
30
0
41
1
10
207.281697913534
20
-0.392401826948628
30
0
0
SPLINE
5
1FE
100
AcDbEntity
8
1
62
256
6
ByLayer
370
18
48
1
60
0
100
AcDbSpline
70
4
71
3
72
18
73
14
40
0
40
0
40
0
40
0
40
0.252026352812656
40
0.252026352812656
40
0.405612964547158
40
0.405612964547158
40
0.559855857535997
40
0.559855857535997
40
0.714098750524835
40
0.714098750524835
40
0.857201879020037
40
0.857201879020037
40
1
40
1
40
1
40
1
41
1
10
207.281697913534
20
-0.392401826948628
30
0
41
1
10
207.281697913534
20
-0.692632064861129
30
0
41
1
10
207.281697913534
20
-0.992862302773631
30
0
41
1
10
207.281697913534
20
-1.47605493516045
30
0
41
1
10
207.2509995252
20
-1.62340719916659
30
0
41
1
10
207.129481819971
20
-1.84490782641825
30
0
41
1
10
207.036110806857
20
-1.93161901804609
30
0
41
1
10
206.784384022514
20
-2.05686844245133
30
0
41
1
10
206.652380952675
20
-2.08818079855263
30
0
41
1
10
206.386072433872
20
-2.08818079855263
30
0
41
1
10
206.265581259659
20
-2.06055224905146
30
0
41
1
10
206.03865527702
20
-1.94892919813191
30
0
41
1
10
205.947085480687
20
-1.86531049924332
30
0
41
1
10
205.878014106934
20
-1.75295439793865
30
0
0
SPLINE
5
1FF
100
AcDbEntity
8
1
62
256
6
ByLayer
370
18
48
1
60
0
100
AcDbSpline
70
4
71
1
72
4
73
2
40
0
40
0
40
1
40
1
41
1
10
195.990775471229
20
10.9314856549751
30
0
41
1
10
195.948492814206
20
10.7736846306835
30
0
0
SPLINE
5
200
100
AcDbEntity
8
1
62
256
6
ByLayer
370
18
48
1
60
0
100
AcDbSpline
70
4
71
1
72
4
73
2
40
0
40
0
40
1
40
1
41
1
10
195.701825662661
20
10.7736846306835
30
0
41
1
10
195.659543005637
20
10.9314856549751
30
0
0
SPLINE
5
201
100
AcDbEntity
8
1
62
256
6
ByLayer
370
18
48
1
60
0
100
AcDbSpline
70
4
71
3
72
17
73
13
40
0
40
0
40
0
40
0
40
0.135720312810024
40
0.292595055443685
40
0.494637743892927
40
0.614418175998273
40
0.736258076903597
40
0.821211581014003
40
0.863611996716195
40
0.907050473950947
40
0.959849325940154
40
1
40
1
40
1
40
1
41
1
10
195.267949192631
20
-12.4999999996526
30
0
41
1
10
195.267454385656
20
-12.4999581632256
30
0
41
1
10
195.277967478928
20
-12.4828149162741
30
0
41
1
10
195.333139971868
20
-12.3913633904867
30
0
41
1
10
195.447270799758
20
-12.2297862424678
30
0
41
1
10
195.64056010748
20
-12.0252682747758
30
0
41
1
10
195.855926932216
20
-11.8497085699547
30
0
41
1
10
196.096980976815
20
-11.7096526790202
30
0
41
1
10
196.308950051984
20
-11.6201835090275
30
0
41
1
10
196.510441511035
20
-11.5561241440331
30
0
41
1
10
196.74769129123
20
-11.5099986008499
30
0
41
1
10
196.921656291679
20
-11.5006553983068
30
0
41
1
10
197
20
-11.5
30
0
0
SPLINE
5
202
100
AcDbEntity
8
1
62
256
6
ByLayer
370
18
48
1
60
0
100
AcDbSpline
70
4
71
3
72
12
73
8
40
0
40
0
40
0
40
0
40
0.224533205789681
40
0.45161391949255
40
0.707902892773549
40
0.966042658954379
40
1
40
1
40
1
40
1
41
1
10
195.615657391036
20
12.0565334984812
30
0
41
1
10
195.55187479874
20
12.1213183512955
30
0
41
1
10
195.442888421416
20
12.2376724575238
30
0
41
1
10
195.343044398309
20
12.3777063657258
30
0
41
1
10
195.284089767026
20
12.4714372392614
30
0
41
1
10
195.26883746318
20
12.4985016445121
30
0
41
1
10
195.267946514286
20
12.499999567835
30
0
41
1
10
195.267949192631
20
12.4999999996526
30
0
0
SPLINE
5
203
100
AcDbEntity
8
1
62
256
6
ByLayer
370
18
48
1
60
0
100
AcDbSpline
70
4
71
3
72
20
73
16
40
0
40
0
40
0
40
0
40
0.0691005564355662
40
0.138202647516819
40
0.207263797395011
40
0.276336165207789
40
0.346005258791556
40
0.415706342569219
40
0.490317544916943
40
0.564982436032685
40
0.64087086408626
40
0.717049309247094
40
0.793058721356464
40
0.896512608654851
40
1
40
1
40
1
40
1
41
1
10
200.5
20
6.40000000000001
30
0
41
1
10
200.205028373975
20
6.40094119976831
30
0
41
1
10
199.624726815025
20
6.44359508373964
30
0
41
1
10
198.771404044944
20
6.63213950617077
30
0
41
1
10
197.971071359155
20
6.93833290692345
30
0
41
1
10
197.237784736561
20
7.34144142161111
30
0
41
1
10
196.593907297275
20
7.82416106491603
30
0
41
1
10
196.033163485178
20
8.36934055151121
30
0
41
1
10
195.57258782397
20
8.9515999380705
30
0
41
1
10
195.208090677236
20
9.54642652283918
30
0
41
1
10
194.940993185924
20
10.1157049538041
30
0
41
1
10
194.754626496998
20
10.6439057764268
30
0
41
1
10
194.618285928588
20
11.1738116682604
30
0
41
1
10
194.539788061185
20
11.6657785724071
30
0
41
1
10
194.513023686748
20
11.940189984005
30
0
41
1
10
194.509838836698
20
12.0565334984812
30
0
0
SPLINE
5
204
100
AcDbEntity
8
1
62
256
6
ByLayer
370
18
48
1
60
0
100
AcDbSpline
70
2053
71
3
72
33
73
29
40
0
40
0
40
0
40
0
40
0.0293215219837482
40
0.0762044899274713
40
0.121259053539989
40
0.16639796770513
40
0.215461587372657
40
0.264503563453043
40
0.302198994842935
40
0.339843136782518
40
0.390996359320005
40
0.427526121385238
40
0.456424886817707
40
0.485476147810986
40
0.5112913332213
40
0.538181300870526
40
0.580669374582969
40
0.644554927873454
40
0.693782124990129
40
0.743080302774919
40
0.79447159157163
40
0.845823820594608
40
0.888925830228504
40
0.93229023122338
40
0.953970088550777
40
0.975853044072684
40
0.994994666487348
40
1
40
1
40
1
40
1
41
1
10
195.998370026865
20
-11.0827955140703
30
0
41
1
10
196.069371026717
20
-11.066510902425
30
0
41
1
10
196.237360546436
20
-11.0147719305335
30
0
41
1
10
196.423660408803
20
-10.8845693322869
30
0
41
1
10
196.57200376955
20
-10.718081827718
30
0
41
1
10
196.670758829257
20
-10.5306576491583
30
0
41
1
10
196.726053509942
20
-10.3234035325762
30
0
41
1
10
196.72883868404
20
-10.1155622874635
30
0
41
1
10
196.687257048635
20
-9.91932009775067
30
0
41
1
10
196.598505421278
20
-9.71943937313088
30
0
41
1
10
196.445283456963
20
-9.52777545006106
30
0
41
1
10
196.224398692901
20
-9.38172769766292
30
0
41
1
10
195.996364975838
20
-9.30650395119523
30
0
41
1
10
195.769962189441
20
-9.29259299769069
30
0
41
1
10
195.558183644577
20
-9.33268218160438
30
0
41
1
10
195.345110962003
20
-9.42558588685354
30
0
41
1
10
195.121305905313
20
-9.60857024894415
30
0
41
1
10
194.977554377374
20
-9.85596986738236
30
0
41
1
10
194.919293020259
20
-10.1123368918515
30
0
41
1
10
194.92701432329
20
-10.3414352375496
30
0
41
1
10
194.988980628504
20
-10.5599571453406
30
0
41
1
10
195.103597754818
20
-10.753222247492
30
0
41
1
10
195.264711197205
20
-10.9164315105574
30
0
41
1
10
195.444882948203
20
-11.0254258034766
30
0
41
1
10
195.638265914261
20
-11.0854407691386
30
0
41
1
10
195.803260800997
20
-11.1049443189199
30
0
41
1
10
195.926646908112
20
-11.0959653311144
30
0
41
1
10
195.986212153346
20
-11.0855840135154
30
0
41
1
10
195.998370026865
20
-11.0827955140703
30
0
0
SPLINE
5
205
100
AcDbEntity
8
1
62
256
6
ByLayer
370
18
48
1
60
0
100
AcDbSpline
70
4
71
3
72
12
73
8
40
0
40
0
40
0
40
0
40
0.460888004570428
40
0.644361649828648
40
0.829270838443161
40
0.945329124307287
40
1
40
1
40
1
40
1
41
1
10
7.33660254037851
20
5.06861858311196
30
0
41
1
10
7.32222594588759
20
5.00262540266741
30
0
41
1
10
7.28639735594567
20
4.91889318221388
30
0
41
1
10
7.21637569010956
20
4.82136804922888
30
0
41
1
10
7.16087063070512
20
4.77552410086727
30
0
41
1
10
7.11021839830917
20
4.7575212420717
30
0
41
1
10
7.08502703993568
20
4.75552091644064
30
0
41
1
10
7.07679491924319
20
4.75546271781771
30
0
0
SPLINE
5
206
100
AcDbEntity
8
1
62
256
6
ByLayer
370
18
48
1
60
0
100
AcDbSpline
70
4
71
3
72
12
73
8
40
0
40
0
40
0
40
0
40
0.113341437022415
40
0.252881322756834
40
0.472177626360772
40
0.891864627805015
40
1
40
1
40
1
40
1
41
1
10
7.07679491924317
20
15.2769622091385
30
0
41
1
10
7.0942448935346
20
15.2768010519265
30
0
41
1
10
7.13110102811158
20
15.2749400155224
30
0
41
1
10
7.19269545275947
20
15.263794190713
30
0
41
1
10
7.26793727355144
20
15.2367855517354
30
0
41
1
10
7.31104257334455
20
15.2045939642977
30
0
41
1
10
7.33268936854097
20
15.1808860558784
30
0
41
1
10
7.33660254037856
20
15.1759383782003
30
0
0
SPLINE
5
207
100
AcDbEntity
8
1
62
256
6
ByLayer
370
18
48
1
60
0
100
AcDbSpline
70
4
71
3
72
12
73
8
40
0
40
0
40
0
40
0
40
0.460888004570443
40
0.644361649828663
40
0.829270838443181
40
0.945329124307312
40
1
40
1
40
1
40
1
41
1
10
4.6633974596216
20
15.1759383782003
30
0
41
1
10
4.67777405411253
20
15.1978789500325
30
0
41
1
10
4.71360264405445
20
15.2253171155276
30
0
41
1
10
4.78362430989056
20
15.2563323526536
30
0
41
1
10
4.83912936929501
20
15.2707147367895
30
0
41
1
10
4.88978160169094
20
15.2763208776488
30
0
41
1
10
4.91497296006445
20
15.2769446421165
30
0
41
1
10
4.92320508075693
20
15.2769622091385
30
0
0
SPLINE
5
208
100
AcDbEntity
8
1
62
256
6
ByLayer
370
18
48
1
60
0
100
AcDbSpline
70
4
71
3
72
12
73
8
40
0
40
0
40
0
40
0
40
0.113341437022416
40
0.252881322756847
40
0.472177626360794
40
0.891864627805069
40
1
40
1
40
1
40
1
41
1
10
4.92320508075694
20
4.75546271781778
30
0
41
1
10
4.90575510646552
20
4.75599562516531
30
0
41
1
10
4.86889897188853
20
4.76195698810353
30
0
41
1
10
4.80730454724064
20
4.79765543628903
30
0
41
1
10
4.73206272644867
20
4.88316210575535
30
0
41
1
10
4.68895742665556
20
4.98249532443906
30
0
41
1
10
4.66731063145915
20
5.05379718066635
30
0
41
1
10
4.66339745962155
20
5.06861858311193
30
0
0
SPLINE
5
209
100
AcDbEntity
8
1
62
256
6
ByLayer
370
18
48
1
60
0
100
AcDbSpline
70
4
71
3
72
12
73
8
40
0
40
0
40
0
40
0
40
0.460888004570423
40
0.644361649828645
40
0.82927083844316
40
0.9453291243073
40
1
40
1
40
1
40
1
41
1
10
7.33660254037852
20
-15.1759383782003
30
0
41
1
10
7.32222594588759
20
-15.1978789500325
30
0
41
1
10
7.28639735594567
20
-15.2253171155275
30
0
41
1
10
7.21637569010956
20
-15.2563323526536
30
0
41
1
10
7.16087063070512
20
-15.2707147367895
30
0
41
1
10
7.11021839830917
20
-15.2763208776488
30
0
41
1
10
7.08502703993568
20
-15.2769446421165
30
0
41
1
10
7.07679491924319
20
-15.2769622091385
30
0
0
SPLINE
5
20A
100
AcDbEntity
8
1
62
256
6
ByLayer
370
18
48
1
60
0
100
AcDbSpline
70
4
71
3
72
12
73
8
40
0
40
0
40
0
40
0
40
0.113341437022417
40
0.252881322756836
40
0.472177626360735
40
0.891864627804961
40
1
40
1
40
1
40
1
41
1
10
7.07679491924318
20
-4.75546271781778
30
0
41
1
10
7.0942448935346
20
-4.75599562516531
30
0
41
1
10
7.13110102811158
20
-4.76195698810353
30
0
41
1
10
7.19269545275946
20
-4.79765543628903
30
0
41
1
10
7.26793727355144
20
-4.88316210575532
30
0
41
1
10
7.31104257334455
20
-4.98249532443904
30
0
41
1
10
7.33268936854097
20
-5.05379718066635
30
0
41
1
10
7.33660254037856
20
-5.06861858311194
30
0
0
SPLINE
5
20B
100
AcDbEntity
8
1
62
256
6
ByLayer
370
18
48
1
60
0
100
AcDbSpline
70
4
71
3
72
12
73
8
40
0
40
0
40
0
40
0
40
0.460888004570479
40
0.644361649828697
40
0.829270838443198
40
0.945329124307321
40
1
40
1
40
1
40
1
41
1
10
4.6633974596216
20
-5.06861858311193
30
0
41
1
10
4.67777405411252
20
-5.00262540266736
30
0
41
1
10
4.71360264405444
20
-4.91889318221382
30
0
41
1
10
4.78362430989058
20
-4.82136804922885
30
0
41
1
10
4.83912936929501
20
-4.77552410086723
30
0
41
1
10
4.88978160169094
20
-4.7575212420717
30
0
41
1
10
4.91497296006445
20
-4.75552091644062
30
0
41
1
10
4.92320508075693
20
-4.75546271781768
30
0
0
SPLINE
5
20C
100
AcDbEntity
8
1
62
256
6
ByLayer
370
18
48
1
60
0
100
AcDbSpline
70
4
71
3
72
12
73
8
40
0
40
0
40
0
40
0
40
0.113341437022422
40
0.252881322756849
40
0.472177626360778
40
0.891864627805017
40
1
40
1
40
1
40
1
41
1
10
4.92320508075694
20
-15.2769622091385
30
0
41
1
10
4.90575510646552
20
-15.2768010519265
30
0
41
1
10
4.86889897188853
20
-15.2749400155224
30
0
41
1
10
4.80730454724065
20
-15.263794190713
30
0
41
1
10
4.73206272644868
20
-15.2367855517354
30
0
41
1
10
4.68895742665557
20
-15.2045939642978
30
0
41
1
10
4.66731063145915
20
-15.1808860558784
30
0
41
1
10
4.66339745962156
20
-15.1759383782003
30
0
0
SPLINE
5
20D
100
AcDbEntity
8
SK1
62
256
6
ByLayer
370
18
48
1
60
0
100
AcDbSpline
70
4
71
3
72
18
73
14
40
0
40
0
40
0
40
0
40
0.278784063397459
40
0.420187732273708
40
0.563061758916888
40
0.647902257912721
40
0.692168848381963
40
0.725965977633196
40
0.752962031733394
40
0.779965827124557
40
0.818410229702787
40
0.889982008747636
40
1
40
1
40
1
40
1
41
1
10
-1.2950399779393
20
3.40161292972378
30
0
41
1
10
-1.25610821738286
20
3.59240231036718
30
0
41
1
10
-1.17834695954278
20
3.87083306892097
30
0
41
1
10
-1.04298433190207
20
4.22795450378098
30
0
41
1
10
-0.927425580560746
20
4.4506503657344
30
0
41
1
10
-0.809384731915487
20
4.5996765825293
30
0
41
1
10
-0.715111857754756
20
4.67290631505792
30
0
41
1
10
-0.640235133473326
20
4.70521313534785
30
0
41
1
10
-0.570129228045265
20
4.71341335219907
30
0
41
1
10
-0.497849132636981
20
4.7007975997326
30
0
41
1
10
-0.405549174369743
20
4.65398585916202
30
0
41
1
10
-0.296587178771319
20
4.54363269469108
30
0
41
1
10
-0.226589589639671
20
4.44367324961529
30
0
41
1
10
-0.194976888875071
20
4.37579881180693
30
0
0
SPLINE
5
20E
100
AcDbEntity
8
SK1
62
256
6
ByLayer
370
18
48
1
60
0
100
AcDbSpline
70
4
71
3
72
16
73
12
40
0
40
0
40
0
40
0
40
0.128458843860584
40
0.160305925181737
40
0.192522616758433
40
0.210502132546873
40
0.228508806357967
40
0.252488894428699
40
0.294960691452673
40
0.428316319397077
40
1
40
1
40
1
40
1
41
1
10
-0.194976888875294
20
4.3757988118045
30
0
41
1
10
-0.183178060854512
20
4.3476272072817
30
0
41
1
10
-0.162170158303853
20
4.32025181302556
30
0
41
1
10
-0.129498709279167
20
4.29537339794638
30
0
41
1
10
-0.112277806003082
20
4.289896543556
30
0
41
1
10
-0.0965896864602475
20
4.29248799673056
30
0
41
1
10
-0.0835209075500818
20
4.29995904310844
30
0
41
1
10
-0.0684154668241087
20
4.31620656979135
30
0
41
1
10
-0.0436930969096106
20
4.36283538120497
30
0
41
1
10
-0.0030706861231712
20
4.54971728038646
30
0
41
1
10
0.0158693594111115
20
4.71689986141873
30
0
41
1
10
-1.07E-14
20
4.85235826679352
30
0
0
SPLINE
5
20F
100
AcDbEntity
8
1
62
256
6
ByLayer
370
18
48
1
60
0
100
AcDbSpline
70
4
71
3
72
11
73
7
40
0
40
0
40
0
40
0
40
0.746388222474544
40
0.873028591997
40
0.986718729353772
40
1
40
1
40
1
40
1
41
1
10
-4.33E-14
20
10.9778576762542
30
0
41
1
10
0.0065526224389405
20
10.9729275748046
30
0
41
1
10
-0.0025732248087931
20
10.9532115742584
30
0
41
1
10
-0.0301389605792229
20
10.9153396090494
30
0
41
1
10
-0.041206630436369
20
10.902909384496
30
0
41
1
10
-0.048878230763096
20
10.8954668107554
30
0
41
1
10
-0.0496984272841605
20
10.8946775891374
30
0
0
SPLINE
5
210
100
AcDbEntity
8
1
62
256
6
ByLayer
370
18
48
1
60
0
100
AcDbSpline
70
4
71
2
72
6
73
3
40
0
40
0
40
0
40
1
40
1
40
1
41
1
10
-0.0496984272841605
20
10.8946775891374
30
0
41
1
10
-0.0560749556712296
20
10.8883465851484
30
0
41
1
10
-0.0662903922948299
20
10.8801259203069
30
0
0
SPLINE
5
211
100
AcDbEntity
8
SK1
62
256
6
ByLayer
370
18
48
1
60
0
100
AcDbSpline
70
4
71
3
72
14
73
10
40
0
40
0
40
0
40
0
40
0.0830687790006597
40
0.17754644332925
40
0.244031818361313
40
0.310312747475575
40
0.421455560529673
40
0.645674584868151
40
1
40
1
40
1
40
1
41
1
10
-0.0662903922948299
20
10.8801259203069
30
0
41
1
10
-0.0692904317869763
20
10.8776576685891
30
0
41
1
10
-0.0765904376074149
20
10.8721104866899
30
0
41
1
10
-0.0894697302436058
20
10.8632579567197
30
0
41
1
10
-0.10328859222946
20
10.8550228030162
30
0
41
1
10
-0.117830681359406
20
10.847309201473
30
0
41
1
10
-0.139011995891946
20
10.8376692776186
30
0
41
1
10
-0.16683402347422
20
10.8280935774822
30
0
41
1
10
-0.185820993818863
20
10.8229271205406
30
0
41
1
10
-0.194976888875295
20
10.8215956059619
30
0
0
SPLINE
5
212
100
AcDbEntity
8
SK1
62
256
6
ByLayer
370
18
48
1
60
0
100
AcDbSpline
70
4
71
3
72
17
73
13
40
0
40
0
40
0
40
0
40
0.10681466653001
40
0.214771244335377
40
0.24905753867224
40
0.283657536691117
40
0.313996310553888
40
0.357788814391202
40
0.440907053573668
40
0.58287185793184
40
0.728154634225552
40
1
40
1
40
1
40
1
41
1
10
-0.194976888875295
20
10.8215956059619
30
0
41
1
10
-0.222735980999908
20
10.815040487741
30
0
41
1
10
-0.295928039643755
20
10.8020123325929
30
0
41
1
10
-0.405068549443738
20
10.7839261471134
30
0
41
1
10
-0.516824062638863
20
10.7743691209468
30
0
41
1
10
-0.588497434652826
20
10.7713864386772
30
0
41
1
10
-0.664912457428309
20
10.7715865497104
30
0
41
1
10
-0.759664816664765
20
10.7761179569367
30
0
41
1
10
-0.879827934996544
20
10.7887391137937
30
0
41
1
10
-0.996709767274237
20
10.8063202569597
30
0
41
1
10
-1.13088445941867
20
10.8266690384674
30
0
41
1
10
-1.20869314243932
20
10.8319246472261
30
0
41
1
10
-1.2473539582455
20
10.8314870041876
30
0
0
SPLINE
5
213
100
AcDbEntity
8
SK1
62
256
6
ByLayer
370
18
48
1
60
0
100
AcDbSpline
70
4
71
3
72
16
73
12
40
0
40
0
40
0
40
0
40
0.128455991532172
40
0.160303404110425
40
0.192520910139659
40
0.210501861910909
40
0.228509677472095
40
0.252508611987364
40
0.295030468479874
40
0.428605247027342
40
1
40
1
40
1
40
1
41
1
10
-0.194976888875295
20
-10.8215957545436
30
0
41
1
10
-0.183177980237953
20
-10.822753571515
30
0
41
1
10
-0.162166875645959
20
-10.8289747402709
30
0
41
1
10
-0.129487479781171
20
-10.8418452958841
30
0
41
1
10
-0.112261037482143
20
-10.8500577174381
30
0
41
1
10
-0.0965711532937119
20
-10.8589159566278
30
0
41
1
10
-0.0835001784473699
20
-10.867230374189
30
0
41
1
10
-0.0683879122846555
20
-10.8781276101044
30
0
41
1
10
-0.0436470659707068
20
-10.899148016904
30
0
41
1
10
-0.0030870935548157
20
-10.9490019318424
30
0
41
1
10
0.0158333754270628
20
-10.97699898301
30
0
41
1
10
-1.02E-14
20
-10.9778577586145
30
0
0
SPLINE
5
214
100
AcDbEntity
8
SK1
62
256
6
ByLayer
370
18
48
1
60
0
100
AcDbSpline
70
4
71
3
72
18
73
14
40
0
40
0
40
0
40
0
40
0.511301940000189
40
0.597974690976029
40
0.675722013190008
40
0.731631257503374
40
0.756349076419668
40
0.781344396839265
40
0.799002571534917
40
0.816607201305274
40
0.846058532061441
40
0.905394466683384
40
1
40
1
40
1
40
1
41
1
10
4E-16
20
-4.85235750507836
30
0
41
1
10
0.0065522128135279
20
-4.7323220378001
30
0
41
1
10
-0.0025946195320842
20
-4.58897047127026
30
0
41
1
10
-0.0301239041624932
20
-4.42251526725548
30
0
41
1
10
-0.0441983684963765
20
-4.36822383302533
30
0
41
1
10
-0.0601347194330155
20
-4.32985203126091
30
0
41
1
10
-0.0760245183289752
20
-4.3071088968515
30
0
41
1
10
-0.0894326846471779
20
-4.29560652186618
30
0
41
1
10
-0.103212737892351
20
-4.29082688757221
30
0
41
1
10
-0.117740927847397
20
-4.29114315286581
30
0
41
1
10
-0.138874206980812
20
-4.30025511592224
30
0
41
1
10
-0.166756853948172
20
-4.32880404620229
30
0
41
1
10
-0.185783951794412
20
-4.35612723884957
30
0
41
1
10
-0.194976888875295
20
-4.3757983909789
30
0
0
SPLINE
5
215
100
AcDbEntity
8
SK1
62
256
6
ByLayer
370
18
48
1
60
0
100
AcDbSpline
70
4
71
3
72
17
73
13
40
0
40
0
40
0
40
0
40
0.0962130824978213
40
0.193451896578281
40
0.224376253942223
40
0.25558373255532
40
0.282950218778796
40
0.322403335755477
40
0.397232148352493
40
0.524862244452261
40
0.655478580008877
40
1
40
1
40
1
40
1
41
1
10
-0.194976888875294
20
-4.37579839097889
30
0
41
1
10
-0.222722235029827
20
-4.43492000631385
30
0
41
1
10
-0.295858578694478
20
-4.54121186607132
30
0
41
1
10
-0.404937251312901
20
-4.65863586716276
30
0
41
1
10
-0.516629127381831
20
-4.70624967902216
30
0
41
1
10
-0.58834260670317
20
-4.7137646621883
30
0
41
1
10
-0.664792011495094
20
-4.69756509812049
30
0
41
1
10
-0.759524426427797
20
-4.64567472981692
30
0
41
1
10
-0.879544225978635
20
-4.52131385704975
30
0
41
1
10
-0.996329832032022
20
-4.32591012013685
30
0
41
1
10
-1.15659252307653
20
-3.9506538786587
30
0
41
1
10
-1.24966610002344
20
-3.63838549906289
30
0
41
1
10
-1.2950399779393
20
-3.40161170366477
30
0
0
SPLINE
5
216
100
AcDbEntity
8
SK1
62
256
6
ByLayer
370
18
48
1
60
0
100
AcDbSpline
70
4
71
1
72
4
73
2
40
0
40
0
40
1
40
1
41
1
10
-1.2950399779393
20
-3.40161170366477
30
0
41
1
10
-1.31543506509497
20
-3.31204600014948
30
0
0
SPLINE
5
217
100
AcDbEntity
8
SK1
62
256
6
ByLayer
370
18
48
1
60
0
100
AcDbSpline
70
4
71
1
72
4
73
2
40
0
40
0
40
1
40
1
41
1
10
-1.31543506509497
20
3.31204737779194
30
0
41
1
10
-1.2950399779393
20
3.4016129297238
30
0
0
SPLINE
5
218
100
AcDbEntity
8
SK1
62
256
6
ByLayer
370
18
48
1
60
0
100
AcDbSpline
70
4
71
2
72
6
73
3
40
0
40
0
40
0
40
1
40
1
40
1
41
1
10
-18
20
-10.607592753875
30
0
41
1
10
-9.74999999580728
20
-10.8147118141342
30
0
41
1
10
-1.5
20
-11.0218291766808
30
0
0
SPLINE
5
219
100
AcDbEntity
8
SK1
62
256
6
ByLayer
370
18
48
1
60
0
100
AcDbSpline
70
4
71
2
72
6
73
3
40
0
40
0
40
0
40
1
40
1
40
1
41
1
10
-1.5
20
11.021829034714
30
0
41
1
10
-9.74999999580732
20
10.8147116728235
30
0
41
1
10
-18
20
10.6075926131751
30
0
0
SPLINE
5
21A
100
AcDbEntity
8
SK1
62
256
6
ByLayer
370
18
48
1
60
0
100
AcDbSpline
70
4
71
3
72
16
73
12
40
0
40
0
40
0
40
0
40
0.17417797778032
40
0.26292738001637
40
0.352387657755253
40
0.476170299714575
40
0.604041419315192
40
0.682148102691328
40
0.760939753474261
40
0.922077957138888
40
1
40
1
40
1
40
1
41
1
10
-1.5
20
-3.43390791500582
30
0
41
1
10
-1.5785734930101
20
-3.06757859012295
30
0
41
1
10
-1.68576469049674
20
-2.49675322894028
30
0
41
1
10
-1.8121538534033
20
-1.69532228811539
30
0
41
1
10
-1.89702267858704
20
-0.988044319006349
30
0
41
1
10
-1.94795962086116
20
-0.164504552021469
30
0
41
1
10
-1.92398033261577
20
0.637801200723345
30
0
41
1
10
-1.85996249584985
20
1.31409666366599
30
0
41
1
10
-1.76184498121947
20
2.05205476663429
30
0
41
1
10
-1.6351227404962
20
2.76062916209894
30
0
41
1
10
-1.53417913398424
20
3.27021761426167
30
0
41
1
10
-1.49999999999956
20
3.43390926803016
30
0
0
SPLINE
5
21B
100
AcDbEntity
8
SK1
62
256
6
ByLayer
370
18
48
1
60
0
100
AcDbSpline
70
4
71
3
72
17
73
13
40
0
40
0
40
0
40
0
40
0.309154645003288
40
0.464447536289366
40
0.49399328573416
40
0.507357208384905
40
0.520867460484495
40
0.532464925614929
40
0.546252476588042
40
0.570638307789804
40
0.650155782545824
40
1
40
1
40
1
40
1
41
1
10
-1.5
20
3.43390926803418
30
0
41
1
10
-1.50402372746174
20
3.34945196854768
30
0
41
1
10
-1.49415118749222
20
3.22277832353714
30
0
41
1
10
-1.48021639576053
20
3.0815719552627
30
0
41
1
10
-1.46005776116167
20
3.02821990289439
30
0
41
1
10
-1.4516593990949
20
3.01526427145579
30
0
41
1
10
-1.44438210973819
20
3.00880755165166
30
0
41
1
10
-1.4363304635169
20
3.00668939516227
30
0
41
1
10
-1.42681930659283
20
3.00924683127191
30
0
41
1
10
-1.40841991302043
20
3.0254921520487
30
0
41
1
10
-1.36162482438702
20
3.12193063973001
30
0
41
1
10
-1.32760864262997
20
3.21773054110832
30
0
41
1
10
-1.31543506509437
20
3.31204737779171
30
0
0
SPLINE
5
21C
100
AcDbEntity
8
SK1
62
256
6
ByLayer
370
18
48
1
60
0
100
AcDbSpline
70
4
71
3
72
20
73
16
40
0
40
0
40
0
40
0
40
0.236580256794985
40
0.351177055405667
40
0.39147836928069
40
0.432118128210198
40
0.450189846135717
40
0.46553680539509
40
0.476278302404811
40
0.487050256905384
40
0.500715542078096
40
0.524621551094663
40
0.600101760881578
40
0.940253356597362
40
1
40
1
40
1
40
1
41
1
10
-1.31543506509497
20
-3.31204600014946
30
0
41
1
10
-1.32757549982783
20
-3.2529366196318
30
0
41
1
10
-1.35100630238139
20
-3.16943201957554
30
0
41
1
10
-1.3822916507242
20
-3.07911353902206
30
0
41
1
10
-1.40244649509878
20
-3.03840888275551
30
0
41
1
10
-1.41470886395935
20
-3.01993308773531
30
0
41
1
10
-1.42626501007404
20
-3.00993984245991
30
0
41
1
10
-1.43446241794001
20
-3.00682027094443
30
0
41
1
10
-1.44201949951014
20
-3.00788320307075
30
0
41
1
10
-1.44900651958521
20
-3.01243672258902
30
0
41
1
10
-1.45701779687294
20
-3.02260359858432
30
0
41
1
10
-1.47027338931721
20
-3.05202525387909
30
0
41
1
10
-1.49547602893376
20
-3.17643441332162
30
0
41
1
10
-1.49843597071966
20
-3.30844179855197
30
0
41
1
10
-1.49998214788143
20
-3.41763711443887
30
0
41
1
10
-1.5
20
-3.43390791500582
30
0
0
SPLINE
5
21D
100
AcDbEntity
8
SK1
62
256
6
ByLayer
370
18
48
1
60
0
100
AcDbSpline
70
4
71
2
72
6
73
3
40
0
40
0
40
0
40
1
40
1
40
1
41
1
10
-19
20
-10.0329645549392
30
0
41
1
10
-18.4999993685751
20
-10.3214765556861
30
0
41
1
10
-18
20
-10.6099829102616
30
0
0
SPLINE
5
21E
100
AcDbEntity
8
SK1
62
256
6
ByLayer
370
18
48
1
60
0
100
AcDbSpline
70
4
71
1
72
4
73
2
40
0
40
0
40
1
40
1
41
1
10
-18
20
10.6099827775057
30
0
41
1
10
-18.0153485625404
20
10.6011264503777
30
0
0
SPLINE
5
21F
100
AcDbEntity
8
SK1
62
256
6
ByLayer
370
18
48
1
60
0
100
AcDbSpline
70
4
71
2
72
6
73
3
40
0
40
0
40
0
40
1
40
1
40
1
41
1
10
-18.0153485625404
20
10.6011264503777
30
0
41
1
10
-18.5076736691055
20
10.3170481724534
30
0
41
1
10
-19
20
10.0329644221717
30
0
0
SPLINE
5
220
100
AcDbEntity
8
SK1
62
256
6
ByLayer
370
18
48
1
60
0
100
AcDbSpline
70
4
71
3
72
13
73
9
40
0
40
0
40
0
40
0
40
0.2526365697518
40
0.388613970137096
40
0.527461645836431
40
0.666297753580481
40
0.802240964951897
40
1
40
1
40
1
40
1
41
1
10
-1.2950399779393
20
10.8302906518511
30
0
41
1
10
-1.32110811439467
20
10.8298878106463
30
0
41
1
10
-1.3588361524098
20
10.8360572484419
30
0
41
1
10
-1.40627536098576
20
10.8590922257344
30
0
41
1
10
-1.43886189350843
20
10.8842471732812
30
0
41
1
10
-1.46563784409658
20
10.9155241621372
30
0
41
1
10
-1.4883835792791
20
10.956891854485
30
0
41
1
10
-1.49664349234432
20
10.9886973103754
30
0
41
1
10
-1.4989074793522
20
11.0086840788646
30
0
0
SPLINE
5
221
100
AcDbEntity
8
SK1
62
256
6
ByLayer
370
18
48
1
60
0
100
AcDbSpline
70
4
71
1
72
4
73
2
40
0
40
0
40
1
40
1
41
1
10
-1.4989074793522
20
11.0086840788646
30
0
41
1
10
-1.5
20
11.0251228679297
30
0
0
SPLINE
5
222
100
AcDbEntity
8
SK1
62
256
6
ByLayer
370
18
48
1
60
0
100
AcDbSpline
70
4
71
3
72
13
73
9
40
0
40
0
40
0
40
0
40
0.239418216240486
40
0.36830233166115
40
0.499928754022136
40
0.631568038325918
40
0.76048586934839
40
1
40
1
40
1
40
1
41
1
10
-1.5
20
-11.0251229634028
30
0
41
1
10
-1.49909191796946
20
-10.9990761096856
30
0
41
1
10
-1.49103287968459
20
-10.9617189548704
30
0
41
1
10
-1.4656353290414
20
-10.9155178559453
30
0
41
1
10
-1.43886232936763
20
-10.8842487422284
30
0
41
1
10
-1.40627519739927
20
-10.8590919385496
30
0
41
1
10
-1.35883704267307
20
-10.8360578591166
30
0
41
1
10
-1.32110848256454
20
-10.8298881386429
30
0
41
1
10
-1.2950399779393
20
-10.8302907478373
30
0
0
SPLINE
5
223
100
AcDbEntity
8
SK1
62
256
6
ByLayer
370
18
48
1
60
0
100
AcDbSpline
70
4
71
1
72
4
73
2
40
0
40
0
40
1
40
1
41
1
10
-1.23845539067668
20
10.8317107628611
30
0
41
1
10
-1.2950399779393
20
10.830290651159
30
0
0
SPLINE
5
224
100
AcDbEntity
8
SK1
62
256
6
ByLayer
370
18
48
1
60
0
100
AcDbSpline
70
4
71
3
72
18
73
14
40
0
40
0
40
0
40
0
40
0.200054129671101
40
0.356881668360578
40
0.515339535119558
40
0.609489670035359
40
0.658545757667791
40
0.696033161893786
40
0.725963015605972
40
0.755901601807199
40
0.798515882178632
40
0.877850609879968
40
1
40
1
40
1
40
1
41
1
10
-1.24751210088127
20
-10.8314834387579
30
0
41
1
10
-1.21790385729632
20
-10.8319867492301
30
0
41
1
10
-1.15492488248876
20
-10.8289352694038
30
0
41
1
10
-1.04293504180943
20
-10.8135929431644
30
0
41
1
10
-0.927404017041603
20
-10.7954805972695
30
0
41
1
10
-0.809368368216531
20
-10.7807451766766
30
0
41
1
10
-0.715097352881417
20
-10.7736122564072
30
0
41
1
10
-0.640260172848635
20
-10.7711831615253
30
0
41
1
10
-0.570170144688173
20
-10.7719295168971
30
0
41
1
10
-0.497919550591549
20
-10.7756421326376
30
0
41
1
10
-0.405659429301948
20
-10.7845179731183
30
0
41
1
10
-0.296653682519536
20
-10.801583176998
30
0
41
1
10
-0.22661773081587
20
-10.8140596966937
30
0
41
1
10
-0.194976888875295
20
-10.8215957545436
30
0
0
SPLINE
5
225
100
AcDbEntity
8
SK1
62
256
6
ByLayer
370
18
48
1
60
0
100
AcDbSpline
70
4
71
1
72
4
73
2
40
0
40
0
40
1
40
1
41
1
10
-1.2950399779393
20
-10.8302907471458
30
0
41
1
10
-1.24133940173189
20
-10.8316382108237
30
0
0
SPLINE
5
226
100
AcDbEntity
8
1
62
256
6
ByLayer
370
18
48
1
60
0
100
AcDbSpline
70
4
71
1
72
4
73
2
40
0
40
0
40
1
40
1
41
1
10
195.491483229795
20
-9.71731423508207
30
0
41
1
10
195.391980028859
20
-9.58774533697782
30
0
0
SPLINE
5
227
100
AcDbEntity
8
1
62
256
6
ByLayer
370
18
48
1
60
0
100
AcDbSpline
70
4
71
1
72
4
73
2
40
0
40
0
40
1
40
1
41
1
10
195.697948738906
20
-9.4608670695943
30
0
41
1
10
195.719336589622
20
-9.62282862736102
30
0
0
LINE
5
70
100
AcDbEntity
8
4
62
256
6
ByLayer
370
13
48
0.05
60
0
100
AcDbLine
10
0
20
0
30
0
11
216
21
0
31
0
39
0
210
0
220
0
230
1
0
LINE
5
72
100
AcDbEntity
8
80
62
256
6
ByLayer
370
13
48
1
60
0
100
AcDbLine
10
0
20
0
30
0
11
-4.28511
21
0
31
0
39
0
210
0
220
0
230
1
0
LINE
5
73
100
AcDbEntity
8
SK4
62
256
6
ByLayer
370
13
48
0.05
60
0
100
AcDbLine
10
-24.5
20
0
30
0
11
218.5
21
0
31
0
39
0
210
0
220
0
230
1
0
LINE
5
75
100
AcDbEntity
8
2
62
256
6
ByLayer
370
13
48
0.05
60
0
100
AcDbLine
10
216
20
13.998411
30
0
11
48
21
13.998411
31
0
39
0
210
0
220
0
230
1
0
LINE
5
77
100
AcDbEntity
8
81
62
256
6
ByLayer
370
13
48
1
60
0
100
AcDbLine
10
216
20
13.998411
30
0
11
218
21
13.998411
31
0
39
0
210
0
220
0
230
1
0
LINE
5
78
100
AcDbEntity
8
1
62
256
6
ByLayer
370
18
48
1
60
0
100
AcDbLine
10
203.794512
20
-5.421464
30
0
11
203.781698
21
-5.421464
31
0
39
0
210
0
220
0
230
1
0
LINE
5
7A
100
AcDbEntity
8
1
62
256
6
ByLayer
370
18
48
1
60
0
100
AcDbLine
10
204.108715
20
6.4
30
0
11
203.794512
21
4.150086
31
0
39
0
210
0
220
0
230
1
0
LINE
5
7B
100
AcDbEntity
8
1
62
256
6
ByLayer
370
13
48
1
60
0
100
AcDbLine
10
209.535759
20
-0.82771
30
0
11
209.605458
21
-0.807479
31
0
39
0
210
0
220
0
230
1
0
LINE
5
7C
100
AcDbEntity
8
1
62
256
6
ByLayer
370
13
48
1
60
0
100
AcDbLine
10
209.535759
20
-4.27229
30
0
11
209.605458
21
-4.292521
31
0
39
0
210
0
220
0
230
1
0
LINE
5
7D
100
AcDbEntity
8
1
62
256
6
ByLayer
370
18
48
1
60
0
100
AcDbLine
10
214.858325
20
-13.067097
30
0
11
209.942381
21
-12.203324
31
0
39
0
210
0
220
0
230
1
0
LINE
5
7E
100
AcDbEntity
8
1
62
256
6
ByLayer
370
18
48
1
60
0
100
AcDbLine
10
209.678394
20
-12.336846
30
0
11
209.772411
21
-12.289293
31
0
39
0
210
0
220
0
230
1
0
LINE
5
7F
100
AcDbEntity
8
1
62
256
6
ByLayer
370
18
48
1
60
0
100
AcDbLine
10
209.678394
20
-12.336846
30
0
11
209.772411
21
-12.289293
31
0
39
0
210
0
220
0
230
1
0
LINE
5
80
100
AcDbEntity
8
1
62
256
6
ByLayer
370
18
48
1
60
0
100
AcDbLine
10
209.476831
20
-4.999759
30
0
11
209.568622
21
-3.866287
31
0
39
0
210
0
220
0
230
1
0
LINE
5
81
100
AcDbEntity
8
1
62
256
6
ByLayer
370
18
48
1
60
0
100
AcDbLine
10
209.568622
20
-1.233713
30
0
11
209.476831
21
-0.100241
31
0
39
0
210
0
220
0
230
1
0
LINE
5
82
100
AcDbEntity
8
1
62
256
6
ByLayer
370
18
48
1
60
0
100
AcDbLine
10
211.1
20
10.294471
30
0
11
211.1
21
10.245496
31
0
39
0
210
0
220
0
230
1
0
LINE
5
83
100
AcDbEntity
8
1
62
256
6
ByLayer
370
18
48
1
60
0
100
AcDbLine
10
214.55
20
10.245496
30
0
11
214.55
21
10.294471
31
0
39
0
210
0
220
0
230
1
0
LINE
5
84
100
AcDbEntity
8
1
62
256
6
ByLayer
370
18
48
1
60
0
100
AcDbLine
10
212.439141
20
9.435014
30
0
11
212.439141
21
9.486282
31
0
39
0
210
0
220
0
230
1
0
LINE
5
85
100
AcDbEntity
8
1
62
256
6
ByLayer
370
18
48
1
60
0
100
AcDbLine
10
213.597052
20
10.071415
30
0
11
213.597052
21
10.023091
31
0
39
0
210
0
220
0
230
1
0
LINE
5
86
100
AcDbEntity
8
1
62
256
6
ByLayer
370
18
48
1
60
0
100
AcDbLine
10
212.052948
20
10.456737
30
0
11
212.052948
21
10.505087
31
0
39
0
210
0
220
0
230
1
0
LINE
5
87
100
AcDbEntity
8
1
62
256
6
ByLayer
370
18
48
1
60
0
100
AcDbLine
10
213.210859
20
11.096082
30
0
11
213.210859
21
11.044814
31
0
39
0
210
0
220
0
230
1
0
LINE
5
88
100
AcDbEntity
8
1
62
256
6
ByLayer
370
18
48
1
60
0
100
AcDbLine
10
196.664417
20
-1.179569
30
0
11
196.680706
21
-1.179569
31
0
39
0
210
0
220
0
230
1
0
LINE
5
89
100
AcDbEntity
8
1
62
256
6
ByLayer
370
18
48
1
60
0
100
AcDbLine
10
197.978968
20
-1.069136
30
0
11
197.995162
21
-1.069136
31
0
39
0
210
0
220
0
230
1
0
LINE
5
8A
100
AcDbEntity
8
1
62
256
6
ByLayer
370
18
48
1
60
0
100
AcDbLine
10
211.575
20
-9.783615
30
0
11
211.575
21
-10.059752
31
0
39
0
210
0
220
0
230
1
0
LINE
5
8B
100
AcDbEntity
8
1
62
256
6
ByLayer
370
18
48
1
60
0
100
AcDbLine
10
212.88831
20
0.95
30
0
11
209.397538
21
0.95
31
0
39
0
210
0
220
0
230
1
0
LINE
5
8C
100
AcDbEntity
8
1
62
256
6
ByLayer
370
18
48
1
60
0
100
AcDbLine
10
209.397538
20
-6.05
30
0
11
212.88831
21
-6.05
31
0
39
0
210
0
220
0
230
1
0
LINE
5
8D
100
AcDbEntity
8
1
62
256
6
ByLayer
370
18
48
1
60
0
100
AcDbLine
10
213.579837
20
10.766165
30
0
11
213.560447
21
10.760971
31
0
39
0
210
0
220
0
230
1
0
LINE
5
8E
100
AcDbEntity
8
1
62
256
6
ByLayer
370
18
48
1
60
0
100
AcDbLine
10
212.74077
20
11.187892
30
0
11
212.74077
21
11.136365
31
0
39
0
210
0
220
0
230
1
0
LINE
5
8F
100
AcDbEntity
8
1
62
256
6
ByLayer
370
18
48
1
60
0
100
AcDbLine
10
212.312397
20
11.03222
30
0
11
212.312397
21
10.980693
31
0
39
0
210
0
220
0
230
1
0
LINE
5
90
100
AcDbEntity
8
1
62
256
6
ByLayer
370
18
48
1
60
0
100
AcDbLine
10
211.926163
20
10.167068
30
0
11
211.907965
21
10.158602
31
0
39
0
210
0
220
0
230
1
0
LINE
5
91
100
AcDbEntity
8
1
62
256
6
ByLayer
370
18
48
1
60
0
100
AcDbLine
10
212.312397
20
10.980693
30
0
11
212.295955
21
10.992195
31
0
39
0
210
0
220
0
230
1
0
LINE
5
92
100
AcDbEntity
8
1
62
256
6
ByLayer
370
18
48
1
60
0
100
AcDbLine
10
212.438766
20
9.426289
30
0
11
212.43701
21
9.406321
31
0
39
0
210
0
220
0
230
1
0
LINE
5
93
100
AcDbEntity
8
1
62
256
6
ByLayer
370
18
48
1
60
0
100
AcDbLine
10
212.295955
20
11.04433
30
0
11
212.295955
21
10.992195
31
0
39
0
210
0
220
0
230
1
0
LINE
5
94
100
AcDbEntity
8
1
62
256
6
ByLayer
370
18
48
1
60
0
100
AcDbLine
10
211.907965
20
10.210737
30
0
11
211.907965
21
10.158602
31
0
39
0
210
0
220
0
230
1
0
LINE
5
95
100
AcDbEntity
8
1
62
256
6
ByLayer
370
18
48
1
60
0
100
AcDbLine
10
213.579837
20
10.818299
30
0
11
213.579837
21
10.766165
31
0
39
0
210
0
220
0
230
1
0
LINE
5
96
100
AcDbEntity
8
1
62
256
6
ByLayer
370
18
48
1
60
0
100
AcDbLine
10
213.658877
20
9.850351
30
0
11
213.644677
21
9.86452
31
0
39
0
210
0
220
0
230
1
0
LINE
5
97
100
AcDbEntity
8
1
62
256
6
ByLayer
370
18
48
1
60
0
100
AcDbLine
10
212.438766
20
9.477816
30
0
11
212.438766
21
9.426289
31
0
39
0
210
0
220
0
230
1
0
LINE
5
98
100
AcDbEntity
8
1
62
256
6
ByLayer
370
18
48
1
60
0
100
AcDbLine
10
212.90404
20
9.376234
30
0
11
212.90404
21
9.357162
31
0
39
0
210
0
220
0
230
1
0
LINE
5
99
100
AcDbEntity
8
1
62
256
6
ByLayer
370
18
48
1
60
0
100
AcDbLine
10
211.926163
20
10.218595
30
0
11
211.926163
21
10.167068
31
0
39
0
210
0
220
0
230
1
0
LINE
5
9A
100
AcDbEntity
8
1
62
256
6
ByLayer
370
18
48
1
60
0
100
AcDbLine
10
212.43701
20
9.458455
30
0
11
212.43701
21
9.406321
31
0
39
0
210
0
220
0
230
1
0
LINE
5
9B
100
AcDbEntity
8
1
62
256
6
ByLayer
370
18
48
1
60
0
100
AcDbLine
10
212.74596
20
11.207863
30
0
11
212.74596
21
11.155728
31
0
39
0
210
0
220
0
230
1
0
LINE
5
9C
100
AcDbEntity
8
1
62
256
6
ByLayer
370
18
48
1
60
0
100
AcDbLine
10
213.560447
20
10.812498
30
0
11
213.560447
21
10.760971
31
0
39
0
210
0
220
0
230
1
0
LINE
5
9D
100
AcDbEntity
8
1
62
256
6
ByLayer
370
18
48
1
60
0
100
AcDbLine
10
212.74596
20
11.155728
30
0
11
212.74077
21
11.136365
31
0
39
0
210
0
220
0
230
1
0
LINE
5
9E
100
AcDbEntity
8
1
62
256
6
ByLayer
370
18
48
1
60
0
100
AcDbLine
10
213.644677
20
9.916047
30
0
11
213.644677
21
9.86452
31
0
39
0
210
0
220
0
230
1
0
LINE
5
9F
100
AcDbEntity
8
1
62
256
6
ByLayer
370
18
48
1
60
0
100
AcDbLine
10
213.658877
20
9.902485
30
0
11
213.658877
21
9.850351
31
0
39
0
210
0
220
0
230
1
0
LINE
5
A0
100
AcDbEntity
8
1
62
256
6
ByLayer
370
18
48
1
60
0
100
AcDbLine
10
215.4
20
4.525005
30
0
11
215.042755
21
4.435934
31
0
39
0
210
0
220
0
230
1
0
LINE
5
A1
100
AcDbEntity
8
1
62
256
6
ByLayer
370
18
48
1
60
0
100
AcDbLine
10
203.081879
20
7.23542
30
0
11
207.095606
21
7.23542
31
0
39
0
210
0
220
0
230
1
0
LINE
5
A2
100
AcDbEntity
8
1
62
256
6
ByLayer
370
18
48
1
60
0
100
AcDbLine
10
203.004312
20
6.399991
30
0
11
203.018893
21
6.469376
31
0
39
0
210
0
220
0
230
1
0
LINE
5
A3
100
AcDbEntity
8
1
62
256
6
ByLayer
370
18
48
1
60
0
100
AcDbLine
10
206.970008
20
10.700084
30
0
11
207.095606
21
7.23542
31
0
39
0
210
0
220
0
230
1
0
LINE
5
A4
100
AcDbEntity
8
1
62
256
6
ByLayer
370
18
48
1
60
0
100
AcDbLine
10
203.081879
20
8.000084
30
0
11
200.2
21
8.000084
31
0
39
0
210
0
220
0
230
1
0
LINE
5
A5
100
AcDbEntity
8
1
62
256
6
ByLayer
370
18
48
1
60
0
100
AcDbLine
10
209
20
6.65007
30
0
11
209
21
7.793309
31
0
39
0
210
0
220
0
230
1
0
LINE
5
A6
100
AcDbEntity
8
1
62
256
6
ByLayer
370
18
48
1
60
0
100
AcDbLine
10
206.970008
20
10.700084
30
0
11
200.2
21
10.700084
31
0
39
0
210
0
220
0
230
1
0
LINE
5
A7
100
AcDbEntity
8
1
62
256
6
ByLayer
370
18
48
1
60
0
100
AcDbLine
10
202.464735
20
6.800084
30
0
11
202.464735
21
6.399949
31
0
39
0
210
0
220
0
230
1
0
LINE
5
A8
100
AcDbEntity
8
1
62
256
6
ByLayer
370
18
48
1
60
0
100
AcDbLine
10
210
20
0.949991
30
0
11
210
21
1.350084
31
0
39
0
210
0
220
0
230
1
0
LINE
5
A9
100
AcDbEntity
8
1
62
256
6
ByLayer
370
18
48
1
60
0
100
AcDbLine
10
200.2
20
11.8559
30
0
11
200.2
21
10.700084
31
0
39
0
210
0
220
0
230
1
0
LINE
5
AA
100
AcDbEntity
8
1
62
256
6
ByLayer
370
18
48
1
60
0
100
AcDbLine
10
209.244921
20
12.263934
30
0
11
209.649994
21
12.335248
31
0
39
0
210
0
220
0
230
1
0
LINE
5
AB
100
AcDbEntity
8
1
62
256
6
ByLayer
370
18
48
1
60
0
100
AcDbLine
10
204.10976
20
6.469376
30
0
11
203.018893
21
6.469376
31
0
39
0
210
0
220
0
230
1
0
LINE
5
AC
100
AcDbEntity
8
1
62
256
6
ByLayer
370
18
48
1
60
0
100
AcDbLine
10
214.424835
20
4.281869
30
0
11
211.774234
21
3.621
31
0
39
0
210
0
220
0
230
1
0
LINE
5
AD
100
AcDbEntity
8
1
62
256
6
ByLayer
370
18
48
1
60
0
100
AcDbLine
10
209.799968
20
2.384471
30
0
11
210.240987
21
2.384471
31
0
39
0
210
0
220
0
230
1
0
LINE
5
AE
100
AcDbEntity
8
1
62
256
6
ByLayer
370
18
48
1
60
0
100
AcDbLine
10
203.081879
20
8.000084
30
0
11
203.081879
21
7.23542
31
0
39
0
210
0
220
0
230
1
0
LINE
5
AF
100
AcDbEntity
8
1
62
256
6
ByLayer
370
18
48
1
60
0
100
AcDbLine
10
214.424835
20
4.281869
30
0
11
215.042755
21
4.435934
31
0
39
0
210
0
220
0
230
1
0
LINE
5
B0
100
AcDbEntity
8
1
62
256
6
ByLayer
370
18
48
1
60
0
100
AcDbLine
10
200.2
20
6.800084
30
0
11
202.464735
21
6.800084
31
0
39
0
210
0
220
0
230
1
0
LINE
5
B1
100
AcDbEntity
8
1
62
256
6
ByLayer
370
18
48
1
60
0
100
AcDbLine
10
207.450708
20
12.213795
30
0
11
207.789174
21
12.202411
31
0
39
0
210
0
220
0
230
1
0
LINE
5
B2
100
AcDbEntity
8
1
62
256
6
ByLayer
370
18
48
1
60
0
100
AcDbLine
10
200.2
20
8.000084
30
0
11
200.2
21
6.800084
31
0
39
0
210
0
220
0
230
1
0
LINE
5
B3
100
AcDbEntity
8
1
62
256
6
ByLayer
370
18
48
1
60
0
100
AcDbLine
10
200.2
20
6.800084
30
0
11
200.2
21
6.650069
31
0
39
0
210
0
220
0
230
1
0
LINE
5
B4
100
AcDbEntity
8
1
62
256
6
ByLayer
370
18
48
1
60
0
100
AcDbLine
10
209.800004
20
4.435934
30
0
11
215.042755
21
4.435934
31
0
39
0
210
0
220
0
230
1
0
LINE
5
B5
100
AcDbEntity
8
1
62
256
6
ByLayer
370
18
48
1
60
0
100
AcDbLine
10
209
20
8.239344
30
0
11
209
21
12.223419
31
0
39
0
210
0
220
0
230
1
0
LINE
5
B6
100
AcDbEntity
8
1
62
256
6
ByLayer
370
18
48
1
60
0
100
AcDbLine
10
215.4
20
7.530825
30
0
11
215.4
21
4.525005
31
0
39
0
210
0
220
0
230
1
0
LINE
5
B7
100
AcDbEntity
8
1
62
256
6
ByLayer
370
18
48
1
60
0
100
AcDbLine
10
209.799838
20
4.281869
30
0
11
214.424835
21
4.281869
31
0
39
0
210
0
220
0
230
1
0
LINE
5
B8
100
AcDbEntity
8
1
62
256
6
ByLayer
370
18
48
1
60
0
100
AcDbLine
10
200.2
20
8.000084
30
0
11
200.2
21
10.700084
31
0
39
0
210
0
220
0
230
1
0
LINE
5
B9
100
AcDbEntity
8
1
62
256
6
ByLayer
370
18
48
1
60
0
100
AcDbLine
10
209.143273
20
7.39609
30
0
11
209.143273
21
7.281656
31
0
39
0
210
0
220
0
230
1
0
LINE
5
BA
100
AcDbEntity
8
1
62
256
6
ByLayer
370
18
48
1
60
0
100
AcDbLine
10
195.640535
20
10.594612
30
0
11
195.531038
21
10.688653
31
0
39
0
210
0
220
0
230
1
0
LINE
5
BB
100
AcDbEntity
8
1
62
256
6
ByLayer
370
18
48
1
60
0
100
AcDbLine
10
195.423952
20
10.524744
30
0
11
195.554057
21
10.462247
31
0
39
0
210
0
220
0
230
1
0
LINE
5
BC
100
AcDbEntity
8
1
62
256
6
ByLayer
370
18
48
1
60
0
100
AcDbLine
10
195.554057
20
10.462247
30
0
11
195.694371
21
10.394847
31
0
39
0
210
0
220
0
230
1
0
LINE
5
BD
100
AcDbEntity
8
1
62
256
6
ByLayer
370
18
48
1
60
0
100
AcDbLine
10
195.758623
20
10.493192
30
0
11
195.640535
21
10.594612
31
0
39
0
210
0
220
0
230
1
0
LINE
5
BE
100
AcDbEntity
8
1
62
256
6
ByLayer
370
18
48
1
60
0
100
AcDbLine
10
215.534208
20
13.992391
30
0
11
209.977958
21
13.014202
31
0
39
0
210
0
220
0
230
1
0
LINE
5
BF
100
AcDbEntity
8
1
62
256
6
ByLayer
370
18
48
1
60
0
100
AcDbLine
10
209.65
20
12.623966
30
0
11
209.65
21
6.990799
31
0
39
0
210
0
220
0
230
1
0
LINE
5
C0
100
AcDbEntity
8
1
62
256
6
ByLayer
370
18
48
1
60
0
100
AcDbLine
10
210.115792
20
6.600563
30
0
11
215.672042
21
7.578752
31
0
39
0
210
0
220
0
230
1
0
LINE
5
C1
100
AcDbEntity
8
1
62
256
6
ByLayer
370
18
48
1
60
0
100
AcDbLine
10
216
20
7.968988
30
0
11
216
21
13.602155
31
0
39
0
210
0
220
0
230
1
0
LINE
5
C2
100
AcDbEntity
8
1
62
256
6
ByLayer
370
18
48
1
60
0
100
AcDbLine
10
213.354136
20
3.777543
30
0
11
213.618089
21
3.777543
31
0
39
0
210
0
220
0
230
1
0
LINE
5
C3
100
AcDbEntity
8
1
62
256
6
ByLayer
370
18
48
1
60
0
100
AcDbLine
10
213.30899
20
2.070392
30
0
11
213.663226
21
2.070392
31
0
39
0
210
0
220
0
230
1
0
LINE
5
C4
100
AcDbEntity
8
1
62
256
6
ByLayer
370
18
48
1
60
0
100
AcDbLine
10
209.942381
20
-12.427219
30
0
11
209.65
21
-12.626477
31
0
39
0
210
0
220
0
230
1
0
LINE
5
C5
100
AcDbEntity
8
1
62
256
6
ByLayer
370
18
48
1
60
0
100
AcDbLine
10
209.65
20
-12.626477
30
0
11
209.65
21
-12.33184
31
0
39
0
210
0
220
0
230
1
0
LINE
5
C6
100
AcDbEntity
8
1
62
256
6
ByLayer
370
18
48
1
60
0
100
AcDbLine
10
215.58498
20
-13.506046
30
0
11
215.534208
21
-13.992233
31
0
39
0
210
0
220
0
230
1
0
LINE
5
C7
100
AcDbEntity
8
1
62
256
6
ByLayer
370
18
48
1
60
0
100
AcDbLine
10
215.707619
20
-13.4035
30
0
11
216
21
-13.602758
31
0
39
0
210
0
220
0
230
1
0
LINE
5
C8
100
AcDbEntity
8
1
62
256
6
ByLayer
370
18
48
1
60
0
100
AcDbLine
10
216
20
-7.980581
30
0
11
216
21
-13.602758
31
0
39
0
210
0
220
0
230
1
0
LINE
5
C9
100
AcDbEntity
8
1
62
256
6
ByLayer
370
18
48
1
60
0
100
AcDbLine
10
215.62127
20
-7.678777
30
0
11
215.672042
21
-7.591106
31
0
39
0
210
0
220
0
230
1
0
LINE
5
CA
100
AcDbEntity
8
1
62
256
6
ByLayer
370
18
48
1
60
0
100
AcDbLine
10
215.707619
20
-7.781323
30
0
11
216
21
-7.980581
31
0
39
0
210
0
220
0
230
1
0
LINE
5
CB
100
AcDbEntity
8
1
62
256
6
ByLayer
370
18
48
1
60
0
100
AcDbLine
10
210.02873
20
-12.529765
30
0
11
209.977958
21
-13.015952
31
0
39
0
210
0
220
0
230
1
0
LINE
5
CC
100
AcDbEntity
8
1
62
256
6
ByLayer
370
18
48
1
60
0
100
AcDbLine
10
209.942381
20
-12.427219
30
0
11
209.942381
21
-12.203299
31
0
39
0
210
0
220
0
230
1
0
LINE
5
CD
100
AcDbEntity
8
1
62
256
6
ByLayer
370
18
48
1
60
0
100
AcDbLine
10
215.399959
20
-7.543299
30
0
11
215.672042
21
-7.591106
31
0
39
0
210
0
220
0
230
1
0
LINE
5
CE
100
AcDbEntity
8
1
62
256
6
ByLayer
370
18
48
1
60
0
100
AcDbLine
10
215.707619
20
-7.781323
30
0
11
215.707619
21
-13.4035
31
0
39
0
210
0
220
0
230
1
0
LINE
5
CF
100
AcDbEntity
8
1
62
256
6
ByLayer
370
18
48
1
60
0
100
AcDbLine
10
215.534208
20
-13.992233
30
0
11
209.977958
21
-13.015952
31
0
39
0
210
0
220
0
230
1
0
LINE
5
D0
100
AcDbEntity
8
1
62
256
6
ByLayer
370
18
48
1
60
0
100
AcDbLine
10
215.58498
20
-13.506046
30
0
11
210.02873
21
-12.529765
31
0
39
0
210
0
220
0
230
1
0
LINE
5
D1
100
AcDbEntity
8
1
62
256
6
ByLayer
370
18
48
1
60
0
100
AcDbLine
10
215.399975
20
-7.639894
30
0
11
215.62127
21
-7.678777
31
0
39
0
210
0
220
0
230
1
0
LINE
5
D2
100
AcDbEntity
8
1
62
256
6
ByLayer
370
18
48
1
60
0
100
AcDbLine
10
199.7
20
-11.476562
30
0
11
204.2
21
-11.476562
31
0
39
0
210
0
220
0
230
1
0
LINE
5
D3
100
AcDbEntity
8
1
62
256
6
ByLayer
370
18
48
1
60
0
100
AcDbLine
10
203.794512
20
4.336038
30
0
11
203.794512
21
-5.421464
31
0
39
0
210
0
220
0
230
1
0
LINE
5
D4
100
AcDbEntity
8
1
62
256
6
ByLayer
370
18
48
1
60
0
100
AcDbLine
10
196.259469
20
-0.993255
30
0
11
196.249002
21
-0.993255
31
0
39
0
210
0
220
0
230
1
0
LINE
5
D5
100
AcDbEntity
8
1
62
256
6
ByLayer
370
18
48
1
60
0
100
AcDbLine
10
199.7
20
11.364575
30
0
11
199.7
21
11.5
31
0
39
0
210
0
220
0
230
1
0
LINE
5
D6
100
AcDbEntity
8
1
62
256
6
ByLayer
370
18
48
1
60
0
100
AcDbLine
10
194
20
4.258912
30
0
11
194
21
5.30395
31
0
39
0
210
0
220
0
230
1
0
LINE
5
D7
100
AcDbEntity
8
1
62
256
6
ByLayer
370
18
48
1
60
0
100
AcDbLine
10
204.087029
20
6.4
30
0
11
204.10872
21
6.4
31
0
39
0
210
0
220
0
230
1
0
LINE
5
D8
100
AcDbEntity
8
1
62
256
6
ByLayer
370
18
48
1
60
0
100
AcDbLine
10
199.7
20
-11.5
30
0
11
199.7
21
-11.476562
31
0
39
0
210
0
220
0
230
1
0
LINE
5
D9
100
AcDbEntity
8
1
62
256
6
ByLayer
370
18
48
1
60
0
100
AcDbLine
10
197.546268
20
0.107016
30
0
11
197.535801
21
0.107016
31
0
39
0
210
0
220
0
230
1
0
LINE
5
DA
100
AcDbEntity
8
1
62
256
6
ByLayer
370
18
48
1
60
0
100
AcDbLine
10
199.7
20
11.476562
30
0
11
200.200036
21
11.476562
31
0
39
0
210
0
220
0
230
1
0
LINE
5
DB
100
AcDbEntity
8
1
62
256
6
ByLayer
370
18
48
1
60
0
100
AcDbLine
10
197.808073
20
11.5
30
0
11
199.7
21
11.5
31
0
39
0
210
0
220
0
230
1
0
LINE
5
DC
100
AcDbEntity
8
1
62
256
6
ByLayer
370
18
48
1
60
0
100
AcDbLine
10
199.7
20
6.4
30
0
11
199.7
21
11.364575
31
0
39
0
210
0
220
0
230
1
0
LINE
5
DD
100
AcDbEntity
8
1
62
256
6
ByLayer
370
18
48
1
60
0
100
AcDbLine
10
197.403716
20
-1.044068
30
0
11
197.393249
21
-1.044068
31
0
39
0
210
0
220
0
230
1
0
LINE
5
DE
100
AcDbEntity
8
1
62
256
6
ByLayer
370
18
48
1
60
0
100
AcDbLine
10
196.162902
20
0.107016
30
0
11
196.152434
21
0.107016
31
0
39
0
210
0
220
0
230
1
0
LINE
5
DF
100
AcDbEntity
8
1
62
256
6
ByLayer
370
18
48
1
60
0
100
AcDbLine
10
199.7
20
-11.5
30
0
11
197
21
-11.5
31
0
39
0
210
0
220
0
230
1
0
LINE
5
E0
100
AcDbEntity
8
1
62
256
6
ByLayer
370
18
48
1
60
0
100
AcDbLine
10
204.087029
20
6.4
30
0
11
203.794512
21
4.336038
31
0
39
0
210
0
220
0
230
1
0
LINE
5
E1
100
AcDbEntity
8
1
62
256
6
ByLayer
370
18
48
1
60
0
100
AcDbLine
10
196.177463
20
-0.791358
30
0
11
196.166996
21
-0.791358
31
0
39
0
210
0
220
0
230
1
0
LINE
5
E2
100
AcDbEntity
8
1
62
256
6
ByLayer
370
18
48
1
60
0
100
AcDbLine
10
206.766836
20
-12.254622
30
0
11
207.493732
21
-12.198921
31
0
39
0
210
0
220
0
230
1
0
LINE
5
E3
100
AcDbEntity
8
1
62
256
6
ByLayer
370
18
48
1
60
0
100
AcDbLine
10
207.493732
20
-11.550478
30
0
11
207.493732
21
-12.198921
31
0
39
0
210
0
220
0
230
1
0
LINE
5
E4
100
AcDbEntity
8
1
62
256
6
ByLayer
370
18
48
1
60
0
100
AcDbLine
10
209.8
20
4.600186
30
0
11
209.8
21
0.950079
31
0
39
0
210
0
220
0
230
1
0
LINE
5
E5
100
AcDbEntity
8
1
62
256
6
ByLayer
370
18
48
1
60
0
100
AcDbLine
10
203.794556
20
4.150086
30
0
11
209.341933
21
4.150086
31
0
39
0
210
0
220
0
230
1
0
LINE
5
E6
100
AcDbEntity
8
1
62
256
6
ByLayer
370
18
48
1
60
0
100
AcDbLine
10
214.496777
20
-7.68807
30
0
11
214.492923
21
-7.249914
31
0
39
0
210
0
220
0
230
1
0
LINE
5
E7
100
AcDbEntity
8
1
62
256
6
ByLayer
370
18
48
1
60
0
100
AcDbLine
10
209.506195
20
-7.249914
30
0
11
214.496777
21
-7.68807
31
0
39
0
210
0
220
0
230
1
0
LINE
5
E8
100
AcDbEntity
8
1
62
256
6
ByLayer
370
18
48
1
60
0
100
AcDbLine
10
200
20
6.650086
30
0
11
201.8
21
6.650086
31
0
39
0
210
0
220
0
230
1
0
LINE
5
E9
100
AcDbEntity
8
1
62
256
6
ByLayer
370
18
48
1
60
0
100
AcDbLine
10
214.492923
20
-7.249914
30
0
11
215.039672
21
-7.249914
31
0
39
0
210
0
220
0
230
1
0
LINE
5
EA
100
AcDbEntity
8
1
62
256
6
ByLayer
370
18
48
1
60
0
100
AcDbLine
10
204.135275
20
6.650086
30
0
11
209.079172
21
6.650086
31
0
39
0
210
0
220
0
230
1
0
LINE
5
EB
100
AcDbEntity
8
1
62
256
6
ByLayer
370
18
48
1
60
0
100
AcDbLine
10
215.120105
20
-12.625372
30
0
11
215.4
21
-12.614172
31
0
39
0
210
0
220
0
230
1
0
LINE
5
EC
100
AcDbEntity
8
1
62
256
6
ByLayer
370
18
48
1
60
0
100
AcDbLine
10
200
20
6.399928
30
0
11
200
21
6.650086
31
0
39
0
210
0
220
0
230
1
0
LINE
5
ED
100
AcDbEntity
8
1
62
256
6
ByLayer
370
18
48
1
60
0
100
AcDbLine
10
204.001935
20
-11.589821
30
0
11
201.848456
21
-11.476565
31
0
39
0
210
0
220
0
230
1
0
LINE
5
EE
100
AcDbEntity
8
1
62
256
6
ByLayer
370
18
48
1
60
0
100
AcDbLine
10
200
20
-11.923542
30
0
11
200
21
-11.476565
31
0
39
0
210
0
220
0
230
1
0
LINE
5
EF
100
AcDbEntity
8
1
62
256
6
ByLayer
370
18
48
1
60
0
100
AcDbLine
10
209.079172
20
6.650086
30
0
11
209.341933
21
4.150086
31
0
39
0
210
0
220
0
230
1
0
LINE
5
F0
100
AcDbEntity
8
1
62
256
6
ByLayer
370
18
48
1
60
0
100
AcDbLine
10
208.949478
20
-12.20877
30
0
11
209.678389
21
-12.336845
31
0
39
0
210
0
220
0
230
1
0
LINE
5
F1
100
AcDbEntity
8
1
62
256
6
ByLayer
370
18
48
1
60
0
100
AcDbLine
10
215.4
20
-7.569427
30
0
11
215.4
21
-12.614172
31
0
39
0
210
0
220
0
230
1
0
LINE
5
F2
100
AcDbEntity
8
1
62
256
6
ByLayer
370
18
48
1
60
0
100
AcDbLine
10
203.781698
20
-6.747323
30
0
11
209.341933
21
-7.235492
31
0
39
0
210
0
220
0
230
1
0
LINE
5
F3
100
AcDbEntity
8
1
62
256
6
ByLayer
370
18
48
1
60
0
100
AcDbLine
10
201.8
20
6.399995
30
0
11
201.8
21
6.650086
31
0
39
0
210
0
220
0
230
1
0
LINE
5
F4
100
AcDbEntity
8
1
62
256
6
ByLayer
370
18
48
1
60
0
100
AcDbLine
10
209.341933
20
4.150086
30
0
11
209.341933
21
-7.235492
31
0
39
0
210
0
220
0
230
1
0
LINE
5
F5
100
AcDbEntity
8
1
62
256
6
ByLayer
370
18
48
1
60
0
100
AcDbLine
10
215.4
20
-12.614172
30
0
11
214.858325
21
-13.067097
31
0
39
0
210
0
220
0
230
1
0
LINE
5
F6
100
AcDbEntity
8
1
62
256
6
ByLayer
370
18
48
1
60
0
100
AcDbLine
10
203.781698
20
-6.747323
30
0
11
203.781698
21
-5.421414
31
0
39
0
210
0
220
0
230
1
0
LINE
5
F7
100
AcDbEntity
8
1
62
256
6
ByLayer
370
18
48
1
60
0
100
AcDbLine
10
209.506195
20
-7.249914
30
0
11
214.492923
21
-7.249914
31
0
39
0
210
0
220
0
230
1
0
LINE
5
F8
100
AcDbEntity
8
1
62
256
6
ByLayer
370
18
48
1
60
0
100
AcDbLine
10
204.001935
20
-11.589821
30
0
11
204.001935
21
-11.476459
31
0
39
0
210
0
220
0
230
1
0
LINE
5
F9
100
AcDbEntity
8
1
62
256
6
ByLayer
370
18
48
1
60
0
100
AcDbLine
10
204.178617
20
-11.608933
30
0
11
204.001935
21
-11.589821
31
0
39
0
210
0
220
0
230
1
0
LINE
5
FA
100
AcDbEntity
8
1
62
256
6
ByLayer
370
18
48
1
60
0
100
AcDbLine
10
213.565669
20
-4.117351
30
0
11
215.4
21
-4.574701
31
0
39
0
210
0
220
0
230
1
0
LINE
5
FB
100
AcDbEntity
8
1
62
256
6
ByLayer
370
18
48
1
60
0
100
AcDbLine
10
204.178617
20
-11.608933
30
0
11
204.178617
21
-11.476308
31
0
39
0
210
0
220
0
230
1
0
LINE
5
FC
100
AcDbEntity
8
1
62
256
6
ByLayer
370
18
48
1
60
0
100
AcDbLine
10
214.858325
20
-12.956798
30
0
11
214.858325
21
-13.067097
31
0
39
0
210
0
220
0
230
1
0
LINE
5
FD
100
AcDbEntity
8
1
62
256
6
ByLayer
370
18
48
1
60
0
100
AcDbLine
10
204.465111
20
-11.415346
30
0
11
204.688194
21
-11.55953
31
0
39
0
210
0
220
0
230
1
0
LINE
5
FE
100
AcDbEntity
8
1
62
256
6
ByLayer
370
18
48
1
60
0
100
AcDbLine
10
209.289878
20
4.645175
30
0
11
209.8
21
4.600186
31
0
39
0
210
0
220
0
230
1
0
LINE
5
FF
100
AcDbEntity
8
1
62
256
6
ByLayer
370
18
48
1
60
0
100
AcDbLine
10
208.949478
20
-11.725382
30
0
11
208.949478
21
-12.20877
31
0
39
0
210
0
220
0
230
1
0
LINE
5
100
100
AcDbEntity
8
1
62
256
6
ByLayer
370
18
48
1
60
0
100
AcDbLine
10
214.858325
20
-13.067097
30
0
11
209.881852
21
-12.192688
31
0
39
0
210
0
220
0
230
1
0
LINE
5
101
100
AcDbEntity
8
1
62
256
6
ByLayer
370
18
48
1
60
0
100
AcDbLine
10
209.781774
20
-12.183471
30
0
11
209.881852
21
-12.192688
31
0
39
0
210
0
220
0
230
1
0
LINE
5
102
100
AcDbEntity
8
1
62
256
6
ByLayer
370
18
48
1
60
0
100
AcDbLine
10
215.4
20
-5.34762
30
0
11
215.4
21
-7.569427
31
0
39
0
210
0
220
0
230
1
0
LINE
5
103
100
AcDbEntity
8
1
62
256
6
ByLayer
370
18
48
1
60
0
100
AcDbLine
10
204.688194
20
-11.55953
30
0
11
204.829063
21
-11.580309
31
0
39
0
210
0
220
0
230
1
0
LINE
5
104
100
AcDbEntity
8
1
62
256
6
ByLayer
370
18
48
1
60
0
100
AcDbLine
10
204.135275
20
6.650086
30
0
11
204.099901
21
6.399969
31
0
39
0
210
0
220
0
230
1
0
LINE
5
105
100
AcDbEntity
8
1
62
256
6
ByLayer
370
18
48
1
60
0
100
AcDbLine
10
209.781774
20
-12.183471
30
0
11
209.781774
21
-12.283885
31
0
39
0
210
0
220
0
230
1
0
LINE
5
106
100
AcDbEntity
8
1
62
256
6
ByLayer
370
18
48
1
60
0
100
AcDbLine
10
215.4
20
-4.574701
30
0
11
215.4
21
-5.34762
31
0
39
0
210
0
220
0
230
1
0
LINE
5
107
100
AcDbEntity
8
1
62
256
6
ByLayer
370
18
48
1
60
0
100
AcDbLine
10
209.781774
20
-12.283885
30
0
11
209.772411
21
-12.289293
31
0
39
0
210
0
220
0
230
1
0
LINE
5
108
100
AcDbEntity
8
1
62
256
6
ByLayer
370
18
48
1
60
0
100
AcDbLine
10
15
20
16
30
0
11
0.3
21
16
31
0
39
0
210
0
220
0
230
1
0
LINE
5
109
100
AcDbEntity
8
1
62
256
6
ByLayer
370
18
48
1
60
0
100
AcDbLine
10
195.948493
20
10.773685
30
0
11
195.900058
21
10.592925
31
0
39
0
210
0
220
0
230
1
0
LINE
5
10A
100
AcDbEntity
8
1
62
256
6
ByLayer
370
18
48
1
60
0
100
AcDbLine
10
195.75026
20
10.592925
30
0
11
195.701826
21
10.773685
31
0
39
0
210
0
220
0
230
1
0
LINE
5
10B
100
AcDbEntity
8
1
62
256
6
ByLayer
370
18
48
1
60
0
100
AcDbLine
10
195.270019
20
12.5
30
0
11
194
21
12.5
31
0
39
0
210
0
220
0
230
1
0
LINE
5
10C
100
AcDbEntity
8
1
62
256
6
ByLayer
370
18
48
1
60
0
100
AcDbLine
10
194
20
-12.5
30
0
11
195.270019
21
-12.5
31
0
39
0
210
0
220
0
230
1
0
LINE
5
10D
100
AcDbEntity
8
1
62
256
6
ByLayer
370
18
48
1
60
0
100
AcDbLine
10
194.509839
20
12.056533
30
0
11
195.615657
21
12.056533
31
0
39
0
210
0
220
0
230
1
0
LINE
5
10E
100
AcDbEntity
8
1
62
256
6
ByLayer
370
18
48
1
60
0
100
AcDbLine
10
203.638578
20
6.4
30
0
11
200.5
21
6.4
31
0
39
0
210
0
220
0
230
1
0
LINE
5
10F
100
AcDbEntity
8
1
62
256
6
ByLayer
370
18
48
1
60
0
100
AcDbLine
10
203.794512
20
6.4
30
0
11
203.794512
21
-6.453082
31
0
39
0
210
0
220
0
230
1
0
LINE
5
110
100
AcDbEntity
8
1
62
256
6
ByLayer
370
18
48
1
60
0
100
AcDbLine
10
203.638578
20
6.4
30
0
11
203.794512
21
6.4
31
0
39
0
210
0
220
0
230
1
0
LINE
5
111
100
AcDbEntity
8
1
62
256
6
ByLayer
370
18
48
1
60
0
100
AcDbLine
10
197
20
11.5
30
0
11
199.700159
21
11.5
31
0
39
0
210
0
220
0
230
1
0
LINE
5
112
100
AcDbEntity
8
1
62
256
6
ByLayer
370
18
48
1
60
0
100
AcDbLine
10
199.700159
20
6.453551
30
0
11
199.700159
21
11.5
31
0
39
0
210
0
220
0
230
1
0
LINE
5
113
100
AcDbEntity
8
1
62
256
6
ByLayer
370
18
48
1
60
0
100
AcDbLine
10
15
20
-16
30
0
11
47.842239
21
-12.516732
31
0
39
0
210
0
220
0
230
1
0
LINE
5
114
100
AcDbEntity
8
1
62
256
6
ByLayer
370
18
48
1
60
0
100
AcDbLine
10
47.842239
20
12.516732
30
0
11
15
21
16
31
0
39
0
210
0
220
0
230
1
0
LINE
5
115
100
AcDbEntity
8
1
62
256
6
ByLayer
370
18
48
1
60
0
100
AcDbLine
10
0.3
20
-16
30
0
11
15
21
-16
31
0
39
0
210
0
220
0
230
1
0
LINE
5
116
100
AcDbEntity
8
1
62
256
6
ByLayer
370
18
48
1
60
0
100
AcDbLine
10
7.076795
20
4.755463
30
0
11
4.923205
21
4.755463
31
0
39
0
210
0
220
0
230
1
0
LINE
5
117
100
AcDbEntity
8
1
62
256
6
ByLayer
370
18
48
1
60
0
100
AcDbLine
10
4.923205
20
15.276962
30
0
11
7.076795
21
15.276962
31
0
39
0
210
0
220
0
230
1
0
LINE
5
118
100
AcDbEntity
8
1
62
256
6
ByLayer
370
18
48
1
60
0
100
AcDbLine
10
7.076795
20
-15.276962
30
0
11
4.923205
21
-15.276962
31
0
39
0
210
0
220
0
230
1
0
LINE
5
119
100
AcDbEntity
8
1
62
256
6
ByLayer
370
18
48
1
60
0
100
AcDbLine
10
4.923205
20
-4.755463
30
0
11
7.076795
21
-4.755463
31
0
39
0
210
0
220
0
230
1
0
LINE
5
11A
100
AcDbEntity
8
1
62
256
6
ByLayer
370
18
48
1
60
0
100
AcDbLine
10
0.3
20
16
30
0
11
0
21
15.7
31
0
39
0
210
0
220
0
230
1
0
LINE
5
11B
100
AcDbEntity
8
1
62
256
6
ByLayer
370
18
48
1
60
0
100
AcDbLine
10
0
20
-15.7
30
0
11
0.3
21
-16
31
0
39
0
210
0
220
0
230
1
0
LINE
5
11C
100
AcDbEntity
8
1
62
256
6
ByLayer
370
18
48
1
60
0
100
AcDbLine
10
7.336603
20
5.068619
30
0
11
7.336603
21
15.175938
31
0
39
0
210
0
220
0
230
1
0
LINE
5
11D
100
AcDbEntity
8
1
62
256
6
ByLayer
370
18
48
1
60
0
100
AcDbLine
10
7.076795
20
4.755463
30
0
11
7.076795
21
15.276962
31
0
39
0
210
0
220
0
230
1
0
LINE
5
11E
100
AcDbEntity
8
1
62
256
6
ByLayer
370
18
48
1
60
0
100
AcDbLine
10
4.923205
20
-15.276962
30
0
11
4.923205
21
-4.755463
31
0
39
0
210
0
220
0
230
1
0
LINE
5
11F
100
AcDbEntity
8
1
62
256
6
ByLayer
370
18
48
1
60
0
100
AcDbLine
10
4.663397
20
-15.175938
30
0
11
4.663397
21
-5.068619
31
0
39
0
210
0
220
0
230
1
0
LINE
5
120
100
AcDbEntity
8
1
62
256
6
ByLayer
370
18
48
1
60
0
100
AcDbLine
10
7.336603
20
-15.175938
30
0
11
7.336603
21
-5.068619
31
0
39
0
210
0
220
0
230
1
0
LINE
5
121
100
AcDbEntity
8
1
62
256
6
ByLayer
370
18
48
1
60
0
100
AcDbLine
10
7.076795
20
-15.276962
30
0
11
7.076795
21
-4.755463
31
0
39
0
210
0
220
0
230
1
0
LINE
5
122
100
AcDbEntity
8
1
62
256
6
ByLayer
370
18
48
1
60
0
100
AcDbLine
10
4.923205
20
4.755463
30
0
11
4.923205
21
15.276962
31
0
39
0
210
0
220
0
230
1
0
LINE
5
123
100
AcDbEntity
8
1
62
256
6
ByLayer
370
18
48
1
60
0
100
AcDbLine
10
4.663397
20
5.068619
30
0
11
4.663397
21
15.175938
31
0
39
0
210
0
220
0
230
1
0
LINE
5
124
100
AcDbEntity
8
1
62
256
6
ByLayer
370
18
48
1
60
0
100
AcDbLine
10
48.158646
20
-12.5
30
0
11
193.7
21
-12.5
31
0
39
0
210
0
220
0
230
1
0
LINE
5
125
100
AcDbEntity
8
1
62
256
6
ByLayer
370
18
48
1
60
0
100
AcDbLine
10
193.7
20
12.5
30
0
11
48.158646
21
12.5
31
0
39
0
210
0
220
0
230
1
0
LINE
5
126
100
AcDbEntity
8
1
62
256
6
ByLayer
370
18
48
1
60
0
100
AcDbLine
10
195.605463
20
-9.865734
30
0
11
195.491483
21
-9.717314
31
0
39
0
210
0
220
0
230
1
0
LINE
5
127
100
AcDbEntity
8
1
62
256
6
ByLayer
370
18
48
1
60
0
100
AcDbLine
10
195.719337
20
-9.622829
30
0
11
195.743836
21
-9.808354
31
0
39
0
210
0
220
0
230
1
0
LINE
5
128
100
AcDbEntity
8
1
62
256
6
ByLayer
370
18
48
1
60
0
100
AcDbLine
10
194
20
12.5
30
0
11
194
21
-12.5
31
0
39
0
210
0
220
0
230
1
0
LINE
5
129
100
AcDbEntity
8
1
62
256
6
ByLayer
370
18
48
1
60
0
100
AcDbLine
10
15
20
-16
30
0
11
15
21
0
31
0
39
0
210
0
220
0
230
1
0
LINE
5
12A
100
AcDbEntity
8
1
62
256
6
ByLayer
370
18
48
1
60
0
100
AcDbLine
10
47.842239
20
-12.516732
30
0
11
47.842239
21
0
31
0
39
0
210
0
220
0
230
1
0
LINE
5
12B
100
AcDbEntity
8
1
62
256
6
ByLayer
370
18
48
1
60
0
100
AcDbLine
10
15
20
0
30
0
11
15
21
16
31
0
39
0
210
0
220
0
230
1
0
LINE
5
12C
100
AcDbEntity
8
1
62
256
6
ByLayer
370
18
48
1
60
0
100
AcDbLine
10
47.842239
20
0
30
0
11
47.842239
21
12.516732
31
0
39
0
210
0
220
0
230
1
0
LINE
5
12D
100
AcDbEntity
8
1
62
256
6
ByLayer
370
18
48
1
60
0
100
AcDbLine
10
0.3
20
-16
30
0
11
0.3
21
0
31
0
39
0
210
0
220
0
230
1
0
LINE
5
12E
100
AcDbEntity
8
1
62
256
6
ByLayer
370
18
48
1
60
0
100
AcDbLine
10
0.3
20
0
30
0
11
0.3
21
16
31
0
39
0
210
0
220
0
230
1
0
LINE
5
12F
100
AcDbEntity
8
1
62
256
6
ByLayer
370
18
48
1
60
0
100
AcDbLine
10
0
20
-15.7
30
0
11
0
21
0
31
0
39
0
210
0
220
0
230
1
0
LINE
5
130
100
AcDbEntity
8
1
62
256
6
ByLayer
370
18
48
1
60
0
100
AcDbLine
10
0
20
0
30
0
11
0
21
15.7
31
0
39
0
210
0
220
0
230
1
0
LINE
5
131
100
AcDbEntity
8
SK1
62
256
6
ByLayer
370
18
48
1
60
0
100
AcDbLine
10
-1.315435
20
-3.312046
30
0
11
-1.315435
21
3.312047
31
0
39
0
210
0
220
0
230
1
0
LINE
5
133
100
AcDbEntity
8
1
62
256
6
ByLayer
370
18
48
1
60
0
100
AcDbLine
10
48.158646
20
12.5
30
0
11
48.158646
21
0
31
0
39
0
210
0
220
0
230
1
0
LINE
5
134
100
AcDbEntity
8
1
62
256
6
ByLayer
370
18
48
1
60
0
100
AcDbLine
10
48.158646
20
0
30
0
11
48.158646
21
-12.5
31
0
39
0
210
0
220
0
230
1
0
LINE
5
135
100
AcDbEntity
8
1
62
256
6
ByLayer
370
18
48
1
60
0
100
AcDbLine
10
193.7
20
-12.5
30
0
11
193.7
21
0
31
0
39
0
210
0
220
0
230
1
0
LINE
5
136
100
AcDbEntity
8
1
62
256
6
ByLayer
370
18
48
1
60
0
100
AcDbLine
10
193.7
20
0
30
0
11
193.7
21
12.5
31
0
39
0
210
0
220
0
230
1
0
LINE
5
137
100
AcDbEntity
8
SK1
62
256
6
ByLayer
370
18
48
1
60
0
100
AcDbLine
10
-1.5
20
11.021829
30
0
11
-1.5
21
3.433909
31
0
39
0
210
0
220
0
230
1
0
LINE
5
138
100
AcDbEntity
8
SK1
62
256
6
ByLayer
370
18
48
1
60
0
100
AcDbLine
10
-18
20
10.607622
30
0
11
-18
21
-10.607622
31
0
39
0
210
0
220
0
230
1
0
LINE
5
139
100
AcDbEntity
8
SK1
62
256
6
ByLayer
370
18
48
1
60
0
100
AcDbLine
10
-1.5
20
-3.433908
30
0
11
-1.5
21
-11.021829
31
0
39
0
210
0
220
0
230
1
0
LINE
5
13A
100
AcDbEntity
8
SK1
62
256
6
ByLayer
370
18
48
1
60
0
100
AcDbLine
10
-19
20
10.032996
30
0
11
-19
21
-10.032996
31
0
39
0
210
0
220
0
230
1
0
LINE
5
13B
100
AcDbEntity
8
SK1
62
256
6
ByLayer
370
18
48
1
60
0
100
AcDbLine
10
-1.29504
20
10.830291
30
0
11
-1.29504
21
3.401613
31
0
39
0
210
0
220
0
230
1
0
LINE
5
13C
100
AcDbEntity
8
SK1
62
256
6
ByLayer
370
18
48
1
60
0
100
AcDbLine
10
-1.29504
20
-3.401612
30
0
11
-1.29504
21
-10.830291
31
0
39
0
210
0
220
0
230
1
0
LINE
5
13D
100
AcDbEntity
8
SK1
62
256
6
ByLayer
370
18
48
1
60
0
100
AcDbLine
10
-0.194977
20
10.821596
30
0
11
-0.194977
21
4.375799
31
0
39
0
210
0
220
0
230
1
0
LINE
5
13E
100
AcDbEntity
8
SK1
62
256
6
ByLayer
370
18
48
1
60
0
100
AcDbLine
10
-0.194977
20
-4.375798
30
0
11
-0.194977
21
-10.821596
31
0
39
0
210
0
220
0
230
1
0
MTEXT
5
228
100
AcDbEntity
8
SK6
62
256
6
ByLayer
370
18
48
1
60
0
100
AcDbMText
10
222.542999
20
23.375586
30
0
210
0
220
0
230
1
1
\W0.7239;BR20D-36CC06F-C3L
40
3
41
0
44
1.084337
50
0
71
7
72
5
7
iso_b_vert
0
DIMENSION
5
235
100
AcDbEntity
8
2
62
256
6
ByLayer
370
13
48
1
60
0
100
AcDbDimension
2
DimnDraft3D1
10
216
20
43.5
30
0
11
103.831579
21
43.5
31
0
70
32
71
5
72
1
41
1
210
0
220
0
230
1
3
Standard
100
AcDbAlignedDimension
13
0
23
17.7
33
0
14
216
24
15.998411
34
0
50
0
100
AcDbRotatedDimension
1001
ACAD
1000
DSTYLE
1002
{
1070
   279
1070
     0
1070
   172
1070
     1
1070
   173
1070
     1
1070
   340
1005
229
1070
   271
1070
     1
1070
    77
1070
     1
1070
    73
1070
     0
1070
   171
1070
     4
1070
   274
1070
     4
1070
   177
1070
     7
1070
   176
1070
     7
1070
   178
1070
     7
1070
    41
1041
3.175
1070
   147
1041
1.5
1070
    42
1041
2.0
1070
    44
1041
2.0
1070
   140
1041
3.0
1070
   343
1005
0
1070
   344
1005
0
1002
}
0
DIMENSION
5
23F
100
AcDbEntity
8
2
62
256
6
ByLayer
370
13
48
1
60
0
100
AcDbDimension
2
DimnDraft3D2
10
48
20
28.5
30
0
11
119.040789
21
28.5
31
0
70
32
71
5
72
1
41
1
210
0
220
0
230
1
3
Standard
100
AcDbAlignedDimension
13
216
23
15.998411
33
0
14
48
24
15.998411
34
0
50
0
100
AcDbRotatedDimension
1001
ACAD
1000
DSTYLE
1002
{
1070
   279
1070
     0
1070
   172
1070
     1
1070
   173
1070
     1
1070
   340
1005
229
1070
   271
1070
     1
1070
    77
1070
     1
1070
    73
1070
     0
1070
   171
1070
     4
1070
   274
1070
     4
1070
   177
1070
     7
1070
   176
1070
     7
1070
   178
1070
     7
1070
    41
1041
3.175
1070
   147
1041
1.5
1070
    42
1041
2.0
1070
    44
1041
2.0
1070
   140
1041
3.0
1070
   343
1005
0
1070
   344
1005
0
1002
}
0
DIMENSION
5
249
100
AcDbEntity
8
2
62
256
6
ByLayer
370
13
48
1
60
0
100
AcDbDimension
2
DimnDraft3D3
10
239.458633
20
-13.998241
30
0
11
239.458633
21
-11.719652
31
0
70
32
71
5
72
1
41
1
210
0
220
0
230
1
3
Standard
100
AcDbAlignedDimension
13
218
23
13.998411
33
0
14
217.603125
24
-13.998241
34
0
50
90
100
AcDbRotatedDimension
1001
ACAD
1000
DSTYLE
1002
{
1070
    74
1070
     0
1070
   279
1070
     0
1070
   172
1070
     1
1070
   173
1070
     1
1070
   340
1005
229
1070
   271
1070
     1
1070
    77
1070
     1
1070
    73
1070
     0
1070
   171
1070
     4
1070
   274
1070
     4
1070
   177
1070
     7
1070
   176
1070
     7
1070
   178
1070
     7
1070
    41
1041
3.175
1070
   147
1041
1.5
1070
    42
1041
2.0
1070
    44
1041
2.0
1070
   140
1041
3.0
1070
   343
1005
0
1070
   344
1005
0
1002
}
0
DIMENSION
5
253
100
AcDbEntity
8
2
62
256
6
ByLayer
370
13
48
1
60
0
100
AcDbDimension
2
DimnDraft3D4
10
217
20
13.998411
30
0
11
223.64434
21
6.354071
31
0
70
34
71
5
72
1
41
1
210
0
220
0
230
1
3
Standard
100
AcDb2LineAngularDimension
13
216
23
7.968988
33
0
14
216
24
13.602155
34
0
15
216
25
13.998411
35
0
16
225.76566
26
4.232751
36
0
40
0
0
DIMENSION
5
25F
100
AcDbEntity
8
SK2
62
256
6
ByLayer
370
13
48
1
60
0
100
AcDbDimension
2
DimnDraft3D5
10
-30.5
20
-16
30
0
11
-30
21
0.414474
31
0
70
33
71
5
72
1
41
1
210
0
220
0
230
1
3
Standard
100
AcDbAlignedDimension
13
-1.7
23
16
33
0
14
-1.7
24
-16
34
0
1001
ACAD
1000
DSTYLE
1002
{
1070
   279
1070
     0
1070
    74
1070
     0
1070
   173
1070
     1
1070
   340
1005
229
1070
   271
1070
     0
1070
    77
1070
     1
1070
    73
1070
     0
1070
   171
1070
     4
1070
   274
1070
     4
1070
   177
1070
     7
1070
   176
1070
     7
1070
   178
1070
     7
1070
    41
1041
3.175
1070
   147
1041
1.5
1070
    42
1041
2.0
1070
    44
1041
2.0
1070
   140
1041
3.0
1070
   343
1005
0
1070
   344
1005
0
1002
}
0
ENDSEC
0
SECTION
2
OBJECTS
0
DICTIONARY
5
2d0
330
0
100
AcDbDictionary
280
0
281
1
3
ACAD_GROUP
350
2d1
3
ACAD_GROUP
350
2d2
3
ACAD_MLINESTYLE
350
2d3
0
DICTIONARY
5
2d1
330
0
100
AcDbDictionary
280
0
281
1
0
DICTIONARY
5
2d2
330
0
100
AcDbDictionary
280
0
281
1
3
<200939244NDI000_00>
350
26A
3
<201104662MOD000_00>
350
268
3
391_68A_1_03213C06B_A1
350
269
3
DIT-000-00-C3_BR20D_B_205_A1
350
26C
3
Group5
350
26B
0
DICTIONARY
5
2d3
330
0
100
AcDbDictionary
280
0
281
1
3
Standard
350
18
0
GROUP
5
26A
330
2d2
100
AcDbGroup
300

70
0
71
1
340
78
340
7A
340
7B
340
7C
340
7D
340
7E
340
7F
340
80
340
81
340
82
340
83
340
84
340
85
340
86
340
87
340
88
340
89
340
8A
340
8B
340
8C
340
8D
340
8E
340
8F
340
90
340
91
340
92
340
93
340
94
340
95
340
96
340
97
340
98
340
99
340
9A
340
9B
340
9C
340
9D
340
9E
340
9F
340
A0
340
A1
340
A2
340
A3
340
A4
340
A5
340
A6
340
A7
340
A8
340
A9
340
AA
340
AB
340
AC
340
AD
340
AE
340
AF
340
B0
340
B1
340
B2
340
B3
340
B4
340
B5
340
B6
340
B7
340
B8
340
B9
340
BA
340
BB
340
BC
340
BD
340
BE
340
BF
340
C0
340
C1
340
C2
340
C3
340
C4
340
C5
340
C6
340
C7
340
C8
340
C9
340
CA
340
CB
340
CC
340
CD
340
CE
340
CF
340
D0
340
D1
340
D2
340
D3
340
D4
340
D5
340
D6
340
D7
340
D8
340
D9
340
DA
340
DB
340
DC
340
DD
340
DE
340
DF
340
E0
340
E1
340
E2
340
E3
340
E4
340
E5
340
E6
340
E7
340
E8
340
E9
340
EA
340
EB
340
EC
340
ED
340
EE
340
EF
340
F0
340
F1
340
F2
340
F3
340
F4
340
F5
340
F6
340
F7
340
F8
340
F9
340
FA
340
FB
340
FC
340
FD
340
FE
340
FF
340
100
340
101
340
102
340
103
340
104
340
105
340
106
340
107
340
13F
340
140
340
141
340
142
340
14E
340
14F
340
150
340
151
340
152
340
153
340
154
340
155
340
156
340
157
340
158
340
159
340
15A
340
15B
340
15C
340
15D
340
15E
340
15F
340
160
340
161
340
162
340
163
340
164
340
165
340
166
340
167
340
168
340
169
340
16A
340
16B
340
16C
340
16D
340
16E
340
16F
340
170
340
171
340
172
340
173
340
174
340
175
340
176
340
177
340
178
340
179
340
17A
340
17B
340
17C
340
17D
340
17E
340
17F
340
180
340
181
340
182
340
183
340
184
340
185
340
186
340
187
340
188
340
189
340
18A
340
18B
340
18C
340
18D
340
18E
340
18F
340
190
340
191
340
192
340
193
340
194
340
195
340
196
340
197
340
198
340
199
340
19A
340
19B
340
19C
340
19D
340
19E
340
19F
340
1A0
340
1A1
340
1A2
340
1A3
340
1A4
340
1A5
340
1A6
340
1AE
340
1AF
340
1B0
340
1B1
340
1B2
340
1B3
340
1B4
340
1B5
340
1B6
340
1B7
340
1B8
340
1B9
340
1BA
340
1BB
340
1BC
340
1BD
340
1BE
340
1BF
340
1C0
340
1C1
340
1C2
340
1C3
340
1C4
340
1C5
340
1C6
340
1C7
340
1C8
340
1C9
340
1CA
340
1CB
340
1CC
340
1CD
340
1CE
340
1CF
340
1D0
340
1D1
340
1D2
340
1D3
340
1D4
340
1D5
340
1D6
340
1D7
340
1D8
340
1D9
340
1DA
340
1DB
340
1DC
340
1DD
340
1DE
340
1DF
340
1E0
340
1E1
340
1E2
340
1E3
340
1E4
340
1E5
340
1E6
340
1E7
340
1E8
340
1E9
340
1EA
340
1EB
340
1EC
340
1ED
340
1EE
340
1EF
340
1F0
340
1F1
340
1F2
340
1F3
340
1F4
340
1F5
340
1F6
340
1F7
340
1F8
340
1F9
340
1FA
340
1FB
340
1FC
340
1FD
340
1FE
0
GROUP
5
268
330
2d2
100
AcDbGroup
300

70
0
71
1
340
6C
340
6E
340
70
340
72
340
73
340
75
340
77
340
78
340
7A
340
7B
340
7C
340
7D
340
7E
340
7F
340
80
340
81
340
82
340
83
340
84
340
85
340
86
340
87
340
88
340
89
340
8A
340
8B
340
8C
340
8D
340
8E
340
8F
340
90
340
91
340
92
340
93
340
94
340
95
340
96
340
97
340
98
340
99
340
9A
340
9B
340
9C
340
9D
340
9E
340
9F
340
A0
340
A1
340
A2
340
A3
340
A4
340
A5
340
A6
340
A7
340
A8
340
A9
340
AA
340
AB
340
AC
340
AD
340
AE
340
AF
340
B0
340
B1
340
B2
340
B3
340
B4
340
B5
340
B6
340
B7
340
B8
340
B9
340
BA
340
BB
340
BC
340
BD
340
BE
340
BF
340
C0
340
C1
340
C2
340
C3
340
C4
340
C5
340
C6
340
C7
340
C8
340
C9
340
CA
340
CB
340
CC
340
CD
340
CE
340
CF
340
D0
340
D1
340
D2
340
D3
340
D4
340
D5
340
D6
340
D7
340
D8
340
D9
340
DA
340
DB
340
DC
340
DD
340
DE
340
DF
340
E0
340
E1
340
E2
340
E3
340
E4
340
E5
340
E6
340
E7
340
E8
340
E9
340
EA
340
EB
340
EC
340
ED
340
EE
340
EF
340
F0
340
F1
340
F2
340
F3
340
F4
340
F5
340
F6
340
F7
340
F8
340
F9
340
FA
340
FB
340
FC
340
FD
340
FE
340
FF
340
100
340
101
340
102
340
103
340
104
340
105
340
106
340
107
340
108
340
109
340
10A
340
10B
340
10C
340
10D
340
10E
340
10F
340
110
340
111
340
112
340
113
340
114
340
115
340
116
340
117
340
118
340
119
340
11A
340
11B
340
11C
340
11D
340
11E
340
11F
340
120
340
121
340
122
340
123
340
124
340
125
340
126
340
127
340
128
340
129
340
12A
340
12B
340
12C
340
12D
340
12E
340
12F
340
130
340
131
340
133
340
134
340
135
340
136
340
137
340
138
340
139
340
13A
340
13B
340
13C
340
13D
340
13E
340
13F
340
140
340
141
340
142
340
143
340
144
340
145
340
146
340
147
340
148
340
149
340
14A
340
14B
340
14C
340
14D
340
14E
340
14F
340
150
340
151
340
152
340
153
340
154
340
155
340
156
340
157
340
158
340
159
340
15A
340
15B
340
15C
340
15D
340
15E
340
15F
340
160
340
161
340
162
340
163
340
164
340
165
340
166
340
167
340
168
340
169
340
16A
340
16B
340
16C
340
16D
340
16E
340
16F
340
170
340
171
340
172
340
173
340
174
340
175
340
176
340
177
340
178
340
179
340
17A
340
17B
340
17C
340
17D
340
17E
340
17F
340
180
340
181
340
182
340
183
340
184
340
185
340
186
340
187
340
188
340
189
340
18A
340
18B
340
18C
340
18D
340
18E
340
18F
340
190
340
191
340
192
340
193
340
194
340
195
340
196
340
197
340
198
340
199
340
19A
340
19B
340
19C
340
19D
340
19E
340
19F
340
1A0
340
1A1
340
1A2
340
1A3
340
1A4
340
1A5
340
1A6
340
1A7
340
1A8
340
1A9
340
1AA
340
1AB
340
1AC
340
1AD
340
1AE
340
1AF
340
1B0
340
1B1
340
1B2
340
1B3
340
1B4
340
1B5
340
1B6
340
1B7
340
1B8
340
1B9
340
1BA
340
1BB
340
1BC
340
1BD
340
1BE
340
1BF
340
1C0
340
1C1
340
1C2
340
1C3
340
1C4
340
1C5
340
1C6
340
1C7
340
1C8
340
1C9
340
1CA
340
1CB
340
1CC
340
1CD
340
1CE
340
1CF
340
1D0
340
1D1
340
1D2
340
1D3
340
1D4
340
1D5
340
1D6
340
1D7
340
1D8
340
1D9
340
1DA
340
1DB
340
1DC
340
1DD
340
1DE
340
1DF
340
1E0
340
1E1
340
1E2
340
1E3
340
1E4
340
1E5
340
1E6
340
1E7
340
1E8
340
1E9
340
1EA
340
1EB
340
1EC
340
1ED
340
1EE
340
1EF
340
1F0
340
1F1
340
1F2
340
1F3
340
1F4
340
1F5
340
1F6
340
1F7
340
1F8
340
1F9
340
1FA
340
1FB
340
1FC
340
1FD
340
1FE
340
1FF
340
200
340
201
340
202
340
203
340
204
340
205
340
206
340
207
340
208
340
209
340
20A
340
20B
340
20C
340
20D
340
20E
340
20F
340
210
340
211
340
212
340
213
340
214
340
215
340
216
340
217
340
218
340
219
340
21A
340
21B
340
21C
340
21D
340
21E
340
21F
340
220
340
221
340
222
340
223
340
224
340
225
340
226
340
227
340
6E
340
77
340
228
340
249
340
253
340
78
340
7A
340
7B
340
7C
340
7D
340
7E
340
7F
340
80
340
81
340
82
340
83
340
84
340
85
340
86
340
87
340
88
340
89
340
8A
340
8B
340
8C
340
8D
340
8E
340
8F
340
90
340
91
340
92
340
93
340
94
340
95
340
96
340
97
340
98
340
99
340
9A
340
9B
340
9C
340
9D
340
9E
340
9F
340
A0
340
A1
340
A2
340
A3
340
A4
340
A5
340
A6
340
A7
340
A8
340
A9
340
AA
340
AB
340
AC
340
AD
340
AE
340
AF
340
B0
340
B1
340
B2
340
B3
340
B4
340
B5
340
B6
340
B7
340
B8
340
B9
340
BA
340
BB
340
BC
340
BD
340
BE
340
BF
340
C0
340
C1
340
C2
340
C3
340
C4
340
C5
340
C6
340
C7
340
C8
340
C9
340
CA
340
CB
340
CC
340
CD
340
CE
340
CF
340
D0
340
D1
340
D2
340
D3
340
D4
340
D5
340
D6
340
D7
340
D8
340
D9
340
DA
340
DB
340
DC
340
DD
340
DE
340
DF
340
E0
340
E1
340
E2
340
E3
340
E4
340
E5
340
E6
340
E7
340
E8
340
E9
340
EA
340
EB
340
EC
340
ED
340
EE
340
EF
340
F0
340
F1
340
F2
340
F3
340
F4
340
F5
340
F6
340
F7
340
F8
340
F9
340
FA
340
FB
340
FC
340
FD
340
FE
340
FF
340
100
340
101
340
102
340
103
340
104
340
105
340
106
340
107
340
13F
340
140
340
141
340
142
340
14E
340
14F
340
150
340
151
340
152
340
153
340
154
340
155
340
156
340
157
340
158
340
159
340
15A
340
15B
340
15C
340
15D
340
15E
340
15F
340
160
340
161
340
162
340
163
340
164
340
165
340
166
340
167
340
168
340
169
340
16A
340
16B
340
16C
340
16D
340
16E
340
16F
340
170
340
171
340
172
340
173
340
174
340
175
340
176
340
177
340
178
340
179
340
17A
340
17B
340
17C
340
17D
340
17E
340
17F
340
180
340
181
340
182
340
183
340
184
340
185
340
186
340
187
340
188
340
189
340
18A
340
18B
340
18C
340
18D
340
18E
340
18F
340
190
340
191
340
192
340
193
340
194
340
195
340
196
340
197
340
198
340
199
340
19A
340
19B
340
19C
340
19D
340
19E
340
19F
340
1A0
340
1A1
340
1A2
340
1A3
340
1A4
340
1A5
340
1A6
340
1AE
340
1AF
340
1B0
340
1B1
340
1B2
340
1B3
340
1B4
340
1B5
340
1B6
340
1B7
340
1B8
340
1B9
340
1BA
340
1BB
340
1BC
340
1BD
340
1BE
340
1BF
340
1C0
340
1C1
340
1C2
340
1C3
340
1C4
340
1C5
340
1C6
340
1C7
340
1C8
340
1C9
340
1CA
340
1CB
340
1CC
340
1CD
340
1CE
340
1CF
340
1D0
340
1D1
340
1D2
340
1D3
340
1D4
340
1D5
340
1D6
340
1D7
340
1D8
340
1D9
340
1DA
340
1DB
340
1DC
340
1DD
340
1DE
340
1DF
340
1E0
340
1E1
340
1E2
340
1E3
340
1E4
340
1E5
340
1E6
340
1E7
340
1E8
340
1E9
340
1EA
340
1EB
340
1EC
340
1ED
340
1EE
340
1EF
340
1F0
340
1F1
340
1F2
340
1F3
340
1F4
340
1F5
340
1F6
340
1F7
340
1F8
340
1F9
340
1FA
340
1FB
340
1FC
340
1FD
340
1FE
340
109
340
10A
340
10B
340
10C
340
10D
340
10E
340
10F
340
110
340
111
340
112
340
113
340
114
340
115
340
108
340
116
340
117
340
118
340
119
340
11A
340
11B
340
11C
340
11D
340
11E
340
11F
340
120
340
121
340
122
340
123
340
124
340
125
340
126
340
127
340
143
340
144
340
128
340
145
340
146
340
147
340
129
340
12A
340
12B
340
12C
340
12D
340
12E
340
12F
340
130
340
131
340
133
340
148
340
149
340
134
340
135
340
14A
340
14B
340
136
340
1A7
340
1A8
340
14C
340
14D
340
1A9
340
1AA
340
1AB
340
1AC
340
1AD
340
1FF
340
200
340
201
340
202
340
203
340
204
340
205
340
206
340
207
340
208
340
209
340
20A
340
20B
340
20C
340
20D
340
20E
340
20F
340
210
340
211
340
212
340
213
340
214
340
215
340
216
340
217
340
137
340
138
340
218
340
219
340
21A
340
139
340
21B
340
21C
340
13A
340
21D
340
21E
340
21F
340
13B
340
220
340
221
340
222
340
13C
340
223
340
13D
340
224
340
225
340
13E
340
226
340
227
340
109
340
10A
340
10B
340
10C
340
10D
340
10E
340
10F
340
110
340
111
340
112
340
113
340
114
340
115
340
108
340
116
340
117
340
118
340
119
340
11A
340
11B
340
11C
340
11D
340
11E
340
11F
340
120
340
121
340
122
340
123
340
124
340
125
340
126
340
127
340
128
340
129
340
12A
340
12B
340
12C
340
12D
340
12E
340
12F
340
130
340
131
340
133
340
134
340
135
340
136
340
137
340
138
340
139
340
13A
340
13B
340
13C
340
13D
340
13E
340
143
340
144
340
145
340
146
340
147
340
148
340
149
340
14A
340
14B
340
14C
340
14D
340
1A7
340
1A8
340
1A9
340
1AA
340
1AB
340
1AC
340
1AD
340
1FF
340
200
340
201
340
202
340
203
340
204
340
205
340
206
340
207
340
208
340
209
340
20A
340
20B
340
20C
340
20D
340
20E
340
20F
340
210
340
211
340
212
340
213
340
214
340
215
340
216
340
217
340
218
340
219
340
21A
340
21B
340
21C
340
21D
340
21E
340
21F
340
220
340
221
340
222
340
223
340
224
340
225
340
226
340
227
340
109
340
10A
340
10B
340
10C
340
10D
340
10E
340
10F
340
110
340
111
340
112
340
113
340
114
340
115
340
108
340
116
340
117
340
118
340
119
340
11A
340
11B
340
11C
340
11D
340
11E
340
11F
340
120
340
121
340
122
340
123
340
124
340
125
340
126
340
127
340
143
340
144
340
128
340
145
340
146
340
147
340
129
340
12A
340
12B
340
12C
340
12D
340
12E
340
12F
340
130
340
131
340
133
340
148
340
149
340
134
340
135
340
14A
340
14B
340
136
340
1A7
340
1A8
340
14C
340
14D
340
1A9
340
1AA
340
1AB
340
1AC
340
1AD
340
1FF
340
200
340
201
340
202
340
203
340
204
340
205
340
206
340
207
340
208
340
209
340
20A
340
20B
340
20C
340
20D
340
20E
340
20F
340
210
340
211
340
212
340
213
340
214
340
215
340
216
340
217
340
137
340
138
340
218
340
219
340
21A
340
139
340
21B
340
21C
340
13A
340
21D
340
21E
340
21F
340
13B
340
220
340
221
340
222
340
13C
340
223
340
13D
340
224
340
225
340
13E
340
226
340
227
340
228
340
235
340
23F
340
249
340
253
340
25F
0
GROUP
5
269
330
2d2
100
AcDbGroup
300

70
0
71
1
340
6E
340
77
340
228
340
249
340
253
0
GROUP
5
26C
330
2d2
100
AcDbGroup
300

70
0
71
1
340
109
340
10A
340
10B
340
10C
340
10D
340
10E
340
10F
340
110
340
111
340
112
340
113
340
114
340
115
340
108
340
116
340
117
340
118
340
119
340
11A
340
11B
340
11C
340
11D
340
11E
340
11F
340
120
340
121
340
122
340
123
340
124
340
125
340
126
340
127
340
128
340
129
340
12A
340
12B
340
12C
340
12D
340
12E
340
12F
340
130
340
131
340
133
340
134
340
135
340
136
340
137
340
138
340
139
340
13A
340
13B
340
13C
340
13D
340
13E
340
143
340
144
340
145
340
146
340
147
340
148
340
149
340
14A
340
14B
340
14C
340
14D
340
1A7
340
1A8
340
1A9
340
1AA
340
1AB
340
1AC
340
1AD
340
1FF
340
200
340
201
340
202
340
203
340
204
340
205
340
206
340
207
340
208
340
209
340
20A
340
20B
340
20C
340
20D
340
20E
340
20F
340
210
340
211
340
212
340
213
340
214
340
215
340
216
340
217
340
218
340
219
340
21A
340
21B
340
21C
340
21D
340
21E
340
21F
340
220
340
221
340
222
340
223
340
224
340
225
340
226
340
227
340
109
340
10A
340
10B
340
10C
340
10D
340
10E
340
10F
340
110
340
111
340
112
340
113
340
114
340
115
340
108
340
116
340
117
340
118
340
119
340
11A
340
11B
340
11C
340
11D
340
11E
340
11F
340
120
340
121
340
122
340
123
340
124
340
125
340
126
340
127
340
143
340
144
340
128
340
145
340
146
340
147
340
129
340
12A
340
12B
340
12C
340
12D
340
12E
340
12F
340
130
340
131
340
133
340
148
340
149
340
134
340
135
340
14A
340
14B
340
136
340
1A7
340
1A8
340
14C
340
14D
340
1A9
340
1AA
340
1AB
340
1AC
340
1AD
340
1FF
340
200
340
201
340
202
340
203
340
204
340
205
340
206
340
207
340
208
340
209
340
20A
340
20B
340
20C
340
20D
340
20E
340
20F
340
210
340
211
340
212
340
213
340
214
340
215
340
216
340
217
340
137
340
138
340
218
340
219
340
21A
340
139
340
21B
340
21C
340
13A
340
21D
340
21E
340
21F
340
13B
340
220
340
221
340
222
340
13C
340
223
340
13D
340
224
340
225
340
13E
340
226
340
227
0
GROUP
5
26B
330
2d2
100
AcDbGroup
300

70
0
71
1
340
109
340
10A
340
10B
340
10C
340
10D
340
10E
340
10F
340
110
340
111
340
112
340
113
340
114
340
115
340
108
340
116
340
117
340
118
340
119
340
11A
340
11B
340
11C
340
11D
340
11E
340
11F
340
120
340
121
340
122
340
123
340
124
340
125
340
126
340
127
340
143
340
144
340
128
340
145
340
146
340
147
340
129
340
12A
340
12B
340
12C
340
12D
340
12E
340
12F
340
130
340
131
340
133
340
148
340
149
340
134
340
135
340
14A
340
14B
340
136
340
1A7
340
1A8
340
14C
340
14D
340
1A9
340
1AA
340
1AB
340
1AC
340
1AD
340
1FF
340
200
340
201
340
202
340
203
340
204
340
205
340
206
340
207
340
208
340
209
340
20A
340
20B
340
20C
340
20D
340
20E
340
20F
340
210
340
211
340
212
340
213
340
214
340
215
340
216
340
217
340
137
340
138
340
218
340
219
340
21A
340
139
340
21B
340
21C
340
13A
340
21D
340
21E
340
21F
340
13B
340
220
340
221
340
222
340
13C
340
223
340
13D
340
224
340
225
340
13E
340
226
340
227
0
MLINESTYLE
5
18
330
2d3
100
AcDbMlineStyle
2
Standard
70
0
3

62
256
51
90
52
90
71
2
49
-0.5
62
256
6
ByLayer
49
0.5
62
256
6
ByLayer
0
RASTERVARIABLES
5
2bd
330

100
AcDbRasterVariables
90
0
70
1
71
1
72
1
0
ENDSEC
0
EOF
