0
SECTION
2
HEADER
9
$ACADVER
1
AC1015
9
$DWGCODEPAGE
3
ANSI_1252
9
$HANDSEED
5
1ff
9
$ANGBASE
50
0
9
$ANGDIR
70
0
9
$ATTMODE
70
1
9
$AUNITS
70
0
9
$AUPREC
70
0
9
$CECOLOR
62
256
9
$CELTSCALE
40
1
9
$CELTYPE
6
ByLayer
9
$CELWEIGHT
370
18
9
$CLAYER
8
0
9
$CMLJUST
70
0
9
$CMLSCALE
40
1
9
$CMLSTYLE
2
Standard
9
$DIMSTYLE
2
Standard
9
$TEXTSIZE
40
0.2
9
$TEXTSTYLE
7
Standard
9
$LUNITS
70
2
9
$LUPREC
70
4
9
$EXTNAMES
290
1
9
$INSUNITS
70
4
9
$LTSCALE
40
1
9
$LWDISPLAY
290
1
9
$PDMODE
70
0
9
$PDSIZE
40
0
9
$PLINEGEN
70
0
0
ENDSEC
0
SECTION
2
CLASSES
0
CLASS
1
RASTERVARIABLES
2
AcDbRasterVariables
3
ISM
90
0
280
0
281
0
0
ENDSEC
0
SECTION
2
TABLES
0
TABLE
2
VPORT
5
1f5
100
AcDbSymbolTable
0
VPORT
5
1
100
AcDbSymbolTableRecord
100
AcDbViewportTableRecord
2
*Active
70
0
10
0
20
0
11
1
21
1
12
-1
22
1
13
0
23
0
14
0.5
24
0.5
15
10
25
10
16
0
26
0
36
1
17
0
27
0
37
0
0
ENDTAB
0
TABLE
2
LTYPE
5
1f6
100
AcDbSymbolTable
0
LTYPE
5
14
100
AcDbSymbolTableRecord
100
AcDbLinetypeTableRecord
70
0
2
ByBlock
3

72
65
73
0
40
0
0
LTYPE
5
15
100
AcDbSymbolTableRecord
100
AcDbLinetypeTableRecord
70
0
2
ByLayer
3

72
65
73
0
40
0
0
LTYPE
5
16
100
AcDbSymbolTableRecord
100
AcDbLinetypeTableRecord
70
0
2
CONTINUOUS
3
Solid line
72
65
73
0
40
0
0
LTYPE
5
6A
100
AcDbSymbolTableRecord
100
AcDbLinetypeTableRecord
70
0
2
CENTER
3
____ _ ____ _ ____ _ ____
72
65
73
4
40
47.5
49
22
74
0
49
-8.5
74
0
49
8.5
74
0
49
-8.5
74
0
0
LTYPE
5
6B
100
AcDbSymbolTableRecord
100
AcDbLinetypeTableRecord
70
0
2
DASHED
3
__ __ __ __ __ __ __ __ __
72
65
73
2
40
25.72
49
12.86
74
0
49
-12.86
74
0
0
ENDTAB
0
TABLE
2
LAYER
5
1f7
100
AcDbSymbolTable
0
LAYER
5
10
100
AcDbSymbolTableRecord
100
AcDbLayerTableRecord
2
0
70
0
62
7
6
CONTINUOUS
290
1
370
-3
390
0
0
LAYER
5
6D
100
AcDbSymbolTableRecord
100
AcDbLayerTableRecord
2
80
70
0
62
-6
6
CONTINUOUS
290
1
370
-3
390
0
0
LAYER
5
6F
100
AcDbSymbolTableRecord
100
AcDbLayerTableRecord
2
81
70
0
62
-3
6
CONTINUOUS
290
1
370
-3
390
0
0
LAYER
5
71
100
AcDbSymbolTableRecord
100
AcDbLayerTableRecord
2
1
70
0
62
4
6
CONTINUOUS
290
1
370
-3
390
0
0
LAYER
5
160
100
AcDbSymbolTableRecord
100
AcDbLayerTableRecord
2
2
70
0
62
7
6
CONTINUOUS
290
1
370
-3
390
0
0
LAYER
5
1e2
100
AcDbSymbolTableRecord
100
AcDbLayerTableRecord
2
SK1
70
0
62
4
6
CONTINUOUS
290
1
370
-3
390
0
0
LAYER
5
1e3
100
AcDbSymbolTableRecord
100
AcDbLayerTableRecord
2
SK6
70
0
62
5
6
CONTINUOUS
290
1
370
-3
390
0
0
LAYER
5
1e4
100
AcDbSymbolTableRecord
100
AcDbLayerTableRecord
2
SK2
70
0
62
7
6
CONTINUOUS
290
1
370
-3
390
0
0
ENDTAB
0
TABLE
2
STYLE
5
1f8
100
AcDbSymbolTable
0
STYLE
5
11
100
AcDbSymbolTableRecord
100
AcDbTextStyleTableRecord
2
Standard
3
txt
70
0
71
0
40
0
41
1
42
0
50
0
0
STYLE
5
145
100
AcDbSymbolTableRecord
100
AcDbTextStyleTableRecord
2
iso_b_vert
3
simplex.shx
70
0
71
0
40
0
41
1
42
0
50
0
0
STYLE
5
146
100
AcDbSymbolTableRecord
100
AcDbTextStyleTableRecord
2
DWGDirectTextStyle
3
simplex
70
0
71
0
40
0
41
1
42
0
50
0
0
ENDTAB
0
TABLE
2
DIMSTYLE
5
1f9
100
AcDbSymbolTable
100
AcDbDimStyleTable
0
DIMSTYLE
105
27
100
AcDbSymbolTableRecord
100
AcDbDimStyleTableRecord
2
Standard
70
0
3
<>
41
0.18
42
0.0625
44
0.18
140
0.18
147
0.09
73
0
74
0
77
1
271
2
275
0
278
52
280
0
340
11
0
ENDTAB
0
TABLE
2
VIEW
5
1fa
100
AcDbSymbolTable
0
ENDTAB
0
TABLE
2
UCS
5
1fb
100
AcDbSymbolTable
0
ENDTAB
0
TABLE
2
APPID
5
1fc
100
AcDbSymbolTable
0
APPID
5
12
100
AcDbSymbolTableRecord
100
AcDbRegAppTableRecord
2
ACAD
70
0
0
ENDTAB
0
TABLE
2
BLOCK_RECORD
5
1fd
100
AcDbSymbolTable
0
BLOCK_RECORD
5
1F
100
AcDbSymbolTableRecord
100
AcDbBlockTableRecord
2
*Model_Space
340
0
70
0
0
BLOCK_RECORD
5
1B
100
AcDbSymbolTableRecord
100
AcDbBlockTableRecord
2
*Paper_Space
340
0
70
0
0
BLOCK_RECORD
5
23
100
AcDbSymbolTableRecord
100
AcDbBlockTableRecord
2
*Paper_Space0
340
0
70
0
0
BLOCK_RECORD
5
148
100
AcDbSymbolTableRecord
100
AcDbBlockTableRecord
2
DimnDraft3D1
340
0
70
0
0
BLOCK_RECORD
5
157
100
AcDbSymbolTableRecord
100
AcDbBlockTableRecord
2
_CLOSED
340
0
70
0
0
BLOCK_RECORD
5
15E
100
AcDbSymbolTableRecord
100
AcDbBlockTableRecord
2
DimnDraft3D2
340
0
70
0
0
BLOCK_RECORD
5
16D
100
AcDbSymbolTableRecord
100
AcDbBlockTableRecord
2
DimnDraft3D3
340
0
70
0
0
BLOCK_RECORD
5
17B
100
AcDbSymbolTableRecord
100
AcDbBlockTableRecord
2
DimnDraft3D4
340
0
70
0
0
ENDTAB
0
ENDSEC
0
SECTION
2
BLOCKS
0
BLOCK
5
20
100
AcDbEntity
8
0
100
AcDbBlockBegin
2
*Model_Space
70
0
10
0
20
0
30
0
3
*Model_Space
0
ENDBLK
5
21
100
AcDbEntity
8
0
100
AcDbBlockEnd
0
BLOCK
5
1C
100
AcDbEntity
8
0
100
AcDbBlockBegin
2
*Paper_Space
70
0
10
0
20
0
30
0
3
*Paper_Space
0
ENDBLK
5
1D
100
AcDbEntity
8
0
100
AcDbBlockEnd
0
BLOCK
5
24
100
AcDbEntity
8
0
100
AcDbBlockBegin
2
*Paper_Space0
70
0
10
0
20
0
30
0
3
*Paper_Space0
0
ENDBLK
5
25
100
AcDbEntity
8
0
100
AcDbBlockEnd
0
BLOCK
5
154
100
AcDbEntity
8
0
100
AcDbBlockBegin
2
DimnDraft3D1
70
0
10
0
20
0
30
0
3
DimnDraft3D1
0
MTEXT
5
149
100
AcDbEntity
8
SK2
62
256
6
ByLayer
370
13
48
1
60
0
100
AcDbMText
10
-37.975
20
-4.156579
30
0
210
0
220
0
230
1
1
\W0.7346;50.0
40
4.5
41
0
44
1.084337
50
90
71
7
72
5
7
iso_b_vert
0
LINE
5
14B
100
AcDbEntity
8
SK2
62
256
6
ByLayer
370
13
48
1
60
0
100
AcDbLine
10
-1.5875
20
25
30
0
11
-40.025
21
25
31
0
39
0
210
0
220
0
230
1
0
LINE
5
14C
100
AcDbEntity
8
SK2
62
256
6
ByLayer
370
13
48
1
60
0
100
AcDbLine
10
-1.5875
20
-25
30
0
11
-40.025
21
-25
31
0
39
0
210
0
220
0
230
1
0
LINE
5
14D
100
AcDbEntity
8
SK2
62
256
6
ByLayer
370
13
48
1
60
0
100
AcDbLine
10
-36.85
20
25
30
0
11
-36.85
21
-25
31
0
39
0
210
0
220
0
230
1
0
LINE
5
14E
100
AcDbEntity
8
SK2
62
256
6
ByLayer
370
13
48
1
60
0
100
AcDbLine
10
-36.85
20
25
30
0
11
-35.999261
21
21.825003
31
0
39
0
210
0
220
0
230
1
0
LINE
5
14F
100
AcDbEntity
8
SK2
62
256
6
ByLayer
370
13
48
1
60
0
100
AcDbLine
10
-36.85
20
25
30
0
11
-37.700739
21
21.824997
31
0
39
0
210
0
220
0
230
1
0
LINE
5
150
100
AcDbEntity
8
SK2
62
256
6
ByLayer
370
13
48
1
60
0
100
AcDbLine
10
-35.999261
20
21.825003
30
0
11
-37.700739
21
21.824997
31
0
39
0
210
0
220
0
230
1
0
LINE
5
151
100
AcDbEntity
8
SK2
62
256
6
ByLayer
370
13
48
1
60
0
100
AcDbLine
10
-36.85
20
-25
30
0
11
-37.700739
21
-21.825003
31
0
39
0
210
0
220
0
230
1
0
LINE
5
152
100
AcDbEntity
8
SK2
62
256
6
ByLayer
370
13
48
1
60
0
100
AcDbLine
10
-36.85
20
-25
30
0
11
-35.999261
21
-21.824997
31
0
39
0
210
0
220
0
230
1
0
LINE
5
153
100
AcDbEntity
8
SK2
62
256
6
ByLayer
370
13
48
1
60
0
100
AcDbLine
10
-37.700739
20
-21.825003
30
0
11
-35.999261
21
-21.824997
31
0
39
0
210
0
220
0
230
1
0
ENDBLK
5
155
100
AcDbEntity
8
0
100
AcDbBlockEnd
0
BLOCK
5
158
100
AcDbEntity
8
0
100
AcDbBlockBegin
2
_CLOSED
70
0
10
0
20
0
30
0
3
_CLOSED
0
LINE
5
15A
100
AcDbEntity
8
0
62
256
6
ByLayer
370
-2
48
1
60
0
100
AcDbLine
10
-1
20
0.166667
30
0
11
0
21
0
31
0
39
0
210
0
220
0
230
1
0
LINE
5
15B
100
AcDbEntity
8
0
62
256
6
ByLayer
370
-2
48
1
60
0
100
AcDbLine
10
0
20
0
30
0
11
-1
21
-0.166667
31
0
39
0
210
0
220
0
230
1
0
LINE
5
15C
100
AcDbEntity
8
0
62
256
6
ByLayer
370
-2
48
1
60
0
100
AcDbLine
10
-1
20
0.166667
30
0
11
-1
21
-0.166667
31
0
39
0
210
0
220
0
230
1
0
LINE
5
15D
100
AcDbEntity
8
0
62
256
6
ByLayer
370
-2
48
1
60
0
100
AcDbLine
10
0
20
0
30
0
11
-1
21
0
31
0
39
0
210
0
220
0
230
1
0
ENDBLK
5
159
100
AcDbEntity
8
0
100
AcDbBlockEnd
0
BLOCK
5
16A
100
AcDbEntity
8
0
100
AcDbBlockBegin
2
DimnDraft3D2
70
0
10
0
20
0
30
0
3
DimnDraft3D2
0
MTEXT
5
15F
100
AcDbEntity
8
2
62
256
6
ByLayer
370
13
48
1
60
0
100
AcDbMText
10
84.725
20
-24.393421
30
0
210
0
220
0
230
1
1
\W0.7640;40.0
40
4.5
41
0
44
1.084337
50
90
71
7
72
5
7
iso_b_vert
0
LINE
5
161
100
AcDbEntity
8
2
62
256
6
ByLayer
370
13
48
1
60
0
100
AcDbLine
10
61.5875
20
-40
30
0
11
89.025
21
-40
31
0
39
0
210
0
220
0
230
1
0
LINE
5
162
100
AcDbEntity
8
2
62
256
6
ByLayer
370
13
48
1
60
0
100
AcDbLine
10
61.5875
20
0
30
0
11
89.025
21
0
31
0
39
0
210
0
220
0
230
1
0
LINE
5
163
100
AcDbEntity
8
2
62
256
6
ByLayer
370
13
48
1
60
0
100
AcDbLine
10
85.85
20
-40
30
0
11
85.85
21
0
31
0
39
0
210
0
220
0
230
1
0
LINE
5
164
100
AcDbEntity
8
2
62
256
6
ByLayer
370
13
48
1
60
0
100
AcDbLine
10
85.85
20
-40
30
0
11
84.999261
21
-36.825003
31
0
39
0
210
0
220
0
230
1
0
LINE
5
165
100
AcDbEntity
8
2
62
256
6
ByLayer
370
13
48
1
60
0
100
AcDbLine
10
85.85
20
-40
30
0
11
86.700739
21
-36.824997
31
0
39
0
210
0
220
0
230
1
0
LINE
5
166
100
AcDbEntity
8
2
62
256
6
ByLayer
370
13
48
1
60
0
100
AcDbLine
10
84.999261
20
-36.825003
30
0
11
86.700739
21
-36.824997
31
0
39
0
210
0
220
0
230
1
0
LINE
5
167
100
AcDbEntity
8
2
62
256
6
ByLayer
370
13
48
1
60
0
100
AcDbLine
10
85.85
20
0
30
0
11
86.700739
21
-3.174997
31
0
39
0
210
0
220
0
230
1
0
LINE
5
168
100
AcDbEntity
8
2
62
256
6
ByLayer
370
13
48
1
60
0
100
AcDbLine
10
85.85
20
0
30
0
11
84.999261
21
-3.175003
31
0
39
0
210
0
220
0
230
1
0
LINE
5
169
100
AcDbEntity
8
2
62
256
6
ByLayer
370
13
48
1
60
0
100
AcDbLine
10
86.700739
20
-3.174997
30
0
11
84.999261
21
-3.175003
31
0
39
0
210
0
220
0
230
1
0
ENDBLK
5
16B
100
AcDbEntity
8
0
100
AcDbBlockEnd
0
BLOCK
5
178
100
AcDbEntity
8
0
100
AcDbBlockBegin
2
DimnDraft3D3
70
0
10
0
20
0
30
0
3
DimnDraft3D3
0
MTEXT
5
16E
100
AcDbEntity
8
2
62
256
6
ByLayer
370
13
48
1
60
0
100
AcDbMText
10
25.843421
20
-65.375
30
0
210
0
220
0
230
1
1
\W0.7346;60.0
40
4.5
41
0
44
1.084337
50
0
71
7
72
5
7
iso_b_vert
0
LINE
5
16F
100
AcDbEntity
8
2
62
256
6
ByLayer
370
13
48
1
60
0
100
AcDbLine
10
0
20
-26.5875
30
0
11
0
21
-69.675
31
0
39
0
210
0
220
0
230
1
0
LINE
5
170
100
AcDbEntity
8
2
62
256
6
ByLayer
370
13
48
1
60
0
100
AcDbLine
10
60
20
-41.5875
30
0
11
60
21
-69.675
31
0
39
0
210
0
220
0
230
1
0
LINE
5
171
100
AcDbEntity
8
2
62
256
6
ByLayer
370
13
48
1
60
0
100
AcDbLine
10
0
20
-66.5
30
0
11
60
21
-66.5
31
0
39
0
210
0
220
0
230
1
0
LINE
5
172
100
AcDbEntity
8
2
62
256
6
ByLayer
370
13
48
1
60
0
100
AcDbLine
10
0
20
-66.5
30
0
11
3.174997
21
-65.649261
31
0
39
0
210
0
220
0
230
1
0
LINE
5
173
100
AcDbEntity
8
2
62
256
6
ByLayer
370
13
48
1
60
0
100
AcDbLine
10
0
20
-66.5
30
0
11
3.175003
21
-67.350739
31
0
39
0
210
0
220
0
230
1
0
LINE
5
174
100
AcDbEntity
8
2
62
256
6
ByLayer
370
13
48
1
60
0
100
AcDbLine
10
3.174997
20
-65.649261
30
0
11
3.175003
21
-67.350739
31
0
39
0
210
0
220
0
230
1
0
LINE
5
175
100
AcDbEntity
8
2
62
256
6
ByLayer
370
13
48
1
60
0
100
AcDbLine
10
60
20
-66.5
30
0
11
56.825003
21
-67.350739
31
0
39
0
210
0
220
0
230
1
0
LINE
5
176
100
AcDbEntity
8
2
62
256
6
ByLayer
370
13
48
1
60
0
100
AcDbLine
10
60
20
-66.5
30
0
11
56.824997
21
-65.649261
31
0
39
0
210
0
220
0
230
1
0
LINE
5
177
100
AcDbEntity
8
2
62
256
6
ByLayer
370
13
48
1
60
0
100
AcDbLine
10
56.825003
20
-67.350739
30
0
11
56.824997
21
-65.649261
31
0
39
0
210
0
220
0
230
1
0
ENDBLK
5
179
100
AcDbEntity
8
0
100
AcDbBlockEnd
0
BLOCK
5
186
100
AcDbEntity
8
0
100
AcDbBlockBegin
2
DimnDraft3D4
70
0
10
0
20
0
30
0
3
DimnDraft3D4
0
MTEXT
5
17C
100
AcDbEntity
8
2
62
256
6
ByLayer
370
13
48
1
60
0
100
AcDbMText
10
46.778728
20
-40.050139
30
0
210
0
220
0
230
1
1
\W0.7346;30.0
40
4.5
41
0
44
1.084337
50
70.3275451858307
71
7
72
5
7
iso_b_vert
0
LINE
5
17D
100
AcDbEntity
8
2
62
256
6
ByLayer
370
13
48
1
60
0
100
AcDbLine
10
53.095058
20
-36.59907
30
0
11
47.270442
21
-33.236227
31
0
39
0
210
0
220
0
230
1
0
LINE
5
17E
100
AcDbEntity
8
2
62
256
6
ByLayer
370
13
48
1
60
0
100
AcDbLine
10
56.8125
20
-40
30
0
11
45.458094
21
-40
31
0
39
0
210
0
220
0
230
1
0
ARC
5
17F
100
AcDbEntity
8
2
62
256
6
ByLayer
370
13
48
1
60
0
100
AcDbCircle
39
0
10
58.985641
20
-40
30
0
40
10.3525467270966
210
0
220
0
230
1
100
AcDbArc
50
102.62108
51
227.37892
0
LINE
5
180
100
AcDbEntity
8
2
62
256
6
ByLayer
370
13
48
1
60
0
100
AcDbLine
10
50.020072
20
-34.823727
30
0
11
51.109667
21
-31.722575
31
0
39
0
210
0
220
0
230
1
0
LINE
5
181
100
AcDbEntity
8
2
62
256
6
ByLayer
370
13
48
1
60
0
100
AcDbLine
10
50.020072
20
-34.823727
30
0
11
52.51427
21
-32.682844
31
0
39
0
210
0
220
0
230
1
0
LINE
5
182
100
AcDbEntity
8
2
62
256
6
ByLayer
370
13
48
1
60
0
100
AcDbLine
10
51.109667
20
-31.722575
30
0
11
52.51427
21
-32.682844
31
0
39
0
210
0
220
0
230
1
0
LINE
5
183
100
AcDbEntity
8
2
62
256
6
ByLayer
370
13
48
1
60
0
100
AcDbLine
10
48.633094
20
-40
30
0
11
49.72269
21
-43.101152
31
0
39
0
210
0
220
0
230
1
0
LINE
5
184
100
AcDbEntity
8
2
62
256
6
ByLayer
370
13
48
1
60
0
100
AcDbLine
10
48.633094
20
-40
30
0
11
48.026135
21
-43.23048
31
0
39
0
210
0
220
0
230
1
0
LINE
5
185
100
AcDbEntity
8
2
62
256
6
ByLayer
370
13
48
1
60
0
100
AcDbLine
10
49.72269
20
-43.101152
30
0
11
48.026135
21
-43.23048
31
0
39
0
210
0
220
0
230
1
0
ENDBLK
5
187
100
AcDbEntity
8
0
100
AcDbBlockEnd
0
ENDSEC
0
SECTION
2
ENTITIES
0
ARC
5
BC
100
AcDbEntity
8
1
62
256
6
ByLayer
370
13
48
1
60
0
100
AcDbCircle
39
0
10
-20.279208
20
-26.2
30
0
40
1.2
210
0
220
0
230
-1
100
AcDbArc
50
90
51
113.817856
0
ARC
5
BD
100
AcDbEntity
8
1
62
256
6
ByLayer
370
13
48
1
60
0
100
AcDbCircle
39
0
10
-26.423828
20
-64.480811
30
0
40
40.1277816385189
210
0
220
0
230
-1
100
AcDbArc
50
80.094295
51
110.184007
0
ARC
5
BE
100
AcDbEntity
8
1
62
256
6
ByLayer
370
13
48
1
60
0
100
AcDbCircle
39
0
10
-41.260386
20
-24.121468
30
0
40
4.46612987842788
210
0
220
0
230
-1
100
AcDbArc
50
232.212178
51
290.184007
0
ARC
5
BF
100
AcDbEntity
8
1
62
256
6
ByLayer
370
13
48
1
60
0
100
AcDbCircle
39
0
10
18.589039
20
5.119087
30
0
40
39.8722183614811
210
0
220
0
230
1
100
AcDbArc
50
307.787822
51
316.884358
0
ARC
5
C0
100
AcDbEntity
8
1
62
256
6
ByLayer
370
13
48
1
60
0
100
AcDbCircle
39
0
10
26.423828
20
-64.480811
30
0
40
40.9844387152948
210
0
220
0
230
1
100
AcDbArc
50
74.373734
51
92.187649
0
ARC
5
C1
100
AcDbEntity
8
1
62
256
6
ByLayer
370
13
48
1
60
0
100
AcDbCircle
39
0
10
-45.598141
20
-20.169417
30
0
40
4.46612987842788
210
0
220
0
230
-1
100
AcDbArc
50
157.248637
51
223.115642
0
ARC
5
C2
100
AcDbEntity
8
1
62
256
6
ByLayer
370
13
48
1
60
0
100
AcDbCircle
39
0
10
89.96405
20
-77.019154
30
0
40
149.015561284705
210
0
220
0
230
-1
100
AcDbArc
50
147.969184
51
156.187074
0
ARC
5
C3
100
AcDbEntity
8
1
62
256
6
ByLayer
370
13
48
1
60
0
100
AcDbCircle
39
0
10
41.260386
20
-24.121468
30
0
40
2.87221836148108
210
0
220
0
230
1
100
AcDbArc
50
249.815993
51
307.787822
0
ARC
5
C4
100
AcDbEntity
8
1
62
256
6
ByLayer
370
13
48
1
60
0
100
AcDbCircle
39
0
10
45.598141
20
-20.169417
30
0
40
2.87221836148108
210
0
220
0
230
1
100
AcDbArc
50
316.884358
51
22.751363
0
ARC
5
C5
100
AcDbEntity
8
1
62
256
6
ByLayer
370
13
48
1
60
0
100
AcDbCircle
39
0
10
-18.589039
20
5.119087
30
0
40
41.4661298784279
210
0
220
0
230
-1
100
AcDbArc
50
223.115642
51
232.212178
0
ARC
5
C6
100
AcDbEntity
8
1
62
256
6
ByLayer
370
13
48
1
60
0
100
AcDbCircle
39
0
10
26.423828
20
-64.480811
30
0
40
38.5338701215721
210
0
220
0
230
1
100
AcDbArc
50
69.815993
51
94.783139
0
ARC
5
C7
100
AcDbEntity
8
1
62
256
6
ByLayer
370
13
48
1
60
0
100
AcDbCircle
39
0
10
-89.96405
20
-77.019154
30
0
40
149.872218361481
210
0
220
0
230
1
100
AcDbArc
50
22.751363
51
34.981719
0
ARC
5
C8
100
AcDbEntity
8
1
62
256
6
ByLayer
370
13
48
1
60
0
100
AcDbCircle
39
0
10
89.96405
20
-77.019154
30
0
40
151.466129878428
210
0
220
0
230
-1
100
AcDbArc
50
149.696928
51
157.248637
0
ARC
5
C9
100
AcDbEntity
8
1
62
256
6
ByLayer
370
13
48
1
60
0
100
AcDbCircle
39
0
10
-51.12683
20
-30.38968
30
0
40
1.2903
210
0
220
0
230
-1
100
AcDbArc
50
47.5
51
107.5
0
ARC
5
CB
100
AcDbEntity
8
1
62
256
6
ByLayer
370
13
48
1
60
0
100
AcDbCircle
39
0
10
-51.12683
20
-30.38968
30
0
40
1.6764
210
0
220
0
230
-1
100
AcDbArc
50
257.5
51
317.5
0
ARC
5
CC
100
AcDbEntity
8
1
62
256
6
ByLayer
370
13
48
1
60
0
100
AcDbCircle
39
0
10
-51.12683
20
-30.38968
30
0
40
1.6764
210
0
220
0
230
-1
100
AcDbArc
50
77.5
51
137.5
0
ARC
5
CD
100
AcDbEntity
8
1
62
256
6
ByLayer
370
13
48
1
60
0
100
AcDbCircle
39
0
10
-51.12683
20
-30.38968
30
0
40
1.6764
210
0
220
0
230
-1
100
AcDbArc
50
137.5
51
197.5
0
ARC
5
CF
100
AcDbEntity
8
1
62
256
6
ByLayer
370
13
48
1
60
0
100
AcDbCircle
39
0
10
-51.12683
20
-30.38968
30
0
40
1.2903
210
0
220
0
230
-1
100
AcDbArc
50
167.5
51
227.5
0
ARC
5
D0
100
AcDbEntity
8
1
62
256
6
ByLayer
370
13
48
1
60
0
100
AcDbCircle
39
0
10
-51.12683
20
-30.38968
30
0
40
1.2903
210
0
220
0
230
-1
100
AcDbArc
50
287.5
51
347.5
0
ARC
5
D1
100
AcDbEntity
8
1
62
256
6
ByLayer
370
13
48
1
60
0
100
AcDbCircle
39
0
10
-51.12683
20
-30.38968
30
0
40
1.2903
210
0
220
0
230
-1
100
AcDbArc
50
347.5
51
47.5
0
ARC
5
D2
100
AcDbEntity
8
1
62
256
6
ByLayer
370
13
48
1
60
0
100
AcDbCircle
39
0
10
-51.12683
20
-30.38968
30
0
40
1.2903
210
0
220
0
230
-1
100
AcDbArc
50
107.5
51
167.5
0
ARC
5
D3
100
AcDbEntity
8
1
62
256
6
ByLayer
370
13
48
1
60
0
100
AcDbCircle
39
0
10
51.12683
20
-30.38968
30
0
40
1.2903
210
0
220
0
230
1
100
AcDbArc
50
252.5
51
312.5
0
ARC
5
D4
100
AcDbEntity
8
1
62
256
6
ByLayer
370
13
48
1
60
0
100
AcDbCircle
39
0
10
-51.12683
20
-30.38968
30
0
40
1.6764
210
0
220
0
230
-1
100
AcDbArc
50
317.5
51
17.5
0
ARC
5
D5
100
AcDbEntity
8
1
62
256
6
ByLayer
370
13
48
1
60
0
100
AcDbCircle
39
0
10
-51.12683
20
-30.38968
30
0
40
1.6764
210
0
220
0
230
-1
100
AcDbArc
50
17.5
51
77.5
0
ARC
5
D6
100
AcDbEntity
8
1
62
256
6
ByLayer
370
13
48
1
60
0
100
AcDbCircle
39
0
10
-51.12683
20
-30.38968
30
0
40
1.6764
210
0
220
0
230
-1
100
AcDbArc
50
197.5
51
257.5
0
ARC
5
D7
100
AcDbEntity
8
1
62
256
6
ByLayer
370
13
48
1
60
0
100
AcDbCircle
39
0
10
43.601145
20
-42.171984
30
0
40
8
210
0
220
0
230
1
100
AcDbArc
50
72.5
51
85
0
ARC
5
D8
100
AcDbEntity
8
1
62
256
6
ByLayer
370
13
48
1
60
0
100
AcDbCircle
39
0
10
44.685898
20
-17.981094
30
0
40
8
210
0
220
0
230
1
100
AcDbArc
50
312.5
51
325
0
ARC
5
DA
100
AcDbEntity
8
1
62
256
6
ByLayer
370
13
48
1
60
0
100
AcDbCircle
39
0
10
63.520205
20
-23.919529
30
0
40
8
210
0
220
0
230
1
100
AcDbArc
50
180
51
192.5
0
ARC
5
DC
100
AcDbEntity
8
1
62
256
6
ByLayer
370
13
48
1
60
0
100
AcDbCircle
39
0
10
39.326826
20
-22.891779
30
0
40
8
210
0
220
0
230
1
100
AcDbArc
50
300
51
312.5
0
ARC
5
DD
100
AcDbEntity
8
1
62
256
6
ByLayer
370
13
48
1
60
0
100
AcDbCircle
39
0
10
50.533458
20
-44.357734
30
0
40
8
210
0
220
0
230
1
100
AcDbArc
50
60
51
72.5
0
ARC
5
DE
100
AcDbEntity
8
1
62
256
6
ByLayer
370
13
48
1
60
0
100
AcDbCircle
39
0
10
-59.2
20
-39.2
30
0
40
0.8
210
0
220
0
230
-1
100
AcDbArc
50
155
51
300
0
ARC
5
DF
100
AcDbEntity
8
1
62
256
6
ByLayer
370
13
48
1
60
0
100
AcDbCircle
39
0
10
-39.460284
20
-32.976091
30
0
40
0.8
210
0
220
0
230
-1
100
AcDbArc
50
275
51
60
0
ARC
5
E0
100
AcDbEntity
8
1
62
256
6
ByLayer
370
13
48
1
60
0
100
AcDbCircle
39
0
10
-54.720205
20
-18.99295
30
0
40
0.8
210
0
220
0
230
-1
100
AcDbArc
50
35
51
180
0
ARC
5
E1
100
AcDbEntity
8
1
62
256
6
ByLayer
370
13
48
1
60
0
100
AcDbCircle
39
0
10
65.093446
20
-31.015963
30
0
40
8
210
0
220
0
230
1
100
AcDbArc
50
192.5
51
205
0
CIRCLE
5
CA
100
AcDbEntity
8
1
62
256
6
ByLayer
370
13
48
1
60
0
100
AcDbCircle
10
51.12683
20
-30.38968
30
0
40
2.625
39
0
210
0
220
0
230
1
0
CIRCLE
5
CE
100
AcDbEntity
8
1
62
256
6
ByLayer
370
13
48
1
60
0
100
AcDbCircle
10
51.12683
20
-30.38968
30
0
40
1.8
39
0
210
0
220
0
230
1
0
CIRCLE
5
D9
100
AcDbEntity
8
1
62
256
6
ByLayer
370
13
48
1
60
0
100
AcDbCircle
10
-51.12683
20
-30.38968
30
0
40
2.87330486655119
39
0
210
0
220
0
230
-1
0
CIRCLE
5
DB
100
AcDbEntity
8
1
62
256
6
ByLayer
370
13
48
1
60
0
100
AcDbCircle
10
-51.12683
20
-30.38968
30
0
40
3
39
0
210
0
220
0
230
-1
0
CIRCLE
5
E2
100
AcDbEntity
8
1
62
256
6
ByLayer
370
13
48
1
60
0
100
AcDbCircle
10
51.12683
20
-30.38968
30
0
40
3.06293413074916
39
0
210
0
220
0
230
1
0
ELLIPSE
5
E3
100
AcDbEntity
8
1
62
256
6
ByLayer
370
13
48
1
60
0
100
AcDbEllipse
10
49.275171
20
-25.487161
30
0
11
0.814115518356328
21
-0.58070295571094
31
0
210
0
220
0
230
1
40
0.082518
41
2.25900058762333
42
2.53699692127968
0
ELLIPSE
5
E4
100
AcDbEntity
8
1
62
256
6
ByLayer
370
13
48
1
60
0
100
AcDbEllipse
10
46.404348
20
-28.117786
30
0
11
-0.507538362960711
21
0.861629160441529
31
0
210
0
220
0
230
1
40
0.082518
41
0.604595897445836
42
0.882592188079019
0
ELLIPSE
5
E5
100
AcDbEntity
8
1
62
256
6
ByLayer
370
13
48
1
60
0
100
AcDbEllipse
10
22.187217
20
0
30
0
11
-1.53075794227566E-15
21
24.9999999999623
31
0
210
0
220
0
230
-1
40
0.087489
41
-2.08161267440777
42
-1.41457681503618
0
ELLIPSE
5
E6
100
AcDbEntity
8
1
62
256
6
ByLayer
370
13
48
1
60
0
100
AcDbEllipse
10
21.056258
20
0
30
0
11
11.7092723497278
21
24.6771864409381
31
0
210
0
220
0
230
-1
40
0.341999
41
-2.97437958168081
42
-2.05975995310055
0
ELLIPSE
5
E7
100
AcDbEntity
8
1
62
256
6
ByLayer
370
13
48
1
60
0
100
AcDbEllipse
10
-1.056258
20
0
30
0
11
11.7092723497275
21
24.6771864409378
31
0
210
0
220
0
230
-1
40
0.341999
41
0.16721307190899
42
1.08183270048926
0
ELLIPSE
5
E8
100
AcDbEntity
8
1
62
256
6
ByLayer
370
13
48
1
60
0
100
AcDbEllipse
10
21.056258
20
0
30
0
11
11.7092723497282
21
-24.6771864409388
31
0
210
0
220
0
230
-1
40
0.341999
41
2.05975995310057
42
2.97437958168081
0
ELLIPSE
5
E9
100
AcDbEntity
8
1
62
256
6
ByLayer
370
13
48
1
60
0
100
AcDbEllipse
10
-1.056258
20
0
30
0
11
11.7092723497262
21
-24.6771864409362
31
0
210
0
220
0
230
-1
40
0.341999
41
-1.0818327004893
42
-0.167213071909
0
POINT
5
6C
100
AcDbEntity
8
80
62
256
6
ByLayer
370
18
48
1
60
0
100
AcDbPoint
10
0
20
0
30
0
39
0
210
0
220
0
230
1
50
360
0
POINT
5
6E
100
AcDbEntity
8
81
62
256
6
ByLayer
370
18
48
1
60
0
100
AcDbPoint
10
60
20
-40
30
0
39
0
210
0
220
0
230
1
50
360
0
SPLINE
5
EA
100
AcDbEntity
8
SK1
62
256
6
ByLayer
370
13
48
1
60
0
100
AcDbSpline
70
4
71
2
72
6
73
3
40
0
40
0
40
0
40
1
40
1
40
1
41
1
10
-0.194976888875288
20
-17.3704795286247
30
0
41
1
10
-0.059146384879881
20
-17.3755255798858
30
0
41
1
10
-0.0356373997137212
20
-17.4655268511456
30
0
0
SPLINE
5
EB
100
AcDbEntity
8
SK1
62
256
6
ByLayer
370
13
48
1
60
0
100
AcDbSpline
70
4
71
2
72
6
73
3
40
0
40
0
40
0
40
1
40
1
40
1
41
1
10
-0.0343899074271121
20
17.4680398861275
30
0
41
1
10
-0.0576203724863262
20
17.3761042177238
30
0
41
1
10
-0.194976888875288
20
17.3704796738454
30
0
0
SPLINE
5
EC
100
AcDbEntity
8
SK1
62
256
6
ByLayer
370
13
48
1
60
0
100
AcDbSpline
70
4
71
2
72
6
73
3
40
0
40
0
40
0
40
1
40
1
40
1
41
1
10
-30
20
-15.9932493559076
30
0
41
1
10
-29.2499990770911
20
-16.4260287704419
30
0
41
1
10
-28.5
20
-16.8588006436881
30
0
0
SPLINE
5
ED
100
AcDbEntity
8
SK1
62
256
6
ByLayer
370
13
48
1
60
0
100
AcDbSpline
70
4
71
2
72
6
73
3
40
0
40
0
40
0
40
1
40
1
40
1
41
1
10
-28.5
20
16.8588008432385
30
0
41
1
10
-29.2499990770552
20
16.4260289695447
30
0
41
1
10
-30
20
15.9932495545753
30
0
0
SPLINE
5
EE
100
AcDbEntity
8
SK1
62
256
6
ByLayer
370
13
48
1
60
0
100
AcDbSpline
70
4
71
2
72
6
73
3
40
0
40
0
40
0
40
1
40
1
40
1
41
1
10
-0.194976888875288
20
17.3652369633
30
0
41
1
10
-0.995008433403029
20
17.3451508243471
30
0
41
1
10
-1.7950399779393
20
17.3250646819564
30
0
0
SPLINE
5
EF
100
AcDbEntity
8
SK1
62
256
6
ByLayer
370
13
48
1
60
0
100
AcDbSpline
70
4
71
2
72
6
73
3
40
0
40
0
40
0
40
1
40
1
40
1
41
1
10
-1.7950399779393
20
-17.3250643989562
30
0
41
1
10
-0.995008433403029
20
-17.3451505413153
30
0
41
1
10
-0.194976888875288
20
-17.3652366802367
30
0
0
SPLINE
5
F0
100
AcDbEntity
8
SK1
62
256
6
ByLayer
370
13
48
1
60
0
100
AcDbSpline
70
4
71
3
72
13
73
9
40
0
40
0
40
0
40
0
40
0.239503416449037
40
0.368423133641911
40
0.500068561308489
40
0.631702599247869
40
0.760590900632782
40
1
40
1
40
1
40
1
41
1
10
-1.7950399779393
20
17.3302974649007
30
0
41
1
10
-1.82110932008982
20
17.3298953840654
30
0
41
1
10
-1.85883875467888
20
17.3360651360603
30
0
41
1
10
-1.90627575278674
20
17.3590990612904
30
0
41
1
10
-1.93886250822575
20
17.3842556209573
30
0
41
1
10
-1.9656349589192
20
17.4155240253433
30
0
41
1
10
-1.99103211472607
20
17.4617233046648
30
0
41
1
10
-1.99909125719799
20
17.4990813944884
30
0
41
1
10
-2
20
17.525129116923
30
0
0
SPLINE
5
F1
100
AcDbEntity
8
SK1
62
256
6
ByLayer
370
13
48
1
60
0
100
AcDbSpline
70
4
71
3
72
13
73
9
40
0
40
0
40
0
40
0
40
0.239409099712846
40
0.368297401209776
40
0.499931439185207
40
0.631576866803764
40
0.760496583878372
40
1
40
1
40
1
40
1
41
1
10
-2
20
-17.5251289721744
30
0
41
1
10
-1.99909125720339
20
-17.4990812496681
30
0
41
1
10
-1.99103211473138
20
-17.4617231597379
30
0
41
1
10
-1.96563495892644
20
-17.4155238802705
30
0
41
1
10
-1.93886250823533
20
-17.3842554757878
30
0
41
1
10
-1.90627575279683
20
-17.3590989160412
30
0
41
1
10
-1.85883875469076
20
-17.336064990738
30
0
41
1
10
-1.82110932009616
20
-17.3298952387249
30
0
41
1
10
-1.7950399779393
20
-17.3302973195575
30
0
0
SPLINE
5
F2
100
AcDbEntity
8
SK1
62
256
6
ByLayer
370
13
48
1
60
0
100
AcDbSpline
70
4
71
2
72
6
73
3
40
0
40
0
40
0
40
1
40
1
40
1
41
1
10
-2
20
17.5198482068775
30
0
41
1
10
-15.2499999987993
20
17.1871851888411
30
0
41
1
10
-28.5
20
16.8545212066649
30
0
0
SPLINE
5
F3
100
AcDbEntity
8
SK1
62
256
6
ByLayer
370
13
48
1
60
0
100
AcDbSpline
70
4
71
2
72
6
73
3
40
0
40
0
40
0
40
1
40
1
40
1
41
1
10
-28.5
20
-16.8545209244112
30
0
41
1
10
-15.2499999987995
20
-17.1871849060498
30
0
41
1
10
-2
20
-17.5198479235724
30
0
0
SPLINE
5
F4
100
AcDbEntity
8
SK1
62
256
6
ByLayer
370
13
48
1
60
0
100
AcDbSpline
70
4
71
3
72
39
73
35
40
0
40
0
40
0
40
0
40
0.0138689809103645
40
0.0424649185370702
40
0.0710608561637759
40
0.0996567937904816
40
0.156848669043893
40
0.214040544297304
40
0.24263648192401
40
0.271232419550716
40
0.328424294804127
40
0.357020232430833
40
0.385616170057539
40
0.414212107684244
40
0.44280804531095
40
0.471403982937656
40
0.485701951751008
40
0.499999920564361
40
0.514297889377714
40
0.528595858191067
40
0.557191795817773
40
0.585787733444478
40
0.614383671071184
40
0.64297960869789
40
0.671575546324595
40
0.728767421578007
40
0.757363359204713
40
0.785959296831418
40
0.84315117208483
40
0.900343047338241
40
0.928938984964947
40
0.957534922591652
40
0.986130860218358
40
1
40
1
40
1
40
1
41
1
10
-2
20
-17.5197847604316
30
0
41
1
10
-2
20
-17.5129943767829
30
0
41
1
10
-2
20
-17.4726243001205
30
0
41
1
10
-2
20
-17.3116343538074
30
0
41
1
10
-2
20
-16.9815888329671
30
0
41
1
10
-2
20
-16.3767064197525
30
0
41
1
10
-2
20
-15.3340294930174
30
0
41
1
10
-2
20
-13.9519092247439
30
0
41
1
10
-2
20
-12.6575651420821
30
0
41
1
10
-2
20
-11.241205620246
30
0
41
1
10
-2
20
-9.64534783198889
30
0
41
1
10
-2
20
-7.8763818413079
30
0
41
1
10
-2
20
-6.46346246032286
30
0
41
1
10
-2
20
-4.96520999967441
30
0
41
1
10
-2
20
-3.38314408231224
30
0
41
1
10
-2
20
-1.99851186782058
30
0
41
1
10
-2
20
-0.861482441955218
30
0
41
1
10
-2
20
-1.76095512E-08
30
0
41
1
10
-2
20
0.861482365135799
30
0
41
1
10
-2
20
1.99851187450375
30
0
41
1
10
-2
20
3.38314406709782
30
0
41
1
10
-2
20
4.96520967393047
30
0
41
1
10
-2
20
6.46346255594887
30
0
41
1
10
-2
20
7.87638169367139
30
0
41
1
10
-2
20
9.64534763909765
30
0
41
1
10
-2
20
11.2412056085041
30
0
41
1
10
-2
20
12.6575649796177
30
0
41
1
10
-2
20
13.951909601472
30
0
41
1
10
-2
20
15.3340290660617
30
0
41
1
10
-2
20
16.3767071899766
30
0
41
1
10
-2
20
16.9815887046989
30
0
41
1
10
-2
20
17.3116346702719
30
0
41
1
10
-2
20
17.4726252183244
30
0
41
1
10
-1.99999999999997
20
17.5129949963717
30
0
41
1
10
-1.99999999999997
20
17.5197852392227
30
0
0
SPLINE
5
F5
100
AcDbEntity
8
SK1
62
256
6
ByLayer
370
13
48
1
60
0
100
AcDbSpline
70
4
71
3
72
39
73
35
40
0
40
0
40
0
40
0
40
0.0162087904026505
40
0.0446671249898413
40
0.0731254595770321
40
0.101583794164223
40
0.158500463338604
40
0.215417132512986
40
0.243875467100177
40
0.272333801687367
40
0.329250470861749
40
0.35770880544894
40
0.386167140036131
40
0.414625474623321
40
0.443083809210512
40
0.471542143797703
40
0.485771311091298
40
0.500000478384893
40
0.514229645678489
40
0.528458812972084
40
0.556917147559275
40
0.585375482146466
40
0.613833816733656
40
0.642292151320847
40
0.670750485908038
40
0.72766715508242
40
0.75612548966961
40
0.784583824256801
40
0.841500493431182
40
0.898417162605564
40
0.926875497192755
40
0.955333831779946
40
0.983792166367136
40
1
40
1
40
1
40
1
41
1
10
-28.5
20
16.8573070637501
30
0
41
1
10
-28.5
20
16.8521221949622
30
0
41
1
10
-28.5
20
16.8141674031009
30
0
41
1
10
-28.5
20
16.653119129773
30
0
41
1
10
-28.5
20
16.3328855300395
30
0
41
1
10
-28.5
20
15.7436777114931
30
0
41
1
10
-28.5
20
14.7294539424714
30
0
41
1
10
-28.5
20
13.3839109677473
30
0
41
1
10
-28.5
20
12.120280876233
30
0
41
1
10
-28.5
20
10.73839291766
30
0
41
1
10
-28.5
20
9.19217366708202
30
0
41
1
10
-28.5
20
7.4733617642672
30
0
41
1
10
-28.5
20
6.10816680103
30
0
41
1
10
-28.5
20
4.66779609215368
30
0
41
1
10
-28.5
20
3.1590972918861
30
0
41
1
10
-28.5
20
1.85825200188583
30
0
41
1
10
-28.5
20
0.795563863901208
30
0
41
1
10
-28.5
20
-1.286700808E-07
30
0
41
1
10
-28.5
20
-0.795563889584969
30
0
41
1
10
-28.5
20
-1.85825194532134
30
0
41
1
10
-28.5
20
-3.15909751485594
30
0
41
1
10
-28.5
20
-4.66779636016514
30
0
41
1
10
-28.5
20
-6.10816664300194
30
0
41
1
10
-28.5
20
-7.47336198687177
30
0
41
1
10
-28.5
20
-9.19217383455458
30
0
41
1
10
-28.5
20
-10.7383929245239
30
0
41
1
10
-28.5
20
-12.1202809967187
30
0
41
1
10
-28.5
20
-13.3839106046769
30
0
41
1
10
-28.5
20
-14.7294543359371
30
0
41
1
10
-28.5
20
-15.7436769514769
30
0
41
1
10
-28.5
20
-16.3328856609547
30
0
41
1
10
-28.5
20
-16.6531187925377
30
0
41
1
10
-28.5
20
-16.814164739448
30
0
41
1
10
-28.5
20
-16.8521202819038
30
0
41
1
10
-28.5
20
-16.8573059362841
30
0
0
SPLINE
5
F6
100
AcDbEntity
8
SK1
62
256
6
ByLayer
370
13
48
1
60
0
100
AcDbSpline
70
4
71
3
72
39
73
35
40
0
40
0
40
0
40
0
40
0.0143966645238676
40
0.0429615552865466
40
0.0715264460492256
40
0.100091336811905
40
0.157221118337263
40
0.214350899862621
40
0.2429157906253
40
0.271480681387979
40
0.328610462913337
40
0.357175353676016
40
0.385740244438695
40
0.414305135201374
40
0.442870025964053
40
0.471434916726732
40
0.485717362108071
40
0.499999807489411
40
0.51428225287075
40
0.52856469825209
40
0.557129589014769
40
0.585694479777448
40
0.614259370540127
40
0.642824261302806
40
0.671389152065485
40
0.728518933590843
40
0.757083824353522
40
0.785648715116201
40
0.842778496641559
40
0.899908278166917
40
0.928473168929596
40
0.957038059692275
40
0.985602950454954
40
1
40
1
40
1
40
1
41
1
10
-1.7950399779393
20
-17.3257551216246
30
0
41
1
10
-1.7950399779393
20
-17.3192800109443
30
0
41
1
10
-1.7950399779393
20
-17.2795195318113
30
0
41
1
10
-1.7950399779393
20
-17.1188450441766
30
0
41
1
10
-1.7950399779393
20
-16.7916722325964
30
0
41
1
10
-1.7950399779393
20
-16.1913785074865
30
0
41
1
10
-1.7950399779393
20
-15.1570319640165
30
0
41
1
10
-1.7950399779393
20
-13.7856199701319
30
0
41
1
10
-1.7950399779393
20
-12.500267964077
30
0
41
1
10
-1.7950399779393
20
-11.0940004239178
30
0
41
1
10
-1.7950399779393
20
-9.51267503388596
30
0
41
1
10
-1.7950399779393
20
-7.75839234481913
30
0
41
1
10
-1.7950399779393
20
-6.35944481918477
30
0
41
1
10
-1.7950399779393
20
-4.8781381465428
30
0
41
1
10
-1.7950399779393
20
-3.31755142876619
30
0
41
1
10
-1.7950399779393
20
-1.95744888431969
30
0
41
1
10
-1.7950399779393
20
-0.842183896938593
30
0
41
1
10
-1.7950399779393
20
-5.01240152E-08
30
0
41
1
10
-1.7950399779393
20
0.842183835089799
30
0
41
1
10
-1.7950399779393
20
1.9574489056063
30
0
41
1
10
-1.7950399779393
20
3.31755135272857
30
0
41
1
10
-1.7950399779393
20
4.87813783770082
30
0
41
1
10
-1.7950399779393
20
6.3594449330798
30
0
41
1
10
-1.7950399779393
20
7.75839217523472
30
0
41
1
10
-1.7950399779393
20
9.51267484843638
30
0
41
1
10
-1.7950399779393
20
11.0940004136041
30
0
41
1
10
-1.7950399779393
20
12.5002678139024
30
0
41
1
10
-1.7950399779393
20
13.7856203428615
30
0
41
1
10
-1.7950399779393
20
15.1570315468654
30
0
41
1
10
-1.7950399779393
20
16.1913792747221
30
0
41
1
10
-1.7950399779393
20
16.7916721035533
30
0
41
1
10
-1.7950399779393
20
17.1188453667221
30
0
41
1
10
-1.7950399779393
20
17.2795209541393
30
0
41
1
10
-1.79503997793927
20
17.3192810341825
30
0
41
1
10
-1.79503997793924
20
17.3257558780445
30
0
0
SPLINE
5
F7
100
AcDbEntity
8
SK1
62
256
6
ByLayer
370
13
48
1
60
0
100
AcDbSpline
70
4
71
3
72
19
73
15
40
0
40
0
40
0
40
0
40
0.0664184393539376
40
0.133795131582019
40
0.201171823810101
40
0.268548516038183
40
0.403301900494347
40
0.53805528495051
40
0.605431977178592
40
0.672808669406674
40
0.807562053862837
40
0.874938746090919
40
0.942315438319001
40
1
40
1
40
1
40
1
41
1
10
-0.194976888875288
20
-17.365298603939
30
0
41
1
10
-0.194976888875317
20
-17.3791351964304
30
0
41
1
10
-0.194976888875288
20
-17.3505752188389
30
0
41
1
10
-0.194976888875288
20
-17.1586060420318
30
0
41
1
10
-0.194976888875288
20
-16.8308407609472
30
0
41
1
10
-0.194976888875288
20
-16.2296006616932
30
0
41
1
10
-0.194976888875288
20
-15.1935360543338
30
0
41
1
10
-0.194976888875288
20
-13.8199155786832
30
0
41
1
10
-0.194976888875288
20
-12.5327090406557
30
0
41
1
10
-0.194976888875288
20
-11.124360123357
30
0
41
1
10
-0.194976888875288
20
-9.54003756166779
30
0
41
1
10
-0.194976888875288
20
-7.78272657852642
30
0
41
1
10
-0.194976888875288
20
-6.44811514688843
30
0
41
1
10
-0.194976888875288
20
-5.53313598467676
30
0
41
1
10
-0.194976888875288
20
-5.10125345321859
30
0
0
SPLINE
5
F8
100
AcDbEntity
8
SK1
62
256
6
ByLayer
370
13
48
1
60
0
100
AcDbSpline
70
4
71
3
72
19
73
15
40
0
40
0
40
0
40
0
40
0.0576847343306421
40
0.125061503277768
40
0.192438272224894
40
0.327191810119146
40
0.394568579066273
40
0.461945348013399
40
0.596698885907651
40
0.731452423801903
40
0.798829192749029
40
0.866205961696155
40
0.933582730643281
40
1
40
1
40
1
40
1
41
1
10
-0.194976888875288
20
5.10125086896116
30
0
41
1
10
-0.194976888875288
20
5.53313428608726
30
0
41
1
10
-0.194976888875288
20
6.44811450197781
30
0
41
1
10
-0.194976888875288
20
7.78272641346857
30
0
41
1
10
-0.194976888875288
20
9.54003737468344
30
0
41
1
10
-0.194976888875288
20
11.1243601127487
30
0
41
1
10
-0.194976888875288
20
12.5327088879465
30
0
41
1
10
-0.194976888875288
20
13.8199159522374
30
0
41
1
10
-0.194976888875288
20
15.1935356351606
30
0
41
1
10
-0.194976888875288
20
16.2296014295452
30
0
41
1
10
-0.194976888875288
20
16.8308406320639
30
0
41
1
10
-0.194976888875288
20
17.1586063633231
30
0
41
1
10
-0.194976888875317
20
17.3505746337205
30
0
41
1
10
-0.194976888875232
20
17.3791347770093
30
0
41
1
10
-0.19497688887526
20
17.3652994787598
30
0
0
SPLINE
5
F9
100
AcDbEntity
8
SK1
62
256
6
ByLayer
370
13
48
1
60
0
100
AcDbSpline
70
4
71
3
72
39
73
35
40
0
40
0
40
0
40
0
40
0.0181813862701224
40
0.046523665019261
40
0.0748659437683996
40
0.103208222517538
40
0.159892780015815
40
0.216577337514092
40
0.244919616263231
40
0.273261895012369
40
0.329946452510646
40
0.358288731259785
40
0.386631010008924
40
0.414973288758062
40
0.443315567507201
40
0.471657846256339
40
0.485828985630908
40
0.500000125005478
40
0.514171264380047
40
0.528342403754616
40
0.556684682503755
40
0.585026961252893
40
0.613369240002032
40
0.641711518751171
40
0.670053797500309
40
0.726738354998586
40
0.755080633747725
40
0.783422912496863
40
0.84010746999514
40
0.896792027493417
40
0.925134306242556
40
0.953476584991695
40
0.981818863740833
40
1
40
1
40
1
40
1
41
1
10
-30
20
15.993205159115
30
0
41
1
10
-30
20
15.9899210877603
30
0
41
1
10
-30
20
15.9548416100036
30
0
41
1
10
-30
20
15.7965331178349
30
0
41
1
10
-30
20
15.4890632796305
30
0
41
1
10
-30
20
14.9202435431778
30
0
41
1
10
-30
20
13.9430327235571
30
0
41
1
10
-30
20
12.6450678356931
30
0
41
1
10
-30
20
11.4213906920358
30
0
41
1
10
-30
20
10.0843425709124
30
0
41
1
10
-30
20
8.60269253637253
30
0
41
1
10
-30
20
6.94912017416232
30
0
41
1
10
-30
20
5.64600401967195
30
0
41
1
10
-30
20
4.28092547446499
30
0
41
1
10
-30
20
2.86766099029055
30
0
41
1
10
-30
20
1.67580430318804
30
0
41
1
10
-30
20
0.709818178928145
30
0
41
1
10
-30
20
-2.731357824E-07
30
0
41
1
10
-30
20
-0.709818138095528
30
0
41
1
10
-30
20
-1.67580418173881
30
0
41
1
10
-30
20
-2.86766148350514
30
0
41
1
10
-30
20
-4.28092566737899
30
0
41
1
10
-30
20
-5.64600378047228
30
0
41
1
10
-30
20
-6.94912049428407
30
0
41
1
10
-30
20
-8.60269267078093
30
0
41
1
10
-30
20
-10.084342571431
30
0
41
1
10
-30
20
-11.4213907579162
30
0
41
1
10
-30
20
-12.6450674903883
30
0
41
1
10
-30
20
-13.9430330734596
30
0
41
1
10
-30
20
-14.9202427964398
30
0
41
1
10
-30
20
-15.4890634139888
30
0
41
1
10
-30
20
-15.7965327535813
30
0
41
1
10
-30
20
-15.9548405328194
30
0
41
1
10
-30
20
-15.9899204505598
30
0
41
1
10
-30
20
-15.9932048408395
30
0
0
SPLINE
5
FA
100
AcDbEntity
8
1
62
256
6
ByLayer
370
13
48
1
60
0
100
AcDbSpline
70
4
71
3
72
52
73
48
40
0
40
0
40
0
40
0
40
0.0415290514667054
40
0.0415290514667054
40
0.0919748908631945
40
0.0919748908631945
40
0.142420730259683
40
0.142420730259683
40
0.192866569656172
40
0.192866569656172
40
0.29375824844915
40
0.29375824844915
40
0.318981168147395
40
0.318981168147395
40
0.344204087845639
40
0.344204087845639
40
0.394649927242129
40
0.394649927242129
40
0.445095766638618
40
0.445095766638618
40
0.495541606035107
40
0.495541606035107
40
0.520764525733352
40
0.520764525733352
40
0.545987445431596
40
0.545987445431596
40
0.596433284828086
40
0.596433284828086
40
0.646879124224575
40
0.646879124224575
40
0.67210204392282
40
0.67210204392282
40
0.697324963621064
40
0.697324963621064
40
0.747770803017554
40
0.747770803017554
40
0.798216642414043
40
0.798216642414043
40
0.848662481810533
40
0.848662481810533
40
0.873885401508777
40
0.873885401508777
40
0.899108321207022
40
0.899108321207022
40
0.949554160603511
40
0.949554160603511
40
1
40
1
40
1
40
1
41
1
10
19.4253173322239
20
24.9999896632271
30
0
41
1
10
19.4253148723331
20
25.0004749906423
30
0
41
1
10
19.4253841247768
20
24.9865637091449
30
0
41
1
10
19.4256976147474
20
24.9238573116274
30
0
41
1
10
19.4259771480256
20
24.8680290258534
30
0
41
1
10
19.4267558674062
20
24.714324093451
30
0
41
1
10
19.427254619847
20
24.6165270977823
30
0
41
1
10
19.4284855820696
20
24.3792209340124
30
0
41
1
10
19.4292183647846
20
24.2395918079725
30
0
41
1
10
19.4318022075597
20
23.7582022149508
30
0
41
1
10
19.4340151419199
20
23.3571609135628
30
0
41
1
10
19.4375865703274
20
22.7559737489745
30
0
41
1
10
19.4383423591574
20
22.6306242127625
30
0
41
1
10
19.439937185903
20
22.3708109622408
30
0
41
1
10
19.44077674232
20
22.2362562987555
30
0
41
1
10
19.4434331645049
20
21.8187166068268
30
0
41
1
10
19.4453868544556
20
21.5218734931707
30
0
41
1
10
19.4497393543052
20
20.8911593952375
30
0
41
1
10
19.452142937189
20
20.5566434666437
30
0
41
1
10
19.4574687731374
20
19.8551191692674
30
0
41
1
10
19.4603922600047
20
19.4877986657296
30
0
41
1
10
19.4652740780187
20
18.9120565787248
30
0
41
1
10
19.4669844999649
20
18.7160117203651
30
0
41
1
10
19.4705950146778
20
18.3156255445312
30
0
41
1
10
19.4724970766701
20
18.1110793298303
30
0
41
1
10
19.4785137007854
20
17.4866081042616
30
0
41
1
10
19.4829323289142
20
17.0561017367704
30
0
41
1
10
19.492855494888
20
16.166926831675
30
0
41
1
10
19.498357554414
20
15.7082582595023
30
0
41
1
10
19.5077323215268
20
14.9989764334061
30
0
41
1
10
19.5110458316348
20
14.7590098681818
30
0
41
1
10
19.5180921295561
20
14.2738658723944
30
0
41
1
10
19.5218277231382
20
14.0284569325656
30
0
41
1
10
19.5337963816427
20
13.2837581119894
30
0
41
1
10
19.5427746371418
20
12.776006732414
30
0
41
1
10
19.5637055834138
20
11.7378850961872
30
0
41
1
10
19.5756672111785
20
11.2067882448569
30
0
41
1
10
19.6040001240195
20
10.1299788070714
30
0
41
1
10
19.6203506597653
20
9.58342344167698
30
0
41
1
10
19.6503589886021
20
8.75146027467281
30
0
41
1
10
19.6612884537227
20
8.47211600812426
30
0
41
1
10
19.6856182614047
20
7.90938175423361
30
0
41
1
10
19.6990332115032
20
7.62567310868417
30
0
41
1
10
19.7441201437442
20
6.77232522869141
30
0
41
1
10
19.780297047969
20
6.19964780871078
30
0
41
1
10
19.8776285995569
20
5.04830828134936
30
0
41
1
10
19.9380923087895
20
4.46956503467015
30
0
41
1
10
20.0266347692346
20
3.88962189685165
30
0
0
SPLINE
5
FB
100
AcDbEntity
8
1
62
256
6
ByLayer
370
13
48
1
60
0
100
AcDbSpline
70
4
71
3
72
12
73
8
40
0
40
0
40
0
40
0
40
0.103946123090644
40
0.103946123090644
40
0.402630748727092
40
0.402630748727092
40
1
40
1
40
1
40
1
41
1
10
46.1765966742929
20
-27.4630062412415
30
0
41
1
10
46.1748069145338
20
-27.4549229052493
30
0
41
1
10
46.1734748064331
20
-27.4468628114448
30
0
41
1
10
46.1699436095373
20
-27.4160161794134
30
0
41
1
10
46.1706560852414
20
-27.393602813964
30
0
41
1
10
46.1807556841889
20
-27.3286265509748
30
0
41
1
10
46.197434769582
20
-27.2902614347345
30
0
41
1
10
46.2216433080937
20
-27.2568898615969
30
0
0
SPLINE
5
FC
100
AcDbEntity
8
1
62
256
6
ByLayer
370
13
48
1
60
0
100
AcDbSpline
70
4
71
3
72
12
73
8
40
0
40
0
40
0
40
0
40
0.597369251281342
40
0.597369251281342
40
0.896053876922013
40
0.896053876922013
40
1
40
1
40
1
40
1
41
1
10
48.4334753185241
20
-25.2301192387498
30
0
41
1
10
48.4688298159056
20
-25.2089113452793
30
0
41
1
10
48.5085026193717
20
-25.1956394690433
30
0
41
1
10
48.5741118661111
20
-25.1912413565808
30
0
41
1
10
48.5965020382873
20
-25.192485045575
30
0
41
1
10
48.6269235254817
20
-25.1986912663263
30
0
41
1
10
48.6348368473238
20
-25.2007207888153
30
0
41
1
10
48.6427334359399
20
-25.20320824715
30
0
0
SPLINE
5
FD
100
AcDbEntity
8
1
62
256
6
ByLayer
370
13
48
1
60
0
100
AcDbSpline
70
4
71
3
72
14
73
10
40
0
40
0
40
0
40
0
40
0.249999999999999
40
0.249999999999999
40
0.374999999999999
40
0.374999999999999
40
0.499999999999998
40
0.499999999999998
40
1
40
1
40
1
40
1
41
1
10
23.2106968840511
20
-26.081137309769
30
0
41
1
10
23.038493193043
20
-25.9720558720131
30
0
41
1
10
22.8617894318338
20
-25.8723347174694
30
0
41
1
10
22.5898594396391
20
-25.736352512266
30
0
41
1
10
22.4977893196665
20
-25.693178801987
30
0
41
1
10
22.3129165791999
20
-25.612045345803
30
0
41
1
10
22.2201571041169
20
-25.5740815631115
30
0
41
1
10
21.7544937922012
20
-25.3966046783035
30
0
41
1
10
21.3761371719094
20
-25.2934770513666
30
0
41
1
10
20.9883692336986
20
-25.226324667042
30
0
0
SPLINE
5
FE
100
AcDbEntity
8
1
62
256
6
ByLayer
370
13
48
1
60
0
100
AcDbSpline
70
4
71
3
72
16
73
12
40
0
40
0
40
0
40
0
40
0.249999999999999
40
0.249999999999999
40
0.499999999999997
40
0.499999999999997
40
0.749999999999996
40
0.749999999999996
40
0.874999999999998
40
0.874999999999998
40
1
40
1
40
1
40
1
41
1
10
11.8943375672976
20
8.05584836782799
30
0
41
1
10
11.8788862370739
20
7.99846916820732
30
0
41
1
10
11.8602443227468
20
7.94172327888214
30
0
41
1
10
11.8148780607233
20
7.83191947486071
30
0
41
1
10
11.7882603826482
20
7.77866338250479
30
0
41
1
10
11.7219265489988
20
7.67774765104258
30
0
41
1
10
11.6829561422922
20
7.63070347545363
30
0
41
1
10
11.6089650834004
20
7.57431556968135
30
0
41
1
10
11.5824040005112
20
7.55857361750131
30
0
41
1
10
11.5239906705311
20
7.53597576299671
30
0
41
1
10
11.4930777586347
20
7.5296667942653
30
0
41
1
10
11.4613248654053
20
7.5296667942653
30
0
0
SPLINE
5
FF
100
AcDbEntity
8
1
62
256
6
ByLayer
370
13
48
1
60
0
100
AcDbSpline
70
4
71
3
72
26
73
22
40
0
40
0
40
0
40
0
40
0.125
40
0.125
40
0.1875
40
0.1875
40
0.25
40
0.25
40
0.499999999999999
40
0.499999999999999
40
0.562499999999999
40
0.562499999999999
40
0.624999999999999
40
0.624999999999999
40
0.749999999999999
40
0.749999999999999
40
0.812499999999999
40
0.812499999999999
40
0.874999999999999
40
0.874999999999999
40
1
40
1
40
1
40
1
41
1
10
20.0266347692306
20
3.88962189685139
30
0
41
1
10
20.0392461866615
20
4.62249112550899
30
0
41
1
10
20.0548436532262
20
5.34640631677681
30
0
41
1
10
20.0828177690993
20
6.41855165666485
30
0
41
1
10
20.092906649001
20
6.77364196460866
30
0
41
1
10
20.1146445032682
20
7.47914444442614
30
0
41
1
10
20.1262425273201
20
7.82786299168515
30
0
41
1
10
20.1877278940472
20
9.54780117645893
30
0
41
1
10
20.2481286241487
20
10.8524722899109
30
0
41
1
10
20.3379701060095
20
12.3921456582061
30
0
41
1
10
20.3566611476116
20
12.695485713187
30
0
41
1
10
20.3955209041916
20
13.2927719933285
30
0
41
1
10
20.4157343062543
20
13.5873034557955
30
0
41
1
10
20.4781847695093
20
14.450080418733
30
0
41
1
10
20.5222815831674
20
14.9986703902894
30
0
41
1
10
20.5921204857948
20
15.7816749497019
30
0
41
1
10
20.6160473810592
20
16.0363235115383
30
0
41
1
10
20.6649963965661
20
16.5306783606402
30
0
41
1
10
20.6899851624441
20
16.7700848913423
30
0
41
1
10
20.7664794548344
20
17.4652151349655
30
0
41
1
10
20.8195096706483
20
17.8978994477317
30
0
41
1
10
20.8745749102034
20
18.2998327568396
30
0
0
SPLINE
5
100
100
AcDbEntity
8
1
62
256
6
ByLayer
370
13
48
1
60
0
100
AcDbSpline
70
4
71
3
72
8
73
4
40
0
40
0
40
0
40
0
40
1
40
1
40
1
40
1
41
1
10
48.3832724702561
20
-25.2674835772465
30
0
41
1
10
48.3985661938867
20
-25.253469461517
30
0
41
1
10
48.4153020664711
20
-25.2410207200916
30
0
41
1
10
48.4334753185241
20
-25.2301192387499
30
0
0
SPLINE
5
101
100
AcDbEntity
8
1
62
256
6
ByLayer
370
13
48
1
60
0
100
AcDbSpline
70
4
71
3
72
22
73
18
40
0
40
0
40
0
40
0
40
0.125
40
0.125
40
0.250000000000001
40
0.250000000000001
40
0.375000000000001
40
0.375000000000001
40
0.437500000000001
40
0.437500000000001
40
0.500000000000001
40
0.500000000000001
40
0.750000000000002
40
0.750000000000002
40
0.875000000000001
40
0.875000000000001
40
1
40
1
40
1
40
1
41
1
10
47.2577204861022
20
-21.7232746450249
30
0
41
1
10
47.3369895977573
20
-21.637853141273
30
0
41
1
10
47.4084427764591
20
-21.547009016406
30
0
41
1
10
47.5361638994582
20
-21.3547976126529
30
0
41
1
10
47.592692926533
20
-21.2524438291621
30
0
41
1
10
47.6861214561139
20
-21.0464634181075
30
0
41
1
10
47.7237814508333
20
-20.9419523828203
30
0
41
1
10
47.7677942339524
20
-20.7831384364829
30
0
41
1
10
47.7803742427029
20
-20.7298573552704
30
0
41
1
10
47.8014161723628
20
-20.6226285662164
30
0
41
1
10
47.8099017473452
20
-20.5684229261891
30
0
41
1
10
47.841626834919
20
-20.299627020338
30
0
41
1
10
47.8339396963801
20
-20.0914892361429
30
0
41
1
10
47.7802548884126
20
-19.788631483903
30
0
41
1
10
47.7553243756562
20
-19.6903874333054
30
0
41
1
10
47.6935501311518
20
-19.5020136363565
30
0
41
1
10
47.6566080331008
20
-19.4113553771447
30
0
41
1
10
47.6139740642992
20
-19.3240515971442
30
0
0
SPLINE
5
102
100
AcDbEntity
8
1
62
256
6
ByLayer
370
13
48
1
60
0
100
AcDbSpline
70
4
71
3
72
34
73
30
40
0
40
0
40
0
40
0
40
0.0624999999999994
40
0.0624999999999994
40
0.093749999999999
40
0.093749999999999
40
0.124999999999999
40
0.124999999999999
40
0.187499999999999
40
0.187499999999999
40
0.25
40
0.25
40
0.312500000000001
40
0.312500000000001
40
0.343750000000001
40
0.343750000000001
40
0.375000000000001
40
0.375000000000001
40
0.437500000000001
40
0.437500000000001
40
0.500000000000001
40
0.500000000000001
40
0.625000000000001
40
0.625000000000001
40
0.750000000000001
40
0.750000000000001
40
0.875
40
0.875
40
1
40
1
40
1
40
1
41
1
10
20.8745749102034
20
18.2998327568396
30
0
41
1
10
20.8856596802333
20
18.3807429342008
30
0
41
1
10
20.9030227938386
20
18.4542245694648
30
0
41
1
10
20.9402285314059
20
18.5514250509491
30
0
41
1
10
20.9544977580001
20
18.5816474548607
30
0
41
1
10
20.9871765333986
20
18.6373037830019
30
0
41
1
10
21.0056900972852
20
18.6628293697077
30
0
41
1
10
21.0671323768456
20
18.7303614628899
30
0
41
1
10
21.115980459959
20
18.763663561911
30
0
41
1
10
21.231027341648
20
18.8050378427775
30
0
41
1
10
21.2979301559815
20
18.8127957976803
30
0
41
1
10
21.4439372704198
20
18.8017857585688
30
0
41
1
10
21.5235366595599
20
18.7834263550258
30
0
41
1
10
21.6525180843435
20
18.7378002481765
30
0
41
1
10
21.6969350980777
20
18.7196049800318
30
0
41
1
10
21.7868318285022
20
18.6784360970588
30
0
41
1
10
21.8325432920102
20
18.6553836567773
30
0
41
1
10
21.9717947075879
20
18.5795676846687
30
0
41
1
10
22.0674423033424
20
18.5201824355836
30
0
41
1
10
22.2637467568123
20
18.3865072638862
30
0
41
1
10
22.3650364872145
20
18.3116778030647
30
0
41
1
10
22.6692815179502
20
18.072788451717
30
0
41
1
10
22.8736770612653
20
17.8941788037796
30
0
41
1
10
23.2856937083269
20
17.5094049231819
30
0
41
1
10
23.4883238094581
20
17.3077942506099
30
0
41
1
10
23.8878869186175
20
16.892635007795
30
0
41
1
10
24.0850311104196
20
16.6787705412545
30
0
41
1
10
24.4751928005008
20
16.2407811502034
30
0
41
1
10
24.6681969413552
20
16.0166302664967
30
0
41
1
10
24.8593537025704
20
15.7878229534463
30
0
0
SPLINE
5
103
100
AcDbEntity
8
1
62
256
6
ByLayer
370
13
48
1
60
0
100
AcDbSpline
70
4
71
3
72
8
73
4
40
0
40
0
40
0
40
0
40
1
40
1
40
1
40
1
41
1
10
20.9883692336863
20
-20.7578446426506
30
0
41
1
10
20.933470890084
20
-20.5632293114682
30
0
41
1
10
20.8944371647831
20
-20.3774493021393
30
0
41
1
10
20.8745749102033
20
-20.1946409317002
30
0
0
SPLINE
5
104
100
AcDbEntity
8
1
62
256
6
ByLayer
370
13
48
1
60
0
100
AcDbSpline
70
4
71
3
72
41
73
37
40
0
40
0
40
0
40
0
40
0.125
40
0.125
40
0.249999999999999
40
0.249999999999999
40
0.374999999999998
40
0.374999999999998
40
0.499999999999998
40
0.499999999999998
40
0.562499999999998
40
0.562499999999998
40
0.593749999999998
40
0.593749999999998
40
0.624999999999998
40
0.624999999999998
40
0.687499999999999
40
0.687499999999999
40
0.718749999999999
40
0.718749999999999
40
0.749999999999999
40
0.749999999999999
40
0.8125
40
0.8125
40
0.828125
40
0.828125
40
0.84375
40
0.84375
40
0.875
40
0.90625
40
0.90625
40
0.921875
40
0.921875
40
0.9375
40
0.9375
40
1
40
1
40
1
40
1
41
1
10
36.3658236793747
20
2.01501961993722
30
0
41
1
10
36.1237997102103
20
2.44889325918788
30
0
41
1
10
35.8822147211317
20
2.87832499812032
30
0
41
1
10
35.4015478829326
20
3.72674640137455
30
0
41
1
10
35.1624453138636
20
4.1457578713555
30
0
41
1
10
34.6893295500803
20
4.97076970589475
30
0
41
1
10
34.4552676961534
20
5.37682173154226
30
0
41
1
10
33.9967522016984
20
6.17130784700672
30
0
41
1
10
33.772160246836
20
6.5598901889806
30
0
41
1
10
33.4491675013821
20
7.12259177925185
30
0
41
1
10
33.3438608827815
20
7.30675268193829
30
0
41
1
10
33.1910493165943
20
7.5761841270714
30
0
41
1
10
33.140977303035
20
7.66485199001326
30
0
41
1
10
33.0429549155747
20
7.8394869669367
30
0
41
1
10
32.9951011894662
20
7.92528475301734
30
0
41
1
10
32.8567527287294
20
8.17549139160974
30
0
41
1
10
32.7710032587832
20
8.33349099789416
30
0
41
1
10
32.6565567216828
20
8.55199461035519
30
0
41
1
10
32.6207912885445
20
8.62172170319951
30
0
41
1
10
32.5551247688051
20
8.75364578203582
30
0
41
1
10
32.5251223888075
20
8.81606332143386
30
0
41
1
10
32.4467966545571
20
8.98784633030098
30
0
41
1
10
32.4105985867513
20
9.08063072010634
30
0
41
1
10
32.392046661618
20
9.16087351096337
30
0
41
1
10
32.3896794297399
20
9.1751658476411
30
0
41
1
10
32.387830658128
20
9.19961678264869
30
0
41
1
10
32.3883335916033
20
9.20980553071453
30
0
41
1
10
32.3941142442409
20
9.23428224719589
30
0
41
1
10
32.4132237855828
20
9.2506668290431
30
0
41
1
10
32.4547738028723
20
9.2350724027757
30
0
41
1
10
32.4940951860952
20
9.21172229985126
30
0
41
1
10
32.5085788969454
20
9.20197645677345
30
0
41
1
10
32.5397117967374
20
9.17907234492785
30
0
41
1
10
32.5564062417587
20
9.16589038440108
30
0
41
1
10
32.6450558739708
20
9.09201637077464
30
0
41
1
10
32.732399908589
20
9.0076524302483
30
0
41
1
10
32.8315053390034
20
8.90484441653629
30
0
0
SPLINE
5
105
100
AcDbEntity
8
1
62
256
6
ByLayer
370
13
48
1
60
0
100
AcDbSpline
70
4
71
3
72
20
73
16
40
0
40
0
40
0
40
0
40
0.0625000000000012
40
0.0625000000000012
40
0.125000000000002
40
0.125000000000002
40
0.250000000000005
40
0.250000000000005
40
0.375000000000007
40
0.375000000000007
40
0.500000000000009
40
0.500000000000009
40
0.750000000000005
40
0.750000000000005
40
1
40
1
40
1
40
1
41
1
10
19.5207591161516
20
-24.9512460844023
30
0
41
1
10
19.5237705335531
20
-24.9524981839855
30
0
41
1
10
19.5292136909414
20
-24.9537263364474
30
0
41
1
10
19.5437699663032
20
-24.9560127439056
30
0
41
1
10
19.5528689168198
20
-24.9570844479033
30
0
41
1
10
19.5845433075013
20
-24.9601290304569
30
0
41
1
10
19.6107673664733
20
-24.9618739606796
30
0
41
1
10
19.6682230852241
20
-24.9649780211503
30
0
41
1
10
19.6998182022106
20
-24.9663495304483
30
0
41
1
10
19.7653138528835
20
-24.9688075682188
30
0
41
1
10
19.7994053309467
20
-24.9699021826344
30
0
41
1
10
19.9044667606105
20
-24.9729133215669
30
0
41
1
10
19.9776638646199
20
-24.974548484475
30
0
41
1
10
20.1264523478301
20
-24.9773999302855
30
0
41
1
10
20.2023353400762
20
-24.9786146662645
30
0
41
1
10
20.2792076144252
20
-24.9796966451101
30
0
0
SPLINE
5
106
100
AcDbEntity
8
1
62
256
6
ByLayer
370
13
48
1
60
0
100
AcDbSpline
70
4
71
3
72
16
73
12
40
0
40
0
40
0
40
0
40
0.125000000000001
40
0.125000000000001
40
0.250000000000002
40
0.250000000000002
40
0.500000000000003
40
0.500000000000003
40
0.750000000000002
40
0.750000000000002
40
1
40
1
40
1
40
1
41
1
10
8.5386751345948
20
-23.8391299750504
30
0
41
1
10
8.50697323176124
20
-23.8391299750504
30
0
41
1
10
8.4756398386109
20
-23.8370993498303
30
0
41
1
10
8.41770072232742
20
-23.8299908115612
30
0
41
1
10
8.39058907041834
20
-23.8248834464052
30
0
41
1
10
8.31777781748551
20
-23.8071882416307
30
0
41
1
10
8.27812666032537
20
-23.7919356634171
30
0
41
1
10
8.2117121049007
20
-23.75909551792
30
0
41
1
10
8.1848578107932
20
-23.7414301198898
30
0
41
1
10
8.13959628273548
20
-23.704958919593
30
0
41
1
10
8.12110769698506
20
-23.6860254491251
30
0
41
1
10
8.10566243270264
20
-23.6665017920808
30
0
0
SPLINE
5
107
100
AcDbEntity
8
1
62
256
6
ByLayer
370
13
48
1
60
0
100
AcDbSpline
70
4
71
3
72
9
73
5
40
0
40
0
40
0
40
0
40
0.5
40
1
40
1
40
1
40
1
41
1
10
47.2577204861022
20
-21.7232746450249
30
0
41
1
10
46.5490636438423
20
-22.4869331728669
30
0
41
1
10
45.0725731084258
20
-23.9492209931397
30
0
41
1
10
43.4791125397987
20
-25.2829756507389
30
0
41
1
10
42.6527951258572
20
-25.9173395976385
30
0
0
SPLINE
5
108
100
AcDbEntity
8
1
62
256
6
ByLayer
370
13
48
1
60
0
100
AcDbSpline
70
4
71
3
72
16
73
12
40
0
40
0
40
0
40
0
40
0.125000000000002
40
0.125000000000002
40
0.250000000000004
40
0.250000000000004
40
0.500000000000002
40
0.500000000000002
40
0.750000000000001
40
0.750000000000001
40
1
40
1
40
1
40
1
41
1
10
11.4613248654054
20
-7.52966679426501
30
0
41
1
10
11.4930267682389
20
-7.52966679426501
30
0
41
1
10
11.5243601613893
20
-7.53610198950867
30
0
41
1
10
11.5822992776727
20
-7.55854989603611
30
0
41
1
10
11.6094109295818
20
-7.57464889660918
30
0
41
1
10
11.6822221825146
20
-7.63015704912721
30
0
41
1
10
11.7218733396748
20
-7.67767014498918
30
0
41
1
10
11.7882878950994
20
-7.77870179643054
30
0
41
1
10
11.8151421892069
20
-7.83248598676832
30
0
41
1
10
11.8604037172647
20
-7.9421825395128
30
0
41
1
10
11.8788923030151
20
-7.99849169434938
30
0
41
1
10
11.8943375672975
20
-8.05584836782802
30
0
0
SPLINE
5
109
100
AcDbEntity
8
1
62
256
6
ByLayer
370
13
48
1
60
0
100
AcDbSpline
70
4
71
3
72
16
73
12
40
0
40
0
40
0
40
0
40
0.25
40
0.25
40
0.499999999999999
40
0.499999999999999
40
0.749999999999998
40
0.749999999999998
40
0.874999999999999
40
0.874999999999999
40
1
40
1
40
1
40
1
41
1
10
8.1056624327025
20
23.6665017920808
30
0
41
1
10
8.12111376292623
20
23.686033116806
30
0
41
1
10
8.13975567725333
20
23.7051129235881
30
0
41
1
10
8.1851219392768
20
23.7416171457991
30
0
41
1
10
8.21173961735192
20
23.7591079584197
30
0
41
1
10
8.27807345100135
20
23.7919105160782
30
0
41
1
10
8.31704385770792
20
23.807014118376
30
0
41
1
10
8.39103491659972
20
23.8249896713849
30
0
41
1
10
8.41759599948895
20
23.8299833264009
30
0
41
1
10
8.47600932946901
20
23.8371392949585
30
0
41
1
10
8.50692224136546
20
23.8391299750502
30
0
41
1
10
8.53867513459488
20
23.8391299750502
30
0
0
SPLINE
5
10A
100
AcDbEntity
8
1
62
256
6
ByLayer
370
13
48
1
60
0
100
AcDbSpline
70
2053
71
3
72
94
73
90
40
0
40
0
40
0
40
0
40
0.0312499999999996
40
0.0312499999999996
40
0.0468749999999996
40
0.0468749999999996
40
0.0624999999999996
40
0.0624999999999996
40
0.0937499999999989
40
0.0937499999999989
40
0.109374999999999
40
0.109374999999999
40
0.124999999999998
40
0.124999999999998
40
0.156249999999997
40
0.156249999999997
40
0.187499999999996
40
0.187499999999996
40
0.203124999999996
40
0.203124999999996
40
0.218749999999996
40
0.218749999999996
40
0.249999999999995
40
0.249999999999995
40
0.265624999999995
40
0.265624999999995
40
0.281249999999995
40
0.281249999999995
40
0.312499999999995
40
0.312499999999995
40
0.343749999999995
40
0.343749999999995
40
0.359374999999995
40
0.359374999999995
40
0.374999999999996
40
0.374999999999996
40
0.406249999999996
40
0.406249999999996
40
0.421874999999996
40
0.421874999999996
40
0.437499999999995
40
0.437499999999995
40
0.468749999999994
40
0.468749999999994
40
0.499999999999994
40
0.499999999999994
40
0.515624999999994
40
0.515624999999994
40
0.531249999999994
40
0.531249999999994
40
0.562499999999995
40
0.562499999999995
40
0.593749999999996
40
0.593749999999996
40
0.624999999999996
40
0.624999999999996
40
0.640624999999996
40
0.640624999999996
40
0.656249999999997
40
0.656249999999997
40
0.687499999999997
40
0.687499999999997
40
0.703124999999997
40
0.703124999999997
40
0.718749999999997
40
0.734374999999997
40
0.734374999999997
40
0.749999999999997
40
0.749999999999997
40
0.781249999999998
40
0.781249999999998
40
0.812499999999998
40
0.812499999999998
40
0.843749999999998
40
0.843749999999998
40
0.859374999999998
40
0.859374999999998
40
0.874999999999998
40
0.890624999999997
40
0.890624999999997
40
0.906249999999997
40
0.906249999999997
40
0.937499999999998
40
0.937499999999998
40
0.953124999999998
40
0.953124999999998
40
0.968749999999998
40
0.968749999999998
40
1
40
1
40
1
40
1
41
1
10
44.4426118034878
20
-25.1052979889393
30
0
41
1
10
44.3567456854384
20
-25.1679178305686
30
0
41
1
10
44.2781148042572
20
-25.2227431946534
30
0
41
1
10
44.1707334838435
20
-25.2940467305812
30
0
41
1
10
44.1365788667029
20
-25.3160586644698
30
0
41
1
10
44.0729077568083
20
-25.3557703241237
30
0
41
1
10
44.0433002562397
20
-25.3735367045169
30
0
41
1
10
43.9609756011578
20
-25.4208288124848
30
0
41
1
10
43.9146980232147
20
-25.4444044203806
30
0
41
1
10
43.858539399405
20
-25.4677953147909
30
0
41
1
10
43.8421150163872
20
-25.4735397061568
30
0
41
1
10
43.8143851444777
20
-25.4808025320899
30
0
41
1
10
43.8029806765798
20
-25.482364312528
30
0
41
1
10
43.7760634223222
20
-25.4809397310437
30
0
41
1
10
43.7677884454759
20
-25.4718389578117
30
0
41
1
10
43.7716424370182
20
-25.4368172630025
30
0
41
1
10
43.7836535047667
20
-25.41135367755
30
0
41
1
10
43.8164981704695
20
-25.3613249810249
30
0
41
1
10
43.8299337843735
20
-25.3426624963759
30
0
41
1
10
43.8619306638601
20
-25.3012037305158
30
0
41
1
10
43.8805288712827
20
-25.2783770857046
30
0
41
1
10
43.9429228830288
20
-25.2049866451419
30
0
41
1
10
43.9935605357019
20
-25.1491522481813
30
0
41
1
10
44.0831759117118
20
-25.0546034844116
30
0
41
1
10
44.1155337707411
20
-25.0210783392128
30
0
41
1
10
44.1839502349318
20
-24.951276863381
30
0
41
1
10
44.2199480197067
20
-24.9150551527028
30
0
41
1
10
44.3331746285801
20
-24.8024275886555
30
0
41
1
10
44.4156538739891
20
-24.7220325903829
30
0
41
1
10
44.59470515997
20
-24.5501042252974
30
0
41
1
10
44.6883546969651
20
-24.4613698266722
30
0
41
1
10
44.8346908268887
20
-24.3240484700373
30
0
41
1
10
44.8844546717478
20
-24.2775670810485
30
0
41
1
10
44.985998446712
20
-24.1831228790785
30
0
41
1
10
45.0375827083947
20
-24.1353443618685
30
0
41
1
10
45.1918165656827
20
-23.9930342688566
30
0
41
1
10
45.2950404910607
20
-23.8984970083226
30
0
41
1
10
45.4504865111039
20
-23.7572029972227
30
0
41
1
10
45.5026556721987
20
-23.7099677495113
30
0
41
1
10
45.6049436026949
20
-23.6177437135326
30
0
41
1
10
45.655281142505
20
-23.5725543257776
30
0
41
1
10
45.8039651352187
20
-23.4397131262584
30
0
41
1
10
45.90033119538
20
-23.3544707233246
30
0
41
1
10
46.0855095227122
20
-23.1929181417142
30
0
41
1
10
46.1717283423635
20
-23.1188677350649
30
0
41
1
10
46.2922242690236
20
-23.0175531323613
30
0
41
1
10
46.3309059685071
20
-22.9854209462194
30
0
41
1
10
46.4052919940426
20
-22.9245269349902
30
0
41
1
10
46.4410358576157
20
-22.8957408936891
30
0
41
1
10
46.5414334046478
20
-22.8164414128512
30
0
41
1
10
46.6002044065991
20
-22.7721874708107
30
0
41
1
10
46.7022114069032
20
-22.7006072306903
30
0
41
1
10
46.7456112298659
20
-22.6732681596087
30
0
41
1
10
46.8135024669707
20
-22.6379955159005
30
0
41
1
10
46.8385567518119
20
-22.6296164878301
30
0
41
1
10
46.8629864817871
20
-22.6308872613061
30
0
41
1
10
46.8689348303849
20
-22.633665182441
30
0
41
1
10
46.8761707143133
20
-22.6438653440484
30
0
41
1
10
46.8774844231071
20
-22.6512511637723
30
0
41
1
10
46.8747003683645
20
-22.6800667722512
30
0
41
1
10
46.8639428883058
20
-22.7080964850973
30
0
41
1
10
46.8340092816536
20
-22.7636438276688
30
0
41
1
10
46.8216897636753
20
-22.7844447662679
30
0
41
1
10
46.792851847329
20
-22.8297578485589
30
0
41
1
10
46.7597266428663
20
-22.8789583119157
30
0
41
1
10
46.7180244165274
20
-22.9358334820779
30
0
41
1
10
46.6719057844119
20
-22.9966021106393
30
0
41
1
10
46.6465066617586
20
-23.0290956208746
30
0
41
1
10
46.564271223575
20
-23.1314471130067
30
0
41
1
10
46.5019491637136
20
-23.2055508493306
30
0
41
1
10
46.361894116724
20
-23.3653089770617
30
0
41
1
10
46.2832955008212
20
-23.4518490493869
30
0
41
1
10
46.1157241058475
20
-23.630034486493
30
0
41
1
10
46.0263424851737
20
-23.7222050951618
30
0
41
1
10
45.8832654676557
20
-23.8651594987322
30
0
41
1
10
45.8342930707013
20
-23.9133603229513
30
0
41
1
10
45.7355152677167
20
-24.0091422075703
30
0
41
1
10
45.6354143687035
20
-24.1047961890179
30
0
41
1
10
45.532658301747
20
-24.2001733045097
30
0
41
1
10
45.4285376282503
20
-24.2954049843626
30
0
41
1
10
45.3756599539046
20
-24.3430588670708
30
0
41
1
10
45.2188165616435
20
-24.4823457871313
30
0
41
1
10
45.115381866167
20
-24.5714852195327
30
0
41
1
10
44.9619711673155
20
-24.6998266267101
30
0
41
1
10
44.9108325899709
20
-24.7419435859009
30
0
41
1
10
44.8108287916772
20
-24.8230168418436
30
0
41
1
10
44.7620282804737
20
-24.8619307855697
30
0
41
1
10
44.6191225049158
20
-24.9740513775097
30
0
41
1
10
44.5284779215372
20
-25.04267814731
30
0
41
1
10
44.4426118034878
20
-25.1052979889393
30
0
0
SPLINE
5
10B
100
AcDbEntity
8
1
62
256
6
ByLayer
370
13
48
1
60
0
100
AcDbSpline
70
4
71
3
72
12
73
8
40
0
40
0
40
0
40
0
40
0.25
40
0.25
40
0.5
40
0.5
40
1
40
1
40
1
40
1
41
1
10
23.2106968840511
20
-26.081137309769
30
0
41
1
10
23.3410886535275
20
-26.1637332262835
30
0
41
1
10
23.4682216236851
20
-26.2513047594182
30
0
41
1
10
23.71593452855
20
-26.4364531647428
30
0
41
1
10
23.8368704720427
20
-26.5343745013291
30
0
41
1
10
24.1852932531772
20
-26.8395170065621
30
0
41
1
10
24.3995533841262
20
-27.05865582069
30
0
41
1
10
24.5962666587139
20
-27.2930911459506
30
0
0
SPLINE
5
10C
100
AcDbEntity
8
1
62
256
6
ByLayer
370
13
48
1
60
0
100
AcDbSpline
70
4
71
3
72
8
73
4
40
0
40
0
40
0
40
0
40
1
40
1
40
1
40
1
41
1
10
40.5009631420636
20
-26.187296867449
30
0
41
1
10
39.4852862501678
20
-25.7507490716846
30
0
41
1
10
38.4724760730249
20
-25.3601775666589
30
0
41
1
10
37.4634515944654
20
-25.011190553071
30
0
0
SPLINE
5
10D
100
AcDbEntity
8
1
62
256
6
ByLayer
370
13
48
1
60
0
100
AcDbSpline
70
4
71
3
72
18
73
14
40
0
40
0
40
0
40
0
40
0.250000000000001
40
0.250000000000001
40
0.375000000000001
40
0.375000000000001
40
0.500000000000001
40
0.500000000000001
40
0.75
40
0.75
40
0.875
40
0.875
40
1
40
1
40
1
40
1
41
1
10
20.8745749102034
20
-20.1946409317002
30
0
41
1
10
20.8146475566613
20
-19.6430810973553
30
0
41
1
10
20.7569816592261
20
-19.0634486764433
30
0
41
1
10
20.6740853395308
20
-18.1492800810044
30
0
41
1
10
20.6470531269041
20
-17.8371104321388
30
0
41
1
10
20.5942235711666
20
-17.1974420810262
30
0
41
1
10
20.5684768356765
20
-16.8705335840624
30
0
41
1
10
20.4934459346768
20
-15.8705570602002
30
0
41
1
10
20.4462917083018
20
-15.1773761652983
30
0
41
1
10
20.380014471915
20
-14.0963796352132
30
0
41
1
10
20.3586908155754
20
-13.7295461095748
30
0
41
1
10
20.3177157944627
20
-12.9847299456121
30
0
41
1
10
20.2980464793642
20
-12.6064594303086
30
0
41
1
10
20.2792076144253
20
-12.222238675804
30
0
0
SPLINE
5
10E
100
AcDbEntity
8
1
62
256
6
ByLayer
370
13
48
1
60
0
100
AcDbSpline
70
4
71
3
72
18
73
14
40
0
40
0
40
0
40
0
40
0.125
40
0.125
40
0.250000000000001
40
0.250000000000001
40
0.5
40
0.5
40
0.625
40
0.625
40
0.75
40
0.75
40
1
40
1
40
1
40
1
41
1
10
20.2792076144149
20
-24.5433532686417
30
0
41
1
10
20.1998013896635
20
-24.5658424338492
30
0
41
1
10
20.1252328806662
20
-24.5881467994966
30
0
41
1
10
19.987229450739
20
-24.6318504104785
30
0
41
1
10
19.9240141389502
20
-24.6531734502082
30
0
41
1
10
19.7519365366367
20
-24.7152741487982
30
0
41
1
10
19.6605181274153
20
-24.7541873701917
30
0
41
1
10
19.5611538070773
20
-24.8076721230602
30
0
41
1
10
19.5343876800648
20
-24.8247112941876
30
0
41
1
10
19.4949740251303
20
-24.8562829919676
30
0
41
1
10
19.482111714194
20
-24.8709165607576
30
0
41
1
10
19.4637783436053
20
-24.9113375318999
30
0
41
1
10
19.478429753528
20
-24.9336462069254
30
0
41
1
10
19.5207591161524
20
-24.9512460844023
30
0
0
SPLINE
5
10F
100
AcDbEntity
8
1
62
256
6
ByLayer
370
13
48
1
60
0
100
AcDbSpline
70
4
71
3
72
10
73
6
40
0
40
0
40
0
40
0
40
0.5
40
0.5
40
1
40
1
40
1
40
1
41
1
10
48.3194268792854
20
-25.258170197331
30
0
41
1
10
48.3097791760376
20
-25.2670106885747
30
0
41
1
10
48.3019784542807
20
-25.280228264509
30
0
41
1
10
48.2900935556904
20
-25.313956365183
30
0
41
1
10
48.286014280901
20
-25.3346906345742
30
0
41
1
10
48.2840527005636
20
-25.3584017452946
30
0
0
SPLINE
5
110
100
AcDbEntity
8
1
62
256
6
ByLayer
370
13
48
1
60
0
100
AcDbSpline
70
4
71
3
72
8
73
4
40
0
40
0
40
0
40
0
40
1
40
1
40
1
40
1
41
1
10
46.2216433080937
20
-27.2568898615969
30
0
41
1
10
46.2340872092886
20
-27.2397358909579
30
0
41
1
10
46.2479472069001
20
-27.2241486827267
30
0
41
1
10
46.2632409305307
20
-27.2101345669971
30
0
0
SPLINE
5
111
100
AcDbEntity
8
1
62
256
6
ByLayer
370
13
48
1
60
0
100
AcDbSpline
70
4
71
3
72
16
73
12
40
0
40
0
40
0
40
0
40
0.25
40
0.25
40
0.5
40
0.5
40
0.750000000000003
40
0.750000000000003
40
0.875000000000001
40
0.875000000000001
40
1
40
1
40
1
40
1
41
1
10
11.8943375672976
20
-23.6665017920808
30
0
41
1
10
11.8788862370739
20
-23.686033116806
30
0
41
1
10
11.8602443227468
20
-23.7051129235881
30
0
41
1
10
11.8148780607233
20
-23.7416171457991
30
0
41
1
10
11.7882603826482
20
-23.7591079584197
30
0
41
1
10
11.7219265489988
20
-23.7919105160782
30
0
41
1
10
11.6829561422922
20
-23.807014118376
30
0
41
1
10
11.6089650834004
20
-23.8249896713849
30
0
41
1
10
11.5824040005112
20
-23.8299833264009
30
0
41
1
10
11.5239906705311
20
-23.8371392949585
30
0
41
1
10
11.4930777586347
20
-23.8391299750502
30
0
41
1
10
11.4613248654053
20
-23.8391299750502
30
0
0
SPLINE
5
112
100
AcDbEntity
8
1
62
256
6
ByLayer
370
13
48
1
60
0
100
AcDbSpline
70
4
71
3
72
16
73
12
40
0
40
0
40
0
40
0
40
0.125000000000001
40
0.125000000000001
40
0.250000000000002
40
0.250000000000002
40
0.500000000000001
40
0.500000000000001
40
0.75
40
0.75
40
1
40
1
40
1
40
1
41
1
10
8.5386751345948
20
7.52966679426498
30
0
41
1
10
8.50697323176124
20
7.52966679426498
30
0
41
1
10
8.4756398386109
20
7.53610198950864
30
0
41
1
10
8.41770072232742
20
7.55854989603608
30
0
41
1
10
8.39058907041834
20
7.57464889660918
30
0
41
1
10
8.31777781748553
20
7.63015704912718
30
0
41
1
10
8.27812666032537
20
7.67767014498918
30
0
41
1
10
8.2117121049007
20
7.77870179643054
30
0
41
1
10
8.1848578107932
20
7.83248598676832
30
0
41
1
10
8.13959628273548
20
7.94218253951283
30
0
41
1
10
8.12110769698506
20
7.99849169434938
30
0
41
1
10
8.10566243270264
20
8.05584836782802
30
0
0
SPLINE
5
113
100
AcDbEntity
8
1
62
256
6
ByLayer
370
13
48
1
60
0
100
AcDbSpline
70
4
71
3
72
16
73
12
40
0
40
0
40
0
40
0
40
0.250000000000001
40
0.250000000000001
40
0.500000000000001
40
0.500000000000001
40
0.750000000000002
40
0.750000000000002
40
0.875000000000001
40
0.875000000000001
40
1
40
1
40
1
40
1
41
1
10
8.1056624327025
20
-8.05584836782799
30
0
41
1
10
8.12111376292623
20
-7.99846916820732
30
0
41
1
10
8.13975567725331
20
-7.94172327888214
30
0
41
1
10
8.1851219392768
20
-7.83191947486074
30
0
41
1
10
8.21173961735192
20
-7.77866338250482
30
0
41
1
10
8.27807345100135
20
-7.67774765104258
30
0
41
1
10
8.31704385770792
20
-7.63070347545366
30
0
41
1
10
8.39103491659972
20
-7.57431556968137
30
0
41
1
10
8.41759599948895
20
-7.55857361750131
30
0
41
1
10
8.47600932946901
20
-7.53597576299671
30
0
41
1
10
8.50692224136546
20
-7.5296667942653
30
0
41
1
10
8.53867513459488
20
-7.5296667942653
30
0
0
SPLINE
5
114
100
AcDbEntity
8
1
62
256
6
ByLayer
370
13
48
1
60
0
100
AcDbSpline
70
4
71
3
72
12
73
8
40
0
40
0
40
0
40
0
40
0.25
40
0.25
40
0.5
40
0.5
40
1
40
1
40
1
40
1
41
1
10
20.9883692336897
20
-24.2430625546138
30
0
41
1
10
21.2264925648154
20
-24.1784655257588
30
0
41
1
10
21.4540304408604
20
-24.1169990792495
30
0
41
1
10
21.8961503370918
20
-23.9987170237299
30
0
41
1
10
22.1104726905066
20
-23.9419401046718
30
0
41
1
10
22.7359662884814
20
-23.7775482796519
30
0
41
1
10
23.1298837789098
20
-23.6758886141991
30
0
41
1
10
23.4976354400381
20
-23.5800110854798
30
0
0
SPLINE
5
115
100
AcDbEntity
8
1
62
256
6
ByLayer
370
13
48
1
60
0
100
AcDbSpline
70
4
71
3
72
22
73
18
40
0
40
0
40
0
40
0
40
0.125
40
0.125
40
0.25
40
0.25
40
0.375
40
0.375
40
0.5
40
0.5
40
0.625
40
0.625
40
0.75
40
0.75
40
0.875
40
0.875
40
1
40
1
40
1
40
1
41
1
10
40.5009631420636
20
-26.187296867449
30
0
41
1
10
40.5810130168546
20
-26.2217030813444
30
0
41
1
10
40.6639318529888
20
-26.2515180415834
30
0
41
1
10
40.8334776581491
20
-26.3007919552362
30
0
41
1
10
40.9203888511714
20
-26.3203855769891
30
0
41
1
10
41.0987204846295
20
-26.3487736039234
30
0
41
1
10
41.190731733228
20
-26.3575737029233
30
0
41
1
10
41.3764360666573
20
-26.3630091803159
30
0
41
1
10
41.4699549155349
20
-26.3597295647925
30
0
41
1
10
41.658342037337
20
-26.3404782002613
30
0
41
1
10
41.753691509865
20
-26.3243944502755
30
0
41
1
10
41.9436572707494
20
-26.2786022848189
30
0
41
1
10
42.0371556791615
20
-26.2492300885549
30
0
41
1
10
42.2210545504066
20
-26.1771243406975
30
0
41
1
10
42.311763183007
20
-26.1342243171962
30
0
41
1
10
42.4884691893993
20
-26.0345546709592
30
0
41
1
10
42.5726780239396
20
-25.9788455033948
30
0
41
1
10
42.6527951258572
20
-25.9173395976385
30
0
0
SPLINE
5
116
100
AcDbEntity
8
1
62
256
6
ByLayer
370
13
48
1
60
0
100
AcDbSpline
70
4
71
3
72
8
73
4
40
0
40
0
40
0
40
0
40
1
40
1
40
1
40
1
41
1
10
46.365608494276
20
-16.8538666697803
30
0
41
1
10
46.7828012843341
20
-17.6516398148298
30
0
41
1
10
47.1993318856065
20
-18.4749673911672
30
0
41
1
10
47.6139740642992
20
-19.3240515971442
30
0
0
SPLINE
5
117
100
AcDbEntity
8
1
62
256
6
ByLayer
370
13
48
1
60
0
100
AcDbSpline
70
4
71
3
72
10
73
6
40
0
40
0
40
0
40
0
40
0.5
40
0.5
40
1
40
1
40
1
40
1
41
1
10
54.7299952766716
20
-17.7644398021604
30
0
41
1
10
54.7270279308414
20
-17.7686776111931
30
0
41
1
10
54.726989172783
20
-17.776477526389
30
0
41
1
10
54.7324005301821
20
-17.798144075951
30
0
41
1
10
54.7377972522224
20
-17.8120003222037
30
0
41
1
10
54.7459074059203
20
-17.8288872662719
30
0
0
SPLINE
5
118
100
AcDbEntity
8
1
62
256
6
ByLayer
370
13
48
1
60
0
100
AcDbSpline
70
4
71
3
72
16
73
12
40
0
40
0
40
0
40
0
40
0.125000000000002
40
0.125000000000002
40
0.250000000000004
40
0.250000000000004
40
0.500000000000003
40
0.500000000000003
40
0.750000000000001
40
0.750000000000001
40
1
40
1
40
1
40
1
41
1
10
11.4613248654054
20
23.8391299750504
30
0
41
1
10
11.4930267682389
20
23.8391299750504
30
0
41
1
10
11.5243601613893
20
23.8370993498304
30
0
41
1
10
11.5822992776727
20
23.8299908115612
30
0
41
1
10
11.6094109295818
20
23.8248834464052
30
0
41
1
10
11.6822221825146
20
23.8071882416307
30
0
41
1
10
11.7218733396748
20
23.7919356634171
30
0
41
1
10
11.7882878950994
20
23.75909551792
30
0
41
1
10
11.8151421892069
20
23.7414301198898
30
0
41
1
10
11.8604037172647
20
23.704958919593
30
0
41
1
10
11.8788923030151
20
23.6860254491251
30
0
41
1
10
11.8943375672975
20
23.6665017920808
30
0
0
SPLINE
5
119
100
AcDbEntity
8
1
62
256
6
ByLayer
370
13
48
1
60
0
100
AcDbSpline
70
4
71
3
72
12
73
8
40
0
40
0
40
0
40
0
40
0.500000000000006
40
0.500000000000006
40
0.750000000000003
40
0.750000000000003
40
1
40
1
40
1
40
1
41
1
10
20.9883692336923
20
-25.2263246670531
30
0
41
1
10
20.8875837003725
20
-25.1507130889932
30
0
41
1
10
20.7801546730302
20
-25.0928330254875
30
0
41
1
10
20.6041116060964
20
-25.0294083962467
30
0
41
1
10
20.5436279734454
20
-25.0125648139608
30
0
41
1
10
20.4172572297727
20
-24.9883109447537
30
0
41
1
10
20.3514417977929
20
-24.9807133427295
30
0
41
1
10
20.2792076144253
20
-24.9796966451101
30
0
0
SPLINE
5
11A
100
AcDbEntity
8
1
62
256
6
ByLayer
370
13
48
1
60
0
100
AcDbSpline
70
4
71
3
72
16
73
12
40
0
40
0
40
0
40
0
40
0.0624999999999993
40
0.0624999999999993
40
0.124999999999999
40
0.124999999999999
40
0.249999999999999
40
0.249999999999999
40
0.5
40
0.5
40
1
40
1
40
1
40
1
41
1
10
20.2792076144149
20
-24.5433532686417
30
0
41
1
10
20.3079212404334
20
-24.5352210915833
30
0
41
1
10
20.332228729525
20
-24.5276671061047
30
0
41
1
10
20.3773334170243
20
-24.5130253794276
30
0
41
1
10
20.3979456599022
20
-24.5059616976779
30
0
41
1
10
20.4565034837664
20
-24.4852110038841
30
0
41
1
10
20.4912241186217
20
-24.4719573255231
30
0
41
1
10
20.5893962403586
20
-24.4330262304076
30
0
41
1
10
20.6467935020404
20
-24.4081872983975
30
0
41
1
10
20.8088008006028
20
-24.3351599843814
30
0
41
1
10
20.9027070102416
20
-24.2885318870002
30
0
41
1
10
20.9883692336704
20
-24.243062554616
30
0
0
SPLINE
5
11B
100
AcDbEntity
8
1
62
256
6
ByLayer
370
13
48
1
60
0
100
AcDbSpline
70
4
71
3
72
12
73
8
40
0
40
0
40
0
40
0
40
0.25
40
0.25
40
0.5
40
0.5
40
1
40
1
40
1
40
1
41
1
10
24.8593537025704
20
-23.5262429692954
30
0
41
1
10
24.742774645256
20
-23.5306963177669
30
0
41
1
10
24.6265608677149
20
-23.5351888464751
30
0
41
1
10
24.3948580889436
20
-23.5442404260434
30
0
41
1
10
24.2789732175682
20
-23.5488153347946
30
0
41
1
10
23.9362325186421
20
-23.5624381885958
30
0
41
1
10
23.7139245449695
20
-23.571405596047
30
0
41
1
10
23.4976354400381
20
-23.5800110854798
30
0
0
SPLINE
5
11C
100
AcDbEntity
8
1
62
256
6
ByLayer
370
13
48
1
60
0
100
AcDbSpline
70
4
71
3
72
20
73
16
40
0
40
0
40
0
40
0
40
0.125000000000002
40
0.125000000000002
40
0.187500000000004
40
0.187500000000004
40
0.250000000000005
40
0.250000000000005
40
0.500000000000004
40
0.500000000000004
40
0.625000000000003
40
0.625000000000003
40
0.750000000000002
40
0.750000000000002
40
1
40
1
40
1
40
1
41
1
10
23.4976354400381
20
-23.5800110854798
30
0
41
1
10
23.3597046481362
20
-23.4451949481232
30
0
41
1
10
23.2206762304582
20
-23.3143001477565
30
0
41
1
10
23.0125940809335
20
-23.1222112117087
30
0
41
1
10
22.9431438638853
20
-23.0587357740376
30
0
41
1
10
22.8061348266719
20
-22.9341163427443
30
0
41
1
10
22.7384673848107
20
-22.8728689182891
30
0
41
1
10
22.4051339511155
20
-22.5709728667577
30
0
41
1
10
22.1545668977403
20
-22.3433403993625
30
0
41
1
10
21.8172588229073
20
-22.0042245425754
30
0
41
1
10
21.7107262931205
20
-21.8909408213173
30
0
41
1
10
21.5164419338849
20
-21.6665493639221
30
0
41
1
10
21.4283406847904
20
-21.5551772212302
30
0
41
1
10
21.1917412943928
20
-21.2195625647179
30
0
41
1
10
21.0708739179122
20
-20.9936051674879
30
0
41
1
10
20.9883692336888
20
-20.7578446426386
30
0
0
SPLINE
5
11D
100
AcDbEntity
8
1
62
256
6
ByLayer
370
13
48
1
60
0
100
AcDbSpline
70
4
71
3
72
8
73
4
40
0
40
0
40
0
40
0
40
1
40
1
40
1
40
1
41
1
10
24.5962666587139
20
-27.2930911459506
30
0
41
1
10
26.0006411685934
20
-28.9667707473977
30
0
41
1
10
27.4050166715472
20
-30.6404495155753
30
0
41
1
10
28.8093927669071
20
-32.3141277866596
30
0
0
SPLINE
5
11E
100
AcDbEntity
8
1
62
256
6
ByLayer
370
13
48
1
60
0
100
AcDbSpline
70
4
71
3
72
10
73
6
40
0
40
0
40
0
40
0
40
0.5
40
0.5
40
1
40
1
40
1
40
1
41
1
10
46.3624607002232
20
-27.1192163989491
30
0
41
1
10
46.3386688544463
20
-27.1191039554149
30
0
41
1
10
46.3176579529859
20
-27.121360596683
30
0
41
1
10
46.2830223607537
20
-27.1302606719803
30
0
41
1
10
46.2691752039875
20
-27.1368797219879
30
0
41
1
10
46.2595275007398
20
-27.1457202132316
30
0
0
SPLINE
5
11F
100
AcDbEntity
8
1
62
256
6
ByLayer
370
13
48
1
60
0
100
AcDbSpline
70
4
71
3
72
30
73
26
40
0
40
0
40
0
40
0
40
0.0078125
40
0.0078125
40
0.015625
40
0.015625
40
0.0312500000000001
40
0.0312500000000001
40
0.0625000000000006
40
0.0625000000000006
40
0.0937500000000011
40
0.0937500000000011
40
0.125000000000002
40
0.125000000000002
40
0.187500000000001
40
0.187500000000001
40
0.250000000000001
40
0.250000000000001
40
0.375000000000001
40
0.375000000000001
40
0.500000000000001
40
0.500000000000001
40
0.75
40
0.75
40
1
40
1
40
1
40
1
41
1
10
32.831505338998
20
8.90484441654314
30
0
41
1
10
32.8429052388933
20
8.89301861587944
30
0
41
1
10
32.8584083388633
20
8.87593989254563
30
0
41
1
10
32.8915984500624
20
8.83879282621098
30
0
41
1
10
32.9096976190648
20
8.81824368145695
30
0
41
1
10
32.9646854454728
20
8.75540478035509
30
0
41
1
10
33.002988032151
20
8.71111958394118
30
0
41
1
10
33.1198458824588
20
8.57542545863504
30
0
41
1
10
33.200628053773
20
8.48082228528355
30
0
41
1
10
33.3631749909778
20
8.28991419778666
30
0
41
1
10
33.4451028998748
20
8.19338088921236
30
0
41
1
10
33.6096696377375
20
7.9991418780503
30
0
41
1
10
33.6922288257838
20
7.90152398942524
30
0
41
1
10
33.9403873777545
20
7.60776612409282
30
0
41
1
10
34.1065342361381
20
7.4106496059274
30
0
41
1
10
34.439274316859
20
7.0154120511705
30
0
41
1
10
34.6059062365493
20
6.81723617081278
30
0
41
1
10
35.1063487633621
20
6.22157793502291
30
0
41
1
10
35.4406131394695
20
5.82308432280229
30
0
41
1
10
36.10962141039
20
5.02485512981576
30
0
41
1
10
36.4445034729365
20
4.62494209112376
30
0
41
1
10
37.4495858509045
20
3.42405282761686
30
0
41
1
10
38.1202636022805
20
2.62189327315014
30
0
41
1
10
39.4632330832655
20
1.01510665632532
30
0
41
1
10
40.1349298030195
20
0.211189157002565
30
0
41
1
10
40.807034787801
20
-0.593294737148312
30
0
0
SPLINE
5
120
100
AcDbEntity
8
1
62
256
6
ByLayer
370
13
48
1
60
0
100
AcDbSpline
70
4
71
3
72
10
73
6
40
0
40
0
40
0
40
0
40
0.5
40
0.5
40
1
40
1
40
1
40
1
41
1
10
54.7408425825152
20
-17.8361205837222
30
0
41
1
10
54.7360684769575
20
-17.8429387130583
30
0
41
1
10
54.7380951249674
20
-17.8579543609168
30
0
41
1
10
54.7543102442642
20
-17.9009880961138
30
0
41
1
10
54.7687984421734
20
-17.9296752643401
30
0
41
1
10
54.7882642005835
20
-17.9628612154593
30
0
0
SPLINE
5
121
100
AcDbEntity
8
SK1
62
256
6
ByLayer
370
13
48
1
60
0
100
AcDbSpline
70
4
71
3
72
34
73
30
40
0
40
0
40
0
40
0
40
0.0625000000000012
40
0.0625000000000012
40
0.125000000000002
40
0.125000000000002
40
0.156250000000003
40
0.156250000000003
40
0.187500000000003
40
0.187500000000003
40
0.218750000000003
40
0.218750000000003
40
0.250000000000003
40
0.250000000000003
40
0.281250000000004
40
0.281250000000004
40
0.312500000000004
40
0.312500000000004
40
0.375000000000004
40
0.375000000000004
40
0.437500000000003
40
0.437500000000003
40
0.500000000000003
40
0.500000000000003
40
0.625000000000003
40
0.625000000000003
40
0.750000000000002
40
0.750000000000002
40
1
40
1
40
1
40
1
41
1
10
-0.194976888875288
20
5.10125086895559
30
0
41
1
10
-0.216563104839508
20
5.14436908332726
30
0
41
1
10
-0.239876465412465
20
5.18652378521389
30
0
41
1
10
-0.292013626272791
20
5.26792158235068
30
0
41
1
10
-0.320990702940776
20
5.30753561172011
30
0
41
1
10
-0.371183836287372
20
5.36154618724734
30
0
41
1
10
-0.389032265538759
20
5.37862958681873
30
0
41
1
10
-0.428179185034452
20
5.4099910632236
30
0
41
1
10
-0.449618380543768
20
5.42431377396909
30
0
41
1
10
-0.495865519359256
20
5.44696237803706
30
0
41
1
10
-0.521367960365069
20
5.4554708081634
30
0
41
1
10
-0.574009113603324
20
5.46273288050187
30
0
41
1
10
-0.601430926503127
20
5.46139579386309
30
0
41
1
10
-0.653473515396456
20
5.44938705292518
30
0
41
1
10
-0.678029058965421
20
5.43899493154706
30
0
41
1
10
-0.723288902803802
20
5.41312231488862
30
0
41
1
10
-0.743967752761876
20
5.39773949255181
30
0
41
1
10
-0.801173829768601
20
5.34799023305283
30
0
41
1
10
-0.833684183778274
20
5.3095864008383
30
0
41
1
10
-0.891735345197702
20
5.22983347150023
30
0
41
1
10
-0.917563850545008
20
5.18780113018784
30
0
41
1
10
-0.964510307389105
20
5.10284807391153
30
0
41
1
10
-0.985719330348644
20
5.05973229274716
30
0
41
1
10
-1.04491752447228
20
4.9290225043666
30
0
41
1
10
-1.07856037778879
20
4.84008619679173
30
0
41
1
10
-1.13933058662863
20
4.65979587009875
30
0
41
1
10
-1.16633518942871
20
4.56841194087292
30
0
41
1
10
-1.24041994682241
20
4.2912308194276
30
0
41
1
10
-1.28068167434884
20
4.10243137050429
30
0
41
1
10
-1.31543506509496
20
3.91026939581312
30
0
0
SPLINE
5
122
100
AcDbEntity
8
SK1
62
256
6
ByLayer
370
13
48
1
60
0
100
AcDbSpline
70
4
71
3
72
32
73
28
40
0
40
0
40
0
40
0
40
0.250000000000001
40
0.250000000000001
40
0.375000000000002
40
0.375000000000002
40
0.500000000000002
40
0.500000000000002
40
0.625000000000003
40
0.625000000000003
40
0.687500000000004
40
0.687500000000004
40
0.718750000000004
40
0.718750000000004
40
0.750000000000004
40
0.750000000000004
40
0.781250000000004
40
0.781250000000004
40
0.812500000000004
40
0.812500000000004
40
0.843750000000004
40
0.843750000000004
40
0.875000000000003
40
0.875000000000003
40
0.937500000000002
40
0.937500000000002
40
1
40
1
40
1
40
1
41
1
10
-1.3154350650953
20
-3.9102717266544
30
0
41
1
10
-1.28057279922606
20
-4.10303597600293
30
0
41
1
10
-1.24012857901269
20
-4.29271555372668
30
0
41
1
10
-1.16537958408065
20
-4.57178986572762
30
0
41
1
10
-1.13808783877656
20
-4.66390143596871
30
0
41
1
10
-1.07645434927807
20
-4.8458981155494
30
0
41
1
10
-1.04214225535935
20
-4.93593902808891
30
0
41
1
10
-0.962464700665095
20
-5.11023045105989
30
0
41
1
10
-0.917775144179274
20
-5.19501418522131
30
0
41
1
10
-0.830408896230011
20
-5.313571881754
30
0
41
1
10
-0.797934201555904
20
-5.35142877323202
30
0
41
1
10
-0.740368480272224
20
-5.40051809921425
30
0
41
1
10
-0.71936155470425
20
-5.4157502088056
30
0
41
1
10
-0.674120182693684
20
-5.44077848246101
30
0
41
1
10
-0.649220595717566
20
-5.4508327921487
30
0
41
1
10
-0.597299834838367
20
-5.46180745076146
30
0
41
1
10
-0.56981158113021
20
-5.46259066748192
30
0
41
1
10
-0.517782809634298
20
-5.45447309167375
30
0
41
1
10
-0.492509215309809
20
-5.44564758559568
30
0
41
1
10
-0.446559607626909
20
-5.42244198036281
30
0
41
1
10
-0.425331014623822
20
-5.4079341113783
30
0
41
1
10
-0.386890792994905
20
-5.376662585822
30
0
41
1
10
-0.369356495412518
20
-5.3597075192298
30
0
41
1
10
-0.320035559340766
20
-5.30624073125674
30
0
41
1
10
-0.291353206896446
20
-5.26696540111769
30
0
41
1
10
-0.239562956691515
20
-5.18596288302246
30
0
41
1
10
-0.216411510706422
20
-5.14406880492331
30
0
41
1
10
-0.194976888875288
20
-5.10125345321302
30
0
0
SPLINE
5
123
100
AcDbEntity
8
SK1
62
256
6
ByLayer
370
13
48
1
60
0
100
AcDbSpline
70
4
71
3
72
24
73
20
40
0
40
0
40
0
40
0
40
0.249999999999997
40
0.249999999999997
40
0.499999999999994
40
0.499999999999994
40
0.624999999999992
40
0.624999999999992
40
0.687499999999993
40
0.687499999999993
40
0.749999999999994
40
0.749999999999994
40
0.781249999999994
40
0.781249999999994
40
0.812499999999995
40
0.812499999999995
40
0.874999999999996
40
0.874999999999996
40
1
40
1
40
1
40
1
41
1
10
0
20
5.57923036606758
30
0
41
1
10
0
20
5.51779833593815
30
0
41
1
10
-0.0010407946611792
20
5.4561428430427
30
0
41
1
10
-0.0066100287585016
20
5.33222467485115
30
0
41
1
10
-0.0109086182200713
20
5.26998240259837
30
0
41
1
10
-0.0236290455403037
20
5.1758032881194
30
0
41
1
10
-0.0289274789974456
20
5.14400542585562
30
0
41
1
10
-0.0406106017669572
20
5.09708097823383
30
0
41
1
10
-0.0451125402901766
20
5.08157844540844
30
0
41
1
10
-0.0567618109963064
20
5.05119051958263
30
0
41
1
10
-0.0637941514040392
20
5.0359758456878
30
0
41
1
10
-0.0793983841521992
20
5.01728646661778
30
0
41
1
10
-0.0855293065042986
20
5.01193328599709
30
0
41
1
10
-0.0991967475965509
20
5.00573299924022
30
0
41
1
10
-0.10669251631586
20
5.00512851447206
30
0
41
1
10
-0.127007712652244
20
5.00942384168746
30
0
41
1
10
-0.138200686556445
20
5.01872263284184
30
0
41
1
10
-0.167487576580783
20
5.04962218612667
30
0
41
1
10
-0.18180259581078
20
5.07493537237929
30
0
41
1
10
-0.194976888870229
20
5.10125086895565
30
0
0
SPLINE
5
124
100
AcDbEntity
8
SK1
62
256
6
ByLayer
370
13
48
1
60
0
100
AcDbSpline
70
4
71
3
72
22
73
18
40
0
40
0
40
0
40
0
40
0.125
40
0.125
40
0.25
40
0.25
40
0.5
40
0.5
40
0.5625
40
0.5625
40
0.625
40
0.625
40
0.75
40
0.75
40
0.875
40
0.875
40
1
40
1
40
1
40
1
41
1
10
-1.31543506509496
20
3.91026939581312
30
0
41
1
10
-1.37156891012913
20
3.59988844370488
30
0
41
1
10
-1.42485023497019
20
3.28523180779956
30
0
41
1
10
-1.52254592972014
20
2.64577663756873
30
0
41
1
10
-1.56698033508394
20
2.31970691194101
30
0
41
1
10
-1.67816871178564
20
1.33819893460003
30
0
41
1
10
-1.72297865089004
20
0.676397987705457
30
0
41
1
10
-1.72324535258096
20
-0.162964032578543
30
0
41
1
10
-1.72056385768457
20
-0.331436710844429
30
0
41
1
10
-1.7098742282711
20
-0.669573168778555
30
0
41
1
10
-1.70179947711227
20
-0.839901074147889
30
0
41
1
10
-1.67034734323971
20
-1.34548891205583
30
0
41
1
10
-1.63998375816561
20
-1.67664697885553
30
0
41
1
10
-1.56572248544325
20
-2.32939130826392
30
0
41
1
10
-1.52178762804093
20
-2.65096151379691
30
0
41
1
10
-1.42466622483195
20
-3.28621377555194
30
0
41
1
10
-1.37156266283256
20
-3.59992488097876
30
0
41
1
10
-1.31543506509496
20
-3.91027172665429
30
0
0
SPLINE
5
125
100
AcDbEntity
8
SK1
62
256
6
ByLayer
370
13
48
1
60
0
100
AcDbSpline
70
4
71
3
72
24
73
20
40
0
40
0
40
0
40
0
40
0.125000000000015
40
0.125000000000015
40
0.187500000000019
40
0.187500000000019
40
0.218750000000017
40
0.218750000000017
40
0.250000000000015
40
0.250000000000015
40
0.312500000000015
40
0.312500000000015
40
0.375000000000014
40
0.375000000000014
40
0.500000000000011
40
0.500000000000011
40
0.750000000000006
40
0.750000000000006
40
1
40
1
40
1
40
1
41
1
10
-0.194976888875288
20
-5.10125345321094
30
0
41
1
10
-0.181865427407701
20
-5.07506349573964
30
0
41
1
10
-0.167305467318897
20
-5.04951740146478
30
0
41
1
10
-0.138595346987984
20
-5.01910002951084
30
0
41
1
10
-0.127552525149696
20
-5.00976548032864
30
0
41
1
10
-0.107289868157807
20
-5.00515271046447
30
0
41
1
10
-0.100017181826672
20
-5.0055673333344
30
0
41
1
10
-0.0862894749968177
20
-5.01140955660901
30
0
41
1
10
-0.0800854915175933
20
-5.01665185918861
30
0
41
1
10
-0.064561999564944
20
-5.03472361857911
30
0
41
1
10
-0.0573834989396005
20
-5.04983097867373
30
0
41
1
10
-0.0455625036967149
20
-5.08017041530633
30
0
41
1
10
-0.0410080780262376
20
-5.09566827191264
30
0
41
1
10
-0.0291934375087237
20
-5.14260105512545
30
0
41
1
10
-0.0238612985442899
20
-5.17432930306168
30
0
41
1
10
-0.0109763675535817
20
-5.26901205584701
30
0
41
1
10
-0.0066530226186785
20
-5.33149708294096
30
0
41
1
10
-0.0010447609299433
20
-5.45583201094908
30
0
41
1
10
0
20
-5.51765621422388
30
0
41
1
10
0
20
-5.57923236301667
30
0
0
SPLINE
5
126
100
AcDbEntity
8
1
62
256
6
ByLayer
370
13
48
1
60
0
100
AcDbSpline
70
4
71
3
72
16
73
12
40
0
40
0
40
0
40
0
40
0.125000000000002
40
0.125000000000002
40
0.250000000000003
40
0.250000000000003
40
0.500000000000002
40
0.500000000000002
40
0.750000000000001
40
0.750000000000001
40
1
40
1
40
1
40
1
41
1
10
49.6316721038574
20
-30.3235810177
30
0
41
1
10
49.6123597202102
20
-30.3251206908489
30
0
41
1
10
49.5929864586265
20
-30.3213382226337
30
0
41
1
10
49.5587890736118
20
-30.3023696228955
30
0
41
1
10
49.5441516807278
20
-30.2873576828174
30
0
41
1
10
49.5100556838049
20
-30.2342010307028
30
0
41
1
10
49.4998201717928
20
-30.1908613352782
30
0
41
1
10
49.4911598853564
20
-30.1033621578235
30
0
41
1
10
49.4930665674481
20
-30.058919434988
30
0
41
1
10
49.5047941050276
20
-29.9711220460957
30
0
41
1
10
49.5147106650108
20
-29.9277842508347
30
0
41
1
10
49.5280184730352
20
-29.8855772760738
30
0
0
SPLINE
5
127
100
AcDbEntity
8
1
62
256
6
ByLayer
370
13
48
1
60
0
100
AcDbSpline
70
4
71
3
72
8
73
4
40
0
40
0
40
0
40
0
40
1
40
1
40
1
40
1
41
1
10
51.1912931964332
20
-28.8944515909176
30
0
41
1
10
51.1928787142434
20
-28.9009277367016
30
0
41
1
10
51.1944644345826
20
-28.9074047097282
30
0
41
1
10
51.1960503653464
20
-28.9138825422466
30
0
0
SPLINE
5
128
100
AcDbEntity
8
1
62
256
6
ByLayer
370
13
48
1
60
0
100
AcDbSpline
70
4
71
3
72
8
73
4
40
0
40
0
40
0
40
0
40
1
40
1
40
1
40
1
41
1
10
51.9166101336276
20
-29.1410741645006
30
0
41
1
10
51.921624784146
20
-29.1366774872664
30
0
41
1
10
51.9266387693106
20
-29.1322813933921
30
0
41
1
10
51.9316521140861
20
-29.1278858609893
30
0
0
SPLINE
5
129
100
AcDbEntity
8
1
62
256
6
ByLayer
370
13
48
1
60
0
100
AcDbSpline
70
4
71
3
72
16
73
12
40
0
40
0
40
0
40
0
40
0.249999999999994
40
0.249999999999994
40
0.499999999999989
40
0.499999999999989
40
0.749999999999983
40
0.749999999999983
40
0.874999999999991
40
0.874999999999991
40
1
40
1
40
1
40
1
41
1
10
51.4896689380754
20
-32.0263431046987
30
0
41
1
10
51.4464926028688
20
-32.0359150677664
30
0
41
1
10
51.4023554316855
20
-32.042027833874
30
0
41
1
10
51.3139702342456
20
-32.0460516111126
30
0
41
1
10
51.2694998247117
20
-32.0440705326919
30
0
41
1
10
51.1832763320291
20
-32.0278716702126
30
0
41
1
10
51.1410389652066
20
-32.0138655523858
30
0
41
1
10
51.0913280682899
20
-31.975725463477
30
0
41
1
10
51.077371516223
20
-31.9597267538118
30
0
41
1
10
51.0612449133801
20
-31.9238244588603
30
0
41
1
10
51.059136939576
20
-31.90408535148
30
0
41
1
10
51.0623659421059
20
-31.8849093658079
30
0
0
SPLINE
5
12A
100
AcDbEntity
8
1
62
256
6
ByLayer
370
13
48
1
60
0
100
AcDbSpline
70
4
71
3
72
18
73
14
40
0
40
0
40
0
40
0
40
0.125000000000001
40
0.125000000000001
40
0.250000000000001
40
0.250000000000001
40
0.499999999999997
40
0.499999999999997
40
0.749999999999994
40
0.749999999999994
40
0.874999999999997
40
0.874999999999997
40
1
40
1
40
1
40
1
41
1
10
49.8833614637787
20
-29.591834542432
30
0
41
1
10
49.914050213814
20
-29.6007755440515
30
0
41
1
10
49.9473289657464
20
-29.5992183974455
30
0
41
1
10
50.0133943689773
20
-29.5861082407729
30
0
41
1
10
50.0462251119397
20
-29.5743080164154
30
0
41
1
10
50.1417455931254
20
-29.5295339919237
30
0
41
1
10
50.2014710725475
20
-29.4875185946965
30
0
41
1
10
50.308651456012
20
-29.389323897977
30
0
41
1
10
50.3558647977639
20
-29.3332792143154
30
0
41
1
10
50.4086905620714
20
-29.2422141297006
30
0
41
1
10
50.4232978517973
20
-29.2106137517075
30
0
41
1
10
50.4421802859791
20
-29.1457963311275
30
0
41
1
10
50.446624293733
20
-29.1127431851899
30
0
41
1
10
50.4403950643183
20
-29.0814072892824
30
0
0
SPLINE
5
12B
100
AcDbEntity
8
1
62
256
6
ByLayer
370
13
48
1
60
0
100
AcDbSpline
70
4
71
3
72
18
73
14
40
0
40
0
40
0
40
0
40
0.124999999999996
40
0.124999999999996
40
0.249999999999991
40
0.249999999999991
40
0.499999999999988
40
0.499999999999988
40
0.749999999999984
40
0.749999999999984
40
0.874999999999992
40
0.874999999999992
40
1
40
1
40
1
40
1
41
1
10
52.3702976747604
20
-31.1875264142936
30
0
41
1
10
52.339608924725
20
-31.1785854126741
30
0
41
1
10
52.3063301727927
20
-31.1801425592801
30
0
41
1
10
52.2402647695617
20
-31.1932527159526
30
0
41
1
10
52.2074340265993
20
-31.2050529403102
30
0
41
1
10
52.1119135454136
20
-31.2498269648019
30
0
41
1
10
52.0521880659916
20
-31.2918423620291
30
0
41
1
10
51.9450076825271
20
-31.3900370587486
30
0
41
1
10
51.8977943407751
20
-31.4460817424102
30
0
41
1
10
51.8449685764677
20
-31.5371468270251
30
0
41
1
10
51.8303612867418
20
-31.5687472050181
30
0
41
1
10
51.81147885256
20
-31.6335646255981
30
0
41
1
10
51.8070348448061
20
-31.6666177715357
30
0
41
1
10
51.8132640742208
20
-31.6979536674432
30
0
0
SPLINE
5
12C
100
AcDbEntity
8
1
62
256
6
ByLayer
370
13
48
1
60
0
100
AcDbSpline
70
4
71
3
72
16
73
12
40
0
40
0
40
0
40
0
40
0.125000000000009
40
0.125000000000009
40
0.250000000000017
40
0.250000000000017
40
0.500000000000012
40
0.500000000000012
40
0.750000000000006
40
0.750000000000006
40
1
40
1
40
1
40
1
41
1
10
49.7996915546879
20
-31.0814677833416
30
0
41
1
10
49.7815378970124
20
-31.0882341315842
30
0
41
1
10
49.7655782993209
20
-31.0998497061167
30
0
41
1
10
49.7426014196348
20
-31.1314935351795
30
0
41
1
10
49.7356797565033
20
-31.1512850029079
30
0
41
1
10
49.7272432609019
20
-31.213870881604
30
0
41
1
10
49.7362828834058
20
-31.2574756993498
30
0
41
1
10
49.7654127486501
20
-31.3404368804361
30
0
41
1
10
49.785923095749
20
-31.3799098675479
30
0
41
1
10
49.8336566342591
20
-31.454525053236
30
0
41
1
10
49.8609594334934
20
-31.4896115152115
30
0
41
1
10
49.8908578418411
20
-31.5222399024097
30
0
0
SPLINE
5
12D
100
AcDbEntity
8
1
62
256
6
ByLayer
370
13
48
1
60
0
100
AcDbSpline
70
4
71
3
72
8
73
4
40
0
40
0
40
0
40
0
40
1
40
1
40
1
40
1
41
1
10
49.8141406677018
20
-31.0676324785482
30
0
41
1
10
49.8093236655613
20
-31.0722448511374
30
0
41
1
10
49.8045073025503
20
-31.0768566117478
30
0
41
1
10
49.7996915546879
20
-31.0814677833416
30
0
0
SPLINE
5
12E
100
AcDbEntity
8
1
62
256
6
ByLayer
370
13
48
1
60
0
100
AcDbSpline
70
4
71
3
72
8
73
4
40
0
40
0
40
0
40
0
40
1
40
1
40
1
40
1
41
1
10
50.4403950643183
20
-29.0814072892824
30
0
41
1
10
50.4390947554004
20
-29.0748661359252
30
0
41
1
10
50.4377946190101
20
-29.0683258504614
30
0
41
1
10
50.4364946486739
20
-29.0617864003265
30
0
0
SPLINE
5
12F
100
AcDbEntity
8
1
62
256
6
ByLayer
370
13
48
1
60
0
100
AcDbSpline
70
4
71
3
72
16
73
12
40
0
40
0
40
0
40
0
40
0.250000000000005
40
0.250000000000005
40
0.500000000000009
40
0.500000000000009
40
0.750000000000014
40
0.750000000000014
40
0.875000000000007
40
0.875000000000007
40
1
40
1
40
1
40
1
41
1
10
52.362801296698
20
-29.2571210543159
30
0
41
1
10
52.3926790274821
20
-29.2897268759132
30
0
41
1
10
52.4200414238103
20
-29.3248944043554
30
0
41
1
10
52.4677187158381
20
-29.3994263420375
30
0
41
1
10
52.4882382563658
20
-29.4389293856209
30
0
41
1
10
52.5173213762876
20
-29.5217005519267
30
0
41
1
10
52.5263104058524
20
-29.5652822434973
30
0
41
1
10
52.5181355684131
20
-29.6274031875265
30
0
41
1
10
52.5112585554488
20
-29.6474892709983
30
0
41
1
10
52.4882295573881
20
-29.6794064662128
30
0
41
1
10
52.4721889758507
20
-29.6911015787678
30
0
41
1
10
52.4539675838512
20
-29.697893173384
30
0
0
SPLINE
5
130
100
AcDbEntity
8
1
62
256
6
ByLayer
370
13
48
1
60
0
100
AcDbSpline
70
4
71
3
72
16
73
12
40
0
40
0
40
0
40
0
40
0.249999999999998
40
0.249999999999998
40
0.499999999999996
40
0.499999999999996
40
0.749999999999995
40
0.749999999999995
40
0.874999999999997
40
0.874999999999997
40
1
40
1
40
1
40
1
41
1
10
52.7256406655039
20
-30.8937836806518
30
0
41
1
10
52.7123420610814
20
-30.9359614653169
30
0
41
1
10
52.6955672862263
20
-30.9772417598665
30
0
41
1
10
52.6548593808141
20
-31.0557974747873
30
0
41
1
10
52.630908511808
20
-31.09331943995
30
0
41
1
10
52.5737681390472
20
-31.1598917437765
30
0
41
1
10
52.5405198017895
20
-31.1894673175204
30
0
41
1
10
52.4826340674335
20
-31.2134481726407
30
0
41
1
10
52.4618005024022
20
-31.2175355464473
30
0
41
1
10
52.4226449014986
20
-31.2135504467103
30
0
41
1
10
52.4044963461572
20
-31.205506451885
30
0
41
1
10
52.3895039566876
20
-31.1931220608292
30
0
0
SPLINE
5
131
100
AcDbEntity
8
1
62
256
6
ByLayer
370
13
48
1
60
0
100
AcDbSpline
70
4
71
3
72
16
73
12
40
0
40
0
40
0
40
0
40
0.125000000000002
40
0.125000000000002
40
0.250000000000003
40
0.250000000000003
40
0.500000000000002
40
0.500000000000002
40
0.750000000000001
40
0.750000000000001
40
1
40
1
40
1
40
1
41
1
10
52.6219870346816
20
-30.4557799390256
30
0
41
1
10
52.6412994183288
20
-30.4542402658767
30
0
41
1
10
52.6606726799126
20
-30.4580227340919
30
0
41
1
10
52.6948700649273
20
-30.4769913338301
30
0
41
1
10
52.7095074578112
20
-30.4920032739082
30
0
41
1
10
52.7436034547342
20
-30.5451599260228
30
0
41
1
10
52.7538389667463
20
-30.5884996214475
30
0
41
1
10
52.7624992531826
20
-30.6759987989021
30
0
41
1
10
52.760592571091
20
-30.7204415217377
30
0
41
1
10
52.7488650335115
20
-30.8082389106299
30
0
41
1
10
52.7389484735282
20
-30.8515767058909
30
0
41
1
10
52.7256406655039
20
-30.8937836806518
30
0
0
SPLINE
5
132
100
AcDbEntity
8
1
62
256
6
ByLayer
370
13
48
1
60
0
100
AcDbSpline
70
4
71
3
72
8
73
4
40
0
40
0
40
0
40
0
40
1
40
1
40
1
40
1
41
1
10
52.6030446385789
20
-30.449347353581
30
0
41
1
10
52.6093595980152
20
-30.451491829704
30
0
41
1
10
52.61567371957
20
-30.4536360212935
30
0
41
1
10
52.6219870346816
20
-30.4557799390256
30
0
0
SPLINE
5
133
100
AcDbEntity
8
1
62
256
6
ByLayer
370
13
48
1
60
0
100
AcDbSpline
70
4
71
3
72
16
73
12
40
0
40
0
40
0
40
0
40
0.124999999999987
40
0.124999999999987
40
0.249999999999973
40
0.249999999999973
40
0.499999999999982
40
0.499999999999982
40
0.749999999999991
40
0.749999999999991
40
1
40
1
40
1
40
1
41
1
10
51.9316521140861
20
-29.1278858609893
30
0
41
1
10
51.9399749098492
20
-29.1103910095688
30
0
41
1
10
51.9529372542044
20
-29.0955045069907
30
0
41
1
10
51.9864632359593
20
-29.0753730026941
30
0
41
1
10
52.006782653869
20
-29.0702026186505
30
0
41
1
10
52.0698656634418
20
-29.0672529452052
30
0
41
1
10
52.1125166966779
20
-29.0800585794942
30
0
41
1
10
52.192623350382
20
-29.1163081401636
30
0
41
1
10
52.2301585363252
20
-29.1401807367097
30
0
41
1
10
52.300329536702
20
-29.1942357766235
30
0
41
1
10
52.3329028883504
20
-29.2244926671177
30
0
41
1
10
52.362801296698
20
-29.2571210543159
30
0
0
SPLINE
5
134
100
AcDbEntity
8
1
62
256
6
ByLayer
370
13
48
1
60
0
100
AcDbSpline
70
4
71
3
72
16
73
12
40
0
40
0
40
0
40
0
40
0.25
40
0.25
40
0.5
40
0.5
40
0.75
40
0.75
40
0.875
40
0.875
40
1
40
1
40
1
40
1
41
1
10
49.8908578418411
20
-31.5222399024097
30
0
41
1
10
49.9207355726251
20
-31.554845724007
30
0
41
1
10
49.9533844880289
20
-31.5851690502182
30
0
41
1
10
50.0234774593874
20
-31.6391608021428
30
0
41
1
10
50.0610417861682
20
-31.6630451767281
30
0
41
1
10
50.1409632222787
20
-31.6992316090756
30
0
41
1
10
50.1835956268069
20
-31.7119848273681
30
0
41
1
10
50.2461926659181
20
-31.7092552946704
30
0
41
1
10
50.2668016869509
20
-31.7041550683404
30
0
41
1
10
50.3006045370323
20
-31.6839954694254
30
0
41
1
10
50.3136531749511
20
-31.6690352233648
30
0
41
1
10
50.322007024453
20
-31.6514750957362
30
0
0
SPLINE
5
135
100
AcDbEntity
8
1
62
256
6
ByLayer
370
13
48
1
60
0
100
AcDbSpline
70
4
71
3
72
8
73
4
40
0
40
0
40
0
40
0
40
1
40
1
40
1
40
1
41
1
10
50.322007024453
20
-31.6514750957362
30
0
41
1
10
50.3270203692285
20
-31.6470795633335
30
0
41
1
10
50.332034354393
20
-31.6426834694593
30
0
41
1
10
50.3370490049114
20
-31.638286792225
30
0
0
SPLINE
5
136
100
AcDbEntity
8
1
62
256
6
ByLayer
370
13
48
1
60
0
100
AcDbSpline
70
4
71
3
72
16
73
12
40
0
40
0
40
0
40
0
40
0.125
40
0.125
40
0.25
40
0.25
40
0.5
40
0.5
40
0.75
40
0.75
40
1
40
1
40
1
40
1
41
1
10
51.8171644898651
20
-31.7175745563991
30
0
41
1
10
51.8281540777492
20
-31.7335297346707
30
0
41
1
10
51.8345649949778
20
-31.752198705464
30
0
41
1
10
51.8352363982376
20
-31.7912988094988
30
0
41
1
10
51.8295543732118
20
-31.8114811336206
30
0
41
1
10
51.8005673605619
20
-31.8675874591804
30
0
41
1
10
51.768151839338
20
-31.898121520316
30
0
41
1
10
51.6967054720702
20
-31.9493711371012
30
0
41
1
10
51.6572636040354
20
-31.9699412633908
30
0
41
1
10
51.575365066079
20
-32.0036836123692
30
0
41
1
10
51.5328751544474
20
-32.016764517136
30
0
41
1
10
51.4896689380754
20
-32.0263431046987
30
0
0
SPLINE
5
137
100
AcDbEntity
8
1
62
256
6
ByLayer
370
13
48
1
60
0
100
AcDbSpline
70
4
71
3
72
8
73
4
40
0
40
0
40
0
40
0
40
1
40
1
40
1
40
1
41
1
10
49.6506144999602
20
-30.3300136031446
30
0
41
1
10
49.6442995405239
20
-30.3278691270216
30
0
41
1
10
49.6379854189691
20
-30.3257249354321
30
0
41
1
10
49.6316721038574
20
-30.3235810177
30
0
0
SPLINE
5
138
100
AcDbEntity
8
1
62
256
6
ByLayer
370
13
48
1
60
0
100
AcDbSpline
70
4
71
3
72
8
73
4
40
0
40
0
40
0
40
0
40
1
40
1
40
1
40
1
41
1
10
51.8132640742208
20
-31.6979536674432
30
0
41
1
10
51.8145643831387
20
-31.7044948208004
30
0
41
1
10
51.815864519529
20
-31.7110351062642
30
0
41
1
10
51.8171644898651
20
-31.7175745563991
30
0
0
SPLINE
5
139
100
AcDbEntity
8
1
62
256
6
ByLayer
370
13
48
1
60
0
100
AcDbSpline
70
4
71
3
72
8
73
4
40
0
40
0
40
0
40
0
40
1
40
1
40
1
40
1
41
1
10
49.8641551818515
20
-29.5862388958964
30
0
41
1
10
49.8705564475241
20
-29.5881038700867
30
0
41
1
10
49.8769585308744
20
-29.5899690825028
30
0
41
1
10
49.8833614637787
20
-29.591834542432
30
0
0
SPLINE
5
13A
100
AcDbEntity
8
1
62
256
6
ByLayer
370
13
48
1
60
0
100
AcDbSpline
70
4
71
3
72
16
73
12
40
0
40
0
40
0
40
0
40
0.25
40
0.25
40
0.5
40
0.5
40
0.75
40
0.75
40
0.875
40
0.875
40
1
40
1
40
1
40
1
41
1
10
50.7639902004637
20
-28.7530178520269
30
0
41
1
10
50.8071665356703
20
-28.7434458889591
30
0
41
1
10
50.8513037068536
20
-28.7373331228516
30
0
41
1
10
50.9396889042935
20
-28.7333093456129
30
0
41
1
10
50.9841593138274
20
-28.7352904240337
30
0
41
1
10
51.07038280651
20
-28.751489286513
30
0
41
1
10
51.1126201733325
20
-28.7654954043398
30
0
41
1
10
51.1623310702491
20
-28.8036354932486
30
0
41
1
10
51.1762876223161
20
-28.8196342029138
30
0
41
1
10
51.192414225159
20
-28.8555364978653
30
0
41
1
10
51.1945221989631
20
-28.8752756052456
30
0
41
1
10
51.1912931964332
20
-28.8944515909176
30
0
0
SPLINE
5
13B
100
AcDbEntity
8
1
62
256
6
ByLayer
370
13
48
1
60
0
100
AcDbSpline
70
4
71
3
72
16
73
12
40
0
40
0
40
0
40
0
40
0.25
40
0.25
40
0.5
40
0.5
40
0.75
40
0.75
40
0.875
40
0.875
40
1
40
1
40
1
40
1
41
1
10
49.5280184730352
20
-29.8855772760738
30
0
41
1
10
49.5413170774577
20
-29.8433994914087
30
0
41
1
10
49.5580918523128
20
-29.8021191968591
30
0
41
1
10
49.598799757725
20
-29.7235634819382
30
0
41
1
10
49.6227506267311
20
-29.6860415167756
30
0
41
1
10
49.6798909994919
20
-29.6194692129491
30
0
41
1
10
49.7131393367495
20
-29.5898936392052
30
0
41
1
10
49.7710250711056
20
-29.565912784085
30
0
41
1
10
49.7918586361369
20
-29.5618254102783
30
0
41
1
10
49.8310142370405
20
-29.5658105100153
30
0
41
1
10
49.8491627923819
20
-29.5738545048407
30
0
41
1
10
49.8641551818515
20
-29.5862388958964
30
0
0
SPLINE
5
13C
100
AcDbEntity
8
1
62
256
6
ByLayer
370
13
48
1
60
0
100
AcDbSpline
70
4
71
3
72
18
73
14
40
0
40
0
40
0
40
0
40
0.125
40
0.125
40
0.25
40
0.25
40
0.5
40
0.5
40
0.75
40
0.75
40
0.875
40
0.875
40
1
40
1
40
1
40
1
41
1
10
49.6506144999602
20
-30.3300136031446
30
0
41
1
10
49.6810577568806
20
-30.3403517277562
30
0
41
1
10
49.7076447075169
20
-30.3610113245317
30
0
41
1
10
49.7539748370161
20
-30.4094796684626
30
0
41
1
10
49.7741484003816
20
-30.4380791093204
30
0
41
1
10
49.8263421029189
20
-30.5289393914401
30
0
41
1
10
49.8512105154331
20
-30.5974301534655
30
0
41
1
10
49.8827943377296
20
-30.7394623652955
30
0
41
1
10
49.8893629503525
20
-30.8125337050175
30
0
41
1
10
49.8804334330466
20
-30.9175475329363
30
0
41
1
10
49.8742799979254
20
-30.9518497271485
30
0
41
1
10
49.8525667414936
20
-31.0158527622124
30
0
41
1
10
49.8372404333217
20
-31.0455140067986
30
0
41
1
10
49.8141406677018
20
-31.0676324785482
30
0
0
SPLINE
5
13D
100
AcDbEntity
8
1
62
256
6
ByLayer
370
13
48
1
60
0
100
AcDbSpline
70
4
71
3
72
8
73
4
40
0
40
0
40
0
40
0
40
1
40
1
40
1
40
1
41
1
10
52.4539675838512
20
-29.697893173384
30
0
41
1
10
52.4491518359887
20
-29.7025043449778
30
0
41
1
10
52.4443354729778
20
-29.7071161055881
30
0
41
1
10
52.4395184708372
20
-29.7117284781774
30
0
0
SPLINE
5
13E
100
AcDbEntity
8
1
62
256
6
ByLayer
370
13
48
1
60
0
100
AcDbSpline
70
4
71
3
72
8
73
4
40
0
40
0
40
0
40
0
40
1
40
1
40
1
40
1
41
1
10
51.0623659421059
20
-31.8849093658079
30
0
41
1
10
51.0607804242957
20
-31.878433220024
30
0
41
1
10
51.0591947039565
20
-31.8719562469974
30
0
41
1
10
51.0576087731927
20
-31.865478414479
30
0
0
SPLINE
5
13F
100
AcDbEntity
8
1
62
256
6
ByLayer
370
13
48
1
60
0
100
AcDbSpline
70
4
71
3
72
20
73
16
40
0
40
0
40
0
40
0
40
0.124999999999991
40
0.124999999999991
40
0.249999999999983
40
0.249999999999983
40
0.499999999999989
40
0.499999999999989
40
0.624999999999991
40
0.624999999999991
40
0.749999999999994
40
0.749999999999994
40
0.874999999999997
40
0.874999999999997
40
1
40
1
40
1
40
1
41
1
10
50.3370490049114
20
-31.638286792225
30
0
41
1
10
50.3611116835004
20
-31.617189443415
30
0
41
1
10
50.3919730426512
20
-31.6045309372062
30
0
41
1
10
50.4574760028872
20
-31.588496552932
30
0
41
1
10
50.4922612455454
20
-31.5853269802583
30
0
41
1
10
50.5978862918259
20
-31.5855842135992
30
0
41
1
10
50.6701427897806
20
-31.5985370358076
30
0
41
1
10
50.7741997463772
20
-31.6314482491555
30
0
41
1
10
50.8076365194589
20
-31.6445609141208
30
0
41
1
10
50.8719748066064
20
-31.6751951465259
30
0
41
1
10
50.9032017218693
20
-31.6929171846811
30
0
41
1
10
50.9607270735098
20
-31.7329906460084
30
0
41
1
10
50.9871923236556
20
-31.7553070392911
30
0
41
1
10
51.0318044452362
20
-31.8060641352708
30
0
41
1
10
51.0499775142459
20
-31.8343080642393
30
0
41
1
10
51.0576087731927
20
-31.865478414479
30
0
0
SPLINE
5
140
100
AcDbEntity
8
1
62
256
6
ByLayer
370
13
48
1
60
0
100
AcDbSpline
70
4
71
3
72
18
73
14
40
0
40
0
40
0
40
0
40
0.125000000000001
40
0.125000000000001
40
0.250000000000003
40
0.250000000000003
40
0.500000000000006
40
0.500000000000006
40
0.750000000000009
40
0.750000000000009
40
0.875000000000004
40
0.875000000000004
40
1
40
1
40
1
40
1
41
1
10
52.4395184708372
20
-29.7117284781774
30
0
41
1
10
52.4164309612818
20
-29.7338352145086
30
0
41
1
10
52.4011401138338
20
-29.7634340323913
30
0
41
1
10
52.3794611409444
20
-29.8272034282368
30
0
41
1
10
52.3732650635271
20
-29.8615357978462
30
0
41
1
10
52.3642802655738
20
-29.9666459733805
30
0
41
1
10
52.3708039272116
20
-30.0393774544268
30
0
41
1
10
52.4022528373553
20
-30.1812957376542
30
0
41
1
10
52.4271822862774
20
-30.2502060328398
30
0
41
1
10
52.4796340807979
20
-30.3414870290118
30
0
41
1
10
52.4996971660461
20
-30.3699375019913
30
0
41
1
10
52.5463894817852
20
-30.4186988799681
30
0
41
1
10
52.5727923419652
20
-30.4390740765464
30
0
41
1
10
52.6030446385789
20
-30.449347353581
30
0
0
SPLINE
5
141
100
AcDbEntity
8
1
62
256
6
ByLayer
370
13
48
1
60
0
100
AcDbSpline
70
4
71
3
72
18
73
14
40
0
40
0
40
0
40
0
40
0.124999999999998
40
0.124999999999998
40
0.249999999999995
40
0.249999999999995
40
0.499999999999997
40
0.499999999999997
40
0.749999999999998
40
0.749999999999998
40
0.874999999999999
40
0.874999999999999
40
1
40
1
40
1
40
1
41
1
10
51.1960503653464
20
-28.9138825422466
30
0
41
1
10
51.2036516058262
20
-28.9449302801974
30
0
41
1
10
51.2216395103106
20
-28.972971951474
30
0
41
1
10
51.2660259406521
20
-29.023631190647
30
0
41
1
10
51.2926606061973
20
-29.0461633358988
30
0
41
1
10
51.3791962894297
20
-29.1064994869415
30
0
41
1
10
51.4454454304895
20
-29.1372155707606
30
0
41
1
10
51.5840747240978
20
-29.1809391572685
30
0
41
1
10
51.6562175147718
20
-29.1938047687924
30
0
41
1
10
51.7614950735997
20
-29.1940206803495
30
0
41
1
10
51.7961654485738
20
-29.1908707753361
30
0
41
1
10
51.8617401984948
20
-29.1748147327328
30
0
41
1
10
51.8925870664288
20
-29.1621367833736
30
0
41
1
10
51.9166101336276
20
-29.1410741645006
30
0
0
SPLINE
5
142
100
AcDbEntity
8
1
62
256
6
ByLayer
370
13
48
1
60
0
100
AcDbSpline
70
4
71
3
72
16
73
12
40
0
40
0
40
0
40
0
40
0.125000000000006
40
0.125000000000006
40
0.250000000000012
40
0.250000000000012
40
0.500000000000008
40
0.500000000000008
40
0.750000000000004
40
0.750000000000004
40
1
40
1
40
1
40
1
41
1
10
50.4364946486739
20
-29.0617864003265
30
0
41
1
10
50.4255050607899
20
-29.0458312220549
30
0
41
1
10
50.4190941435613
20
-29.0271622512616
30
0
41
1
10
50.4184227403015
20
-28.9880621472268
30
0
41
1
10
50.4241047653273
20
-28.967879823105
30
0
41
1
10
50.4530917779772
20
-28.9117734975452
30
0
41
1
10
50.4855072992011
20
-28.8812394364096
30
0
41
1
10
50.5569536664689
20
-28.8299898196243
30
0
41
1
10
50.5963955345037
20
-28.8094196933348
30
0
41
1
10
50.67829407246
20
-28.7756773443564
30
0
41
1
10
50.7207839840917
20
-28.7625964395896
30
0
41
1
10
50.7639902004637
20
-28.7530178520269
30
0
0
SPLINE
5
143
100
AcDbEntity
8
1
62
256
6
ByLayer
370
13
48
1
60
0
100
AcDbSpline
70
4
71
3
72
8
73
4
40
0
40
0
40
0
40
0
40
1
40
1
40
1
40
1
41
1
10
52.3895039566876
20
-31.1931220608292
30
0
41
1
10
52.3831026910149
20
-31.191257086639
30
0
41
1
10
52.3767006076647
20
-31.1893918742228
30
0
41
1
10
52.3702976747604
20
-31.1875264142936
30
0
0
LINE
5
70
100
AcDbEntity
8
1
62
256
6
ByLayer
370
13
48
1
60
0
100
AcDbLine
10
54.761131
20
-17.295614
30
0
11
19.432887
21
24.99094
31
0
39
0
210
0
220
0
230
1
0
LINE
5
72
100
AcDbEntity
8
1
62
256
6
ByLayer
370
13
48
1
60
0
100
AcDbLine
10
19.425394
20
25
30
0
11
0.3
21
25
31
0
39
0
210
0
220
0
230
1
0
LINE
5
73
100
AcDbEntity
8
1
62
256
6
ByLayer
370
13
48
1
60
0
100
AcDbLine
10
0.3
20
-25
30
0
11
20.279208
21
-25
31
0
39
0
210
0
220
0
230
1
0
LINE
5
74
100
AcDbEntity
8
81
62
256
6
ByLayer
370
18
48
1
60
0
100
AcDbLine
10
60
20
-40
30
0
11
70
21
-40
31
0
39
0
210
0
220
0
230
1
0
LINE
5
75
100
AcDbEntity
8
80
62
256
6
ByLayer
370
18
48
1
60
0
100
AcDbLine
10
0
20
0
30
0
11
-10
21
0
31
0
39
0
210
0
220
0
230
1
0
LINE
5
76
100
AcDbEntity
8
1
62
256
6
ByLayer
370
13
48
1
60
0
100
AcDbLine
10
0
20
-24.7
30
0
11
0.3
21
-25
31
0
39
0
210
0
220
0
230
1
0
LINE
5
77
100
AcDbEntity
8
1
62
256
6
ByLayer
370
13
48
1
60
0
100
AcDbLine
10
0.3
20
25
30
0
11
0
21
24.7
31
0
39
0
210
0
220
0
230
1
0
LINE
5
78
100
AcDbEntity
8
1
62
256
6
ByLayer
370
13
48
1
60
0
100
AcDbLine
10
24.596267
20
-27.293274
30
0
11
28.811366
21
-32.316634
31
0
39
0
210
0
220
0
230
1
0
LINE
5
79
100
AcDbEntity
8
1
62
256
6
ByLayer
370
13
48
1
60
0
100
AcDbLine
10
54.759021
20
-17.293089
30
0
11
54.75903
21
-17.293299
31
0
39
0
210
0
220
0
230
1
0
LINE
5
7A
100
AcDbEntity
8
1
62
256
6
ByLayer
370
13
48
1
60
0
100
AcDbLine
10
0.3
20
25
30
0
11
0.3
21
-25
31
0
39
0
210
0
220
0
230
1
0
LINE
5
7B
100
AcDbEntity
8
1
62
256
6
ByLayer
370
13
48
1
60
0
100
AcDbLine
10
20.279208
20
-25
30
0
11
20.279208
21
-24.979697
31
0
39
0
210
0
220
0
230
1
0
LINE
5
7C
100
AcDbEntity
8
1
62
256
6
ByLayer
370
13
48
1
60
0
100
AcDbLine
10
0
20
-24.7
30
0
11
0
21
24.7
31
0
39
0
210
0
220
0
230
1
0
LINE
5
7D
100
AcDbEntity
8
1
62
256
6
ByLayer
370
13
48
1
60
0
100
AcDbLine
10
20.988369
20
-25.226325
30
0
11
20.988369
21
-25.231966
31
0
39
0
210
0
220
0
230
1
0
LINE
5
7E
100
AcDbEntity
8
1
62
256
6
ByLayer
370
13
48
1
60
0
100
AcDbLine
10
24.596267
20
-27.293274
30
0
11
24.596267
21
-27.293091
31
0
39
0
210
0
220
0
230
1
0
LINE
5
7F
100
AcDbEntity
8
1
62
256
6
ByLayer
370
13
48
1
60
0
100
AcDbLine
10
28.809254
20
-32.314116
30
0
11
28.809393
21
-32.314128
31
0
39
0
210
0
220
0
230
1
0
LINE
5
80
100
AcDbEntity
8
1
62
256
6
ByLayer
370
13
48
1
60
0
100
AcDbLine
10
51.432363
20
-22.16653
30
0
11
51.487539
21
-22.214919
31
0
39
0
210
0
220
0
230
1
0
LINE
5
81
100
AcDbEntity
8
1
62
256
6
ByLayer
370
13
48
1
60
0
100
AcDbLine
10
54.776689
20
-17.697754
30
0
11
54.375168
21
-18.271185
31
0
39
0
210
0
220
0
230
1
0
LINE
5
82
100
AcDbEntity
8
1
62
256
6
ByLayer
370
13
48
1
60
0
100
AcDbLine
10
42.951737
20
-30.03654
30
0
11
42.908342
21
-29.977356
31
0
39
0
210
0
220
0
230
1
0
LINE
5
83
100
AcDbEntity
8
1
62
256
6
ByLayer
370
13
48
1
60
0
100
AcDbLine
10
38.771389
20
-32.569432
30
0
11
37.898438
21
-33.07343
31
0
39
0
210
0
220
0
230
1
0
LINE
5
84
100
AcDbEntity
8
1
62
256
6
ByLayer
370
13
48
1
60
0
100
AcDbLine
10
51.213068
20
-22.606636
30
0
11
43.365886
21
-29.797254
31
0
39
0
210
0
220
0
230
1
0
LINE
5
85
100
AcDbEntity
8
1
62
256
6
ByLayer
370
13
48
1
60
0
100
AcDbLine
10
54.460686
20
-18.236225
30
0
11
54.745907
21
-17.828887
31
0
39
0
210
0
220
0
230
1
0
LINE
5
86
100
AcDbEntity
8
1
62
256
6
ByLayer
370
13
48
1
60
0
100
AcDbLine
10
37.985798
20
-33.080729
30
0
11
38.729072
21
-32.651599
31
0
39
0
210
0
220
0
230
1
0
LINE
5
87
100
AcDbEntity
8
1
62
256
6
ByLayer
370
13
48
1
60
0
100
AcDbLine
10
38.67693
20
-33.138466
30
0
11
37.985798
21
-33.080729
31
0
39
0
210
0
220
0
230
1
0
LINE
5
88
100
AcDbEntity
8
1
62
256
6
ByLayer
370
13
48
1
60
0
100
AcDbLine
10
54.788264
20
-17.962861
30
0
11
54.798478
21
-18.196789
31
0
39
0
210
0
220
0
230
1
0
LINE
5
89
100
AcDbEntity
8
1
62
256
6
ByLayer
370
13
48
1
60
0
100
AcDbLine
10
48.517004
20
-25.321274
30
0
11
48.433475
21
-25.230119
31
0
39
0
210
0
220
0
230
1
0
LINE
5
8A
100
AcDbEntity
8
1
62
256
6
ByLayer
370
13
48
1
60
0
100
AcDbLine
10
46.221643
20
-27.25689
30
0
11
46.305172
21
-27.348045
31
0
39
0
210
0
220
0
230
1
0
LINE
5
8B
100
AcDbEntity
8
1
62
256
6
ByLayer
370
13
48
1
60
0
100
AcDbLine
10
8.538675
20
7.529667
30
0
11
8.538675
21
23.83913
31
0
39
0
210
0
220
0
230
1
0
LINE
5
8C
100
AcDbEntity
8
1
62
256
6
ByLayer
370
13
48
1
60
0
100
AcDbLine
10
8.105662
20
-23.666502
30
0
11
8.105662
21
-8.055848
31
0
39
0
210
0
220
0
230
1
0
LINE
5
8D
100
AcDbEntity
8
1
62
256
6
ByLayer
370
13
48
1
60
0
100
AcDbLine
10
46.362461
20
-27.119216
30
0
11
48.284053
21
-25.358402
31
0
39
0
210
0
220
0
230
1
0
LINE
5
8E
100
AcDbEntity
8
1
62
256
6
ByLayer
370
13
48
1
60
0
100
AcDbLine
10
24.859354
20
15.787823
30
0
11
36.365824
21
2.01502
31
0
39
0
210
0
220
0
230
1
0
LINE
5
8F
100
AcDbEntity
8
1
62
256
6
ByLayer
370
13
48
1
60
0
100
AcDbLine
10
8.538675
20
-7.529667
30
0
11
11.461325
21
-7.529667
31
0
39
0
210
0
220
0
230
1
0
LINE
5
90
100
AcDbEntity
8
1
62
256
6
ByLayer
370
13
48
1
60
0
100
AcDbLine
10
8.538675
20
23.83913
30
0
11
11.461325
21
23.83913
31
0
39
0
210
0
220
0
230
1
0
LINE
5
91
100
AcDbEntity
8
1
62
256
6
ByLayer
370
13
48
1
60
0
100
AcDbLine
10
47.69479
20
-22.132501
30
0
11
48.858307
21
-23.221897
31
0
39
0
210
0
220
0
230
1
0
LINE
5
92
100
AcDbEntity
8
1
62
256
6
ByLayer
370
13
48
1
60
0
100
AcDbLine
10
11.461325
20
7.529667
30
0
11
8.538675
21
7.529667
31
0
39
0
210
0
220
0
230
1
0
LINE
5
93
100
AcDbEntity
8
1
62
256
6
ByLayer
370
13
48
1
60
0
100
AcDbLine
10
37.898438
20
-33.07343
30
0
11
37.590362
21
-33.047694
31
0
39
0
210
0
220
0
230
1
0
LINE
5
94
100
AcDbEntity
8
1
62
256
6
ByLayer
370
13
48
1
60
0
100
AcDbLine
10
11.461325
20
-23.83913
30
0
11
11.461325
21
-7.529667
31
0
39
0
210
0
220
0
230
1
0
LINE
5
95
100
AcDbEntity
8
1
62
256
6
ByLayer
370
13
48
1
60
0
100
AcDbLine
10
47.613974
20
-19.324052
30
0
11
48.246877
21
-19.058636
31
0
39
0
210
0
220
0
230
1
0
LINE
5
96
100
AcDbEntity
8
1
62
256
6
ByLayer
370
13
48
1
60
0
100
AcDbLine
10
43.020306
20
-26.39134
30
0
11
43.996958
21
-27.650985
31
0
39
0
210
0
220
0
230
1
0
LINE
5
97
100
AcDbEntity
8
1
62
256
6
ByLayer
370
13
48
1
60
0
100
AcDbLine
10
40.269366
20
-26.817302
30
0
11
40.500963
21
-26.187297
31
0
39
0
210
0
220
0
230
1
0
LINE
5
98
100
AcDbEntity
8
1
62
256
6
ByLayer
370
13
48
1
60
0
100
AcDbLine
10
54.764055
20
-17.408381
30
0
11
54.776689
21
-17.697754
31
0
39
0
210
0
220
0
230
1
0
LINE
5
99
100
AcDbEntity
8
1
62
256
6
ByLayer
370
13
48
1
60
0
100
AcDbLine
10
54.764055
20
-17.408381
30
0
11
51.432363
21
-22.16653
31
0
39
0
210
0
220
0
230
1
0
LINE
5
9A
100
AcDbEntity
8
1
62
256
6
ByLayer
370
13
48
1
60
0
100
AcDbLine
10
24.859354
20
15.787823
30
0
11
24.859354
21
-23.526243
31
0
39
0
210
0
220
0
230
1
0
LINE
5
9B
100
AcDbEntity
8
1
62
256
6
ByLayer
370
13
48
1
60
0
100
AcDbLine
10
54.75903
20
-17.293299
30
0
11
40.807035
21
-0.593295
31
0
39
0
210
0
220
0
230
1
0
LINE
5
9C
100
AcDbEntity
8
1
62
256
6
ByLayer
370
13
48
1
60
0
100
AcDbLine
10
42.908342
20
-29.977356
30
0
11
37.590362
21
-33.047694
31
0
39
0
210
0
220
0
230
1
0
LINE
5
9D
100
AcDbEntity
8
1
62
256
6
ByLayer
370
13
48
1
60
0
100
AcDbLine
10
51.432363
20
-22.16653
30
0
11
42.908342
21
-29.977356
31
0
39
0
210
0
220
0
230
1
0
LINE
5
9E
100
AcDbEntity
8
1
62
256
6
ByLayer
370
13
48
1
60
0
100
AcDbLine
10
11.461325
20
-23.83913
30
0
11
8.538675
21
-23.83913
31
0
39
0
210
0
220
0
230
1
0
LINE
5
9F
100
AcDbEntity
8
1
62
256
6
ByLayer
370
13
48
1
60
0
100
AcDbLine
10
46.362461
20
-27.119216
30
0
11
46.263241
21
-27.210135
31
0
39
0
210
0
220
0
230
1
0
LINE
5
A0
100
AcDbEntity
8
1
62
256
6
ByLayer
370
13
48
1
60
0
100
AcDbLine
10
47.69479
20
-22.132501
30
0
11
47.25772
21
-21.723275
31
0
39
0
210
0
220
0
230
1
0
LINE
5
A1
100
AcDbEntity
8
1
62
256
6
ByLayer
370
13
48
1
60
0
100
AcDbLine
10
40.269366
20
-26.817302
30
0
11
39.719409
21
-28.31333
31
0
39
0
210
0
220
0
230
1
0
LINE
5
A2
100
AcDbEntity
8
1
62
256
6
ByLayer
370
13
48
1
60
0
100
AcDbLine
10
8.105662
20
8.055848
30
0
11
8.105662
21
23.666502
31
0
39
0
210
0
220
0
230
1
0
LINE
5
A3
100
AcDbEntity
8
1
62
256
6
ByLayer
370
13
48
1
60
0
100
AcDbLine
10
37.463452
20
-25.011191
30
0
11
46.365608
21
-16.853867
31
0
39
0
210
0
220
0
230
1
0
LINE
5
A4
100
AcDbEntity
8
1
62
256
6
ByLayer
370
13
48
1
60
0
100
AcDbLine
10
20.279208
20
-12.222239
30
0
11
20.279208
21
-24.543353
31
0
39
0
210
0
220
0
230
1
0
LINE
5
A5
100
AcDbEntity
8
1
62
256
6
ByLayer
370
13
48
1
60
0
100
AcDbLine
10
48.383272
20
-25.267484
30
0
11
48.284053
21
-25.358402
31
0
39
0
210
0
220
0
230
1
0
LINE
5
A6
100
AcDbEntity
8
1
62
256
6
ByLayer
370
13
48
1
60
0
100
AcDbLine
10
11.461325
20
7.529667
30
0
11
11.461325
21
23.83913
31
0
39
0
210
0
220
0
230
1
0
LINE
5
A7
100
AcDbEntity
8
1
62
256
6
ByLayer
370
13
48
1
60
0
100
AcDbLine
10
28.809393
20
-32.314128
30
0
11
37.590362
21
-33.047694
31
0
39
0
210
0
220
0
230
1
0
LINE
5
A8
100
AcDbEntity
8
1
62
256
6
ByLayer
370
13
48
1
60
0
100
AcDbLine
10
20.988369
20
-24.243063
30
0
11
20.988369
21
-20.757845
31
0
39
0
210
0
220
0
230
1
0
LINE
5
A9
100
AcDbEntity
8
1
62
256
6
ByLayer
370
13
48
1
60
0
100
AcDbLine
10
20.874575
20
-20.194641
30
0
11
20.874575
21
18.299833
31
0
39
0
210
0
220
0
230
1
0
LINE
5
AA
100
AcDbEntity
8
1
62
256
6
ByLayer
370
13
48
1
60
0
100
AcDbLine
10
54.764055
20
-17.408381
30
0
11
54.75903
21
-17.293299
31
0
39
0
210
0
220
0
230
1
0
LINE
5
AB
100
AcDbEntity
8
1
62
256
6
ByLayer
370
13
48
1
60
0
100
AcDbLine
10
8.538675
20
-23.83913
30
0
11
8.538675
21
-7.529667
31
0
39
0
210
0
220
0
230
1
0
LINE
5
AC
100
AcDbEntity
8
1
62
256
6
ByLayer
370
13
48
1
60
0
100
AcDbLine
10
37.985798
20
-33.080729
30
0
11
37.898438
21
-33.07343
31
0
39
0
210
0
220
0
230
1
0
LINE
5
AD
100
AcDbEntity
8
1
62
256
6
ByLayer
370
13
48
1
60
0
100
AcDbLine
10
49.716769
20
-18.442218
30
0
11
48.246877
21
-19.058636
31
0
39
0
210
0
220
0
230
1
0
LINE
5
AE
100
AcDbEntity
8
1
62
256
6
ByLayer
370
13
48
1
60
0
100
AcDbLine
10
42.652795
20
-25.91734
30
0
11
43.020306
21
-26.39134
31
0
39
0
210
0
220
0
230
1
0
LINE
5
AF
100
AcDbEntity
8
1
62
256
6
ByLayer
370
13
48
1
60
0
100
AcDbLine
10
11.894338
20
8.055848
30
0
11
11.894338
21
23.666502
31
0
39
0
210
0
220
0
230
1
0
LINE
5
B0
100
AcDbEntity
8
1
62
256
6
ByLayer
370
13
48
1
60
0
100
AcDbLine
10
11.894338
20
-23.666502
30
0
11
11.894338
21
-8.055848
31
0
39
0
210
0
220
0
230
1
0
LINE
5
B1
100
AcDbEntity
8
SK1
62
256
6
ByLayer
370
13
48
1
60
0
100
AcDbLine
10
-1.315435
20
3.910269
30
0
11
-1.315435
21
-3.910272
31
0
39
0
210
0
220
0
230
1
0
LINE
5
B3
100
AcDbEntity
8
1
62
256
6
ByLayer
370
13
48
1
60
0
100
AcDbLine
10
55.520205
20
-18.99295
30
0
11
55.520205
21
-23.919529
31
0
39
0
210
0
220
0
230
1
0
LINE
5
B4
100
AcDbEntity
8
1
62
256
6
ByLayer
370
13
48
1
60
0
100
AcDbLine
10
44.298391
20
-34.202427
30
0
11
39.390559
21
-33.773047
31
0
39
0
210
0
220
0
230
1
0
LINE
5
B5
100
AcDbEntity
8
1
62
256
6
ByLayer
370
13
48
1
60
0
100
AcDbLine
10
39.060284
20
-32.283271
30
0
11
43.326826
21
-29.819982
31
0
39
0
210
0
220
0
230
1
0
LINE
5
B6
100
AcDbEntity
8
1
62
256
6
ByLayer
370
13
48
1
60
0
100
AcDbLine
10
51.239114
20
-22.569706
30
0
11
54.064883
21
-18.534089
31
0
39
0
210
0
220
0
230
1
0
LINE
5
B7
100
AcDbEntity
8
1
62
256
6
ByLayer
370
13
48
1
60
0
100
AcDbLine
10
44.731548
20
-28.789997
30
0
11
50.090619
21
-23.879313
31
0
39
0
210
0
220
0
230
1
0
LINE
5
B8
100
AcDbEntity
8
1
62
256
6
ByLayer
370
13
48
1
60
0
100
AcDbLine
10
55.709837
20
-25.651046
30
0
11
57.283078
21
-32.74748
31
0
39
0
210
0
220
0
230
1
0
LINE
5
B9
100
AcDbEntity
8
1
62
256
6
ByLayer
370
13
48
1
60
0
100
AcDbLine
10
57.842984
20
-34.396909
30
0
11
59.925046
21
-38.861905
31
0
39
0
210
0
220
0
230
1
0
LINE
5
BA
100
AcDbEntity
8
1
62
256
6
ByLayer
370
13
48
1
60
0
100
AcDbLine
10
58.8
20
-39.89282
30
0
11
54.533458
21
-37.429531
31
0
39
0
210
0
220
0
230
1
0
LINE
5
BB
100
AcDbEntity
8
1
62
256
6
ByLayer
370
13
48
1
60
0
100
AcDbLine
10
52.939104
20
-36.727999
30
0
11
46.006791
21
-34.542249
31
0
39
0
210
0
220
0
230
1
0
MTEXT
5
144
100
AcDbEntity
8
SK6
62
256
6
ByLayer
370
13
48
1
60
0
100
AcDbMText
10
0.902534
20
33.350079
30
0
210
0
220
0
230
1
1
\W0.7454;C5-CP-A-30AL40060-11C
40
3.5
41
0
44
1.084337
50
0
71
7
72
5
7
iso_b_vert
0
DIMENSION
5
156
100
AcDbEntity
8
SK2
62
256
6
ByLayer
370
13
48
1
60
0
100
AcDbDimension
2
DimnDraft3D1
10
-36.85
20
-25
30
0
11
-36.85
21
0
31
0
70
32
71
5
72
1
41
1
210
0
220
0
230
1
3
Standard
100
AcDbAlignedDimension
13
-1.5875
23
25
33
0
14
-1.5875
24
-25
34
0
50
90
100
AcDbRotatedDimension
1001
ACAD
1000
DSTYLE
1002
{
1070
    74
1070
     0
1070
   279
1070
     0
1070
   172
1070
     1
1070
   173
1070
     1
1070
   340
1005
145
1070
   271
1070
     1
1070
   272
1070
     2
1070
    77
1070
     1
1070
    73
1070
     0
1070
   171
1070
     3
1070
   274
1070
     4
1070
   177
1070
   150
1070
   176
1070
     9
1070
   178
1070
    43
1070
    78
1070
     8
1070
    48
1040
-0.005
1070
    41
1041
3.175
1070
   147
1041
2.25
1070
    42
1041
1.5875
1070
    44
1041
3.175
1070
   140
1041
4.5
1070
   343
1005
157
1070
   344
1005
157
1002
}
0
DIMENSION
5
16C
100
AcDbEntity
8
2
62
256
6
ByLayer
370
13
48
1
60
0
100
AcDbDimension
2
DimnDraft3D2
10
85.85
20
0
30
0
11
85.85
21
-20
31
0
70
32
71
5
72
1
41
1
210
0
220
0
230
1
3
Standard
100
AcDbAlignedDimension
13
61.5875
23
-40
33
0
14
61.5875
24
0
34
0
50
90
100
AcDbRotatedDimension
1001
ACAD
1000
DSTYLE
1002
{
1070
    74
1070
     0
1070
   279
1070
     0
1070
   172
1070
     1
1070
   173
1070
     1
1070
   340
1005
145
1070
   271
1070
     1
1070
   272
1070
     2
1070
    77
1070
     1
1070
    73
1070
     0
1070
   171
1070
     3
1070
   274
1070
     4
1070
   177
1070
   150
1070
   176
1070
     9
1070
   178
1070
    43
1070
    78
1070
     8
1070
    48
1040
-0.005
1070
    41
1041
3.175
1070
   147
1041
2.25
1070
    42
1041
1.5875
1070
    44
1041
3.175
1070
   140
1041
4.5
1070
   343
1005
157
1070
   344
1005
157
1002
}
0
DIMENSION
5
17A
100
AcDbEntity
8
2
62
256
6
ByLayer
370
13
48
1
60
0
100
AcDbDimension
2
DimnDraft3D3
10
60
20
-66.5
30
0
11
30
21
-66.5
31
0
70
32
71
5
72
1
41
1
210
0
220
0
230
1
3
Standard
100
AcDbAlignedDimension
13
0
23
-26.5875
33
0
14
60
24
-41.5875
34
0
50
0
100
AcDbRotatedDimension
1001
ACAD
1000
DSTYLE
1002
{
1070
   279
1070
     0
1070
   172
1070
     1
1070
   173
1070
     1
1070
   340
1005
145
1070
   271
1070
     1
1070
   272
1070
     2
1070
    77
1070
     1
1070
    73
1070
     0
1070
   171
1070
     3
1070
   274
1070
     4
1070
   177
1070
   150
1070
   176
1070
     9
1070
   178
1070
    43
1070
    78
1070
     8
1070
    48
1040
-0.005
1070
    41
1041
3.175
1070
   147
1041
2.25
1070
    42
1041
1.5875
1070
    44
1041
3.175
1070
   140
1041
4.5
1070
   343
1005
157
1070
   344
1005
157
1002
}
0
DIMENSION
5
188
100
AcDbEntity
8
2
62
256
6
ByLayer
370
13
48
1
60
0
100
AcDbDimension
2
DimnDraft3D4
10
60
20
-40
30
0
11
45
21
-35
31
0
70
34
71
5
72
1
41
1
210
0
220
0
230
1
3
Standard
100
AcDb2LineAngularDimension
13
58.8
23
-39.89282
33
0
14
54.469873
24
-37.39282
34
0
15
58.4
25
-40
35
0
16
48.985848
26
-37.320564
36
0
40
0
0
ENDSEC
0
SECTION
2
OBJECTS
0
DICTIONARY
5
1f2
330
0
100
AcDbDictionary
280
0
281
1
3
ACAD_GROUP
350
1f3
3
ACAD_MLINESTYLE
350
1f4
0
DICTIONARY
5
1f3
330
0
100
AcDbDictionary
280
0
281
1
0
DICTIONARY
5
1f4
330
0
100
AcDbDictionary
280
0
281
1
3
Standard
350
18
0
MLINESTYLE
5
18
330
1f4
100
AcDbMlineStyle
2
Standard
70
0
3

62
256
51
90
52
90
71
2
49
-0.5
62
256
6
ByLayer
49
0.5
62
256
6
ByLayer
0
RASTERVARIABLES
5
1e1
330

100
AcDbRasterVariables
90
0
70
1
71
1
72
1
0
ENDSEC
0
EOF
