0
SECTION
2
HEADER
9
$ACADVER
1
AC1015
9
$DWGCODEPAGE
3
ANSI_1252
9
$HANDSEED
5
2b4
9
$ANGBASE
50
0
9
$ANGDIR
70
0
9
$ATTMODE
70
1
9
$AUNITS
70
0
9
$AUPREC
70
0
9
$CECOLOR
62
256
9
$CELTSCALE
40
1
9
$CELTYPE
6
ByLayer
9
$CELWEIGHT
370
18
9
$CLAYER
8
0
9
$CMLJUST
70
0
9
$CMLSCALE
40
1
9
$CMLSTYLE
2
Standard
9
$DIMSTYLE
2
Standard
9
$TEXTSIZE
40
0.2
9
$TEXTSTYLE
7
Standard
9
$LUNITS
70
2
9
$LUPREC
70
4
9
$EXTNAMES
290
1
9
$INSUNITS
70
4
9
$LTSCALE
40
1
9
$LWDISPLAY
290
1
9
$PDMODE
70
0
9
$PDSIZE
40
0
9
$PLINEGEN
70
0
0
ENDSEC
0
SECTION
2
CLASSES
0
CLASS
1
RASTERVARIABLES
2
AcDbRasterVariables
3
ISM
90
0
280
0
281
0
0
ENDSEC
0
SECTION
2
TABLES
0
TABLE
2
VPORT
5
2aa
100
AcDbSymbolTable
0
VPORT
5
1
100
AcDbSymbolTableRecord
100
AcDbViewportTableRecord
2
*Active
70
0
10
0
20
0
11
1
21
1
12
-1
22
1
13
0
23
0
14
0.5
24
0.5
15
10
25
10
16
0
26
0
36
1
17
0
27
0
37
0
0
ENDTAB
0
TABLE
2
LTYPE
5
2ab
100
AcDbSymbolTable
0
LTYPE
5
14
100
AcDbSymbolTableRecord
100
AcDbLinetypeTableRecord
70
0
2
ByBlock
3

72
65
73
0
40
0
0
LTYPE
5
15
100
AcDbSymbolTableRecord
100
AcDbLinetypeTableRecord
70
0
2
ByLayer
3

72
65
73
0
40
0
0
LTYPE
5
16
100
AcDbSymbolTableRecord
100
AcDbLinetypeTableRecord
70
0
2
CONTINUOUS
3
Solid line
72
65
73
0
40
0
0
LTYPE
5
6A
100
AcDbSymbolTableRecord
100
AcDbLinetypeTableRecord
70
0
2
CENTER
3
____ _ ____ _ ____ _ ____
72
65
73
4
40
47.5
49
22
74
0
49
-8.5
74
0
49
8.5
74
0
49
-8.5
74
0
0
LTYPE
5
6B
100
AcDbSymbolTableRecord
100
AcDbLinetypeTableRecord
70
0
2
DASHED
3
__ __ __ __ __ __ __ __ __
72
65
73
2
40
25.72
49
12.86
74
0
49
-12.86
74
0
0
ENDTAB
0
TABLE
2
LAYER
5
2ac
100
AcDbSymbolTable
0
LAYER
5
10
100
AcDbSymbolTableRecord
100
AcDbLayerTableRecord
2
0
70
0
62
7
6
CONTINUOUS
290
1
370
-3
390
0
0
LAYER
5
6D
100
AcDbSymbolTableRecord
100
AcDbLayerTableRecord
2
80
70
0
62
-6
6
CONTINUOUS
290
1
370
-3
390
0
0
LAYER
5
6F
100
AcDbSymbolTableRecord
100
AcDbLayerTableRecord
2
81
70
0
62
-3
6
CONTINUOUS
290
1
370
-3
390
0
0
LAYER
5
76
100
AcDbSymbolTableRecord
100
AcDbLayerTableRecord
2
1
70
0
62
4
6
CONTINUOUS
290
1
370
-3
390
0
0
LAYER
5
212
100
AcDbSymbolTableRecord
100
AcDbLayerTableRecord
2
2
70
0
62
7
6
CONTINUOUS
290
1
370
-3
390
0
0
LAYER
5
295
100
AcDbSymbolTableRecord
100
AcDbLayerTableRecord
2
SK1
70
0
62
4
6
CONTINUOUS
290
1
370
-3
390
0
0
LAYER
5
296
100
AcDbSymbolTableRecord
100
AcDbLayerTableRecord
2
SK6
70
0
62
5
6
CONTINUOUS
290
1
370
-3
390
0
0
LAYER
5
297
100
AcDbSymbolTableRecord
100
AcDbLayerTableRecord
2
SK2
70
0
62
7
6
CONTINUOUS
290
1
370
-3
390
0
0
ENDTAB
0
TABLE
2
STYLE
5
2ad
100
AcDbSymbolTable
0
STYLE
5
11
100
AcDbSymbolTableRecord
100
AcDbTextStyleTableRecord
2
Standard
3
txt
70
0
71
0
40
0
41
1
42
0
50
0
0
STYLE
5
20D
100
AcDbSymbolTableRecord
100
AcDbTextStyleTableRecord
2
iso_b_vert
3
simplex.shx
70
0
71
0
40
0
41
1
42
0
50
0
0
STYLE
5
20E
100
AcDbSymbolTableRecord
100
AcDbTextStyleTableRecord
2
DWGDirectTextStyle
3
simplex
70
0
71
0
40
0
41
1
42
0
50
0
0
ENDTAB
0
TABLE
2
DIMSTYLE
5
2ae
100
AcDbSymbolTable
100
AcDbDimStyleTable
0
DIMSTYLE
105
27
100
AcDbSymbolTableRecord
100
AcDbDimStyleTableRecord
2
Standard
70
0
3
<>
41
0.18
42
0.0625
44
0.18
140
0.18
147
0.09
73
0
74
0
77
1
271
2
275
0
278
52
280
0
340
11
0
ENDTAB
0
TABLE
2
VIEW
5
2af
100
AcDbSymbolTable
0
ENDTAB
0
TABLE
2
UCS
5
2b0
100
AcDbSymbolTable
0
ENDTAB
0
TABLE
2
APPID
5
2b1
100
AcDbSymbolTable
0
APPID
5
12
100
AcDbSymbolTableRecord
100
AcDbRegAppTableRecord
2
ACAD
70
0
0
ENDTAB
0
TABLE
2
BLOCK_RECORD
5
2b2
100
AcDbSymbolTable
0
BLOCK_RECORD
5
1F
100
AcDbSymbolTableRecord
100
AcDbBlockTableRecord
2
*Model_Space
340
0
70
0
0
BLOCK_RECORD
5
1B
100
AcDbSymbolTableRecord
100
AcDbBlockTableRecord
2
*Paper_Space
340
0
70
0
0
BLOCK_RECORD
5
23
100
AcDbSymbolTableRecord
100
AcDbBlockTableRecord
2
*Paper_Space0
340
0
70
0
0
BLOCK_RECORD
5
210
100
AcDbSymbolTableRecord
100
AcDbBlockTableRecord
2
DimnDraft3D1
340
0
70
0
0
BLOCK_RECORD
5
21B
100
AcDbSymbolTableRecord
100
AcDbBlockTableRecord
2
DimnDraft3D2
340
0
70
0
0
BLOCK_RECORD
5
226
100
AcDbSymbolTableRecord
100
AcDbBlockTableRecord
2
DimnDraft3D3
340
0
70
0
0
BLOCK_RECORD
5
230
100
AcDbSymbolTableRecord
100
AcDbBlockTableRecord
2
DimnDraft3D4
340
0
70
0
0
ENDTAB
0
ENDSEC
0
SECTION
2
BLOCKS
0
BLOCK
5
20
100
AcDbEntity
8
0
100
AcDbBlockBegin
2
*Model_Space
70
0
10
0
20
0
30
0
3
*Model_Space
0
ENDBLK
5
21
100
AcDbEntity
8
0
100
AcDbBlockEnd
0
BLOCK
5
1C
100
AcDbEntity
8
0
100
AcDbBlockBegin
2
*Paper_Space
70
0
10
0
20
0
30
0
3
*Paper_Space
0
ENDBLK
5
1D
100
AcDbEntity
8
0
100
AcDbBlockEnd
0
BLOCK
5
24
100
AcDbEntity
8
0
100
AcDbBlockBegin
2
*Paper_Space0
70
0
10
0
20
0
30
0
3
*Paper_Space0
0
ENDBLK
5
25
100
AcDbEntity
8
0
100
AcDbBlockEnd
0
BLOCK
5
218
100
AcDbEntity
8
0
100
AcDbBlockBegin
2
DimnDraft3D1
70
0
10
0
20
0
30
0
3
DimnDraft3D1
0
MTEXT
5
211
100
AcDbEntity
8
2
62
256
6
ByLayer
370
18
48
1
60
0
100
AcDbMText
10
12.307895
20
30.184425
30
0
210
0
220
0
230
1
1
\W0.6961;30.0
40
3
41
0
44
1.084337
50
0
71
7
72
5
7
iso_b_vert
0
LINE
5
213
100
AcDbEntity
8
2
62
256
6
ByLayer
370
13
48
1
60
0
100
AcDbLine
10
30
20
22
30
0
11
30
21
31.434425
31
0
39
0
210
0
220
0
230
1
0
LINE
5
214
100
AcDbEntity
8
2
62
256
6
ByLayer
370
13
48
1
60
0
100
AcDbLine
10
0
20
2
30
0
11
0
21
31.434425
31
0
39
0
210
0
220
0
230
1
0
LINE
5
215
100
AcDbEntity
8
2
62
256
6
ByLayer
370
13
48
1
60
0
100
AcDbLine
10
30
20
29.434425
30
0
11
0
21
29.434425
31
0
39
0
210
0
220
0
230
1
0
SOLID
5
216
100
AcDbEntity
8
2
62
256
6
ByLayer
370
13
48
1
60
0
100
AcDbTrace
10
30
20
29.434425
30
0
11
26.825002
21
29.016428
31
0
12
26.824998
22
29.852421
32
0
13
30
23
29.434425
33
0
39
0
210
0
220
0
230
1
0
SOLID
5
217
100
AcDbEntity
8
2
62
256
6
ByLayer
370
13
48
1
60
0
100
AcDbTrace
10
0
20
29.434425
30
0
11
3.174998
21
29.852421
31
0
12
3.175002
22
29.016428
32
0
13
0
23
29.434425
33
0
39
0
210
0
220
0
230
1
0
ENDBLK
5
219
100
AcDbEntity
8
0
100
AcDbBlockEnd
0
BLOCK
5
223
100
AcDbEntity
8
0
100
AcDbBlockBegin
2
DimnDraft3D2
70
0
10
0
20
0
30
0
3
DimnDraft3D2
0
MTEXT
5
21C
100
AcDbEntity
8
SK2
62
256
6
ByLayer
370
18
48
1
60
0
100
AcDbMText
10
37.872669
20
10.066997
30
0
210
0
220
0
230
1
1
\W0.6258;84%%d
40
3
41
0
44
1.084337
50
48
71
7
72
5
7
iso_b_vert
0
LINE
5
21E
100
AcDbEntity
8
SK2
62
256
6
ByLayer
370
13
48
1
60
0
100
AcDbLine
10
31.403442
20
6.647145
30
0
11
31.593746
21
4.836515
31
0
39
0
210
0
220
0
230
1
0
LINE
5
21F
100
AcDbEntity
8
SK2
62
256
6
ByLayer
370
13
48
1
60
0
100
AcDbLine
10
32
20
20
30
0
11
45.247009
21
20
31
0
39
0
210
0
220
0
230
1
0
ARC
5
220
100
AcDbEntity
8
SK2
62
256
6
ByLayer
370
13
48
1
60
0
100
AcDbCircle
39
0
10
30
20
20
30
0
40
13.247009290228
210
0
220
0
230
1
100
AcDbArc
50
276
51
0
0
SOLID
5
221
100
AcDbEntity
8
SK2
62
256
6
ByLayer
370
13
48
1
60
0
100
AcDbTrace
10
31.38469
20
6.825559
30
0
11
34.448511
21
7.757402
31
0
12
34.585296
22
6.932675
32
0
13
31.38469
23
6.825559
33
0
39
0
210
0
220
0
230
1
0
SOLID
5
222
100
AcDbEntity
8
SK2
62
256
6
ByLayer
370
13
48
1
60
0
100
AcDbTrace
10
43.247009
20
20
30
0
11
43.475035
21
16.805733
31
0
12
42.640527
22
16.855555
32
0
13
43.247009
23
20
33
0
39
0
210
0
220
0
230
1
0
ENDBLK
5
224
100
AcDbEntity
8
0
100
AcDbBlockEnd
0
BLOCK
5
22D
100
AcDbEntity
8
0
100
AcDbBlockBegin
2
DimnDraft3D3
70
0
10
0
20
0
30
0
3
DimnDraft3D3
0
MTEXT
5
227
100
AcDbEntity
8
SK2
62
256
6
ByLayer
370
18
48
1
60
0
100
AcDbMText
10
50.137888
20
7.232002
30
0
210
0
220
0
230
1
1
\W0.7152;20.0
40
3
41
0
44
1.084337
50
90
71
7
72
5
7
iso_b_vert
0
LINE
5
228
100
AcDbEntity
8
SK2
62
256
6
ByLayer
370
13
48
1
60
0
100
AcDbLine
10
32.15
20
0.006109
30
0
11
52.887888
21
0.006109
31
0
39
0
210
0
220
0
230
1
0
LINE
5
229
100
AcDbEntity
8
SK2
62
256
6
ByLayer
370
13
48
1
60
0
100
AcDbLine
10
32
20
20
30
0
11
52.887888
21
20
31
0
39
0
210
0
220
0
230
1
0
LINE
5
22A
100
AcDbEntity
8
SK2
62
256
6
ByLayer
370
13
48
1
60
0
100
AcDbLine
10
50.887888
20
0.006109
30
0
11
50.887888
21
20
31
0
39
0
210
0
220
0
230
1
0
SOLID
5
22B
100
AcDbEntity
8
SK2
62
256
6
ByLayer
370
13
48
1
60
0
100
AcDbTrace
10
50.887888
20
0.006109
30
0
11
50.469891
21
3.181107
31
0
12
51.305885
22
3.18111
32
0
13
50.887888
23
0.006109
33
0
39
0
210
0
220
0
230
1
0
SOLID
5
22C
100
AcDbEntity
8
SK2
62
256
6
ByLayer
370
13
48
1
60
0
100
AcDbTrace
10
50.887888
20
20
30
0
11
51.305885
21
16.825002
31
0
12
50.469891
22
16.824998
32
0
13
50.887888
23
20
33
0
39
0
210
0
220
0
230
1
0
ENDBLK
5
22E
100
AcDbEntity
8
0
100
AcDbBlockEnd
0
BLOCK
5
237
100
AcDbEntity
8
0
100
AcDbBlockBegin
2
DimnDraft3D4
70
0
10
0
20
0
30
0
3
DimnDraft3D4
0
MTEXT
5
231
100
AcDbEntity
8
SK2
62
256
6
ByLayer
370
18
48
1
60
0
100
AcDbMText
10
-8.904428
20
-17.507956
30
0
210
0
220
0
230
1
1
\W0.7152;7.25
40
3
41
0
44
1.084337
50
0
71
7
72
5
7
iso_b_vert
0
LINE
5
232
100
AcDbEntity
8
SK2
62
256
6
ByLayer
370
13
48
1
60
0
100
AcDbLine
10
0
20
-2
30
0
11
0
21
-20.257956
31
0
39
0
210
0
220
0
230
1
0
LINE
5
233
100
AcDbEntity
8
SK2
62
256
6
ByLayer
370
13
48
1
60
0
100
AcDbLine
10
7.249879
20
-12.388676
30
0
11
7.249879
21
-20.257956
31
0
39
0
210
0
220
0
230
1
0
LINE
5
234
100
AcDbEntity
8
SK2
62
256
6
ByLayer
370
13
48
1
60
0
100
AcDbLine
10
7.249879
20
-18.257956
30
0
11
-9.654428
21
-18.257956
31
0
39
0
210
0
220
0
230
1
0
SOLID
5
235
100
AcDbEntity
8
SK2
62
256
6
ByLayer
370
13
48
1
60
0
100
AcDbTrace
10
0
20
-18.257956
30
0
11
3.174998
21
-17.83996
31
0
12
3.175002
22
-18.675953
32
0
13
0
23
-18.257956
33
0
39
0
210
0
220
0
230
1
0
SOLID
5
236
100
AcDbEntity
8
SK2
62
256
6
ByLayer
370
13
48
1
60
0
100
AcDbTrace
10
7.249879
20
-18.257956
30
0
11
4.074881
21
-18.675953
31
0
12
4.074878
22
-17.83996
32
0
13
7.249879
23
-18.257956
33
0
39
0
210
0
220
0
230
1
0
ENDBLK
5
238
100
AcDbEntity
8
0
100
AcDbBlockEnd
0
ENDSEC
0
SECTION
2
ENTITIES
0
ARC
5
110
100
AcDbEntity
8
1
62
256
6
ByLayer
370
18
48
1
60
0
100
AcDbCircle
39
0
10
7.25
20
9.808495
30
0
40
5.6
210
0
220
0
230
1
100
AcDbArc
50
116.633644
51
145.528448
0
ARC
5
111
100
AcDbEntity
8
1
62
256
6
ByLayer
370
18
48
1
60
0
100
AcDbCircle
39
0
10
7.25
20
9.808495
30
0
40
5.6
210
0
220
0
230
1
100
AcDbArc
50
34.471552
51
63.366356
0
ARC
5
112
100
AcDbEntity
8
1
62
256
6
ByLayer
370
13
48
1
60
0
100
AcDbCircle
39
0
10
19.034102
20
7.30498
30
0
40
2.75
210
0
220
0
230
1
100
AcDbArc
50
216.4944
51
270.014509
0
ARC
5
113
100
AcDbEntity
8
1
62
256
6
ByLayer
370
13
48
1
60
0
100
AcDbCircle
39
0
10
19.034102
20
7.30498
30
0
40
1.75
210
0
220
0
230
1
100
AcDbArc
50
216.4944
51
270.01451
0
ELLIPSE
5
114
100
AcDbEntity
8
SK1
62
256
6
ByLayer
370
18
48
1
60
0
100
AcDbEllipse
10
7.25
20
-9.258666
30
0
11
3
21
0
31
0
210
0
220
0
230
1
40
0.258819
41
3.14159223947593
42
0
0
ELLIPSE
5
115
100
AcDbEntity
8
SK1
62
256
6
ByLayer
370
18
48
1
60
0
100
AcDbEllipse
10
7.25
20
-9.741629
30
0
11
2.5
21
0
31
0
210
0
220
0
230
1
40
0.258819
41
-2.8703352233831
42
-0.271354066058518
0
ELLIPSE
5
116
100
AcDbEntity
8
1
62
256
6
ByLayer
370
13
48
1
60
0
100
AcDbEllipse
10
29.592116
20
7.906255
30
0
11
0.0488006318304514
21
-0.799273735863381
31
0
210
0
220
0
230
-1
40
0.069624
41
-0.757798373091229
42
-0.15930710125055
0
ELLIPSE
5
117
100
AcDbEntity
8
1
62
256
6
ByLayer
370
13
48
1
60
0
100
AcDbEllipse
10
20.234467
20
7.875192
30
0
11
-0.219509772862077
21
2.08849598027338
31
0
210
0
220
0
230
1
40
0.997564
41
1.57079632679489
42
3.0866027354551
0
ELLIPSE
5
118
100
AcDbEntity
8
1
62
256
6
ByLayer
370
13
48
1
60
0
100
AcDbEllipse
10
18.90203
20
10.113671
30
0
11
0.713631153825146
21
0.881273866725151
31
0
210
0
220
0
230
-1
40
0.034819
41
2.3756956793805
42
2.44016898493536
0
ELLIPSE
5
119
100
AcDbEntity
8
1
62
256
6
ByLayer
370
13
48
1
60
0
100
AcDbEllipse
10
20.208335
20
8.123822
30
0
11
-0.219509772862074
21
2.08849598027336
31
0
210
0
220
0
230
1
40
0.997564
41
0.906754595796306
42
1.57079632679489
0
ELLIPSE
5
11A
100
AcDbEntity
8
1
62
256
6
ByLayer
370
18
48
1
60
0
100
AcDbEllipse
10
16.082307
20
8.377418
30
0
11
-0.678177786708113
21
0.86606864024492
31
0
210
0
220
0
230
1
40
0.069756
41
-3.07168853510308
42
-0.539273347647039
0
ELLIPSE
5
11B
100
AcDbEntity
8
1
62
256
6
ByLayer
370
18
48
1
60
0
100
AcDbEllipse
10
24.409961
20
13.140494
30
0
11
0.250868311842383
21
-2.38685254888386
31
0
210
0
220
0
230
1
40
0.997564
41
8.96802208982366E-05
42
3.14158423897441
0
ELLIPSE
5
11C
100
AcDbEntity
8
1
62
256
6
ByLayer
370
18
48
1
60
0
100
AcDbEllipse
10
25.169763
20
12.138737
30
0
11
0.265979034496294
21
0.193975297226774
31
0
210
0
220
0
230
-1
40
0.508805
41
2.43048354736709
42
-2.92932551712414
0
ELLIPSE
5
11D
100
AcDbEntity
8
1
62
256
6
ByLayer
370
18
48
1
60
0
100
AcDbEllipse
10
24.944883
20
14.278331
30
0
11
0.300496486461363
21
-0.134436320799815
31
0
210
0
220
0
230
-1
40
0.508805
41
2.92932551712384
42
-2.47814224466052
0
ELLIPSE
5
11E
100
AcDbEntity
8
1
62
256
6
ByLayer
370
18
48
1
60
0
100
AcDbEllipse
10
23.937477
20
12.009218
30
0
11
0.300496486461337
21
-0.13443632079982
31
0
210
0
220
0
230
-1
40
0.508805
41
0.663450026412879
42
-2.93222568891091
0
ELLIPSE
5
11F
100
AcDbEntity
8
1
62
256
6
ByLayer
370
18
48
1
60
0
100
AcDbEllipse
10
23.712596
20
14.148813
30
0
11
0.26597903449629
21
0.193975297226771
31
0
210
0
220
0
230
-1
40
0.508805
41
2.93222568891079
42
-0.711108735412131
0
ELLIPSE
5
120
100
AcDbEntity
8
1
62
256
6
ByLayer
370
18
48
1
60
0
100
AcDbEllipse
10
23.208893
20
13.014256
30
0
11
0.0344734871856636
21
-0.327993321092466
31
0
210
0
220
0
230
-1
40
0.506949
41
0.21086917452861
42
2.93072343352091
0
ELLIPSE
5
121
100
AcDbEntity
8
1
62
256
6
ByLayer
370
18
48
1
60
0
100
AcDbEllipse
10
24.44118
20
13.143775
30
0
11
-0.112305380934769
21
1.06851432438367
31
0
210
0
220
0
230
1
40
0.997564
41
-1.91524222099623
42
-1.20676426743387
0
ELLIPSE
5
122
100
AcDbEntity
8
1
62
256
6
ByLayer
370
18
48
1
60
0
100
AcDbEllipse
10
24.44118
20
13.143775
30
0
11
0.112305380934774
21
-1.06851432438367
31
0
210
0
220
0
230
1
40
0.997564
41
0
42
0.812363237196566
0
ELLIPSE
5
123
100
AcDbEntity
8
1
62
256
6
ByLayer
370
18
48
1
60
0
100
AcDbEllipse
10
24.44118
20
13.143775
30
0
11
-0.112305380934769
21
1.06851432438367
31
0
210
0
220
0
230
1
40
0.997564
41
0.109284663506102
42
1.04719755119662
0
ELLIPSE
5
124
100
AcDbEntity
8
1
62
256
6
ByLayer
370
18
48
1
60
0
100
AcDbEllipse
10
24.44118
20
13.143775
30
0
11
-0.112305380934769
21
1.06851432438367
31
0
210
0
220
0
230
1
40
0.997564
41
-0.809892961374491
42
-1.32590812470127E-14
0
ELLIPSE
5
125
100
AcDbEntity
8
1
62
256
6
ByLayer
370
18
48
1
60
0
100
AcDbEllipse
10
28.554977
20
8.358776
30
0
11
-1.03066457613004
21
9.80611840735786
31
0
210
0
220
0
230
1
40
0.997564
41
1.5707963267949
42
1.57989695571309
0
ELLIPSE
5
126
100
AcDbEntity
8
1
62
256
6
ByLayer
370
18
48
1
60
0
100
AcDbEllipse
10
21.272968
20
7.593406
30
0
11
-1.03066457613004
21
9.80611840735786
31
0
210
0
220
0
230
1
40
0.997564
41
-1.57989695571309
42
-1.5707963267949
0
ELLIPSE
5
127
100
AcDbEntity
8
1
62
256
6
ByLayer
370
18
48
1
60
0
100
AcDbEllipse
10
24.347392
20
13.133917
30
0
11
-0.334491082456496
21
3.18247006517848
31
0
210
0
220
0
230
1
40
0.997564
41
-1.40233808471402
42
-0.168458242080884
0
ELLIPSE
5
128
100
AcDbEntity
8
1
62
256
6
ByLayer
370
18
48
1
60
0
100
AcDbEllipse
10
26.238016
20
8.0695
30
0
11
-0.508022259791763
21
4.8335089305165
31
0
210
0
220
0
230
1
40
0.997564
41
-1.58969694879989
42
-1.57989695571309
0
ELLIPSE
5
129
100
AcDbEntity
8
1
62
256
6
ByLayer
370
18
48
1
60
0
100
AcDbEllipse
10
28.555401
20
8.35882
30
0
11
1.0452846326766
21
-9.94521895368274
31
0
210
0
220
0
230
1
40
0.997564
41
-1.5707963267949
42
-1.5616956978767
0
ELLIPSE
5
12A
100
AcDbEntity
8
1
62
256
6
ByLayer
370
18
48
1
60
0
100
AcDbEllipse
10
21.268527
20
7.642204
30
0
11
-1.03066457613006
21
9.80611840735805
31
0
210
0
220
0
230
1
40
0.997564
41
-1.60570291183478
42
-1.58969694879989
0
ELLIPSE
5
12B
100
AcDbEntity
8
1
62
256
6
ByLayer
370
18
48
1
60
0
100
AcDbEllipse
10
30.722385
20
8.302473
30
0
11
-0.0376441750873303
21
0.358160401359422
31
0
210
0
220
0
230
1
40
0.997564
41
-1.83259571459394
42
-1.60570291183477
0
ELLIPSE
5
12C
100
AcDbEntity
8
1
62
256
6
ByLayer
370
18
48
1
60
0
100
AcDbEllipse
10
21.174521
20
12.244101
30
0
11
0.0236644336325649
21
-0.225152046182971
31
0
210
0
220
0
230
1
40
0.997564
41
1.73925456887577
42
-1.57079632679496
0
ELLIPSE
5
12D
100
AcDbEntity
8
1
62
256
6
ByLayer
370
18
48
1
60
0
100
AcDbEllipse
10
30.229711
20
8.380813
30
0
11
-0.0899084067211601
21
0.855421349043579
31
0
210
0
220
0
230
1
40
0.997564
41
-2.87979326579062
42
-1.83259571459404
0
ELLIPSE
5
12E
100
AcDbEntity
8
1
62
256
6
ByLayer
370
18
48
1
60
0
100
AcDbEllipse
10
30.408581
20
7.91399
30
0
11
-0.0376441750873303
21
0.358160401359422
31
0
210
0
220
0
230
1
40
0.997564
41
-3.10668606854987
42
-2.87979326579062
0
ELLIPSE
5
12F
100
AcDbEntity
8
1
62
256
6
ByLayer
370
18
48
1
60
0
100
AcDbEllipse
10
29.08724
20
17.321621
30
0
11
-1.03066457613006
21
9.80611840735805
31
0
210
0
220
0
230
1
40
0.997564
41
-3.1226920315848
42
-3.10668606854991
0
ELLIPSE
5
130
100
AcDbEntity
8
1
62
256
6
ByLayer
370
18
48
1
60
0
100
AcDbEllipse
10
24.556246
20
16.427075
30
0
11
0.010452846326766
21
-0.0994521895368271
31
0
210
0
220
0
230
1
40
0.997564
41
3.14159265358979
42
-0.168458242080832
0
ELLIPSE
5
131
100
AcDbEntity
8
1
62
256
6
ByLayer
370
18
48
1
60
0
100
AcDbEllipse
10
24.379889
20
13.137333
30
0
11
-0.278364087565401
21
2.64845738006432
31
0
210
0
220
0
230
1
40
0.997564
41
0
42
6.28318530717959
0
ELLIPSE
5
132
100
AcDbEntity
8
1
62
256
6
ByLayer
370
18
48
1
60
0
100
AcDbEllipse
10
29.135776
20
17.327412
30
0
11
-1.03066457613004
21
9.80611840735786
31
0
210
0
220
0
230
1
40
0.997564
41
-3.14159265358979
42
-3.1324920246716
0
ELLIPSE
5
133
100
AcDbEntity
8
1
62
256
6
ByLayer
370
18
48
1
60
0
100
AcDbEllipse
10
25.236368
20
9.956146
30
0
11
-0.0104528463267654
21
0.0994521895368265
31
0
210
0
220
0
230
1
40
0.997564
41
0.168458242080943
42
-3.14159265358965
0
ELLIPSE
5
134
100
AcDbEntity
8
1
62
256
6
ByLayer
370
18
48
1
60
0
100
AcDbEllipse
10
23.599866
20
7.792219
30
0
11
0.522642316338281
21
-4.97260947684118
31
0
210
0
220
0
230
1
40
0.997564
41
-1.5616956978767
42
-1.5518957047899
0
ELLIPSE
5
135
100
AcDbEntity
8
1
62
256
6
ByLayer
370
18
48
1
60
0
100
AcDbEllipse
10
18.888856
20
16.249728
30
0
11
-1.03066457613006
21
9.80611840735805
31
0
210
0
220
0
230
1
40
0.997564
41
3.10668606854991
42
3.1226920315848
0
ELLIPSE
5
136
100
AcDbEntity
8
1
62
256
6
ByLayer
370
18
48
1
60
0
100
AcDbEllipse
10
19.552346
20
6.772953
30
0
11
-0.0376441750873303
21
0.358160401359422
31
0
210
0
220
0
230
1
40
0.997564
41
2.87979326579069
42
3.10668606854991
0
ELLIPSE
5
137
100
AcDbEntity
8
1
62
256
6
ByLayer
370
18
48
1
60
0
100
AcDbEllipse
10
19.164629
20
7.087704
30
0
11
-0.0376441750873303
21
0.358160401359422
31
0
210
0
220
0
230
1
40
0.997564
41
1.60570291183485
42
1.83259571459403
0
ELLIPSE
5
138
100
AcDbEntity
8
1
62
256
6
ByLayer
370
18
48
1
60
0
100
AcDbEllipse
10
23.458415
20
16.311689
30
0
11
0.010452846326766
21
-0.0994521895368271
31
0
210
0
220
0
230
1
40
0.997564
41
0.168458242080691
42
3.14159265358979
0
ELLIPSE
5
139
100
AcDbEntity
8
1
62
256
6
ByLayer
370
18
48
1
60
0
100
AcDbEllipse
10
22.5056
20
18.203467
30
0
11
0.522642316338281
21
-4.97260947684118
31
0
210
0
220
0
230
1
40
0.997564
41
-1.58969694879989
42
-1.57989695571309
0
ELLIPSE
5
13A
100
AcDbEntity
8
1
62
256
6
ByLayer
370
18
48
1
60
0
100
AcDbEllipse
10
27.475088
20
18.630763
30
0
11
1.0452846326766
21
-9.94521895368276
31
0
210
0
220
0
230
1
40
0.997564
41
-1.60570291183479
42
-1.5896969487999
0
ELLIPSE
5
13B
100
AcDbEntity
8
1
62
256
6
ByLayer
370
18
48
1
60
0
100
AcDbEllipse
10
29.70354
20
12.359753
30
0
11
-0.508022259791763
21
4.8335089305165
31
0
210
0
220
0
230
1
40
0.997564
41
-3.1324920246716
42
-3.1226920315848
0
ELLIPSE
5
13C
100
AcDbEntity
8
1
62
256
6
ByLayer
370
18
48
1
60
0
100
AcDbEllipse
10
18.02123
20
17.970494
30
0
11
0.0522642316338302
21
-0.497260947684138
31
0
210
0
220
0
230
1
40
0.997564
41
-1.83259571459398
42
-1.60570291183476
0
ELLIPSE
5
13D
100
AcDbEntity
8
1
62
256
6
ByLayer
370
18
48
1
60
0
100
AcDbEllipse
10
24.347392
20
13.133917
30
0
11
0.334491082456512
21
-3.18247006517847
31
0
210
0
220
0
230
1
40
0.997564
41
0.168458242080865
42
1.402338084714
0
ELLIPSE
5
13E
100
AcDbEntity
8
1
62
256
6
ByLayer
370
18
48
1
60
0
100
AcDbEllipse
10
19.630673
20
7.266809
30
0
11
0.10452846326766
21
-0.994521895368272
31
0
210
0
220
0
230
1
40
0.997564
41
-1.30899693899576
42
-0.261799387799143
0
ELLIPSE
5
13F
100
AcDbEntity
8
1
62
256
6
ByLayer
370
18
48
1
60
0
100
AcDbEllipse
10
20.88941
20
15.941124
30
0
11
0.0209056926535321
21
-0.198904379073655
31
0
210
0
220
0
230
1
40
0.997564
41
3.14159265358979
42
-1.5707963267949
0
ELLIPSE
5
140
100
AcDbEntity
8
1
62
256
6
ByLayer
370
18
48
1
60
0
100
AcDbEllipse
10
24.347392
20
13.133917
30
0
11
0.334491082456512
21
-3.18247006517847
31
0
210
0
220
0
230
1
40
0.997564
41
-1.40233808471402
42
-0.168458242080885
0
ELLIPSE
5
141
100
AcDbEntity
8
1
62
256
6
ByLayer
370
18
48
1
60
0
100
AcDbEllipse
10
27.146157
20
16.598735
30
0
11
0.0209056926535321
21
-0.198904379073655
31
0
210
0
220
0
230
1
40
0.997564
41
1.57079632679483
42
3.14159265358979
0
ELLIPSE
5
142
100
AcDbEntity
8
1
62
256
6
ByLayer
370
18
48
1
60
0
100
AcDbEllipse
10
18.8406
20
16.245345
30
0
11
1.0452846326766
21
-9.94521895368274
31
0
210
0
220
0
230
1
40
0.997564
41
-0.00910062891819074
42
1.42455568917904E-15
0
ELLIPSE
5
143
100
AcDbEntity
8
1
62
256
6
ByLayer
370
18
48
1
60
0
100
AcDbEllipse
10
19.318078
20
11.268197
30
0
11
0.522642316338281
21
-4.97260947684118
31
0
210
0
220
0
230
1
40
0.997564
41
-0.0189006220049955
42
-0.00910062891819074
0
ELLIPSE
5
144
100
AcDbEntity
8
1
62
256
6
ByLayer
370
18
48
1
60
0
100
AcDbEllipse
10
18.889279
20
16.249772
30
0
11
1.0452846326766
21
-9.94521895368276
31
0
210
0
220
0
230
1
40
0.997564
41
-0.0349065850398828
42
-0.0189006220049962
0
ELLIPSE
5
145
100
AcDbEntity
8
1
62
256
6
ByLayer
370
18
48
1
60
0
100
AcDbEllipse
10
28.549599
20
8.407475
30
0
11
1.0452846326766
21
-9.94521895368276
31
0
210
0
220
0
230
1
40
0.997564
41
-1.5518957047899
42
-1.53588974175501
0
ELLIPSE
5
146
100
AcDbEntity
8
1
62
256
6
ByLayer
370
18
48
1
60
0
100
AcDbEllipse
10
21.555657
20
9.468737
30
0
11
0.0209056926535319
21
-0.198904379073655
31
0
210
0
220
0
230
1
40
0.069756
41
0.886715094999985
42
1.5707963267949
0
ELLIPSE
5
147
100
AcDbEntity
8
1
62
256
6
ByLayer
370
18
48
1
60
0
100
AcDbEllipse
10
19.165053
20
7.087748
30
0
11
0.0522642316338302
21
-0.497260947684138
31
0
210
0
220
0
230
1
40
0.997564
41
-1.53588974175503
42
-1.30899693899584
0
ELLIPSE
5
148
100
AcDbEntity
8
1
62
256
6
ByLayer
370
18
48
1
60
0
100
AcDbEllipse
10
23.434087
20
16.409683
30
0
11
0.0209056926535319
21
-0.198904379073655
31
0
210
0
220
0
230
1
40
0.069756
41
1.57079632679483
42
2.25487755858994
0
ELLIPSE
5
149
100
AcDbEntity
8
1
62
256
6
ByLayer
370
18
48
1
60
0
100
AcDbEllipse
10
24.135115
20
9.739849
30
0
11
-0.020905692653531
21
0.198904379073655
31
0
210
0
220
0
230
1
40
0.069756
41
-2.25487755858977
42
-1.57079632679483
0
ELLIPSE
5
14A
100
AcDbEntity
8
1
62
256
6
ByLayer
370
18
48
1
60
0
100
AcDbEllipse
10
24.34427
20
13.133589
30
0
11
-0.321279495150698
21
3.05677020853233
31
0
210
0
220
0
230
1
40
0.997564
41
-2.97313441150893
42
-1.73925456887579
0
ELLIPSE
5
14B
100
AcDbEntity
8
1
62
256
6
ByLayer
370
18
48
1
60
0
100
AcDbEllipse
10
27.519376
20
12.92783
30
0
11
0.199598991429618
21
-0.0126586974163732
31
0
210
0
220
0
230
1
40
0.011696
41
1.5019682612834
42
2.18604949307878
0
ELLIPSE
5
14C
100
AcDbEntity
8
1
62
256
6
ByLayer
370
18
48
1
60
0
100
AcDbEllipse
10
19.552769
20
6.772998
30
0
11
0.0522642316338302
21
-0.497260947684138
31
0
210
0
220
0
230
1
40
0.997564
41
-0.261799387799088
42
-0.0349065850398417
0
ELLIPSE
5
14D
100
AcDbEntity
8
1
62
256
6
ByLayer
370
18
48
1
60
0
100
AcDbEllipse
10
24.531918
20
16.525069
30
0
11
-0.020905692653531
21
0.198904379073655
31
0
210
0
220
0
230
1
40
0.069756
41
-1.57079632679483
42
-0.886715094999836
0
ELLIPSE
5
14E
100
AcDbEntity
8
1
62
256
6
ByLayer
370
18
48
1
60
0
100
AcDbEllipse
10
22.505176
20
18.203422
30
0
11
-0.508022259791763
21
4.8335089305165
31
0
210
0
220
0
230
1
40
0.997564
41
1.5518957047899
42
1.56169569787671
0
ELLIPSE
5
14F
100
AcDbEntity
8
1
62
256
6
ByLayer
370
18
48
1
60
0
100
AcDbEllipse
10
25.195554
20
10.050983
30
0
11
0.0540363099516291
21
-0.19256187890341
31
0
210
0
220
0
230
1
40
0.068769
41
1.55907275174681
42
2.24315398354196
0
ELLIPSE
5
150
100
AcDbEntity
8
1
62
256
6
ByLayer
370
18
48
1
60
0
100
AcDbEllipse
10
27.632809
20
12.922894
30
0
11
-0.0104528463267655
21
0.0994521895368271
31
0
210
0
220
0
230
1
40
0.997564
41
-1.57079632679475
42
1.40233808471412
0
ELLIPSE
5
151
100
AcDbEntity
8
1
62
256
6
ByLayer
370
18
48
1
60
0
100
AcDbEllipse
10
27.474664
20
18.630718
30
0
11
-1.03066457613006
21
9.80611840735805
31
0
210
0
220
0
230
1
40
0.997564
41
1.53588974175501
42
1.5518957047899
0
ELLIPSE
5
152
100
AcDbEntity
8
1
62
256
6
ByLayer
370
18
48
1
60
0
100
AcDbEllipse
10
18.020806
20
17.970449
30
0
11
-0.0376441750873303
21
0.358160401359422
31
0
210
0
220
0
230
1
40
0.997564
41
1.30899693899581
42
1.53588974175498
0
ELLIPSE
5
153
100
AcDbEntity
8
1
62
256
6
ByLayer
370
18
48
1
60
0
100
AcDbEllipse
10
18.513481
20
17.892109
30
0
11
-0.0899084067211601
21
0.855421349043579
31
0
210
0
220
0
230
1
40
0.997564
41
0.26179938779914
42
1.30899693899575
0
ELLIPSE
5
154
100
AcDbEntity
8
1
62
256
6
ByLayer
370
18
48
1
60
0
100
AcDbEllipse
10
18.33461
20
18.358932
30
0
11
-0.0376441750873303
21
0.358160401359422
31
0
210
0
220
0
230
1
40
0.997564
41
0.0349065850399277
42
0.261799387799101
0
ELLIPSE
5
155
100
AcDbEntity
8
1
62
256
6
ByLayer
370
18
48
1
60
0
100
AcDbEllipse
10
27.805373
20
10.32671
30
0
11
-0.0209056926535311
21
0.198904379073655
31
0
210
0
220
0
230
1
40
0.997564
41
3.14159265358979
42
-1.5707963267949
0
ELLIPSE
5
156
100
AcDbEntity
8
1
62
256
6
ByLayer
370
18
48
1
60
0
100
AcDbEllipse
10
19.039651
20
13.913169
30
0
11
-0.508022259791763
21
4.8335089305165
31
0
210
0
220
0
230
1
40
0.997564
41
0.00910062891819755
42
0.0189006220049994
0
ELLIPSE
5
157
100
AcDbEntity
8
1
62
256
6
ByLayer
370
18
48
1
60
0
100
AcDbEllipse
10
20.854629
20
16.138571
30
0
11
-0.020905692653531
21
0.198904379073655
31
0
210
0
220
0
230
1
40
0.069756
41
-1.5707963267949
42
-0.886715094999345
0
ELLIPSE
5
158
100
AcDbEntity
8
1
62
256
6
ByLayer
370
18
48
1
60
0
100
AcDbEllipse
10
19.607415
20
8.94551
30
0
11
-1.03066457613004
21
9.80611840735786
31
0
210
0
220
0
230
1
40
0.997564
41
0
42
0.00910062891819249
0
ELLIPSE
5
159
100
AcDbEntity
8
1
62
256
6
ByLayer
370
18
48
1
60
0
100
AcDbEllipse
10
27.111376
20
16.796181
30
0
11
0.0209056926535319
21
-0.198904379073655
31
0
210
0
220
0
230
1
40
0.069756
41
1.5707963267949
42
2.25487755858996
0
ELLIPSE
5
15A
100
AcDbEntity
8
1
62
256
6
ByLayer
370
18
48
1
60
0
100
AcDbEllipse
10
25.232946
20
9.855235
30
0
11
0.0209056926535319
21
-0.198904379073655
31
0
210
0
220
0
230
1
40
0.069756
41
0.886715094999808
42
1.5707963267949
0
ELLIPSE
5
15B
100
AcDbEntity
8
1
62
256
6
ByLayer
370
18
48
1
60
0
100
AcDbEllipse
10
24.34427
20
13.133589
30
0
11
-0.282116967194849
21
2.68416364461171
31
0
210
0
220
0
230
1
40
0.997564
41
0
42
6.28318530717959
0
ELLIPSE
5
15C
100
AcDbEntity
8
1
62
256
6
ByLayer
370
18
48
1
60
0
100
AcDbEllipse
10
21.147657
20
13.337087
30
0
11
-0.199598991429618
21
0.012658697416373
31
0
210
0
220
0
230
1
40
0.011696
41
-2.3237056241058
42
-1.63962439230683
0
ELLIPSE
5
15D
100
AcDbEntity
8
1
62
256
6
ByLayer
370
18
48
1
60
0
100
AcDbEllipse
10
24.401016
20
13.139553
30
0
11
-0.264604505792558
21
2.51754370433981
31
0
210
0
220
0
230
1
40
0.997564
41
0
42
6.28318530717959
0
ELLIPSE
5
15E
100
AcDbEntity
8
1
62
256
6
ByLayer
370
18
48
1
60
0
100
AcDbEllipse
10
29.578986
20
19.185263
30
0
11
0.0522642316338302
21
-0.497260947684138
31
0
210
0
220
0
230
1
40
0.997564
41
1.60570291183482
42
1.832595714594
0
ELLIPSE
5
15F
100
AcDbEntity
8
1
62
256
6
ByLayer
370
18
48
1
60
0
100
AcDbEllipse
10
23.471479
20
16.213934
30
0
11
-0.0540363099516291
21
0.19256187890341
31
0
210
0
220
0
230
1
40
0.068769
41
-2.26660113363715
42
-1.5825199018429
0
ELLIPSE
5
160
100
AcDbEntity
8
1
62
256
6
ByLayer
370
18
48
1
60
0
100
AcDbEllipse
10
21.177642
20
12.244429
30
0
11
-0.0104528463267654
21
0.0994521895368265
31
0
210
0
220
0
230
1
40
0.997564
41
-1.40233808471397
42
1.5707963267949
0
ELLIPSE
5
161
100
AcDbEntity
8
1
62
256
6
ByLayer
370
18
48
1
60
0
100
AcDbEllipse
10
27.629687
20
12.922566
30
0
11
0.0236644336325649
21
-0.225152046182971
31
0
210
0
220
0
230
1
40
0.997564
41
1.5707963267949
42
-1.73925456887571
0
ELLIPSE
5
162
100
AcDbEntity
8
1
62
256
6
ByLayer
370
18
48
1
60
0
100
AcDbEllipse
10
24.536042
20
16.325824
30
0
11
-0.0128196211018405
21
-0.19958872040976
31
0
210
0
220
0
230
1
40
0.068769
41
0.898438670048609
42
1.58251990184291
0
ELLIPSE
5
163
100
AcDbEntity
8
1
62
256
6
ByLayer
370
18
48
1
60
0
100
AcDbEllipse
10
25.233246
20
9.955818
30
0
11
0.0236644336325649
21
-0.225152046182971
31
0
210
0
220
0
230
1
40
0.997564
41
-2.97313441150888
42
-6.29242260098612E-14
0
ELLIPSE
5
164
100
AcDbEntity
8
1
62
256
6
ByLayer
370
18
48
1
60
0
100
AcDbEllipse
10
19.655951
20
8.951301
30
0
11
-1.03066457613006
21
9.80611840735805
31
0
210
0
220
0
230
1
40
0.997564
41
0.0189006220049978
42
0.0349065850398862
0
ELLIPSE
5
165
100
AcDbEntity
8
1
62
256
6
ByLayer
370
18
48
1
60
0
100
AcDbEllipse
10
24.34427
20
13.133589
30
0
11
-0.321279495150698
21
3.05677020853233
31
0
210
0
220
0
230
1
40
0.997564
41
1.73925456887577
42
2.97313441150891
0
ELLIPSE
5
166
100
AcDbEntity
8
1
62
256
6
ByLayer
370
18
48
1
60
0
100
AcDbEllipse
10
18.840176
20
16.245301
30
0
11
-1.03066457613004
21
9.80611840735786
31
0
210
0
220
0
230
1
40
0.997564
41
3.1324920246716
42
-3.14159265358979
0
ELLIPSE
5
167
100
AcDbEntity
8
1
62
256
6
ByLayer
370
18
48
1
60
0
100
AcDbEllipse
10
19.630249
20
7.266765
30
0
11
-0.0899084067211601
21
0.855421349043579
31
0
210
0
220
0
230
1
40
0.997564
41
1.83259571459405
42
2.87979326579063
0
ELLIPSE
5
168
100
AcDbEntity
8
1
62
256
6
ByLayer
370
18
48
1
60
0
100
AcDbEllipse
10
28.549175
20
8.407431
30
0
11
-1.03066457613006
21
9.80611840735805
31
0
210
0
220
0
230
1
40
0.997564
41
1.58969694879989
42
1.60570291183478
0
ELLIPSE
5
169
100
AcDbEntity
8
1
62
256
6
ByLayer
370
18
48
1
60
0
100
AcDbEllipse
10
27.812404
20
10.126347
30
0
11
0.0209056926535319
21
-0.198904379073655
31
0
210
0
220
0
230
1
40
0.069756
41
0.886715094999386
42
1.57079632679497
0
ELLIPSE
5
16A
100
AcDbEntity
8
1
62
256
6
ByLayer
370
18
48
1
60
0
100
AcDbEllipse
10
29.903439
20
10.027666
30
0
11
1.0452846326766
21
-9.94521895368274
31
0
210
0
220
0
230
1
40
0.997564
41
3.1324920246716
42
3.14159265358979
0
ELLIPSE
5
16B
100
AcDbEntity
8
1
62
256
6
ByLayer
370
18
48
1
60
0
100
AcDbEllipse
10
29.425961
20
15.004814
30
0
11
0.522642316338281
21
-4.97260947684118
31
0
210
0
220
0
230
1
40
0.997564
41
3.1226920315848
42
3.1324920246716
0
ELLIPSE
5
16C
100
AcDbEntity
8
1
62
256
6
ByLayer
370
18
48
1
60
0
100
AcDbEllipse
10
29.854759
20
10.023239
30
0
11
1.0452846326766
21
-9.94521895368276
31
0
210
0
220
0
230
1
40
0.997564
41
3.10668606854991
42
3.1226920315848
0
ELLIPSE
5
16D
100
AcDbEntity
8
1
62
256
6
ByLayer
370
18
48
1
60
0
100
AcDbEllipse
10
29.19127
20
19.500013
30
0
11
0.0522642316338302
21
-0.497260947684138
31
0
210
0
220
0
230
1
40
0.997564
41
2.87979326579069
42
3.10668606854987
0
ELLIPSE
5
16E
100
AcDbEntity
8
1
62
256
6
ByLayer
370
18
48
1
60
0
100
AcDbEllipse
10
20.188638
20
17.914191
30
0
11
1.0452846326766
21
-9.94521895368274
31
0
210
0
220
0
230
1
40
0.997564
41
1.57079632679489
42
1.57989695571309
0
ELLIPSE
5
16F
100
AcDbEntity
8
1
62
256
6
ByLayer
370
18
48
1
60
0
100
AcDbEllipse
10
24.130991
20
9.939093
30
0
11
-0.0128196211018405
21
-0.19958872040976
31
0
210
0
220
0
230
1
40
0.068769
41
1.58251990184298
42
2.26660113363779
0
ELLIPSE
5
170
100
AcDbEntity
8
1
62
256
6
ByLayer
370
18
48
1
60
0
100
AcDbEllipse
10
25.144173
20
18.480792
30
0
11
0.522642316338281
21
-4.97260947684118
31
0
210
0
220
0
230
1
40
0.997564
41
1.57989695571309
42
1.58969694879989
0
ELLIPSE
5
171
100
AcDbEntity
8
1
62
256
6
ByLayer
370
18
48
1
60
0
100
AcDbEllipse
10
29.113366
20
19.006202
30
0
11
0.10452846326766
21
-0.994521895368272
31
0
210
0
220
0
230
1
40
0.997564
41
1.83259571459403
42
2.87979326579063
0
ELLIPSE
5
172
100
AcDbEntity
8
1
62
256
6
ByLayer
370
18
48
1
60
0
100
AcDbEllipse
10
20.19444
20
17.865536
30
0
11
1.0452846326766
21
-9.94521895368276
31
0
210
0
220
0
230
1
40
0.997564
41
1.58969694879989
42
1.60570291183478
0
ELLIPSE
5
173
100
AcDbEntity
8
1
62
256
6
ByLayer
370
18
48
1
60
0
100
AcDbEllipse
10
29.903015
20
10.027621
30
0
11
-1.03066457613004
21
9.80611840735786
31
0
210
0
220
0
230
1
40
0.997564
41
-0.0091006289181923
42
1.44476312155986E-15
0
ELLIPSE
5
174
100
AcDbEntity
8
1
62
256
6
ByLayer
370
18
48
1
60
0
100
AcDbEllipse
10
24.138537
20
9.840759
30
0
11
-0.0104528463267655
21
0.0994521895368271
31
0
210
0
220
0
230
1
40
0.997564
41
3.14159265358979
42
-0.168458242080797
0
ELLIPSE
5
175
100
AcDbEntity
8
1
62
256
6
ByLayer
370
18
48
1
60
0
100
AcDbEllipse
10
29.425538
20
15.00477
30
0
11
-0.508022259791763
21
4.8335089305165
31
0
210
0
220
0
230
1
40
0.997564
41
-0.0189006220049972
42
-0.00910062891818986
0
ELLIPSE
5
176
100
AcDbEntity
8
1
62
256
6
ByLayer
370
18
48
1
60
0
100
AcDbEllipse
10
29.854336
20
10.023195
30
0
11
-1.03066457613006
21
9.80611840735805
31
0
210
0
220
0
230
1
40
0.997564
41
-0.0349065850398827
42
-0.0189006220049954
0
ELLIPSE
5
177
100
AcDbEntity
8
1
62
256
6
ByLayer
370
18
48
1
60
0
100
AcDbEllipse
10
29.190846
20
19.499969
30
0
11
-0.0376441750873303
21
0.358160401359422
31
0
210
0
220
0
230
1
40
0.997564
41
-0.261799387799048
42
-0.0349065850398387
0
ELLIPSE
5
178
100
AcDbEntity
8
1
62
256
6
ByLayer
370
18
48
1
60
0
100
AcDbEllipse
10
27.407213
20
13.994993
30
0
11
-0.192605383392377
21
-0.0538810382999011
31
0
210
0
220
0
230
1
40
0.011696
41
0.955543160514856
42
1.63962439230636
0
ELLIPSE
5
179
100
AcDbEntity
8
1
62
256
6
ByLayer
370
18
48
1
60
0
100
AcDbEllipse
10
29.112942
20
19.006158
30
0
11
-0.0899084067211601
21
0.855421349043579
31
0
210
0
220
0
230
1
40
0.997564
41
-1.30899693899571
42
-0.261799387799123
0
ELLIPSE
5
17A
100
AcDbEntity
8
1
62
256
6
ByLayer
370
18
48
1
60
0
100
AcDbEllipse
10
27.802251
20
10.326382
30
0
11
0.034117279959331
21
-0.324604235719799
31
0
210
0
220
0
230
1
40
0.997564
41
0
42
1.5707963267949
0
ELLIPSE
5
17B
100
AcDbEntity
8
1
62
256
6
ByLayer
370
18
48
1
60
0
100
AcDbEllipse
10
29.578562
20
19.185219
30
0
11
-0.0376441750873303
21
0.358160401359422
31
0
210
0
220
0
230
1
40
0.997564
41
-1.53588974175494
42
-1.30899693899572
0
ELLIPSE
5
17C
100
AcDbEntity
8
1
62
256
6
ByLayer
370
18
48
1
60
0
100
AcDbEllipse
10
20.194017
20
17.865492
30
0
11
-1.03066457613006
21
9.80611840735805
31
0
210
0
220
0
230
1
40
0.997564
41
-1.5518957047899
42
-1.53588974175501
0
ELLIPSE
5
17D
100
AcDbEntity
8
1
62
256
6
ByLayer
370
18
48
1
60
0
100
AcDbEllipse
10
25.143749
20
18.480747
30
0
11
-0.508022259791763
21
4.8335089305165
31
0
210
0
220
0
230
1
40
0.997564
41
-1.5616956978767
42
-1.5518957047899
0
ELLIPSE
5
17E
100
AcDbEntity
8
1
62
256
6
ByLayer
370
18
48
1
60
0
100
AcDbEllipse
10
24.135415
20
9.840431
30
0
11
0.0236644336325649
21
-0.225152046182971
31
0
210
0
220
0
230
1
40
0.997564
41
0
42
2.97313441150894
0
ELLIPSE
5
17F
100
AcDbEntity
8
1
62
256
6
ByLayer
370
18
48
1
60
0
100
AcDbEllipse
10
20.188215
20
17.914147
30
0
11
-1.03066457613004
21
9.80611840735786
31
0
210
0
220
0
230
1
40
0.997564
41
-1.5707963267949
42
-1.5616956978767
0
ELLIPSE
5
180
100
AcDbEntity
8
1
62
256
6
ByLayer
370
18
48
1
60
0
100
AcDbEllipse
10
24.553124
20
16.426747
30
0
11
0.0236644336325649
21
-0.225152046182971
31
0
210
0
220
0
230
1
40
0.997564
41
3.14159265358979
42
-0.168458242080848
0
ELLIPSE
5
181
100
AcDbEntity
8
1
62
256
6
ByLayer
370
18
48
1
60
0
100
AcDbEllipse
10
27.143035
20
16.598407
30
0
11
0.034117279959331
21
-0.324604235719799
31
0
210
0
220
0
230
1
40
0.997564
41
1.57079632679485
42
3.14159265358979
0
ELLIPSE
5
182
100
AcDbEntity
8
1
62
256
6
ByLayer
370
18
48
1
60
0
100
AcDbEllipse
10
24.34427
20
13.133589
30
0
11
-0.321279495150698
21
3.05677020853233
31
0
210
0
220
0
230
1
40
0.997564
41
-1.40233808471402
42
-0.168458242080884
0
ELLIPSE
5
183
100
AcDbEntity
8
1
62
256
6
ByLayer
370
18
48
1
60
0
100
AcDbEllipse
10
27.514019
20
14.023077
30
0
11
0.0236644336325649
21
-0.225152046182971
31
0
210
0
220
0
230
1
40
0.997564
41
-1.40233808471402
42
1.57079632679483
0
ELLIPSE
5
184
100
AcDbEntity
8
1
62
256
6
ByLayer
370
18
48
1
60
0
100
AcDbEllipse
10
19.317654
20
11.268153
30
0
11
-0.508022259791763
21
4.8335089305165
31
0
210
0
220
0
230
1
40
0.997564
41
3.12269203158479
42
3.1324920246716
0
ELLIPSE
5
185
100
AcDbEntity
8
1
62
256
6
ByLayer
370
18
48
1
60
0
100
AcDbEllipse
10
23.455293
20
16.311361
30
0
11
0.0236644336325649
21
-0.225152046182971
31
0
210
0
220
0
230
1
40
0.997564
41
0.16845824208091
42
-3.14159265358973
0
ELLIPSE
5
186
100
AcDbEntity
8
1
62
256
6
ByLayer
370
18
48
1
60
0
100
AcDbEllipse
10
20.886288
20
15.940796
30
0
11
0.034117279959331
21
-0.324604235719799
31
0
210
0
220
0
230
1
40
0.997564
41
3.14159265358975
42
-1.5707963267949
0
ELLIPSE
5
187
100
AcDbEntity
8
1
62
256
6
ByLayer
370
18
48
1
60
0
100
AcDbEllipse
10
24.34427
20
13.133589
30
0
11
-0.321279495150698
21
3.05677020853233
31
0
210
0
220
0
230
1
40
0.997564
41
0.168458242080873
42
1.40233808471402
0
ELLIPSE
5
188
100
AcDbEntity
8
1
62
256
6
ByLayer
370
18
48
1
60
0
100
AcDbEllipse
10
21.058852
20
13.344612
30
0
11
0.0236644336325649
21
-0.225152046182971
31
0
210
0
220
0
230
1
40
0.997564
41
-1.5707963267949
42
1.40233808471404
0
ELLIPSE
5
189
100
AcDbEntity
8
1
62
256
6
ByLayer
370
18
48
1
60
0
100
AcDbEllipse
10
23.599442
20
7.792175
30
0
11
-0.508022259791763
21
4.8335089305165
31
0
210
0
220
0
230
1
40
0.997564
41
1.5798969557131
42
1.5896969487999
0
ELLIPSE
5
18A
100
AcDbEntity
8
1
62
256
6
ByLayer
370
18
48
1
60
0
100
AcDbEllipse
10
30.409005
20
7.914034
30
0
11
0.0522642316338302
21
-0.497260947684138
31
0
210
0
220
0
230
1
40
0.997564
41
0.0349065850398702
42
0.2617993877991
0
ELLIPSE
5
18B
100
AcDbEntity
8
1
62
256
6
ByLayer
370
18
48
1
60
0
100
AcDbEllipse
10
18.335034
20
18.358977
30
0
11
0.0522642316338302
21
-0.497260947684138
31
0
210
0
220
0
230
1
40
0.997564
41
-3.1066860685499
42
-2.87979326579067
0
ELLIPSE
5
18C
100
AcDbEntity
8
1
62
256
6
ByLayer
370
18
48
1
60
0
100
AcDbEllipse
10
21.061974
20
13.34494
30
0
11
0.0104528463267659
21
-0.0994521895368264
31
0
210
0
220
0
230
1
40
0.997564
41
-1.5707963267949
42
1.40233808471426
0
ELLIPSE
5
18D
100
AcDbEntity
8
1
62
256
6
ByLayer
370
18
48
1
60
0
100
AcDbEllipse
10
21.259821
20
12.269925
30
0
11
-0.192605383392377
21
-0.0538810382999011
31
0
210
0
220
0
230
1
40
0.011696
41
1.63962439230699
42
2.32370562410145
0
ELLIPSE
5
18E
100
AcDbEntity
8
1
62
256
6
ByLayer
370
18
48
1
60
0
100
AcDbEllipse
10
27.517141
20
14.023406
30
0
11
0.0104528463267659
21
-0.0994521895368264
31
0
210
0
220
0
230
1
40
0.997564
41
-1.40233808471397
42
1.57079632679461
0
ELLIPSE
5
18F
100
AcDbEntity
8
1
62
256
6
ByLayer
370
18
48
1
60
0
100
AcDbEllipse
10
21.548626
20
9.669099
30
0
11
-0.0209056926535311
21
0.198904379073655
31
0
210
0
220
0
230
1
40
0.997564
41
1.5707963267949
42
3.14159265358979
0
ELLIPSE
5
190
100
AcDbEntity
8
1
62
256
6
ByLayer
370
18
48
1
60
0
100
AcDbEllipse
10
21.545504
20
9.668771
30
0
11
0.034117279959331
21
-0.324604235719799
31
0
210
0
220
0
230
1
40
0.997564
41
-1.57079632679494
42
-8.72910250797187E-14
0
ELLIPSE
5
191
100
AcDbEntity
8
1
62
256
6
ByLayer
370
18
48
1
60
0
100
AcDbEllipse
10
24.347392
20
13.133917
30
0
11
-0.334491082456496
21
3.18247006517848
31
0
210
0
220
0
230
1
40
0.997564
41
0.168458242080874
42
1.40233808471402
0
ELLIPSE
5
192
100
AcDbEntity
8
1
62
256
6
ByLayer
370
18
48
1
60
0
100
AcDbEllipse
10
19.607839
20
8.945555
30
0
11
1.0452846326766
21
-9.94521895368274
31
0
210
0
220
0
230
1
40
0.997564
41
3.14159265358979
42
-3.1324920246716
0
ELLIPSE
5
193
100
AcDbEntity
8
1
62
256
6
ByLayer
370
18
48
1
60
0
100
AcDbEllipse
10
21.273392
20
7.59345
30
0
11
1.0452846326766
21
-9.94521895368274
31
0
210
0
220
0
230
1
40
0.997564
41
1.5616956978767
42
1.5707963267949
0
ELLIPSE
5
194
100
AcDbEntity
8
1
62
256
6
ByLayer
370
18
48
1
60
0
100
AcDbEllipse
10
19.040075
20
13.913214
30
0
11
0.522642316338281
21
-4.97260947684118
31
0
210
0
220
0
230
1
40
0.997564
41
-3.1324920246716
42
-3.1226920315848
0
ELLIPSE
5
195
100
AcDbEntity
8
1
62
256
6
ByLayer
370
18
48
1
60
0
100
AcDbEllipse
10
26.238439
20
8.069545
30
0
11
0.522642316338281
21
-4.97260947684118
31
0
210
0
220
0
230
1
40
0.997564
41
1.5518957047899
42
1.5616956978767
0
ELLIPSE
5
196
100
AcDbEntity
8
1
62
256
6
ByLayer
370
18
48
1
60
0
100
AcDbEllipse
10
18.513904
20
17.892154
30
0
11
0.10452846326766
21
-0.994521895368272
31
0
210
0
220
0
230
1
40
0.997564
41
-2.87979326579063
42
-1.83259571459405
0
ELLIPSE
5
197
100
AcDbEntity
8
1
62
256
6
ByLayer
370
18
48
1
60
0
100
AcDbEllipse
10
21.268951
20
7.642248
30
0
11
1.0452846326766
21
-9.94521895368276
31
0
210
0
220
0
230
1
40
0.997564
41
1.53588974175501
42
1.5518957047899
0
ELLIPSE
5
198
100
AcDbEntity
8
1
62
256
6
ByLayer
370
18
48
1
60
0
100
AcDbEllipse
10
19.656375
20
8.951346
30
0
11
1.0452846326766
21
-9.94521895368276
31
0
210
0
220
0
230
1
40
0.997564
41
-3.1226920315848
42
-3.10668606854991
0
ELLIPSE
5
199
100
AcDbEntity
8
1
62
256
6
ByLayer
370
18
48
1
60
0
100
AcDbEllipse
10
30.722809
20
8.302517
30
0
11
0.0522642316338302
21
-0.497260947684138
31
0
210
0
220
0
230
1
40
0.997564
41
1.30899693899582
42
1.53588974175506
0
ELLIPSE
5
19A
100
AcDbEntity
8
1
62
256
6
ByLayer
370
18
48
1
60
0
100
AcDbEllipse
10
29.1362
20
17.327457
30
0
11
1.0452846326766
21
-9.94521895368274
31
0
210
0
220
0
230
1
40
0.997564
41
0
42
0.00910062891819003
0
ELLIPSE
5
19B
100
AcDbEntity
8
1
62
256
6
ByLayer
370
18
48
1
60
0
100
AcDbEllipse
10
27.470647
20
18.679561
30
0
11
1.0452846326766
21
-9.94521895368274
31
0
210
0
220
0
230
1
40
0.997564
41
-1.57989695571309
42
-1.5707963267949
0
ELLIPSE
5
19C
100
AcDbEntity
8
1
62
256
6
ByLayer
370
18
48
1
60
0
100
AcDbEllipse
10
29.703964
20
12.359798
30
0
11
0.522642316338281
21
-4.97260947684118
31
0
210
0
220
0
230
1
40
0.997564
41
0.00910062891818789
42
0.0189006220049887
0
ELLIPSE
5
19D
100
AcDbEntity
8
1
62
256
6
ByLayer
370
18
48
1
60
0
100
AcDbEllipse
10
30.230135
20
8.380858
30
0
11
0.10452846326766
21
-0.994521895368272
31
0
210
0
220
0
230
1
40
0.997564
41
0.261799387799143
42
1.30899693899573
0
ELLIPSE
5
19E
100
AcDbEntity
8
1
62
256
6
ByLayer
370
18
48
1
60
0
100
AcDbEllipse
10
29.087664
20
17.321665
30
0
11
1.0452846326766
21
-9.94521895368276
31
0
210
0
220
0
230
1
40
0.997564
41
0.0189006220049937
42
0.0349065850398841
0
ELLIPSE
5
19F
100
AcDbEntity
8
1
62
256
6
ByLayer
370
18
48
1
60
0
100
AcDbEllipse
10
27.470223
20
18.679517
30
0
11
-1.03066457613004
21
9.80611840735786
31
0
210
0
220
0
230
1
40
0.997564
41
1.56169569787671
42
1.5707963267949
0
ELLIPSE
5
1A0
100
AcDbEntity
8
1
62
256
6
ByLayer
370
13
48
1
60
0
100
AcDbEllipse
10
12.8
20
13.655103
30
0
11
0.102656977676973
21
-0.401367267965462
31
0
210
0
220
0
230
-1
40
0.963214
41
-1.3112496440996
42
0.259546682695918
0
ELLIPSE
5
1A1
100
AcDbEntity
8
1
62
256
6
ByLayer
370
13
48
1
60
0
100
AcDbEllipse
10
19.9794
20
8.09976
30
0
11
0.219509772862085
21
-2.08849598027336
31
0
210
0
220
0
230
1
40
0.997564
41
-2.24006859909537
42
-1.5707963267949
0
ELLIPSE
5
1A2
100
AcDbEntity
8
1
62
256
6
ByLayer
370
13
48
1
60
0
100
AcDbEllipse
10
20.005532
20
7.85113
30
0
11
0.219509772862087
21
-2.08849598027338
31
0
210
0
220
0
230
1
40
0.997564
41
-1.5707963267949
42
0.596367251767891
0
ELLIPSE
5
1A3
100
AcDbEntity
8
1
62
256
6
ByLayer
370
13
48
1
60
0
100
AcDbEllipse
10
19.038015
20
7.305028
30
0
11
1.74466322883345
21
0.183371494462691
31
0
210
0
220
0
230
1
40
0.997564
41
-2.61043078456621
42
-2.60960505262667
0
ELLIPSE
5
1A4
100
AcDbEntity
8
1
62
256
6
ByLayer
370
13
48
1
60
0
100
AcDbEllipse
10
19.038015
20
7.305028
30
0
11
1.74466322883345
21
0.183371494462691
31
0
210
0
220
0
230
-1
40
0.997564
41
1.67724076957098
42
2.60960505262667
0
ELLIPSE
5
1A5
100
AcDbEntity
8
1
62
256
6
ByLayer
370
13
48
1
60
0
100
AcDbEllipse
10
19.038015
20
7.305028
30
0
11
1.74466322883345
21
0.183371494462691
31
0
210
0
220
0
230
-1
40
0.997564
41
1.67551608191725
42
1.67724076957098
0
ELLIPSE
5
1A6
100
AcDbEntity
8
1
62
256
6
ByLayer
370
13
48
1
60
0
100
AcDbEllipse
10
19.311714
20
7.333795
30
0
11
0.182924810718404
21
-1.74041331689448
31
0
210
0
220
0
230
1
40
0.997564
41
-1.03963445777132
42
-0.104719755122365
0
ELLIPSE
5
1A7
100
AcDbEntity
8
1
62
256
6
ByLayer
370
13
48
1
60
0
100
AcDbEllipse
10
7.25
20
14.068443
30
0
11
-6.25
21
7.65378971138986E-16
31
0
210
0
220
0
230
1
40
0.258819
41
-2.66377375633758
42
2.66377375633759
0
ELLIPSE
5
1A8
100
AcDbEntity
8
1
62
256
6
ByLayer
370
13
48
1
60
0
100
AcDbEllipse
10
12.8
20
16.322108
30
0
11
0.399999999999436
21
4.04255622032375E-16
31
0
210
0
220
0
230
-1
40
0.707107
41
0
42
1.5707963267949
0
ELLIPSE
5
1A9
100
AcDbEntity
8
1
62
256
6
ByLayer
370
13
48
1
60
0
100
AcDbEllipse
10
16.15163
20
8.431701
30
0
11
0.921932392965787
21
-1.24674130064512
31
0
210
0
220
0
230
-1
40
0.060634
41
0
42
6.28318530717959
0
ELLIPSE
5
1AA
100
AcDbEntity
8
1
62
256
6
ByLayer
370
18
48
1
60
0
100
AcDbEllipse
10
24.44118
20
13.143775
30
0
11
-0.112305380934769
21
1.06851432438367
31
0
210
0
220
0
230
1
40
0.997564
41
1.0471975511966
42
2.0943951023932
0
ELLIPSE
5
1AB
100
AcDbEntity
8
1
62
256
6
ByLayer
370
18
48
1
60
0
100
AcDbEllipse
10
23.309162
20
13.649215
30
0
11
0.133521519366608
21
0.301343486189849
31
0
210
0
220
0
230
-1
40
0.507566
41
1.57224042577803
42
2.82595918780717
0
ELLIPSE
5
1AC
100
AcDbEntity
8
1
62
256
6
ByLayer
370
18
48
1
60
0
100
AcDbEllipse
10
23.309162
20
13.649215
30
0
11
0.133521519366816
21
0.301343486185509
31
0
210
0
220
0
230
-1
40
0.507566
41
0.318521663724366
42
1.57224042576518
0
ELLIPSE
5
1AD
100
AcDbEntity
8
1
62
256
6
ByLayer
370
18
48
1
60
0
100
AcDbEllipse
10
23.438987
20
12.414019
30
0
11
0.193256587543938
21
-0.266997723156602
31
0
210
0
220
0
230
-1
40
0.507566
41
-1.57224042576815
42
-0.31852166372518
0
ELLIPSE
5
1AE
100
AcDbEntity
8
1
62
256
6
ByLayer
370
18
48
1
60
0
100
AcDbEllipse
10
24.571004
20
11.908579
30
0
11
0.327194345847511
21
0.0343895115038291
31
0
210
0
220
0
230
-1
40
0.509428
41
-1.5707963267949
42
-0.317077564755452
0
ELLIPSE
5
1AF
100
AcDbEntity
8
1
62
256
6
ByLayer
370
18
48
1
60
0
100
AcDbEllipse
10
23.438987
20
12.414019
30
0
11
0.193256587544569
21
-0.266997723153365
31
0
210
0
220
0
230
-1
40
0.507566
41
-2.82595918780259
42
-1.5722404257524
0
ELLIPSE
5
1B0
100
AcDbEntity
8
1
62
256
6
ByLayer
370
18
48
1
60
0
100
AcDbEllipse
10
24.347524
20
13.133931
30
0
11
-0.147353774668413
21
1.40197751590065
31
0
210
0
220
0
230
1
40
0.997564
41
-1.5707963267949
42
-0.523598775598314
0
ELLIPSE
5
1B1
100
AcDbEntity
8
1
62
256
6
ByLayer
370
18
48
1
60
0
100
AcDbEllipse
10
24.347524
20
13.133931
30
0
11
-0.147353774668413
21
1.40197751590065
31
0
210
0
220
0
230
1
40
0.997564
41
-2.6179938779915
42
-1.5707963267949
0
ELLIPSE
5
1B2
100
AcDbEntity
8
1
62
256
6
ByLayer
370
18
48
1
60
0
100
AcDbEllipse
10
24.347524
20
13.133931
30
0
11
-0.147353774668413
21
1.40197751590065
31
0
210
0
220
0
230
1
40
0.997564
41
2.61799387799148
42
-2.6179938779915
0
ELLIPSE
5
1B3
100
AcDbEntity
8
1
62
256
6
ByLayer
370
18
48
1
60
0
100
AcDbEllipse
10
24.347524
20
13.133931
30
0
11
-0.147353774668413
21
1.40197751590065
31
0
210
0
220
0
230
1
40
0.997564
41
1.5707963267949
42
2.61799387799148
0
ELLIPSE
5
1B4
100
AcDbEntity
8
1
62
256
6
ByLayer
370
18
48
1
60
0
100
AcDbEllipse
10
24.347524
20
13.133931
30
0
11
-0.147353774668413
21
1.40197751590065
31
0
210
0
220
0
230
1
40
0.997564
41
0.5235987755983
42
1.5707963267949
0
ELLIPSE
5
1B5
100
AcDbEntity
8
1
62
256
6
ByLayer
370
18
48
1
60
0
100
AcDbEllipse
10
24.347524
20
13.133931
30
0
11
-0.147353774668413
21
1.40197751590065
31
0
210
0
220
0
230
1
40
0.997564
41
-0.523598775598314
42
0.5235987755983
0
ELLIPSE
5
1B6
100
AcDbEntity
8
1
62
256
6
ByLayer
370
18
48
1
60
0
100
AcDbEllipse
10
24.352234
20
13.134426
30
0
11
0.250868311842383
21
-2.38685254888386
31
0
210
0
220
0
230
1
40
0.997564
41
0
42
6.28318530717959
0
ELLIPSE
5
1B7
100
AcDbEntity
8
1
62
256
6
ByLayer
370
18
48
1
60
0
100
AcDbEllipse
10
24.347524
20
13.133931
30
0
11
0.15679269490149
21
-1.49178284305241
31
0
210
0
220
0
230
1
40
0.997564
41
0
42
6.28318530717959
0
ELLIPSE
5
1B8
100
AcDbEntity
8
1
62
256
6
ByLayer
370
18
48
1
60
0
100
AcDbEllipse
10
24.44118
20
13.143775
30
0
11
-0.112305380934769
21
1.06851432438367
31
0
210
0
220
0
230
1
40
0.997564
41
2.09439510239317
42
-3.14159265358978
0
ELLIPSE
5
1B9
100
AcDbEntity
8
1
62
256
6
ByLayer
370
18
48
1
60
0
100
AcDbEllipse
10
24.311356
20
14.378971
30
0
11
0.327194345845344
21
0.0343895115043263
31
0
210
0
220
0
230
-1
40
0.509428
41
0.317077564756257
42
1.5707963267949
0
ELLIPSE
5
1BA
100
AcDbEntity
8
1
62
256
6
ByLayer
370
18
48
1
60
0
100
AcDbEllipse
10
7.25
20
14.478961
30
0
11
2.3319177372569
21
0
31
0
210
0
220
0
230
1
40
0.258819
41
0.391796412189502
42
1.4389939633861
0
ELLIPSE
5
1BB
100
AcDbEntity
8
1
62
256
6
ByLayer
370
18
48
1
60
0
100
AcDbEllipse
10
7.25
20
14.478961
30
0
11
2.825
21
0
31
0
210
0
220
0
230
1
40
0.258819
41
0
42
6.28318530717959
0
ELLIPSE
5
1BC
100
AcDbEntity
8
1
62
256
6
ByLayer
370
18
48
1
60
0
100
AcDbEllipse
10
7.25
20
14.478961
30
0
11
2.3319177372569
21
0
31
0
210
0
220
0
230
1
40
0.258819
41
1.4389939633861
42
2.48619151458271
0
ELLIPSE
5
1BD
100
AcDbEntity
8
1
62
256
6
ByLayer
370
18
48
1
60
0
100
AcDbEllipse
10
7.25
20
14.478961
30
0
11
2.3319177372569
21
0
31
0
210
0
220
0
230
1
40
0.258819
41
-0.655401139007109
42
0.391796412189502
0
ELLIPSE
5
1BE
100
AcDbEntity
8
1
62
256
6
ByLayer
370
18
48
1
60
0
100
AcDbEllipse
10
7.25
20
14.478961
30
0
11
2.3319177372569
21
0
31
0
210
0
220
0
230
1
40
0.258819
41
-1.70259869020369
42
-0.655401139007109
0
ELLIPSE
5
1BF
100
AcDbEntity
8
1
62
256
6
ByLayer
370
18
48
1
60
0
100
AcDbEllipse
10
7.25
20
14.478961
30
0
11
2.3319177372569
21
0
31
0
210
0
220
0
230
1
40
0.258819
41
-2.74979624140029
42
-1.70259869020369
0
ELLIPSE
5
1C0
100
AcDbEntity
8
1
62
256
6
ByLayer
370
18
48
1
60
0
100
AcDbEllipse
10
7.25
20
14.478961
30
0
11
2.3319177372569
21
0
31
0
210
0
220
0
230
1
40
0.258819
41
2.48619151458271
42
-2.74979624140029
0
POINT
5
6C
100
AcDbEntity
8
80
62
256
6
ByLayer
370
13
48
1
60
0
100
AcDbPoint
10
0
20
0
30
0
39
0
210
0
220
0
230
1
50
360
0
POINT
5
6E
100
AcDbEntity
8
81
62
256
6
ByLayer
370
18
48
1
60
0
100
AcDbPoint
10
30
20
20
30
0
39
0
210
0
220
0
230
1
50
360
0
SPLINE
5
1C1
100
AcDbEntity
8
1
62
256
6
ByLayer
370
18
48
1
60
0
100
AcDbSpline
70
4
71
3
72
8
73
4
40
0
40
0
40
0
40
0
40
1
40
1
40
1
40
1
41
1
10
5.0947842789891
20
14.2484982253835
30
0
41
1
10
5.15566286803985
20
14.2149734450162
30
0
41
1
10
5.21707317390846
20
14.182829198583
30
0
41
1
10
5.27890066970883
20
14.1523732276158
30
0
0
SPLINE
5
1C2
100
AcDbEntity
8
1
62
256
6
ByLayer
370
18
48
1
60
0
100
AcDbSpline
70
4
71
3
72
10
73
6
40
0
40
0
40
0
40
0
40
0.229931083346546
40
0.229931083346546
40
1
40
1
40
1
40
1
41
1
10
9.19150121555415
20
14.1472538814389
30
0
41
1
10
9.20798342533593
20
14.1637843699945
30
0
41
1
10
9.22454313720689
20
14.1862918578535
30
0
41
1
10
9.29635532374172
20
14.314011566819
30
0
41
1
10
9.35211891326486
20
14.4931067077019
30
0
41
1
10
9.40521572101085
20
14.709424507179
30
0
0
SPLINE
5
1C3
100
AcDbEntity
8
1
62
256
6
ByLayer
370
13
48
1
60
0
100
AcDbSpline
70
4
71
3
72
12
73
8
40
0
40
0
40
0
40
0
40
0.065223286414615
40
0.065223286414615
40
0.405658028821871
40
0.405658028821871
40
1
40
1
40
1
40
1
41
1
10
21.3572770110177
20
6.24613219791739
30
0
41
1
10
21.360460226827
20
6.24824760125685
30
0
41
1
10
21.3639352828299
20
6.25062457176095
30
0
41
1
10
21.3870443357602
20
6.26683686346941
30
0
41
1
10
21.4135920703263
20
6.2871347013007
30
0
41
1
10
21.4936062067119
20
6.35378792703419
30
0
41
1
10
21.5533501165449
20
6.40923957859084
30
0
41
1
10
21.6131677546672
20
6.47324511433355
30
0
0
SPLINE
5
1C4
100
AcDbEntity
8
1
62
256
6
ByLayer
370
18
48
1
60
0
100
AcDbSpline
70
4
71
1
72
4
73
2
40
0
40
0
40
1
40
1
41
1
10
30.3395907666142
20
7.55275280211966
30
0
41
1
10
29.4952673830414
20
7.45084535146395
30
0
0
SPLINE
5
1C5
100
AcDbEntity
8
1
62
256
6
ByLayer
370
18
48
1
60
0
100
AcDbSpline
70
4
71
1
72
4
73
2
40
0
40
0
40
1
40
1
41
1
10
30.9843912767805
20
9.29435309416856
30
0
41
1
10
31.060504285541
20
8.44522997043636
30
0
0
SPLINE
5
1C6
100
AcDbEntity
8
1
62
256
6
ByLayer
370
18
48
1
60
0
100
AcDbSpline
70
4
71
3
72
46
73
42
40
0
40
0
40
0
40
0
40
0.0002356819181358
40
0.0012435088516861
40
0.0022513357852363
40
0.0026922600686646
40
0.0093061243200882
40
0.0163609128549401
40
0.0324861437917443
40
0.0486113747285486
40
0.0647366056653529
40
0.0687679133995539
40
0.0707835672666545
40
0.072799221133755
40
0.076830528867956
40
0.0788461827350566
40
0.0808618366021571
40
0.0848931443363582
40
0.0889244520705592
40
0.0969870675389614
40
0.12923752941257
40
0.161487991286178
40
0.193738453159787
40
0.209863684096591
40
0.217926299564993
40
0.219941953432094
40
0.221957607299194
40
0.222965434232745
40
0.223973261166295
40
0.225988915033395
40
0.226492828500171
40
0.226996741966946
40
0.227232951404497
40
0.234555443968573
40
0.2421141459702
40
0.258239376907004
40
0.290489838780613
40
0.35499076252783
40
0.483992610022264
40
0.741996305011132
40
1
40
1
40
1
40
1
41
1
10
28.3955393545438
20
9.7082955481512
30
0
41
1
10
28.3952595702634
20
9.70826255668224
30
0
41
1
10
28.3937794159544
20
9.70809022688091
30
0
41
1
10
28.3910610174502
20
9.70779368801023
30
0
41
1
10
28.3880613144474
20
9.70748351679447
30
0
41
1
10
28.3782193159392
20
9.70646424591618
30
0
41
1
10
28.3610220756042
20
9.70467001236443
30
0
41
1
10
28.3247637046588
20
9.70085910401426
30
0
41
1
10
28.2769302512341
20
9.69583160547192
30
0
41
1
10
28.2180583085576
20
9.68964391495831
30
0
41
1
10
28.1739043515501
20
9.68500314707308
30
0
41
1
10
28.1469213778234
20
9.68216712225434
30
0
41
1
10
28.1371093873773
20
9.68113584050207
30
0
41
1
10
28.1272973969312
20
9.68010455874979
30
0
41
1
10
28.1174854064851
20
9.67907327699753
30
0
41
1
10
28.107673416039
20
9.67804199524525
30
0
41
1
10
28.0978614255929
20
9.67701071349298
30
0
41
1
10
28.0855964375353
20
9.67572161130263
30
0
41
1
10
28.0659724566431
20
9.6736590477981
30
0
41
1
10
28.0120065091896
20
9.6679869981606
30
0
41
1
10
27.9236985951747
20
9.65870546239017
30
0
41
1
10
27.8059547098215
20
9.64633008136292
30
0
41
1
10
27.7078348053606
20
9.63601726384022
30
0
41
1
10
27.639150872238
20
9.62879829157431
30
0
41
1
10
27.6072619032881
20
9.62544662587943
30
0
41
1
10
27.592543917619
20
9.62389970325103
30
0
41
1
10
27.5864114235902
20
9.62325515215586
30
0
41
1
10
27.5815054283672
20
9.62273951127972
30
0
41
1
10
27.5765994331441
20
9.62222387040359
30
0
41
1
10
27.5723066873239
20
9.62177268463697
30
0
41
1
10
27.5686271909067
20
9.62138595397987
30
0
41
1
10
27.5671132314433
20
9.62122683042824
30
0
41
1
10
27.5573012409972
20
9.62019554867597
30
0
41
1
10
27.5389037589107
20
9.61826189539046
30
0
41
1
10
27.5011697565897
20
9.614295891933
30
0
41
1
10
27.43309907287
20
9.60714137477662
30
0
41
1
10
27.2957312066246
20
9.59270343024482
30
0
41
1
10
27.0209954741339
20
9.56382754118124
30
0
41
1
10
26.4715240091526
20
9.50607576305407
30
0
41
1
10
25.686564773465
20
9.42357322287238
30
0
41
1
10
25.058597384915
20
9.35757119072704
30
0
41
1
10
24.7446136906399
20
9.32457017465437
30
0
0
SPLINE
5
1C7
100
AcDbEntity
8
1
62
256
6
ByLayer
370
18
48
1
60
0
100
AcDbSpline
70
4
71
3
72
21
73
17
40
0
40
0
40
0
40
0
40
0.0592792738439339
40
0.122239377580519
40
0.185199481317102
40
0.248159585053689
40
0.311119688790276
40
0.374079792526859
40
0.500000000000029
40
0.625920207473199
40
0.751840414946369
40
0.814800518682954
40
0.877760622419539
40
0.909240674287831
40
0.940720726156124
40
1
40
1
40
1
40
1
41
1
10
28.5286770497576
20
9.87311747214214
30
0
41
1
10
28.5290954612307
20
9.86858857688428
30
0
41
1
10
28.5297028480762
20
9.85960570854019
30
0
41
1
10
28.5293149816713
20
9.846522120855
30
0
41
1
10
28.5275691403494
20
9.83218693679575
30
0
41
1
10
28.524373373437
20
9.81748798031649
30
0
41
1
10
28.5196280214362
20
9.8030530397582
30
0
41
1
10
28.5112612366841
20
9.78435149087731
30
0
41
1
10
28.4970280356488
20
9.7623584094619
30
0
41
1
10
28.4748284596633
20
9.7401229387965
30
0
41
1
10
28.4534820745798
20
9.72614502019906
30
0
41
1
10
28.435245404099
20
9.71789191453043
30
0
41
1
10
28.4238920513712
20
9.71398156888567
30
0
41
1
10
28.4151527393797
20
9.71161839954532
30
0
41
1
10
28.4066465414861
20
9.70977133429005
30
0
41
1
10
28.4000452430142
20
9.70882687135277
30
0
41
1
10
28.3955393545438
20
9.7082955481512
30
0
0
SPLINE
5
1C8
100
AcDbEntity
8
1
62
256
6
ByLayer
370
18
48
1
60
0
100
AcDbSpline
70
4
71
3
72
42
73
38
40
0
40
0
40
0
40
0
40
0.258003694988869
40
0.516007389977738
40
0.645009237472172
40
0.709510161219389
40
0.741760623092998
40
0.7498232385614
40
0.757885854029802
40
0.765444556031429
40
0.769223907032243
40
0.773003258033056
40
0.773507171499831
40
0.774011084966606
40
0.776026738833707
40
0.778042392700807
40
0.782073700435008
40
0.790136315903411
40
0.806261546840215
40
0.838512008713823
40
0.870762470587432
40
0.903012932461041
40
0.911075547929443
40
0.915106855663644
40
0.919138163397845
40
0.923169471132046
40
0.927200778866247
40
0.931232086600448
40
0.935263394334649
40
0.951388625271454
40
0.967513856208258
40
0.983639087145062
40
0.990693875679914
40
0.997748664214766
40
0.998756491148316
40
0.999764318081867
40
1
40
1
40
1
40
1
41
1
10
28.1440099570847
20
13.5329578303323
30
0
41
1
10
28.1770915582752
20
13.2182074198767
30
0
41
1
10
28.2432547606562
20
12.5887065989655
30
0
41
1
10
28.3259587636325
20
11.8018305728265
30
0
41
1
10
28.3838515657158
20
11.2510173545291
30
0
41
1
10
28.4127979667575
20
10.9756107453805
30
0
41
1
10
28.4262373672411
20
10.8477433911329
30
0
41
1
10
28.4324401674643
20
10.7887276891725
30
0
41
1
10
28.4354769550736
20
10.7598345850877
30
0
41
1
10
28.4379645364132
20
10.7361668296139
30
0
41
1
10
28.4399029114829
20
10.7177244227513
30
0
41
1
10
28.4409367115201
20
10.7078884724246
30
0
41
1
10
28.4415505302922
20
10.7020483769181
30
0
41
1
10
28.4419382053061
20
10.6983598955456
30
0
41
1
10
28.4425197178271
20
10.6928271734868
30
0
41
1
10
28.4435535178643
20
10.68299122316
30
0
41
1
10
28.4453626679294
20
10.6657783100882
30
0
41
1
10
28.4489809680596
20
10.6313524839446
30
0
41
1
10
28.45621756832
20
10.5625008316575
30
0
41
1
10
28.4665555686921
20
10.4641413283901
30
0
41
1
10
28.4789611691385
20
10.3461099244692
30
0
41
1
10
28.4882653694733
20
10.2575863715286
30
0
41
1
10
28.493951269678
20
10.2034886447316
30
0
41
1
10
28.4960188697523
20
10.1838167440781
30
0
41
1
10
28.4975695698081
20
10.169062818588
30
0
41
1
10
28.499120269864
20
10.1543088930979
30
0
41
1
10
28.5006709699197
20
10.1395549676077
30
0
41
1
10
28.5022216699755
20
10.1248010421176
30
0
41
1
10
28.5053230700872
20
10.0952931911374
30
0
41
1
10
28.5099751702546
20
10.0510314146671
30
0
41
1
10
28.5161779704778
20
9.99201571270669
30
0
41
1
10
28.5212177456592
20
9.94406545486383
30
0
41
1
10
28.5250944957987
20
9.90718064113857
30
0
41
1
10
28.5270502497662
20
9.88871217455326
30
0
41
1
10
28.5282356191052
20
9.87761322507795
30
0
41
1
10
28.5285114712037
20
9.87488593814651
30
0
41
1
10
28.5286510693203
20
9.87339868498373
30
0
41
1
10
28.5286770497576
20
9.87311747214214
30
0
0
SPLINE
5
1C9
100
AcDbEntity
8
1
62
256
6
ByLayer
370
18
48
1
60
0
100
AcDbSpline
70
4
71
3
72
41
73
37
40
0
40
0
40
0
40
0
40
0.0078125
40
0.01171875
40
0.013671875
40
0.015625
40
0.03125
40
0.0625
40
0.09375
40
0.125
40
0.1328125
40
0.140625
40
0.15625
40
0.1875
40
0.25
40
0.3125
40
0.375
40
0.4375
40
0.46875
40
0.4765625
40
0.484375
40
0.5
40
0.5625
40
0.625
40
0.6875
40
0.71875
40
0.734375
40
0.7421875
40
0.75
40
0.78125
40
0.8125
40
0.875
40
0.90625
40
0.921875
40
0.9375
40
1
40
1
40
1
40
1
41
1
10
24.7446136906399
20
9.32457017465437
30
0
41
1
10
24.745279735204
20
9.3182331839287
30
0
41
1
10
24.7464434053906
20
9.30843622551075
30
0
41
1
10
24.7478616175049
20
9.29850872780683
30
0
41
1
10
24.7486695168392
20
9.29333765881471
30
0
41
1
10
24.7506989086986
20
9.28020202392833
30
0
41
1
10
24.7557718620293
20
9.24744531820238
30
0
41
1
10
24.7638889682135
20
9.19497497599362
30
0
41
1
10
24.7736293797449
20
9.13202870485955
30
0
41
1
10
24.7809339210453
20
9.08481109443295
30
0
41
1
10
24.7858056182134
20
9.05336054957033
30
0
41
1
10
24.7890428678266
20
9.03243151851959
30
0
41
1
10
24.7946422380945
20
8.9958466223413
30
0
41
1
10
24.8059525740882
20
8.91996329520613
30
0
41
1
10
24.8221396865312
20
8.80581485984321
30
0
41
1
10
24.8413480027404
20
8.66119946884544
30
0
41
1
10
24.860017126216
20
8.51143558340833
30
0
41
1
10
24.8748710703498
20
8.38435225740066
30
0
41
1
10
24.8840838154288
20
8.30160294234739
30
0
41
1
10
24.88823495449
20
8.26355222020732
30
0
41
1
10
24.8909982397503
20
8.23799362278776
30
0
41
1
10
24.8986626506469
20
8.16716047567694
30
0
41
1
10
24.9111728131097
20
8.05151684458896
30
0
41
1
10
24.9278637089385
20
7.89723495776228
30
0
41
1
10
24.9417717653522
20
7.7686718130745
30
0
41
1
10
24.9515103356121
20
7.67866302347166
30
0
41
1
10
24.9563750597308
20
7.63368133174542
30
0
41
1
10
24.9591623205966
20
7.60794058121331
30
0
41
1
10
24.9633281209619
20
7.56944975108426
30
0
41
1
10
24.969464450604
20
7.51165306172251
30
0
41
1
10
24.9800250680295
20
7.40859001484958
30
0
41
1
10
24.989995229214
20
7.30579340408201
30
0
41
1
10
24.9980888956828
20
7.21717073885756
30
0
41
1
10
25.0025285621795
20
7.167037116169
30
0
41
1
10
25.0089649976305
20
7.09245475970812
30
0
41
1
10
25.0143428460904
20
7.03007402599761
30
0
41
1
10
25.0186408791831
20
6.98023807002714
30
0
0
SPLINE
5
1CA
100
AcDbEntity
8
1
62
256
6
ByLayer
370
18
48
1
60
0
100
AcDbSpline
70
4
71
3
72
20
73
16
40
0
40
0
40
0
40
0
40
0.332431012821213
40
0.664862025642427
40
0.831077532053033
40
0.914185285258337
40
0.955739161860988
40
0.976516100162314
40
0.986255289991061
40
0.995690130137659
40
0.995994479819807
40
0.996643759141724
40
0.99729303846364
40
0.999890155751306
40
1
40
1
40
1
40
1
41
1
10
25.0186408791831
20
6.98023807002714
30
0
41
1
10
25.5146985315843
20
7.03237583023045
30
0
41
1
10
26.5068138363865
20
7.13665135063708
30
0
41
1
10
27.7469585597374
20
7.2669903125779
30
0
41
1
10
28.6150579705693
20
7.35824498935234
30
0
41
1
10
29.0491106377255
20
7.40384513490226
30
0
41
1
10
29.2661323620953
20
7.42668752653026
30
0
41
1
10
29.3736808785188
20
7.4379470572449
30
0
41
1
10
29.4332964177322
20
7.44421092251234
30
0
41
1
10
29.4623613925919
20
7.44727423326202
30
0
41
1
10
29.4778623710324
20
7.4489111755346
30
0
41
1
10
29.4802541183725
20
7.44916379892155
30
0
41
1
10
29.4860661291854
20
7.44978532144233
30
0
41
1
10
29.4910697532166
20
7.45035296757716
30
0
41
1
10
29.495103398663
20
7.45082863550552
30
0
41
1
10
29.4952670745164
20
7.45084796531204
30
0
0
SPLINE
5
1CB
100
AcDbEntity
8
1
62
256
6
ByLayer
370
18
48
1
60
0
100
AcDbSpline
70
4
71
3
72
21
73
17
40
0
40
0
40
0
40
0
40
0.0001096836879358
40
0.0027068013926425
40
0.0033560808188194
40
0.0040053602449958
40
0.0088749559413203
40
0.0137445516376458
40
0.0234837430302958
40
0.0338722138491225
40
0.044260684667949
40
0.0858145679432556
40
0.168922334493869
40
0.335137867595095
40
0.667568933797547
40
1
40
1
40
1
40
1
41
1
10
30.9843886604325
20
9.29435285308284
30
0
41
1
10
30.984373512619
20
9.29451713028801
30
0
41
1
10
30.9839990039489
20
9.29857113700653
30
0
41
1
10
30.9835125711071
20
9.3035954180843
30
0
41
1
10
30.9829106092425
20
9.30942383665916
30
0
41
1
10
30.9819455587531
20
9.31865098966249
30
0
41
1
10
30.980318402116
20
9.33419127213446
30
0
41
1
10
30.9772621292214
20
9.36332875312523
30
0
41
1
10
30.9733308175302
20
9.40072092454471
30
0
41
1
10
30.9685203339409
20
9.44636737464461
30
0
41
1
10
30.9586914268529
20
9.53960234955477
30
0
41
1
10
30.9374885181379
20
9.74162088632829
30
0
41
1
10
30.8917362161389
20
10.1767291770243
30
0
41
1
10
30.8002859084385
20
11.0469512573652
30
0
41
1
10
30.669617790559
20
12.2901231440471
30
0
41
1
10
30.5650876399592
20
13.2846610933085
30
0
41
1
10
30.5128225646592
20
13.7819300679391
30
0
0
SPLINE
5
1CC
100
AcDbEntity
8
1
62
256
6
ByLayer
370
18
48
1
60
0
100
AcDbSpline
70
4
71
3
72
42
73
38
40
0
40
0
40
0
40
0
40
0.258003694988867
40
0.516007389977735
40
0.645009237472168
40
0.709510161219385
40
0.741760623092994
40
0.749823238561396
40
0.757885854029798
40
0.765444556031425
40
0.769223907032239
40
0.773003258033052
40
0.773507171499827
40
0.774011084966602
40
0.776026738833703
40
0.778042392700803
40
0.782073700435004
40
0.790136315903406
40
0.806261546840211
40
0.838512008713819
40
0.870762470587428
40
0.903012932461036
40
0.911075547929438
40
0.915106855663639
40
0.91913816339784
40
0.923169471132041
40
0.927200778866242
40
0.931232086600443
40
0.935263394334644
40
0.951388625271449
40
0.967513856208253
40
0.983639087145057
40
0.990693875679909
40
0.997748664214761
40
0.998756491148311
40
0.999764318081861
40
1
40
1
40
1
40
1
41
1
10
24.7446136906399
20
9.32457017465437
30
0
41
1
10
24.4306299963648
20
9.29156915858169
30
0
41
1
10
23.8026626078147
20
9.22556712643636
30
0
41
1
10
23.0177033721271
20
9.14306458625468
30
0
41
1
10
22.4682319071458
20
9.0853128081275
30
0
41
1
10
22.1934961746551
20
9.05643691906391
30
0
41
1
10
22.0659402988559
20
9.0430302562844
30
0
41
1
10
22.0070683561793
20
9.03684256577077
30
0
41
1
10
21.9782456342439
20
9.03381317562346
30
0
41
1
10
21.954635532233
20
9.03133165390706
30
0
41
1
10
21.9362380501466
20
9.02939800062155
30
0
41
1
10
21.9264260597005
20
9.02836671886929
30
0
41
1
10
21.9206001903731
20
9.02775439532888
30
0
41
1
10
21.9169206939559
20
9.02736766467177
30
0
41
1
10
21.9114014493299
20
9.02678756868612
30
0
41
1
10
21.9015894588839
20
9.02575628693386
30
0
41
1
10
21.8844184756032
20
9.02395154386737
30
0
41
1
10
21.8500765090418
20
9.02034205773444
30
0
41
1
10
21.7813925759192
20
9.01312308546854
30
0
41
1
10
21.6832726714582
20
9.00281026794582
30
0
41
1
10
21.5655287861051
20
8.99043488691858
30
0
41
1
10
21.4772208720902
20
8.98115335114814
30
0
41
1
10
21.4232549246367
20
8.97548130151064
30
0
41
1
10
21.4036309437445
20
8.9734187380061
30
0
41
1
10
21.3889129580754
20
8.9718718153777
30
0
41
1
10
21.3741949724062
20
8.97032489274928
30
0
41
1
10
21.3594769867371
20
8.96877797012088
30
0
41
1
10
21.3447590010679
20
8.96723104749248
30
0
41
1
10
21.3153230297297
20
8.96413720223566
30
0
41
1
10
21.2711690727222
20
8.95949643435044
30
0
41
1
10
21.2122971300456
20
8.95330874383683
30
0
41
1
10
21.1644636766209
20
8.9482812452945
30
0
41
1
10
21.1276687124481
20
8.94441393872347
30
0
41
1
10
21.1092452415428
20
8.9424628782433
30
0
41
1
10
21.0981733380952
20
8.94128030559312
30
0
41
1
10
21.0954526892226
20
8.94100517754869
30
0
41
1
10
21.0939690504561
20
8.94086600014533
30
0
41
1
10
21.0936885208214
20
8.94084010024875
30
0
0
SPLINE
5
1CD
100
AcDbEntity
8
1
62
256
6
ByLayer
370
18
48
1
60
0
100
AcDbSpline
70
4
71
3
72
45
73
41
40
0
40
0
40
0
40
0
40
0.0011565097570545
40
0.0196321945810296
40
0.0288700369930172
40
0.0381078794050047
40
0.0565835642289799
40
0.13048630352488
40
0.204389042820781
40
0.278291782116681
40
0.310624230558638
40
0.340935900972972
40
0.342956679000595
40
0.347575600206588
40
0.352194521412582
40
0.370670206236557
40
0.379908048648545
40
0.389145891060532
40
0.407621575884507
40
0.426097260708483
40
0.463048630356433
40
0.500000000004383
40
0.536951369652333
40
0.555427054476307
40
0.573902739300284
40
0.59237842412426
40
0.610854108948234
40
0.629329793772209
40
0.647805478596184
40
0.652424399802177
40
0.657043321008172
40
0.689375769450129
40
0.721708217892085
40
0.795610957187985
40
0.869513696483886
40
0.943416435779786
40
0.961892120603761
40
0.980367805427737
40
0.998843490251713
40
1
40
1
40
1
40
1
41
1
10
18.8042218945196
20
7.15704286524779
30
0
41
1
10
18.8042794767568
20
7.15658191739811
30
0
41
1
10
18.8052594121301
20
7.14876296041715
30
0
41
1
10
18.8067676298413
20
7.13740836924998
30
0
41
1
10
18.8089895831613
20
7.12309253878601
30
0
41
1
10
18.8114058058151
20
7.10885816742278
30
0
41
1
10
18.8188513676058
20
7.06978852013036
30
0
41
1
10
18.8356088537672
20
7.00492738447018
30
0
41
1
10
18.8682539224185
20
6.91874330631215
30
0
41
1
10
18.903544146243
20
6.85031350663856
30
0
41
1
10
18.9349134839854
20
6.80018627182206
30
0
41
1
10
18.9510398070545
20
6.77704107829381
30
0
41
1
10
18.9606242978923
20
6.76401989987374
30
0
41
1
10
18.9635676666504
20
6.76006543748761
30
0
41
1
10
18.9708918006632
20
6.75037661577764
30
0
41
1
10
18.9796662976295
20
6.7392077528005
30
0
41
1
10
18.9899992642765
20
6.72664140160946
30
0
41
1
10
19.0005322072314
20
6.71421150841219
30
0
41
1
10
19.0140670844368
20
6.69893827984215
30
0
41
1
10
19.0364827479782
20
6.67509993291021
30
0
41
1
10
19.0658770084053
20
6.64649101796434
30
0
41
1
10
19.1031894296434
20
6.61427469720012
30
0
41
1
10
19.1358490538841
20
6.58936636688929
30
0
41
1
10
19.1627962657349
20
6.57065936745499
30
0
41
1
10
19.1833864179853
20
6.55725307594115
30
0
41
1
10
19.2043263007313
20
6.54448486814384
30
0
41
1
10
19.2255859011061
20
6.5323688697178
30
0
41
1
10
19.247135206243
20
6.52091920631767
30
0
41
1
10
19.2634919540171
20
6.51284230427807
30
0
41
1
10
19.2744682272296
20
6.5076747611481
30
0
41
1
10
19.2909742359502
20
6.50005363537203
30
0
41
1
10
19.3187518037227
20
6.48821937841082
30
0
41
1
10
19.3750039426476
20
6.46758001571222
30
0
41
1
10
19.4491089629437
20
6.44720219277978
30
0
41
1
10
19.539987078138
20
6.4331095140985
30
0
41
1
10
19.6067569273268
20
6.43016272872251
30
0
41
1
10
19.6500319071114
20
6.43105947930442
30
0
41
1
10
19.6716014174606
20
6.43209037810564
30
0
41
1
10
19.6866391385583
20
6.43325435904424
30
0
41
1
10
19.6944719260979
20
6.43391910217237
30
0
41
1
10
19.6949336503078
20
6.4339584743705
30
0
0
SPLINE
5
1CE
100
AcDbEntity
8
1
62
256
6
ByLayer
370
18
48
1
60
0
100
AcDbSpline
70
4
71
1
72
4
73
2
40
0
40
0
40
1
40
1
41
1
10
20.5419953693888
20
6.50981853215383
30
0
41
1
10
19.6949340072002
20
6.43395429375582
30
0
0
SPLINE
5
1CF
100
AcDbEntity
8
1
62
256
6
ByLayer
370
18
48
1
60
0
100
AcDbSpline
70
4
71
3
72
46
73
42
40
0
40
0
40
0
40
0
40
0.0002356819181342
40
0.0012435088516845
40
0.0022513357852347
40
0.002692260068663
40
0.0093061243200866
40
0.0163609128549385
40
0.0324861437917428
40
0.0486113747285471
40
0.0647366056653513
40
0.0687679133995524
40
0.070783567266653
40
0.0727992211337535
40
0.0768305288679546
40
0.0788461827350551
40
0.0808618366021556
40
0.0848931443363567
40
0.0889244520705578
40
0.0969870675389599
40
0.129237529412568
40
0.161487991286177
40
0.193738453159786
40
0.20986368409659
40
0.217926299564992
40
0.219941953432093
40
0.221957607299193
40
0.222965434232743
40
0.223973261166294
40
0.225988915033394
40
0.226492828500169
40
0.226996741966944
40
0.227232951404495
40
0.234555443968572
40
0.242114145970199
40
0.258239376907003
40
0.290489838780611
40
0.354990762527829
40
0.483992610022263
40
0.741996305011131
40
1
40
1
40
1
40
1
41
1
10
20.92919179878
20
9.07437938642535
30
0
41
1
10
20.9291587440451
20
9.0746598557283
30
0
41
1
10
20.9289860742881
20
9.0761436329216
30
0
41
1
10
20.9286888635191
20
9.07886867496632
30
0
41
1
10
20.9283779102421
20
9.08187570034681
30
0
41
1
10
20.9273560772446
20
9.09174172432249
30
0
41
1
10
20.9255573983393
20
9.10898095183711
30
0
41
1
10
20.9217371841393
20
9.14532786202889
30
0
41
1
10
20.9166974089579
20
9.19327811987172
30
0
41
1
10
20.9104946087347
20
9.25229382183215
30
0
41
1
10
20.9058425085673
20
9.29655559830248
30
0
41
1
10
20.902999558465
20
9.32360446170101
30
0
41
1
10
20.9019657584278
20
9.33344041202774
30
0
41
1
10
20.9009319583906
20
9.34327636235449
30
0
41
1
10
20.8998981583533
20
9.35311231268123
30
0
41
1
10
20.8988643583162
20
9.36294826300797
30
0
41
1
10
20.8978305582789
20
9.3727842133347
30
0
41
1
10
20.8965383082324
20
9.38507915124312
30
0
41
1
10
20.8944707081581
20
9.40475105189661
30
0
41
1
10
20.8887848079534
20
9.45884877869366
30
0
41
1
10
20.8794806076186
20
9.54737233163429
30
0
41
1
10
20.8670750071722
20
9.66540373555515
30
0
41
1
10
20.8567370068001
20
9.76376323882253
30
0
41
1
10
20.8495004065397
20
9.8326148911097
30
0
41
1
10
20.8461405564188
20
9.8645817296716
30
0
41
1
10
20.844589856363
20
9.87933565516171
30
0
41
1
10
20.8439437313397
20
9.88548312411592
30
0
41
1
10
20.8434268313212
20
9.89040109927929
30
0
41
1
10
20.8429099313025
20
9.89531907444265
30
0
41
1
10
20.8424576437863
20
9.8996223027106
30
0
41
1
10
20.8420699687723
20
9.90331078408312
30
0
41
1
10
20.8419104566572
20
9.9048284404812
30
0
41
1
10
20.84087665662
20
9.91466439080793
30
0
41
1
10
20.8389382815502
20
9.93310679767058
30
0
41
1
10
20.8349625935165
20
9.97093294257945
30
0
41
1
10
20.8277906057584
20
10.0391698479712
30
0
41
1
10
20.8133174052376
20
10.1768731525455
30
0
41
1
10
20.7843710041959
20
10.4522797616942
30
0
41
1
10
20.7264782021126
20
11.0030929799915
30
0
41
1
10
20.6437741991363
20
11.7899690061305
30
0
41
1
10
20.5776109967553
20
12.4194698270418
30
0
41
1
10
20.5445293955648
20
12.7342202374974
30
0
0
SPLINE
5
1D0
100
AcDbEntity
8
1
62
256
6
ByLayer
370
18
48
1
60
0
100
AcDbSpline
70
4
71
1
72
4
73
2
40
0
40
0
40
1
40
1
41
1
10
18.4036007598766
20
18.7201694406472
30
0
41
1
10
19.2479241434493
20
18.8220768913029
30
0
0
SPLINE
5
1D1
100
AcDbEntity
8
1
62
256
6
ByLayer
370
18
48
1
60
0
100
AcDbSpline
70
4
71
3
72
45
73
41
40
0
40
0
40
0
40
0
40
0.0011565097570555
40
0.0196321945810304
40
0.0288700369930179
40
0.0381078794050053
40
0.0565835642289803
40
0.13048630352488
40
0.204389042820779
40
0.278291782116679
40
0.310624230558635
40
0.340935900972969
40
0.342956679000591
40
0.347575600206585
40
0.352194521412579
40
0.370670206236554
40
0.379908048648541
40
0.389145891060529
40
0.407621575884504
40
0.426097260708478
40
0.463048630356428
40
0.500000000004379
40
0.536951369652328
40
0.555427054476302
40
0.573902739300278
40
0.592378424124253
40
0.610854108948228
40
0.629329793772203
40
0.647805478596178
40
0.652424399802171
40
0.657043321008165
40
0.689375769450121
40
0.721708217892078
40
0.795610957187977
40
0.869513696483877
40
0.943416435779777
40
0.961892120603752
40
0.980367805427726
40
0.998843490251701
40
1
40
1
40
1
40
1
41
1
10
18.4036012799922
20
18.7201652771882
30
0
41
1
10
18.4031414596203
20
18.7201077911477
30
0
41
1
10
18.3953416294102
20
18.719129479942
30
0
41
1
10
18.3840148570865
20
18.7176234173945
30
0
41
1
10
18.3697342629946
20
18.7154034159956
30
0
41
1
10
18.3555350324248
20
18.7129886399245
30
0
41
1
10
18.3165622500617
20
18.7055451051198
30
0
41
1
10
18.2518641534064
20
18.6887804818338
30
0
41
1
10
18.1659019757227
20
18.6561011394055
30
0
41
1
10
18.0976531155387
20
18.6207613207281
30
0
41
1
10
18.0476612233375
20
18.5893424726889
30
0
41
1
10
18.024579354132
20
18.5731893667395
30
0
41
1
10
18.0115940607782
20
18.5635885851596
30
0
41
1
10
18.0076505130311
20
18.5606401910978
30
0
41
1
10
17.9979884903528
20
18.5533034756611
30
0
41
1
10
17.9868506882839
20
18.544513683432
30
0
41
1
10
17.9743195180012
20
18.5341624075981
30
0
41
1
10
17.9619245819843
20
18.5236106085975
30
0
41
1
10
17.9466946075006
20
18.5100511467217
30
0
41
1
10
17.9229244256395
20
18.4875940290552
30
0
41
1
10
17.894398581087
20
18.4581440644778
30
0
41
1
10
17.8622779410612
20
18.4207588550027
30
0
41
1
10
17.8374455197366
20
18.3880338504627
30
0
41
1
10
17.8187967570116
20
18.3610317584149
30
0
41
1
10
17.8054328489146
20
18.3403992225638
30
0
41
1
10
17.7927056815434
20
18.3194157972904
30
0
41
1
10
17.7806293316773
20
18.2981115599871
30
0
41
1
10
17.7692178760954
20
18.2765165880469
30
0
41
1
10
17.7611685127065
20
18.2601248661584
30
0
41
1
10
17.7560188478981
20
18.2491249953625
30
0
41
1
10
17.7484242505033
20
18.2325834248873
30
0
41
1
10
17.7366322759458
20
18.2047455084923
30
0
41
1
10
17.7160706140742
20
18.1483694714349
30
0
41
1
10
17.6957789216634
20
18.0740977769608
30
0
41
1
10
17.6817659034977
20
17.9830097362689
30
0
41
1
10
17.6788599969981
20
17.9160818947603
30
0
41
1
10
17.6797765548453
20
17.8727030935586
30
0
41
1
10
17.6808159348564
20
17.8510815394904
30
0
41
1
10
17.6819847677714
20
17.8360073090335
30
0
41
1
10
17.6826518989032
20
17.8281554750055
30
0
41
1
10
17.6826914114225
20
17.8276926279555
30
0
0
SPLINE
5
1D2
100
AcDbEntity
8
1
62
256
6
ByLayer
370
18
48
1
60
0
100
AcDbSpline
70
4
71
1
72
4
73
2
40
0
40
0
40
1
40
1
41
1
10
17.7588002497103
20
16.9785691485983
30
0
41
1
10
17.6826872409498
20
17.8276922723305
30
0
0
SPLINE
5
1D3
100
AcDbEntity
8
1
62
256
6
ByLayer
370
18
48
1
60
0
100
AcDbSpline
70
4
71
3
72
46
73
42
40
0
40
0
40
0
40
0
40
0.0002356819181337
40
0.001243508851684
40
0.0022513357852343
40
0.0026922600686625
40
0.0093061243200862
40
0.016360912854938
40
0.0324861437917423
40
0.0486113747285466
40
0.0647366056653509
40
0.068767913399552
40
0.0707835672666525
40
0.0727992211337531
40
0.0768305288679541
40
0.0788461827350547
40
0.0808618366021552
40
0.0848931443363563
40
0.0889244520705574
40
0.0969870675389595
40
0.129237529412568
40
0.161487991286177
40
0.193738453159785
40
0.20986368409659
40
0.217926299564992
40
0.219941953432092
40
0.221957607299193
40
0.222965434232743
40
0.223973261166293
40
0.225988915033394
40
0.226492828500169
40
0.226996741966944
40
0.227232951404495
40
0.234555443968571
40
0.242114145970198
40
0.258239376907002
40
0.290489838780611
40
0.354990762527828
40
0.483992610022263
40
0.741996305011131
40
1
40
1
40
1
40
1
41
1
10
20.2929999981058
20
16.5588825196785
30
0
41
1
10
20.2932797823862
20
16.5589155111475
30
0
41
1
10
20.2947599366952
20
16.5590878409488
30
0
41
1
10
20.2974783351993
20
16.5593843798195
30
0
41
1
10
20.3004780382021
20
16.5596945510353
30
0
41
1
10
20.3103200367104
20
16.5607138219135
30
0
41
1
10
20.3275172770454
20
16.5625080554653
30
0
41
1
10
20.3637756479907
20
16.5663189638155
30
0
41
1
10
20.4116091014154
20
16.5713464623578
30
0
41
1
10
20.470481044092
20
16.5775341528714
30
0
41
1
10
20.5146350010994
20
16.5821749207566
30
0
41
1
10
20.5416179748262
20
16.5850109455754
30
0
41
1
10
20.5514299652723
20
16.5860422273276
30
0
41
1
10
20.5612419557183
20
16.5870735090799
30
0
41
1
10
20.5710539461645
20
16.5881047908322
30
0
41
1
10
20.5808659366106
20
16.5891360725845
30
0
41
1
10
20.5906779270567
20
16.5901673543367
30
0
41
1
10
20.6029429151143
20
16.5914564565271
30
0
41
1
10
20.6225668960065
20
16.5935190200316
30
0
41
1
10
20.67653284346
20
16.5991910696691
30
0
41
1
10
20.7648407574748
20
16.6084726054395
30
0
41
1
10
20.882584642828
20
16.6208479864668
30
0
41
1
10
20.9807045472889
20
16.6311608039895
30
0
41
1
10
21.0493884804116
20
16.6383797762554
30
0
41
1
10
21.0812774493614
20
16.6417314419503
30
0
41
1
10
21.0959954350305
20
16.6432783645787
30
0
41
1
10
21.1021279290594
20
16.6439229156739
30
0
41
1
10
21.1070339242824
20
16.64443855655
30
0
41
1
10
21.1119399195055
20
16.6449541974261
30
0
41
1
10
21.1162326653256
20
16.6454053831927
30
0
41
1
10
21.1199121617429
20
16.6457921138499
30
0
41
1
10
21.1214261212063
20
16.6459512374015
30
0
41
1
10
21.1312381116524
20
16.6469825191537
30
0
41
1
10
21.1496355937388
20
16.6489161724392
30
0
41
1
10
21.1873695960598
20
16.6528821758967
30
0
41
1
10
21.2554402797796
20
16.6600366930531
30
0
41
1
10
21.3928081460249
20
16.6744746375849
30
0
41
1
10
21.6675438785156
20
16.7033505266485
30
0
41
1
10
22.2170153434969
20
16.7611023047757
30
0
41
1
10
23.0019745791845
20
16.8436048449573
30
0
41
1
10
23.6299419677346
20
16.9096068771027
30
0
41
1
10
23.9439256620097
20
16.9426078931753
30
0
0
SPLINE
5
1D4
100
AcDbEntity
8
1
62
256
6
ByLayer
370
18
48
1
60
0
100
AcDbSpline
70
4
71
3
72
21
73
17
40
0
40
0
40
0
40
0
40
0.0592792738439088
40
0.12223937758049
40
0.185199481317069
40
0.248159585053652
40
0.311119688790235
40
0.374079792526815
40
0.499999999999977
40
0.625920207473139
40
0.751840414946301
40
0.814800518682883
40
0.877760622419464
40
0.909240674287754
40
0.940720726156045
40
1
40
1
40
1
40
1
41
1
10
20.159862302892
20
16.3940605956876
30
0
41
1
10
20.1594438914188
20
16.3985894909454
30
0
41
1
10
20.1588365045733
20
16.4075723592895
30
0
41
1
10
20.1592243709783
20
16.4206559469747
30
0
41
1
10
20.1609702123002
20
16.434991131034
30
0
41
1
10
20.1641659792126
20
16.4496900875132
30
0
41
1
10
20.1689113312134
20
16.4641250280715
30
0
41
1
10
20.1772781159654
20
16.4828265769524
30
0
41
1
10
20.1915113170007
20
16.5048196583678
30
0
41
1
10
20.2137108929862
20
16.5270551290332
30
0
41
1
10
20.2350572780697
20
16.5410330476306
30
0
41
1
10
20.2532939485505
20
16.5492861532993
30
0
41
1
10
20.2646473012783
20
16.553196498944
30
0
41
1
10
20.2733866132698
20
16.5555596682844
30
0
41
1
10
20.2818928111634
20
16.5574067335397
30
0
41
1
10
20.2884941096353
20
16.5583511964769
30
0
41
1
10
20.2929999981058
20
16.5588825196785
30
0
0
SPLINE
5
1D5
100
AcDbEntity
8
1
62
256
6
ByLayer
370
18
48
1
60
0
100
AcDbSpline
70
4
71
1
72
4
73
2
40
0
40
0
40
1
40
1
41
1
10
18.8042177412444
20
7.15704234600103
30
0
41
1
10
18.7021249605508
20
8.00343415718963
30
0
0
SPLINE
5
1D6
100
AcDbEntity
8
1
62
256
6
ByLayer
370
18
48
1
60
0
100
AcDbSpline
70
4
71
3
72
42
73
38
40
0
40
0
40
0
40
0
40
0.258003694988868
40
0.516007389977737
40
0.645009237472171
40
0.709510161219388
40
0.741760623092997
40
0.749823238561399
40
0.757885854029801
40
0.765444556031428
40
0.769223907032242
40
0.773003258033055
40
0.77350717149983
40
0.774011084966605
40
0.776026738833706
40
0.778042392700806
40
0.782073700435007
40
0.79013631590341
40
0.806261546840214
40
0.838512008713822
40
0.870762470587431
40
0.90301293246104
40
0.911075547929442
40
0.915106855663643
40
0.919138163397844
40
0.923169471132045
40
0.927200778866246
40
0.931232086600447
40
0.935263394334648
40
0.951388625271452
40
0.967513856208257
40
0.983639087145061
40
0.990693875679913
40
0.997748664214765
40
0.998756491148315
40
0.999764318081865
40
1
40
1
40
1
40
1
41
1
10
20.5445293955648
20
12.7342202374974
30
0
41
1
10
20.5114477943743
20
13.048970647953
30
0
41
1
10
20.4452845919934
20
13.6784714688642
30
0
41
1
10
20.3625805890171
20
14.4653474950033
30
0
41
1
10
20.3046877869338
20
15.0161607133006
30
0
41
1
10
20.2757413858921
20
15.2915673224492
30
0
41
1
10
20.2623019854084
20
15.4194346766968
30
0
41
1
10
20.2560991851852
20
15.4784503786573
30
0
41
1
10
20.2530623975759
20
15.5073434827421
30
0
41
1
10
20.2505748162364
20
15.5310112382158
30
0
41
1
10
20.2486364411666
20
15.5494536450784
30
0
41
1
10
20.2476026411295
20
15.5592895954051
30
0
41
1
10
20.2469888223573
20
15.5651296909117
30
0
41
1
10
20.2466011473434
20
15.5688181722842
30
0
41
1
10
20.2460196348225
20
15.574350894343
30
0
41
1
10
20.2449858347853
20
15.5841868446697
30
0
41
1
10
20.2431766847201
20
15.6013997577415
30
0
41
1
10
20.2395583845899
20
15.6358255838851
30
0
41
1
10
20.2323217843295
20
15.7046772361722
30
0
41
1
10
20.2219837839575
20
15.8030367394396
30
0
41
1
10
20.2095781835111
20
15.9210681433605
30
0
41
1
10
20.2002739831762
20
16.0095916963011
30
0
41
1
10
20.1945880829716
20
16.0636894230982
30
0
41
1
10
20.1925204828972
20
16.0833613237517
30
0
41
1
10
20.1909697828414
20
16.0981152492418
30
0
41
1
10
20.1894190827856
20
16.1128691747319
30
0
41
1
10
20.1878683827298
20
16.127623100222
30
0
41
1
10
20.186317682674
20
16.1423770257121
30
0
41
1
10
20.1832162825624
20
16.1718848766923
30
0
41
1
10
20.178564182395
20
16.2161466531626
30
0
41
1
10
20.1723613821717
20
16.275162355123
30
0
41
1
10
20.1673216069904
20
16.3231126129659
30
0
41
1
10
20.1634448568509
20
16.3599974266912
30
0
41
1
10
20.1614891028833
20
16.3784658932765
30
0
41
1
10
20.1603037335443
20
16.3895648427517
30
0
41
1
10
20.1600278814458
20
16.3922921296832
30
0
41
1
10
20.1598882833293
20
16.393779382846
30
0
41
1
10
20.159862302892
20
16.3940605956876
30
0
0
SPLINE
5
1D7
100
AcDbEntity
8
1
62
256
6
ByLayer
370
18
48
1
60
0
100
AcDbSpline
70
4
71
3
72
41
73
37
40
0
40
0
40
0
40
0
40
0.0078125
40
0.01171875
40
0.013671875
40
0.015625
40
0.03125
40
0.0625
40
0.09375
40
0.125
40
0.1328125
40
0.140625
40
0.15625
40
0.1875
40
0.25
40
0.3125
40
0.375
40
0.4375
40
0.46875
40
0.4765625
40
0.484375
40
0.5
40
0.5625
40
0.625
40
0.6875
40
0.71875
40
0.734375
40
0.7421875
40
0.75
40
0.78125
40
0.8125
40
0.875
40
0.90625
40
0.921875
40
0.9375
40
1
40
1
40
1
40
1
41
1
10
23.9439256620097
20
16.9426078931753
30
0
41
1
10
23.9432596174456
20
16.948944883901
30
0
41
1
10
23.942360956457
20
16.9587696959081
30
0
41
1
10
23.9416841344008
20
16.9687751168471
30
0
41
1
10
23.9413992534988
20
16.9740011572915
30
0
41
1
10
23.9406532462178
20
16.9872716813326
30
0
41
1
10
23.9388048412738
20
17.0203673007508
30
0
41
1
10
23.9358353716463
20
17.0733786813633
30
0
41
1
10
23.9322756661538
20
17.136974570879
30
0
41
1
10
23.9296034924811
20
17.1846790627625
30
0
41
1
10
23.9278297954181
20
17.2164552205571
30
0
41
1
10
23.9266449131272
20
17.2375999641057
30
0
41
1
10
23.9245154960975
20
17.2745495670655
30
0
41
1
10
23.9198016432637
20
17.3511262125186
30
0
41
1
10
23.9119022342621
20
17.4661457206139
30
0
41
1
10
23.9006235722157
20
17.6115945518483
30
0
41
1
10
23.8877470679065
20
17.7619672660931
30
0
41
1
10
23.8758543085374
20
17.889361825161
30
0
41
1
10
23.8676611830259
20
17.9722183065491
30
0
41
1
10
23.8638104197619
20
18.0103005994577
30
0
41
1
10
23.861199389405
20
18.0358751995124
30
0
41
1
10
23.8539692751528
20
18.1067539930399
30
0
41
1
10
23.8421623976787
20
18.2224715423588
30
0
41
1
10
23.826411549435
20
18.376852232168
30
0
41
1
10
23.8132859006581
20
18.5054976112121
30
0
41
1
10
23.8040977801576
20
18.595564255416
30
0
41
1
10
23.7995039787999
20
18.6405744222719
30
0
41
1
10
23.7968785283624
20
18.6663321797653
30
0
41
1
10
23.7929506024217
20
18.7048480115038
30
0
41
1
10
23.7869362311295
20
18.7626575192047
30
0
41
1
10
23.7758380613905
20
18.8656640670528
30
0
41
1
10
23.7642177334769
20
18.9682872383082
30
0
41
1
10
23.7537088457429
20
19.0566560535486
30
0
41
1
10
23.7476281286147
20
19.1066171948655
30
0
41
1
10
23.7384173686714
20
19.1809079580722
30
0
41
1
10
23.7307080144194
20
19.2430436406495
30
0
41
1
10
23.7245506473076
20
19.2926841727397
30
0
0
SPLINE
5
1D8
100
AcDbEntity
8
1
62
256
6
ByLayer
370
18
48
1
60
0
100
AcDbSpline
70
4
71
3
72
20
73
16
40
0
40
0
40
0
40
0
40
0.332431012821212
40
0.664862025642423
40
0.831077532053029
40
0.914185285258332
40
0.955739161860984
40
0.97651610016231
40
0.986255289991056
40
0.995690130137654
40
0.995994479819802
40
0.996643759141719
40
0.997293038463635
40
0.999890155751301
40
1
40
1
40
1
40
1
41
1
10
23.7245506473076
20
19.2926841727397
30
0
41
1
10
23.2284929949065
20
19.2405464125364
30
0
41
1
10
22.2363776901042
20
19.1362708921298
30
0
41
1
10
20.9962329667533
20
19.005931930189
30
0
41
1
10
20.1281335559214
20
18.9146772534146
30
0
41
1
10
19.6940808887652
20
18.8690771078646
30
0
41
1
10
19.4770591643954
20
18.8462347162366
30
0
41
1
10
19.369510647972
20
18.834975185522
30
0
41
1
10
19.3098951087585
20
18.8287113202546
30
0
41
1
10
19.2808301338988
20
18.8256480095049
30
0
41
1
10
19.2653291554583
20
18.8240110672323
30
0
41
1
10
19.2629374081182
20
18.8237584438453
30
0
41
1
10
19.2571253973053
20
18.8231369213246
30
0
41
1
10
19.2521217732741
20
18.8225692751898
30
0
41
1
10
19.2480881278277
20
18.8220936072614
30
0
41
1
10
19.2479244519743
20
18.8220742774549
30
0
0
SPLINE
5
1D9
100
AcDbEntity
8
1
62
256
6
ByLayer
370
18
48
1
60
0
100
AcDbSpline
70
4
71
3
72
21
73
17
40
0
40
0
40
0
40
0
40
0.0001096836879315
40
0.0027068013926382
40
0.0033560808188152
40
0.0040053602449915
40
0.0088749559413161
40
0.0137445516376416
40
0.0234837430302916
40
0.0338722138491184
40
0.0442606846679449
40
0.0858145679432517
40
0.168922334493865
40
0.335137867595092
40
0.667568933797546
40
1
40
1
40
1
40
1
41
1
10
17.7588028660582
20
16.9785693896841
30
0
41
1
10
17.7588180138718
20
16.9784051124789
30
0
41
1
10
17.7591925225418
20
16.9743511057603
30
0
41
1
10
17.7596789553836
20
16.9693268246826
30
0
41
1
10
17.7602809172482
20
16.9634984061078
30
0
41
1
10
17.7612459677376
20
16.9542712531044
30
0
41
1
10
17.7628731243747
20
16.9387309706324
30
0
41
1
10
17.7659293972693
20
16.9095934896417
30
0
41
1
10
17.7698607089605
20
16.8722013182222
30
0
41
1
10
17.7746711925498
20
16.8265548681223
30
0
41
1
10
17.7845000996378
20
16.7333198932121
30
0
41
1
10
17.8057030083529
20
16.5313013564386
30
0
41
1
10
17.8514553103517
20
16.0961930657426
30
0
41
1
10
17.9429056180522
20
15.2259709854016
30
0
41
1
10
18.0735737359317
20
13.9827990987198
30
0
41
1
10
18.1781038865316
20
12.9882611494584
30
0
41
1
10
18.2303689618315
20
12.4909921748277
30
0
0
SPLINE
5
1DA
100
AcDbEntity
8
1
62
256
6
ByLayer
370
18
48
1
60
0
100
AcDbSpline
70
4
71
3
72
41
73
37
40
0
40
0
40
0
40
0
40
0.0625
40
0.078125
40
0.09375
40
0.125
40
0.1875
40
0.21875
40
0.25
40
0.2578125
40
0.265625
40
0.28125
40
0.3125
40
0.375
40
0.4375
40
0.5
40
0.515625
40
0.5234375
40
0.53125
40
0.5625
40
0.625
40
0.6875
40
0.75
40
0.8125
40
0.84375
40
0.859375
40
0.8671875
40
0.875
40
0.90625
40
0.9375
40
0.96875
40
0.984375
40
0.986328125
40
0.98828125
40
0.9921875
40
1
40
1
40
1
40
1
41
1
10
18.2303689618315
20
12.4909921748277
30
0
41
1
10
18.2809157130088
20
12.4963048524554
30
0
41
1
10
18.3441880161827
20
12.502955039494
30
0
41
1
10
18.4198304145441
20
12.5109053759274
30
0
41
1
10
18.4705764089554
20
12.5162389948628
30
0
41
1
10
18.560064188645
20
12.5256445395127
30
0
41
1
10
18.6633489668887
20
12.5365002071446
30
0
41
1
10
18.7664015528181
20
12.5473314703809
30
0
41
1
10
18.8240028667316
20
12.5533856124301
30
0
41
1
10
18.8622934682741
20
12.557410116823
30
0
41
1
10
18.8878990931841
20
12.5601013764477
30
0
41
1
10
18.9326499532724
20
12.5648048813748
30
0
41
1
10
19.022193117943
20
12.5742162472207
30
0
41
1
10
19.1500929024722
20
12.5876590562643
30
0
41
1
10
19.3035782237359
20
12.6037910135802
30
0
41
1
10
19.4186253793414
20
12.6158829568897
30
0
41
1
10
19.4890915997558
20
12.6232892550984
30
0
41
1
10
19.5145197920918
20
12.625961865808
30
0
41
1
10
19.5523433836183
20
12.6299372854705
30
0
41
1
10
19.6344347683569
20
12.6385654376853
30
0
41
1
10
19.7598831708433
20
12.6517505960939
30
0
41
1
10
19.9066896022651
20
12.6671805738006
30
0
41
1
10
20.0474035953664
20
12.6819702104367
30
0
41
1
10
20.1575645945786
20
12.693548598015
30
0
41
1
10
20.2303106468775
20
12.7011945162105
30
0
41
1
10
20.2652533566554
20
12.7048671429998
30
0
41
1
10
20.2852128154938
20
12.7069649666573
30
0
41
1
10
20.3152001582349
20
12.7101167633838
30
0
41
1
10
20.3602294128409
20
12.7148495287537
30
0
41
1
10
20.4202560149746
20
12.7211585788666
30
0
41
1
10
20.4702945840192
20
12.7264178443998
30
0
41
1
10
20.5015282659208
20
12.7297006366506
30
0
41
1
10
20.5140574910574
20
12.731017511277
30
0
41
1
10
20.5189818731415
20
12.7315350846901
30
0
41
1
10
20.5285533596399
20
12.7325410884589
30
0
41
1
10
20.5382078414301
20
12.7335558153843
30
0
41
1
10
20.5445293955648
20
12.7342202374974
30
0
0
SPLINE
5
1DB
100
AcDbEntity
8
1
62
256
6
ByLayer
370
18
48
1
60
0
100
AcDbSpline
70
4
71
3
72
21
73
17
40
0
40
0
40
0
40
0
40
0.0592792738438511
40
0.122239377580439
40
0.185199481317026
40
0.248159585053616
40
0.311119688790206
40
0.374079792526793
40
0.49999999999997
40
0.625920207473146
40
0.751840414946323
40
0.814800518682911
40
0.8777606224195
40
0.909240674287794
40
0.940720726156088
40
1
40
1
40
1
40
1
41
1
10
21.0936885208214
20
8.94084010024875
30
0
41
1
10
21.0891706285197
20
8.94042298587304
30
0
41
1
10
21.0802094712316
20
8.93981870326226
30
0
41
1
10
21.0671568605215
20
8.94021413056159
30
0
41
1
10
21.0528549469547
20
8.94197141109963
30
0
41
1
10
21.0381893924821
20
8.94518226498499
30
0
41
1
10
21.0237864391071
20
8.94994627142297
30
0
41
1
10
21.0051252068994
20
8.9583425242879
30
0
41
1
10
20.9831773099914
20
8.9726208750412
30
0
41
1
10
20.9609835617672
20
8.99488475215267
30
0
41
1
10
20.9470281233631
20
9.01628921318282
30
0
41
1
10
20.9387854345194
20
9.03457362879784
30
0
41
1
10
20.9348786488059
20
9.04595608302492
30
0
41
1
10
20.9325166785417
20
9.05471746807008
30
0
41
1
10
20.9306697008732
20
9.0632449204941
30
0
41
1
10
20.9297241408721
20
9.06986246575805
30
0
41
1
10
20.92919179878
20
9.07437938642535
30
0
0
SPLINE
5
1DC
100
AcDbEntity
8
1
62
256
6
ByLayer
370
18
48
1
60
0
100
AcDbSpline
70
4
71
3
72
45
73
41
40
0
40
0
40
0
40
0
40
0.0011565097570524
40
0.0196321945810274
40
0.0288700369930149
40
0.0381078794050024
40
0.0565835642289774
40
0.130486303524878
40
0.204389042820778
40
0.278291782116678
40
0.310624230558634
40
0.340935900972968
40
0.34295667900059
40
0.347575600206584
40
0.352194521412578
40
0.370670206236553
40
0.37990804864854
40
0.389145891060528
40
0.407621575884503
40
0.426097260708478
40
0.463048630356428
40
0.500000000004378
40
0.536951369652328
40
0.555427054476302
40
0.573902739300278
40
0.592378424124254
40
0.610854108948228
40
0.629329793772203
40
0.647805478596178
40
0.652424399802171
40
0.657043321008166
40
0.689375769450123
40
0.721708217892078
40
0.795610957187978
40
0.869513696483878
40
0.943416435779778
40
0.961892120603753
40
0.980367805427728
40
0.998843490251704
40
1
40
1
40
1
40
1
41
1
10
30.3395902464985
20
7.55275696557869
30
0
41
1
10
30.3400500668704
20
7.55281445161916
30
0
41
1
10
30.3478498970805
20
7.55379276282486
30
0
41
1
10
30.3591766694042
20
7.5552988253724
30
0
41
1
10
30.3734572634962
20
7.55751882677129
30
0
41
1
10
30.3876564940659
20
7.55993360284243
30
0
41
1
10
30.426629276429
20
7.56737713764714
30
0
41
1
10
30.4913273730843
20
7.58414176093306
30
0
41
1
10
30.577289550768
20
7.61682110336143
30
0
41
1
10
30.645538410952
20
7.65216092203883
30
0
41
1
10
30.6955303031533
20
7.683579770078
30
0
41
1
10
30.7186121723588
20
7.69973287602745
30
0
41
1
10
30.7315974657125
20
7.70933365760726
30
0
41
1
10
30.7355410134596
20
7.71228205166911
30
0
41
1
10
30.7452030361379
20
7.71961876710586
30
0
41
1
10
30.7563408382068
20
7.72840855933495
30
0
41
1
10
30.7688720084895
20
7.73875983516875
30
0
41
1
10
30.7812669445064
20
7.74931163416942
30
0
41
1
10
30.7964969189902
20
7.76287109604522
30
0
41
1
10
30.8202671008513
20
7.78532821371168
30
0
41
1
10
30.8487929454037
20
7.81477817828915
30
0
41
1
10
30.8809135854295
20
7.85216338776415
30
0
41
1
10
30.9057460067542
20
7.88488839230423
30
0
41
1
10
30.9243947694791
20
7.91189048435206
30
0
41
1
10
30.9377586775761
20
7.93252302020306
30
0
41
1
10
30.9504858449473
20
7.95350644547653
30
0
41
1
10
30.9625621948135
20
7.97481068277975
30
0
41
1
10
30.9739736503954
20
7.99640565472002
30
0
41
1
10
30.9820230137842
20
8.01279737660848
30
0
41
1
10
30.9871726785926
20
8.0237972474044
30
0
41
1
10
30.9947672759874
20
8.04033881787963
30
0
41
1
10
31.0065592505449
20
8.06817673427454
30
0
41
1
10
31.0271209124165
20
8.12455277133199
30
0
41
1
10
31.0474126048273
20
8.19882446580611
30
0
41
1
10
31.061425622993
20
8.28991250649798
30
0
41
1
10
31.0643315294927
20
8.35684034800656
30
0
41
1
10
31.0634149716454
20
8.40021914920825
30
0
41
1
10
31.0623755916343
20
8.4218407032765
30
0
41
1
10
31.0612067587193
20
8.43691493373335
30
0
41
1
10
31.0605396275875
20
8.44476676776135
30
0
41
1
10
31.0605001150682
20
8.44522961481137
30
0
0
SPLINE
5
1DD
100
AcDbEntity
8
1
62
256
6
ByLayer
370
18
48
1
60
0
100
AcDbSpline
70
4
71
3
72
20
73
16
40
0
40
0
40
0
40
0
40
0.332431012821213
40
0.664862025642426
40
0.831077532053032
40
0.914185285258335
40
0.955739161860987
40
0.976516100162313
40
0.986255289991059
40
0.995690130137658
40
0.995994479819806
40
0.996643759141722
40
0.997293038463639
40
0.999890155751304
40
1
40
1
40
1
40
1
41
1
10
18.2303689618315
20
12.4909921748277
30
0
41
1
10
18.2826340371314
20
11.993723200197
30
0
41
1
10
18.3871641877312
20
10.9991852509356
30
0
41
1
10
18.5178214506721
20
9.75601222335379
30
0
41
1
10
18.6092988957191
20
8.88579299526293
30
0
41
1
10
18.6550104916982
20
8.45068042619181
30
0
41
1
10
18.6779085053725
20
8.23312874041497
30
0
41
1
10
18.689195744315
20
8.12531762392611
30
0
41
1
10
18.6954749148576
20
8.06555651064606
30
0
41
1
10
18.69854566509
20
8.03642055779075
30
0
41
1
10
18.700186567345
20
8.0208817236241
30
0
41
1
10
18.7004398016271
20
8.0184841352517
30
0
41
1
10
18.7010627904342
20
8.01265792669754
30
0
41
1
10
18.7016316213067
20
8.00764206315878
30
0
41
1
10
18.7021082012674
20
8.00359854173779
30
0
41
1
10
18.7021275680145
20
8.00343446512612
30
0
0
SPLINE
5
1DE
100
AcDbEntity
8
1
62
256
6
ByLayer
370
18
48
1
60
0
100
AcDbSpline
70
4
71
3
72
21
73
17
40
0
40
0
40
0
40
0
40
0.0001096836879345
40
0.0027068013926411
40
0.0033560808188181
40
0.0040053602449945
40
0.008874955941319
40
0.0137445516376445
40
0.0234837430302945
40
0.0338722138491213
40
0.0442606846679478
40
0.0858145679432544
40
0.168922334493868
40
0.335137867595094
40
0.667568933797547
40
1
40
1
40
1
40
1
41
1
10
20.5419951275508
20
6.50982115487346
30
0
41
1
10
20.5421590056591
20
6.50983625556727
30
0
41
1
10
20.5462031631786
20
6.51020960308045
30
0
41
1
10
20.5512152264752
20
6.51069465010011
30
0
41
1
10
20.5570294527054
20
6.51129509433277
30
0
41
1
10
20.5662341312427
20
6.51225777103136
30
0
41
1
10
20.5817365615079
20
6.51388093411887
30
0
41
1
10
20.6108030682032
20
6.51692973217527
30
0
41
1
10
20.6481041535456
20
6.52085147335244
30
0
41
1
10
20.6936394046721
20
6.52565030083301
30
0
41
1
10
20.7866472489022
20
6.53545540760052
30
0
41
1
10
20.9881736939342
20
6.55660652190021
30
0
41
1
10
21.4222220722679
20
6.60224747286983
30
0
41
1
10
22.2903243423148
20
6.69347494603113
30
0
41
1
10
23.5304679219797
20
6.8238247894172
30
0
41
1
10
24.522583226782
20
6.92810030982383
30
0
41
1
10
25.0186408791831
20
6.98023807002714
30
0
0
SPLINE
5
1DF
100
AcDbEntity
8
1
62
256
6
ByLayer
370
18
48
1
60
0
100
AcDbSpline
70
4
71
1
72
4
73
2
40
0
40
0
40
1
40
1
41
1
10
29.9389737852464
20
19.1158798967659
30
0
41
1
10
30.0410665659399
20
18.2694880855773
30
0
0
SPLINE
5
1E0
100
AcDbEntity
8
1
62
256
6
ByLayer
370
18
48
1
60
0
100
AcDbSpline
70
4
71
3
72
45
73
41
40
0
40
0
40
0
40
0
40
0.0011565097570597
40
0.0196321945810346
40
0.028870036993022
40
0.0381078794050094
40
0.0565835642289842
40
0.130486303524884
40
0.204389042820783
40
0.278291782116682
40
0.310624230558638
40
0.340935900972972
40
0.342956679000594
40
0.347575600206588
40
0.352194521412582
40
0.370670206236556
40
0.379908048648544
40
0.389145891060531
40
0.407621575884506
40
0.426097260708481
40
0.463048630356431
40
0.500000000004381
40
0.53695136965233
40
0.555427054476304
40
0.57390273930028
40
0.592378424124255
40
0.61085410894823
40
0.629329793772205
40
0.647805478596179
40
0.652424399802172
40
0.657043321008167
40
0.689375769450123
40
0.721708217892079
40
0.795610957187978
40
0.869513696483878
40
0.943416435779777
40
0.961892120603752
40
0.980367805427727
40
0.998843490251701
40
1
40
1
40
1
40
1
41
1
10
29.9389696319711
20
19.1158793775191
30
0
41
1
10
29.9389120497339
20
19.1163403253688
30
0
41
1
10
29.9379321143606
20
19.1241592823498
30
0
41
1
10
29.9364238966494
20
19.1355138735169
30
0
41
1
10
29.9342019433294
20
19.1498297039809
30
0
41
1
10
29.9317857206756
20
19.1640640753441
30
0
41
1
10
29.924340158885
20
19.2031337226365
30
0
41
1
10
29.9075826727235
20
19.2679948582967
30
0
41
1
10
29.8749376040722
20
19.3541789364547
30
0
41
1
10
29.8396473802478
20
19.4226087361284
30
0
41
1
10
29.8082780425054
20
19.4727359709448
30
0
41
1
10
29.7921517194362
20
19.4958811644731
30
0
41
1
10
29.7825672285984
20
19.5089023428932
30
0
41
1
10
29.7796238598403
20
19.5128568052793
30
0
41
1
10
29.7722997258275
20
19.5225456269893
30
0
41
1
10
29.7635252288612
20
19.5337144899664
30
0
41
1
10
29.7531922622142
20
19.5462808411574
30
0
41
1
10
29.7426593192593
20
19.5587107343547
30
0
41
1
10
29.7291244420539
20
19.5739839629247
30
0
41
1
10
29.7067087785125
20
19.5978223098567
30
0
41
1
10
29.6773145180854
20
19.6264312248026
30
0
41
1
10
29.6400020968473
20
19.6586475455668
30
0
41
1
10
29.6073424726066
20
19.6835558758776
30
0
41
1
10
29.5803952607559
20
19.7022628753119
30
0
41
1
10
29.5598051085054
20
19.7156691668258
30
0
41
1
10
29.5388652257594
20
19.7284373746231
30
0
41
1
10
29.5176056253846
20
19.7405533730491
30
0
41
1
10
29.4960563202477
20
19.7520030364492
30
0
41
1
10
29.4796995724736
20
19.7600799384888
30
0
41
1
10
29.4687232992611
20
19.7652474816188
30
0
41
1
10
29.4522172905405
20
19.7728686073949
30
0
41
1
10
29.424439722768
20
19.7847028643561
30
0
41
1
10
29.3681875838431
20
19.8053422270547
30
0
41
1
10
29.294082563547
20
19.8257200499871
30
0
41
1
10
29.2032044483527
20
19.8398127286684
30
0
41
1
10
29.1364345991639
20
19.8427595140444
30
0
41
1
10
29.0931596193793
20
19.8418627634625
30
0
41
1
10
29.0715901090301
20
19.8408318646613
30
0
41
1
10
29.0565523879324
20
19.8396678837226
30
0
41
1
10
29.0487196003928
20
19.8390031405945
30
0
41
1
10
29.048257876183
20
19.8389637683964
30
0
0
SPLINE
5
1E1
100
AcDbEntity
8
1
62
256
6
ByLayer
370
18
48
1
60
0
100
AcDbSpline
70
4
71
1
72
4
73
2
40
0
40
0
40
1
40
1
41
1
10
28.201196157102
20
19.7631037106131
30
0
41
1
10
29.0482575192905
20
19.8389679490111
30
0
0
SPLINE
5
1E2
100
AcDbEntity
8
1
62
256
6
ByLayer
370
18
48
1
60
0
100
AcDbSpline
70
4
71
3
72
46
73
42
40
0
40
0
40
0
40
0
40
0.0002356819181344
40
0.0012435088516847
40
0.002251335785235
40
0.0026922600686632
40
0.0093061243200868
40
0.0163609128549387
40
0.032486143791743
40
0.0486113747285473
40
0.0647366056653516
40
0.0687679133995526
40
0.0707835672666532
40
0.0727992211337537
40
0.0768305288679548
40
0.0788461827350553
40
0.0808618366021558
40
0.0848931443363569
40
0.088924452070558
40
0.0969870675389601
40
0.129237529412569
40
0.161487991286177
40
0.193738453159786
40
0.20986368409659
40
0.217926299564992
40
0.219941953432093
40
0.221957607299193
40
0.222965434232744
40
0.223973261166294
40
0.225988915033394
40
0.226492828500169
40
0.226996741966945
40
0.227232951404496
40
0.234555443968572
40
0.242114145970199
40
0.258239376907003
40
0.290489838780612
40
0.354990762527829
40
0.483992610022263
40
0.741996305011131
40
1
40
1
40
1
40
1
41
1
10
27.7593475538695
20
17.1927986814044
30
0
41
1
10
27.7593806086045
20
17.1925182121014
30
0
41
1
10
27.7595532783614
20
17.1910344349081
30
0
41
1
10
27.7598504891304
20
17.1883093928634
30
0
41
1
10
27.7601614424075
20
17.1853023674829
30
0
41
1
10
27.761183275405
20
17.1754363435072
30
0
41
1
10
27.7629819543103
20
17.1581971159926
30
0
41
1
10
27.7668021685103
20
17.1218502058008
30
0
41
1
10
27.7718419436916
20
17.073899947958
30
0
41
1
10
27.7780447439149
20
17.0148842459976
30
0
41
1
10
27.7826968440823
20
16.9706224695272
30
0
41
1
10
27.7855397941846
20
16.9435736061287
30
0
41
1
10
27.7865735942218
20
16.933737655802
30
0
41
1
10
27.787607394259
20
16.9239017054752
30
0
41
1
10
27.7886411942962
20
16.9140657551485
30
0
41
1
10
27.7896749943334
20
16.9042298048218
30
0
41
1
10
27.7907087943706
20
16.894393854495
30
0
41
1
10
27.7920010444171
20
16.8820989165866
30
0
41
1
10
27.7940686444915
20
16.8624270159331
30
0
41
1
10
27.7997545446961
20
16.8083292891361
30
0
41
1
10
27.8090587450309
20
16.7198057361954
30
0
41
1
10
27.8214643454774
20
16.6017743322746
30
0
41
1
10
27.8318023458494
20
16.5034148290072
30
0
41
1
10
27.8390389461098
20
16.43456317672
30
0
41
1
10
27.8423987962308
20
16.4025963381581
30
0
41
1
10
27.8439494962865
20
16.387842412668
30
0
41
1
10
27.8445956213098
20
16.3816949437138
30
0
41
1
10
27.8451125213284
20
16.3767769685504
30
0
41
1
10
27.845629421347
20
16.3718589933871
30
0
41
1
10
27.8460817088633
20
16.3675557651191
30
0
41
1
10
27.8464693838772
20
16.3638672837466
30
0
41
1
10
27.8466288959924
20
16.3623496273485
30
0
41
1
10
27.8476626960295
20
16.3525136770218
30
0
41
1
10
27.8496010710993
20
16.3340712701592
30
0
41
1
10
27.853576759133
20
16.2962451252503
30
0
41
1
10
27.8607487468911
20
16.2280082198585
30
0
41
1
10
27.8752219474119
20
16.0903049152842
30
0
41
1
10
27.9041683484536
20
15.8148983061355
30
0
41
1
10
27.962061150537
20
15.2640850878382
30
0
41
1
10
28.0447651535132
20
14.4772090616992
30
0
41
1
10
28.1109283558942
20
13.847708240788
30
0
41
1
10
28.1440099570847
20
13.5329578303323
30
0
0
SPLINE
5
1E3
100
AcDbEntity
8
1
62
256
6
ByLayer
370
18
48
1
60
0
100
AcDbSpline
70
4
71
3
72
21
73
17
40
0
40
0
40
0
40
0
40
0.0592792738439579
40
0.122239377580544
40
0.185199481317128
40
0.248159585053715
40
0.311119688790303
40
0.374079792526887
40
0.500000000000058
40
0.62592020747323
40
0.751840414946401
40
0.814800518682987
40
0.877760622419573
40
0.909240674287866
40
0.940720726156158
40
1
40
1
40
1
40
1
41
1
10
27.5948508318281
20
17.326337967581
30
0
41
1
10
27.5993687241299
20
17.3267550819567
30
0
41
1
10
27.6083298814179
20
17.3273593645675
30
0
41
1
10
27.621382492128
20
17.3269639372681
30
0
41
1
10
27.6356844056949
20
17.3252066567301
30
0
41
1
10
27.6503499601675
20
17.3219958028447
30
0
41
1
10
27.6647529135424
20
17.3172317964067
30
0
41
1
10
27.6834141457501
20
17.3088355435418
30
0
41
1
10
27.7053620426582
20
17.2945571927885
30
0
41
1
10
27.7275557908824
20
17.272293315677
30
0
41
1
10
27.7415112292864
20
17.2508888546469
30
0
41
1
10
27.7497539181301
20
17.2326044390319
30
0
41
1
10
27.7536607038437
20
17.2212219848048
30
0
41
1
10
27.7560226741078
20
17.2124605997596
30
0
41
1
10
27.7578696517763
20
17.2039331473356
30
0
41
1
10
27.7588152117775
20
17.1973156020717
30
0
41
1
10
27.7593475538695
20
17.1927986814044
30
0
0
SPLINE
5
1E4
100
AcDbEntity
8
1
62
256
6
ByLayer
370
18
48
1
60
0
100
AcDbSpline
70
4
71
3
72
42
73
38
40
0
40
0
40
0
40
0
40
0.258003694988869
40
0.516007389977738
40
0.645009237472173
40
0.70951016121939
40
0.741760623092999
40
0.749823238561401
40
0.757885854029803
40
0.76544455603143
40
0.769223907032244
40
0.773003258033057
40
0.773507171499832
40
0.774011084966608
40
0.776026738833708
40
0.778042392700809
40
0.78207370043501
40
0.790136315903412
40
0.806261546840216
40
0.838512008713825
40
0.870762470587433
40
0.903012932461042
40
0.911075547929444
40
0.915106855663646
40
0.919138163397846
40
0.923169471132047
40
0.927200778866249
40
0.93123208660045
40
0.935263394334651
40
0.951388625271455
40
0.967513856208259
40
0.983639087145064
40
0.990693875679915
40
0.997748664214767
40
0.998756491148318
40
0.999764318081868
40
1
40
1
40
1
40
1
41
1
10
23.9439256620097
20
16.9426078931753
30
0
41
1
10
24.2579093562847
20
16.975608909248
30
0
41
1
10
24.8858767448348
20
17.0416109413934
30
0
41
1
10
25.6708359805224
20
17.124113481575
30
0
41
1
10
26.2203074455037
20
17.1818652597022
30
0
41
1
10
26.4950431779944
20
17.2107411487658
30
0
41
1
10
26.6225990537936
20
17.2241478115453
30
0
41
1
10
26.6814709964702
20
17.2303355020589
30
0
41
1
10
26.7102937184056
20
17.2333648922062
30
0
41
1
10
26.7339038204165
20
17.2358464139226
30
0
41
1
10
26.7523013025029
20
17.2377800672081
30
0
41
1
10
26.762113292949
20
17.2388113489604
30
0
41
1
10
26.7679391622764
20
17.2394236725008
30
0
41
1
10
26.7716186586937
20
17.2398104031579
30
0
41
1
10
26.7771379033196
20
17.2403904991436
30
0
41
1
10
26.7869498937657
20
17.2414217808959
30
0
41
1
10
26.8041208770464
20
17.2432265239623
30
0
41
1
10
26.8384628436077
20
17.2468360100953
30
0
41
1
10
26.9071467767304
20
17.2540549823612
30
0
41
1
10
27.0052666811913
20
17.2643677998839
30
0
41
1
10
27.1230105665445
20
17.2767431809112
30
0
41
1
10
27.2113184805593
20
17.2860247166816
30
0
41
1
10
27.2652844280129
20
17.2916967663191
30
0
41
1
10
27.284908408905
20
17.2937593298236
30
0
41
1
10
27.2996263945742
20
17.295306252452
30
0
41
1
10
27.3143443802433
20
17.2968531750804
30
0
41
1
10
27.3290623659125
20
17.2984000977088
30
0
41
1
10
27.3437803515816
20
17.2999470203372
30
0
41
1
10
27.3732163229199
20
17.3030408655941
30
0
41
1
10
27.4173702799273
20
17.3076816334793
30
0
41
1
10
27.4762422226039
20
17.3138693239929
30
0
41
1
10
27.5240756760286
20
17.3188968225352
30
0
41
1
10
27.5608706402015
20
17.3227641291062
30
0
41
1
10
27.5792941111068
20
17.3247151895864
30
0
41
1
10
27.5903660145543
20
17.3258977622366
30
0
41
1
10
27.593086663427
20
17.326172890281
30
0
41
1
10
27.5945703021934
20
17.3263120676844
30
0
41
1
10
27.5948508318281
20
17.326337967581
30
0
0
SPLINE
5
1E5
100
AcDbEntity
8
1
62
256
6
ByLayer
370
18
48
1
60
0
100
AcDbSpline
70
4
71
3
72
41
73
37
40
0
40
0
40
0
40
0
40
0.0078125
40
0.01171875
40
0.013671875
40
0.015625
40
0.03125
40
0.0625
40
0.09375
40
0.125
40
0.1328125
40
0.140625
40
0.15625
40
0.1875
40
0.25
40
0.3125
40
0.375
40
0.4375
40
0.46875
40
0.4765625
40
0.484375
40
0.5
40
0.5625
40
0.625
40
0.6875
40
0.71875
40
0.734375
40
0.7421875
40
0.75
40
0.78125
40
0.8125
40
0.875
40
0.90625
40
0.921875
40
0.9375
40
1
40
1
40
1
40
1
41
1
10
28.1440099570847
20
13.5329578303323
30
0
41
1
10
28.1503315112195
20
13.5336222524453
30
0
41
1
10
28.1602510022077
20
13.5346648329599
30
0
41
1
10
28.1705638787643
20
13.5357487599638
30
0
41
1
10
28.1760112792807
20
13.5363213048292
30
0
41
1
10
28.1898238889957
20
13.5377730686104
30
0
41
1
10
28.2242821192838
20
13.5413947745534
30
0
41
1
10
28.2794683248851
20
13.5471950784903
30
0
41
1
10
28.3456756330578
20
13.5541537469848
30
0
41
1
10
28.3953372552916
20
13.5593733938118
30
0
41
1
10
28.4284225981377
20
13.5628508034701
30
0
41
1
10
28.4504344242984
20
13.5651643396255
30
0
41
1
10
28.4888470873145
20
13.5692016731963
30
0
41
1
10
28.5681896227733
20
13.5775409097098
30
0
41
1
10
28.6866383254269
20
13.5899903700204
30
0
41
1
10
28.8352819726911
20
13.6056134468932
30
0
41
1
10
28.9878810232792
20
13.6216522534075
30
0
41
1
10
29.1162906105303
20
13.6351486448764
30
0
41
1
10
29.1994016148363
20
13.6438839634261
30
0
41
1
10
29.2375255821601
20
13.647890953857
30
0
41
1
10
29.2631060293994
20
13.6505795672018
30
0
41
1
10
29.3340065464583
20
13.6580315118272
30
0
41
1
10
29.4497569870524
20
13.6701973733675
30
0
41
1
10
29.6041823559012
20
13.686428133666
30
0
41
1
10
29.7328645480673
20
13.6999531770659
30
0
41
1
10
29.8229581624973
20
13.7094223975129
30
0
41
1
10
29.8679799453466
20
13.7141543775696
30
0
41
1
10
29.8937473806848
20
13.7168626441556
30
0
41
1
10
29.9322758566519
20
13.720912150158
30
0
41
1
10
29.9899991289154
20
13.7269791105463
30
0
41
1
10
30.0925141625312
20
13.7377538747578
30
0
41
1
10
30.1941487740459
20
13.7484361028775
30
0
41
1
10
30.2812213324703
20
13.7575877975433
30
0
41
1
10
30.3303262762501
20
13.7627489351071
30
0
41
1
10
30.4031943501192
20
13.7704076782864
30
0
41
1
10
30.4641351475011
20
13.7768128141917
30
0
41
1
10
30.5128225646592
20
13.7819300679392
30
0
0
SPLINE
5
1E6
100
AcDbEntity
8
1
62
256
6
ByLayer
370
18
48
1
60
0
100
AcDbSpline
70
4
71
3
72
20
73
16
40
0
40
0
40
0
40
0
40
0.332431012821213
40
0.664862025642426
40
0.831077532053033
40
0.914185285258336
40
0.955739161860988
40
0.976516100162314
40
0.98625528999106
40
0.995690130137659
40
0.995994479819807
40
0.996643759141723
40
0.99729303846364
40
0.999890155751305
40
1
40
1
40
1
40
1
41
1
10
30.5128225646592
20
13.7819300679392
30
0
41
1
10
30.4605574893594
20
14.2791990425699
30
0
41
1
10
30.3560273387595
20
15.2737369918312
30
0
41
1
10
30.2253700758186
20
16.5169100194131
30
0
41
1
10
30.1338926307716
20
17.387129247504
30
0
41
1
10
30.0881810347925
20
17.8222418165751
30
0
41
1
10
30.0652830211183
20
18.0397935023519
30
0
41
1
10
30.0539957821757
20
18.1476046188408
30
0
41
1
10
30.0477166116331
20
18.2073657321208
30
0
41
1
10
30.0446458614007
20
18.2365016849762
30
0
41
1
10
30.0430049591457
20
18.2520405191428
30
0
41
1
10
30.0427517248636
20
18.2544381075152
30
0
41
1
10
30.0421287360566
20
18.2602643160693
30
0
41
1
10
30.041559905184
20
18.2652801796081
30
0
41
1
10
30.0410833252234
20
18.2693237010291
30
0
41
1
10
30.0410639584762
20
18.2694877776408
30
0
0
SPLINE
5
1E7
100
AcDbEntity
8
1
62
256
6
ByLayer
370
18
48
1
60
0
100
AcDbSpline
70
4
71
3
72
21
73
17
40
0
40
0
40
0
40
0
40
0.000109683687932
40
0.0027068013926386
40
0.0033560808188156
40
0.004005360244992
40
0.0088749559413165
40
0.013744551637642
40
0.023483743030292
40
0.0338722138491188
40
0.0442606846679454
40
0.0858145679432521
40
0.168922334493866
40
0.335137867595092
40
0.667568933797546
40
1
40
1
40
1
40
1
41
1
10
28.2011963989399
20
19.7631010878935
30
0
41
1
10
28.2010325208316
20
19.7630859871996
30
0
41
1
10
28.1969883633121
20
19.7627126396864
30
0
41
1
10
28.1919763000155
20
19.7622275926668
30
0
41
1
10
28.1861620737853
20
19.7616271484341
30
0
41
1
10
28.176957395248
20
19.7606644717355
30
0
41
1
10
28.1614549649828
20
19.759041308648
30
0
41
1
10
28.1323884582875
20
19.7559925105916
30
0
41
1
10
28.0950873729451
20
19.7520707694145
30
0
41
1
10
28.0495521218186
20
19.7472719419339
30
0
41
1
10
27.9565442775885
20
19.7374668351664
30
0
41
1
10
27.7550178325565
20
19.7163157208667
30
0
41
1
10
27.3209694542228
20
19.6706747698971
30
0
41
1
10
26.4528671841759
20
19.5794472967358
30
0
41
1
10
25.212723604511
20
19.4490974533497
30
0
41
1
10
24.2206082997088
20
19.3448219329431
30
0
41
1
10
23.7245506473076
20
19.2926841727397
30
0
0
SPLINE
5
1E8
100
AcDbEntity
8
1
62
256
6
ByLayer
370
13
48
1
60
0
100
AcDbSpline
70
4
71
3
72
12
73
8
40
0
40
0
40
0
40
0
40
0.145846502970929
40
0.145846502970929
40
0.724447328085577
40
0.724447328085577
40
1
40
1
40
1
40
1
41
1
10
18.376670856099
20
9.42441006986765
30
0
41
1
10
18.3653901049516
20
9.41159653394536
30
0
41
1
10
18.3544927299134
20
9.39899222617369
30
0
41
1
10
18.3028516713615
20
9.3383771531618
30
0
41
1
10
18.2673671822794
20
9.29363319921738
30
0
41
1
10
18.2281994099859
20
9.24552809319864
30
0
41
1
10
18.2174651398161
20
9.23266175473515
30
0
41
1
10
18.2092509124694
20
9.22375886085393
30
0
0
SPLINE
5
1E9
100
AcDbEntity
8
1
62
256
6
ByLayer
370
13
48
1
60
0
100
AcDbSpline
70
4
71
3
72
16
73
12
40
0
40
0
40
0
40
0
40
0.0408110111112632
40
0.0408110111112632
40
0.0923758418258811
40
0.0923758418258811
40
0.186750407429548
40
0.186750407429548
40
0.477255112699427
40
0.477255112699427
40
1
40
1
40
1
40
1
41
1
10
13.2
20
14.9499632090877
30
0
41
1
10
13.2
20
14.9343739325471
30
0
41
1
10
13.1989661407256
20
14.9194159290609
30
0
41
1
10
13.1948899925268
20
14.8897792485247
30
0
41
1
10
13.1913860726795
20
14.8755733051646
30
0
41
1
10
13.1799191870269
20
14.8416513154255
30
0
41
1
10
13.1705182639936
20
14.8258664009379
30
0
41
1
10
13.1298738544602
20
14.7748250075617
30
0
41
1
10
13.0921885939077
20
14.7616311117512
30
0
41
1
10
12.979177099286
20
14.7462507714254
30
0
41
1
10
12.8936700945463
20
14.7654777791507
30
0
41
1
10
12.8
20
14.8122944091442
30
0
0
SPLINE
5
1EA
100
AcDbEntity
8
1
62
256
6
ByLayer
370
13
48
1
60
0
100
AcDbSpline
70
4
71
3
72
18
73
14
40
0
40
0
40
0
40
0
40
0.578373275614839
40
0.578373275614839
40
0.711279552804975
40
0.711279552804975
40
0.856258445398643
40
0.856258445398643
40
0.913195182385628
40
0.913195182385628
40
0.971281445083825
40
0.971281445083825
40
1
40
1
40
1
40
1
41
1
10
12.8
20
13.3245913710747
30
0
41
1
10
12.9034897470323
20
13.3763158965852
30
0
41
1
10
12.9971888836943
20
13.4652979536855
30
0
41
1
10
13.0924192563386
20
13.6153666496535
30
0
41
1
10
13.1096207737148
20
13.6458564681734
30
0
41
1
10
13.1432704072772
20
13.7154868534159
30
0
41
1
10
13.1598296727077
20
13.7553645652792
30
0
41
1
10
13.1792751276756
20
13.8196022714974
30
0
41
1
10
13.1844016245447
20
13.8389722277143
30
0
41
1
10
13.1930728579854
20
13.8803218991742
30
0
41
1
10
13.1966910853504
20
13.9030436233222
30
0
41
1
10
13.199495068494
20
13.9371113534479
30
0
41
1
10
13.2000000000002
20
13.9486347425844
30
0
41
1
10
13.2000000000002
20
13.9596632321625
30
0
0
SPLINE
5
1EB
100
AcDbEntity
8
1
62
256
6
ByLayer
370
18
48
1
60
0
100
AcDbSpline
70
4
71
3
72
30
73
26
40
0
40
0
40
0
40
0
40
0.0754486908212129
40
0.0754486908212129
40
0.134142567439255
40
0.134142567439255
40
0.208789318447086
40
0.208789318447086
40
0.300864837338271
40
0.300864837338271
40
0.400373451415985
40
0.400373451415985
40
0.499841523429535
40
0.499841523429535
40
0.644794997236279
40
0.644794997236279
40
0.711843600985098
40
0.711843600985098
40
0.778927202841181
40
0.778927202841181
40
0.846083321820497
40
0.846083321820497
40
0.913400043300365
40
0.913400043300365
40
1
40
1
40
1
40
1
41
1
10
23.5784910996454
20
12.1820815652545
30
0
41
1
10
23.5847909867253
20
12.1969149305724
30
0
41
1
10
23.5883384205638
20
12.2131558102907
30
0
41
1
10
23.5910551274589
20
12.2424233947122
30
0
41
1
10
23.591035648991
20
12.255544533903
30
0
41
1
10
23.5888590903368
20
12.2853640496562
30
0
41
1
10
23.5861178706578
20
12.3021936002785
30
0
41
1
10
23.5774243217497
20
12.3394277734179
30
0
41
1
10
23.5708356295277
20
12.3599107803692
30
0
41
1
10
23.5542943556108
20
12.401684260468
30
0
41
1
10
23.5440485770502
20
12.4230599627151
30
0
41
1
10
23.5209542459696
20
12.464507132769
30
0
41
1
10
23.5080330019017
20
12.484706286777
30
0
41
1
10
23.4736178135328
20
12.5321800175412
30
0
41
1
10
23.4506747679976
20
12.5588205394807
30
0
41
1
10
23.4142966793223
20
12.5940288786913
30
0
41
1
10
23.4022943648687
20
12.6046864655387
30
0
41
1
10
23.377493555091
20
12.6246797600108
30
0
41
1
10
23.3646530448903
20
12.6340497076666
30
0
41
1
10
23.3382295267222
20
12.6511414777396
30
0
41
1
10
23.3245883537535
20
12.6589009503511
30
0
41
1
10
23.2966448020886
20
12.6722651234626
30
0
41
1
10
23.282249280529
20
12.6779116635344
30
0
41
1
10
23.2490037401443
20
12.6873386045519
30
0
41
1
10
23.2296327503823
20
12.6902522977355
30
0
41
1
10
23.2108738389425
20
12.6891879821018
30
0
0
SPLINE
5
1EC
100
AcDbEntity
8
1
62
256
6
ByLayer
370
18
48
1
60
0
100
AcDbSpline
70
4
71
3
72
26
73
22
40
0
40
0
40
0
40
0
40
0.0341747429582996
40
0.0341747429582996
40
0.11871755418037
40
0.11871755418037
40
0.203116442115695
40
0.203116442115695
40
0.327045140900998
40
0.327045140900998
40
0.402980231179067
40
0.402980231179067
40
0.505547228462799
40
0.505547228462799
40
0.607904869128987
40
0.607904869128987
40
0.710165947508032
40
0.710165947508032
40
0.915602886218746
40
0.915602886218746
40
1
40
1
40
1
40
1
41
1
10
24.1584060249999
20
11.9008416278849
30
0
41
1
10
24.1581364160599
20
11.8963070003661
30
0
41
1
10
24.1575637496983
20
11.8917796457684
30
0
41
1
10
24.154464853987
20
11.8763932595238
30
0
41
1
10
24.1501833063653
20
11.8656366654011
30
0
41
1
10
24.1377476650801
20
11.8463968571731
30
0
41
1
10
24.1294537019997
20
11.8376805540747
30
0
41
1
10
24.1061011156078
20
11.8198666640106
30
0
41
1
10
24.0893168149477
20
11.8120446465989
30
0
41
1
10
24.0612200402357
20
11.8034203075985
30
0
41
1
10
24.0500874846682
20
11.8009925538647
30
0
41
1
10
24.0236721238775
20
11.7969705336648
30
0
41
1
10
24.0081886221641
20
11.7959409676123
30
0
41
1
10
23.9772971249392
20
11.7958333748563
30
0
41
1
10
23.9618044421509
20
11.7967533463057
30
0
41
1
10
23.9310464938246
20
11.8001363429843
30
0
41
1
10
23.915731309936
20
11.8026051218141
30
0
41
1
10
23.8701875806901
20
11.8119649433936
30
0
41
1
10
23.8402516404398
20
11.8208230399186
30
0
41
1
10
23.7993058000277
20
11.8362316761217
30
0
41
1
10
23.78749734903
20
11.8410875031768
30
0
41
1
10
23.7758554226797
20
11.8462855707027
30
0
0
SPLINE
5
1ED
100
AcDbEntity
8
1
62
256
6
ByLayer
370
18
48
1
60
0
100
AcDbSpline
70
4
71
3
72
30
73
26
40
0
40
0
40
0
40
0
40
0.0754486908211991
40
0.0754486908211991
40
0.134142567439259
40
0.134142567439259
40
0.208789318447085
40
0.208789318447085
40
0.300864837338258
40
0.300864837338258
40
0.400373451415981
40
0.400373451415981
40
0.499841523429528
40
0.499841523429528
40
0.644794997236274
40
0.644794997236274
40
0.711843600985096
40
0.711843600985096
40
0.778927202841168
40
0.778927202841168
40
0.84608332182049
40
0.84608332182049
40
0.913400043300357
40
0.913400043300357
40
1
40
1
40
1
40
1
41
1
10
24.7899553151101
20
11.9841352361009
30
0
41
1
10
24.780643555713
20
11.9965355187266
30
0
41
1
10
24.768724987732
20
12.0072725171856
30
0
41
1
10
24.7453501607541
20
12.0235131811778
30
0
41
1
10
24.7342324523902
20
12.0297478324333
30
0
41
1
10
24.7078617190228
20
12.0421197615779
30
0
41
1
10
24.6921951011067
20
12.0478272527945
30
0
41
1
10
24.6561642366549
20
12.0582503594052
30
0
41
1
10
24.6354020928402
20
12.062469709903
30
0
41
1
10
24.5914301247139
20
12.0684883256808
30
0
41
1
10
24.5679944220865
20
12.0700836853094
30
0
41
1
10
24.520849039707
20
12.0705009540655
30
0
41
1
10
24.4969933236274
20
12.0693228405085
30
0
41
1
10
24.4387853449592
20
12.0632049354243
30
0
41
1
10
24.4042002273657
20
12.0567681514646
30
0
41
1
10
24.3552997179968
20
12.0432341184158
30
0
41
1
10
24.3399755198256
20
12.0383147632022
30
0
41
1
10
24.3100278050786
20
12.0271835592085
30
0
41
1
10
24.2953532316782
20
12.0209530426852
30
0
41
1
10
24.2670143224438
20
12.0070816463579
30
0
41
1
10
24.2532875667947
20
11.9994102666697
30
0
41
1
10
24.2273232726029
20
11.9824732766608
30
0
41
1
10
24.2150014775946
20
11.9731499246886
30
0
41
1
10
24.1896294076493
20
11.9498616805979
30
0
41
1
10
24.1770474771631
20
11.9350386688974
30
0
41
1
10
24.1681874654135
20
11.9187848017458
30
0
0
SPLINE
5
1EE
100
AcDbEntity
8
1
62
256
6
ByLayer
370
18
48
1
60
0
100
AcDbSpline
70
4
71
3
72
8
73
4
40
0
40
0
40
0
40
0
40
1
40
1
40
1
40
1
41
1
10
25.3120229251596
20
12.3642831020839
30
0
41
1
10
25.3154119932996
20
12.3586659409234
30
0
41
1
10
25.318800203795
20
12.3530498312383
30
0
41
1
10
25.322187595056
20
12.3474347264338
30
0
0
SPLINE
5
1EF
100
AcDbEntity
8
1
62
256
6
ByLayer
370
18
48
1
60
0
100
AcDbSpline
70
4
71
3
72
8
73
4
40
0
40
0
40
0
40
0
40
1
40
1
40
1
40
1
41
1
10
23.1227442134291
20
13.3294762608915
30
0
41
1
10
23.1295767725587
20
13.3305282040127
30
0
41
1
10
23.1364103797406
20
13.3315803182794
30
0
41
1
10
23.1432450832239
20
13.3326326115934
30
0
0
SPLINE
5
1F0
100
AcDbEntity
8
1
62
256
6
ByLayer
370
18
48
1
60
0
100
AcDbSpline
70
4
71
3
72
8
73
4
40
0
40
0
40
0
40
0
40
1
40
1
40
1
40
1
41
1
10
23.2108738389425
20
12.6891879821017
30
0
41
1
10
23.2039697060463
20
12.6887962655247
30
0
41
1
10
23.1970666827209
20
12.6884046017468
30
0
41
1
10
23.1901647201285
20
12.6880129884657
30
0
0
SPLINE
5
1F1
100
AcDbEntity
8
1
62
256
6
ByLayer
370
18
48
1
60
0
100
AcDbSpline
70
4
71
3
72
26
73
22
40
0
40
0
40
0
40
0
40
0.0286869624046499
40
0.0286869624046499
40
0.141758577072935
40
0.141758577072935
40
0.254859186747191
40
0.254859186747191
40
0.368025661656572
40
0.368025661656572
40
0.481336136143577
40
0.481336136143577
40
0.594988764681317
40
0.594988764681317
40
0.731770501834084
40
0.731770501834084
40
0.814572892185909
40
0.814572892185909
40
0.90390810963503
40
0.90390810963503
40
1
40
1
40
1
40
1
41
1
10
22.9489621259058
20
12.9869363008677
30
0
41
1
10
22.9485080087022
20
12.9912569374474
30
0
41
1
10
22.9480980813345
20
12.9955824608929
30
0
41
1
10
22.9462925288255
20
13.0169659303369
30
0
41
1
10
22.9455381537747
20
13.0340934648513
30
0
41
1
10
22.9454655033652
20
13.0683165663897
30
0
41
1
10
22.9461469239382
20
13.0854461350848
30
0
41
1
10
22.9490827530336
20
13.1195243074375
30
0
41
1
10
22.9513404061117
20
13.1365156431025
30
0
41
1
10
22.9576705028502
20
13.1700883806811
30
0
41
1
10
22.9617543332573
20
13.1867316759781
30
0
41
1
10
22.9721336112246
20
13.2191960777612
30
0
41
1
10
22.9784656453615
20
13.2351211578783
30
0
41
1
10
22.9954293729331
20
13.2681690592038
30
0
41
1
10
23.0068817868413
20
13.2852777730958
30
0
41
1
10
23.0292099269661
20
13.307855365454
30
0
41
1
10
23.0387130525775
20
13.3153648200844
30
0
41
1
10
23.0598789197074
20
13.3271504234632
30
0
41
1
10
23.0719472882738
20
13.331228005141
30
0
41
1
10
23.09697513789
20
13.3343445867636
30
0
41
1
10
23.1102962862558
20
13.3330519618754
30
0
41
1
10
23.1227442134291
20
13.3294762608915
30
0
0
SPLINE
5
1F2
100
AcDbEntity
8
1
62
256
6
ByLayer
370
18
48
1
60
0
100
AcDbSpline
70
4
71
3
72
26
73
22
40
0
40
0
40
0
40
0
40
0.0341747429583027
40
0.0341747429583027
40
0.118717554180359
40
0.118717554180359
40
0.203116442115691
40
0.203116442115691
40
0.327045140900995
40
0.327045140900995
40
0.402980231179063
40
0.402980231179063
40
0.505547228462785
40
0.505547228462785
40
0.60790486912898
40
0.60790486912898
40
0.710165947507996
40
0.710165947507996
40
0.915602886218714
40
0.915602886218714
40
1
40
1
40
1
40
1
41
1
10
23.1901647201285
20
12.6880129884657
30
0
41
1
10
23.1860387992288
20
12.6858167160965
30
0
41
1
10
23.1817668360891
20
12.6838856637736
30
0
41
1
10
23.1666686409481
20
12.6783169409499
30
0
41
1
10
23.1550497337672
20
12.6762480373034
30
0
41
1
10
23.1318637485211
20
12.6766655180774
30
0
41
1
10
23.1200211286759
20
12.6791474973779
30
0
41
1
10
23.0925936177204
20
12.6897312750107
30
0
41
1
10
23.0772610755345
20
12.6999996610521
30
0
41
1
10
23.0555190507921
20
12.7195634150641
30
0
41
1
10
23.047773147411
20
12.7278407088156
30
0
41
1
10
23.0309184179311
20
12.748400793541
30
0
41
1
10
23.0222035754271
20
12.7611546417234
30
0
41
1
10
23.0065206986471
20
12.7876234340657
30
0
41
1
10
22.9995082082995
20
12.8014101159789
30
0
41
1
10
22.9869470377047
20
12.8295948896425
30
0
41
1
10
22.9813782211818
20
12.8440389055203
30
0
41
1
10
22.966580284284
20
12.8880423644992
30
0
41
1
10
22.9592162273254
20
12.9183736471754
30
0
41
1
10
22.9520147489062
20
12.9615641121972
30
0
41
1
10
22.9502972689369
20
12.974233263471
30
0
41
1
10
22.9489621259058
20
12.9869363008677
30
0
0
SPLINE
5
1F3
100
AcDbEntity
8
1
62
256
6
ByLayer
370
18
48
1
60
0
100
AcDbSpline
70
4
71
3
72
26
73
22
40
0
40
0
40
0
40
0
40
0.0369679839398645
40
0.0369679839398645
40
0.140366078223003
40
0.140366078223003
40
0.298318733654424
40
0.298318733654424
40
0.500628765508186
40
0.500628765508186
40
0.645354084681093
40
0.645354084681093
40
0.712297154914695
40
0.712297154914695
40
0.779275168169083
40
0.779275168169083
40
0.846325584405829
40
0.846325584405829
40
0.913536350357162
40
0.913536350357162
40
1
40
1
40
1
40
1
41
1
10
25.3120229251576
20
12.3642831020873
30
0
41
1
10
25.3080313332222
20
12.3708989074543
30
0
41
1
10
25.3046205603144
20
12.377990734229
30
0
41
1
10
25.2937545634651
20
12.4057527765654
30
0
41
1
10
25.2896205194436
20
12.4285613497294
30
0
41
1
10
25.2857040160222
20
12.4869310032238
30
0
41
1
10
25.2891771614808
20
12.5240527434422
30
0
41
1
10
25.3053277287272
20
12.6070890923923
30
0
41
1
10
25.3206317906388
20
12.65400149568
30
0
41
1
10
25.3543050489472
20
12.7298482111933
30
0
41
1
10
25.3708449883437
20
12.7606385620701
30
0
41
1
10
25.3980634149056
20
12.8025311643803
30
0
41
1
10
25.4071797889977
20
12.815408414837
30
0
41
1
10
25.4263185636021
20
12.8400199457235
30
0
41
1
10
25.4363732988116
20
12.8517962806394
30
0
41
1
10
25.4574070719586
20
12.873876013024
30
0
41
1
10
25.4684323530077
20
12.884228034422
30
0
41
1
10
25.491435223866
20
12.9029468923123
30
0
41
1
10
25.5034898838527
20
12.9113734584877
30
0
41
1
10
25.5319537839006
20
12.9272863230506
30
0
41
1
10
25.548984473998
20
12.9340259869583
30
0
41
1
10
25.5661735141533
20
12.9367399532863
30
0
0
SPLINE
5
1F4
100
AcDbEntity
8
1
62
256
6
ByLayer
370
18
48
1
60
0
100
AcDbSpline
70
4
71
3
72
8
73
4
40
0
40
0
40
0
40
0
40
1
40
1
40
1
40
1
41
1
10
24.1681874654135
20
11.9187848017458
30
0
41
1
10
24.16492657798
20
11.9128026391214
30
0
41
1
10
24.1616661038277
20
11.9068215977306
30
0
41
1
10
24.1584060249999
20
11.9008416278849
30
0
0
SPLINE
5
1F5
100
AcDbEntity
8
1
62
256
6
ByLayer
370
18
48
1
60
0
100
AcDbSpline
70
4
71
3
72
8
73
4
40
0
40
0
40
0
40
0
40
1
40
1
40
1
40
1
41
1
10
25.5661735141533
20
12.9367399532863
30
0
41
1
10
25.5724998629912
20
12.9377388163741
30
0
41
1
10
25.5788247928177
20
12.9387374664964
30
0
41
1
10
25.5851483669399
20
12.9397359131376
30
0
0
SPLINE
5
1F6
100
AcDbEntity
8
1
62
256
6
ByLayer
370
18
48
1
60
0
100
AcDbSpline
70
4
71
3
72
30
73
26
40
0
40
0
40
0
40
0
40
0.0754486908212307
40
0.0754486908212307
40
0.134142567439271
40
0.134142567439271
40
0.208789318447104
40
0.208789318447104
40
0.300864837338268
40
0.300864837338268
40
0.400373451415989
40
0.400373451415989
40
0.499841523429544
40
0.499841523429544
40
0.644794997236284
40
0.644794997236284
40
0.711843600985099
40
0.711843600985099
40
0.77892720284119
40
0.77892720284119
40
0.846083321820498
40
0.846083321820498
40
0.913400043300357
40
0.913400043300357
40
1
40
1
40
1
40
1
41
1
10
23.9194632822671
20
14.2852373287788
30
0
41
1
10
23.9299810627049
20
14.2729638040723
30
0
41
1
10
23.9430523683138
20
14.2623479632201
30
0
41
1
10
23.9683015186891
20
14.2463042985553
30
0
41
1
10
23.9801911149849
20
14.2401507759906
30
0
41
1
10
24.0081839082612
20
14.2279493322123
30
0
41
1
10
24.0246721134334
20
14.222328193296
30
0
41
1
10
24.0623300580736
20
14.2120760997041
30
0
41
1
10
24.0838561754369
20
14.2079370460619
30
0
41
1
10
24.1291206793197
20
14.2020542812664
30
0
41
1
10
24.1530654127037
20
14.2005124229261
30
0
41
1
10
24.2008887537455
20
14.2001664104968
30
0
41
1
10
24.2249154055129
20
14.2013624901186
30
0
41
1
10
24.283123384181
20
14.2074803952028
30
0
41
1
10
24.3173456321881
20
14.213879040032
30
0
41
1
10
24.365201653298
20
14.2273032929412
30
0
41
1
10
24.3801180273768
20
14.2321797841154
30
0
41
1
10
24.4091025038066
20
14.2432097476824
30
0
41
1
10
24.4232200198317
20
14.2493817151163
30
0
41
1
10
24.450300180129
20
14.2631208115992
30
0
41
1
10
24.4633224212881
20
14.2707181438306
30
0
41
1
10
24.4877352361492
20
14.2874920667909
30
0
41
1
10
24.4992047279617
20
14.2967258380876
30
0
41
1
10
24.5224816236388
20
14.3197938704891
30
0
41
1
10
24.5337523479391
20
14.3344790688661
30
0
41
1
10
24.5412311319637
20
14.350587763134
30
0
0
SPLINE
5
1F7
100
AcDbEntity
8
1
62
256
6
ByLayer
370
18
48
1
60
0
100
AcDbSpline
70
4
71
3
72
26
73
22
40
0
40
0
40
0
40
0
40
0.0753632465605855
40
0.0753632465605855
40
0.133990653438591
40
0.133990653438591
40
0.20855286836983
40
0.20855286836983
40
0.300524113423265
40
0.300524113423265
40
0.399920035818963
40
0.399920035818963
40
0.499275462063614
40
0.499275462063614
40
0.577746029348547
40
0.577746029348547
40
0.77716036161658
40
0.77716036161658
40
0.913864695659915
40
0.913864695659915
40
1
40
1
40
1
40
1
41
1
10
25.4985447584348
20
13.580184582778
30
0
41
1
10
25.4833714080739
20
13.5793820319199
30
0
41
1
10
25.4676754230564
20
13.5816106563832
30
0
41
1
10
25.4403827644455
20
13.5890266720862
30
0
41
1
10
25.4284812201159
20
13.5934957863401
30
0
41
1
10
25.4019992188904
20
13.6056170922304
30
0
41
1
10
25.3874546590637
20
13.6138519426998
30
0
41
1
10
25.3559539353737
20
13.6344788821105
30
0
41
1
10
25.3390907901697
20
13.6474804607937
30
0
41
1
10
25.3054719360247
20
13.6768187590216
30
0
41
1
10
25.2887121943448
20
13.6934512649254
30
0
41
1
10
25.2569950993998
20
13.7286196978601
30
0
41
1
10
25.2419404558357
20
13.7472653993072
30
0
41
1
10
25.2168133893658
20
13.7819267115075
30
0
41
1
10
25.2063123140784
20
13.7977389482422
30
0
41
1
10
25.1719523030908
20
13.8545252748798
30
0
41
1
10
25.1513871558204
20
13.89814645351
30
0
41
1
10
25.1289478428131
20
13.9721766367671
30
0
41
1
10
25.1230105601232
20
14.0032050965753
30
0
41
1
10
25.1227961813043
20
14.0517561322632
30
0
41
1
10
25.1250936119512
20
14.0704478657219
30
0
41
1
10
25.1309274977319
20
14.0872909996252
30
0
0
SPLINE
5
1F8
100
AcDbEntity
8
1
62
256
6
ByLayer
370
18
48
1
60
0
100
AcDbSpline
70
4
71
3
72
8
73
4
40
0
40
0
40
0
40
0
40
1
40
1
40
1
40
1
41
1
10
25.5177278602406
20
13.5811991855634
30
0
41
1
10
25.5113348826555
20
13.5808610687622
30
0
41
1
10
25.5049405366855
20
13.5805228691288
30
0
41
1
10
25.4985447584348
20
13.580184582778
30
0
0
SPLINE
5
1F9
100
AcDbEntity
8
1
62
256
6
ByLayer
370
18
48
1
60
0
100
AcDbSpline
70
4
71
3
72
26
73
22
40
0
40
0
40
0
40
0
40
0.0286988395658946
40
0.0286988395658946
40
0.141769071600791
40
0.141769071600791
40
0.254868298287122
40
0.254868298287122
40
0.368033389403155
40
0.368033389403155
40
0.481342478336016
40
0.481342478336016
40
0.594993717135756
40
0.594993717135756
40
0.731773781728598
40
0.731773781728598
40
0.814575159577675
40
0.814575159577675
40
0.903909284641008
40
0.903909284641008
40
1
40
1
40
1
40
1
41
1
10
25.7460868641759
20
13.2809259574262
30
0
41
1
10
25.7456327469723
20
13.2852465940064
30
0
41
1
10
25.7451362745383
20
13.2895630211992
30
0
41
1
10
25.7424751480943
20
13.3108565661995
30
0
41
1
10
25.7396960598248
20
13.3277712947793
30
0
41
1
10
25.7328023358696
20
13.3612774725989
30
0
41
1
10
25.7286810347875
20
13.3779022549072
30
0
41
1
10
25.7190108486238
20
13.4106554816662
30
0
41
1
10
25.713450171928
20
13.4268250777593
30
0
41
1
10
25.7007324732545
20
13.4583958113675
30
0
41
1
10
25.6935521282618
20
13.4738551941231
30
0
41
1
10
25.677327377521
20
13.5035233998137
30
0
41
1
10
25.6682276879807
20
13.5178265404148
30
0
41
1
10
25.6458548323312
20
13.5467400002427
30
0
41
1
10
25.6318347398582
20
13.5611714458311
30
0
41
1
10
25.6067992926061
20
13.5787709245586
30
0
41
1
10
25.5965923099141
20
13.5842087633287
30
0
41
1
10
25.5749294890718
20
13.5914928902107
30
0
41
1
10
25.5631510668055
20
13.5930640731746
30
0
41
1
10
25.5398964073881
20
13.5911059586084
30
0
41
1
10
25.5281672056677
20
13.5871804358313
30
0
41
1
10
25.5177278602406
20
13.5811991855634
30
0
0
SPLINE
5
1FA
100
AcDbEntity
8
1
62
256
6
ByLayer
370
18
48
1
60
0
100
AcDbSpline
70
4
71
3
72
26
73
22
40
0
40
0
40
0
40
0
40
0.0246840387502435
40
0.0246840387502435
40
0.108402719804388
40
0.108402719804388
40
0.192103052547577
40
0.192103052547577
40
0.309485195483555
40
0.309485195483555
40
0.380199874143346
40
0.380199874143346
40
0.476666438094155
40
0.476666438094155
40
0.587023534816825
40
0.587023534816825
40
0.697229101300206
40
0.697229101300206
40
0.807364565734781
40
0.807364565734781
40
1
40
1
40
1
40
1
41
1
10
25.5851483669399
20
12.9397359131376
30
0
41
1
10
25.5881352405064
20
12.9387763196304
30
0
41
1
10
25.5911647366369
20
12.9379678956872
30
0
41
1
10
25.6044683146177
20
12.9351775910332
30
0
41
1
10
25.6152294545238
20
12.9349464288028
30
0
41
1
10
25.6360864424516
20
12.9388908240657
30
0
41
1
10
25.6464264539453
20
12.9431192251264
30
0
41
1
10
25.6690222896581
20
12.9573650939191
30
0
41
1
10
25.6808460902986
20
12.9691951463136
30
0
41
1
10
25.6967691457293
20
12.9905741763898
30
0
41
1
10
25.7022019065801
20
12.9993135331265
30
0
41
1
10
25.7137136267818
20
13.0208053088386
30
0
41
1
10
25.7193663938521
20
13.0339517997696
30
0
41
1
10
25.7296809878295
20
13.0628468855006
30
0
41
1
10
25.7341201998674
20
13.078797682452
30
0
41
1
10
25.7412212243324
20
13.1110907833496
30
0
41
1
10
25.7438979879933
20
13.1275014381026
30
0
41
1
10
25.7477446082786
20
13.1604920676882
30
0
41
1
10
25.7489192422585
20
13.177117064248
30
0
41
1
10
25.7502931130163
20
13.2227896774165
30
0
41
1
10
25.7491273466663
20
13.2519976988958
30
0
41
1
10
25.7460868641759
20
13.2809259574262
30
0
0
SPLINE
5
1FB
100
AcDbEntity
8
1
62
256
6
ByLayer
370
18
48
1
60
0
100
AcDbSpline
70
4
71
3
72
26
73
22
40
0
40
0
40
0
40
0
40
0.0286869624046102
40
0.0286869624046102
40
0.141758577072905
40
0.141758577072905
40
0.254859186747186
40
0.254859186747186
40
0.368025661656555
40
0.368025661656555
40
0.481336136143571
40
0.481336136143571
40
0.594988764681326
40
0.594988764681326
40
0.731770501834094
40
0.731770501834094
40
0.814572892185943
40
0.814572892185943
40
0.903908109635062
40
0.903908109635062
40
1
40
1
40
1
40
1
41
1
10
24.919193567402
20
14.4215766875912
30
0
41
1
10
24.9231532922519
20
14.4198086883328
30
0
41
1
10
24.9270964913985
20
14.4180008493715
30
0
41
1
10
24.946486115673
20
14.4088766790439
30
0
41
1
10
24.9616915284357
20
14.4009828448817
30
0
41
1
10
24.9914013563118
20
14.383996573088
30
0
41
1
10
25.0059353745101
20
14.3748874382856
30
0
41
1
10
25.0341129660672
20
14.3554318789041
30
0
41
1
10
25.0477920251353
20
14.345061389676
30
0
41
1
10
25.0739552777337
20
14.3229981349198
30
0
41
1
10
25.0864877376945
20
14.3112648611974
30
0
41
1
10
25.1098278411644
20
14.2863556745931
30
0
41
1
10
25.1207085304269
20
14.2730970563079
30
0
41
1
10
25.1415548758259
20
14.2423921670387
30
0
41
1
10
25.1511356240611
20
14.2242676392128
30
0
41
1
10
25.1605433420885
20
14.1943547946713
30
0
41
1
10
25.1627415262224
20
14.1826804344998
30
0
41
1
10
25.1634003470212
20
14.1591731679388
30
0
41
1
10
25.1615099641019
20
14.1471043814593
30
0
41
1
10
25.1530198142183
20
14.1247794932767
30
0
41
1
10
25.1459752961393
20
14.1143917246003
30
0
41
1
10
25.1373670709343
20
14.1058845515484
30
0
0
SPLINE
5
1FC
100
AcDbEntity
8
1
62
256
6
ByLayer
370
18
48
1
60
0
100
AcDbSpline
70
4
71
3
72
8
73
4
40
0
40
0
40
0
40
0
40
1
40
1
40
1
40
1
41
1
10
24.8017275861902
20
11.9684574486037
30
0
41
1
10
24.7978044272723
20
11.9736824297394
30
0
41
1
10
24.79388035123
20
11.9789083444763
30
0
41
1
10
24.7899553151101
20
11.9841352361009
30
0
0
SPLINE
5
1FD
100
AcDbEntity
8
1
62
256
6
ByLayer
370
18
48
1
60
0
100
AcDbSpline
70
4
71
3
72
8
73
4
40
0
40
0
40
0
40
0
40
1
40
1
40
1
40
1
41
1
10
25.1373670709343
20
14.1058845515484
30
0
41
1
10
25.1352211482335
20
14.0996878720114
30
0
41
1
10
25.1330746331272
20
14.0934900392245
30
0
41
1
10
25.1309274977319
20
14.0872909996252
30
0
0
SPLINE
5
1FE
100
AcDbEntity
8
1
62
256
6
ByLayer
370
18
48
1
60
0
100
AcDbSpline
70
4
71
3
72
8
73
4
40
0
40
0
40
0
40
0
40
1
40
1
40
1
40
1
41
1
10
24.5412311319637
20
14.350587763134
30
0
41
1
10
24.5439836647518
20
14.3565164955321
30
0
41
1
10
24.5467354615487
20
14.3624440727784
30
0
41
1
10
24.5494865553691
20
14.3683705461442
30
0
0
SPLINE
5
1FF
100
AcDbEntity
8
1
62
256
6
ByLayer
370
18
48
1
60
0
100
AcDbSpline
70
4
71
3
72
26
73
22
40
0
40
0
40
0
40
0
40
0.0341747429583115
40
0.0341747429583115
40
0.11871755418037
40
0.11871755418037
40
0.203116442115669
40
0.203116442115669
40
0.327045140900988
40
0.327045140900988
40
0.402980231179049
40
0.402980231179049
40
0.505547228462737
40
0.505547228462737
40
0.60790486912895
40
0.60790486912895
40
0.710165947507979
40
0.710165947507979
40
0.915602886218681
40
0.915602886218681
40
1
40
1
40
1
40
1
41
1
10
25.322187595056
20
12.3474347264338
30
0
41
1
10
25.3258646985271
20
12.345077535713
30
0
41
1
10
25.3293831624435
20
12.3424622271386
30
0
41
1
10
25.3407607348015
20
12.3325792175693
30
0
41
1
10
25.3476504789345
20
12.323844480816
30
0
41
1
10
25.3575684387123
20
12.304099704711
30
0
41
1
10
25.3607221357105
20
12.2928599103678
30
0
41
1
10
25.3639397269149
20
12.2643721333038
30
0
41
1
10
25.3620596050724
20
12.2462367070464
30
0
41
1
10
25.3551416862714
20
12.2179894226048
30
0
41
1
10
25.3515660457068
20
12.2072645116405
30
0
41
1
10
25.341612571448
20
12.1826411172575
30
0
41
1
10
25.334656058204
20
12.1688379587681
30
0
41
1
10
25.319127915447
20
12.1422279905215
30
0
41
1
10
25.3105152089318
20
12.1293473522673
30
0
41
1
10
25.2920946547507
20
12.1045220554296
30
0
41
1
10
25.2822567165825
20
12.0925371939024
30
0
41
1
10
25.2512843780754
20
12.0578697455423
30
0
41
1
10
25.2286244246164
20
12.0363873028435
30
0
41
1
10
25.1948236652995
20
12.0085995464272
30
0
41
1
10
25.1847245751339
20
12.0007853688528
30
0
41
1
10
25.1744177918148
20
11.993280398982
30
0
0
SPLINE
5
200
100
AcDbEntity
8
1
62
256
6
ByLayer
370
18
48
1
60
0
100
AcDbSpline
70
4
71
3
72
26
73
22
40
0
40
0
40
0
40
0
40
0.0341747429582953
40
0.0341747429582953
40
0.118717554180342
40
0.118717554180342
40
0.203116442115656
40
0.203116442115656
40
0.327045140900987
40
0.327045140900987
40
0.402980231179042
40
0.402980231179042
40
0.505547228462756
40
0.505547228462756
40
0.607904869128965
40
0.607904869128965
40
0.710165947507968
40
0.710165947507968
40
0.915602886218676
40
0.915602886218676
40
1
40
1
40
1
40
1
41
1
10
24.5494865553691
20
14.3683705461442
30
0
41
1
10
24.5493977473322
20
14.3728675025207
30
0
41
1
10
24.5496087479704
20
14.3773568445192
30
0
41
1
10
24.5514641895382
20
14.3926125384669
30
0
41
1
10
24.5548505063074
20
14.4032750400355
30
0
41
1
10
24.5656213792266
20
14.4223398740575
30
0
41
1
10
24.5731254227738
20
14.4309731532674
30
0
41
1
10
24.5947633424471
20
14.4486068245973
30
0
41
1
10
24.6106909163705
20
14.4563387964006
30
0
41
1
10
24.6376613534198
20
14.4648447525423
30
0
41
1
10
24.6484159322309
20
14.4672327793182
30
0
41
1
10
24.6740456071255
20
14.4711722206028
30
0
41
1
10
24.6891534007698
20
14.4721622981459
30
0
41
1
10
24.7194058533707
20
14.4722027246054
30
0
41
1
10
24.73463350801
20
14.4712548975751
30
0
41
1
10
24.764943903437
20
14.4678248611913
30
0
41
1
10
24.7800759457207
20
14.4653368334032
30
0
41
1
10
24.8251665826487
20
14.455929389902
30
0
41
1
10
24.8549263825641
20
14.4470527802819
30
0
41
1
10
24.8957594283284
20
14.4316322888836
30
0
41
1
10
24.9075516410518
20
14.426774755117
30
0
41
1
10
24.919193567402
20
14.4215766875912
30
0
0
SPLINE
5
201
100
AcDbEntity
8
1
62
256
6
ByLayer
370
18
48
1
60
0
100
AcDbSpline
70
4
71
3
72
26
73
22
40
0
40
0
40
0
40
0
40
0.0286869624046684
40
0.0286869624046684
40
0.141758577072949
40
0.141758577072949
40
0.254859186747198
40
0.254859186747198
40
0.36802566165658
40
0.36802566165658
40
0.481336136143566
40
0.481336136143566
40
0.594988764681304
40
0.594988764681304
40
0.731770501834074
40
0.731770501834074
40
0.81457289218591
40
0.81457289218591
40
0.903908109635011
40
0.903908109635011
40
1
40
1
40
1
40
1
41
1
10
23.7758554226797
20
11.8462855707027
30
0
41
1
10
23.7718956978299
20
11.8480535699611
30
0
41
1
10
23.7679543836712
20
11.8498616070426
30
0
41
1
10
23.748583409386
20
11.858987737563
30
0
41
1
10
23.7334220328681
20
11.8668862001211
30
0
41
1
10
23.703862801119
20
11.8838883002055
30
0
41
1
10
23.6894354493275
20
11.8930086460991
30
0
41
1
10
23.6615445962263
20
11.9124943429067
30
0
41
1
10
23.6480458757309
20
11.9228837864826
30
0
41
1
10
23.6223368580315
20
11.9449947832505
30
0
41
1
10
23.6100789776589
20
11.9567569164505
30
0
41
1
10
23.5874163179556
20
11.9817373052639
30
0
41
1
10
23.5769406134851
20
11.9950384891659
30
0
41
1
10
23.5571854869027
20
12.0258580701543
30
0
41
1
10
23.5483438990144
20
12.0440602868632
30
0
41
1
10
23.5404350958285
20
12.0741306737029
30
0
41
1
10
23.5388866919281
20
12.0858733285289
30
0
41
1
10
23.5397187571634
20
12.1095372935264
30
0
41
1
10
23.5424831404756
20
12.1216979411488
30
0
41
1
10
23.5528475357501
20
12.1442198204599
30
0
41
1
10
23.5609241495955
20
12.1547160667726
30
0
41
1
10
23.5705255094348
20
12.1633276224807
30
0
0
SPLINE
5
202
100
AcDbEntity
8
1
62
256
6
ByLayer
370
18
48
1
60
0
100
AcDbSpline
70
4
71
3
72
8
73
4
40
0
40
0
40
0
40
0
40
1
40
1
40
1
40
1
41
1
10
23.5705255094348
20
12.1633276224807
30
0
41
1
10
23.5731804171429
20
12.1695777984976
30
0
41
1
10
23.5758356096047
20
12.175829095429
30
0
41
1
10
23.5784910996454
20
12.1820815652545
30
0
0
SPLINE
5
203
100
AcDbEntity
8
1
62
256
6
ByLayer
370
18
48
1
60
0
100
AcDbSpline
70
4
71
3
72
8
73
4
40
0
40
0
40
0
40
0
40
1
40
1
40
1
40
1
41
1
10
23.9061649941789
20
14.3007547254253
30
0
41
1
10
23.9105971381041
20
14.2955832407696
30
0
41
1
10
23.9150298915018
20
14.2904107901772
30
0
41
1
10
23.9194632822671
20
14.2852373287788
30
0
0
SPLINE
5
204
100
AcDbEntity
8
1
62
256
6
ByLayer
370
18
48
1
60
0
100
AcDbSpline
70
4
71
3
72
30
73
26
40
0
40
0
40
0
40
0
40
0.0754486908212407
40
0.0754486908212407
40
0.13414256743929
40
0.13414256743929
40
0.208789318447116
40
0.208789318447116
40
0.300864837338282
40
0.300864837338282
40
0.400373451415993
40
0.400373451415993
40
0.499841523429542
40
0.499841523429542
40
0.644794997236277
40
0.644794997236277
40
0.711843600985095
40
0.711843600985095
40
0.778927202841181
40
0.778927202841181
40
0.846083321820492
40
0.846083321820492
40
0.913400043300352
40
0.913400043300352
40
1
40
1
40
1
40
1
41
1
10
23.1432450832239
20
13.3326326115934
30
0
41
1
10
23.1594597402213
20
13.3351290732452
30
0
41
1
10
23.1755021108548
20
13.3406935333079
30
0
41
1
10
23.2025308064264
20
13.353818953401
30
0
41
1
10
23.2140149802883
20
13.3607460056817
30
0
41
1
10
23.239020184956
20
13.3782788349734
30
0
41
1
10
23.2523563768212
20
13.3894440705292
30
0
41
1
10
23.280507232459
20
13.4163406435673
30
0
41
1
10
23.295062670826
20
13.4326444484487
30
0
41
1
10
23.3231396329136
20
13.4684672382608
30
0
41
1
10
23.3365840723587
20
13.4882743315234
30
0
41
1
10
23.3609741029889
20
13.5293398609846
30
0
41
1
10
23.3719940428444
20
13.550726111582
30
0
41
1
10
23.3957868331436
20
13.6043177474305
30
0
41
1
10
23.4072474704088
20
13.6373759837644
30
0
41
1
10
23.4192476469728
20
13.686063465954
30
0
41
1
10
23.4223656186443
20
13.7016189759953
30
0
41
1
10
23.427030904455
20
13.7326928542478
30
0
41
1
10
23.428586438967
20
13.7482640438821
30
0
41
1
10
23.4298724555648
20
13.7791610603603
30
0
41
1
10
23.4296057810002
20
13.7945548889316
30
0
41
1
10
23.4268507838617
20
13.8247745185276
30
0
41
1
10
23.4243509057126
20
13.8396996202338
30
0
41
1
10
23.415429848139
20
13.8723046994975
30
0
41
1
10
23.4079851857703
20
13.8899724977199
30
0
41
1
10
23.3973956722176
20
13.9050894627958
30
0
0
SPLINE
5
205
100
AcDbEntity
8
1
62
256
6
ByLayer
370
18
48
1
60
0
100
AcDbSpline
70
4
71
3
72
26
73
22
40
0
40
0
40
0
40
0
40
0.0286869624045986
40
0.0286869624045986
40
0.141758577072889
40
0.141758577072889
40
0.254859186747167
40
0.254859186747167
40
0.368025661656543
40
0.368025661656543
40
0.481336136143551
40
0.481336136143551
40
0.594988764681291
40
0.594988764681291
40
0.731770501834069
40
0.731770501834069
40
0.814572892185903
40
0.814572892185903
40
0.903908109635051
40
0.903908109635051
40
1
40
1
40
1
40
1
41
1
10
25.1744177918148
20
11.993280398982
30
0
41
1
10
25.1709121841685
20
11.9907277616606
30
0
41
1
10
25.1673817398715
20
11.9882103743568
30
0
41
1
10
25.1498256430899
20
11.9759540155296
30
0
41
1
10
25.1354406597453
20
11.9667272577712
30
0
41
1
10
25.1060293764692
20
11.9495141704626
30
0
41
1
10
25.0909739373081
20
11.9415105532066
30
0
41
1
10
25.0602906243395
20
11.9269331463745
30
0
41
1
10
25.0446244200523
20
11.9203407314594
30
0
41
1
10
25.0128124230639
20
11.9089028616545
30
0
41
1
10
24.9966080020785
20
11.9040361292963
30
0
41
1
10
24.963904786291
20
11.8965877174311
30
0
41
1
10
24.9472995400796
20
11.8939851040245
30
0
41
1
10
24.9111262953339
20
11.891814129547
30
0
41
1
10
24.8912018737108
20
11.8929464768054
30
0
41
1
10
24.8617143878209
20
11.9005180424359
30
0
41
1
10
24.8509877484259
20
11.9047853899588
30
0
41
1
10
24.8313993895483
20
11.9167421007958
30
0
41
1
10
24.8225324044905
20
11.9248710973118
30
0
41
1
10
24.8088060728442
20
11.9443748905646
30
0
41
1
10
24.8040775862071
20
11.9562180005836
30
0
41
1
10
24.8017275861902
20
11.9684574486037
30
0
0
SPLINE
5
206
100
AcDbEntity
8
1
62
256
6
ByLayer
370
18
48
1
60
0
100
AcDbSpline
70
4
71
3
72
8
73
4
40
0
40
0
40
0
40
0
40
1
40
1
40
1
40
1
41
1
10
23.3973956722176
20
13.9050894627958
30
0
41
1
10
23.3934982494322
20
13.9106531937301
30
0
41
1
10
23.3896013615814
20
13.9162158392707
30
0
41
1
10
23.385704985313
20
13.9217774475953
30
0
0
SPLINE
5
207
100
AcDbEntity
8
1
62
256
6
ByLayer
370
18
48
1
60
0
100
AcDbSpline
70
4
71
3
72
26
73
22
40
0
40
0
40
0
40
0
40
0.0286869624046545
40
0.0286869624046545
40
0.141758577072939
40
0.141758577072939
40
0.254859186747202
40
0.254859186747202
40
0.368025661656602
40
0.368025661656602
40
0.481336136143584
40
0.481336136143584
40
0.594988764681311
40
0.594988764681311
40
0.731770501834088
40
0.731770501834088
40
0.814572892185926
40
0.814572892185926
40
0.903908109635032
40
0.903908109635032
40
1
40
1
40
1
40
1
41
1
10
23.520631198267
20
14.2745818593119
30
0
41
1
10
23.5241368059132
20
14.2771344966333
30
0
41
1
10
23.5276691351981
20
14.2796520820573
30
0
41
1
10
23.545243881969
20
14.2919104010774
30
0
41
1
10
23.5596729015585
20
14.3011417872316
30
0
41
1
10
23.5892347809616
20
14.3183707028309
30
0
41
1
10
23.6043968865295
20
14.3263855311781
30
0
41
1
10
23.635366937954
20
14.3409930754363
30
0
41
1
10
23.6512134808139
20
14.3476044446992
30
0
41
1
10
23.6834797127013
20
14.3590900565157
30
0
41
1
10
23.6999587132751
20
14.3639856483516
30
0
41
1
10
23.7333393728291
20
14.3715052624258
30
0
41
1
10
23.7503496038325
20
14.3741504414493
30
0
41
1
10
23.7876140673947
20
14.376436107646
30
0
41
1
10
23.8082776493646
20
14.3753814492707
30
0
41
1
10
23.8392640500961
20
14.3679674259382
30
0
41
1
10
23.8506404697247
20
14.3637683730699
30
0
41
1
10
23.8717197146363
20
14.3519683606694
30
0
41
1
10
23.8814607000869
20
14.3439312252963
30
0
41
1
10
23.8970612771241
20
14.324624423172
30
0
41
1
10
23.9028218595277
20
14.3128897907893
30
0
41
1
10
23.9061649941789
20
14.3007547254253
30
0
0
SPLINE
5
208
100
AcDbEntity
8
1
62
256
6
ByLayer
370
18
48
1
60
0
100
AcDbSpline
70
4
71
3
72
26
73
22
40
0
40
0
40
0
40
0
40
0.0341747429582981
40
0.0341747429582981
40
0.118717554180385
40
0.118717554180385
40
0.203116442115702
40
0.203116442115702
40
0.327045140901006
40
0.327045140901006
40
0.402980231179073
40
0.402980231179073
40
0.505547228462792
40
0.505547228462792
40
0.607904869129
40
0.607904869129
40
0.710165947508028
40
0.710165947508028
40
0.91560288621875
40
0.91560288621875
40
1
40
1
40
1
40
1
41
1
10
23.385704985313
20
13.9217774475953
30
0
41
1
10
23.3816694648649
20
13.9240969671738
30
0
41
1
10
23.3777893352252
20
13.9266742631489
30
0
41
1
10
23.3651683087237
20
13.9364265804215
30
0
41
1
10
23.3573833337383
20
13.9450672246206
30
0
41
1
10
23.3458006055944
20
13.9646370265196
30
0
41
1
10
23.3418569890631
20
13.9757937969743
30
0
41
1
10
23.33692473114
20
14.0041013553041
30
0
41
1
10
23.3379481262459
20
14.022146735953
30
0
41
1
10
23.3437397073842
20
14.050275637536
30
0
41
1
10
23.3469373711924
20
14.0609608215424
30
0
41
1
10
23.3561051595551
20
14.0855016370101
30
0
41
1
10
23.3626859647299
20
14.0992653069902
30
0
41
1
10
23.3775750628628
20
14.1258081089403
30
0
41
1
10
23.3859227412291
20
14.1386608916136
30
0
41
1
10
23.4038957425109
20
14.163439148746
30
0
41
1
10
23.4135505390741
20
14.1754047613148
30
0
41
1
10
23.4440697852634
20
14.2100245877534
30
0
41
1
10
23.4665535983876
20
14.231488517357
30
0
41
1
10
23.5002415630566
20
14.2592644185781
30
0
41
1
10
23.5103244149478
20
14.2670768894411
30
0
41
1
10
23.520631198267
20
14.2745818593119
30
0
0
SPLINE
5
209
100
AcDbEntity
8
1
62
256
6
ByLayer
370
18
48
1
60
0
100
AcDbSpline
70
4
71
3
72
8
73
4
40
0
40
0
40
0
40
0
40
1
40
1
40
1
40
1
41
1
10
7.55646316141787
20
15.0772713249038
30
0
41
1
10
6.85969735326455
20
14.792549840556
30
0
41
1
10
6.10251245419602
20
14.7102245667373
30
0
41
1
10
5.40124744040702
20
14.8468081840057
30
0
0
SPLINE
5
20A
100
AcDbEntity
8
1
62
256
6
ByLayer
370
18
48
1
60
0
100
AcDbSpline
70
4
71
3
72
10
73
6
40
0
40
0
40
0
40
0
40
0.464334571635013
40
0.464334571635013
40
1
40
1
40
1
40
1
41
1
10
9.40521572101096
20
14.7094245071797
30
0
41
1
10
9.12644847280728
20
14.6668450269532
30
0
41
1
10
8.8365322548795
20
14.6576490316703
30
0
41
1
10
8.21316831696899
20
14.7637224133475
30
0
41
1
10
7.87677199975406
20
14.9008828175078
30
0
41
1
10
7.55646316141767
20
15.0772713249022
30
0
0
SPLINE
5
20B
100
AcDbEntity
8
1
62
256
6
ByLayer
370
18
48
1
60
0
100
AcDbSpline
70
4
71
3
72
10
73
6
40
0
40
0
40
0
40
0
40
0.464334571635012
40
0.464334571635012
40
1
40
1
40
1
40
1
41
1
10
5.40124744040705
20
14.8468081840049
30
0
41
1
10
5.35503687980989
20
14.6585451375936
30
0
41
1
10
5.30697818194281
20
14.4978391324557
30
0
41
1
10
5.20364467625831
20
14.2781429623258
30
0
41
1
10
5.1478810867352
20
14.2395028897115
30
0
41
1
10
5.09478427898915
20
14.2484982253826
30
0
0
LINE
5
70
100
AcDbEntity
8
81
62
256
6
ByLayer
370
13
48
1
60
0
100
AcDbLine
10
30
20
20
30
0
11
32
21
20
31
0
39
0
210
0
220
0
230
1
0
LINE
5
71
100
AcDbEntity
8
80
62
256
6
ByLayer
370
13
48
1
60
0
100
AcDbLine
10
0
20
0
30
0
11
-4
21
0
31
0
39
0
210
0
220
0
230
1
0
LINE
5
72
100
AcDbEntity
8
SK1
62
256
6
ByLayer
370
18
48
1
60
0
100
AcDbLine
10
10.25
20
-9.258666
30
0
11
10.25
21
0.001325
31
0
39
0
210
0
220
0
230
1
0
LINE
5
74
100
AcDbEntity
8
SK1
62
256
6
ByLayer
370
18
48
1
60
0
100
AcDbLine
10
4.25
20
0.001325
30
0
11
4.25
21
-9.258666
31
0
39
0
210
0
220
0
230
1
0
LINE
5
75
100
AcDbEntity
8
1
62
256
6
ByLayer
370
18
48
1
60
0
100
AcDbLine
10
16.760791
20
7.497831
30
0
11
16.763049
21
7.516777
31
0
39
0
210
0
220
0
230
1
0
LINE
5
77
100
AcDbEntity
8
1
62
256
6
ByLayer
370
18
48
1
60
0
100
AcDbLine
10
24.603102
20
10.747574
30
0
11
24.66083
21
10.753641
31
0
39
0
210
0
220
0
230
1
0
LINE
5
78
100
AcDbEntity
8
1
62
256
6
ByLayer
370
18
48
1
60
0
100
AcDbLine
10
24.159093
20
15.527346
30
0
11
24.101366
21
15.521279
31
0
39
0
210
0
220
0
230
1
0
LINE
5
79
100
AcDbEntity
8
1
62
256
6
ByLayer
370
18
48
1
60
0
100
AcDbLine
10
24.248649
20
14.203857
30
0
11
24.328874
21
14.212289
31
0
39
0
210
0
220
0
230
1
0
LINE
5
7A
100
AcDbEntity
8
1
62
256
6
ByLayer
370
18
48
1
60
0
100
AcDbLine
10
24.553485
20
12.07526
30
0
11
24.47326
21
12.066828
31
0
39
0
210
0
220
0
230
1
0
LINE
5
7B
100
AcDbEntity
8
SK1
62
256
6
ByLayer
370
18
48
1
60
0
100
AcDbLine
10
4.359701
20
-9.466717
30
0
11
4.841417
21
-9.915005
31
0
39
0
210
0
220
0
230
1
0
LINE
5
7C
100
AcDbEntity
8
SK1
62
256
6
ByLayer
370
18
48
1
60
0
100
AcDbLine
10
9.658583
20
-9.915005
30
0
11
10.140299
21
-9.466717
31
0
39
0
210
0
220
0
230
1
0
LINE
5
7D
100
AcDbEntity
8
1
62
256
6
ByLayer
370
18
48
1
60
0
100
AcDbLine
10
5.401247
20
14.846808
30
0
11
5.401247
21
14.111108
31
0
39
0
210
0
220
0
230
1
0
LINE
5
7E
100
AcDbEntity
8
1
62
256
6
ByLayer
370
18
48
1
60
0
100
AcDbLine
10
7.556463
20
15.077271
30
0
11
7.556463
21
13.880682
31
0
39
0
210
0
220
0
230
1
0
LINE
5
7F
100
AcDbEntity
8
1
62
256
6
ByLayer
370
13
48
1
60
0
100
AcDbLine
10
30.15
20
7.378924
30
0
11
30.15
21
7.126277
31
0
39
0
210
0
220
0
230
1
0
LINE
5
80
100
AcDbEntity
8
1
62
256
6
ByLayer
370
13
48
1
60
0
100
AcDbLine
10
17.550494
20
17.628812
30
0
11
17.352621
21
17.608015
31
0
39
0
210
0
220
0
230
1
0
LINE
5
81
100
AcDbEntity
8
1
62
256
6
ByLayer
370
13
48
1
60
0
100
AcDbLine
10
18.376671
20
9.42441
30
0
11
18.412422
21
9.428168
31
0
39
0
210
0
220
0
230
1
0
LINE
5
82
100
AcDbEntity
8
1
62
256
6
ByLayer
370
13
48
1
60
0
100
AcDbLine
10
18.593759
20
7.702746
30
0
11
18.151059
21
7.656217
31
0
39
0
210
0
220
0
230
1
0
LINE
5
83
100
AcDbEntity
8
1
62
256
6
ByLayer
370
13
48
1
60
0
100
AcDbLine
10
18.567627
20
7.951377
30
0
11
18.124927
21
7.904847
31
0
39
0
210
0
220
0
230
1
0
LINE
5
84
100
AcDbEntity
8
1
62
256
6
ByLayer
370
18
48
1
60
0
100
AcDbLine
10
30.984485
20
9.294362
30
0
11
31.055199
21
8.62156
31
0
39
0
210
0
220
0
230
1
0
LINE
5
85
100
AcDbEntity
8
1
62
256
6
ByLayer
370
18
48
1
60
0
100
AcDbLine
10
31.194385
20
8.636189
30
0
11
31.055199
21
8.62156
31
0
39
0
210
0
220
0
230
1
0
LINE
5
86
100
AcDbEntity
8
1
62
256
6
ByLayer
370
18
48
1
60
0
100
AcDbLine
10
31.203486
20
8.545639
30
0
11
31.064174
21
8.532276
31
0
39
0
210
0
220
0
230
1
0
LINE
5
87
100
AcDbEntity
8
1
62
256
6
ByLayer
370
18
48
1
60
0
100
AcDbLine
10
28.126065
20
10.360416
30
0
11
27.854291
21
12.946173
31
0
39
0
210
0
220
0
230
1
0
LINE
5
88
100
AcDbEntity
8
1
62
256
6
ByLayer
370
18
48
1
60
0
100
AcDbLine
10
31.207927
20
8.496841
30
0
11
31.06849
21
8.484843
31
0
39
0
210
0
220
0
230
1
0
LINE
5
89
100
AcDbEntity
8
1
62
256
6
ByLayer
370
18
48
1
60
0
100
AcDbLine
10
31.22038
20
8.337268
30
0
11
31.080769
21
8.327503
31
0
39
0
210
0
220
0
230
1
0
LINE
5
8A
100
AcDbEntity
8
1
62
256
6
ByLayer
370
18
48
1
60
0
100
AcDbLine
10
31.215483
20
8.224177
30
0
11
31.077242
21
8.246047
31
0
39
0
210
0
220
0
230
1
0
LINE
5
8B
100
AcDbEntity
8
1
62
256
6
ByLayer
370
18
48
1
60
0
100
AcDbLine
10
30.587876
20
7.447211
30
0
11
30.537416
21
7.577753
31
0
39
0
210
0
220
0
230
1
0
LINE
5
8C
100
AcDbEntity
8
1
62
256
6
ByLayer
370
18
48
1
60
0
100
AcDbLine
10
30.320264
20
7.39793
30
0
11
30.3026
21
7.536686
31
0
39
0
210
0
220
0
230
1
0
LINE
5
8D
100
AcDbEntity
8
1
62
256
6
ByLayer
370
18
48
1
60
0
100
AcDbLine
10
30.271727
20
7.392139
30
0
11
30.255421
21
7.531056
31
0
39
0
210
0
220
0
230
1
0
LINE
5
8E
100
AcDbEntity
8
1
62
256
6
ByLayer
370
18
48
1
60
0
100
AcDbLine
10
25.25691
20
9.730666
30
0
11
27.836369
21
10.001777
31
0
39
0
210
0
220
0
230
1
0
LINE
5
8F
100
AcDbEntity
8
1
62
256
6
ByLayer
370
18
48
1
60
0
100
AcDbLine
10
30.181485
20
7.382238
30
0
11
30.166441
21
7.521294
31
0
39
0
210
0
220
0
230
1
0
LINE
5
90
100
AcDbEntity
8
1
62
256
6
ByLayer
370
18
48
1
60
0
100
AcDbLine
10
30.166441
20
7.521294
30
0
11
29.495277
21
7.450752
31
0
39
0
210
0
220
0
230
1
0
LINE
5
91
100
AcDbEntity
8
1
62
256
6
ByLayer
370
18
48
1
60
0
100
AcDbLine
10
18.772746
20
7.330622
30
0
11
18.702031
21
8.003424
31
0
39
0
210
0
220
0
230
1
0
LINE
5
92
100
AcDbEntity
8
1
62
256
6
ByLayer
370
18
48
1
60
0
100
AcDbLine
10
23.447962
20
16.411141
30
0
11
20.868504
21
16.140029
31
0
39
0
210
0
220
0
230
1
0
LINE
5
93
100
AcDbEntity
8
1
62
256
6
ByLayer
370
18
48
1
60
0
100
AcDbLine
10
21.350206
20
9.648244
30
0
11
21.221691
21
9.634737
31
0
39
0
210
0
220
0
230
1
0
LINE
5
94
100
AcDbEntity
8
1
62
256
6
ByLayer
370
18
48
1
60
0
100
AcDbLine
10
19.885885
20
6.300126
30
0
11
19.870841
21
6.439182
31
0
39
0
210
0
220
0
230
1
0
LINE
5
95
100
AcDbEntity
8
1
62
256
6
ByLayer
370
18
48
1
60
0
100
AcDbLine
10
27.125251
20
16.797639
30
0
11
24.545793
21
16.526527
31
0
39
0
210
0
220
0
230
1
0
LINE
5
96
100
AcDbEntity
8
1
62
256
6
ByLayer
370
18
48
1
60
0
100
AcDbLine
10
17.549654
20
17.636823
30
0
11
18.634408
21
7.316082
31
0
39
0
210
0
220
0
230
1
0
LINE
5
97
100
AcDbEntity
8
1
62
256
6
ByLayer
370
18
48
1
60
0
100
AcDbLine
10
20.69099
20
15.92027
30
0
11
20.962764
21
13.334513
31
0
39
0
210
0
220
0
230
1
0
LINE
5
98
100
AcDbEntity
8
1
62
256
6
ByLayer
370
18
48
1
60
0
100
AcDbLine
10
19.474865
20
6.279187
30
0
11
19.496234
21
6.417278
31
0
39
0
210
0
220
0
230
1
0
LINE
5
99
100
AcDbEntity
8
1
62
256
6
ByLayer
370
18
48
1
60
0
100
AcDbLine
10
21.579622
20
9.344167
30
0
11
24.15908
21
9.615279
31
0
39
0
210
0
220
0
230
1
0
LINE
5
9A
100
AcDbEntity
8
1
62
256
6
ByLayer
370
18
48
1
60
0
100
AcDbLine
10
18.699433
20
6.908687
30
0
11
18.829258
21
6.958732
31
0
39
0
210
0
220
0
230
1
0
LINE
5
9B
100
AcDbEntity
8
1
62
256
6
ByLayer
370
18
48
1
60
0
100
AcDbLine
10
27.616351
20
14.033833
30
0
11
27.344577
21
16.61959
31
0
39
0
210
0
220
0
230
1
0
LINE
5
9C
100
AcDbEntity
8
1
62
256
6
ByLayer
370
18
48
1
60
0
100
AcDbLine
10
27.732019
20
12.933322
30
0
11
28.003793
21
10.347565
31
0
39
0
210
0
220
0
230
1
0
LINE
5
9D
100
AcDbEntity
8
1
62
256
6
ByLayer
370
18
48
1
60
0
100
AcDbLine
10
17.536112
20
17.77617
30
0
11
17.674701
21
17.788079
31
0
39
0
210
0
220
0
230
1
0
LINE
5
9E
100
AcDbEntity
8
1
62
256
6
ByLayer
370
18
48
1
60
0
100
AcDbLine
10
17.523659
20
17.935743
30
0
11
17.662422
21
17.945419
31
0
39
0
210
0
220
0
230
1
0
LINE
5
9F
100
AcDbEntity
8
1
62
256
6
ByLayer
370
18
48
1
60
0
100
AcDbLine
10
17.528556
20
18.048834
30
0
11
17.66595
21
18.026875
31
0
39
0
210
0
220
0
230
1
0
LINE
5
A0
100
AcDbEntity
8
1
62
256
6
ByLayer
370
18
48
1
60
0
100
AcDbLine
10
18.156163
20
18.8258
30
0
11
18.205776
21
18.695169
31
0
39
0
210
0
220
0
230
1
0
LINE
5
A1
100
AcDbEntity
8
1
62
256
6
ByLayer
370
18
48
1
60
0
100
AcDbLine
10
18.265489
20
18.854115
30
0
11
18.28452
21
18.715564
31
0
39
0
210
0
220
0
230
1
0
LINE
5
A2
100
AcDbEntity
8
1
62
256
6
ByLayer
370
18
48
1
60
0
100
AcDbLine
10
18.423775
20
18.875081
30
0
11
18.440592
21
18.736237
31
0
39
0
210
0
220
0
230
1
0
LINE
5
A3
100
AcDbEntity
8
1
62
256
6
ByLayer
370
18
48
1
60
0
100
AcDbLine
10
18.472311
20
18.880872
30
0
11
18.48777
21
18.741866
31
0
39
0
210
0
220
0
230
1
0
LINE
5
A4
100
AcDbEntity
8
1
62
256
6
ByLayer
370
18
48
1
60
0
100
AcDbLine
10
18.562554
20
18.890774
30
0
11
18.576751
21
18.751629
31
0
39
0
210
0
220
0
230
1
0
LINE
5
A5
100
AcDbEntity
8
1
62
256
6
ByLayer
370
18
48
1
60
0
100
AcDbLine
10
18.576751
20
18.751629
30
0
11
19.247914
21
18.822171
31
0
39
0
210
0
220
0
230
1
0
LINE
5
A6
100
AcDbEntity
8
1
62
256
6
ByLayer
370
18
48
1
60
0
100
AcDbLine
10
27.826279
20
10.127805
30
0
11
25.246821
21
9.856693
31
0
39
0
210
0
220
0
230
1
0
LINE
5
A7
100
AcDbEntity
8
1
62
256
6
ByLayer
370
18
48
1
60
0
100
AcDbLine
10
19.795555
20
6.291049
30
0
11
19.781775
21
6.430232
31
0
39
0
210
0
220
0
230
1
0
LINE
5
A8
100
AcDbEntity
8
1
62
256
6
ByLayer
370
18
48
1
60
0
100
AcDbLine
10
18.650133
20
7.176963
30
0
11
18.78817
21
7.19413
31
0
39
0
210
0
220
0
230
1
0
LINE
5
A9
100
AcDbEntity
8
1
62
256
6
ByLayer
370
18
48
1
60
0
100
AcDbLine
10
20.542005
20
6.509725
30
0
11
19.870841
21
6.439182
31
0
39
0
210
0
220
0
230
1
0
LINE
5
AA
100
AcDbEntity
8
1
62
256
6
ByLayer
370
18
48
1
60
0
100
AcDbLine
10
24.14899
20
9.741307
30
0
11
21.569532
21
9.470195
31
0
39
0
210
0
220
0
230
1
0
LINE
5
AB
100
AcDbEntity
8
1
62
256
6
ByLayer
370
18
48
1
60
0
100
AcDbLine
10
27.108918
20
16.923011
30
0
11
24.529459
21
16.651899
31
0
39
0
210
0
220
0
230
1
0
LINE
5
AC
100
AcDbEntity
8
1
62
256
6
ByLayer
370
18
48
1
60
0
100
AcDbLine
10
20.949917
20
12.220494
30
0
11
21.221691
21
9.634737
31
0
39
0
210
0
220
0
230
1
0
LINE
5
AD
100
AcDbEntity
8
1
62
256
6
ByLayer
370
18
48
1
60
0
100
AcDbLine
10
20.69099
20
15.92027
30
0
11
20.562475
21
15.906762
31
0
39
0
210
0
220
0
230
1
0
LINE
5
AE
100
AcDbEntity
8
1
62
256
6
ByLayer
370
18
48
1
60
0
100
AcDbLine
10
21.350206
20
9.648244
30
0
11
21.078432
21
12.234001
31
0
39
0
210
0
220
0
230
1
0
LINE
5
AF
100
AcDbEntity
8
1
62
256
6
ByLayer
370
18
48
1
60
0
100
AcDbLine
10
18.644331
20
7.225618
30
0
11
18.78253
21
7.241424
31
0
39
0
210
0
220
0
230
1
0
LINE
5
B0
100
AcDbEntity
8
1
62
256
6
ByLayer
370
18
48
1
60
0
100
AcDbLine
10
27.131797
20
16.597226
30
0
11
27.466848
21
16.632441
31
0
39
0
210
0
220
0
230
1
0
LINE
5
B1
100
AcDbEntity
8
1
62
256
6
ByLayer
370
18
48
1
60
0
100
AcDbLine
10
31.194385
20
8.636189
30
0
11
30.109631
21
18.956929
31
0
39
0
210
0
220
0
230
1
0
LINE
5
B2
100
AcDbEntity
8
1
62
256
6
ByLayer
370
18
48
1
60
0
100
AcDbLine
10
19.746876
20
6.286622
30
0
11
19.734457
21
6.425929
31
0
39
0
210
0
220
0
230
1
0
LINE
5
B3
100
AcDbEntity
8
1
62
256
6
ByLayer
370
18
48
1
60
0
100
AcDbLine
10
28.201187
20
19.763198
30
0
11
28.872351
21
19.83374
31
0
39
0
210
0
220
0
230
1
0
LINE
5
B4
100
AcDbEntity
8
1
62
256
6
ByLayer
370
18
48
1
60
0
100
AcDbLine
10
28.858154
20
19.972885
30
0
11
28.872351
21
19.83374
31
0
39
0
210
0
220
0
230
1
0
LINE
5
B5
100
AcDbEntity
8
1
62
256
6
ByLayer
370
18
48
1
60
0
100
AcDbLine
10
28.948484
20
19.981962
30
0
11
28.961417
21
19.84269
31
0
39
0
210
0
220
0
230
1
0
LINE
5
B6
100
AcDbEntity
8
1
62
256
6
ByLayer
370
18
48
1
60
0
100
AcDbLine
10
18.671129
20
7.018289
30
0
11
18.808873
21
7.037674
31
0
39
0
210
0
220
0
230
1
0
LINE
5
B7
100
AcDbEntity
8
1
62
256
6
ByLayer
370
18
48
1
60
0
100
AcDbLine
10
28.997163
20
19.986389
30
0
11
29.008734
21
19.846993
31
0
39
0
210
0
220
0
230
1
0
LINE
5
B8
100
AcDbEntity
8
1
62
256
6
ByLayer
370
18
48
1
60
0
100
AcDbLine
10
29.156349
20
19.998791
30
0
11
29.165694
21
19.859222
31
0
39
0
210
0
220
0
230
1
0
LINE
5
B9
100
AcDbEntity
8
1
62
256
6
ByLayer
370
18
48
1
60
0
100
AcDbLine
10
29.269173
20
19.993825
30
0
11
29.246957
21
19.855644
31
0
39
0
210
0
220
0
230
1
0
LINE
5
BA
100
AcDbEntity
8
1
62
256
6
ByLayer
370
18
48
1
60
0
100
AcDbLine
10
27.854291
20
12.946173
30
0
11
27.732019
21
12.933322
31
0
39
0
210
0
220
0
230
1
0
LINE
5
BB
100
AcDbEntity
8
1
62
256
6
ByLayer
370
18
48
1
60
0
100
AcDbLine
10
30.478549
20
7.418896
30
0
11
30.458672
21
7.557358
31
0
39
0
210
0
220
0
230
1
0
LINE
5
BC
100
AcDbEntity
8
1
62
256
6
ByLayer
370
18
48
1
60
0
100
AcDbLine
10
30.044606
20
19.364324
30
0
11
29.913933
21
19.31419
31
0
39
0
210
0
220
0
230
1
0
LINE
5
BD
100
AcDbEntity
8
1
62
256
6
ByLayer
370
18
48
1
60
0
100
AcDbLine
10
30.07291
20
19.254722
30
0
11
29.934319
21
19.235248
31
0
39
0
210
0
220
0
230
1
0
LINE
5
BE
100
AcDbEntity
8
1
62
256
6
ByLayer
370
18
48
1
60
0
100
AcDbLine
10
30.093906
20
19.096048
30
0
11
29.955021
21
19.078793
31
0
39
0
210
0
220
0
230
1
0
LINE
5
BF
100
AcDbEntity
8
1
62
256
6
ByLayer
370
18
48
1
60
0
100
AcDbLine
10
30.099708
20
19.047393
30
0
11
29.960661
21
19.031499
31
0
39
0
210
0
220
0
230
1
0
LINE
5
C0
100
AcDbEntity
8
1
62
256
6
ByLayer
370
18
48
1
60
0
100
AcDbLine
10
30.109631
20
18.956929
30
0
11
29.970446
21
18.942301
31
0
39
0
210
0
220
0
230
1
0
LINE
5
C1
100
AcDbEntity
8
1
62
256
6
ByLayer
370
18
48
1
60
0
100
AcDbLine
10
29.970446
20
18.942301
30
0
11
30.04116
21
18.269498
31
0
39
0
210
0
220
0
230
1
0
LINE
5
C2
100
AcDbEntity
8
1
62
256
6
ByLayer
370
18
48
1
60
0
100
AcDbLine
10
27.738622
20
14.046684
30
0
11
27.466848
21
16.632441
31
0
39
0
210
0
220
0
230
1
0
LINE
5
C3
100
AcDbEntity
8
1
62
256
6
ByLayer
370
18
48
1
60
0
100
AcDbLine
10
20.962764
20
13.334513
30
0
11
20.834249
21
13.321005
31
0
39
0
210
0
220
0
230
1
0
LINE
5
C4
100
AcDbEntity
8
1
62
256
6
ByLayer
370
18
48
1
60
0
100
AcDbLine
10
23.431629
20
16.536513
30
0
11
20.852171
21
16.265401
31
0
39
0
210
0
220
0
230
1
0
LINE
5
C5
100
AcDbEntity
8
1
62
256
6
ByLayer
370
18
48
1
60
0
100
AcDbLine
10
20.562475
20
15.906762
30
0
11
20.834249
21
13.321005
31
0
39
0
210
0
220
0
230
1
0
LINE
5
C6
100
AcDbEntity
8
1
62
256
6
ByLayer
370
18
48
1
60
0
100
AcDbLine
10
27.738622
20
14.046684
30
0
11
27.616351
21
14.033833
31
0
39
0
210
0
220
0
230
1
0
LINE
5
C7
100
AcDbEntity
8
1
62
256
6
ByLayer
370
18
48
1
60
0
100
AcDbLine
10
28.003793
20
10.347565
30
0
11
28.126065
21
10.360416
31
0
39
0
210
0
220
0
230
1
0
LINE
5
C8
100
AcDbEntity
8
1
62
256
6
ByLayer
370
18
48
1
60
0
100
AcDbLine
10
19.58769
20
6.27422
30
0
11
19.577498
21
6.413701
31
0
39
0
210
0
220
0
230
1
0
LINE
5
C9
100
AcDbEntity
8
1
62
256
6
ByLayer
370
18
48
1
60
0
100
AcDbLine
10
21.078432
20
12.234001
30
0
11
20.949917
21
12.220494
31
0
39
0
210
0
220
0
230
1
0
LINE
5
CA
100
AcDbEntity
8
1
62
256
6
ByLayer
370
18
48
1
60
0
100
AcDbLine
10
28.858154
20
19.972885
30
0
11
18.562554
21
18.890774
31
0
39
0
210
0
220
0
230
1
0
LINE
5
CB
100
AcDbEntity
8
1
62
256
6
ByLayer
370
18
48
1
60
0
100
AcDbLine
10
17.758707
20
16.97856
30
0
11
17.687992
21
17.651363
31
0
39
0
210
0
220
0
230
1
0
LINE
5
CC
100
AcDbEntity
8
1
62
256
6
ByLayer
370
18
48
1
60
0
100
AcDbLine
10
18.634408
20
7.316082
30
0
11
18.772746
21
7.330622
31
0
39
0
210
0
220
0
230
1
0
LINE
5
CD
100
AcDbEntity
8
1
62
256
6
ByLayer
370
18
48
1
60
0
100
AcDbLine
10
17.549654
20
17.636823
30
0
11
17.687992
21
17.651363
31
0
39
0
210
0
220
0
230
1
0
LINE
5
CE
100
AcDbEntity
8
1
62
256
6
ByLayer
370
18
48
1
60
0
100
AcDbLine
10
17.540552
20
17.727372
30
0
11
17.679018
21
17.740646
31
0
39
0
210
0
220
0
230
1
0
LINE
5
CF
100
AcDbEntity
8
1
62
256
6
ByLayer
370
18
48
1
60
0
100
AcDbLine
10
19.885885
20
6.300126
30
0
11
30.181485
21
7.382238
31
0
39
0
210
0
220
0
230
1
0
LINE
5
D0
100
AcDbEntity
8
1
62
256
6
ByLayer
370
13
48
1
60
0
100
AcDbLine
10
4.2
20
0.60131
30
0
11
27.35
21
0.60131
31
0
39
0
210
0
220
0
230
1
0
LINE
5
D1
100
AcDbEntity
8
1
62
256
6
ByLayer
370
13
48
1
60
0
100
AcDbLine
10
3.598691
20
0.001312
30
0
11
4.2
21
0.60131
31
0
39
0
210
0
220
0
230
1
0
LINE
5
D2
100
AcDbEntity
8
1
62
256
6
ByLayer
370
13
48
1
60
0
100
AcDbLine
10
30.15
20
5.57092
30
0
11
28.35
21
5.557339
31
0
39
0
210
0
220
0
230
1
0
LINE
5
D3
100
AcDbEntity
8
1
62
256
6
ByLayer
370
13
48
1
60
0
100
AcDbLine
10
27.951309
20
0.001312
30
0
11
3.598691
21
0.001312
31
0
39
0
210
0
220
0
230
1
0
LINE
5
D4
100
AcDbEntity
8
1
62
256
6
ByLayer
370
13
48
1
60
0
100
AcDbLine
10
4.2
20
11.077481
30
0
11
4.2
21
0.60131
31
0
39
0
210
0
220
0
230
1
0
LINE
5
D5
100
AcDbEntity
8
1
62
256
6
ByLayer
370
13
48
1
60
0
100
AcDbLine
10
27.951309
20
0.001312
30
0
11
27.35
21
0.60131
31
0
39
0
210
0
220
0
230
1
0
LINE
5
D6
100
AcDbEntity
8
1
62
256
6
ByLayer
370
13
48
1
60
0
100
AcDbLine
10
12.822409
20
11.077481
30
0
11
13.326512
21
12.077481
31
0
39
0
210
0
220
0
230
1
0
LINE
5
D7
100
AcDbEntity
8
1
62
256
6
ByLayer
370
13
48
1
60
0
100
AcDbLine
10
27.35
20
4.557086
30
0
11
28.35
21
5.557339
31
0
39
0
210
0
220
0
230
1
0
LINE
5
D8
100
AcDbEntity
8
1
62
256
6
ByLayer
370
13
48
1
60
0
100
AcDbLine
10
30.15
20
5.57092
30
0
11
30.15
21
5.58109
31
0
39
0
210
0
220
0
230
1
0
LINE
5
D9
100
AcDbEntity
8
1
62
256
6
ByLayer
370
13
48
1
60
0
100
AcDbLine
10
27.35
20
4.557086
30
0
11
27.35
21
0.60131
31
0
39
0
210
0
220
0
230
1
0
LINE
5
DA
100
AcDbEntity
8
1
62
256
6
ByLayer
370
13
48
1
60
0
100
AcDbLine
10
12.790742
20
13.241974
30
0
11
13.326512
21
12.077481
31
0
39
0
210
0
220
0
230
1
0
LINE
5
DB
100
AcDbEntity
8
1
62
256
6
ByLayer
370
13
48
1
60
0
100
AcDbLine
10
12.8
20
16.039265
30
0
11
3.785581
21
16.039265
31
0
39
0
210
0
220
0
230
1
0
LINE
5
DC
100
AcDbEntity
8
1
62
256
6
ByLayer
370
13
48
1
60
0
100
AcDbLine
10
12.790742
20
13.241974
30
0
11
12.8
21
13.241802
31
0
39
0
210
0
220
0
230
1
0
LINE
5
DD
100
AcDbEntity
8
1
62
256
6
ByLayer
370
13
48
1
60
0
100
AcDbLine
10
13.2
20
17.171557
30
0
11
13.2
21
13.647664
31
0
39
0
210
0
220
0
230
1
0
LINE
5
DE
100
AcDbEntity
8
1
62
256
6
ByLayer
370
13
48
1
60
0
100
AcDbLine
10
17.352621
20
17.608015
30
0
11
13.2
21
17.171557
31
0
39
0
210
0
220
0
230
1
0
LINE
5
DF
100
AcDbEntity
8
1
62
256
6
ByLayer
370
13
48
1
60
0
100
AcDbLine
10
18.209251
20
9.223759
30
0
11
17.352621
21
17.608015
31
0
39
0
210
0
220
0
230
1
0
LINE
5
E0
100
AcDbEntity
8
1
62
256
6
ByLayer
370
13
48
1
60
0
100
AcDbLine
10
17.895991
20
7.880785
30
0
11
17.922124
21
7.632155
31
0
39
0
210
0
220
0
230
1
0
LINE
5
E1
100
AcDbEntity
8
1
62
256
6
ByLayer
370
13
48
1
60
0
100
AcDbLine
10
19.034545
20
5.554981
30
0
11
19.034798
21
4.55498
31
0
39
0
210
0
220
0
230
1
0
LINE
5
E2
100
AcDbEntity
8
1
62
256
6
ByLayer
370
13
48
1
60
0
100
AcDbLine
10
30.15
20
7.126277
30
0
11
30.15
21
5.58109
31
0
39
0
210
0
220
0
230
1
0
LINE
5
E3
100
AcDbEntity
8
1
62
256
6
ByLayer
370
13
48
1
60
0
100
AcDbLine
10
27.951309
20
0.001312
30
0
11
30.15
21
0.006109
31
0
39
0
210
0
220
0
230
1
0
LINE
5
E4
100
AcDbEntity
8
1
62
256
6
ByLayer
370
13
48
1
60
0
100
AcDbLine
10
30.15
20
7.126277
30
0
11
29.649126
21
7.117641
31
0
39
0
210
0
220
0
230
1
0
LINE
5
E5
100
AcDbEntity
8
1
62
256
6
ByLayer
370
13
48
1
60
0
100
AcDbLine
10
17.62639
20
6.26534
30
0
11
17.907409
21
6.294876
31
0
39
0
210
0
220
0
230
1
0
LINE
5
E6
100
AcDbEntity
8
1
62
256
6
ByLayer
370
13
48
1
60
0
100
AcDbLine
10
3.598691
20
0.001312
30
0
11
0.6
21
0.007854
31
0
39
0
210
0
220
0
230
1
0
LINE
5
E7
100
AcDbEntity
8
1
62
256
6
ByLayer
370
13
48
1
60
0
100
AcDbLine
10
19.312157
20
5.583841
30
0
11
19.03757
21
5.554981
31
0
39
0
210
0
220
0
230
1
0
LINE
5
E8
100
AcDbEntity
8
1
62
256
6
ByLayer
370
13
48
1
60
0
100
AcDbLine
10
0
20
0.609164
30
0
11
0
21
12.934918
31
0
39
0
210
0
220
0
230
1
0
LINE
5
E9
100
AcDbEntity
8
1
62
256
6
ByLayer
370
13
48
1
60
0
100
AcDbLine
10
28.35
20
5.557339
30
0
11
19.03757
21
5.554981
31
0
39
0
210
0
220
0
230
1
0
LINE
5
EA
100
AcDbEntity
8
1
62
256
6
ByLayer
370
13
48
1
60
0
100
AcDbLine
10
12.790742
20
13.241974
30
0
11
17.907409
21
6.294876
31
0
39
0
210
0
220
0
230
1
0
LINE
5
EB
100
AcDbEntity
8
1
62
256
6
ByLayer
370
13
48
1
60
0
100
AcDbLine
10
19.312157
20
5.583841
30
0
11
30.15
21
5.58109
31
0
39
0
210
0
220
0
230
1
0
LINE
5
EC
100
AcDbEntity
8
1
62
256
6
ByLayer
370
13
48
1
60
0
100
AcDbLine
10
17.895991
20
7.880785
30
0
11
18.124927
21
7.904847
31
0
39
0
210
0
220
0
230
1
0
LINE
5
ED
100
AcDbEntity
8
1
62
256
6
ByLayer
370
13
48
1
60
0
100
AcDbLine
10
12.8
20
14.812294
30
0
11
12.8
21
16.039265
31
0
39
0
210
0
220
0
230
1
0
LINE
5
EE
100
AcDbEntity
8
1
62
256
6
ByLayer
370
13
48
1
60
0
100
AcDbLine
10
0
20
0.609164
30
0
11
0.6
21
0.007854
31
0
39
0
210
0
220
0
230
1
0
LINE
5
EF
100
AcDbEntity
8
1
62
256
6
ByLayer
370
13
48
1
60
0
100
AcDbLine
10
16.823335
20
5.669434
30
0
11
17.627251
21
6.264178
31
0
39
0
210
0
220
0
230
1
0
LINE
5
F0
100
AcDbEntity
8
1
62
256
6
ByLayer
370
13
48
1
60
0
100
AcDbLine
10
12.822409
20
11.077481
30
0
11
16.823335
21
5.669434
31
0
39
0
210
0
220
0
230
1
0
LINE
5
F1
100
AcDbEntity
8
1
62
256
6
ByLayer
370
13
48
1
60
0
100
AcDbLine
10
0
20
15.024922
30
0
11
3.785581
21
16.039265
31
0
39
0
210
0
220
0
230
1
0
LINE
5
F2
100
AcDbEntity
8
1
62
256
6
ByLayer
370
13
48
1
60
0
100
AcDbLine
10
0
20
15.024922
30
0
11
0
21
12.934918
31
0
39
0
210
0
220
0
230
1
0
LINE
5
F3
100
AcDbEntity
8
1
62
256
6
ByLayer
370
13
48
1
60
0
100
AcDbLine
10
4.2
20
11.077481
30
0
11
3.2
21
12.077481
31
0
39
0
210
0
220
0
230
1
0
LINE
5
F4
100
AcDbEntity
8
1
62
256
6
ByLayer
370
13
48
1
60
0
100
AcDbLine
10
13.326512
20
12.077481
30
0
11
3.2
21
12.077481
31
0
39
0
210
0
220
0
230
1
0
LINE
5
F5
100
AcDbEntity
8
1
62
256
6
ByLayer
370
13
48
1
60
0
100
AcDbLine
10
12.822409
20
11.077481
30
0
11
4.2
21
11.077481
31
0
39
0
210
0
220
0
230
1
0
LINE
5
F6
100
AcDbEntity
8
1
62
256
6
ByLayer
370
13
48
1
60
0
100
AcDbLine
10
17.922124
20
7.632155
30
0
11
18.151059
21
7.656217
31
0
39
0
210
0
220
0
230
1
0
LINE
5
F7
100
AcDbEntity
8
1
62
256
6
ByLayer
370
13
48
1
60
0
100
AcDbLine
10
18.151059
20
7.656217
30
0
11
18.124927
21
7.904847
31
0
39
0
210
0
220
0
230
1
0
LINE
5
F8
100
AcDbEntity
8
1
62
256
6
ByLayer
370
13
48
1
60
0
100
AcDbLine
10
12.8
20
13.241802
30
0
11
12.8
21
13.324591
31
0
39
0
210
0
220
0
230
1
0
LINE
5
F9
100
AcDbEntity
8
1
62
256
6
ByLayer
370
13
48
1
60
0
100
AcDbLine
10
29.649126
20
7.117641
30
0
11
21.357277
21
6.246132
31
0
39
0
210
0
220
0
230
1
0
LINE
5
FA
100
AcDbEntity
8
1
62
256
6
ByLayer
370
13
48
1
60
0
100
AcDbLine
10
17.62639
20
6.26534
30
0
11
13.326512
21
12.077481
31
0
39
0
210
0
220
0
230
1
0
LINE
5
FB
100
AcDbEntity
8
1
62
256
6
ByLayer
370
13
48
1
60
0
100
AcDbLine
10
3.2
20
12.077481
30
0
11
0
21
12.934918
31
0
39
0
210
0
220
0
230
1
0
LINE
5
FC
100
AcDbEntity
8
1
62
256
6
ByLayer
370
13
48
1
60
0
100
AcDbLine
10
19.034798
20
4.55498
30
0
11
27.35
21
4.557086
31
0
39
0
210
0
220
0
230
1
0
LINE
5
FD
100
AcDbEntity
8
1
62
256
6
ByLayer
370
13
48
1
60
0
100
AcDbLine
10
30.15
20
5.57092
30
0
11
30.15
21
0.006109
31
0
39
0
210
0
220
0
230
1
0
LINE
5
FE
100
AcDbEntity
8
1
62
256
6
ByLayer
370
18
48
1
60
0
100
AcDbLine
10
23.277398
20
12.697182
30
0
11
23.297344
21
12.698276
31
0
39
0
210
0
220
0
230
1
0
LINE
5
FF
100
AcDbEntity
8
1
62
256
6
ByLayer
370
18
48
1
60
0
100
AcDbLine
10
24.789955
20
11.984135
30
0
11
24.876426
21
11.993224
31
0
39
0
210
0
220
0
230
1
0
LINE
5
100
100
AcDbEntity
8
1
62
256
6
ByLayer
370
18
48
1
60
0
100
AcDbLine
10
24.801728
20
11.968457
30
0
11
24.888961
21
11.977626
31
0
39
0
210
0
220
0
230
1
0
LINE
5
101
100
AcDbEntity
8
1
62
256
6
ByLayer
370
18
48
1
60
0
100
AcDbLine
10
23.664962
20
12.19117
30
0
11
23.657759
21
12.172496
31
0
39
0
210
0
220
0
230
1
0
LINE
5
102
100
AcDbEntity
8
1
62
256
6
ByLayer
370
18
48
1
60
0
100
AcDbLine
10
23.143245
20
13.332633
30
0
11
23.229716
21
13.341721
31
0
39
0
210
0
220
0
230
1
0
LINE
5
103
100
AcDbEntity
8
1
62
256
6
ByLayer
370
18
48
1
60
0
100
AcDbLine
10
23.570526
20
12.163328
30
0
11
23.657759
21
12.172496
31
0
39
0
210
0
220
0
230
1
0
LINE
5
104
100
AcDbEntity
8
1
62
256
6
ByLayer
370
18
48
1
60
0
100
AcDbLine
10
23.210874
20
12.689188
30
0
11
23.297344
21
12.698276
31
0
39
0
210
0
220
0
230
1
0
LINE
5
105
100
AcDbEntity
8
1
62
256
6
ByLayer
370
18
48
1
60
0
100
AcDbLine
10
23.578491
20
12.182082
30
0
11
23.664962
21
12.19117
31
0
39
0
210
0
220
0
230
1
0
LINE
5
106
100
AcDbEntity
8
1
62
256
6
ByLayer
370
18
48
1
60
0
100
AcDbLine
10
23.229716
20
13.341721
30
0
11
23.209978
21
13.338645
31
0
39
0
210
0
220
0
230
1
0
LINE
5
107
100
AcDbEntity
8
1
62
256
6
ByLayer
370
18
48
1
60
0
100
AcDbLine
10
24.876426
20
11.993224
30
0
11
24.888961
21
11.977626
31
0
39
0
210
0
220
0
230
1
0
LINE
5
108
100
AcDbEntity
8
1
62
256
6
ByLayer
370
18
48
1
60
0
100
AcDbLine
10
25.517728
20
13.581199
30
0
11
25.604961
21
13.590368
31
0
39
0
210
0
220
0
230
1
0
LINE
5
109
100
AcDbEntity
8
1
62
256
6
ByLayer
370
18
48
1
60
0
100
AcDbLine
10
25.585148
20
12.939736
30
0
11
25.672382
21
12.948905
31
0
39
0
210
0
220
0
230
1
0
LINE
5
10A
100
AcDbEntity
8
1
62
256
6
ByLayer
370
18
48
1
60
0
100
AcDbLine
10
24.541231
20
14.350588
30
0
11
24.627702
21
14.359676
31
0
39
0
210
0
220
0
230
1
0
LINE
5
10B
100
AcDbEntity
8
1
62
256
6
ByLayer
370
18
48
1
60
0
100
AcDbLine
10
24.549487
20
14.368371
30
0
11
24.63672
21
14.377539
31
0
39
0
210
0
220
0
230
1
0
LINE
5
10C
100
AcDbEntity
8
1
62
256
6
ByLayer
370
18
48
1
60
0
100
AcDbLine
10
24.63672
20
14.377539
30
0
11
24.627702
21
14.359676
31
0
39
0
210
0
220
0
230
1
0
LINE
5
10D
100
AcDbEntity
8
1
62
256
6
ByLayer
370
18
48
1
60
0
100
AcDbLine
10
23.472939
20
13.930946
30
0
11
23.483866
21
13.914178
31
0
39
0
210
0
220
0
230
1
0
LINE
5
10E
100
AcDbEntity
8
1
62
256
6
ByLayer
370
18
48
1
60
0
100
AcDbLine
10
23.397396
20
13.905089
30
0
11
23.483866
21
13.914178
31
0
39
0
210
0
220
0
230
1
0
LINE
5
10F
100
AcDbEntity
8
1
62
256
6
ByLayer
370
18
48
1
60
0
100
AcDbLine
10
23.385705
20
13.921777
30
0
11
23.472939
21
13.930946
31
0
39
0
210
0
220
0
230
1
0
MTEXT
5
20C
100
AcDbEntity
8
SK6
62
256
6
ByLayer
370
18
48
1
60
0
100
AcDbMText
10
21.659437
20
-9.267674
30
0
210
0
220
0
230
1
1
\W0.7976;SSYPR12CDX12
40
3
41
0
44
1.084337
50
0
71
7
72
5
7
iso_b_vert
0
DIMENSION
5
21A
100
AcDbEntity
8
2
62
256
6
ByLayer
370
13
48
1
60
0
100
AcDbDimension
2
DimnDraft3D1
10
0
20
29.434425
30
0
11
11.557895
21
29.434425
31
0
70
32
71
5
72
1
41
1
210
0
220
0
230
1
3
Standard
100
AcDbAlignedDimension
13
30
23
22
33
0
14
0
24
2
34
0
50
0
100
AcDbRotatedDimension
1001
ACAD
1000
DSTYLE
1002
{
1070
   279
1070
     0
1070
   172
1070
     1
1070
   173
1070
     1
1070
   340
1005
20D
1070
   271
1070
     1
1070
    77
1070
     1
1070
    73
1070
     0
1070
   171
1070
     4
1070
   274
1070
     4
1070
   177
1070
     7
1070
   176
1070
     7
1070
   178
1070
     7
1070
    41
1041
3.175
1070
   147
1041
1.5
1070
    42
1041
2.0
1070
    44
1041
2.0
1070
   140
1041
3.0
1070
   343
1005
0
1070
   344
1005
0
1002
}
0
DIMENSION
5
225
100
AcDbEntity
8
SK2
62
256
6
ByLayer
370
13
48
1
60
0
100
AcDbDimension
2
DimnDraft3D2
10
31
20
20
30
0
11
37.615012
21
13.143412
31
0
70
34
71
5
72
1
41
1
210
0
220
0
230
1
3
Standard
100
AcDb2LineAngularDimension
13
31.194385
23
8.636189
33
0
14
30.109631
24
18.956929
34
0
15
30
25
20
35
0
16
39.844446
26
11.136021
36
0
40
0
0
DIMENSION
5
22F
100
AcDbEntity
8
SK2
62
256
6
ByLayer
370
13
48
1
60
0
100
AcDbDimension
2
DimnDraft3D3
10
50.887888
20
20
30
0
11
50.887888
21
6.482002
31
0
70
32
71
5
72
1
41
1
210
0
220
0
230
1
3
Standard
100
AcDbAlignedDimension
13
32.15
23
0.006109
33
0
14
32
24
20
34
0
50
90
100
AcDbRotatedDimension
1001
ACAD
1000
DSTYLE
1002
{
1070
    74
1070
     0
1070
   279
1070
     0
1070
   172
1070
     1
1070
   173
1070
     1
1070
   340
1005
20D
1070
   271
1070
     1
1070
    77
1070
     1
1070
    73
1070
     0
1070
   171
1070
     4
1070
   274
1070
     4
1070
   177
1070
     7
1070
   176
1070
     7
1070
   178
1070
     7
1070
    41
1041
3.175
1070
   147
1041
1.5
1070
    42
1041
2.0
1070
    44
1041
2.0
1070
   140
1041
3.0
1070
   343
1005
0
1070
   344
1005
0
1002
}
0
DIMENSION
5
239
100
AcDbEntity
8
SK2
62
256
6
ByLayer
370
13
48
1
60
0
100
AcDbDimension
2
DimnDraft3D4
10
7.249879
20
-18.257956
30
0
11
-9.654428
21
-18.257956
31
0
70
32
71
5
72
1
41
1
210
0
220
0
230
1
3
Standard
100
AcDbAlignedDimension
13
0
23
-2
33
0
14
7.249879
24
-12.388676
34
0
50
0
100
AcDbRotatedDimension
1001
ACAD
1000
DSTYLE
1002
{
1070
   279
1070
     0
1070
   172
1070
     1
1070
   173
1070
     1
1070
   340
1005
20D
1070
   271
1070
     2
1070
    77
1070
     1
1070
    73
1070
     0
1070
   171
1070
     4
1070
   274
1070
     4
1070
   177
1070
     7
1070
   176
1070
     7
1070
   178
1070
     7
1070
    41
1041
3.175
1070
   147
1041
1.5
1070
    42
1041
2.0
1070
    44
1041
2.0
1070
   140
1041
3.0
1070
   343
1005
0
1070
   344
1005
0
1002
}
0
ENDSEC
0
SECTION
2
OBJECTS
0
DICTIONARY
5
2a6
330
0
100
AcDbDictionary
280
0
281
1
3
ACAD_GROUP
350
2a7
3
ACAD_GROUP
350
2a8
3
ACAD_MLINESTYLE
350
2a9
0
DICTIONARY
5
2a7
330
0
100
AcDbDictionary
280
0
281
1
0
DICTIONARY
5
2a8
330
0
100
AcDbDictionary
280
0
281
1
3
<201056232NDI000_00>
350
243
3
<201058801MOD000_00>
350
242
0
DICTIONARY
5
2a9
330
0
100
AcDbDictionary
280
0
281
1
3
Standard
350
18
0
GROUP
5
243
330
2a8
100
AcDbGroup
300

70
0
71
1
340
72
340
74
340
75
340
77
340
78
340
79
340
7A
340
7B
340
7C
340
7D
340
7E
340
7F
340
80
340
81
340
82
340
83
340
84
340
85
340
86
340
87
340
88
340
89
340
8A
340
8B
340
8C
340
8D
340
8E
340
8F
340
90
340
91
340
92
340
93
340
94
340
95
340
96
340
97
340
98
340
99
340
9A
340
9B
340
9C
340
9D
340
9E
340
9F
340
A0
340
A1
340
A2
340
A3
340
A4
340
A5
340
A6
340
A7
340
A8
340
A9
340
AA
340
AB
340
AC
340
AD
340
AE
340
AF
340
B0
340
B1
340
B2
340
B3
340
B4
340
B5
340
B6
340
B7
340
B8
340
B9
340
BA
340
BB
340
BC
340
BD
340
BE
340
BF
340
C0
340
C1
340
C2
340
C3
340
C4
340
C5
340
C6
340
C7
340
C8
340
C9
340
CA
340
CB
340
CC
340
CD
340
CE
340
CF
340
D0
340
D1
340
D2
340
D3
340
D4
340
D5
340
D6
340
D7
340
D8
340
D9
340
DA
340
DB
340
DC
340
DD
340
DE
340
DF
340
E0
340
E1
340
E2
340
E3
340
E4
340
E5
340
E6
340
E7
340
E8
340
E9
340
EA
340
EB
340
EC
340
ED
340
EE
340
EF
340
F0
340
F1
340
F2
340
F3
340
F4
340
F5
340
F6
340
F7
340
F8
340
F9
340
FA
340
FB
340
FC
340
FD
340
FE
340
FF
340
100
340
101
340
102
340
103
340
104
340
105
340
106
340
107
340
108
340
109
340
10A
340
10B
340
10C
340
10D
340
10E
340
10F
340
110
340
111
340
112
340
113
340
114
340
115
340
116
340
117
340
118
340
119
340
11A
340
11B
340
11C
340
11D
340
11E
340
11F
340
120
340
121
340
122
340
123
340
124
340
125
340
126
340
127
340
128
340
129
340
12A
340
12B
340
12C
340
12D
340
12E
340
12F
340
130
340
131
340
132
340
133
340
134
340
135
340
136
340
137
340
138
340
139
340
13A
340
13B
340
13C
340
13D
340
13E
340
13F
340
140
340
141
340
142
340
143
340
144
340
145
340
146
340
147
340
148
340
149
340
14A
340
14B
340
14C
340
14D
340
14E
340
14F
340
150
340
151
340
152
340
153
340
154
340
155
340
156
340
157
340
158
340
159
340
15A
340
15B
340
15C
340
15D
340
15E
340
15F
340
160
340
161
340
162
340
163
340
164
340
165
340
166
340
167
340
168
340
169
340
16A
340
16B
340
16C
340
16D
340
16E
340
16F
340
170
340
171
340
172
340
173
340
174
340
175
340
176
340
177
340
178
340
179
340
17A
340
17B
340
17C
340
17D
340
17E
340
17F
340
180
340
181
340
182
340
183
340
184
340
185
340
186
340
187
340
188
340
189
340
18A
340
18B
340
18C
340
18D
340
18E
340
18F
340
190
340
191
340
192
340
193
340
194
340
195
340
196
340
197
340
198
340
199
340
19A
340
19B
340
19C
340
19D
340
19E
340
19F
340
1A0
340
1A1
340
1A2
340
1A3
340
1A4
340
1A5
340
1A6
340
1A7
340
1A8
340
1A9
340
1AA
340
1AB
340
1AC
340
1AD
340
1AE
340
1AF
340
1B0
340
1B1
340
1B2
340
1B3
340
1B4
340
1B5
340
1B6
340
1B7
340
1B8
340
1B9
340
1BA
340
1BB
340
1BC
340
1BD
340
1BE
340
1BF
340
1C0
340
1C1
340
1C2
340
1C3
340
1C4
340
1C5
340
1C6
340
1C7
340
1C8
340
1C9
340
1CA
340
1CB
340
1CC
340
1CD
340
1CE
340
1CF
340
1D0
340
1D1
340
1D2
340
1D3
340
1D4
340
1D5
340
1D6
340
1D7
340
1D8
340
1D9
340
1DA
340
1DB
340
1DC
340
1DD
340
1DE
340
1DF
340
1E0
340
1E1
340
1E2
340
1E3
340
1E4
340
1E5
340
1E6
340
1E7
340
1E8
340
1E9
340
1EA
340
1EB
340
1EC
340
1ED
340
1EE
340
1EF
340
1F0
340
1F1
340
1F2
340
1F3
340
1F4
340
1F5
340
1F6
340
1F7
340
1F8
340
1F9
340
1FA
340
1FB
340
1FC
340
1FD
340
1FE
340
1FF
340
200
340
201
340
202
340
203
340
204
340
205
340
206
340
207
340
208
340
209
340
20A
340
20B
0
GROUP
5
242
330
2a8
100
AcDbGroup
300

70
0
71
1
340
6C
340
6E
340
70
340
71
340
72
340
74
340
75
340
77
340
78
340
79
340
7A
340
7B
340
7C
340
7D
340
7E
340
7F
340
80
340
81
340
82
340
83
340
84
340
85
340
86
340
87
340
88
340
89
340
8A
340
8B
340
8C
340
8D
340
8E
340
8F
340
90
340
91
340
92
340
93
340
94
340
95
340
96
340
97
340
98
340
99
340
9A
340
9B
340
9C
340
9D
340
9E
340
9F
340
A0
340
A1
340
A2
340
A3
340
A4
340
A5
340
A6
340
A7
340
A8
340
A9
340
AA
340
AB
340
AC
340
AD
340
AE
340
AF
340
B0
340
B1
340
B2
340
B3
340
B4
340
B5
340
B6
340
B7
340
B8
340
B9
340
BA
340
BB
340
BC
340
BD
340
BE
340
BF
340
C0
340
C1
340
C2
340
C3
340
C4
340
C5
340
C6
340
C7
340
C8
340
C9
340
CA
340
CB
340
CC
340
CD
340
CE
340
CF
340
D0
340
D1
340
D2
340
D3
340
D4
340
D5
340
D6
340
D7
340
D8
340
D9
340
DA
340
DB
340
DC
340
DD
340
DE
340
DF
340
E0
340
E1
340
E2
340
E3
340
E4
340
E5
340
E6
340
E7
340
E8
340
E9
340
EA
340
EB
340
EC
340
ED
340
EE
340
EF
340
F0
340
F1
340
F2
340
F3
340
F4
340
F5
340
F6
340
F7
340
F8
340
F9
340
FA
340
FB
340
FC
340
FD
340
FE
340
FF
340
100
340
101
340
102
340
103
340
104
340
105
340
106
340
107
340
108
340
109
340
10A
340
10B
340
10C
340
10D
340
10E
340
10F
340
110
340
111
340
112
340
113
340
114
340
115
340
116
340
117
340
118
340
119
340
11A
340
11B
340
11C
340
11D
340
11E
340
11F
340
120
340
121
340
122
340
123
340
124
340
125
340
126
340
127
340
128
340
129
340
12A
340
12B
340
12C
340
12D
340
12E
340
12F
340
130
340
131
340
132
340
133
340
134
340
135
340
136
340
137
340
138
340
139
340
13A
340
13B
340
13C
340
13D
340
13E
340
13F
340
140
340
141
340
142
340
143
340
144
340
145
340
146
340
147
340
148
340
149
340
14A
340
14B
340
14C
340
14D
340
14E
340
14F
340
150
340
151
340
152
340
153
340
154
340
155
340
156
340
157
340
158
340
159
340
15A
340
15B
340
15C
340
15D
340
15E
340
15F
340
160
340
161
340
162
340
163
340
164
340
165
340
166
340
167
340
168
340
169
340
16A
340
16B
340
16C
340
16D
340
16E
340
16F
340
170
340
171
340
172
340
173
340
174
340
175
340
176
340
177
340
178
340
179
340
17A
340
17B
340
17C
340
17D
340
17E
340
17F
340
180
340
181
340
182
340
183
340
184
340
185
340
186
340
187
340
188
340
189
340
18A
340
18B
340
18C
340
18D
340
18E
340
18F
340
190
340
191
340
192
340
193
340
194
340
195
340
196
340
197
340
198
340
199
340
19A
340
19B
340
19C
340
19D
340
19E
340
19F
340
1A0
340
1A1
340
1A2
340
1A3
340
1A4
340
1A5
340
1A6
340
1A7
340
1A8
340
1A9
340
1AA
340
1AB
340
1AC
340
1AD
340
1AE
340
1AF
340
1B0
340
1B1
340
1B2
340
1B3
340
1B4
340
1B5
340
1B6
340
1B7
340
1B8
340
1B9
340
1BA
340
1BB
340
1BC
340
1BD
340
1BE
340
1BF
340
1C0
340
1C1
340
1C2
340
1C3
340
1C4
340
1C5
340
1C6
340
1C7
340
1C8
340
1C9
340
1CA
340
1CB
340
1CC
340
1CD
340
1CE
340
1CF
340
1D0
340
1D1
340
1D2
340
1D3
340
1D4
340
1D5
340
1D6
340
1D7
340
1D8
340
1D9
340
1DA
340
1DB
340
1DC
340
1DD
340
1DE
340
1DF
340
1E0
340
1E1
340
1E2
340
1E3
340
1E4
340
1E5
340
1E6
340
1E7
340
1E8
340
1E9
340
1EA
340
1EB
340
1EC
340
1ED
340
1EE
340
1EF
340
1F0
340
1F1
340
1F2
340
1F3
340
1F4
340
1F5
340
1F6
340
1F7
340
1F8
340
1F9
340
1FA
340
1FB
340
1FC
340
1FD
340
1FE
340
1FF
340
200
340
201
340
202
340
203
340
204
340
205
340
206
340
207
340
208
340
209
340
20A
340
20B
340
72
340
74
340
75
340
77
340
78
340
79
340
7A
340
7B
340
7C
340
7D
340
7E
340
7F
340
80
340
81
340
82
340
83
340
84
340
85
340
86
340
87
340
88
340
89
340
8A
340
8B
340
8C
340
8D
340
8E
340
8F
340
90
340
91
340
92
340
93
340
94
340
95
340
96
340
97
340
98
340
99
340
9A
340
9B
340
9C
340
9D
340
9E
340
9F
340
A0
340
A1
340
A2
340
A3
340
A4
340
A5
340
A6
340
A7
340
A8
340
A9
340
AA
340
AB
340
AC
340
AD
340
AE
340
AF
340
B0
340
B1
340
B2
340
B3
340
B4
340
B5
340
B6
340
B7
340
B8
340
B9
340
BA
340
BB
340
BC
340
BD
340
BE
340
BF
340
C0
340
C1
340
C2
340
C3
340
C4
340
C5
340
C6
340
C7
340
C8
340
C9
340
CA
340
CB
340
CC
340
CD
340
CE
340
CF
340
D0
340
D1
340
D2
340
D3
340
D4
340
D5
340
D6
340
D7
340
D8
340
D9
340
DA
340
DB
340
DC
340
DD
340
DE
340
DF
340
E0
340
E1
340
E2
340
E3
340
E4
340
E5
340
E6
340
E7
340
E8
340
E9
340
EA
340
EB
340
EC
340
ED
340
EE
340
EF
340
F0
340
F1
340
F2
340
F3
340
F4
340
F5
340
F6
340
F7
340
F8
340
F9
340
FA
340
FB
340
FC
340
FD
340
FE
340
FF
340
100
340
101
340
102
340
103
340
104
340
105
340
106
340
107
340
108
340
109
340
10A
340
10B
340
10C
340
10D
340
10E
340
10F
340
110
340
111
340
112
340
113
340
114
340
115
340
116
340
117
340
118
340
119
340
11A
340
11B
340
11C
340
11D
340
11E
340
11F
340
120
340
121
340
122
340
123
340
124
340
125
340
126
340
127
340
128
340
129
340
12A
340
12B
340
12C
340
12D
340
12E
340
12F
340
130
340
131
340
132
340
133
340
134
340
135
340
136
340
137
340
138
340
139
340
13A
340
13B
340
13C
340
13D
340
13E
340
13F
340
140
340
141
340
142
340
143
340
144
340
145
340
146
340
147
340
148
340
149
340
14A
340
14B
340
14C
340
14D
340
14E
340
14F
340
150
340
151
340
152
340
153
340
154
340
155
340
156
340
157
340
158
340
159
340
15A
340
15B
340
15C
340
15D
340
15E
340
15F
340
160
340
161
340
162
340
163
340
164
340
165
340
166
340
167
340
168
340
169
340
16A
340
16B
340
16C
340
16D
340
16E
340
16F
340
170
340
171
340
172
340
173
340
174
340
175
340
176
340
177
340
178
340
179
340
17A
340
17B
340
17C
340
17D
340
17E
340
17F
340
180
340
181
340
182
340
183
340
184
340
185
340
186
340
187
340
188
340
189
340
18A
340
18B
340
18C
340
18D
340
18E
340
18F
340
190
340
191
340
192
340
193
340
194
340
195
340
196
340
197
340
198
340
199
340
19A
340
19B
340
19C
340
19D
340
19E
340
19F
340
1A0
340
1A1
340
1A2
340
1A3
340
1A4
340
1A5
340
1A6
340
1A7
340
1A8
340
1A9
340
1AA
340
1AB
340
1AC
340
1AD
340
1AE
340
1AF
340
1B0
340
1B1
340
1B2
340
1B3
340
1B4
340
1B5
340
1B6
340
1B7
340
1B8
340
1B9
340
1BA
340
1BB
340
1BC
340
1BD
340
1BE
340
1BF
340
1C0
340
1C1
340
1C2
340
1C3
340
1C4
340
1C5
340
1C6
340
1C7
340
1C8
340
1C9
340
1CA
340
1CB
340
1CC
340
1CD
340
1CE
340
1CF
340
1D0
340
1D1
340
1D2
340
1D3
340
1D4
340
1D5
340
1D6
340
1D7
340
1D8
340
1D9
340
1DA
340
1DB
340
1DC
340
1DD
340
1DE
340
1DF
340
1E0
340
1E1
340
1E2
340
1E3
340
1E4
340
1E5
340
1E6
340
1E7
340
1E8
340
1E9
340
1EA
340
1EB
340
1EC
340
1ED
340
1EE
340
1EF
340
1F0
340
1F1
340
1F2
340
1F3
340
1F4
340
1F5
340
1F6
340
1F7
340
1F8
340
1F9
340
1FA
340
1FB
340
1FC
340
1FD
340
1FE
340
1FF
340
200
340
201
340
202
340
203
340
204
340
205
340
206
340
207
340
208
340
209
340
20A
340
20B
340
20C
340
21A
340
225
340
22F
340
239
0
MLINESTYLE
5
18
330
2a9
100
AcDbMlineStyle
2
Standard
70
0
3

62
256
51
90
52
90
71
2
49
-0.5
62
256
6
ByLayer
49
0.5
62
256
6
ByLayer
0
RASTERVARIABLES
5
294
330

100
AcDbRasterVariables
90
0
70
1
71
1
72
1
0
ENDSEC
0
EOF
