0
SECTION
2
HEADER
9
$ACADVER
1
AC1015
9
$DWGCODEPAGE
3
ANSI_1252
9
$HANDSEED
5
2ca
9
$ANGBASE
50
0
9
$ANGDIR
70
0
9
$ATTMODE
70
1
9
$AUNITS
70
0
9
$AUPREC
70
0
9
$CECOLOR
62
256
9
$CELTSCALE
40
1
9
$CELTYPE
6
ByLayer
9
$CELWEIGHT
370
18
9
$CLAYER
8
0
9
$CMLJUST
70
0
9
$CMLSCALE
40
1
9
$CMLSTYLE
2
Standard
9
$DIMSTYLE
2
Standard
9
$TEXTSIZE
40
0.2
9
$TEXTSTYLE
7
Standard
9
$LUNITS
70
2
9
$LUPREC
70
4
9
$EXTNAMES
290
1
9
$INSUNITS
70
4
9
$LTSCALE
40
1
9
$LWDISPLAY
290
1
9
$PDMODE
70
0
9
$PDSIZE
40
0
9
$PLINEGEN
70
0
0
ENDSEC
0
SECTION
2
CLASSES
0
CLASS
1
RASTERVARIABLES
2
AcDbRasterVariables
3
ISM
90
0
280
0
281
0
0
ENDSEC
0
SECTION
2
TABLES
0
TABLE
2
VPORT
5
2c0
100
AcDbSymbolTable
0
VPORT
5
1
100
AcDbSymbolTableRecord
100
AcDbViewportTableRecord
2
*Active
70
0
10
0
20
0
11
1
21
1
12
-1
22
1
13
0
23
0
14
0.5
24
0.5
15
10
25
10
16
0
26
0
36
1
17
0
27
0
37
0
0
ENDTAB
0
TABLE
2
LTYPE
5
2c1
100
AcDbSymbolTable
0
LTYPE
5
14
100
AcDbSymbolTableRecord
100
AcDbLinetypeTableRecord
70
0
2
ByBlock
3

72
65
73
0
40
0
0
LTYPE
5
15
100
AcDbSymbolTableRecord
100
AcDbLinetypeTableRecord
70
0
2
ByLayer
3

72
65
73
0
40
0
0
LTYPE
5
16
100
AcDbSymbolTableRecord
100
AcDbLinetypeTableRecord
70
0
2
CONTINUOUS
3
Solid line
72
65
73
0
40
0
0
LTYPE
5
6A
100
AcDbSymbolTableRecord
100
AcDbLinetypeTableRecord
70
0
2
CENTER
3
____ _ ____ _ ____ _ ____
72
65
73
4
40
47.5
49
22
74
0
49
-8.5
74
0
49
8.5
74
0
49
-8.5
74
0
0
LTYPE
5
6B
100
AcDbSymbolTableRecord
100
AcDbLinetypeTableRecord
70
0
2
DASHED
3
__ __ __ __ __ __ __ __ __
72
65
73
2
40
25.72
49
12.86
74
0
49
-12.86
74
0
0
ENDTAB
0
TABLE
2
LAYER
5
2c2
100
AcDbSymbolTable
0
LAYER
5
10
100
AcDbSymbolTableRecord
100
AcDbLayerTableRecord
2
0
70
0
62
7
6
CONTINUOUS
290
1
370
-3
390
0
0
LAYER
5
6D
100
AcDbSymbolTableRecord
100
AcDbLayerTableRecord
2
80
70
0
62
-6
6
CONTINUOUS
290
1
370
-3
390
0
0
LAYER
5
6F
100
AcDbSymbolTableRecord
100
AcDbLayerTableRecord
2
81
70
0
62
-3
6
CONTINUOUS
290
1
370
-3
390
0
0
LAYER
5
73
100
AcDbSymbolTableRecord
100
AcDbLayerTableRecord
2
1
70
0
62
4
6
CONTINUOUS
290
1
370
-3
390
0
0
LAYER
5
228
100
AcDbSymbolTableRecord
100
AcDbLayerTableRecord
2
2
70
0
62
7
6
CONTINUOUS
290
1
370
-3
390
0
0
LAYER
5
2ab
100
AcDbSymbolTableRecord
100
AcDbLayerTableRecord
2
SK1
70
0
62
4
6
CONTINUOUS
290
1
370
-3
390
0
0
LAYER
5
2ac
100
AcDbSymbolTableRecord
100
AcDbLayerTableRecord
2
SK6
70
0
62
5
6
CONTINUOUS
290
1
370
-3
390
0
0
LAYER
5
2ad
100
AcDbSymbolTableRecord
100
AcDbLayerTableRecord
2
SK2
70
0
62
7
6
CONTINUOUS
290
1
370
-3
390
0
0
ENDTAB
0
TABLE
2
STYLE
5
2c3
100
AcDbSymbolTable
0
STYLE
5
11
100
AcDbSymbolTableRecord
100
AcDbTextStyleTableRecord
2
Standard
3
txt
70
0
71
0
40
0
41
1
42
0
50
0
0
STYLE
5
223
100
AcDbSymbolTableRecord
100
AcDbTextStyleTableRecord
2
iso_b_vert
3
simplex.shx
70
0
71
0
40
0
41
1
42
0
50
0
0
STYLE
5
224
100
AcDbSymbolTableRecord
100
AcDbTextStyleTableRecord
2
DWGDirectTextStyle
3
simplex
70
0
71
0
40
0
41
1
42
0
50
0
0
ENDTAB
0
TABLE
2
DIMSTYLE
5
2c4
100
AcDbSymbolTable
100
AcDbDimStyleTable
0
DIMSTYLE
105
27
100
AcDbSymbolTableRecord
100
AcDbDimStyleTableRecord
2
Standard
70
0
3
<>
41
0.18
42
0.0625
44
0.18
140
0.18
147
0.09
73
0
74
0
77
1
271
2
275
0
278
52
280
0
340
11
0
ENDTAB
0
TABLE
2
VIEW
5
2c5
100
AcDbSymbolTable
0
ENDTAB
0
TABLE
2
UCS
5
2c6
100
AcDbSymbolTable
0
ENDTAB
0
TABLE
2
APPID
5
2c7
100
AcDbSymbolTable
0
APPID
5
12
100
AcDbSymbolTableRecord
100
AcDbRegAppTableRecord
2
ACAD
70
0
0
ENDTAB
0
TABLE
2
BLOCK_RECORD
5
2c8
100
AcDbSymbolTable
0
BLOCK_RECORD
5
1F
100
AcDbSymbolTableRecord
100
AcDbBlockTableRecord
2
*Model_Space
340
0
70
0
0
BLOCK_RECORD
5
1B
100
AcDbSymbolTableRecord
100
AcDbBlockTableRecord
2
*Paper_Space
340
0
70
0
0
BLOCK_RECORD
5
23
100
AcDbSymbolTableRecord
100
AcDbBlockTableRecord
2
*Paper_Space0
340
0
70
0
0
BLOCK_RECORD
5
226
100
AcDbSymbolTableRecord
100
AcDbBlockTableRecord
2
DimnDraft3D1
340
0
70
0
0
BLOCK_RECORD
5
231
100
AcDbSymbolTableRecord
100
AcDbBlockTableRecord
2
DimnDraft3D2
340
0
70
0
0
BLOCK_RECORD
5
23C
100
AcDbSymbolTableRecord
100
AcDbBlockTableRecord
2
DimnDraft3D3
340
0
70
0
0
BLOCK_RECORD
5
246
100
AcDbSymbolTableRecord
100
AcDbBlockTableRecord
2
DimnDraft3D4
340
0
70
0
0
ENDTAB
0
ENDSEC
0
SECTION
2
BLOCKS
0
BLOCK
5
20
100
AcDbEntity
8
0
100
AcDbBlockBegin
2
*Model_Space
70
0
10
0
20
0
30
0
3
*Model_Space
0
ENDBLK
5
21
100
AcDbEntity
8
0
100
AcDbBlockEnd
0
BLOCK
5
1C
100
AcDbEntity
8
0
100
AcDbBlockBegin
2
*Paper_Space
70
0
10
0
20
0
30
0
3
*Paper_Space
0
ENDBLK
5
1D
100
AcDbEntity
8
0
100
AcDbBlockEnd
0
BLOCK
5
24
100
AcDbEntity
8
0
100
AcDbBlockBegin
2
*Paper_Space0
70
0
10
0
20
0
30
0
3
*Paper_Space0
0
ENDBLK
5
25
100
AcDbEntity
8
0
100
AcDbBlockEnd
0
BLOCK
5
22E
100
AcDbEntity
8
0
100
AcDbBlockBegin
2
DimnDraft3D1
70
0
10
0
20
0
30
0
3
DimnDraft3D1
0
MTEXT
5
227
100
AcDbEntity
8
2
62
256
6
ByLayer
370
18
48
1
60
0
100
AcDbMText
10
9.807895
20
22.702029
30
0
210
0
220
0
230
1
1
\W0.6961;25.0
40
3
41
0
44
1.084337
50
0
71
7
72
5
7
iso_b_vert
0
LINE
5
229
100
AcDbEntity
8
2
62
256
6
ByLayer
370
13
48
1
60
0
100
AcDbLine
10
25
20
18
30
0
11
25
21
23.952029
31
0
39
0
210
0
220
0
230
1
0
LINE
5
22A
100
AcDbEntity
8
2
62
256
6
ByLayer
370
13
48
1
60
0
100
AcDbLine
10
0
20
2
30
0
11
0
21
23.952029
31
0
39
0
210
0
220
0
230
1
0
LINE
5
22B
100
AcDbEntity
8
2
62
256
6
ByLayer
370
13
48
1
60
0
100
AcDbLine
10
25
20
21.952029
30
0
11
0
21
21.952029
31
0
39
0
210
0
220
0
230
1
0
SOLID
5
22C
100
AcDbEntity
8
2
62
256
6
ByLayer
370
13
48
1
60
0
100
AcDbTrace
10
25
20
21.952029
30
0
11
21.825002
21
21.534033
31
0
12
21.824998
22
22.370026
32
0
13
25
23
21.952029
33
0
39
0
210
0
220
0
230
1
0
SOLID
5
22D
100
AcDbEntity
8
2
62
256
6
ByLayer
370
13
48
1
60
0
100
AcDbTrace
10
0
20
21.952029
30
0
11
3.174998
21
22.370026
31
0
12
3.175002
22
21.534033
32
0
13
0
23
21.952029
33
0
39
0
210
0
220
0
230
1
0
ENDBLK
5
22F
100
AcDbEntity
8
0
100
AcDbBlockEnd
0
BLOCK
5
239
100
AcDbEntity
8
0
100
AcDbBlockBegin
2
DimnDraft3D2
70
0
10
0
20
0
30
0
3
DimnDraft3D2
0
MTEXT
5
232
100
AcDbEntity
8
SK2
62
256
6
ByLayer
370
18
48
1
60
0
100
AcDbMText
10
40.003106
20
7.497532
30
0
210
0
220
0
230
1
1
\W0.6258;45%%d
40
3
41
0
44
1.084337
50
67.4999999999999
71
7
72
5
7
iso_b_vert
0
LINE
5
234
100
AcDbEntity
8
SK2
62
256
6
ByLayer
370
13
48
1
60
0
100
AcDbLine
10
31.682968
20
9.317032
30
0
11
39.046546
21
1.953454
31
0
39
0
210
0
220
0
230
1
0
LINE
5
235
100
AcDbEntity
8
SK2
62
256
6
ByLayer
370
13
48
1
60
0
100
AcDbLine
10
27
20
16
30
0
11
44.864816
21
16
31
0
39
0
210
0
220
0
230
1
0
ARC
5
236
100
AcDbEntity
8
SK2
62
256
6
ByLayer
370
13
48
1
60
0
100
AcDbCircle
39
0
10
25
20
16
30
0
40
17.8648160291743
210
0
220
0
230
1
100
AcDbArc
50
315
51
0
0
SOLID
5
237
100
AcDbEntity
8
SK2
62
256
6
ByLayer
370
13
48
1
60
0
100
AcDbTrace
10
37.632333
20
3.367667
30
0
11
39.467363
21
5.992167
31
0
12
40.084109
22
5.4278
32
0
13
37.632333
23
3.367667
33
0
39
0
210
0
220
0
230
1
0
SOLID
5
238
100
AcDbEntity
8
SK2
62
256
6
ByLayer
370
13
48
1
60
0
100
AcDbTrace
10
42.864816
20
16
30
0
11
43.14175
21
12.809601
31
0
12
42.306577
22
12.846633
32
0
13
42.864816
23
16
33
0
39
0
210
0
220
0
230
1
0
ENDBLK
5
23A
100
AcDbEntity
8
0
100
AcDbBlockEnd
0
BLOCK
5
243
100
AcDbEntity
8
0
100
AcDbBlockBegin
2
DimnDraft3D3
70
0
10
0
20
0
30
0
3
DimnDraft3D3
0
MTEXT
5
23D
100
AcDbEntity
8
SK2
62
256
6
ByLayer
370
18
48
1
60
0
100
AcDbMText
10
50.168712
20
5.607002
30
0
210
0
220
0
230
1
1
\W0.6778;16.0
40
3
41
0
44
1.084337
50
90
71
7
72
5
7
iso_b_vert
0
LINE
5
23E
100
AcDbEntity
8
SK2
62
256
6
ByLayer
370
13
48
1
60
0
100
AcDbLine
10
32.2
20
0.006109
30
0
11
52.918712
21
0.006109
31
0
39
0
210
0
220
0
230
1
0
LINE
5
23F
100
AcDbEntity
8
SK2
62
256
6
ByLayer
370
13
48
1
60
0
100
AcDbLine
10
27
20
16
30
0
11
52.918712
21
16
31
0
39
0
210
0
220
0
230
1
0
LINE
5
240
100
AcDbEntity
8
SK2
62
256
6
ByLayer
370
13
48
1
60
0
100
AcDbLine
10
50.918712
20
0.006109
30
0
11
50.918712
21
16
31
0
39
0
210
0
220
0
230
1
0
SOLID
5
241
100
AcDbEntity
8
SK2
62
256
6
ByLayer
370
13
48
1
60
0
100
AcDbTrace
10
50.918712
20
0.006109
30
0
11
50.500715
21
3.181107
31
0
12
51.336708
22
3.18111
32
0
13
50.918712
23
0.006109
33
0
39
0
210
0
220
0
230
1
0
SOLID
5
242
100
AcDbEntity
8
SK2
62
256
6
ByLayer
370
13
48
1
60
0
100
AcDbTrace
10
50.918712
20
16
30
0
11
51.336708
21
12.825002
31
0
12
50.500715
22
12.824998
32
0
13
50.918712
23
16
33
0
39
0
210
0
220
0
230
1
0
ENDBLK
5
244
100
AcDbEntity
8
0
100
AcDbBlockEnd
0
BLOCK
5
24D
100
AcDbEntity
8
0
100
AcDbBlockBegin
2
DimnDraft3D4
70
0
10
0
20
0
30
0
3
DimnDraft3D4
0
MTEXT
5
247
100
AcDbEntity
8
SK2
62
256
6
ByLayer
370
18
48
1
60
0
100
AcDbMText
10
3.578904
20
-12.463138
30
0
210
0
220
0
230
1
1
\W0.6356;11.2
40
3
41
0
44
1.084337
50
0
71
7
72
5
7
iso_b_vert
0
LINE
5
248
100
AcDbEntity
8
SK2
62
256
6
ByLayer
370
13
48
1
60
0
100
AcDbLine
10
0
20
-2
30
0
11
0
21
-15.213138
31
0
39
0
210
0
220
0
230
1
0
LINE
5
249
100
AcDbEntity
8
SK2
62
256
6
ByLayer
370
13
48
1
60
0
100
AcDbLine
10
11.199913
20
-7.560837
30
0
11
11.199913
21
-15.213138
31
0
39
0
210
0
220
0
230
1
0
LINE
5
24A
100
AcDbEntity
8
SK2
62
256
6
ByLayer
370
13
48
1
60
0
100
AcDbLine
10
0
20
-13.213138
30
0
11
11.199913
21
-13.213138
31
0
39
0
210
0
220
0
230
1
0
SOLID
5
24B
100
AcDbEntity
8
SK2
62
256
6
ByLayer
370
13
48
1
60
0
100
AcDbTrace
10
0
20
-13.213138
30
0
11
3.174998
21
-12.795142
31
0
12
3.175002
22
-13.631135
32
0
13
0
23
-13.213138
33
0
39
0
210
0
220
0
230
1
0
SOLID
5
24C
100
AcDbEntity
8
SK2
62
256
6
ByLayer
370
13
48
1
60
0
100
AcDbTrace
10
11.199913
20
-13.213138
30
0
11
8.024915
21
-13.631135
31
0
12
8.024912
22
-12.795142
32
0
13
11.199913
23
-13.213138
33
0
39
0
210
0
220
0
230
1
0
ENDBLK
5
24E
100
AcDbEntity
8
0
100
AcDbBlockEnd
0
ENDSEC
0
SECTION
2
ENTITIES
0
ELLIPSE
5
124
100
AcDbEntity
8
1
62
256
6
ByLayer
370
18
48
1
60
0
100
AcDbEllipse
10
11.2
20
10.726903
30
0
11
3.75
21
0
31
0
210
0
220
0
230
1
40
0.258819
41
-0.109759484181449
42
-3.6604357266924E-15
0
ELLIPSE
5
125
100
AcDbEntity
8
1
62
256
6
ByLayer
370
18
48
1
60
0
100
AcDbEllipse
10
11.2
20
10.726903
30
0
11
3.75
21
0
31
0
210
0
220
0
230
1
40
0.258819
41
2.97067057183978
42
-3.03193107534716
0
ELLIPSE
5
126
100
AcDbEntity
8
1
62
256
6
ByLayer
370
18
48
1
60
0
100
AcDbEllipse
10
11.2
20
10.726903
30
0
11
3.75
21
0
31
0
210
0
220
0
230
1
40
0.258819
41
0
42
0.171314564100508
0
ELLIPSE
5
127
100
AcDbEntity
8
SK1
62
256
6
ByLayer
370
18
48
1
60
0
100
AcDbEllipse
10
11.2
20
-4.901777
30
0
11
2
21
0
31
0
210
0
220
0
230
1
40
0.258819
41
-3.14159177980255
42
-1.71582924688706E-15
0
ELLIPSE
5
128
100
AcDbEntity
8
SK1
62
256
6
ByLayer
370
18
48
1
60
0
100
AcDbEllipse
10
11.2
20
-5.094963
30
0
11
1.8
21
0
31
0
210
0
220
0
230
1
40
0.258819
41
-2.87033522338309
42
-0.271353944653737
0
ELLIPSE
5
129
100
AcDbEntity
8
1
62
256
6
ByLayer
370
18
48
1
60
0
100
AcDbEllipse
10
19.068865
20
7.947544
30
0
11
-0.671751442127228
21
0.671751442127212
31
0
210
0
220
0
230
1
40
0.078459
41
-3.06285481987493
42
-0.0788329601455745
0
ELLIPSE
5
12A
100
AcDbEntity
8
1
62
256
6
ByLayer
370
13
48
1
60
0
100
AcDbEllipse
10
25.22362
20
4.031667
30
0
11
1.06066017177985
21
-1.06066017177979
31
0
210
0
220
0
230
1
40
0.99863
41
-2.3555085120342
42
-0.056746352090829
0
ELLIPSE
5
12B
100
AcDbEntity
8
1
62
256
6
ByLayer
370
13
48
1
60
0
100
AcDbEllipse
10
25.22362
20
4.031667
30
0
11
1.06066017177985
21
-1.06066017177979
31
0
210
0
220
0
230
1
40
0.99863
41
-2.73534725831353
42
-2.35550917915722
0
ELLIPSE
5
12C
100
AcDbEntity
8
1
62
256
6
ByLayer
370
13
48
1
60
0
100
AcDbEllipse
10
11.9
20
11.374073
30
0
11
-4.2
21
5.14334668605399E-16
31
0
210
0
220
0
230
1
40
0.258819
41
-2.98713581341653
42
-1.85472801964825
0
ELLIPSE
5
12D
100
AcDbEntity
8
1
62
256
6
ByLayer
370
13
48
1
60
0
100
AcDbEllipse
10
10.5
20
11.374073
30
0
11
-4.2
21
5.14334668605399E-16
31
0
210
0
220
0
230
1
40
0.258819
41
-1.28721856093705
42
1.5707963267949
0
ELLIPSE
5
12E
100
AcDbEntity
8
1
62
256
6
ByLayer
370
13
48
1
60
0
100
AcDbEllipse
10
24.172691
20
15.342989
30
0
11
0.763052841477283
21
0.0538023912283612
31
0
210
0
220
0
230
-1
40
0.022436
41
-3.11575901572615
42
-2.28328540293066
0
ELLIPSE
5
12F
100
AcDbEntity
8
1
62
256
6
ByLayer
370
13
48
1
60
0
100
AcDbEllipse
10
20.821246
20
12.011013
30
0
11
0.708928249503866
21
-2.82808122233691E-06
31
0
210
0
220
0
230
-1
40
0.02611
41
-3.11548904928659
42
-2.24688711143844
0
ELLIPSE
5
130
100
AcDbEntity
8
1
62
256
6
ByLayer
370
13
48
1
60
0
100
AcDbEllipse
10
20.017961
20
10.279844
30
0
11
-1.16672618895781
21
1.16672618895779
31
0
210
0
220
0
230
1
40
0.99863
41
0
42
2.20307846040956
0
ELLIPSE
5
131
100
AcDbEntity
8
1
62
256
6
ByLayer
370
13
48
1
60
0
100
AcDbEllipse
10
24.00413
20
4.874341
30
0
11
0.368968788102898
21
0.33813798910252
31
0
210
0
220
0
230
-1
40
0.002281
41
-3.08933221766531
42
-2.27999696590616
0
ELLIPSE
5
132
100
AcDbEntity
8
1
62
256
6
ByLayer
370
13
48
1
60
0
100
AcDbEllipse
10
20.193707
20
11.60559
30
0
11
0.000342851163608017
21
0.499999882453066
31
0
210
0
220
0
230
1
40
0.037007
41
-1.04234067398978
42
-0.593312432626994
0
ELLIPSE
5
133
100
AcDbEntity
8
1
62
256
6
ByLayer
370
13
48
1
60
0
100
AcDbEllipse
10
20.212999
20
10.474882
30
0
11
0.813172798364555
21
-0.813172798364503
31
0
210
0
220
0
230
1
40
0.99863
41
2.59093068495335
42
3.14159265358977
0
ELLIPSE
5
134
100
AcDbEntity
8
1
62
256
6
ByLayer
370
13
48
1
60
0
100
AcDbEllipse
10
19.381322
20
11.269551
30
0
11
-0.353553390593278
21
0.35355339059327
31
0
210
0
220
0
230
1
40
0.052336
41
-1.5707963267949
42
-0.154778252205393
0
ELLIPSE
5
135
100
AcDbEntity
8
1
62
256
6
ByLayer
370
13
48
1
60
0
100
AcDbEllipse
10
20.036464
20
10.298347
30
0
11
0.813172798364553
21
-0.813172798364502
31
0
210
0
220
0
230
1
40
0.99863
41
3.14159265358977
42
-2.58461050745001
0
ELLIPSE
5
136
100
AcDbEntity
8
1
62
256
6
ByLayer
370
18
48
1
60
0
100
AcDbEllipse
10
25.810867
20
10.35809
30
0
11
0.0785210834056655
21
-0.291920572771422
31
0
210
0
220
0
230
-1
40
0.486769
41
-0.172798865089603
42
0.161630701735131
0
ELLIPSE
5
137
100
AcDbEntity
8
1
62
256
6
ByLayer
370
18
48
1
60
0
100
AcDbEllipse
10
24.699728
20
10.05429
30
0
11
1.4849242404918
21
-1.4849242404917
31
0
210
0
220
0
230
1
40
0.99863
41
9.64481604845505E-05
42
3.14159104747472
0
ELLIPSE
5
138
100
AcDbEntity
8
1
62
256
6
ByLayer
370
18
48
1
60
0
100
AcDbEllipse
10
23.90164
20
10.870881
30
0
11
0.213536045293645
21
0.213536045293645
31
0
210
0
220
0
230
-1
40
0.487772
41
2.98071959179225
42
-1.56111143460851
0
ELLIPSE
5
139
100
AcDbEntity
8
1
62
256
6
ByLayer
370
18
48
1
60
0
100
AcDbEllipse
10
25.516319
20
9.256202
30
0
11
0.213536045293644
21
0.213536045293644
31
0
210
0
220
0
230
-1
40
0.487772
41
1.58048345190308
42
-2.98071959179231
0
ELLIPSE
5
13A
100
AcDbEntity
8
1
62
256
6
ByLayer
370
18
48
1
60
0
100
AcDbEllipse
10
25.811224
20
9.767495
30
0
11
0.077905088497468
21
0.291871103847001
31
0
210
0
220
0
230
-1
40
0.487437
41
-0.666143185685254
42
-0.283152338950974
0
ELLIPSE
5
13B
100
AcDbEntity
8
1
62
256
6
ByLayer
370
18
48
1
60
0
100
AcDbEllipse
10
24.412933
20
11.165786
30
0
11
0.291871103847743
21
0.0779050884972934
31
0
210
0
220
0
230
-1
40
0.487437
41
0.283152338949976
42
0.617865242704185
0
ELLIPSE
5
13C
100
AcDbEntity
8
1
62
256
6
ByLayer
370
18
48
1
60
0
100
AcDbEllipse
10
24.414431
20
8.961654
30
0
11
0.291920572771432
21
-0.0785210834056692
31
0
210
0
220
0
230
-1
40
0.486769
41
0.262250936068857
42
-2.98147723173028
0
ELLIPSE
5
13D
100
AcDbEntity
8
1
62
256
6
ByLayer
370
18
48
1
60
0
100
AcDbEllipse
10
23.607092
20
9.768993
30
0
11
0.0785210834056692
21
-0.291920572771436
31
0
210
0
220
0
230
-1
40
0.486769
41
-0.160115421859736
42
2.564614165962
0
ELLIPSE
5
13E
100
AcDbEntity
8
1
62
256
6
ByLayer
370
18
48
1
60
0
100
AcDbEllipse
10
25.005026
20
8.961297
30
0
11
0.291871103847863
21
0.0779050884972663
31
0
210
0
220
0
230
-1
40
0.487437
41
-2.52372753868854
42
-1.57155565407865
0
ELLIPSE
5
13F
100
AcDbEntity
8
1
62
256
6
ByLayer
370
18
48
1
60
0
100
AcDbEllipse
10
23.606735
20
10.359588
30
0
11
0.0779050884974881
21
0.291871103846911
31
0
210
0
220
0
230
-1
40
0.487437
41
1.57155565407524
42
2.4754495913688
0
ELLIPSE
5
140
100
AcDbEntity
8
1
62
256
6
ByLayer
370
18
48
1
60
0
100
AcDbEllipse
10
24.708979
20
10.063542
30
0
11
-0.703146983211911
21
0.703146983211895
31
0
210
0
220
0
230
1
40
0.99863
41
-2.53567399031632
42
-1.7404908215158
0
ELLIPSE
5
141
100
AcDbEntity
8
1
62
256
6
ByLayer
370
18
48
1
60
0
100
AcDbEllipse
10
24.708979
20
10.063542
30
0
11
-0.703146983211911
21
0.703146983211895
31
0
210
0
220
0
230
1
40
0.99863
41
-1.3740049724129
42
-0.601156708364399
0
ELLIPSE
5
142
100
AcDbEntity
8
1
62
256
6
ByLayer
370
18
48
1
60
0
100
AcDbEllipse
10
24.708979
20
10.063542
30
0
11
-0.703146983211911
21
0.703146983211895
31
0
210
0
220
0
230
1
40
0.99863
41
-0.369545921899416
42
0.523598775598288
0
ELLIPSE
5
143
100
AcDbEntity
8
1
62
256
6
ByLayer
370
18
48
1
60
0
100
AcDbEllipse
10
24.708979
20
10.063542
30
0
11
-0.703146983211911
21
0.703146983211895
31
0
210
0
220
0
230
1
40
0.99863
41
2.61799387799152
42
-2.74159555885127
0
ELLIPSE
5
144
100
AcDbEntity
8
1
62
256
6
ByLayer
370
18
48
1
60
0
100
AcDbEllipse
10
11.2
20
12.388295
30
0
11
1.535
21
0
31
0
210
0
220
0
230
1
40
0.258819
41
0
42
6.28318530717959
0
ELLIPSE
5
145
100
AcDbEntity
8
1
62
256
6
ByLayer
370
13
48
1
60
0
100
AcDbEllipse
10
25.103346
20
3.911394
30
0
11
-1.06066017177983
21
1.06066017177981
31
0
210
0
220
0
230
1
40
0.99863
41
0.418492522663889
42
1.0484815050412
0
ELLIPSE
5
146
100
AcDbEntity
8
1
62
256
6
ByLayer
370
13
48
1
60
0
100
AcDbEllipse
10
16.05
20
11.303431
30
0
11
0.1
21
0
31
0
210
0
220
0
230
1
40
0.965926
41
-1.5707963267949
42
0
0
ELLIPSE
5
147
100
AcDbEntity
8
1
62
256
6
ByLayer
370
13
48
1
60
0
100
AcDbEllipse
10
16.05
20
11.637899
30
0
11
0.1
21
0
31
0
210
0
220
0
230
1
40
0.965926
41
-1.5707963267949
42
0
0
ELLIPSE
5
148
100
AcDbEntity
8
1
62
256
6
ByLayer
370
13
48
1
60
0
100
AcDbEllipse
10
16.05
20
12.919435
30
0
11
0.0999999999999394
21
1.01063905508175E-16
31
0
210
0
220
0
230
-1
40
0.707107
41
0
42
1.5707963267949
0
ELLIPSE
5
149
100
AcDbEntity
8
1
62
256
6
ByLayer
370
13
48
1
60
0
100
AcDbEllipse
10
11.9
20
11.374073
30
0
11
-4.2
21
5.14334668605399E-16
31
0
210
0
220
0
230
1
40
0.258819
41
2.98713581341653
42
-2.98713581341653
0
ELLIPSE
5
14A
100
AcDbEntity
8
1
62
256
6
ByLayer
370
13
48
1
60
0
100
AcDbEllipse
10
25.022922
20
3.83097
30
0
11
1.12085647719576
21
1.12085798793337
31
0
210
0
220
0
230
-1
40
0.946294
41
-2.685460728074
42
-2.61927715364502
0
ELLIPSE
5
14B
100
AcDbEntity
8
1
62
256
6
ByLayer
370
13
48
1
60
0
100
AcDbEllipse
10
19.204788
20
11.093016
30
0
11
-0.353553390593278
21
0.35355339059327
31
0
210
0
220
0
230
1
40
0.052336
41
-1.57079632679491
42
2.71531158575398E-13
0
ELLIPSE
5
14C
100
AcDbEntity
8
1
62
256
6
ByLayer
370
13
48
1
60
0
100
AcDbEllipse
10
11.9
20
11.374073
30
0
11
-4.2
21
5.14334668605399E-16
31
0
210
0
220
0
230
1
40
0.258819
41
1.5707963267949
42
2.98713581341653
0
ELLIPSE
5
14D
100
AcDbEntity
8
1
62
256
6
ByLayer
370
13
48
1
60
0
100
AcDbEllipse
10
20.098277
20
10.36016
30
0
11
1.16672618895784
21
-1.16672618895777
31
0
210
0
220
0
230
1
40
0.99863
41
2.35619449019232
42
3.14159265358977
0
ELLIPSE
5
14E
100
AcDbEntity
8
1
62
256
6
ByLayer
370
13
48
1
60
0
100
AcDbEllipse
10
19.921742
20
10.183625
30
0
11
1.16672618895784
21
-1.16672618895776
31
0
210
0
220
0
230
1
40
0.99863
41
3.14159265358977
42
-0.982100169048206
0
ELLIPSE
5
14F
100
AcDbEntity
8
1
62
256
6
ByLayer
370
13
48
1
60
0
100
AcDbEllipse
10
19.096446
20
7.975126
30
0
11
0.919238815542531
21
-0.919238815542531
31
0
210
0
220
0
230
-1
40
0.052788
41
0
42
6.28318530717959
0
ELLIPSE
5
150
100
AcDbEntity
8
1
62
256
6
ByLayer
370
13
48
1
60
0
100
AcDbEllipse
10
6.2
20
12.919435
30
0
11
0.100000000000011
21
1.01063905508247E-16
31
0
210
0
220
0
230
-1
40
0.707107
41
1.5707963267949
42
2.86315993181932
0
ELLIPSE
5
151
100
AcDbEntity
8
1
62
256
6
ByLayer
370
13
48
1
60
0
100
AcDbEllipse
10
16.05
20
11.012449
30
0
11
0.0187991418631923
21
-0.10086688743143
31
0
210
0
220
0
230
-1
40
0.97373
41
-1.38167962520766
42
0.18911670159409
0
ELLIPSE
5
152
100
AcDbEntity
8
1
62
256
6
ByLayer
370
13
48
1
60
0
100
AcDbEllipse
10
6.2
20
10.081343
30
0
11
-8.65927457073273E-18
21
0.141421356237528
31
0
210
0
220
0
230
-1
40
0.707107
41
3.14159265358979
42
-1.5707963267949
0
ELLIPSE
5
153
100
AcDbEntity
8
1
62
256
6
ByLayer
370
13
48
1
60
0
100
AcDbEllipse
10
25.44174
20
4.702821
30
0
11
1.4849242404918
21
-1.4849242404917
31
0
210
0
220
0
230
1
40
0.99863
41
-0.549707801183612
42
-0.201954565603484
0
ELLIPSE
5
154
100
AcDbEntity
8
1
62
256
6
ByLayer
370
13
48
1
60
0
100
AcDbEllipse
10
25.005881
20
3.813929
30
0
11
0.628285818949227
21
1.44075185642047
31
0
210
0
220
0
230
-1
40
0.947091
41
2.16323698595428
42
3.02463774958076
0
ELLIPSE
5
155
100
AcDbEntity
8
1
62
256
6
ByLayer
370
13
48
1
60
0
100
AcDbEllipse
10
25.103346
20
3.911394
30
0
11
-1.06066017177983
21
1.06066017177981
31
0
210
0
220
0
230
1
40
0.99863
41
2.94219392730785
42
-1.72467976142046
0
ELLIPSE
5
156
100
AcDbEntity
8
1
62
256
6
ByLayer
370
13
48
1
60
0
100
AcDbEllipse
10
25.376343
20
4.637424
30
0
11
0.87960014701349
21
2.01705259867974
31
0
210
0
220
0
230
-1
40
0.947091
41
2.16579282501294
42
2.51354606060312
0
ELLIPSE
5
157
100
AcDbEntity
8
1
62
256
6
ByLayer
370
18
48
1
60
0
100
AcDbEllipse
10
23.902782
20
9.257344
30
0
11
0.213829090631131
21
-0.213829090631131
31
0
210
0
220
0
230
-1
40
0.486436
41
-1.5707963267949
42
-0.283911666235466
0
ELLIPSE
5
158
100
AcDbEntity
8
1
62
256
6
ByLayer
370
18
48
1
60
0
100
AcDbEllipse
10
23.902782
20
9.257344
30
0
11
0.213829090630726
21
-0.213829090630726
31
0
210
0
220
0
230
-1
40
0.486436
41
-2.85768098735562
42
-1.5707963267949
0
ELLIPSE
5
159
100
AcDbEntity
8
1
62
256
6
ByLayer
370
18
48
1
60
0
100
AcDbEllipse
10
23.606735
20
10.359588
30
0
11
0.0779050884967589
21
0.291871103847388
31
0
210
0
220
0
230
-1
40
0.487437
41
0.284670993519634
42
1.571555654082
0
ELLIPSE
5
15A
100
AcDbEntity
8
1
62
256
6
ByLayer
370
18
48
1
60
0
100
AcDbEllipse
10
24.664543
20
10.019105
30
0
11
1.4849242404918
21
-1.4849242404917
31
0
210
0
220
0
230
1
40
0.99863
41
0
42
6.28318530717959
0
ELLIPSE
5
15B
100
AcDbEntity
8
1
62
256
6
ByLayer
370
18
48
1
60
0
100
AcDbEllipse
10
24.662721
20
10.017283
30
0
11
0.989949493661198
21
-0.989949493661135
31
0
210
0
220
0
230
1
40
0.99863
41
0
42
6.28318530717959
0
ELLIPSE
5
15C
100
AcDbEntity
8
1
62
256
6
ByLayer
370
18
48
1
60
0
100
AcDbEllipse
10
25.005026
20
8.961297
30
0
11
0.291871103847003
21
0.077905088496351
31
0
210
0
220
0
230
-1
40
0.487437
41
-1.57155565408377
42
-0.284670993519129
0
ELLIPSE
5
15D
100
AcDbEntity
8
1
62
256
6
ByLayer
370
18
48
1
60
0
100
AcDbEllipse
10
24.708979
20
10.063542
30
0
11
-0.703146983211911
21
0.703146983211895
31
0
210
0
220
0
230
1
40
0.99863
41
0.523598775598295
42
1.5707963267949
0
ELLIPSE
5
15E
100
AcDbEntity
8
1
62
256
6
ByLayer
370
18
48
1
60
0
100
AcDbEllipse
10
24.662721
20
10.017283
30
0
11
-0.91149599628853
21
0.911495996288509
31
0
210
0
220
0
230
1
40
0.99863
41
1.0471975511966
42
2.09439510239318
0
ELLIPSE
5
15F
100
AcDbEntity
8
1
62
256
6
ByLayer
370
18
48
1
60
0
100
AcDbEllipse
10
24.662721
20
10.017283
30
0
11
-0.91149599628853
21
0.911495996288509
31
0
210
0
220
0
230
1
40
0.99863
41
0
42
1.0471975511966
0
ELLIPSE
5
160
100
AcDbEntity
8
1
62
256
6
ByLayer
370
18
48
1
60
0
100
AcDbEllipse
10
24.662721
20
10.017283
30
0
11
-0.91149599628853
21
0.911495996288509
31
0
210
0
220
0
230
1
40
0.99863
41
2.09439510239318
42
3.14159265358979
0
ELLIPSE
5
161
100
AcDbEntity
8
1
62
256
6
ByLayer
370
18
48
1
60
0
100
AcDbEllipse
10
24.662721
20
10.017283
30
0
11
-0.91149599628853
21
0.911495996288509
31
0
210
0
220
0
230
1
40
0.99863
41
-1.04719755119659
42
0
0
ELLIPSE
5
162
100
AcDbEntity
8
1
62
256
6
ByLayer
370
18
48
1
60
0
100
AcDbEllipse
10
24.662721
20
10.017283
30
0
11
-0.91149599628853
21
0.911495996288509
31
0
210
0
220
0
230
1
40
0.99863
41
-2.09439510239319
42
-1.04719755119659
0
ELLIPSE
5
163
100
AcDbEntity
8
1
62
256
6
ByLayer
370
18
48
1
60
0
100
AcDbEllipse
10
24.662721
20
10.017283
30
0
11
-0.91149599628853
21
0.911495996288509
31
0
210
0
220
0
230
1
40
0.99863
41
3.14159265358979
42
-2.09439510239319
0
ELLIPSE
5
164
100
AcDbEntity
8
1
62
256
6
ByLayer
370
18
48
1
60
0
100
AcDbEllipse
10
24.708979
20
10.063542
30
0
11
0.703146983211925
21
-0.70314698321188
31
0
210
0
220
0
230
1
40
0.99863
41
-1.5707963267949
42
-0.523598775598301
0
ELLIPSE
5
165
100
AcDbEntity
8
1
62
256
6
ByLayer
370
18
48
1
60
0
100
AcDbEllipse
10
24.728448
20
10.017466
30
0
11
-1.89052617266376
21
1.89052617266371
31
0
210
0
220
0
230
1
40
0.99863
41
0.443850968722979
42
1.12694535807184
0
ELLIPSE
5
166
100
AcDbEntity
8
1
62
256
6
ByLayer
370
18
48
1
60
0
100
AcDbEllipse
10
26.153444
20
16.387349
30
0
11
7.0710678118657
21
-7.07106781186525
31
0
210
0
220
0
230
1
40
0.99863
41
-1.57989695571312
42
-1.57079632679493
0
ELLIPSE
5
167
100
AcDbEntity
8
1
62
256
6
ByLayer
370
18
48
1
60
0
100
AcDbEllipse
10
24.669308
20
10.017506
30
0
11
1.76744572920011
21
-1.7674457292
31
0
210
0
220
0
230
1
40
0.99863
41
0
42
6.28318530717959
0
ELLIPSE
5
168
100
AcDbEntity
8
1
62
256
6
ByLayer
370
18
48
1
60
0
100
AcDbEllipse
10
22.044256
20
10.973246
30
0
11
0.124728153717929
21
-0.124728153717921
31
0
210
0
220
0
230
1
40
0.99863
41
0.443850968723029
42
3.14159265358971
0
ELLIPSE
5
169
100
AcDbEntity
8
1
62
256
6
ByLayer
370
18
48
1
60
0
100
AcDbEllipse
10
21.302957
20
10.019815
30
0
11
0.230794170895914
21
-0.2307941708959
31
0
210
0
220
0
230
1
40
0.99863
41
-3.14159265358977
42
-1.5707963267949
0
ELLIPSE
5
16A
100
AcDbEntity
8
1
62
256
6
ByLayer
370
18
48
1
60
0
100
AcDbEllipse
10
24.70479
20
10.052988
30
0
11
-1.54284301076356
21
1.54284301076352
31
0
210
0
220
0
230
1
40
0.99863
41
0
42
6.28318530717959
0
ELLIPSE
5
16B
100
AcDbEntity
8
1
62
256
6
ByLayer
370
18
48
1
60
0
100
AcDbEllipse
10
24.693544
20
10.041742
30
0
11
-1.63549817267021
21
1.63549817267017
31
0
210
0
220
0
230
1
40
0.99863
41
0
42
6.28318530717959
0
ELLIPSE
5
16C
100
AcDbEntity
8
1
62
256
6
ByLayer
370
18
48
1
60
0
100
AcDbEllipse
10
24.526789
20
15.46028
30
0
11
0.353553390593287
21
-0.353553390593265
31
0
210
0
220
0
230
1
40
0.99863
41
2.87979326579058
42
3.10668606854989
0
ELLIPSE
5
16D
100
AcDbEntity
8
1
62
256
6
ByLayer
370
18
48
1
60
0
100
AcDbEllipse
10
24.681891
20
10.030089
30
0
11
-1.65106845818509
21
1.65106845818505
31
0
210
0
220
0
230
1
40
0.99863
41
0
42
6.28318530717959
0
ELLIPSE
5
16E
100
AcDbEntity
8
1
62
256
6
ByLayer
370
18
48
1
60
0
100
AcDbEllipse
10
24.674033
20
10.022231
30
0
11
-1.70423811383223
21
1.70423811383219
31
0
210
0
220
0
230
1
40
0.99863
41
0
42
6.28318530717959
0
ELLIPSE
5
16F
100
AcDbEntity
8
1
62
256
6
ByLayer
370
18
48
1
60
0
100
AcDbEllipse
10
22.04723
20
9.067031
30
0
11
0.0353553390593291
21
-0.0353553390593269
31
0
210
0
220
0
230
1
40
0.99863
41
-1.5707963267949
42
1.12694535807228
0
ELLIPSE
5
170
100
AcDbEntity
8
1
62
256
6
ByLayer
370
18
48
1
60
0
100
AcDbEllipse
10
23.672477
20
12.672178
30
0
11
-0.141421356237311
21
0.141421356237308
31
0
210
0
220
0
230
1
40
0.052336
41
-1.57079632679493
42
-0.886715094999623
0
ELLIPSE
5
171
100
AcDbEntity
8
1
62
256
6
ByLayer
370
18
48
1
60
0
100
AcDbEllipse
10
23.718833
20
7.395428
30
0
11
0.0353553390593291
21
-0.0353553390593269
31
0
210
0
220
0
230
1
40
0.99863
41
2.01464729551799
42
-1.57079632679461
0
ELLIPSE
5
172
100
AcDbEntity
8
1
62
256
6
ByLayer
370
18
48
1
60
0
100
AcDbEllipse
10
27.296026
20
9.063432
30
0
11
-0.0353553390593274
21
0.0353553390593266
31
0
210
0
220
0
230
1
40
0.99863
41
0.443850968723178
42
3.14159265358979
0
ELLIPSE
5
173
100
AcDbEntity
8
1
62
256
6
ByLayer
370
18
48
1
60
0
100
AcDbEllipse
10
24.667
20
13.383858
30
0
11
0.230794170895914
21
-0.2307941708959
31
0
210
0
220
0
230
1
40
0.99863
41
1.57079632679481
42
3.14159265358973
0
ELLIPSE
5
174
100
AcDbEntity
8
1
62
256
6
ByLayer
370
18
48
1
60
0
100
AcDbEllipse
10
22.590726
20
12.888982
30
0
11
3.53553390593289
21
-3.53553390593266
31
0
210
0
220
0
230
1
40
0.99863
41
-1.58969694879993
42
-1.57989695571312
0
ELLIPSE
5
175
100
AcDbEntity
8
1
62
256
6
ByLayer
370
18
48
1
60
0
100
AcDbEllipse
10
31.041177
20
8.546854
30
0
11
7.0710678118657
21
-7.07106781186525
31
0
210
0
220
0
230
1
40
0.99863
41
3.13249202467157
42
3.14159265358976
0
ELLIPSE
5
176
100
AcDbEntity
8
1
62
256
6
ByLayer
370
18
48
1
60
0
100
AcDbEllipse
10
27.53792
20
12.114372
30
0
11
3.53553390593289
21
-3.53553390593266
31
0
210
0
220
0
230
1
40
0.99863
41
3.12269203158476
42
3.13249202467158
0
ELLIPSE
5
177
100
AcDbEntity
8
1
62
256
6
ByLayer
370
18
48
1
60
0
100
AcDbEllipse
10
31.006095
20
8.512741
30
0
11
7.0710678118656
21
-7.07106781186515
31
0
210
0
220
0
230
1
40
0.99863
41
3.10668606854987
42
3.12269203158476
0
ELLIPSE
5
178
100
AcDbEntity
8
1
62
256
6
ByLayer
370
18
48
1
60
0
100
AcDbEllipse
10
24.610169
20
10.017547
30
0
11
-1.89052617266376
21
1.89052617266371
31
0
210
0
220
0
230
1
40
0.99863
41
-2.69774168486681
42
-2.01464729551795
0
ELLIPSE
5
179
100
AcDbEntity
8
1
62
256
6
ByLayer
370
18
48
1
60
0
100
AcDbEllipse
10
18.32167
20
8.555575
30
0
11
7.0710678118657
21
-7.07106781186525
31
0
210
0
220
0
230
1
40
0.99863
41
1.57079632679486
42
1.57989695571305
0
ELLIPSE
5
17A
100
AcDbEntity
8
1
62
256
6
ByLayer
370
18
48
1
60
0
100
AcDbEllipse
10
21.820038
20
12.118293
30
0
11
3.53553390593289
21
-3.53553390593266
31
0
210
0
220
0
230
1
40
0.99863
41
1.57989695571305
42
1.58969694879986
0
ELLIPSE
5
17B
100
AcDbEntity
8
1
62
256
6
ByLayer
370
18
48
1
60
0
100
AcDbEllipse
10
24.676864
20
15.200548
30
0
11
0.565685424949256
21
-0.56568542494922
31
0
210
0
220
0
230
1
40
0.99863
41
1.83259571459402
42
2.8797932657906
0
ELLIPSE
5
17C
100
AcDbEntity
8
1
62
256
6
ByLayer
370
18
48
1
60
0
100
AcDbEllipse
10
18.356799
20
8.521415
30
0
11
7.0710678118656
21
-7.07106781186515
31
0
210
0
220
0
230
1
40
0.99863
41
1.58969694879986
42
1.60570291183475
0
ELLIPSE
5
17D
100
AcDbEntity
8
1
62
256
6
ByLayer
370
18
48
1
60
0
100
AcDbEllipse
10
27.29436
20
9.061767
30
0
11
0.124728153717929
21
-0.124728153717921
31
0
210
0
220
0
230
1
40
0.99863
41
-2.69774168486677
42
-8.06744659676902E-14
0
ELLIPSE
5
17E
100
AcDbEntity
8
1
62
256
6
ByLayer
370
18
48
1
60
0
100
AcDbEllipse
10
21.304623
20
10.02148
30
0
11
0.141421356237314
21
-0.141421356237305
31
0
210
0
220
0
230
1
40
0.99863
41
-3.14159265358976
42
-1.57079632679483
0
ELLIPSE
5
17F
100
AcDbEntity
8
1
62
256
6
ByLayer
370
18
48
1
60
0
100
AcDbEllipse
10
24.673282
20
6.652821
30
0
11
0.141421356237314
21
-0.141421356237305
31
0
210
0
220
0
230
1
40
0.99863
41
-1.57079632679483
42
3.55758757377659E-14
0
ELLIPSE
5
180
100
AcDbEntity
8
1
62
256
6
ByLayer
370
18
48
1
60
0
100
AcDbEllipse
10
27.240248
20
10.947207
30
0
11
0.188411874448613
21
0.067089235848681
31
0
210
0
220
0
230
1
40
0.022474
41
1.5235019098021
42
2.20758314159651
0
ELLIPSE
5
181
100
AcDbEntity
8
1
62
256
6
ByLayer
370
18
48
1
60
0
100
AcDbEllipse
10
27.294717
20
10.971312
30
0
11
-0.0353553390593284
21
0.0353553390593276
31
0
210
0
220
0
230
1
40
0.99863
41
-1.57079632679461
42
1.12694535807165
0
ELLIPSE
5
182
100
AcDbEntity
8
1
62
256
6
ByLayer
370
18
48
1
60
0
100
AcDbEllipse
10
30.111877
20
10.174781
30
0
11
0.353553390593287
21
-0.353553390593265
31
0
210
0
220
0
230
1
40
0.99863
41
1.30899693899568
42
1.53588974175497
0
ELLIPSE
5
183
100
AcDbEntity
8
1
62
256
6
ByLayer
370
18
48
1
60
0
100
AcDbEllipse
10
30.112082
20
9.874987
30
0
11
0.353553390593287
21
-0.353553390593265
31
0
210
0
220
0
230
1
40
0.99863
41
0.0349065850398523
42
0.261799387799146
0
ELLIPSE
5
184
100
AcDbEntity
8
1
62
256
6
ByLayer
370
18
48
1
60
0
100
AcDbEllipse
10
26.187604
20
16.35222
30
0
11
7.0710678118656
21
-7.07106781186515
31
0
210
0
220
0
230
1
40
0.99863
41
-1.60570291183481
42
-1.58969694879993
0
ELLIPSE
5
185
100
AcDbEntity
8
1
62
256
6
ByLayer
370
18
48
1
60
0
100
AcDbEllipse
10
24.730113
20
10.019131
30
0
11
-1.97989898732236
21
1.97989898732231
31
0
210
0
220
0
230
1
40
0.99863
41
0.443850968722985
42
1.12694535807184
0
ELLIPSE
5
186
100
AcDbEntity
8
1
62
256
6
ByLayer
370
18
48
1
60
0
100
AcDbEllipse
10
22.086897
20
9.076333
30
0
11
0.188411874448613
21
0.067089235848681
31
0
210
0
220
0
230
1
40
0.022474
41
0.839420678007912
42
1.52350190980224
0
ELLIPSE
5
187
100
AcDbEntity
8
1
62
256
6
ByLayer
370
18
48
1
60
0
100
AcDbEllipse
10
23.728135
20
7.435095
30
0
11
-0.0670892358486768
21
-0.188411874448615
31
0
210
0
220
0
230
1
40
0.022474
41
1.61809074378773
42
2.302171975583
0
ELLIPSE
5
188
100
AcDbEntity
8
1
62
256
6
ByLayer
370
18
48
1
60
0
100
AcDbEllipse
10
27.241533
20
9.072799
30
0
11
0.188483130244563
21
-0.0668887854069056
31
0
210
0
220
0
230
1
40
0.047265
41
1.54829515190223
42
2.23237638369798
0
ELLIPSE
5
189
100
AcDbEntity
8
1
62
256
6
ByLayer
370
18
48
1
60
0
100
AcDbEllipse
10
26.162165
20
3.667842
30
0
11
7.0710678118657
21
-7.07106781186525
31
0
210
0
220
0
230
1
40
0.99863
41
3.14159265358976
42
-3.13249202467164
0
ELLIPSE
5
18A
100
AcDbEntity
8
1
62
256
6
ByLayer
370
18
48
1
60
0
100
AcDbEllipse
10
23.207377
20
3.669868
30
0
11
7.0710678118657
21
-7.07106781186525
31
0
210
0
220
0
230
1
40
0.99863
41
1.56169569787668
42
1.57079632679486
0
ELLIPSE
5
18B
100
AcDbEntity
8
1
62
256
6
ByLayer
370
18
48
1
60
0
100
AcDbEllipse
10
26.770095
20
7.168236
30
0
11
3.53553390593289
21
-3.53553390593266
31
0
210
0
220
0
230
1
40
0.99863
41
1.55189570478987
42
1.56169569787668
0
ELLIPSE
5
18C
100
AcDbEntity
8
1
62
256
6
ByLayer
370
18
48
1
60
0
100
AcDbEllipse
10
23.173217
20
3.704997
30
0
11
7.0710678118656
21
-7.07106781186515
31
0
210
0
220
0
230
1
40
0.99863
41
1.53588974175498
42
1.55189570478987
0
ELLIPSE
5
18D
100
AcDbEntity
8
1
62
256
6
ByLayer
370
18
48
1
60
0
100
AcDbEllipse
10
25.621449
20
12.64125
30
0
11
0.124728153717929
21
-0.124728153717921
31
0
210
0
220
0
230
1
40
0.99863
41
-1.12694535807191
42
1.57079632679482
0
ELLIPSE
5
18E
100
AcDbEntity
8
1
62
256
6
ByLayer
370
18
48
1
60
0
100
AcDbEllipse
10
23.198656
20
16.389375
30
0
11
7.0710678118657
21
-7.07106781186525
31
0
210
0
220
0
230
1
40
0.99863
41
0
42
0.00910062891815601
0
ELLIPSE
5
18F
100
AcDbEntity
8
1
62
256
6
ByLayer
370
18
48
1
60
0
100
AcDbEllipse
10
28.037325
20
10.016863
30
0
11
-0.141421356237311
21
0.141421356237308
31
0
210
0
220
0
230
1
40
0.99863
41
-3.14159265358972
42
-1.5707963267949
0
ELLIPSE
5
190
100
AcDbEntity
8
1
62
256
6
ByLayer
370
18
48
1
60
0
100
AcDbEllipse
10
26.766174
20
12.886118
30
0
11
3.53553390593289
21
-3.53553390593266
31
0
210
0
220
0
230
1
40
0.99863
41
0.00910062891815663
42
0.0189006220049668
0
ELLIPSE
5
191
100
AcDbEntity
8
1
62
256
6
ByLayer
370
18
48
1
60
0
100
AcDbEllipse
10
29.85235
20
10.025062
30
0
11
0.565685424949256
21
-0.56568542494922
31
0
210
0
220
0
230
1
40
0.99863
41
0.261799387799134
42
1.30899693899572
0
ELLIPSE
5
192
100
AcDbEntity
8
1
62
256
6
ByLayer
370
18
48
1
60
0
100
AcDbEllipse
10
22.594647
20
7.171099
30
0
11
3.53553390593289
21
-3.53553390593266
31
0
210
0
220
0
230
1
40
0.99863
41
-3.13249202467164
42
-3.12269203158483
0
ELLIPSE
5
193
100
AcDbEntity
8
1
62
256
6
ByLayer
370
18
48
1
60
0
100
AcDbEllipse
10
23.164543
20
16.354293
30
0
11
7.0710678118656
21
-7.07106781186515
31
0
210
0
220
0
230
1
40
0.99863
41
0.0189006220049655
42
0.0349065850398542
0
ELLIPSE
5
194
100
AcDbEntity
8
1
62
256
6
ByLayer
370
18
48
1
60
0
100
AcDbEllipse
10
22.085611
20
10.950742
30
0
11
0.188483130244563
21
-0.0668887854069056
31
0
210
0
220
0
230
1
40
0.047265
41
0.86421392010697
42
1.54829515190209
0
ELLIPSE
5
195
100
AcDbEntity
8
1
62
256
6
ByLayer
370
18
48
1
60
0
100
AcDbEllipse
10
24.826583
20
15.460075
30
0
11
0.353553390593287
21
-0.353553390593265
31
0
210
0
220
0
230
1
40
0.99863
41
1.60570291183476
42
1.83259571459405
0
ELLIPSE
5
196
100
AcDbEntity
8
1
62
256
6
ByLayer
370
18
48
1
60
0
100
AcDbEllipse
10
25.602544
20
7.43381
30
0
11
0.0668887854069044
21
-0.188483130244564
31
0
210
0
220
0
230
1
40
0.047265
41
1.59329750168769
42
2.27737873348263
0
ELLIPSE
5
197
100
AcDbEntity
8
1
62
256
6
ByLayer
370
18
48
1
60
0
100
AcDbEllipse
10
24.671014
20
9.960033
30
0
11
1.9798989873224
21
-1.97989898732227
31
0
210
0
220
0
230
1
40
0.99863
41
2.01464729551787
42
2.69774168486674
0
ELLIPSE
5
198
100
AcDbEntity
8
1
62
256
6
ByLayer
370
18
48
1
60
0
100
AcDbEllipse
10
25.599009
20
12.588446
30
0
11
0.0670892358486773
21
0.188411874448615
31
0
210
0
220
0
230
1
40
0.022474
41
-2.20758314159647
42
-1.5235019098019
0
ELLIPSE
5
199
100
AcDbEntity
8
1
62
256
6
ByLayer
370
18
48
1
60
0
100
AcDbEllipse
10
24.611834
20
10.019212
30
0
11
1.9798989873224
21
-1.97989898732227
31
0
210
0
220
0
230
1
40
0.99863
41
0.443850968722978
42
1.12694535807184
0
ELLIPSE
5
19A
100
AcDbEntity
8
1
62
256
6
ByLayer
370
18
48
1
60
0
100
AcDbEllipse
10
19.508471
20
10.032155
30
0
11
0.565685424949256
21
-0.56568542494922
31
0
210
0
220
0
230
1
40
0.99863
41
-2.87979326579066
42
-1.83259571459408
0
ELLIPSE
5
19B
100
AcDbEntity
8
1
62
256
6
ByLayer
370
18
48
1
60
0
100
AcDbEllipse
10
25.623114
20
12.642915
30
0
11
-0.0353553390593274
21
0.0353553390593266
31
0
210
0
220
0
230
1
40
0.99863
41
2.014647295518
42
-1.5707963267949
0
ELLIPSE
5
19C
100
AcDbEntity
8
1
62
256
6
ByLayer
370
18
48
1
60
0
100
AcDbEllipse
10
24.834032
20
4.596937
30
0
11
0.353553390593287
21
-0.353553390593265
31
0
210
0
220
0
230
1
40
0.99863
41
-0.261799387799207
42
-0.0349065850399112
0
ELLIPSE
5
19D
100
AcDbEntity
8
1
62
256
6
ByLayer
370
18
48
1
60
0
100
AcDbEllipse
10
24.534238
20
4.597142
30
0
11
0.353553390593287
21
-0.353553390593265
31
0
210
0
220
0
230
1
40
0.99863
41
-1.53588974175506
42
-1.30899693899573
0
ELLIPSE
5
19E
100
AcDbEntity
8
1
62
256
6
ByLayer
370
18
48
1
60
0
100
AcDbEllipse
10
24.669349
20
9.958367
30
0
11
-1.89052617266376
21
1.89052617266371
31
0
210
0
220
0
230
1
40
0.99863
41
-1.12694535807192
42
-0.443850968723055
0
ELLIPSE
5
19F
100
AcDbEntity
8
1
62
256
6
ByLayer
370
18
48
1
60
0
100
AcDbEllipse
10
26.196278
20
3.702925
30
0
11
7.0710678118656
21
-7.07106781186515
31
0
210
0
220
0
230
1
40
0.99863
41
-3.12269203158483
42
-3.10668606854994
0
ELLIPSE
5
1A0
100
AcDbEntity
8
1
62
256
6
ByLayer
370
18
48
1
60
0
100
AcDbEllipse
10
22.003165
20
11.002865
30
0
11
-0.141421356237311
21
0.141421356237308
31
0
210
0
220
0
230
1
40
0.052336
41
-1.57079632679486
42
-0.886715094999623
0
ELLIPSE
5
1A1
100
AcDbEntity
8
1
62
256
6
ByLayer
370
18
48
1
60
0
100
AcDbEllipse
10
25.654667
20
7.351363
30
0
11
-0.141421356237311
21
0.141421356237308
31
0
210
0
220
0
230
1
40
0.052336
41
-2.2548775585905
42
-1.5707963267949
0
ELLIPSE
5
1A2
100
AcDbEntity
8
1
62
256
6
ByLayer
370
18
48
1
60
0
100
AcDbEllipse
10
23.724601
20
12.589731
30
0
11
-0.066888785406904
21
0.188483130244564
31
0
210
0
220
0
230
1
40
0.047265
41
-2.23237638369714
42
-1.54829515190203
0
ELLIPSE
5
1A3
100
AcDbEntity
8
1
62
256
6
ByLayer
370
18
48
1
60
0
100
AcDbEllipse
10
18.319644
20
11.510364
30
0
11
7.0710678118657
21
-7.07106781186525
31
0
210
0
220
0
230
1
40
0.99863
41
-0.00910062891821987
42
-3.30855644361221E-14
0
ELLIPSE
5
1A4
100
AcDbEntity
8
1
62
256
6
ByLayer
370
18
48
1
60
0
100
AcDbEllipse
10
21.822901
20
7.942845
30
0
11
3.53553390593289
21
-3.53553390593266
31
0
210
0
220
0
230
1
40
0.99863
41
-0.0189006220050314
42
-0.00910062891822067
0
ELLIPSE
5
1A5
100
AcDbEntity
8
1
62
256
6
ByLayer
370
18
48
1
60
0
100
AcDbEllipse
10
18.354726
20
11.544476
30
0
11
7.0710678118656
21
-7.07106781186515
31
0
210
0
220
0
230
1
40
0.99863
41
-0.0349065850399189
42
-0.0189006220050298
0
ELLIPSE
5
1A6
100
AcDbEntity
8
1
62
256
6
ByLayer
370
18
48
1
60
0
100
AcDbEllipse
10
21.1558
20
10.1555
30
0
11
0.141421356237314
21
-0.141421356237305
31
0
210
0
220
0
230
1
40
0.052336
41
1.5707963267949
42
2.25487755859017
0
ELLIPSE
5
1A7
100
AcDbEntity
8
1
62
256
6
ByLayer
370
18
48
1
60
0
100
AcDbEllipse
10
31.039151
20
11.501642
30
0
11
7.0710678118657
21
-7.07106781186525
31
0
210
0
220
0
230
1
40
0.99863
41
-1.57079632679493
42
-1.56169569787674
0
ELLIPSE
5
1A8
100
AcDbEntity
8
1
62
256
6
ByLayer
370
18
48
1
60
0
100
AcDbEllipse
10
23.715234
20
12.644224
30
0
11
-0.0353553390593284
21
0.0353553390593276
31
0
210
0
220
0
230
1
40
0.99863
41
0
42
2.69774168486636
0
ELLIPSE
5
1A9
100
AcDbEntity
8
1
62
256
6
ByLayer
370
18
48
1
60
0
100
AcDbEllipse
10
27.540783
20
7.938924
30
0
11
3.53553390593289
21
-3.53553390593266
31
0
210
0
220
0
230
1
40
0.99863
41
-1.56169569787674
42
-1.55189570478993
0
ELLIPSE
5
1AA
100
AcDbEntity
8
1
62
256
6
ByLayer
370
18
48
1
60
0
100
AcDbEllipse
10
24.683957
20
4.856669
30
0
11
0.565685424949256
21
-0.56568542494922
31
0
210
0
220
0
230
1
40
0.99863
41
-1.30899693899577
42
-0.261799387799191
0
ELLIPSE
5
1AB
100
AcDbEntity
8
1
62
256
6
ByLayer
370
18
48
1
60
0
100
AcDbEllipse
10
31.004022
20
11.535802
30
0
11
7.0710678118656
21
-7.07106781186515
31
0
210
0
220
0
230
1
40
0.99863
41
-1.55189570478993
42
-1.53588974175504
0
ELLIPSE
5
1AC
100
AcDbEntity
8
1
62
256
6
ByLayer
370
18
48
1
60
0
100
AcDbEllipse
10
24.807302
20
6.503998
30
0
11
0.141421356237314
21
-0.141421356237305
31
0
210
0
220
0
230
1
40
0.052336
41
0.886715094999704
42
1.5707963267949
0
ELLIPSE
5
1AD
100
AcDbEntity
8
1
62
256
6
ByLayer
370
18
48
1
60
0
100
AcDbEllipse
10
27.323979
20
9.020675
30
0
11
-0.141421356237311
21
0.141421356237308
31
0
210
0
220
0
230
1
40
0.052336
41
-2.25487755858969
42
-1.57079632679497
0
ELLIPSE
5
1AE
100
AcDbEntity
8
1
62
256
6
ByLayer
370
18
48
1
60
0
100
AcDbEllipse
10
23.713569
20
12.642558
30
0
11
0.124728153717929
21
-0.124728153717921
31
0
210
0
220
0
230
1
40
0.99863
41
3.14159265358975
42
-0.443850968723092
0
ELLIPSE
5
1AF
100
AcDbEntity
8
1
62
256
6
ByLayer
370
18
48
1
60
0
100
AcDbEllipse
10
28.035659
20
10.015198
30
0
11
0.230794170895914
21
-0.2307941708959
31
0
210
0
220
0
230
1
40
0.99863
41
0
42
1.5707963267949
0
ELLIPSE
5
1B0
100
AcDbEntity
8
1
62
256
6
ByLayer
370
18
48
1
60
0
100
AcDbEllipse
10
19.248944
20
9.882436
30
0
11
0.353553390593287
21
-0.353553390593265
31
0
210
0
220
0
230
1
40
0.99863
41
-1.8325957145941
42
-1.6057029118348
0
ELLIPSE
5
1B1
100
AcDbEntity
8
1
62
256
6
ByLayer
370
18
48
1
60
0
100
AcDbEllipse
10
19.248739
20
10.18223
30
0
11
0.353553390593287
21
-0.353553390593265
31
0
210
0
220
0
230
1
40
0.99863
41
-3.10668606854994
42
-2.87979326579065
0
ELLIPSE
5
1B2
100
AcDbEntity
8
1
62
256
6
ByLayer
370
18
48
1
60
0
100
AcDbEllipse
10
27.293052
20
10.969647
30
0
11
0.124728153717929
21
-0.124728153717921
31
0
210
0
220
0
230
1
40
0.99863
41
1.5707963267949
42
-2.0146472955179
0
ELLIPSE
5
1B3
100
AcDbEntity
8
1
62
256
6
ByLayer
370
18
48
1
60
0
100
AcDbEllipse
10
28.171345
20
9.868041
30
0
11
0.141421356237314
21
-0.141421356237305
31
0
210
0
220
0
230
1
40
0.052336
41
0.886715094998492
42
1.57079632679497
0
ELLIPSE
5
1B4
100
AcDbEntity
8
1
62
256
6
ByLayer
370
18
48
1
60
0
100
AcDbEllipse
10
22.045922
20
10.974911
30
0
11
0.0353553390593282
21
-0.0353553390593259
31
0
210
0
220
0
230
1
40
0.99863
41
0.443850968722796
42
-3.14159265358965
0
ELLIPSE
5
1B5
100
AcDbEntity
8
1
62
256
6
ByLayer
370
18
48
1
60
0
100
AcDbEllipse
10
25.626713
20
7.39412
30
0
11
0.0353553390593282
21
-0.0353553390593259
31
0
210
0
220
0
230
1
40
0.99863
41
0
42
2.69774168486676
0
ELLIPSE
5
1B6
100
AcDbEntity
8
1
62
256
6
ByLayer
370
18
48
1
60
0
100
AcDbEllipse
10
24.668665
20
13.385523
30
0
11
-0.141421356237311
21
0.141421356237308
31
0
210
0
220
0
230
1
40
0.99863
41
-1.57079632679497
42
-1.06727627213298E-13
0
ELLIPSE
5
1B7
100
AcDbEntity
8
1
62
256
6
ByLayer
370
18
48
1
60
0
100
AcDbEllipse
10
24.519843
20
13.519543
30
0
11
-0.141421356237311
21
0.141421356237308
31
0
210
0
220
0
230
1
40
0.052336
41
-1.57079632679486
42
-0.886715094999799
0
ELLIPSE
5
1B8
100
AcDbEntity
8
1
62
256
6
ByLayer
370
18
48
1
60
0
100
AcDbEllipse
10
23.717168
20
7.393763
30
0
11
0.124728153717929
21
-0.124728153717921
31
0
210
0
220
0
230
1
40
0.99863
41
2.01464729551794
42
-1.57079632679498
0
ELLIPSE
5
1B9
100
AcDbEntity
8
1
62
256
6
ByLayer
370
18
48
1
60
0
100
AcDbEllipse
10
24.669268
20
10.076646
30
0
11
-1.89052617266376
21
1.89052617266371
31
0
210
0
220
0
230
1
40
0.99863
41
2.01464729551787
42
2.69774168486674
0
ELLIPSE
5
1BA
100
AcDbEntity
8
1
62
256
6
ByLayer
370
18
48
1
60
0
100
AcDbEllipse
10
25.625048
20
7.392455
30
0
11
0.124728153717929
21
-0.124728153717921
31
0
210
0
220
0
230
1
40
0.99863
41
0
42
2.69774168486681
0
ELLIPSE
5
1BB
100
AcDbEntity
8
1
62
256
6
ByLayer
370
18
48
1
60
0
100
AcDbEllipse
10
24.670933
20
10.078311
30
0
11
-1.97989898732236
21
1.97989898732231
31
0
210
0
220
0
230
1
40
0.99863
41
2.01464729551788
42
2.69774168486674
0
ELLIPSE
5
1BC
100
AcDbEntity
8
1
62
256
6
ByLayer
370
18
48
1
60
0
100
AcDbEllipse
10
24.671617
20
6.651155
30
0
11
0.230794170895914
21
-0.2307941708959
31
0
210
0
220
0
230
1
40
0.99863
41
-1.5707963267949
42
-2.17994612976339E-14
0
ELLIPSE
5
1BD
100
AcDbEntity
8
1
62
256
6
ByLayer
370
18
48
1
60
0
100
AcDbEllipse
10
22.045565
20
9.065366
30
0
11
0.124728153717929
21
-0.124728153717921
31
0
210
0
220
0
230
1
40
0.99863
41
-1.5707963267949
42
1.1269453580719
0
POINT
5
6C
100
AcDbEntity
8
80
62
256
6
ByLayer
370
13
48
1
60
0
100
AcDbPoint
10
0
20
0
30
0
39
0
210
0
220
0
230
1
50
360
0
POINT
5
6E
100
AcDbEntity
8
81
62
256
6
ByLayer
370
18
48
1
60
0
100
AcDbPoint
10
25
20
16
30
0
39
0
210
0
220
0
230
1
50
360
0
SPLINE
5
1BE
100
AcDbEntity
8
1
62
256
6
ByLayer
370
18
48
1
60
0
100
AcDbSpline
70
4
71
3
72
13
73
9
40
0
40
0
40
0
40
0
40
0.0871052619217412
40
0.273858419665172
40
0.458391509744522
40
0.647083601787005
40
0.836381064211949
40
1
40
1
40
1
40
1
41
1
10
10.3899630686765
20
12.7189627149274
30
0
41
1
10
10.3198151963876
20
12.7105409775294
30
0
41
1
10
10.1007661208479
20
12.6774280744383
30
0
41
1
10
9.74235552011754
20
12.5783424996587
30
0
41
1
10
9.31665071650593
20
12.4207038221376
30
0
41
1
10
8.90828555876324
20
12.2157601918215
30
0
41
1
10
8.53822690316549
20
11.9769193117909
30
0
41
1
10
8.31514983171166
20
11.7977864198796
30
0
41
1
10
8.21530871886509
20
11.7095534909986
30
0
0
SPLINE
5
1BF
100
AcDbEntity
8
1
62
256
6
ByLayer
370
18
48
1
60
0
100
AcDbSpline
70
4
71
3
72
16
73
12
40
0
40
0
40
0
40
0
40
0.107929124812554
40
0.237299382526161
40
0.363157047351453
40
0.485609447612954
40
0.604909216790309
40
0.721652849511758
40
0.837177877076387
40
0.954335881229494
40
1
40
1
40
1
40
1
41
1
10
14.8808897218103
20
10.906423321711
30
0
41
1
10
14.8117607364904
20
11.0133343435053
30
0
41
1
10
14.6491557196036
20
11.2394789279695
30
0
41
1
10
14.3607000287164
20
11.5555322796412
30
0
41
1
10
14.0287534055044
20
11.8507306135302
30
0
41
1
10
13.6769969700996
20
12.1022813956169
30
0
41
1
10
13.3111605849605
20
12.311367600584
30
0
41
1
10
12.9343969279576
20
12.48066055039
30
0
41
1
10
12.5459059482784
20
12.6108261513958
30
0
41
1
10
12.229375024776
20
12.6911128312865
30
0
41
1
10
12.0406568503503
20
12.7183595555113
30
0
41
1
10
11.9874720449724
20
12.7247838219529
30
0
0
SPLINE
5
1C0
100
AcDbEntity
8
1
62
256
6
ByLayer
370
18
48
1
60
0
100
AcDbSpline
70
4
71
3
72
10
73
6
40
0
40
0
40
0
40
0
40
0.338677579536437
40
0.80131319108963
40
1
40
1
40
1
40
1
41
1
10
8.21530871886509
20
11.7095534909986
30
0
41
1
10
8.12464484688235
20
11.6293414612061
30
0
41
1
10
7.92049620288336
20
11.4305378819245
30
0
41
1
10
7.68518129386564
20
11.1601980189847
30
0
41
1
10
7.55679735379181
20
10.9627235336694
30
0
41
1
10
7.52006676897152
20
10.9019507677055
30
0
0
SPLINE
5
1C1
100
AcDbEntity
8
1
62
256
6
ByLayer
370
13
48
1
60
0
100
AcDbSpline
70
4
71
3
72
12
73
8
40
0
40
0
40
0
40
0
40
0.379355247407866
40
0.379355247407866
40
0.756864862478247
40
0.756864862478247
40
1
40
1
40
1
40
1
41
1
10
23.70625343139
20
4.45255694056114
30
0
41
1
10
23.708170357351
20
4.45447386652216
30
0
41
1
10
23.7134685637074
20
4.46536696855625
30
0
41
1
10
23.7303198452685
20
4.50170934565642
30
0
41
1
10
23.7420723422231
20
4.52743562514934
30
0
41
1
10
23.7665162942515
20
4.57718840163888
30
0
41
1
10
23.7775356791915
20
4.59883013609893
30
0
41
1
10
23.7899225213332
20
4.62183392406595
30
0
0
SPLINE
5
1C2
100
AcDbEntity
8
1
62
256
6
ByLayer
370
13
48
1
60
0
100
AcDbSpline
70
4
71
3
72
16
73
12
40
0
40
0
40
0
40
0
40
0.245273089569483
40
0.245273089569483
40
0.490404120167022
40
0.490404120167022
40
0.737416001003362
40
0.737416001003362
40
0.981350745918133
40
0.981350745918133
40
1
40
1
40
1
40
1
41
1
10
26.4088298238237
20
4.89172819156704
30
0
41
1
10
26.4108914970024
20
4.89378986474571
30
0
41
1
10
26.4073158407416
20
4.90376228546793
30
0
41
1
10
26.388796270035
20
4.93709647559405
30
0
41
1
10
26.3735771364225
20
4.96086662307536
30
0
41
1
10
26.33171351001
20
5.01716975274346
30
0
41
1
10
26.3043312889241
20
5.05052752041087
30
0
41
1
10
26.2396551976565
20
5.11926686523447
30
0
41
1
10
26.2015158033444
20
5.15554907697601
30
0
41
1
10
26.1568521830493
20
5.19262252151914
30
0
41
1
10
26.1536310100807
20
5.19526936317558
30
0
41
1
10
26.1503862564178
20
5.19790879899861
30
0
0
SPLINE
5
1C3
100
AcDbEntity
8
1
62
256
6
ByLayer
370
13
48
1
60
0
100
AcDbSpline
70
4
71
3
72
14
73
10
40
0
40
0
40
0
40
0
40
0.107542010985043
40
0.107542010985043
40
0.347347812362975
40
0.347347812362975
40
0.640299528800029
40
0.640299528800029
40
1
40
1
40
1
40
1
41
1
10
19.6030814730968
20
8.56925185137465
30
0
41
1
10
19.6036784616528
20
8.56984883993066
30
0
41
1
10
19.6056746557472
20
8.57016686560704
30
0
41
1
10
19.6163106201716
20
8.57034002438618
30
0
41
1
10
19.630343591652
20
8.56912212489689
30
0
41
1
10
19.6705507544407
20
8.56515179848455
30
0
41
1
10
19.6990406650558
20
8.56215069155961
30
0
41
1
10
19.7687499313941
20
8.55631769683313
30
0
41
1
10
19.8120597970439
20
8.55367685889019
30
0
41
1
10
19.8580969691996
20
8.55252196088348
30
0
0
SPLINE
5
1C4
100
AcDbEntity
8
1
62
256
6
ByLayer
370
13
48
1
60
0
100
AcDbSpline
70
4
71
3
72
10
73
6
40
0
40
0
40
0
40
0
40
0.155776691165235
40
0.155776691165235
40
1
40
1
40
1
40
1
41
1
10
24.5411114513803
20
2.31358459471504
30
0
41
1
10
24.5381732062257
20
2.29210898148783
30
0
41
1
10
24.5352349610711
20
2.27063336826063
30
0
41
1
10
24.516373056041
20
2.13277183668895
30
0
41
1
10
24.5004493961657
20
2.01638591834448
30
0
41
1
10
24.4845257362903
20
1.90000000000002
30
0
0
SPLINE
5
1C5
100
AcDbEntity
8
1
62
256
6
ByLayer
370
13
48
1
60
0
100
AcDbSpline
70
4
71
3
72
12
73
8
40
0
40
0
40
0
40
0
40
0.425138781294453
40
0.425138781294453
40
0.853933888960889
40
0.853933888960889
40
1
40
1
40
1
40
1
41
1
10
22.9691840832647
20
2.52767506431265
30
0
41
1
10
23.136815742766
20
2.36004340481117
30
0
41
1
10
23.3358318243127
20
2.21943691459202
30
0
41
1
10
23.7643593149695
20
2.01184516410609
30
0
41
1
10
24.0001266986534
20
1.94256026797653
30
0
41
1
10
24.3194681577969
20
1.90490084396485
30
0
41
1
10
24.4020663099548
20
1.90000000000006
30
0
41
1
10
24.4845257362903
20
1.90000000000001
30
0
0
SPLINE
5
1C6
100
AcDbEntity
8
1
62
256
6
ByLayer
370
13
48
1
60
0
100
AcDbSpline
70
4
71
3
72
12
73
8
40
0
40
0
40
0
40
0
40
0.367260880169534
40
0.367260880169534
40
0.922566928964502
40
0.922566928964502
40
1
40
1
40
1
40
1
41
1
10
22.9691840832647
20
2.52767506431263
30
0
41
1
10
23.0402216274817
20
2.62123206428781
30
0
41
1
10
23.1112591716987
20
2.71478906426299
30
0
41
1
10
23.289706952413
20
2.94980618372964
30
0
41
1
10
23.3971171889104
20
3.0912663032211
30
0
41
1
10
23.5195049400426
20
3.25245192634259
30
0
41
1
10
23.5344824546774
20
3.2721774299726
30
0
41
1
10
23.5494599693122
20
3.29190293360261
30
0
0
SPLINE
5
1C7
100
AcDbEntity
8
1
62
256
6
ByLayer
370
13
48
1
60
0
100
AcDbSpline
70
4
71
3
72
12
73
8
40
0
40
0
40
0
40
0
40
0.378516811239637
40
0.378516811239637
40
0.75829853613384
40
0.75829853613384
40
1
40
1
40
1
40
1
41
1
10
23.5494599693122
20
3.29190293360263
30
0
41
1
10
23.602776803963
20
3.12376499815876
30
0
41
1
10
23.6877274461837
20
2.96066642659696
30
0
41
1
10
23.9109676521823
20
2.67599297842129
30
0
41
1
10
24.0527648851265
20
2.55058222617582
30
0
41
1
10
24.3146122804841
20
2.39627303572888
30
0
41
1
10
24.4258273776965
20
2.34771022553915
30
0
41
1
10
24.5411114513804
20
2.31358459471505
30
0
0
SPLINE
5
1C8
100
AcDbEntity
8
1
62
256
6
ByLayer
370
18
48
1
60
0
100
AcDbSpline
70
4
71
3
72
8
73
4
40
0
40
0
40
0
40
0
40
1
40
1
40
1
40
1
41
1
10
24.6711350807353
20
8.88320855225551
30
0
41
1
10
24.6691743281841
20
8.87666458982417
30
0
41
1
10
24.6672138049723
20
8.87012161909688
30
0
41
1
10
24.6652535001345
20
8.86357959217311
30
0
0
SPLINE
5
1C9
100
AcDbEntity
8
1
62
256
6
ByLayer
370
18
48
1
60
0
100
AcDbSpline
70
4
71
3
72
24
73
20
40
0
40
0
40
0
40
0
40
0.0123549879047916
40
0.0123549879047916
40
0.151242783424342
40
0.151242783424342
40
0.290190191244902
40
0.290190191244902
40
0.429295899364671
40
0.429295899364671
40
0.568831308545135
40
0.568831308545135
40
0.725217912933863
40
0.725217912933863
40
0.826429454769133
40
0.826429454769133
40
0.908352409701112
40
0.908352409701112
40
1
40
1
40
1
40
1
41
1
10
25.9067654450511
20
10.3498315160771
30
0
41
1
10
25.907194072476
20
10.3482356467906
30
0
41
1
10
25.9076164054828
20
10.3466381336272
30
0
41
1
10
25.912704669885
20
10.327079901061
30
0
41
1
10
25.9165892820079
20
10.3089015073532
30
0
41
1
10
25.9226585282304
20
10.2723353565764
30
0
41
1
10
25.9248517605461
20
10.25389959868
30
0
41
1
10
25.9272933691744
20
10.2170019430884
30
0
41
1
10
25.9275476029768
20
10.1984729110332
30
0
41
1
10
25.9256379337087
20
10.1617074267495
30
0
41
1
10
25.9234686499737
20
10.1433515100615
30
0
41
1
10
25.915399846212
20
10.1057381738388
30
0
41
1
10
25.9090096822302
20
10.0862085827045
30
0
41
1
10
25.8934626774797
20
10.0579861166154
30
0
41
1
10
25.8858860231358
20
10.0477105177679
30
0
41
1
10
25.869731495186
20
10.0330299101201
30
0
41
1
10
25.8614309426657
20
10.0277746249437
30
0
41
1
10
25.8429283262685
20
10.0208208859351
30
0
41
1
10
25.8323411667832
20
10.0195180137972
30
0
41
1
10
25.8220530683124
20
10.020379160351
30
0
0
SPLINE
5
1CA
100
AcDbEntity
8
1
62
256
6
ByLayer
370
18
48
1
60
0
100
AcDbSpline
70
4
71
3
72
24
73
20
40
0
40
0
40
0
40
0
40
0.0326306310995745
40
0.0326306310995745
40
0.117553142431084
40
0.117553142431084
40
0.201978401427772
40
0.201978401427772
40
0.302461580355232
40
0.302461580355232
40
0.481549821443555
40
0.481549821443555
40
0.595338330720312
40
0.595338330720312
40
0.734432205985713
40
0.734432205985713
40
0.873415296544353
40
0.873415296544353
40
1
40
1
40
1
40
1
41
1
10
25.6672512415926
20
10.5967386427496
30
0
41
1
10
25.6703466468724
20
10.5987527786658
30
0
41
1
10
25.6735946761408
20
10.6005426450966
30
0
41
1
10
25.6856214772209
20
10.6059721405662
30
0
41
1
10
25.6953268019961
20
10.6081126553681
30
0
41
1
10
25.7149981216624
20
10.6082504957376
30
0
41
1
10
25.7252056071297
20
10.6062982250986
30
0
41
1
10
25.7466089419764
20
10.5986960090454
30
0
41
1
10
25.757926210715
20
10.5923777880798
30
0
41
1
10
25.7870150237461
20
10.5716087793809
30
0
41
1
10
25.8036321785864
20
10.554404326893
30
0
41
1
10
25.8275231697905
20
10.5241229471787
30
0
41
1
10
25.8361222629858
20
10.5116223168035
30
0
41
1
10
25.8537629549887
20
10.4829656083027
30
0
41
1
10
25.8625221338986
20
10.4665433368411
30
0
41
1
10
25.8783155344227
20
10.4329572981364
30
0
41
1
10
25.8853749907992
20
10.4157362021676
30
0
41
1
10
25.8973331997376
20
10.3823332128354
30
0
41
1
10
25.9023799683976
20
10.3661595601814
30
0
41
1
10
25.9067654450511
20
10.3498315160771
30
0
0
SPLINE
5
1CB
100
AcDbEntity
8
1
62
256
6
ByLayer
370
18
48
1
60
0
100
AcDbSpline
70
4
71
3
72
24
73
20
40
0
40
0
40
0
40
0
40
0.0326306310995271
40
0.0326306310995271
40
0.117553142431075
40
0.117553142431075
40
0.201978401427742
40
0.201978401427742
40
0.30246158035521
40
0.30246158035521
40
0.481549821443518
40
0.481549821443518
40
0.59533833072026
40
0.59533833072026
40
0.734432205985676
40
0.734432205985676
40
0.873415296544314
40
0.873415296544314
40
1
40
1
40
1
40
1
41
1
10
23.6638193515784
20
9.44345608505034
30
0
41
1
10
23.6605614143278
20
9.4412794171633
30
0
41
1
10
23.6571499641789
20
9.43932612985196
30
0
41
1
10
23.6445444112626
20
9.43331788254615
30
0
41
1
10
23.6344215233561
20
9.43075980461299
30
0
41
1
10
23.6139930312903
20
9.42986479184401
30
0
41
1
10
23.6034353596158
20
9.43146687627581
30
0
41
1
10
23.581365019132
20
9.43840208669187
30
0
41
1
10
23.5697388004005
20
9.44441135766461
30
0
41
1
10
23.539928432811
20
9.46445881180517
30
0
41
1
10
23.5229833487087
20
9.48133533503102
30
0
41
1
10
23.4986798850369
20
9.51120424227756
30
0
41
1
10
23.4899501141454
20
9.52357419495657
30
0
41
1
10
23.4720677121248
20
9.5519891934397
30
0
41
1
10
23.4632077557835
20
9.56831068746985
30
0
41
1
10
23.4472600240662
20
9.60174239498139
30
0
41
1
10
23.4401468875679
20
9.61890981082833
30
0
41
1
10
23.4281231207705
20
9.65224724230153
30
0
41
1
10
23.4230611810642
20
9.66840572390932
30
0
41
1
10
23.4186757044107
20
9.68473376801366
30
0
0
SPLINE
5
1CC
100
AcDbEntity
8
1
62
256
6
ByLayer
370
18
48
1
60
0
100
AcDbSpline
70
4
71
3
72
30
73
26
40
0
40
0
40
0
40
0
40
0.0731516303290972
40
0.0731516303290972
40
0.127640113017745
40
0.127640113017745
40
0.198501446431192
40
0.198501446431192
40
0.288087313629963
40
0.288087313629963
40
0.392987181312046
40
0.392987181312046
40
0.499975727383412
40
0.499975727383412
40
0.616570966619528
40
0.616570966619528
40
0.698052559450442
40
0.698052559450442
40
0.779608256901217
40
0.779608256901217
40
0.861351620619443
40
0.861351620619443
40
0.922735899655407
40
0.922735899655407
40
1
40
1
40
1
40
1
41
1
10
24.0941532419759
20
9.03817753489871
30
0
41
1
10
24.0978807271795
20
9.05220862936564
30
0
41
1
10
24.0987570608504
20
9.06724435480436
30
0
41
1
10
24.0969879684904
20
9.09328601211755
30
0
41
1
10
24.0951686152911
20
9.10451769458427
30
0
41
1
10
24.0891936463427
20
9.13007689752834
30
0
41
1
10
24.0844791611516
20
9.14443239849514
30
0
41
1
10
24.0716586996811
20
9.17627262451657
30
0
41
1
10
24.0629313086697
20
9.19372159390583
30
0
41
1
10
24.0415750131814
20
9.2304139327351
30
0
41
1
10
24.0284430625277
20
9.24960609401661
30
0
41
1
10
23.9995719447529
20
9.28662556152457
30
0
41
1
10
23.9836825478526
20
9.3045450014133
30
0
41
1
10
23.9484808946376
20
9.33974665462841
30
0
41
1
10
23.9288542604456
20
9.35696592717171
30
0
41
1
10
23.8939666866209
20
9.38353647344017
30
0
41
1
10
23.8790931655603
20
9.39375101670339
30
0
41
1
10
23.8485778466443
20
9.41230844305838
30
0
41
1
10
23.8328629122943
20
9.42069708599995
30
0
41
1
10
23.8008080064351
20
9.4350755282958
30
0
41
1
10
23.7843574133769
20
9.4411159543529
30
0
41
1
10
23.7552813818714
20
9.44874697049585
30
0
41
1
10
23.7426350493584
20
9.45109020088702
30
0
41
1
10
23.7143490338123
20
9.45340899600328
30
0
41
1
10
23.6984238803337
20
9.45264929601841
30
0
41
1
10
23.6836154675843
20
9.44871530929038
30
0
0
SPLINE
5
1CD
100
AcDbEntity
8
1
62
256
6
ByLayer
370
18
48
1
60
0
100
AcDbSpline
70
4
71
3
72
8
73
4
40
0
40
0
40
0
40
0
40
1
40
1
40
1
40
1
41
1
10
25.2421765754352
20
11.0218133089071
30
0
41
1
10
25.240697703244
20
11.0154895862372
30
0
41
1
10
25.2392185048979
20
11.0091647703211
30
0
41
1
10
25.2377389636374
20
11.0028388053435
30
0
0
SPLINE
5
1CE
100
AcDbEntity
8
1
62
256
6
ByLayer
370
18
48
1
60
0
100
AcDbSpline
70
4
71
3
72
24
73
20
40
0
40
0
40
0
40
0
40
0.0326306310995577
40
0.0326306310995577
40
0.117553142431089
40
0.117553142431089
40
0.201978401427762
40
0.201978401427762
40
0.302461580355236
40
0.302461580355236
40
0.48154982144355
40
0.48154982144355
40
0.595338330720292
40
0.595338330720292
40
0.7344322059857
40
0.7344322059857
40
0.873415296544339
40
0.873415296544339
40
1
40
1
40
1
40
1
41
1
10
23.6641011480294
20
10.5999738567772
30
0
41
1
10
23.6606131005831
20
10.6015984590936
30
0
41
1
10
23.6572417310099
20
10.6034668249248
30
0
41
1
10
23.6458269464526
20
10.610990937645
30
0
41
1
10
23.6386147847605
20
10.6181961741103
30
0
41
1
10
23.6277401939651
20
10.6349237321232
30
0
41
1
10
23.6239005628171
20
10.6446267023378
30
0
41
1
10
23.6189677211636
20
10.6667435946069
30
0
41
1
10
23.6184017152411
20
10.6795985029286
30
0
41
1
10
23.6209552298258
20
10.7149217203953
30
0
41
1
10
23.6271382842462
20
10.737790650613
30
0
41
1
10
23.6409006774578
20
10.7734550974569
30
0
41
1
10
23.6472621205769
20
10.7870962606387
30
0
41
1
10
23.6629521944502
20
10.8165914065261
30
0
41
1
10
23.6726650387428
20
10.8323368312894
30
0
41
1
10
23.6936533037102
20
10.8627186310507
30
0
41
1
10
23.7049655756522
20
10.8774054163101
30
0
41
1
10
23.7278225385416
20
10.9044026195893
30
0
41
1
10
23.7392820109916
20
10.9168360708831
30
0
41
1
10
23.7512245784424
20
10.9287786383339
30
0
0
SPLINE
5
1CF
100
AcDbEntity
8
1
62
256
6
ByLayer
370
18
48
1
60
0
100
AcDbSpline
70
4
71
3
72
30
73
26
40
0
40
0
40
0
40
0
40
0.0731516303290978
40
0.0731516303290978
40
0.12764011301774
40
0.12764011301774
40
0.19850144643118
40
0.19850144643118
40
0.288087313629957
40
0.288087313629957
40
0.392987181312054
40
0.392987181312054
40
0.499975727383419
40
0.499975727383419
40
0.616570966619538
40
0.616570966619538
40
0.69805255945043
40
0.69805255945043
40
0.779608256901217
40
0.779608256901217
40
0.86135162061943
40
0.86135162061943
40
0.922735899655407
40
0.922735899655407
40
1
40
1
40
1
40
1
41
1
10
24.1004393457718
20
11.0080277832721
30
0
41
1
10
24.1109154496008
20
10.9984562672986
30
0
41
1
10
24.1236760560112
20
10.9908215207117
30
0
41
1
10
24.1473919912277
20
10.9803520451297
30
0
41
1
10
24.158139541373
20
10.9767215827127
30
0
41
1
10
24.1834964718053
20
10.9699899247468
30
0
41
1
10
24.1984043534222
20
10.9673418615705
30
0
41
1
10
24.2326245498448
20
10.9634247228905
30
0
41
1
10
24.252209032849
20
10.9626861568776
30
0
41
1
10
24.2948531097356
20
10.9635949471495
30
0
41
1
10
24.3181123486045
20
10.9656776834332
30
0
41
1
10
24.3646925044875
20
10.9725725124364
30
0
41
1
10
24.388167342064
20
10.9774655163671
30
0
41
1
10
24.4362119152572
20
10.9903084363453
30
0
41
1
10
24.4608782762206
20
10.9985409015857
30
0
41
1
10
24.5011702216414
20
11.0149842374771
30
0
41
1
10
24.5173680014034
20
11.0224936359075
30
0
41
1
10
24.5484919596959
20
11.0389889395353
30
0
41
1
10
24.5634938425185
20
11.0480137285543
30
0
41
1
10
24.5916983395573
20
11.0676812425346
30
0
41
1
10
24.6049991361212
20
11.0783912486873
30
0
41
1
10
24.6258436776745
20
11.098746202487
30
0
41
1
10
24.6340560975498
20
11.1080561466023
30
0
41
1
10
24.6498717272939
20
11.1302609587074
30
0
41
1
10
24.6569717658102
20
11.1437386032173
30
0
41
1
10
24.6607571248781
20
11.1578077879867
30
0
0
SPLINE
5
1D0
100
AcDbEntity
8
1
62
256
6
ByLayer
370
18
48
1
60
0
100
AcDbSpline
70
4
71
3
72
24
73
20
40
0
40
0
40
0
40
0
40
0.0123549879048169
40
0.0123549879048169
40
0.151242783424373
40
0.151242783424373
40
0.290190191244913
40
0.290190191244913
40
0.429295899364686
40
0.429295899364686
40
0.568831308545148
40
0.568831308545148
40
0.72521791293386
40
0.72521791293386
40
0.826429454769128
40
0.826429454769128
40
0.90835240970112
40
0.90835240970112
40
1
40
1
40
1
40
1
41
1
10
24.9952694487626
20
11.2613275123656
30
0
41
1
10
24.996865318049
20
11.2608988849407
30
0
41
1
10
24.9984595712101
20
11.2604639556441
30
0
41
1
10
25.0179380484836
20
11.2550675239896
30
0
41
1
10
25.0356334327568
20
11.2493169578386
30
0
41
1
10
25.0703846573487
20
11.236231387803
30
0
41
1
10
25.0874863913543
20
11.2288797634251
30
0
41
1
10
25.1207760843926
20
11.2124700646449
30
0
41
1
10
25.1370252190647
20
11.2033833855209
30
0
41
1
10
25.1681111994931
20
11.1832497935037
30
0
41
1
10
25.1830492804767
20
11.1721382231996
30
0
41
1
10
25.2119368392851
20
11.1462082401849
30
0
41
1
10
25.2258893121065
20
11.1308252777483
30
0
41
1
10
25.2430758535568
20
11.1030820698792
30
0
41
1
10
25.2484301795828
20
11.0913074436171
30
0
41
1
10
25.2535766542107
20
11.0698276479333
30
0
41
1
10
25.2542367349587
20
11.0599383136219
30
0
41
1
10
25.2515834404214
20
11.040280659995
30
0
41
1
10
25.2477468993986
20
11.0303740073524
30
0
41
1
10
25.2421765754352
20
11.0218133089071
30
0
0
SPLINE
5
1D1
100
AcDbEntity
8
1
62
256
6
ByLayer
370
18
48
1
60
0
100
AcDbSpline
70
4
71
3
72
24
73
20
40
0
40
0
40
0
40
0
40
0.0326306310995508
40
0.0326306310995508
40
0.117553142431085
40
0.117553142431085
40
0.201978401427755
40
0.201978401427755
40
0.302461580355248
40
0.302461580355248
40
0.481549821443569
40
0.481549821443569
40
0.59533833072032
40
0.59533833072032
40
0.734432205985714
40
0.734432205985714
40
0.8734152965444
40
0.8734152965444
40
1
40
1
40
1
40
1
41
1
10
24.6658170930365
20
11.1766151356268
30
0
41
1
10
24.6655057168555
20
11.1803351398448
30
0
41
1
10
24.6654640869908
20
11.1840750825471
30
0
41
1
10
24.6663654794319
20
11.197318066655
30
0
41
1
10
24.6690674240805
20
11.2068725994878
30
0
41
1
10
24.6782427391511
20
11.22411658407
30
0
41
1
10
24.684785686574
20
11.2320423767492
30
0
41
1
10
24.7015896825859
20
11.2468905557837
30
0
41
1
10
24.7124954203983
20
11.2535817181362
30
0
41
1
10
24.7444985252934
20
11.2684967041832
30
0
41
1
10
24.767462699185
20
11.274325146544
30
0
41
1
10
24.8053223198346
20
11.2799144499075
30
0
41
1
10
24.8203481949971
20
11.2811203215622
30
0
41
1
10
24.8537998158822
20
11.2820796139576
30
0
41
1
10
24.8723222278003
20
11.281453155975
30
0
41
1
10
24.9091810588885
20
11.2783260826282
30
0
41
1
10
24.9275796272678
20
11.2758186119797
30
0
41
1
10
24.9624275780252
20
11.2694456048562
30
0
41
1
10
24.9789414046583
20
11.2657129890191
30
0
41
1
10
24.9952694487626
20
11.2613275123656
30
0
0
SPLINE
5
1D2
100
AcDbEntity
8
1
62
256
6
ByLayer
370
18
48
1
60
0
100
AcDbSpline
70
4
71
3
72
26
73
22
40
0
40
0
40
0
40
0
40
0.0730716206547973
40
0.0730716206547973
40
0.127500506506964
40
0.127500506506964
40
0.1982843352607
40
0.1982843352607
40
0.287772217821579
40
0.287772217821579
40
0.392557351160013
40
0.392557351160013
40
0.499428878394061
40
0.499428878394061
40
0.604936849449964
40
0.604936849449964
40
0.798608262357551
40
0.798608262357551
40
0.923181377188909
40
0.923181377188909
40
1
40
1
40
1
40
1
41
1
10
25.6534657159577
20
9.45500141308627
30
0
41
1
10
25.6438941999841
20
9.46547751691523
30
0
41
1
10
25.6362594533973
20
9.47823812332567
30
0
41
1
10
25.6257899778152
20
9.50195405854221
30
0
41
1
10
25.6221595153983
20
9.51270160868745
30
0
41
1
10
25.6154278574324
20
9.53805853911969
30
0
41
1
10
25.6127797942561
20
9.55296642073662
30
0
41
1
10
25.6088626555761
20
9.58718661715935
30
0
41
1
10
25.6081240895619
20
9.6067711001641
30
0
41
1
10
25.6090328798338
20
9.6494151770507
30
0
41
1
10
25.6111156161188
20
9.67267441591912
30
0
41
1
10
25.618010445122
20
9.71925457180197
30
0
41
1
10
25.6229034490527
20
9.74272940937841
30
0
41
1
10
25.6351204205953
20
9.78843234799986
30
0
41
1
10
25.6424514271497
20
9.81081679205307
30
0
41
1
10
25.6664608214283
20
9.8717973957105
30
0
41
1
10
25.6861359373952
20
9.90953337284995
30
0
41
1
10
25.7257072456661
20
9.96249181557232
30
0
41
1
10
25.7434250766025
20
9.98144640328346
30
0
41
1
10
25.7756988913929
20
10.0044337946083
30
0
41
1
10
25.7891765359029
20
10.0115338331246
30
0
41
1
10
25.8032457206723
20
10.0153191921925
30
0
0
SPLINE
5
1D3
100
AcDbEntity
8
1
62
256
6
ByLayer
370
18
48
1
60
0
100
AcDbSpline
70
4
71
3
72
8
73
4
40
0
40
0
40
0
40
0
40
1
40
1
40
1
40
1
41
1
10
24.0888940177359
20
9.01838141889287
30
0
41
1
10
24.0906469038517
20
9.0249791554875
30
0
41
1
10
24.0923999755006
20
9.03157784470623
30
0
41
1
10
24.0941532419759
20
9.03817753489871
30
0
0
SPLINE
5
1D4
100
AcDbEntity
8
1
62
256
6
ByLayer
370
18
48
1
60
0
100
AcDbSpline
70
4
71
3
72
8
73
4
40
0
40
0
40
0
40
0
40
1
40
1
40
1
40
1
41
1
10
23.6836154675843
20
9.44871530929036
30
0
41
1
10
23.6770157773918
20
9.44696204281504
30
0
41
1
10
23.6704170881731
20
9.44520897116615
30
0
41
1
10
23.6638193515784
20
9.44345608505034
30
0
0
SPLINE
5
1D5
100
AcDbEntity
8
1
62
256
6
ByLayer
370
18
48
1
60
0
100
AcDbSpline
70
4
71
3
72
8
73
4
40
0
40
0
40
0
40
0
40
1
40
1
40
1
40
1
41
1
10
23.6784264896556
20
10.586014927156
30
0
41
1
10
23.6736506894069
20
10.5906687605046
30
0
41
1
10
23.6688755867486
20
10.5953217229316
30
0
41
1
10
23.6641011480294
20
10.5999738567772
30
0
0
SPLINE
5
1D6
100
AcDbEntity
8
1
62
256
6
ByLayer
370
18
48
1
60
0
100
AcDbSpline
70
4
71
3
72
24
73
20
40
0
40
0
40
0
40
0
40
0.0123549879047337
40
0.0123549879047337
40
0.151242783424281
40
0.151242783424281
40
0.290190191244855
40
0.290190191244855
40
0.429295899364622
40
0.429295899364622
40
0.568831308545122
40
0.568831308545122
40
0.72521791293385
40
0.72521791293385
40
0.826429454769124
40
0.826429454769124
40
0.908352409701125
40
0.908352409701125
40
1
40
1
40
1
40
1
41
1
10
24.3301717006992
20
8.77323777172514
30
0
41
1
10
24.3285758314128
20
8.77366639915002
30
0
41
1
10
24.3269817244869
20
8.7741014746819
30
0
41
1
10
24.3075068254079
20
8.77950148453088
30
0
41
1
10
24.289832983195
20
8.78527359274203
30
0
41
1
10
24.2551645027663
20
8.79844190694094
30
0
41
1
10
24.2381240217932
20
8.80585478435133
30
0
41
1
10
24.2050061400917
20
8.82243629446829
30
0
41
1
10
24.1888677300994
20
8.83163369827204
30
0
41
1
10
24.1580723752848
20
8.85205791590302
30
0
41
1
10
24.1433148678658
20
8.86335005977178
30
0
41
1
10
24.1149220996334
20
8.88977483336259
30
0
41
1
10
24.1013014365485
20
8.90548960553564
30
0
41
1
10
24.0848465779906
20
8.93396449629707
30
0
41
1
10
24.0798356022031
20
8.94608247279778
30
0
41
1
10
24.0754070272429
20
8.96828016814908
30
0
41
1
10
24.0751116062288
20
8.97853416219451
30
0
41
1
10
24.0785751885024
20
8.99900210355769
30
0
41
1
10
24.0828741929594
20
9.00937121963447
30
0
41
1
10
24.0888940177359
20
9.01838141889286
30
0
0
SPLINE
5
1D7
100
AcDbEntity
8
1
62
256
6
ByLayer
370
18
48
1
60
0
100
AcDbSpline
70
4
71
3
72
8
73
4
40
0
40
0
40
0
40
0
40
1
40
1
40
1
40
1
41
1
10
24.0856588037083
20
11.0215315124561
30
0
41
1
10
24.0905849514786
20
11.0170310876616
30
0
41
1
10
24.0955117872083
20
11.012529858306
30
0
41
1
10
24.1004393457718
20
11.0080277832721
30
0
0
SPLINE
5
1D8
100
AcDbEntity
8
1
62
256
6
ByLayer
370
18
48
1
60
0
100
AcDbSpline
70
4
71
3
72
24
73
20
40
0
40
0
40
0
40
0
40
0.0326306310995346
40
0.0326306310995346
40
0.117553142431049
40
0.117553142431049
40
0.201978401427734
40
0.201978401427734
40
0.302461580355198
40
0.302461580355198
40
0.48154982144349
40
0.48154982144349
40
0.595338330720251
40
0.595338330720251
40
0.73443220598563
40
0.73443220598563
40
0.873415296544275
40
0.873415296544275
40
1
40
1
40
1
40
1
41
1
10
24.6652535001345
20
8.86357959217311
30
0
41
1
10
24.6654023443448
20
8.85969705598428
30
0
41
1
10
24.6652805533288
20
8.85579369240145
30
0
41
1
10
24.6638004090517
20
8.84197195645734
30
0
41
1
10
24.6606809012717
20
8.83199986049327
30
0
41
1
10
24.6507484138016
20
8.81399870351156
30
0
41
1
10
24.6438552801716
20
8.80572272462523
30
0
41
1
10
24.6263842785225
20
8.7902075399536
30
0
41
1
10
24.6151695907172
20
8.78320742760818
30
0
41
1
10
24.5824449312638
20
8.76757088700288
30
0
41
1
10
24.5591528281101
20
8.76141451537997
30
0
41
1
10
24.5208807349927
20
8.75541273954876
30
0
41
1
10
24.5057241821341
20
8.75407619019789
30
0
41
1
10
24.4720308512313
20
8.75287518778482
30
0
41
1
10
24.4534076618818
20
8.75340086833597
30
0
41
1
10
24.4163944996005
20
8.7563736104896
30
0
41
1
10
24.3979422510993
20
8.75882740101623
30
0
41
1
10
24.3630287424829
20
8.76513485028072
30
0
41
1
10
24.3464997448035
20
8.76885229507158
30
0
41
1
10
24.3301717006992
20
8.77323777172514
30
0
0
SPLINE
5
1D9
100
AcDbEntity
8
1
62
256
6
ByLayer
370
18
48
1
60
0
100
AcDbSpline
70
4
71
3
72
8
73
4
40
0
40
0
40
0
40
0
40
1
40
1
40
1
40
1
41
1
10
24.6607571248781
20
11.1578077879867
30
0
41
1
10
24.6624441522144
20
11.1640780252032
30
0
41
1
10
24.6641308021234
20
11.1703471226278
30
0
41
1
10
24.6658170930365
20
11.1766151356268
30
0
0
SPLINE
5
1DA
100
AcDbEntity
8
1
62
256
6
ByLayer
370
18
48
1
60
0
100
AcDbSpline
70
4
71
3
72
8
73
4
40
0
40
0
40
0
40
0
40
1
40
1
40
1
40
1
41
1
10
25.2314528598415
20
9.03298855697012
30
0
41
1
10
25.2361066931901
20
9.02821275672136
30
0
41
1
10
25.2407596556172
20
9.02343765406305
30
0
41
1
10
25.2454117894628
20
9.01866321534388
30
0
0
SPLINE
5
1DB
100
AcDbEntity
8
1
62
256
6
ByLayer
370
18
48
1
60
0
100
AcDbSpline
70
4
71
3
72
30
73
26
40
0
40
0
40
0
40
0
40
0.073151630329101
40
0.073151630329101
40
0.127640113017754
40
0.127640113017754
40
0.198501446431196
40
0.198501446431196
40
0.288087313629964
40
0.288087313629964
40
0.392987181312049
40
0.392987181312049
40
0.499975727383412
40
0.499975727383412
40
0.616570966619526
40
0.616570966619526
40
0.698052559450431
40
0.698052559450431
40
0.779608256901215
40
0.779608256901215
40
0.861351620619426
40
0.861351620619426
40
0.922735899655398
40
0.922735899655398
40
1
40
1
40
1
40
1
41
1
10
23.5286464849411
20
10.0256971480497
30
0
41
1
10
23.5425591008949
20
10.0298657534644
30
0
41
1
10
23.55591727378
20
10.03698796512
30
0
41
1
10
23.577420472037
20
10.0521165022516
30
0
41
1
10
23.5861699310989
20
10.0595389844174
30
0
41
1
10
23.6051700852184
20
10.0779847220312
30
0
41
1
10
23.6151675259021
20
10.0894962040796
30
0
41
1
10
23.6361710421939
20
10.1170230727606
30
0
41
1
10
23.64683867395
20
10.1335440159004
30
0
41
1
10
23.6677870579068
20
10.1708057475599
30
0
41
1
10
23.6777753652894
20
10.1919416642927
30
0
41
1
10
23.6952962561385
20
10.2356678135447
30
0
41
1
10
23.7028338042319
20
10.2584323647812
30
0
41
1
10
23.71567672421
20
10.3064769379745
30
0
41
1
10
23.7207733226581
20
10.3319855474349
30
0
41
1
10
23.7263692221513
20
10.3751909574918
30
0
41
1
10
23.727799959446
20
10.3930213777787
30
0
41
1
10
23.728675160833
20
10.4283406697721
30
0
41
1
10
23.7281228348398
20
10.4459148272668
30
0
41
1
10
23.7246469493761
20
10.4803353068997
30
0
41
1
10
23.7217122799002
20
10.4973008661278
30
0
41
1
10
23.7139036839636
20
10.5257097300862
30
0
41
1
10
23.7096673509454
20
10.5375604842121
30
0
41
1
10
23.697674094584
20
10.562561220874
30
0
41
1
10
23.6891424504402
20
10.5755726362176
30
0
41
1
10
23.6784264896556
20
10.586014927156
30
0
0
SPLINE
5
1DC
100
AcDbEntity
8
1
62
256
6
ByLayer
370
18
48
1
60
0
100
AcDbSpline
70
4
71
3
72
24
73
20
40
0
40
0
40
0
40
0
40
0.0123549879047509
40
0.0123549879047509
40
0.151242783424309
40
0.151242783424309
40
0.290190191244868
40
0.290190191244868
40
0.429295899364641
40
0.429295899364641
40
0.568831308545112
40
0.568831308545112
40
0.725217912933831
40
0.725217912933831
40
0.826429454769105
40
0.826429454769105
40
0.908352409701109
40
0.908352409701109
40
1
40
1
40
1
40
1
41
1
10
23.4186757044107
20
9.68473376801366
30
0
41
1
10
23.4182470769858
20
9.68632963730009
30
0
41
1
10
23.4178248902143
20
9.68792729669875
30
0
41
1
10
23.4127402040066
20
9.70748910745947
30
0
41
1
10
23.4088771339438
20
9.72568904322736
30
0
41
1
10
23.4028906318846
20
9.76233793816749
30
0
41
1
10
23.4007586526014
20
9.78083494909643
30
0
41
1
10
23.3984888553099
20
9.81790441602477
30
0
41
1
10
23.3983453461873
20
9.83654417275982
30
0
41
1
10
23.400545641069
20
9.87360028265714
30
0
41
1
10
23.4028954983688
20
9.89213677290985
30
0
41
1
10
23.4114590927065
20
9.93024489970868
30
0
41
1
10
23.4181810664248
20
9.95010630057941
30
0
41
1
10
23.4344597540677
20
9.97906044956093
30
0
41
1
10
23.4423797586503
20
9.98967939864693
30
0
41
1
10
23.4592521862675
20
10.0050779059624
30
0
41
1
10
23.4679173985218
20
10.0106978508727
30
0
41
1
10
23.4872303026553
20
10.0184618776176
30
0
41
1
10
23.4982799255748
20
10.0202272131897
30
0
41
1
10
23.5090175248587
20
10.019815567449
30
0
0
SPLINE
5
1DD
100
AcDbEntity
8
1
62
256
6
ByLayer
370
18
48
1
60
0
100
AcDbSpline
70
4
71
3
72
8
73
4
40
0
40
0
40
0
40
0
40
1
40
1
40
1
40
1
41
1
10
23.5090175248587
20
10.019815567449
30
0
41
1
10
23.5155595517824
20
10.0217758722868
30
0
41
1
10
23.5221025225097
20
10.0237363954986
30
0
41
1
10
23.5286464849411
20
10.0256971480497
30
0
0
SPLINE
5
1DE
100
AcDbEntity
8
1
62
256
6
ByLayer
370
18
48
1
60
0
100
AcDbSpline
70
4
71
3
72
24
73
20
40
0
40
0
40
0
40
0
40
0.0123549879042258
40
0.0123549879042258
40
0.151242783423847
40
0.151242783423847
40
0.290190191244496
40
0.290190191244496
40
0.429295899364335
40
0.429295899364335
40
0.568831308544889
40
0.568831308544889
40
0.725217912933793
40
0.725217912933793
40
0.826429454769066
40
0.826429454769066
40
0.908352409701094
40
0.908352409701094
40
1
40
1
40
1
40
1
41
1
10
25.5742165710194
20
9.10578664575684
30
0
41
1
10
25.5753838128809
20
9.10695388761833
30
0
41
1
10
25.5765464698653
20
9.1081258808902
30
0
41
1
10
25.5907100598743
20
9.12251788285872
30
0
41
1
10
25.6031486584611
20
9.136339426039
30
0
41
1
10
25.6266706112839
20
9.16506277649013
30
0
41
1
10
25.6377853713191
20
9.18000190469611
30
0
41
1
10
25.6583592337989
20
9.21093589477442
30
0
41
1
10
25.6678569490697
20
9.2269861579843
30
0
41
1
10
25.684634154143
20
9.26012712048757
30
0
41
1
10
25.6919687873093
20
9.2773247719886
30
0
41
1
10
25.7038995358054
20
9.31452852984678
30
0
41
1
10
25.7082120693717
20
9.33503707151803
30
0
41
1
10
25.7090571690381
20
9.36813645916502
30
0
41
1
10
25.7077298167421
20
9.38123911465453
30
0
41
1
10
25.70128957854
20
9.40289906706589
30
0
41
1
10
25.6968378592719
20
9.41204203020115
30
0
41
1
10
25.6845390885218
20
9.42829649592917
30
0
41
1
10
25.6761665397343
20
9.43527834610887
30
0
41
1
10
25.6669694451416
20
9.44022087102275
30
0
0
SPLINE
5
1DF
100
AcDbEntity
8
1
62
256
6
ByLayer
370
18
48
1
60
0
100
AcDbSpline
70
4
71
3
72
8
73
4
40
0
40
0
40
0
40
0
40
1
40
1
40
1
40
1
41
1
10
25.6482767380291
20
10.5923010309519
30
0
41
1
10
25.6546027030067
20
10.5937805722123
30
0
41
1
10
25.6609275189227
20
10.5952597705585
30
0
41
1
10
25.6672512415926
20
10.5967386427496
30
0
0
SPLINE
5
1E0
100
AcDbEntity
8
1
62
256
6
ByLayer
370
18
48
1
60
0
100
AcDbSpline
70
4
71
3
72
24
73
20
40
0
40
0
40
0
40
0
40
0.0676493293735809
40
0.0676493293735809
40
0.159384638229061
40
0.159384638229061
40
0.249996338980214
40
0.249996338980214
40
0.393594621722454
40
0.393594621722454
40
0.481733396220453
40
0.481733396220453
40
0.595481614835969
40
0.595481614835969
40
0.734526239222177
40
0.734526239222177
40
0.87346011812867
40
0.87346011812867
40
1
40
1
40
1
40
1
41
1
10
25.2454117894628
20
9.01866321534388
30
0
41
1
10
25.2487535227478
20
9.01148845993836
30
0
41
1
10
25.2531716486002
20
9.00477689401585
30
0
41
1
10
25.2658018447937
20
8.99123860566633
30
0
41
1
10
25.2750555451998
20
8.98500846195006
30
0
41
1
10
25.2952655172827
20
8.97674091533216
30
0
41
1
10
25.3064398341119
20
8.97448347363293
30
0
41
1
10
25.3355454690786
20
8.97259751287098
30
0
41
1
10
25.3541454781973
20
8.97507681368865
30
0
41
1
10
25.3831879847002
20
8.98234537269813
30
0
41
1
10
25.3941848459945
20
8.98592821456415
30
0
41
1
10
25.4188930301423
20
8.99546274477223
30
0
41
1
10
25.4325341933249
20
9.00182418789031
30
0
41
1
10
25.4620293392122
20
9.01751426176364
30
0
41
1
10
25.4777747639747
20
9.02722710605701
30
0
41
1
10
25.5081565637361
20
9.0482153710245
30
0
41
1
10
25.5228433489954
20
9.05952764296649
30
0
41
1
10
25.5498405522747
20
9.08238460585595
30
0
41
1
10
25.5622740035686
20
9.09384407830599
30
0
41
1
10
25.5742165710194
20
9.10578664575684
30
0
0
SPLINE
5
1E1
100
AcDbEntity
8
1
62
256
6
ByLayer
370
18
48
1
60
0
100
AcDbSpline
70
4
71
3
72
24
73
20
40
0
40
0
40
0
40
0
40
0.0123549879047853
40
0.0123549879047853
40
0.151242783424344
40
0.151242783424344
40
0.290190191244896
40
0.290190191244896
40
0.429295899364673
40
0.429295899364673
40
0.568831308545112
40
0.568831308545112
40
0.725217912933855
40
0.725217912933855
40
0.826429454769128
40
0.826429454769128
40
0.908352409701116
40
0.908352409701116
40
1
40
1
40
1
40
1
41
1
10
23.7512245784424
20
10.9287786383339
30
0
41
1
10
23.752391820304
20
10.9299458801954
30
0
41
1
10
23.7535638135758
20
10.9311085371798
30
0
41
1
10
23.7679558155444
20
10.9452721271888
30
0
41
1
10
23.7817773587247
20
10.9577107257756
30
0
41
1
10
23.8105007091758
20
10.9812326785985
30
0
41
1
10
23.825439837382
20
10.9923474386334
30
0
41
1
10
23.8563738274603
20
11.0129213011131
30
0
41
1
10
23.8724240906699
20
11.0224190163843
30
0
41
1
10
23.9055650531732
20
11.0391962214575
30
0
41
1
10
23.9227627046742
20
11.0465308546238
30
0
41
1
10
23.9599664625324
20
11.0584616031198
30
0
41
1
10
23.9804750042039
20
11.0627741366857
30
0
41
1
10
24.0135743918508
20
11.063619236352
30
0
41
1
10
24.0266770473401
20
11.0622918840566
30
0
41
1
10
24.0483369997514
20
11.0558516458545
30
0
41
1
10
24.0574799628867
20
11.0513999265864
30
0
41
1
10
24.0737344286147
20
11.0391011558362
30
0
41
1
10
24.0807162787944
20
11.0307286070487
30
0
41
1
10
24.0856588037083
20
11.0215315124561
30
0
0
SPLINE
5
1E2
100
AcDbEntity
8
1
62
256
6
ByLayer
370
18
48
1
60
0
100
AcDbSpline
70
4
71
3
72
8
73
4
40
0
40
0
40
0
40
0
40
1
40
1
40
1
40
1
41
1
10
25.6669694451416
20
9.44022087102275
30
0
41
1
10
25.6624690203471
20
9.44514701879307
30
0
41
1
10
25.6579677909916
20
9.45007385452283
30
0
41
1
10
25.6534657159577
20
9.45500141308628
30
0
0
SPLINE
5
1E3
100
AcDbEntity
8
1
62
256
6
ByLayer
370
18
48
1
60
0
100
AcDbSpline
70
4
71
3
72
28
73
24
40
0
40
0
40
0
40
0
40
0.0417993175312451
40
0.0417993175312451
40
0.137048642082464
40
0.137048642082464
40
0.282701202314534
40
0.282701202314534
40
0.500820647890281
40
0.500820647890281
40
0.5689961788491
40
0.5689961788491
40
0.636462816298005
40
0.636462816298005
40
0.739245998519942
40
0.739245998519942
40
0.800334823817859
40
0.800334823817859
40
0.861495319660266
40
0.861495319660266
40
0.922815978320291
40
0.922815978320291
40
1
40
1
40
1
40
1
41
1
10
24.6711350807353
20
8.88320855225551
30
0
41
1
10
24.6735475059448
20
8.89125996084867
30
0
41
1
10
24.6769502526141
20
8.89912396880084
30
0
41
1
10
24.6902681426184
20
8.92368507426089
30
0
41
1
10
24.7030907222966
20
8.93937257077916
30
0
41
1
10
24.7394006215399
20
8.97502233295825
30
0
41
1
10
24.7655695431184
20
8.99359093850762
30
0
41
1
10
24.8344591001157
20
9.03295768087976
30
0
41
1
10
24.8803989073914
20
9.051121673141
30
0
41
1
10
24.9415690666435
20
9.06747322771022
30
0
41
1
10
24.9564153709588
20
9.07084774486086
30
0
41
1
10
24.9860194738697
20
9.07638418926723
30
0
41
1
10
25.0008149788844
20
9.07856575291552
30
0
41
1
10
25.0380018917102
20
9.08249470929077
30
0
41
1
10
25.0604701238416
20
9.08344482182498
30
0
41
1
10
25.0956302850643
20
9.08223763172714
30
0
41
1
10
25.1086496291016
20
9.08117861544901
30
0
41
1
10
25.1342027335167
20
9.07764388015893
30
0
41
1
10
25.1467892491257
20
9.0751610211109
30
0
41
1
10
25.171147662771
20
9.06846575127935
30
0
41
1
10
25.1829984168977
20
9.06422941825988
30
0
41
1
10
25.2079991535596
20
9.05223616189842
30
0
41
1
10
25.2210105689031
20
9.04370451775465
30
0
41
1
10
25.2314528598415
20
9.03298855697011
30
0
0
SPLINE
5
1E4
100
AcDbEntity
8
1
62
256
6
ByLayer
370
18
48
1
60
0
100
AcDbSpline
70
4
71
3
72
8
73
4
40
0
40
0
40
0
40
0
40
1
40
1
40
1
40
1
41
1
10
25.8220530683124
20
10.020379160351
30
0
41
1
10
25.8157850553133
20
10.0186928694379
30
0
41
1
10
25.8095159578888
20
10.0170062195288
30
0
41
1
10
25.8032457206723
20
10.0153191921925
30
0
0
SPLINE
5
1E5
100
AcDbEntity
8
1
62
256
6
ByLayer
370
18
48
1
60
0
100
AcDbSpline
70
4
71
3
72
30
73
26
40
0
40
0
40
0
40
0
40
0.0731516303290928
40
0.0731516303290928
40
0.127640113017744
40
0.127640113017744
40
0.198501446431191
40
0.198501446431191
40
0.288087313629965
40
0.288087313629965
40
0.392987181312046
40
0.392987181312046
40
0.499975727383416
40
0.499975727383416
40
0.616570966619541
40
0.616570966619541
40
0.698052559450435
40
0.698052559450435
40
0.779608256901233
40
0.779608256901233
40
0.861351620619445
40
0.861351620619445
40
0.922735899655407
40
0.922735899655407
40
1
40
1
40
1
40
1
41
1
10
25.2377389636374
20
11.0028388053435
30
0
41
1
10
25.2345934245912
20
10.989389657034
30
0
41
1
10
25.2342746253128
20
10.9749114659878
30
0
41
1
10
25.2369310068719
20
10.9497570978737
30
0
41
1
10
25.2391078358392
20
10.938882891175
30
0
41
1
10
25.2458464195165
20
10.9140873029597
30
0
41
1
10
25.2509528161917
20
10.900123713477
30
0
41
1
10
25.264565714983
20
10.8690759247764
30
0
41
1
10
25.2736720264678
20
10.8520058758604
30
0
41
1
10
25.2957071168391
20
10.8159923319143
30
0
41
1
10
25.3091170291579
20
10.7970781322978
30
0
41
1
10
25.3383644414509
20
10.7604349593081
30
0
41
1
10
25.3543496235168
20
10.7426113045851
30
0
41
1
10
25.3895512767319
20
10.70740965137
30
0
41
1
10
25.4090641675706
20
10.6900766354734
30
0
41
1
10
25.4435686856011
20
10.6631230334107
30
0
41
1
10
25.4582292494752
20
10.6526955329611
30
0
41
1
10
25.4882114443699
20
10.6336049825847
30
0
41
1
10
25.5036049276516
20
10.6248948885749
30
0
41
1
10
25.5349107867976
20
10.6097673995658
30
0
41
1
10
25.5509311258189
20
10.6032967194718
30
0
41
1
10
25.5791613692931
20
10.5948199152976
30
0
41
1
10
25.5914125425671
20
10.5920815256673
30
0
41
1
10
25.6187442992321
20
10.58880847167
30
0
41
1
10
25.6340825110737
20
10.5889812300179
30
0
41
1
10
25.6482767380291
20
10.5923010309519
30
0
0
SPLINE
5
1E6
100
AcDbEntity
8
1
62
256
6
ByLayer
370
18
48
1
60
0
100
AcDbSpline
70
4
71
3
72
8
73
4
40
0
40
0
40
0
40
0
40
1
40
1
40
1
40
1
41
1
10
19.0990337658863
20
9.46035367895878
30
0
41
1
10
19.0878184642912
20
9.47177470876311
30
0
41
1
10
19.0766590508388
20
9.48325061724763
30
0
41
1
10
19.0655560613956
20
9.49478085334793
30
0
0
SPLINE
5
1E7
100
AcDbEntity
8
1
62
256
6
ByLayer
370
18
48
1
60
0
100
AcDbSpline
70
4
71
3
72
8
73
4
40
0
40
0
40
0
40
0
40
1
40
1
40
1
40
1
41
1
10
25.2139153900481
20
15.6431401820004
30
0
41
1
10
25.2254456261484
20
15.6320371925573
30
0
41
1
10
25.2369215346329
20
15.6208777791049
30
0
41
1
10
25.2483425644373
20
15.6096624775098
30
0
0
SPLINE
5
1E8
100
AcDbEntity
8
1
62
256
6
ByLayer
370
18
48
1
60
0
100
AcDbSpline
70
4
71
3
72
8
73
4
40
0
40
0
40
0
40
0
40
1
40
1
40
1
40
1
41
1
10
24.0405909608793
20
15.5471166263114
30
0
41
1
10
24.061797945908
20
15.5683236113402
30
0
41
1
10
24.0831015624812
20
15.5894339648198
30
0
41
1
10
24.1045009284115
20
15.610446812566
30
0
0
SPLINE
5
1E9
100
AcDbEntity
8
1
62
256
6
ByLayer
370
18
48
1
60
0
100
AcDbSpline
70
4
71
3
72
8
73
4
40
0
40
0
40
0
40
0
40
1
40
1
40
1
40
1
41
1
10
24.1045009284115
20
15.610446812566
30
0
41
1
10
24.1159065882283
20
15.6216464618432
30
0
41
1
10
24.1273672034221
20
15.6327901476642
30
0
41
1
10
24.1388822236631
20
15.6438773349178
30
0
0
SPLINE
5
1EA
100
AcDbEntity
8
1
62
256
6
ByLayer
370
18
48
1
60
0
100
AcDbSpline
70
4
71
3
72
8
73
4
40
0
40
0
40
0
40
0
40
1
40
1
40
1
40
1
41
1
10
24.1388822236631
20
15.6438773349178
30
0
41
1
10
24.1768797740953
20
15.6804631114082
30
0
41
1
10
24.2151705433499
20
15.7167443858373
30
0
41
1
10
24.2537496267429
20
15.752716510918
30
0
0
SPLINE
5
1EB
100
AcDbEntity
8
1
62
256
6
ByLayer
370
18
48
1
60
0
100
AcDbSpline
70
4
71
3
72
8
73
4
40
0
40
0
40
0
40
0
40
1
40
1
40
1
40
1
41
1
10
24.2537496267429
20
15.752716510918
30
0
41
1
10
24.2758507711633
20
15.7733241838226
30
0
41
1
10
24.3003022414517
20
15.7914097301115
30
0
41
1
10
24.3264794752633
20
15.8065111918303
30
0
0
SPLINE
5
1EC
100
AcDbEntity
8
1
62
256
6
ByLayer
370
18
48
1
60
0
100
AcDbSpline
70
4
71
3
72
8
73
4
40
0
40
0
40
0
40
0
40
1
40
1
40
1
40
1
41
1
10
24.3264794752632
20
15.8065111918303
30
0
41
1
10
24.5378894232612
20
15.9284721010562
30
0
41
1
10
24.8145175203709
20
15.9282824164817
30
0
41
1
10
25.0260949250503
20
15.8060314637755
30
0
0
SPLINE
5
1ED
100
AcDbEntity
8
1
62
256
6
ByLayer
370
18
48
1
60
0
100
AcDbSpline
70
4
71
3
72
8
73
4
40
0
40
0
40
0
40
0
40
1
40
1
40
1
40
1
41
1
10
25.0988986162919
20
15.7521369901528
30
0
41
1
10
25.1375270683383
20
15.7161119236728
30
0
41
1
10
25.1758676299443
20
15.6797781029496
30
0
41
1
10
25.2139153900481
20
15.6431401820004
30
0
0
SPLINE
5
1EE
100
AcDbEntity
8
1
62
256
6
ByLayer
370
18
48
1
60
0
100
AcDbSpline
70
4
71
1
72
4
73
2
40
0
40
0
40
1
40
1
41
1
10
25.3123394434424
20
15.5462445852122
30
0
41
1
10
27.7551929611855
20
13.1033910674692
30
0
0
SPLINE
5
1EF
100
AcDbEntity
8
1
62
256
6
ByLayer
370
18
48
1
60
0
100
AcDbSpline
70
4
71
3
72
8
73
4
40
0
40
0
40
0
40
0
40
1
40
1
40
1
40
1
41
1
10
30.4045184046343
20
9.60194773302663
30
0
41
1
10
30.3685462795535
20
9.56336864963365
30
0
41
1
10
30.3322650051245
20
9.52507788037906
30
0
41
1
10
30.295679228634
20
9.48708032994681
30
0
0
SPLINE
5
1F0
100
AcDbEntity
8
1
62
256
6
ByLayer
370
18
48
1
60
0
100
AcDbSpline
70
4
71
3
72
38
73
34
40
0
40
0
40
0
40
0
40
0.0009702357391775
40
0.003009071992771
40
0.0050479082463645
40
0.0060673263731613
40
0.0132032532607386
40
0.0213585982751126
40
0.0376692883038608
40
0.0417469608110478
40
0.0458246333182348
40
0.0499023058254219
40
0.0539799783326089
40
0.0621353233469829
40
0.06621299585417
40
0.0682518321077635
40
0.0692712502345603
40
0.070290668361357
40
0.0708003774247554
40
0.074368340868544
40
0.0784460133757311
40
0.0866013583901051
40
0.102912048418853
40
0.111067393433227
40
0.119222738447601
40
0.135533428476349
40
0.151844118505098
40
0.184465498562594
40
0.21708687862009
40
0.347572398850075
40
0.47805791908006
40
0.73902895954003
40
1
40
1
40
1
40
1
41
1
10
24.7726183815885
20
13.9137398079224
30
0
41
1
10
24.7731989319638
20
13.913168011316
30
0
41
1
10
24.775013010757
20
13.9113705327597
30
0
41
1
10
24.7781827792193
20
13.9082076511853
30
0
41
1
10
24.7814610958401
20
13.9049229607871
30
0
41
1
10
24.7879910072835
20
13.898383340941
30
0
41
1
10
24.7983326767071
20
13.8880382152611
30
0
41
1
10
24.8181828618215
20
13.8682025789187
30
0
41
1
10
24.8361707190525
20
13.8502211911854
30
0
41
1
10
24.8516184933433
20
13.8347755944342
30
0
41
1
10
24.8593476883056
20
13.8270468845672
30
0
41
1
10
24.867081576712
20
13.8193129474565
30
0
41
1
10
24.877398866682
20
13.8089949739803
30
0
41
1
10
24.8877230860482
20
13.7986692830065
30
0
41
1
10
24.8967606909099
20
13.78962994546
30
0
41
1
10
24.9012802027816
20
13.785109486559
30
0
41
1
10
24.9038629452932
20
13.7825261842017
30
0
41
1
10
24.9054772198211
20
13.780911552894
30
0
41
1
10
24.9087058475652
20
13.7776822026411
30
0
41
1
10
24.9138719620921
20
13.7725148968271
30
0
41
1
10
24.9238817846846
20
13.7625027120136
30
0
41
1
10
24.9419632694627
20
13.7444170481848
30
0
41
1
10
24.9626162212099
20
13.7237606399432
30
0
41
1
10
24.9832592758044
20
13.7031152544878
30
0
41
1
10
25.0038963006747
20
13.6824765845358
30
0
41
1
10
25.0296823417373
20
13.6566896517504
30
0
41
1
10
25.0709227090699
20
13.6154498250578
30
0
41
1
10
25.1224492594588
20
13.5639266696876
30
0
41
1
10
25.2460910365428
20
13.4402955363898
30
0
41
1
10
25.4316760286226
20
13.2547125974261
30
0
41
1
10
25.7617360183875
20
12.9246413455389
30
0
41
1
10
26.1741502789262
20
12.5122312872847
30
0
41
1
10
26.5041112462844
20
12.1822703199264
30
0
41
1
10
26.6690917299636
20
12.0172898362473
30
0
0
SPLINE
5
1F1
100
AcDbEntity
8
1
62
256
6
ByLayer
370
18
48
1
60
0
100
AcDbSpline
70
4
71
3
72
15
73
11
40
0
40
0
40
0
40
0
40
0.0354049916613515
40
0.128323993329082
40
0.314161996664543
40
0.500000000000003
40
0.685838003335464
40
0.871676006670925
40
0.964595008338655
40
1
40
1
40
1
40
1
41
1
10
24.5606549218172
20
13.9138851517942
30
0
41
1
10
24.5625117783131
20
13.9157139335526
30
0
41
1
10
24.5690796024389
20
13.9220533748814
30
0
41
1
10
24.5873796546469
20
13.9364464774865
30
0
41
1
10
24.6205210097511
20
13.9529150446574
30
0
41
1
10
24.6666048776113
20
13.9601504938291
30
0
41
1
10
24.7126987115434
20
13.9528518381779
30
0
41
1
10
24.7458626828985
20
13.9363378052796
30
0
41
1
10
24.7641824910974
20
13.9219195923452
30
0
41
1
10
24.7707590153448
20
13.9155711379039
30
0
41
1
10
24.7726183815885
20
13.9137398079224
30
0
0
SPLINE
5
1F2
100
AcDbEntity
8
1
62
256
6
ByLayer
370
18
48
1
60
0
100
AcDbSpline
70
4
71
3
72
35
73
31
40
0
40
0
40
0
40
0
40
0.260971040459971
40
0.521942080919942
40
0.782913121379913
40
0.815534501437409
40
0.848155881494905
40
0.864466571523653
40
0.880777261552402
40
0.89708795158115
40
0.913398641609898
40
0.921553986624272
40
0.925631659131459
40
0.929709331638646
40
0.930728749765443
40
0.93174816789224
40
0.933787004145833
40
0.93786467665302
40
0.941942349160208
40
0.946020021667395
40
0.950097694174582
40
0.954175366681769
40
0.962330711696143
40
0.978641401724891
40
0.986796746739265
40
0.993932673626842
40
0.994952091753639
40
0.996990928007233
40
0.999029764260826
40
1
40
1
40
1
40
1
41
1
10
22.666780592196
20
12.0200342309539
30
0
41
1
10
22.8315349758561
20
12.184788614614
30
0
41
1
10
23.1610437431762
20
12.5142973819341
30
0
41
1
10
23.6552626234453
20
13.0085112125415
30
0
41
1
10
24.0055162091409
20
13.3587819670869
30
0
41
1
10
24.2113034506785
20
13.564551444636
30
0
41
1
10
24.2627593903768
20
13.6160039846565
30
0
41
1
10
24.3039432399608
20
13.6571872928585
30
0
41
1
10
24.3348440811207
20
13.6880892055541
30
0
41
1
10
24.3657612813117
20
13.7190093432454
30
0
41
1
10
24.3915420848796
20
13.7447944733607
30
0
41
1
10
24.4095987838801
20
13.762855357147
30
0
41
1
10
24.4199173399977
20
13.7731763550327
30
0
41
1
10
24.4257212336387
20
13.7789815886136
30
0
41
1
10
24.4295901817944
20
13.7828513942158
30
0
41
1
10
24.4321693839793
20
13.7854311570149
30
0
41
1
10
24.4366827007184
20
13.7899454220828
30
0
41
1
10
24.4431292841199
20
13.7963932448147
30
0
41
1
10
24.4508629516626
20
13.8041281449032
30
0
41
1
10
24.458593773231
20
13.8118598743963
30
0
41
1
10
24.4663211353899
20
13.8195877498884
30
0
41
1
10
24.4766188544757
20
13.8298855340024
30
0
41
1
10
24.4946234608966
20
13.8478883833595
30
0
41
1
10
24.5151528487482
20
13.8684103673527
30
0
41
1
10
24.5349758498261
20
13.8882187996927
30
0
41
1
10
24.5453033416113
20
13.8985497524773
30
0
41
1
10
24.5518242907239
20
13.9050804233158
30
0
41
1
10
24.5550981057846
20
13.908360620901
30
0
41
1
10
24.5582635396341
20
13.9115191584114
30
0
41
1
10
24.560075155061
20
13.9133141508202
30
0
41
1
10
24.5606549218172
20
13.9138851517942
30
0
0
SPLINE
5
1F3
100
AcDbEntity
8
1
62
256
6
ByLayer
370
18
48
1
60
0
100
AcDbSpline
70
4
71
3
72
36
73
32
40
0
40
0
40
0
40
0
40
0.0078125
40
0.015625
40
0.01953125
40
0.0234375
40
0.03125
40
0.0625
40
0.125
40
0.1875
40
0.203125
40
0.21875
40
0.25
40
0.3125
40
0.375
40
0.4375
40
0.5
40
0.515625
40
0.53125
40
0.5625
40
0.625
40
0.6875
40
0.71875
40
0.734375
40
0.75
40
0.8125
40
0.875
40
0.890625
40
0.90625
40
0.9375
40
1
40
1
40
1
40
1
41
1
10
26.6690917299636
20
12.0172898362473
30
0
41
1
10
26.6720314953867
20
12.0202296016705
30
0
41
1
10
26.6780671734629
20
12.0262652797466
30
0
41
1
10
26.6852965960491
20
12.0334947023328
30
0
41
1
10
26.6903775995662
20
12.0385757058499
30
0
41
1
10
26.6954525298221
20
12.0436506361058
30
0
41
1
10
26.7093963192921
20
12.0575944255758
30
0
41
1
10
26.7423635427731
20
12.0905616490568
30
0
41
1
10
26.7930789893337
20
12.1412770956174
30
0
41
1
10
26.8387134782613
20
12.1869115845451
30
0
41
1
10
26.8691550444201
20
12.2173531507038
30
0
41
1
10
26.8893243900211
20
12.2375224963048
30
0
41
1
10
26.9251867185148
20
12.2733848247985
30
0
41
1
10
26.9795445500721
20
12.3277426563558
30
0
41
1
10
27.0481196024639
20
12.3963177087476
30
0
41
1
10
27.118862835456
20
12.4670609417398
30
0
41
1
10
27.172481528376
20
12.5206796346598
30
0
41
1
10
27.2080855105577
20
12.5562836168414
30
0
41
1
10
27.2317047596314
20
12.5799028659152
30
0
41
1
10
27.273731101657
20
12.6219292079408
30
0
41
1
10
27.3334410951338
20
12.6816392014176
30
0
41
1
10
27.3932632891069
20
12.7414613953907
30
0
41
1
10
27.4351213303881
20
12.7833194366718
30
0
41
1
10
27.4590435208017
20
12.8072416270855
30
0
41
1
10
27.4947893203394
20
12.8429874266231
30
0
41
1
10
27.5485405115345
20
12.8967386178182
30
0
41
1
10
27.6013682020073
20
12.949566308291
30
0
41
1
10
27.6357942118492
20
12.983992318133
30
0
41
1
10
27.6584872401168
20
13.0066853464005
30
0
41
1
10
27.698331003993
20
13.0465291102767
30
0
41
1
10
27.7324431290783
20
13.080641235362
30
0
41
1
10
27.7551929611855
20
13.1033910674692
30
0
0
SPLINE
5
1F4
100
AcDbEntity
8
1
62
256
6
ByLayer
370
18
48
1
60
0
100
AcDbSpline
70
4
71
3
72
36
73
32
40
0
40
0
40
0
40
0
40
0.0625
40
0.09375
40
0.109375
40
0.125
40
0.1875
40
0.25
40
0.265625
40
0.28125
40
0.3125
40
0.375
40
0.4375
40
0.46875
40
0.484375
40
0.5
40
0.5625
40
0.625
40
0.6875
40
0.75
40
0.78125
40
0.796875
40
0.8125
40
0.875
40
0.9375
40
0.96875
40
0.9765625
40
0.98046875
40
0.984375
40
0.9921875
40
1
40
1
40
1
40
1
41
1
10
21.6010852889819
20
13.1076109544141
30
0
41
1
10
21.6245148210924
20
13.0848294570019
30
0
41
1
10
21.6596456552039
20
13.0506698518472
30
0
41
1
10
21.7006809965324
20
13.0107706289673
30
0
41
1
10
21.7240499403992
20
12.9880460158909
30
0
41
1
10
21.7593732487694
20
12.9535721787678
30
0
41
1
10
21.8131646876762
20
12.9006713792927
30
0
41
1
10
21.867252986956
20
12.8468462422907
30
0
41
1
10
21.9029512244939
20
12.811051453399
30
0
41
1
10
21.9267876085466
20
12.787096514812
30
0
41
1
10
21.9685170287433
20
12.7451811574005
30
0
41
1
10
22.0281460210452
20
12.6852770554517
30
0
41
1
10
22.0876626443385
20
12.6254853079871
30
0
41
1
10
22.1295606180481
20
12.5834014188494
30
0
41
1
10
22.1530936057778
20
12.5597498373695
30
0
41
1
10
22.188445780172
20
12.5240972003747
30
0
41
1
10
22.2412932484169
20
12.4704055033431
30
0
41
1
10
22.3101655660121
20
12.3995665356205
30
0
41
1
10
22.3760402161196
20
12.3308992907331
30
0
41
1
10
22.4275143322149
20
12.276468889946
30
0
41
1
10
22.4610688301359
20
12.2405589621617
30
0
41
1
10
22.47982554426
20
12.2203629248646
30
0
41
1
10
22.5081556704712
20
12.1898810588101
30
0
41
1
10
22.5506171690387
20
12.1441861622446
30
0
41
1
10
22.5978114877153
20
12.0934035787144
30
0
41
1
10
22.6284859988336
20
12.0603927159376
30
0
41
1
10
22.6414634791486
20
12.0464304664859
30
0
41
1
10
22.6461827898354
20
12.0413488202946
30
0
41
1
10
22.6509269186035
20
12.0362610796599
30
0
41
1
10
22.6578711234468
20
12.0290219381821
30
0
41
1
10
22.6638367923975
20
12.0229780307524
30
0
41
1
10
22.666780592196
20
12.0200342309539
30
0
0
SPLINE
5
1F5
100
AcDbEntity
8
1
62
256
6
ByLayer
370
18
48
1
60
0
100
AcDbSpline
70
4
71
3
72
8
73
4
40
0
40
0
40
0
40
0
40
1
40
1
40
1
40
1
41
1
10
19.0655560613956
20
9.49478085334793
30
0
41
1
10
19.0289181404465
20
9.53282861345173
30
0
41
1
10
18.9925843197232
20
9.57116917505776
30
0
41
1
10
18.9565592532432
20
9.60979762710417
30
0
0
SPLINE
5
1F6
100
AcDbEntity
8
1
62
256
6
ByLayer
370
18
48
1
60
0
100
AcDbSpline
70
4
71
3
72
8
73
4
40
0
40
0
40
0
40
0
40
1
40
1
40
1
40
1
41
1
10
25.2483425644373
20
15.6096624775098
30
0
41
1
10
25.2697707676286
20
15.5886202627928
30
0
41
1
10
25.2911033550926
20
15.5674806735621
30
0
41
1
10
25.3123394434425
20
15.5462445852122
30
0
0
SPLINE
5
1F7
100
AcDbEntity
8
1
62
256
6
ByLayer
370
18
48
1
60
0
100
AcDbSpline
70
4
71
3
72
8
73
4
40
0
40
0
40
0
40
0
40
1
40
1
40
1
40
1
41
1
10
19.0982494308301
20
10.6041953149845
30
0
41
1
10
19.1192622785763
20
10.6255946809148
30
0
41
1
10
19.1403726320559
20
10.646898297488
30
0
41
1
10
19.1615796170847
20
10.6681052825168
30
0
0
SPLINE
5
1F8
100
AcDbEntity
8
1
62
256
6
ByLayer
370
18
48
1
60
0
100
AcDbSpline
70
4
71
3
72
8
73
4
40
0
40
0
40
0
40
0
40
1
40
1
40
1
40
1
41
1
10
19.1624516581838
20
9.39635679995359
30
0
41
1
10
19.141215569834
20
9.41759288830343
30
0
41
1
10
19.1200759806032
20
9.43892547576746
30
0
41
1
10
19.0990337658863
20
9.46035367895878
30
0
0
SPLINE
5
1F9
100
AcDbEntity
8
1
62
256
6
ByLayer
370
18
48
1
60
0
100
AcDbSpline
70
4
71
1
72
4
73
2
40
0
40
0
40
1
40
1
41
1
10
19.1615796170847
20
10.6681052825168
30
0
41
1
10
21.6010852889819
20
13.1076109544141
30
0
0
SPLINE
5
1FA
100
AcDbEntity
8
1
62
256
6
ByLayer
370
18
48
1
60
0
100
AcDbSpline
70
4
71
3
72
8
73
4
40
0
40
0
40
0
40
0
40
1
40
1
40
1
40
1
41
1
10
18.955979732478
20
10.4549466166531
30
0
41
1
10
18.9919518575588
20
10.4935257000461
30
0
41
1
10
19.0282331319878
20
10.5318164693007
30
0
41
1
10
19.0648189084783
20
10.569814019733
30
0
0
SPLINE
5
1FB
100
AcDbEntity
8
1
62
256
6
ByLayer
370
18
48
1
60
0
100
AcDbSpline
70
4
71
1
72
4
73
2
40
0
40
0
40
1
40
1
41
1
10
27.7551929611855
20
13.1033910674692
30
0
41
1
10
30.1980464789285
20
10.6605375497262
30
0
0
SPLINE
5
1FC
100
AcDbEntity
8
1
62
256
6
ByLayer
370
18
48
1
60
0
100
AcDbSpline
70
4
71
3
72
8
73
4
40
0
40
0
40
0
40
0
40
1
40
1
40
1
40
1
41
1
10
30.1980464789285
20
10.6605375497262
30
0
41
1
10
30.2192825672783
20
10.6393014613763
30
0
41
1
10
30.2404221565091
20
10.6179688739123
30
0
41
1
10
30.2614643712261
20
10.596540670721
30
0
0
SPLINE
5
1FD
100
AcDbEntity
8
1
62
256
6
ByLayer
370
18
48
1
60
0
100
AcDbSpline
70
4
71
3
72
8
73
4
40
0
40
0
40
0
40
0
40
1
40
1
40
1
40
1
41
1
10
30.261464371226
20
10.596540670721
30
0
41
1
10
30.2726796728211
20
10.5851196409167
30
0
41
1
10
30.2838390862735
20
10.5736437324321
30
0
41
1
10
30.2949420757167
20
10.5621134963319
30
0
0
SPLINE
5
1FE
100
AcDbEntity
8
1
62
256
6
ByLayer
370
18
48
1
60
0
100
AcDbSpline
70
4
71
3
72
8
73
4
40
0
40
0
40
0
40
0
40
1
40
1
40
1
40
1
41
1
10
18.9565592532432
20
9.60979762710417
30
0
41
1
10
18.935921251326
20
9.63192705378646
30
0
41
1
10
18.9178021551461
20
9.65640334968823
30
0
41
1
10
18.9026647796206
20
9.68260131834576
30
0
0
SPLINE
5
1FF
100
AcDbEntity
8
1
62
256
6
ByLayer
370
18
48
1
60
0
100
AcDbSpline
70
4
71
3
72
8
73
4
40
0
40
0
40
0
40
0
40
1
40
1
40
1
40
1
41
1
10
30.2949420757167
20
10.5621134963319
30
0
41
1
10
30.3315799966658
20
10.524065736228
30
0
41
1
10
30.3679138173891
20
10.485725174622
30
0
41
1
10
30.403938883869
20
10.4470967225756
30
0
0
SPLINE
5
200
100
AcDbEntity
8
1
62
256
6
ByLayer
370
18
48
1
60
0
100
AcDbSpline
70
4
71
3
72
8
73
4
40
0
40
0
40
0
40
0
40
1
40
1
40
1
40
1
41
1
10
30.403938883869
20
10.4470967225756
30
0
41
1
10
30.4245768857863
20
10.4249672958933
30
0
41
1
10
30.4426959819662
20
10.4004909999916
30
0
41
1
10
30.4578333574917
20
10.374293031334
30
0
0
SPLINE
5
201
100
AcDbEntity
8
1
62
256
6
ByLayer
370
18
48
1
60
0
100
AcDbSpline
70
4
71
3
72
8
73
4
40
0
40
0
40
0
40
0
40
1
40
1
40
1
40
1
41
1
10
30.4578333574917
20
10.374293031334
30
0
41
1
10
30.5800843101979
20
10.1627156266546
30
0
41
1
10
30.5802739947725
20
9.88608752954497
30
0
41
1
10
30.4583130855466
20
9.67467758154697
30
0
0
SPLINE
5
202
100
AcDbEntity
8
1
62
256
6
ByLayer
370
18
48
1
60
0
100
AcDbSpline
70
4
71
3
72
8
73
4
40
0
40
0
40
0
40
0
40
1
40
1
40
1
40
1
41
1
10
30.4583130855466
20
9.67467758154699
30
0
41
1
10
30.4432116238277
20
9.64850034773541
30
0
41
1
10
30.4251260775388
20
9.62404887744705
30
0
41
1
10
30.4045184046343
20
9.60194773302663
30
0
0
SPLINE
5
203
100
AcDbEntity
8
1
62
256
6
ByLayer
370
18
48
1
60
0
100
AcDbSpline
70
4
71
3
72
38
73
34
40
0
40
0
40
0
40
0
40
0.0009702357391759
40
0.0030090719927694
40
0.0050479082463629
40
0.0060673263731597
40
0.013203253260737
40
0.021358598275111
40
0.0376692883038592
40
0.0417469608110462
40
0.0458246333182333
40
0.0499023058254203
40
0.0539799783326073
40
0.0621353233469814
40
0.0662129958541685
40
0.068251832107762
40
0.0692712502345587
40
0.0702906683613555
40
0.0708003774247539
40
0.0743683408685425
40
0.0784460133757296
40
0.0866013583901036
40
0.102912048418852
40
0.111067393433226
40
0.1192227384476
40
0.135533428476348
40
0.151844118505096
40
0.184465498562593
40
0.217086878620089
40
0.347572398850074
40
0.478057919080059
40
0.73902895954003
40
1
40
1
40
1
40
1
41
1
10
20.7729296713557
20
10.1261599013328
30
0
41
1
10
20.7735006723297
20
10.1267396680889
30
0
41
1
10
20.7752956647385
20
10.1285512835158
30
0
41
1
10
20.7784542022489
20
10.1317167173653
30
0
41
1
10
20.7817343998341
20
10.1349905324261
30
0
41
1
10
20.7882650706726
20
10.1415114815386
30
0
41
1
10
20.7985960234572
20
10.1518389733238
30
0
41
1
10
20.8184044557972
20
10.1716619744017
30
0
41
1
10
20.8363611917912
20
10.1896251887718
30
0
41
1
10
20.8517856179026
20
10.2050517954111
30
0
41
1
10
20.859503735176
20
10.2127703984456
30
0
41
1
10
20.8672270732615
20
10.22049368776
30
0
41
1
10
20.877530907251
20
10.2307968373052
30
0
41
1
10
20.8878424492424
20
10.2411069056694
30
0
41
1
10
20.8968694010671
20
10.2501321224315
30
0
41
1
10
20.901383666135
20
10.2546454391706
30
0
41
1
10
20.903963428934
20
10.2572246413555
30
0
41
1
10
20.905575847935
20
10.258836703087
30
0
41
1
10
20.9088007734664
20
10.2620609051181
30
0
41
1
10
20.9139609993011
20
10.2672199380309
30
0
41
1
10
20.9239594660029
20
10.2772160392698
30
0
41
1
10
20.9420203497892
20
10.2952727382703
30
0
41
1
10
20.9626484538814
20
10.3158973811246
30
0
41
1
10
20.9832655487501
20
10.3365121419337
30
0
41
1
10
21.0038759363784
20
10.3571208822226
30
0
41
1
10
21.0296275302914
20
10.3828715831891
30
0
41
1
10
21.0708108384934
20
10.4240554327731
30
0
41
1
10
21.1222633785139
20
10.4755113724714
30
0
41
1
10
21.2457250650433
20
10.598983717394
30
0
41
1
10
21.4310536662234
20
10.7843143745077
30
0
41
1
10
21.7606725823763
20
11.1139220130828
30
0
41
1
10
22.1725174412157
20
11.5257710799737
30
0
41
1
10
22.5020262085359
20
11.8552798472938
30
0
41
1
10
22.666780592196
20
12.0200342309539
30
0
0
SPLINE
5
204
100
AcDbEntity
8
1
62
256
6
ByLayer
370
18
48
1
60
0
100
AcDbSpline
70
4
71
3
72
8
73
4
40
0
40
0
40
0
40
0
40
1
40
1
40
1
40
1
41
1
10
30.295679228634
20
9.48708032994681
30
0
41
1
10
30.2845920413805
20
9.47556530970587
30
0
41
1
10
30.2734483555594
20
9.46410469451203
30
0
41
1
10
30.2622487062822
20
9.45269903469529
30
0
0
SPLINE
5
205
100
AcDbEntity
8
1
62
256
6
ByLayer
370
18
48
1
60
0
100
AcDbSpline
70
4
71
3
72
8
73
4
40
0
40
0
40
0
40
0
40
1
40
1
40
1
40
1
41
1
10
30.2622487062822
20
9.45269903469529
30
0
41
1
10
30.241235858536
20
9.43129966876496
30
0
41
1
10
30.2201255050564
20
9.40999605219179
30
0
41
1
10
30.1989185200276
20
9.38878906716297
30
0
0
SPLINE
5
206
100
AcDbEntity
8
1
62
256
6
ByLayer
370
18
48
1
60
0
100
AcDbSpline
70
4
71
1
72
4
73
2
40
0
40
0
40
1
40
1
41
1
10
30.1989185200276
20
9.38878906716299
30
0
41
1
10
27.7594128481303
20
6.94928339526571
30
0
0
SPLINE
5
207
100
AcDbEntity
8
1
62
256
6
ByLayer
370
18
48
1
60
0
100
AcDbSpline
70
4
71
3
72
15
73
11
40
0
40
0
40
0
40
0
40
0.0354049916613618
40
0.128323993329085
40
0.31416199666453
40
0.499999999999976
40
0.685838003335421
40
0.871676006670867
40
0.964595008338589
40
1
40
1
40
1
40
1
41
1
10
28.5655417016386
20
10.1208164878723
30
0
41
1
10
28.5673730316202
20
10.1189571216286
30
0
41
1
10
28.5737214860614
20
10.1123805973811
30
0
41
1
10
28.5881396989959
20
10.0940607891822
30
0
41
1
10
28.6046537318942
20
10.0608968178271
30
0
41
1
10
28.6119523875453
20
10.0148029838951
30
0
41
1
10
28.6047169383737
20
9.96871911603488
30
0
41
1
10
28.5882483712027
20
9.93557776093068
30
0
41
1
10
28.5738552685977
20
9.91727770872261
30
0
41
1
10
28.5675158272688
20
9.91070988459683
30
0
41
1
10
28.5656870455104
20
9.90885302810086
30
0
0
SPLINE
5
208
100
AcDbEntity
8
1
62
256
6
ByLayer
370
18
48
1
60
0
100
AcDbSpline
70
4
71
3
72
35
73
31
40
0
40
0
40
0
40
0
40
0.260971040459971
40
0.521942080919942
40
0.782913121379913
40
0.81553450143741
40
0.848155881494906
40
0.864466571523654
40
0.880777261552403
40
0.897087951581151
40
0.913398641609899
40
0.921553986624273
40
0.92563165913146
40
0.929709331638647
40
0.930728749765444
40
0.931748167892241
40
0.933787004145834
40
0.937864676653021
40
0.941942349160209
40
0.946020021667395
40
0.950097694174582
40
0.95417536668177
40
0.962330711696144
40
0.978641401724892
40
0.986796746739266
40
0.993932673626843
40
0.99495209175364
40
0.996990928007234
40
0.999029764260827
40
1
40
1
40
1
40
1
41
1
10
26.6690917299636
20
12.0172898362473
30
0
41
1
10
26.8340722136427
20
11.8523093525682
30
0
41
1
10
27.1640331810009
20
11.5223483852099
30
0
41
1
10
27.6589252509059
20
11.0274512725635
30
0
41
1
10
28.0096766745742
20
10.6767169942159
30
0
41
1
10
28.2157285634039
20
10.4706473657425
30
0
41
1
10
28.2672517187741
20
10.4191208153537
30
0
41
1
10
28.3084915454667
20
10.377880448021
30
0
41
1
10
28.3394358648091
20
10.3469371987459
30
0
41
1
10
28.3703984315991
20
10.3159775654304
30
0
41
1
10
28.396218941901
20
10.2901613757465
30
0
41
1
10
28.4143046057298
20
10.2720798909683
30
0
41
1
10
28.424639764247
20
10.2617471708728
30
0
41
1
10
28.4304529627794
20
10.2559353104441
30
0
41
1
10
28.434328077918
20
10.2520610515769
30
0
41
1
10
28.4369113802753
20
10.2494783090654
30
0
41
1
10
28.4414318391763
20
10.2449587971936
30
0
41
1
10
28.4478885088523
20
10.2385033651495
30
0
41
1
10
28.4556340222097
20
10.2307590826488
30
0
41
1
10
28.4633763610656
20
10.2230176504733
30
0
41
1
10
28.4711148411727
20
10.2152796829958
30
0
41
1
10
28.4814267573204
20
10.2049678317872
30
0
41
1
10
28.4994543152254
20
10.1869385192264
30
0
41
1
10
28.520004472635
20
10.1663809681052
30
0
41
1
10
28.5398401089774
20
10.1465307829908
30
0
41
1
10
28.5501852346573
20
10.1361891135672
30
0
41
1
10
28.5567248545034
20
10.1296592021238
30
0
41
1
10
28.5600095449016
20
10.126380885503
30
0
41
1
10
28.5631724264759
20
10.1232111170407
30
0
41
1
10
28.5649699050323
20
10.1213970382475
30
0
41
1
10
28.5655417016386
20
10.1208164878723
30
0
0
SPLINE
5
209
100
AcDbEntity
8
1
62
256
6
ByLayer
370
18
48
1
60
0
100
AcDbSpline
70
4
71
3
72
36
73
32
40
0
40
0
40
0
40
0
40
0.0078125
40
0.015625
40
0.01953125
40
0.0234375
40
0.03125
40
0.0625
40
0.125
40
0.1875
40
0.203125
40
0.21875
40
0.25
40
0.3125
40
0.375
40
0.4375
40
0.5
40
0.515625
40
0.53125
40
0.5625
40
0.625
40
0.6875
40
0.71875
40
0.734375
40
0.75
40
0.8125
40
0.875
40
0.890625
40
0.90625
40
0.9375
40
1
40
1
40
1
40
1
41
1
10
26.6718361246702
20
8.01497869847972
30
0
41
1
10
26.6747799244686
20
8.01203489868124
30
0
41
1
10
26.6808238318984
20
8.0060692297306
30
0
41
1
10
26.6880629733761
20
7.99912502488726
30
0
41
1
10
26.6931507140109
20
7.99438089611917
30
0
41
1
10
26.6982323602022
20
7.98966158543234
30
0
41
1
10
26.7121946096539
20
7.97668410511737
30
0
41
1
10
26.7452054724307
20
7.94600959399899
30
0
41
1
10
26.7959880559609
20
7.89881527532242
30
0
41
1
10
26.8416829525264
20
7.85635377675499
30
0
41
1
10
26.8721648185809
20
7.82802365054373
30
0
41
1
10
26.8923608558779
20
7.80926693641968
30
0
41
1
10
26.9282707836622
20
7.77571243849869
30
0
41
1
10
26.9827011844494
20
7.72423832240332
30
0
41
1
10
27.0513684293368
20
7.65836367229589
30
0
41
1
10
27.1222073970594
20
7.58949135470068
30
0
41
1
10
27.175899094091
20
7.53664388645571
30
0
41
1
10
27.2115517310858
20
7.50129171206159
30
0
41
1
10
27.2352033125657
20
7.47775872433184
30
0
41
1
10
27.2772872017033
20
7.43586075062228
30
0
41
1
10
27.337078949168
20
7.37634412732895
30
0
41
1
10
27.3969830511167
20
7.31671513502711
30
0
41
1
10
27.4388984085282
20
7.27498571483031
30
0
41
1
10
27.4628533471152
20
7.25114933077761
30
0
41
1
10
27.4986481360069
20
7.21545109323979
30
0
41
1
10
27.552473273009
20
7.16136279396001
30
0
41
1
10
27.6053740724841
20
7.10757135505318
30
0
41
1
10
27.6398479096071
20
7.07224804668296
30
0
41
1
10
27.6625725226836
20
7.04887910281612
30
0
41
1
10
27.7024717455635
20
7.00784376148759
30
0
41
1
10
27.7366313507182
20
6.97271292737611
30
0
41
1
10
27.7594128481303
20
6.94928339526571
30
0
0
SPLINE
5
20A
100
AcDbEntity
8
1
62
256
6
ByLayer
370
18
48
1
60
0
100
AcDbSpline
70
4
71
3
72
8
73
4
40
0
40
0
40
0
40
0
40
1
40
1
40
1
40
1
41
1
10
18.9026647796206
20
9.68260131834576
30
0
41
1
10
18.7804138269144
20
9.89417872302516
30
0
41
1
10
18.7802241423398
20
10.1708068201348
30
0
41
1
10
18.9021850515657
20
10.3822167681328
30
0
0
SPLINE
5
20B
100
AcDbEntity
8
1
62
256
6
ByLayer
370
18
48
1
60
0
100
AcDbSpline
70
4
71
3
72
8
73
4
40
0
40
0
40
0
40
0
40
1
40
1
40
1
40
1
41
1
10
25.2559972087007
20
4.44644753711381
30
0
41
1
10
25.244591548884
20
4.4352478878366
30
0
41
1
10
25.2331309336901
20
4.42410420201557
30
0
41
1
10
25.2216159134492
20
4.41301701476203
30
0
0
SPLINE
5
20C
100
AcDbEntity
8
1
62
256
6
ByLayer
370
18
48
1
60
0
100
AcDbSpline
70
4
71
3
72
15
73
11
40
0
40
0
40
0
40
0
40
0.0354049916613495
40
0.128323993329078
40
0.314161996664535
40
0.499999999999992
40
0.685838003335449
40
0.871676006670906
40
0.964595008338635
40
1
40
1
40
1
40
1
41
1
10
20.7730750152276
20
9.9141964415614
30
0
41
1
10
20.771243685246
20
9.91605580780508
30
0
41
1
10
20.7648952308047
20
9.92263233205256
30
0
41
1
10
20.7504770178703
20
9.9409521402514
30
0
41
1
10
20.733962984972
20
9.97411611160653
30
0
41
1
10
20.7266643293208
20
10.0202099455386
30
0
41
1
10
20.7338997784925
20
10.0662938133988
30
0
41
1
10
20.7503683456635
20
10.099435168503
30
0
41
1
10
20.7647614482685
20
10.117735220711
30
0
41
1
10
20.7711008895973
20
10.1243030448368
30
0
41
1
10
20.7729296713557
20
10.1261599013328
30
0
0
SPLINE
5
20D
100
AcDbEntity
8
1
62
256
6
ByLayer
370
18
48
1
60
0
100
AcDbSpline
70
4
71
3
72
35
73
31
40
0
40
0
40
0
40
0
40
0.260971040459971
40
0.521942080919942
40
0.782913121379913
40
0.815534501437409
40
0.848155881494905
40
0.864466571523653
40
0.880777261552402
40
0.89708795158115
40
0.913398641609898
40
0.921553986624272
40
0.925631659131459
40
0.929709331638646
40
0.930728749765443
40
0.93174816789224
40
0.933787004145833
40
0.93786467665302
40
0.941942349160207
40
0.946020021667394
40
0.950097694174581
40
0.954175366681768
40
0.962330711696142
40
0.978641401724891
40
0.986796746739265
40
0.993932673626842
40
0.994952091753639
40
0.996990928007232
40
0.999029764260826
40
1
40
1
40
1
40
1
41
1
10
22.6695249869026
20
8.01772309318636
30
0
41
1
10
22.5045445032235
20
8.18270357686549
30
0
41
1
10
22.1745835358652
20
8.51266454422375
30
0
41
1
10
21.6796914659602
20
9.00756165687012
30
0
41
1
10
21.328940042292
20
9.35829593521777
30
0
41
1
10
21.1228881534623
20
9.56436556369111
30
0
41
1
10
21.0713649980921
20
9.61589211407998
30
0
41
1
10
21.0301251713995
20
9.65713248141265
30
0
41
1
10
20.9991808520571
20
9.68807573068774
30
0
41
1
10
20.9682182852671
20
9.71903536400325
30
0
41
1
10
20.9423977749651
20
9.74485155368718
30
0
41
1
10
20.9243121111363
20
9.76293303846532
30
0
41
1
10
20.9139769526191
20
9.7732657585608
30
0
41
1
10
20.9081637540868
20
9.77907761898955
30
0
41
1
10
20.9042886389482
20
9.78295187785676
30
0
41
1
10
20.9017053365909
20
9.78553462036828
30
0
41
1
10
20.8971848776898
20
9.79005413224003
30
0
41
1
10
20.8907282080138
20
9.79650956428411
30
0
41
1
10
20.8829826946565
20
9.80425384678482
30
0
41
1
10
20.8752403558005
20
9.8119952789604
30
0
41
1
10
20.8675018756934
20
9.81973324643786
30
0
41
1
10
20.8571899595457
20
9.8300450976464
30
0
41
1
10
20.8391624016407
20
9.84807441020723
30
0
41
1
10
20.8186122442312
20
9.8686319613284
30
0
41
1
10
20.7987766078888
20
9.88848214644283
30
0
41
1
10
20.7884314822089
20
9.89882381586645
30
0
41
1
10
20.7818918623628
20
9.90535372730984
30
0
41
1
10
20.7786071719646
20
9.90863204393064
30
0
41
1
10
20.7754442903902
20
9.91180181239292
30
0
41
1
10
20.7736468118339
20
9.91361589118611
30
0
41
1
10
20.7730750152276
20
9.9141964415614
30
0
0
SPLINE
5
20E
100
AcDbEntity
8
1
62
256
6
ByLayer
370
18
48
1
60
0
100
AcDbSpline
70
4
71
1
72
4
73
2
40
0
40
0
40
1
40
1
41
1
10
21.6010852889819
20
13.1076109544141
30
0
41
1
10
24.0405909608792
20
15.5471166263114
30
0
0
SPLINE
5
20F
100
AcDbEntity
8
1
62
256
6
ByLayer
370
18
48
1
60
0
100
AcDbSpline
70
4
71
1
72
4
73
2
40
0
40
0
40
1
40
1
41
1
10
21.6053051759268
20
6.95350328221059
30
0
41
1
10
19.1624516581838
20
9.39635679995361
30
0
0
SPLINE
5
210
100
AcDbEntity
8
1
62
256
6
ByLayer
370
18
48
1
60
0
100
AcDbSpline
70
4
71
1
72
4
73
2
40
0
40
0
40
1
40
1
41
1
10
27.7594128481303
20
6.9492833952657
30
0
41
1
10
25.319907176233
20
4.50977772336842
30
0
0
SPLINE
5
211
100
AcDbEntity
8
1
62
256
6
ByLayer
370
18
48
1
60
0
100
AcDbSpline
70
4
71
3
72
8
73
4
40
0
40
0
40
0
40
0
40
1
40
1
40
1
40
1
41
1
10
25.319907176233
20
4.50977772336842
30
0
41
1
10
25.2987001912043
20
4.48857073833962
30
0
41
1
10
25.2773965746311
20
4.46746038486003
30
0
41
1
10
25.2559972087008
20
4.44644753711381
30
0
0
SPLINE
5
212
100
AcDbEntity
8
1
62
256
6
ByLayer
370
18
48
1
60
0
100
AcDbSpline
70
4
71
3
72
8
73
4
40
0
40
0
40
0
40
0
40
1
40
1
40
1
40
1
41
1
10
25.2216159134492
20
4.41301701476203
30
0
41
1
10
25.183618363017
20
4.37643123827154
30
0
41
1
10
25.1453275937624
20
4.34014996384253
30
0
41
1
10
25.1067485103694
20
4.30417783876175
30
0
0
SPLINE
5
213
100
AcDbEntity
8
1
62
256
6
ByLayer
370
18
48
1
60
0
100
AcDbSpline
70
4
71
3
72
38
73
34
40
0
40
0
40
0
40
0
40
0.0009702357391722
40
0.0030090719927657
40
0.0050479082463592
40
0.006067326373156
40
0.0132032532607333
40
0.0213585982751074
40
0.0376692883038556
40
0.0417469608110427
40
0.0458246333182297
40
0.0499023058254168
40
0.0539799783326038
40
0.0621353233469779
40
0.066212995854165
40
0.0682518321077585
40
0.0692712502345553
40
0.070290668361352
40
0.0708003774247504
40
0.0743683408685391
40
0.0784460133757262
40
0.0866013583901003
40
0.102912048418849
40
0.111067393433223
40
0.119222738447597
40
0.135533428476345
40
0.151844118505093
40
0.18446549856259
40
0.217086878620086
40
0.347572398850072
40
0.478057919080057
40
0.739028959540029
40
1
40
1
40
1
40
1
41
1
10
28.5656870455104
20
9.90885302810088
30
0
41
1
10
28.5651160445364
20
9.90827326134473
30
0
41
1
10
28.5633210521277
20
9.90646164591783
30
0
41
1
10
28.5601625146173
20
9.90329621206834
30
0
41
1
10
28.5568823170321
20
9.90002239700758
30
0
41
1
10
28.5503516461936
20
9.89350144789502
30
0
41
1
10
28.5400206934089
20
9.88317395610986
30
0
41
1
10
28.520212261069
20
9.86335095503198
30
0
41
1
10
28.5022555250749
20
9.84538774066182
30
0
41
1
10
28.4868310989635
20
9.82996113402258
30
0
41
1
10
28.4791129816902
20
9.82224253098802
30
0
41
1
10
28.4713896436046
20
9.81451924167368
30
0
41
1
10
28.4610858096152
20
9.80421609212841
30
0
41
1
10
28.4507742676237
20
9.79390602376424
30
0
41
1
10
28.441747315799
20
9.78488080700211
30
0
41
1
10
28.4372330507311
20
9.78036749026307
30
0
41
1
10
28.4346532879321
20
9.77778828807818
30
0
41
1
10
28.4330408689312
20
9.77617622634659
30
0
41
1
10
28.4298159433997
20
9.77295202431557
30
0
41
1
10
28.424655717565
20
9.76779299140277
30
0
41
1
10
28.4146572508632
20
9.75779689016383
30
0
41
1
10
28.396596367077
20
9.73974019116334
30
0
41
1
10
28.3759682629848
20
9.71911554830902
30
0
41
1
10
28.355351168116
20
9.69850078749992
30
0
41
1
10
28.3347407804878
20
9.67789204721109
30
0
41
1
10
28.3089891865747
20
9.65214134624452
30
0
41
1
10
28.2678058783727
20
9.61095749666055
30
0
41
1
10
28.2163533383523
20
9.55950155696225
30
0
41
1
10
28.0928916518228
20
9.43602921203967
30
0
41
1
10
27.9075630506428
20
9.25069855492592
30
0
41
1
10
27.5779441344899
20
8.92109091635085
30
0
41
1
10
27.1660992756504
20
8.50924184945995
30
0
41
1
10
26.8365905083302
20
8.17973308213979
30
0
41
1
10
26.6718361246702
20
8.01497869847972
30
0
0
SPLINE
5
214
100
AcDbEntity
8
1
62
256
6
ByLayer
370
18
48
1
60
0
100
AcDbSpline
70
4
71
3
72
8
73
4
40
0
40
0
40
0
40
0
40
1
40
1
40
1
40
1
41
1
10
19.0648189084783
20
10.569814019733
30
0
41
1
10
19.0759060957318
20
10.5813290399739
30
0
41
1
10
19.0870497815529
20
10.5927896551677
30
0
41
1
10
19.0982494308301
20
10.6041953149845
30
0
0
SPLINE
5
215
100
AcDbEntity
8
1
62
256
6
ByLayer
370
18
48
1
60
0
100
AcDbSpline
70
4
71
3
72
8
73
4
40
0
40
0
40
0
40
0
40
1
40
1
40
1
40
1
41
1
10
25.1067485103694
20
4.30417783876175
30
0
41
1
10
25.084647365949
20
4.28357016585721
30
0
41
1
10
25.0601958956606
20
4.26548461956833
30
0
41
1
10
25.0340186618491
20
4.25038315784947
30
0
0
SPLINE
5
216
100
AcDbEntity
8
1
62
256
6
ByLayer
370
18
48
1
60
0
100
AcDbSpline
70
4
71
3
72
8
73
4
40
0
40
0
40
0
40
0
40
1
40
1
40
1
40
1
41
1
10
25.0340186618491
20
4.25038315784946
30
0
41
1
10
24.8226087138511
20
4.12842224862356
30
0
41
1
10
24.5459806167414
20
4.12861193319813
30
0
41
1
10
24.334403212062
20
4.25086288590433
30
0
0
SPLINE
5
217
100
AcDbEntity
8
1
62
256
6
ByLayer
370
18
48
1
60
0
100
AcDbSpline
70
4
71
3
72
8
73
4
40
0
40
0
40
0
40
0
40
1
40
1
40
1
40
1
41
1
10
24.334403212062
20
4.25086288590433
30
0
41
1
10
24.3082052434045
20
4.26600026142985
30
0
41
1
10
24.2837289475027
20
4.28411935760977
30
0
41
1
10
24.2615995208204
20
4.30475735952697
30
0
0
SPLINE
5
218
100
AcDbEntity
8
1
62
256
6
ByLayer
370
18
48
1
60
0
100
AcDbSpline
70
4
71
3
72
8
73
4
40
0
40
0
40
0
40
0
40
1
40
1
40
1
40
1
41
1
10
24.2615995208204
20
4.30475735952697
30
0
41
1
10
24.222971068774
20
4.34078242600694
30
0
41
1
10
24.184630507168
20
4.3771162467302
30
0
41
1
10
24.1465827470642
20
4.41375416767936
30
0
0
SPLINE
5
219
100
AcDbEntity
8
1
62
256
6
ByLayer
370
18
48
1
60
0
100
AcDbSpline
70
4
71
3
72
8
73
4
40
0
40
0
40
0
40
0
40
1
40
1
40
1
40
1
41
1
10
24.1465827470642
20
4.41375416767936
30
0
41
1
10
24.1350525109639
20
4.42485715712252
30
0
41
1
10
24.1235766024794
20
4.43601657057491
30
0
41
1
10
24.112155572675
20
4.44723187216999
30
0
0
SPLINE
5
21A
100
AcDbEntity
8
1
62
256
6
ByLayer
370
18
48
1
60
0
100
AcDbSpline
70
4
71
3
72
8
73
4
40
0
40
0
40
0
40
0
40
1
40
1
40
1
40
1
41
1
10
24.112155572675
20
4.44723187216999
30
0
41
1
10
24.0907273694837
20
4.46827408688694
30
0
41
1
10
24.0693947820197
20
4.48941367611772
30
0
41
1
10
24.0481586936699
20
4.51064976446756
30
0
0
SPLINE
5
21B
100
AcDbEntity
8
1
62
256
6
ByLayer
370
18
48
1
60
0
100
AcDbSpline
70
4
71
1
72
4
73
2
40
0
40
0
40
1
40
1
41
1
10
24.0481586936699
20
4.51064976446757
30
0
41
1
10
21.6053051759268
20
6.95350328221059
30
0
0
SPLINE
5
21C
100
AcDbEntity
8
1
62
256
6
ByLayer
370
18
48
1
60
0
100
AcDbSpline
70
4
71
3
72
38
73
34
40
0
40
0
40
0
40
0
40
0.0009702357391698
40
0.0030090719927634
40
0.0050479082463569
40
0.0060673263731537
40
0.013203253260731
40
0.0213585982751051
40
0.0376692883038534
40
0.0417469608110405
40
0.0458246333182275
40
0.0499023058254146
40
0.0539799783326017
40
0.0621353233469758
40
0.0662129958541628
40
0.0682518321077564
40
0.0692712502345531
40
0.0702906683613499
40
0.0708003774247483
40
0.074368340868537
40
0.078446013375724
40
0.0866013583900981
40
0.102912048418846
40
0.111067393433221
40
0.119222738447595
40
0.135533428476343
40
0.151844118505091
40
0.184465498562588
40
0.217086878620084
40
0.34757239885007
40
0.478057919080056
40
0.739028959540028
40
1
40
1
40
1
40
1
41
1
10
24.5659983352776
20
6.12127312151131
30
0
41
1
10
24.5654177849024
20
6.12184491811763
30
0
41
1
10
24.5636037061092
20
6.12364239667397
30
0
41
1
10
24.5604339376469
20
6.12680527824833
30
0
41
1
10
24.5571556210261
20
6.13008996864652
30
0
41
1
10
24.5506257095827
20
6.13662958849261
30
0
41
1
10
24.5402840401591
20
6.14697471417252
30
0
41
1
10
24.5204338550446
20
6.16681035051495
30
0
41
1
10
24.5024459978136
20
6.18479173824826
30
0
41
1
10
24.4869982235229
20
6.20023733499947
30
0
41
1
10
24.4792690285605
20
6.2079660448664
30
0
41
1
10
24.4715351401541
20
6.21569998197717
30
0
41
1
10
24.4612178501841
20
6.22601795545332
30
0
41
1
10
24.450893630818
20
6.23634364642717
30
0
41
1
10
24.4418560259563
20
6.24538298397358
30
0
41
1
10
24.4373365140845
20
6.2499034428746
30
0
41
1
10
24.434753771573
20
6.25248674523192
30
0
41
1
10
24.433139497045
20
6.25410137653967
30
0
41
1
10
24.429910869301
20
6.25733072679257
30
0
41
1
10
24.4247447547741
20
6.26249803260654
30
0
41
1
10
24.4147349321816
20
6.27251021742008
30
0
41
1
10
24.3966534474034
20
6.29059588124889
30
0
41
1
10
24.3760004956563
20
6.31125228949044
30
0
41
1
10
24.3553574410618
20
6.33189767494584
30
0
41
1
10
24.3347204161915
20
6.3525363448979
30
0
41
1
10
24.3089343751289
20
6.37832327768322
30
0
41
1
10
24.2676940077963
20
6.41956310437584
30
0
41
1
10
24.2161674574074
20
6.47108625974603
30
0
41
1
10
24.0925256803234
20
6.59471739304385
30
0
41
1
10
23.9069406882435
20
6.78030033200756
30
0
41
1
10
23.5768806984787
20
7.11037158389476
30
0
41
1
10
23.16446643794
20
7.52278164214896
30
0
41
1
10
22.8345054705818
20
7.85274260950722
30
0
41
1
10
22.6695249869026
20
8.01772309318636
30
0
0
SPLINE
5
21D
100
AcDbEntity
8
1
62
256
6
ByLayer
370
18
48
1
60
0
100
AcDbSpline
70
4
71
3
72
15
73
11
40
0
40
0
40
0
40
0
40
0.0354049916613439
40
0.128323993329072
40
0.314161996664527
40
0.499999999999983
40
0.685838003335438
40
0.871676006670894
40
0.964595008338622
40
1
40
1
40
1
40
1
41
1
10
24.777961795049
20
6.12112777763947
30
0
41
1
10
24.776104938553
20
6.11929899588108
30
0
41
1
10
24.7695371144273
20
6.11295955455222
30
0
41
1
10
24.7512370622192
20
6.09856645194719
30
0
41
1
10
24.718095707115
20
6.08209788477622
30
0
41
1
10
24.6720118392548
20
6.07486243560456
30
0
41
1
10
24.6259180053228
20
6.08216109125571
30
0
41
1
10
24.5927540339677
20
6.09867512415403
30
0
41
1
10
24.5744342257688
20
6.11309333708849
30
0
41
1
10
24.5678577015213
20
6.11944179152972
30
0
41
1
10
24.5659983352776
20
6.12127312151131
30
0
0
SPLINE
5
21E
100
AcDbEntity
8
1
62
256
6
ByLayer
370
18
48
1
60
0
100
AcDbSpline
70
4
71
3
72
8
73
4
40
0
40
0
40
0
40
0
40
1
40
1
40
1
40
1
41
1
10
18.9021850515657
20
10.3822167681328
30
0
41
1
10
18.9172865132846
20
10.4083940019444
30
0
41
1
10
18.9353720595735
20
10.4328454722327
30
0
41
1
10
18.955979732478
20
10.4549466166531
30
0
0
SPLINE
5
21F
100
AcDbEntity
8
1
62
256
6
ByLayer
370
18
48
1
60
0
100
AcDbSpline
70
4
71
3
72
35
73
31
40
0
40
0
40
0
40
0
40
0.260971040459971
40
0.521942080919941
40
0.782913121379912
40
0.815534501437408
40
0.848155881494905
40
0.864466571523653
40
0.880777261552401
40
0.897087951581149
40
0.913398641609897
40
0.921553986624272
40
0.925631659131459
40
0.929709331638646
40
0.930728749765442
40
0.931748167892239
40
0.933787004145833
40
0.93786467665302
40
0.941942349160207
40
0.946020021667394
40
0.950097694174581
40
0.954175366681768
40
0.962330711696142
40
0.97864140172489
40
0.986796746739264
40
0.993932673626842
40
0.994952091753638
40
0.996990928007232
40
0.999029764260825
40
1
40
1
40
1
40
1
41
1
10
26.6718361246702
20
8.01497869847972
30
0
41
1
10
26.5070817410101
20
7.85022431481966
30
0
41
1
10
26.17757297369
20
7.52071554749949
30
0
41
1
10
25.6833540934209
20
7.02650171689214
30
0
41
1
10
25.3331005077252
20
6.67623096234669
30
0
41
1
10
25.1273132661876
20
6.47046148479763
30
0
41
1
10
25.0758573264893
20
6.41900894477715
30
0
41
1
10
25.0346734769054
20
6.37782563657518
30
0
41
1
10
25.0037726357455
20
6.34692372387951
30
0
41
1
10
24.9728554355544
20
6.3160035861882
30
0
41
1
10
24.9470746319866
20
6.29021845607294
30
0
41
1
10
24.9290179329861
20
6.27215757228667
30
0
41
1
10
24.9186993768685
20
6.26183657440096
30
0
41
1
10
24.9128954832275
20
6.25603134082007
30
0
41
1
10
24.9090265350717
20
6.25216153521779
30
0
41
1
10
24.9064473328868
20
6.24958177241879
30
0
41
1
10
24.9019340161478
20
6.24506750735084
30
0
41
1
10
24.8954874327463
20
6.23861968461893
30
0
41
1
10
24.8877537652036
20
6.23088478453046
30
0
41
1
10
24.8800229436351
20
6.22315305503739
30
0
41
1
10
24.8722955814762
20
6.21542517954529
30
0
41
1
10
24.8619978623904
20
6.20512739543123
30
0
41
1
10
24.8439932559695
20
6.18712454607413
30
0
41
1
10
24.8234638681179
20
6.16660256208093
30
0
41
1
10
24.80364086704
20
6.14679412974098
30
0
41
1
10
24.7933133752549
20
6.13646317695634
30
0
41
1
10
24.7867924261423
20
6.12993250611781
30
0
41
1
10
24.7835186110816
20
6.12665230853261
30
0
41
1
10
24.7803531772321
20
6.12349377102227
30
0
41
1
10
24.7785415618052
20
6.12169877861346
30
0
41
1
10
24.777961795049
20
6.12112777763947
30
0
0
SPLINE
5
220
100
AcDbEntity
8
1
62
256
6
ByLayer
370
18
48
1
60
0
100
AcDbSpline
70
4
71
3
72
36
73
32
40
0
40
0
40
0
40
0
40
0.0078125
40
0.015625
40
0.01953125
40
0.0234375
40
0.03125
40
0.0625
40
0.125
40
0.1875
40
0.203125
40
0.21875
40
0.25
40
0.3125
40
0.375
40
0.4375
40
0.5
40
0.515625
40
0.53125
40
0.5625
40
0.625
40
0.6875
40
0.71875
40
0.734375
40
0.75
40
0.8125
40
0.875
40
0.890625
40
0.90625
40
0.9375
40
1
40
1
40
1
40
1
41
1
10
22.6695249869026
20
8.01772309318636
30
0
41
1
10
22.6665852214794
20
8.01478332776318
30
0
41
1
10
22.6606277818823
20
8.00882588816606
30
0
41
1
10
22.6536932959306
20
8.00189140221434
30
0
41
1
10
22.6489559042801
20
7.99715401056389
30
0
41
1
10
22.6442433095287
20
7.99244141581244
30
0
41
1
10
22.6312842891954
20
7.97948239547915
30
0
41
1
10
22.6006534173728
20
7.94885152365657
30
0
41
1
10
22.5535262356659
20
7.90172434194965
30
0
41
1
10
22.5111251447363
20
7.85932325102007
30
0
41
1
10
22.4828353184208
20
7.83103342470451
30
0
41
1
10
22.4641052959927
20
7.81230340227647
30
0
41
1
10
22.4305983973624
20
7.77879650364611
30
0
41
1
10
22.3791968504969
20
7.7273949567806
30
0
41
1
10
22.313414392885
20
7.66161249916874
30
0
41
1
10
22.2446378100203
20
7.592835916304
30
0
41
1
10
22.1918633458869
20
7.54006145217066
30
0
41
1
10
22.1565598263059
20
7.50475793258967
30
0
41
1
10
22.1330591709823
20
7.48125727726602
30
0
41
1
10
22.0912187443849
20
7.43941685066861
30
0
41
1
10
22.0317838750793
20
7.37998198136309
30
0
41
1
10
21.9722367907532
20
7.32043489703693
30
0
41
1
10
21.9305646866867
20
7.27876279297047
30
0
41
1
10
21.9067610508074
20
7.25495915709112
30
0
41
1
10
21.8711118026235
20
7.21930990890731
30
0
41
1
10
21.8170974491508
20
7.1652955554345
30
0
41
1
10
21.7633791192462
20
7.11157722553
30
0
41
1
10
21.7281036381571
20
7.07630174444083
30
0
41
1
10
21.7047662790992
20
7.05296438538291
30
0
41
1
10
21.6637863967744
20
7.01198450305809
30
0
41
1
10
21.6287030427323
20
6.97690114901603
30
0
41
1
10
21.6053051759268
20
6.95350328221059
30
0
0
SPLINE
5
221
100
AcDbEntity
8
1
62
256
6
ByLayer
370
18
48
1
60
0
100
AcDbSpline
70
4
71
3
72
8
73
4
40
0
40
0
40
0
40
0
40
1
40
1
40
1
40
1
41
1
10
25.0260949250503
20
15.8060314637755
30
0
41
1
10
25.0522928937078
20
15.7908940882499
30
0
41
1
10
25.0767691896096
20
15.77277499207
30
0
41
1
10
25.0988986162919
20
15.7521369901528
30
0
0
LINE
5
70
100
AcDbEntity
8
81
62
256
6
ByLayer
370
13
48
1
60
0
100
AcDbLine
10
25
20
16
30
0
11
27
21
16
31
0
39
0
210
0
220
0
230
1
0
LINE
5
71
100
AcDbEntity
8
80
62
256
6
ByLayer
370
13
48
1
60
0
100
AcDbLine
10
0
20
0
30
0
11
-4
21
0
31
0
39
0
210
0
220
0
230
1
0
LINE
5
72
100
AcDbEntity
8
1
62
256
6
ByLayer
370
18
48
1
60
0
100
AcDbLine
10
0.2
20
6.7435
30
0
11
0
21
6.5435
31
0
39
0
210
0
220
0
230
1
0
LINE
5
74
100
AcDbEntity
8
SK1
62
256
6
ByLayer
370
18
48
1
60
0
100
AcDbLine
10
12.934179
20
-5.219793
30
0
11
13.126866
21
-5.040478
31
0
39
0
210
0
220
0
230
1
0
LINE
5
76
100
AcDbEntity
8
SK1
62
256
6
ByLayer
370
18
48
1
60
0
100
AcDbLine
10
9.273134
20
-5.040478
30
0
11
9.465821
21
-5.219793
31
0
39
0
210
0
220
0
230
1
0
LINE
5
77
100
AcDbEntity
8
SK1
62
256
6
ByLayer
370
18
48
1
60
0
100
AcDbLine
10
9.2
20
0.001117
30
0
11
9.2
21
-4.901777
31
0
39
0
210
0
220
0
230
1
0
LINE
5
78
100
AcDbEntity
8
SK1
62
256
6
ByLayer
370
18
48
1
60
0
100
AcDbLine
10
13.2
20
-4.901777
30
0
11
13.2
21
0.001117
31
0
39
0
210
0
220
0
230
1
0
LINE
5
79
100
AcDbEntity
8
1
62
256
6
ByLayer
370
18
48
1
60
0
100
AcDbLine
10
7.45
20
10.726903
30
0
11
7.45
21
10.626738
31
0
39
0
210
0
220
0
230
1
0
LINE
5
7A
100
AcDbEntity
8
1
62
256
6
ByLayer
370
18
48
1
60
0
100
AcDbLine
10
14.95
20
10.626738
30
0
11
14.95
21
10.726903
31
0
39
0
210
0
220
0
230
1
0
LINE
5
7B
100
AcDbEntity
8
1
62
256
6
ByLayer
370
18
48
1
60
0
100
AcDbLine
10
0
20
2.4565
30
0
11
0.2
21
2.2565
31
0
39
0
210
0
220
0
230
1
0
LINE
5
7C
100
AcDbEntity
8
1
62
256
6
ByLayer
370
18
48
1
60
0
100
AcDbLine
10
0.700013
20
6.7435
30
0
11
0.2
21
6.7435
31
0
39
0
210
0
220
0
230
1
0
LINE
5
7D
100
AcDbEntity
8
1
62
256
6
ByLayer
370
18
48
1
60
0
100
AcDbLine
10
0.2
20
2.2565
30
0
11
0.70005
21
2.2565
31
0
39
0
210
0
220
0
230
1
0
LINE
5
7E
100
AcDbEntity
8
1
62
256
6
ByLayer
370
18
48
1
60
0
100
AcDbLine
10
19.742738
20
7.263413
30
0
11
19.74268
21
7.282024
31
0
39
0
210
0
220
0
230
1
0
LINE
5
7F
100
AcDbEntity
8
1
62
256
6
ByLayer
370
18
48
1
60
0
100
AcDbLine
10
18.403345
20
8.62136
30
0
11
18.384733
21
8.621418
31
0
39
0
210
0
220
0
230
1
0
LINE
5
80
100
AcDbEntity
8
1
62
256
6
ByLayer
370
18
48
1
60
0
100
AcDbLine
10
25.88013
20
10.042623
30
0
11
25.924838
21
10.087331
31
0
39
0
210
0
220
0
230
1
0
LINE
5
81
100
AcDbEntity
8
1
62
256
6
ByLayer
370
18
48
1
60
0
100
AcDbLine
10
26.149467
20
8.534181
30
0
11
26.184652
21
8.569366
31
0
39
0
210
0
220
0
230
1
0
LINE
5
82
100
AcDbEntity
8
1
62
256
6
ByLayer
370
18
48
1
60
0
100
AcDbLine
10
23.214803
20
11.539214
30
0
11
23.179619
21
11.504029
31
0
39
0
210
0
220
0
230
1
0
LINE
5
83
100
AcDbEntity
8
1
62
256
6
ByLayer
370
18
48
1
60
0
100
AcDbLine
10
25.779148
20
10.015184
30
0
11
25.737474
21
9.97351
31
0
39
0
210
0
220
0
230
1
0
LINE
5
84
100
AcDbEntity
8
1
62
256
6
ByLayer
370
18
48
1
60
0
100
AcDbLine
10
24.618998
20
11.092086
30
0
11
24.660622
21
11.13371
31
0
39
0
210
0
220
0
230
1
0
LINE
5
85
100
AcDbEntity
8
1
62
256
6
ByLayer
370
18
48
1
60
0
100
AcDbLine
10
23.493121
20
10.039752
30
0
11
23.448413
21
9.995044
31
0
39
0
210
0
220
0
230
1
0
LINE
5
86
100
AcDbEntity
8
1
62
256
6
ByLayer
370
18
48
1
60
0
100
AcDbLine
10
24.757337
20
8.993373
30
0
11
24.715712
21
8.951749
31
0
39
0
210
0
220
0
230
1
0
LINE
5
87
100
AcDbEntity
8
1
62
256
6
ByLayer
370
18
48
1
60
0
100
AcDbLine
10
23.597186
20
10.070274
30
0
11
23.638811
21
10.111899
31
0
39
0
210
0
220
0
230
1
0
LINE
5
88
100
AcDbEntity
8
1
62
256
6
ByLayer
370
18
48
1
60
0
100
AcDbLine
10
12.243679
20
12.646345
30
0
11
12.243679
21
12.198903
31
0
39
0
210
0
220
0
230
1
0
LINE
5
89
100
AcDbEntity
8
1
62
256
6
ByLayer
370
18
48
1
60
0
100
AcDbLine
10
10.858387
20
12.751254
30
0
11
10.858387
21
12.077079
31
0
39
0
210
0
220
0
230
1
0
LINE
5
8A
100
AcDbEntity
8
1
62
256
6
ByLayer
370
18
48
1
60
0
100
AcDbLine
10
0
20
6.5435
30
0
11
0
21
2.4565
31
0
39
0
210
0
220
0
230
1
0
LINE
5
8B
100
AcDbEntity
8
1
62
256
6
ByLayer
370
18
48
1
60
0
100
AcDbLine
10
0.2
20
6.7435
30
0
11
0.2
21
2.2565
31
0
39
0
210
0
220
0
230
1
0
LINE
5
8C
100
AcDbEntity
8
1
62
256
6
ByLayer
370
13
48
1
60
0
100
AcDbLine
10
23.776068
20
15.423931
30
0
11
18.30343
21
15.055728
31
0
39
0
210
0
220
0
230
1
0
LINE
5
8D
100
AcDbEntity
8
1
62
256
6
ByLayer
370
13
48
1
60
0
100
AcDbLine
10
30.2
20
9.248571
30
0
11
30.2
21
8.682898
31
0
39
0
210
0
220
0
230
1
0
LINE
5
8E
100
AcDbEntity
8
1
62
256
6
ByLayer
370
18
48
1
60
0
100
AcDbLine
10
12.585292
20
12.283386
30
0
11
11.541613
21
12.025336
31
0
39
0
210
0
220
0
230
1
0
LINE
5
8F
100
AcDbEntity
8
1
62
256
6
ByLayer
370
18
48
1
60
0
100
AcDbLine
10
12.243679
20
12.646345
30
0
11
12.585292
21
12.283386
31
0
39
0
210
0
220
0
230
1
0
LINE
5
90
100
AcDbEntity
8
1
62
256
6
ByLayer
370
18
48
1
60
0
100
AcDbLine
10
9.814708
20
12.493204
30
0
11
10.858387
21
12.751254
31
0
39
0
210
0
220
0
230
1
0
LINE
5
91
100
AcDbEntity
8
1
62
256
6
ByLayer
370
18
48
1
60
0
100
AcDbLine
10
11.541613
20
12.025336
30
0
11
10.156321
21
12.130245
31
0
39
0
210
0
220
0
230
1
0
LINE
5
92
100
AcDbEntity
8
1
62
256
6
ByLayer
370
18
48
1
60
0
100
AcDbLine
10
10.858387
20
12.751254
30
0
11
12.243679
21
12.646345
31
0
39
0
210
0
220
0
230
1
0
LINE
5
93
100
AcDbEntity
8
1
62
256
6
ByLayer
370
18
48
1
60
0
100
AcDbLine
10
10.156321
20
12.130245
30
0
11
9.814708
21
12.493204
31
0
39
0
210
0
220
0
230
1
0
LINE
5
94
100
AcDbEntity
8
1
62
256
6
ByLayer
370
13
48
1
60
0
100
AcDbLine
10
19.600602
20
8.566773
30
0
11
23.633146
21
4.534229
31
0
39
0
210
0
220
0
230
1
0
LINE
5
95
100
AcDbEntity
8
1
62
256
6
ByLayer
370
13
48
1
60
0
100
AcDbLine
10
24.484526
20
1.9
30
0
11
27.4
21
1.9
31
0
39
0
210
0
220
0
230
1
0
LINE
5
96
100
AcDbEntity
8
1
62
256
6
ByLayer
370
13
48
1
60
0
100
AcDbLine
10
16.556938
20
8.939921
30
0
11
22.969184
21
2.527675
31
0
39
0
210
0
220
0
230
1
0
LINE
5
97
100
AcDbEntity
8
1
62
256
6
ByLayer
370
13
48
1
60
0
100
AcDbLine
10
23.522362
20
3.38871
30
0
11
16.971151
21
9.939921
31
0
39
0
210
0
220
0
230
1
0
LINE
5
98
100
AcDbEntity
8
1
62
256
6
ByLayer
370
13
48
1
60
0
100
AcDbLine
10
16.556938
20
8.939921
30
0
11
3.9
21
8.939921
31
0
39
0
210
0
220
0
230
1
0
LINE
5
99
100
AcDbEntity
8
1
62
256
6
ByLayer
370
13
48
1
60
0
100
AcDbLine
10
18.30343
20
14.930265
30
0
11
16.15
21
12.781047
31
0
39
0
210
0
220
0
230
1
0
LINE
5
9A
100
AcDbEntity
8
1
62
256
6
ByLayer
370
13
48
1
60
0
100
AcDbLine
10
6.1
20
12.9
30
0
11
0.7
21
12.9
31
0
39
0
210
0
220
0
230
1
0
LINE
5
9B
100
AcDbEntity
8
1
62
256
6
ByLayer
370
13
48
1
60
0
100
AcDbLine
10
16.971151
20
9.939921
30
0
11
6.2
21
9.939921
31
0
39
0
210
0
220
0
230
1
0
LINE
5
9C
100
AcDbEntity
8
1
62
256
6
ByLayer
370
13
48
1
60
0
100
AcDbLine
10
19.399826
20
11.288054
30
0
11
19.223291
21
11.11152
31
0
39
0
210
0
220
0
230
1
0
LINE
5
9D
100
AcDbEntity
8
1
62
256
6
ByLayer
370
13
48
1
60
0
100
AcDbLine
10
0.7
20
0.506983
30
0
11
1.2
21
0.00589
31
0
39
0
210
0
220
0
230
1
0
LINE
5
9E
100
AcDbEntity
8
1
62
256
6
ByLayer
370
13
48
1
60
0
100
AcDbLine
10
16.271016
20
10.907767
30
0
11
23.656217
21
3.522565
31
0
39
0
210
0
220
0
230
1
0
LINE
5
9F
100
AcDbEntity
8
1
62
256
6
ByLayer
370
13
48
1
60
0
100
AcDbLine
10
27.901091
20
0.001093
30
0
11
3.398909
21
0.001093
31
0
39
0
210
0
220
0
230
1
0
LINE
5
A0
100
AcDbEntity
8
1
62
256
6
ByLayer
370
13
48
1
60
0
100
AcDbLine
10
23.635625
20
4.536709
30
0
11
19.603081
21
8.569252
31
0
39
0
210
0
220
0
230
1
0
LINE
5
A1
100
AcDbEntity
8
1
62
256
6
ByLayer
370
13
48
1
60
0
100
AcDbLine
10
23.706253
20
4.452557
30
0
11
23.635625
21
4.536709
31
0
39
0
210
0
220
0
230
1
0
LINE
5
A2
100
AcDbEntity
8
1
62
256
6
ByLayer
370
13
48
1
60
0
100
AcDbLine
10
23.706253
20
4.452557
30
0
11
23.703774
21
4.450078
31
0
39
0
210
0
220
0
230
1
0
LINE
5
A3
100
AcDbEntity
8
1
62
256
6
ByLayer
370
13
48
1
60
0
100
AcDbLine
10
3.398909
20
0.001093
30
0
11
1.2
21
0.00589
31
0
39
0
210
0
220
0
230
1
0
LINE
5
A4
100
AcDbEntity
8
1
62
256
6
ByLayer
370
13
48
1
60
0
100
AcDbLine
10
23.407382
20
15.287168
30
0
11
20.110081
21
12.00902
31
0
39
0
210
0
220
0
230
1
0
LINE
5
A5
100
AcDbEntity
8
1
62
256
6
ByLayer
370
13
48
1
60
0
100
AcDbLine
10
0.7
20
12.139921
30
0
11
0.7
21
12.9
31
0
39
0
210
0
220
0
230
1
0
LINE
5
A6
100
AcDbEntity
8
1
62
256
6
ByLayer
370
13
48
1
60
0
100
AcDbLine
10
27.901091
20
0.001093
30
0
11
27.4
21
0.501092
31
0
39
0
210
0
220
0
230
1
0
LINE
5
A7
100
AcDbEntity
8
1
62
256
6
ByLayer
370
13
48
1
60
0
100
AcDbLine
10
27.4
20
1.9
30
0
11
27.4
21
0.501092
31
0
39
0
210
0
220
0
230
1
0
LINE
5
A8
100
AcDbEntity
8
1
62
256
6
ByLayer
370
13
48
1
60
0
100
AcDbLine
10
3.9
20
8.939921
30
0
11
0.7
21
12.139921
31
0
39
0
210
0
220
0
230
1
0
LINE
5
A9
100
AcDbEntity
8
1
62
256
6
ByLayer
370
13
48
1
60
0
100
AcDbLine
10
30.2
20
2.953219
30
0
11
30.2
21
3.011018
31
0
39
0
210
0
220
0
230
1
0
LINE
5
AA
100
AcDbEntity
8
1
62
256
6
ByLayer
370
13
48
1
60
0
100
AcDbLine
10
16.271016
20
10.907767
30
0
11
16.971151
21
9.939921
31
0
39
0
210
0
220
0
230
1
0
LINE
5
AB
100
AcDbEntity
8
1
62
256
6
ByLayer
370
13
48
1
60
0
100
AcDbLine
10
30.2
20
8.682898
30
0
11
30.2
21
3.011018
31
0
39
0
210
0
220
0
230
1
0
LINE
5
AC
100
AcDbEntity
8
1
62
256
6
ByLayer
370
13
48
1
60
0
100
AcDbLine
10
16.05
20
10.90994
30
0
11
16.271016
21
10.907767
31
0
39
0
210
0
220
0
230
1
0
LINE
5
AD
100
AcDbEntity
8
1
62
256
6
ByLayer
370
13
48
1
60
0
100
AcDbLine
10
16.15
20
11.011466
30
0
11
16.15
21
12.781047
31
0
39
0
210
0
220
0
230
1
0
LINE
5
AE
100
AcDbEntity
8
1
62
256
6
ByLayer
370
13
48
1
60
0
100
AcDbLine
10
20.110081
20
12.00902
30
0
11
20.097146
21
12.009029
31
0
39
0
210
0
220
0
230
1
0
LINE
5
AF
100
AcDbEntity
8
1
62
256
6
ByLayer
370
13
48
1
60
0
100
AcDbLine
10
18.93155
20
11.526886
30
0
11
18.755016
21
11.350351
31
0
39
0
210
0
220
0
230
1
0
LINE
5
B0
100
AcDbEntity
8
1
62
256
6
ByLayer
370
13
48
1
60
0
100
AcDbLine
10
23.633146
20
4.534229
30
0
11
23.703774
21
4.450078
31
0
39
0
210
0
220
0
230
1
0
LINE
5
B1
100
AcDbEntity
8
1
62
256
6
ByLayer
370
13
48
1
60
0
100
AcDbLine
10
26.59904
20
2.950631
30
0
11
30.2
21
3.011018
31
0
39
0
210
0
220
0
230
1
0
LINE
5
B2
100
AcDbEntity
8
1
62
256
6
ByLayer
370
13
48
1
60
0
100
AcDbLine
10
18.30343
20
15.055728
30
0
11
18.30343
21
14.930265
31
0
39
0
210
0
220
0
230
1
0
LINE
5
B3
100
AcDbEntity
8
1
62
256
6
ByLayer
370
13
48
1
60
0
100
AcDbLine
10
23.635625
20
4.536709
30
0
11
23.633146
21
4.534229
31
0
39
0
210
0
220
0
230
1
0
LINE
5
B4
100
AcDbEntity
8
1
62
256
6
ByLayer
370
13
48
1
60
0
100
AcDbLine
10
19.603081
20
8.569252
30
0
11
19.600602
21
8.566773
31
0
39
0
210
0
220
0
230
1
0
LINE
5
B5
100
AcDbEntity
8
1
62
256
6
ByLayer
370
13
48
1
60
0
100
AcDbLine
10
27.901091
20
0.001093
30
0
11
30.2
21
0.006109
31
0
39
0
210
0
220
0
230
1
0
LINE
5
B6
100
AcDbEntity
8
1
62
256
6
ByLayer
370
13
48
1
60
0
100
AcDbLine
10
3.398909
20
0.001093
30
0
11
3.9
21
0.501092
31
0
39
0
210
0
220
0
230
1
0
LINE
5
B7
100
AcDbEntity
8
1
62
256
6
ByLayer
370
13
48
1
60
0
100
AcDbLine
10
30.2
20
2.953219
30
0
11
30.2
21
0.006109
31
0
39
0
210
0
220
0
230
1
0
LINE
5
B8
100
AcDbEntity
8
1
62
256
6
ByLayer
370
13
48
1
60
0
100
AcDbLine
10
3.9
20
8.939921
30
0
11
3.9
21
0.501092
31
0
39
0
210
0
220
0
230
1
0
LINE
5
B9
100
AcDbEntity
8
1
62
256
6
ByLayer
370
13
48
1
60
0
100
AcDbLine
10
16.05
20
12.848724
30
0
11
6.2
21
12.848724
31
0
39
0
210
0
220
0
230
1
0
LINE
5
BA
100
AcDbEntity
8
1
62
256
6
ByLayer
370
13
48
1
60
0
100
AcDbLine
10
28.352481
20
2.852481
30
0
11
26.465364
21
2.816955
31
0
39
0
210
0
220
0
230
1
0
LINE
5
BB
100
AcDbEntity
8
1
62
256
6
ByLayer
370
13
48
1
60
0
100
AcDbLine
10
0.7
20
0.506983
30
0
11
0.7
21
12.139921
31
0
39
0
210
0
220
0
230
1
0
LINE
5
BC
100
AcDbEntity
8
1
62
256
6
ByLayer
370
13
48
1
60
0
100
AcDbLine
10
26.59904
20
2.950631
30
0
11
26.465364
21
2.816955
31
0
39
0
210
0
220
0
230
1
0
LINE
5
BD
100
AcDbEntity
8
1
62
256
6
ByLayer
370
13
48
1
60
0
100
AcDbLine
10
18.30343
20
14.930265
30
0
11
23.407382
21
15.287168
31
0
39
0
210
0
220
0
230
1
0
LINE
5
BE
100
AcDbEntity
8
1
62
256
6
ByLayer
370
13
48
1
60
0
100
AcDbLine
10
16.15
20
12.781047
30
0
11
16.15
21
13.02224
31
0
39
0
210
0
220
0
230
1
0
LINE
5
BF
100
AcDbEntity
8
1
62
256
6
ByLayer
370
13
48
1
60
0
100
AcDbLine
10
10.5
20
10.287033
30
0
11
11.9
21
10.287033
31
0
39
0
210
0
220
0
230
1
0
LINE
5
C0
100
AcDbEntity
8
1
62
256
6
ByLayer
370
13
48
1
60
0
100
AcDbLine
10
16.15
20
13.02224
30
0
11
18.30343
21
15.055728
31
0
39
0
210
0
220
0
230
1
0
LINE
5
C1
100
AcDbEntity
8
1
62
256
6
ByLayer
370
13
48
1
60
0
100
AcDbLine
10
6.1
20
12.9
30
0
11
6.1
21
10.081343
31
0
39
0
210
0
220
0
230
1
0
LINE
5
C2
100
AcDbEntity
8
1
62
256
6
ByLayer
370
13
48
1
60
0
100
AcDbLine
10
23.407382
20
15.287168
30
0
11
23.409861
21
15.289647
31
0
39
0
210
0
220
0
230
1
0
LINE
5
C3
100
AcDbEntity
8
1
62
256
6
ByLayer
370
13
48
1
60
0
100
AcDbLine
10
6.1
20
12.9
30
0
11
6.103851
21
12.9
31
0
39
0
210
0
220
0
230
1
0
LINE
5
C4
100
AcDbEntity
8
1
62
256
6
ByLayer
370
13
48
1
60
0
100
AcDbLine
10
26.312611
20
4.79551
30
0
11
30.2
21
8.682898
31
0
39
0
210
0
220
0
230
1
0
LINE
5
C5
100
AcDbEntity
8
1
62
256
6
ByLayer
370
13
48
1
60
0
100
AcDbLine
10
6.2
20
12.848724
30
0
11
6.2
21
9.939921
31
0
39
0
210
0
220
0
230
1
0
LINE
5
C6
100
AcDbEntity
8
1
62
256
6
ByLayer
370
13
48
1
60
0
100
AcDbLine
10
16.05
20
10.90994
30
0
11
16.05
21
11.206839
31
0
39
0
210
0
220
0
230
1
0
LINE
5
C7
100
AcDbEntity
8
1
62
256
6
ByLayer
370
13
48
1
60
0
100
AcDbLine
10
16.05
20
11.541307
30
0
11
16.05
21
12.848724
31
0
39
0
210
0
220
0
230
1
0
LINE
5
C8
100
AcDbEntity
8
1
62
256
6
ByLayer
370
13
48
1
60
0
100
AcDbLine
10
28.352481
20
2.852481
30
0
11
27.4
21
1.9
31
0
39
0
210
0
220
0
230
1
0
LINE
5
C9
100
AcDbEntity
8
1
62
256
6
ByLayer
370
13
48
1
60
0
100
AcDbLine
10
3.9
20
0.501092
30
0
11
27.4
21
0.501092
31
0
39
0
210
0
220
0
230
1
0
LINE
5
CA
100
AcDbEntity
8
1
62
256
6
ByLayer
370
13
48
1
60
0
100
AcDbLine
10
16.556938
20
8.939921
30
0
11
16.971151
21
9.939921
31
0
39
0
210
0
220
0
230
1
0
LINE
5
CB
100
AcDbEntity
8
1
62
256
6
ByLayer
370
13
48
1
60
0
100
AcDbLine
10
30.2
20
2.953219
30
0
11
28.352481
21
2.852481
31
0
39
0
210
0
220
0
230
1
0
LINE
5
CC
100
AcDbEntity
8
1
62
256
6
ByLayer
370
13
48
1
60
0
100
AcDbLine
10
25.787035
20
2.515795
30
0
11
25.933183
21
2.661942
31
0
39
0
210
0
220
0
230
1
0
LINE
5
CD
100
AcDbEntity
8
1
62
256
6
ByLayer
370
13
48
1
60
0
100
AcDbLine
10
23.656217
20
3.522565
30
0
11
23.522362
21
3.38871
31
0
39
0
210
0
220
0
230
1
0
LINE
5
CE
100
AcDbEntity
8
1
62
256
6
ByLayer
370
18
48
1
60
0
100
AcDbLine
10
24.088894
20
9.018381
30
0
11
24.132338
21
9.061826
31
0
39
0
210
0
220
0
230
1
0
LINE
5
CF
100
AcDbEntity
8
1
62
256
6
ByLayer
370
18
48
1
60
0
100
AcDbLine
10
25.803246
20
10.015319
30
0
11
25.846279
21
10.058353
31
0
39
0
210
0
220
0
230
1
0
LINE
5
D0
100
AcDbEntity
8
1
62
256
6
ByLayer
370
18
48
1
60
0
100
AcDbLine
10
25.822053
20
10.020379
30
0
11
25.865497
21
10.063823
31
0
39
0
210
0
220
0
230
1
0
LINE
5
D1
100
AcDbEntity
8
1
62
256
6
ByLayer
370
18
48
1
60
0
100
AcDbLine
10
25.245412
20
9.018663
30
0
11
25.288856
21
9.062107
31
0
39
0
210
0
220
0
230
1
0
LINE
5
D2
100
AcDbEntity
8
1
62
256
6
ByLayer
370
18
48
1
60
0
100
AcDbLine
10
23.707264
20
9.4869
30
0
11
23.726649
21
9.491749
31
0
39
0
210
0
220
0
230
1
0
LINE
5
D3
100
AcDbEntity
8
1
62
256
6
ByLayer
370
18
48
1
60
0
100
AcDbLine
10
23.707545
20
10.643418
30
0
11
23.72146
21
10.629048
31
0
39
0
210
0
220
0
230
1
0
LINE
5
D4
100
AcDbEntity
8
1
62
256
6
ByLayer
370
18
48
1
60
0
100
AcDbLine
10
25.846279
20
10.058353
30
0
11
25.865497
21
10.063823
31
0
39
0
210
0
220
0
230
1
0
LINE
5
D5
100
AcDbEntity
8
1
62
256
6
ByLayer
370
18
48
1
60
0
100
AcDbLine
10
23.664101
20
10.599974
30
0
11
23.707545
21
10.643418
31
0
39
0
210
0
220
0
230
1
0
LINE
5
D6
100
AcDbEntity
8
1
62
256
6
ByLayer
370
18
48
1
60
0
100
AcDbLine
10
23.663819
20
9.443456
30
0
11
23.707264
21
9.4869
31
0
39
0
210
0
220
0
230
1
0
LINE
5
D7
100
AcDbEntity
8
1
62
256
6
ByLayer
370
18
48
1
60
0
100
AcDbLine
10
24.660757
20
11.157808
30
0
11
24.70379
21
11.200841
31
0
39
0
210
0
220
0
230
1
0
LINE
5
D8
100
AcDbEntity
8
1
62
256
6
ByLayer
370
18
48
1
60
0
100
AcDbLine
10
24.665817
20
11.176615
30
0
11
24.709261
21
11.220059
31
0
39
0
210
0
220
0
230
1
0
LINE
5
D9
100
AcDbEntity
8
1
62
256
6
ByLayer
370
18
48
1
60
0
100
AcDbLine
10
25.274486
20
9.076022
30
0
11
25.288856
21
9.062107
31
0
39
0
210
0
220
0
230
1
0
LINE
5
DA
100
AcDbEntity
8
1
62
256
6
ByLayer
370
18
48
1
60
0
100
AcDbLine
10
24.709261
20
11.220059
30
0
11
24.70379
21
11.200841
31
0
39
0
210
0
220
0
230
1
0
LINE
5
DB
100
AcDbEntity
8
1
62
256
6
ByLayer
370
18
48
1
60
0
100
AcDbLine
10
24.137187
20
9.081211
30
0
11
24.132338
21
9.061826
31
0
39
0
210
0
220
0
230
1
0
LINE
5
DC
100
AcDbEntity
8
1
62
256
6
ByLayer
370
18
48
1
60
0
100
AcDbLine
10
25.231453
20
9.032989
30
0
11
25.274486
21
9.076022
31
0
39
0
210
0
220
0
230
1
0
LINE
5
DD
100
AcDbEntity
8
1
62
256
6
ByLayer
370
18
48
1
60
0
100
AcDbLine
10
23.683615
20
9.448715
30
0
11
23.726649
21
9.491749
31
0
39
0
210
0
220
0
230
1
0
LINE
5
DE
100
AcDbEntity
8
1
62
256
6
ByLayer
370
18
48
1
60
0
100
AcDbLine
10
24.094153
20
9.038178
30
0
11
24.137187
21
9.081211
31
0
39
0
210
0
220
0
230
1
0
LINE
5
DF
100
AcDbEntity
8
1
62
256
6
ByLayer
370
18
48
1
60
0
100
AcDbLine
10
23.678426
20
10.586015
30
0
11
23.72146
21
10.629048
31
0
39
0
210
0
220
0
230
1
0
LINE
5
E0
100
AcDbEntity
8
1
62
256
6
ByLayer
370
18
48
1
60
0
100
AcDbLine
10
21.072479
20
9.789337
30
0
11
21.921008
21
8.940809
31
0
39
0
210
0
220
0
230
1
0
LINE
5
E1
100
AcDbEntity
8
1
62
256
6
ByLayer
370
18
48
1
60
0
100
AcDbLine
10
21.919528
20
11.097974
30
0
11
21.072163
21
10.250609
31
0
39
0
210
0
220
0
230
1
0
LINE
5
E2
100
AcDbEntity
8
1
62
256
6
ByLayer
370
18
48
1
60
0
100
AcDbLine
10
21.163395
20
9.880253
30
0
11
22.011923
21
9.031724
31
0
39
0
210
0
220
0
230
1
0
LINE
5
E3
100
AcDbEntity
8
1
62
256
6
ByLayer
370
18
48
1
60
0
100
AcDbLine
10
24.436206
20
13.614652
30
0
11
23.588841
21
12.767286
31
0
39
0
210
0
220
0
230
1
0
LINE
5
E4
100
AcDbEntity
8
1
62
256
6
ByLayer
370
18
48
1
60
0
100
AcDbLine
10
23.970109
20
15.617921
30
0
11
19.091098
21
10.73891
31
0
39
0
210
0
220
0
230
1
0
LINE
5
E5
100
AcDbEntity
8
1
62
256
6
ByLayer
370
18
48
1
60
0
100
AcDbLine
10
23.683526
20
7.360121
30
0
11
24.532054
21
6.511593
31
0
39
0
210
0
220
0
230
1
0
LINE
5
E6
100
AcDbEntity
8
1
62
256
6
ByLayer
370
18
48
1
60
0
100
AcDbLine
10
30.268754
20
10.731246
30
0
11
25.383047
21
15.616953
31
0
39
0
210
0
220
0
230
1
0
LINE
5
E7
100
AcDbEntity
8
1
62
256
6
ByLayer
370
18
48
1
60
0
100
AcDbLine
10
23.970109
20
15.617921
30
0
11
24.040591
21
15.547117
31
0
39
0
210
0
220
0
230
1
0
LINE
5
E8
100
AcDbEntity
8
1
62
256
6
ByLayer
370
18
48
1
60
0
100
AcDbLine
10
24.034664
20
15.681891
30
0
11
24.104501
21
15.610447
31
0
39
0
210
0
220
0
230
1
0
LINE
5
E9
100
AcDbEntity
8
1
62
256
6
ByLayer
370
18
48
1
60
0
100
AcDbLine
10
24.069746
20
15.716003
30
0
11
24.138882
21
15.643877
31
0
39
0
210
0
220
0
230
1
0
LINE
5
EA
100
AcDbEntity
8
1
62
256
6
ByLayer
370
18
48
1
60
0
100
AcDbLine
10
28.178746
20
9.875442
30
0
11
27.331381
21
9.028077
31
0
39
0
210
0
220
0
230
1
0
LINE
5
EB
100
AcDbEntity
8
1
62
256
6
ByLayer
370
18
48
1
60
0
100
AcDbLine
10
24.185773
20
15.82594
30
0
11
24.25375
21
15.752717
31
0
39
0
210
0
220
0
230
1
0
LINE
5
EC
100
AcDbEntity
8
1
62
256
6
ByLayer
370
18
48
1
60
0
100
AcDbLine
10
24.276663
20
15.893168
30
0
11
24.326479
21
15.806511
31
0
39
0
210
0
220
0
230
1
0
LINE
5
ED
100
AcDbEntity
8
1
62
256
6
ByLayer
370
18
48
1
60
0
100
AcDbLine
10
25.509598
20
12.5294
30
0
11
25.746006
21
12.765807
31
0
39
0
210
0
220
0
230
1
0
LINE
5
EE
100
AcDbEntity
8
1
62
256
6
ByLayer
370
18
48
1
60
0
100
AcDbLine
10
25.076115
20
15.892619
30
0
11
25.026095
21
15.806031
31
0
39
0
210
0
220
0
230
1
0
LINE
5
EF
100
AcDbEntity
8
1
62
256
6
ByLayer
370
18
48
1
60
0
100
AcDbLine
10
25.167098
20
15.825267
30
0
11
25.098899
21
15.752137
31
0
39
0
210
0
220
0
230
1
0
LINE
5
F0
100
AcDbEntity
8
1
62
256
6
ByLayer
370
18
48
1
60
0
100
AcDbLine
10
18.883752
20
9.541921
30
0
11
18.956559
21
9.609798
31
0
39
0
210
0
220
0
230
1
0
LINE
5
F1
100
AcDbEntity
8
1
62
256
6
ByLayer
370
18
48
1
60
0
100
AcDbLine
10
25.283276
20
15.715171
30
0
11
25.213915
21
15.64314
31
0
39
0
210
0
220
0
230
1
0
LINE
5
F2
100
AcDbEntity
8
1
62
256
6
ByLayer
370
18
48
1
60
0
100
AcDbLine
10
25.318405
20
15.68101
30
0
11
25.248343
21
15.609662
31
0
39
0
210
0
220
0
230
1
0
LINE
5
F3
100
AcDbEntity
8
1
62
256
6
ByLayer
370
18
48
1
60
0
100
AcDbLine
10
25.383047
20
15.616953
30
0
11
25.312339
21
15.546245
31
0
39
0
210
0
220
0
230
1
0
LINE
5
F4
100
AcDbEntity
8
1
62
256
6
ByLayer
370
18
48
1
60
0
100
AcDbLine
10
24.809893
20
13.52675
30
0
11
24.897478
21
13.614335
31
0
39
0
210
0
220
0
230
1
0
LINE
5
F5
100
AcDbEntity
8
1
62
256
6
ByLayer
370
18
48
1
60
0
100
AcDbLine
10
27.330024
20
11.006619
30
0
11
27.417609
21
11.094204
31
0
39
0
210
0
220
0
230
1
0
LINE
5
F6
100
AcDbEntity
8
1
62
256
6
ByLayer
370
18
48
1
60
0
100
AcDbLine
10
21.921008
20
8.940809
30
0
11
22.011923
21
9.031724
31
0
39
0
210
0
220
0
230
1
0
LINE
5
F7
100
AcDbEntity
8
1
62
256
6
ByLayer
370
18
48
1
60
0
100
AcDbLine
10
18.8164
20
9.632904
30
0
11
18.902665
21
9.682601
31
0
39
0
210
0
220
0
230
1
0
LINE
5
F8
100
AcDbEntity
8
1
62
256
6
ByLayer
370
18
48
1
60
0
100
AcDbLine
10
23.683526
20
7.360121
30
0
11
23.592611
21
7.269206
31
0
39
0
210
0
220
0
230
1
0
LINE
5
F9
100
AcDbEntity
8
1
62
256
6
ByLayer
370
18
48
1
60
0
100
AcDbLine
10
25.390712
20
4.439296
30
0
11
30.269723
21
9.318307
31
0
39
0
210
0
220
0
230
1
0
LINE
5
FA
100
AcDbEntity
8
1
62
256
6
ByLayer
370
18
48
1
60
0
100
AcDbLine
10
30.268754
20
10.731246
30
0
11
30.198046
21
10.660538
31
0
39
0
210
0
220
0
230
1
0
LINE
5
FB
100
AcDbEntity
8
1
62
256
6
ByLayer
370
18
48
1
60
0
100
AcDbLine
10
30.332812
20
10.666603
30
0
11
30.261464
21
10.596541
31
0
39
0
210
0
220
0
230
1
0
LINE
5
FC
100
AcDbEntity
8
1
62
256
6
ByLayer
370
18
48
1
60
0
100
AcDbLine
10
24.809893
20
13.52675
30
0
11
25.658421
21
12.678222
31
0
39
0
210
0
220
0
230
1
0
LINE
5
FD
100
AcDbEntity
8
1
62
256
6
ByLayer
370
18
48
1
60
0
100
AcDbLine
10
30.366973
20
10.631474
30
0
11
30.294942
21
10.562113
31
0
39
0
210
0
220
0
230
1
0
LINE
5
FE
100
AcDbEntity
8
1
62
256
6
ByLayer
370
18
48
1
60
0
100
AcDbLine
10
30.477069
20
10.515296
30
0
11
30.403939
21
10.447097
31
0
39
0
210
0
220
0
230
1
0
LINE
5
FF
100
AcDbEntity
8
1
62
256
6
ByLayer
370
18
48
1
60
0
100
AcDbLine
10
30.544421
20
10.424313
30
0
11
30.457833
21
10.374293
31
0
39
0
210
0
220
0
230
1
0
LINE
5
100
100
AcDbEntity
8
1
62
256
6
ByLayer
370
18
48
1
60
0
100
AcDbLine
10
30.54497
20
9.624862
30
0
11
30.458313
21
9.674678
31
0
39
0
210
0
220
0
230
1
0
LINE
5
101
100
AcDbEntity
8
1
62
256
6
ByLayer
370
18
48
1
60
0
100
AcDbLine
10
30.477742
20
9.533971
30
0
11
30.404518
21
9.601948
31
0
39
0
210
0
220
0
230
1
0
LINE
5
102
100
AcDbEntity
8
1
62
256
6
ByLayer
370
18
48
1
60
0
100
AcDbLine
10
30.367805
20
9.417944
30
0
11
30.295679
21
9.48708
31
0
39
0
210
0
220
0
230
1
0
LINE
5
103
100
AcDbEntity
8
1
62
256
6
ByLayer
370
18
48
1
60
0
100
AcDbLine
10
28.266137
20
10.245676
30
0
11
27.417609
21
11.094204
31
0
39
0
210
0
220
0
230
1
0
LINE
5
104
100
AcDbEntity
8
1
62
256
6
ByLayer
370
18
48
1
60
0
100
AcDbLine
10
30.333693
20
9.382862
30
0
11
30.262249
21
9.452699
31
0
39
0
210
0
220
0
230
1
0
LINE
5
105
100
AcDbEntity
8
1
62
256
6
ByLayer
370
18
48
1
60
0
100
AcDbLine
10
30.269723
20
9.318307
30
0
11
30.198919
21
9.388789
31
0
39
0
210
0
220
0
230
1
0
LINE
5
106
100
AcDbEntity
8
1
62
256
6
ByLayer
370
18
48
1
60
0
100
AcDbLine
10
21.072479
20
9.789337
30
0
11
21.163395
21
9.880253
31
0
39
0
210
0
220
0
230
1
0
LINE
5
107
100
AcDbEntity
8
1
62
256
6
ByLayer
370
18
48
1
60
0
100
AcDbLine
10
24.532054
20
6.511593
30
0
11
24.441139
21
6.420677
31
0
39
0
210
0
220
0
230
1
0
LINE
5
108
100
AcDbEntity
8
1
62
256
6
ByLayer
370
18
48
1
60
0
100
AcDbLine
10
18.993848
20
9.425743
30
0
11
19.065556
21
9.494781
31
0
39
0
210
0
220
0
230
1
0
LINE
5
109
100
AcDbEntity
8
1
62
256
6
ByLayer
370
18
48
1
60
0
100
AcDbLine
10
19.027128
20
10.674355
30
0
11
19.098249
21
10.604195
31
0
39
0
210
0
220
0
230
1
0
LINE
5
10A
100
AcDbEntity
8
1
62
256
6
ByLayer
370
18
48
1
60
0
100
AcDbLine
10
25.746006
20
12.765807
30
0
11
24.897478
21
13.614335
31
0
39
0
210
0
220
0
230
1
0
LINE
5
10B
100
AcDbEntity
8
1
62
256
6
ByLayer
370
18
48
1
60
0
100
AcDbLine
10
23.977774
20
4.440265
30
0
11
24.048159
21
4.51065
31
0
39
0
210
0
220
0
230
1
0
LINE
5
10C
100
AcDbEntity
8
1
62
256
6
ByLayer
370
18
48
1
60
0
100
AcDbLine
10
19.092067
20
9.325972
30
0
11
23.977774
21
4.440265
31
0
39
0
210
0
220
0
230
1
0
LINE
5
10D
100
AcDbEntity
8
1
62
256
6
ByLayer
370
18
48
1
60
0
100
AcDbLine
10
18.883079
20
10.523246
30
0
11
18.95598
21
10.454947
31
0
39
0
210
0
220
0
230
1
0
LINE
5
10E
100
AcDbEntity
8
1
62
256
6
ByLayer
370
18
48
1
60
0
100
AcDbLine
10
25.390712
20
4.439296
30
0
11
25.319907
21
4.509778
31
0
39
0
210
0
220
0
230
1
0
LINE
5
10F
100
AcDbEntity
8
1
62
256
6
ByLayer
370
18
48
1
60
0
100
AcDbLine
10
25.326157
20
4.375326
30
0
11
25.255997
21
4.446448
31
0
39
0
210
0
220
0
230
1
0
LINE
5
110
100
AcDbEntity
8
1
62
256
6
ByLayer
370
18
48
1
60
0
100
AcDbLine
10
25.291075
20
4.341214
30
0
11
25.221616
21
4.413017
31
0
39
0
210
0
220
0
230
1
0
LINE
5
111
100
AcDbEntity
8
1
62
256
6
ByLayer
370
18
48
1
60
0
100
AcDbLine
10
18.815851
20
10.432356
30
0
11
18.902185
21
10.382217
31
0
39
0
210
0
220
0
230
1
0
LINE
5
112
100
AcDbEntity
8
1
62
256
6
ByLayer
370
18
48
1
60
0
100
AcDbLine
10
25.175048
20
4.231277
30
0
11
25.106749
21
4.304178
31
0
39
0
210
0
220
0
230
1
0
LINE
5
113
100
AcDbEntity
8
1
62
256
6
ByLayer
370
18
48
1
60
0
100
AcDbLine
10
25.084158
20
4.16405
30
0
11
25.034019
21
4.250383
31
0
39
0
210
0
220
0
230
1
0
LINE
5
114
100
AcDbEntity
8
1
62
256
6
ByLayer
370
18
48
1
60
0
100
AcDbLine
10
24.284706
20
4.164598
30
0
11
24.334403
21
4.250863
31
0
39
0
210
0
220
0
230
1
0
LINE
5
115
100
AcDbEntity
8
1
62
256
6
ByLayer
370
18
48
1
60
0
100
AcDbLine
10
24.193723
20
4.23195
30
0
11
24.2616
21
4.304757
31
0
39
0
210
0
220
0
230
1
0
LINE
5
116
100
AcDbEntity
8
1
62
256
6
ByLayer
370
18
48
1
60
0
100
AcDbLine
10
24.077545
20
4.342047
30
0
11
24.146583
21
4.413754
31
0
39
0
210
0
220
0
230
1
0
LINE
5
117
100
AcDbEntity
8
1
62
256
6
ByLayer
370
18
48
1
60
0
100
AcDbLine
10
19.092067
20
9.325972
30
0
11
19.162452
21
9.396357
31
0
39
0
210
0
220
0
230
1
0
LINE
5
118
100
AcDbEntity
8
1
62
256
6
ByLayer
370
18
48
1
60
0
100
AcDbLine
10
24.042416
20
4.376207
30
0
11
24.112156
21
4.447232
31
0
39
0
210
0
220
0
230
1
0
LINE
5
119
100
AcDbEntity
8
1
62
256
6
ByLayer
370
18
48
1
60
0
100
AcDbLine
10
24.814703
20
6.511399
30
0
11
25.662069
21
7.358765
31
0
39
0
210
0
220
0
230
1
0
LINE
5
11A
100
AcDbEntity
8
1
62
256
6
ByLayer
370
18
48
1
60
0
100
AcDbLine
10
23.679879
20
12.679579
30
0
11
24.527244
21
13.526944
31
0
39
0
210
0
220
0
230
1
0
LINE
5
11B
100
AcDbEntity
8
1
62
256
6
ByLayer
370
18
48
1
60
0
100
AcDbLine
10
27.330024
20
11.006619
30
0
11
28.178552
21
10.158091
31
0
39
0
210
0
220
0
230
1
0
LINE
5
11C
100
AcDbEntity
8
1
62
256
6
ByLayer
370
18
48
1
60
0
100
AcDbLine
10
19.028009
20
9.390614
30
0
11
19.099034
21
9.460354
31
0
39
0
210
0
220
0
230
1
0
LINE
5
11D
100
AcDbEntity
8
1
62
256
6
ByLayer
370
18
48
1
60
0
100
AcDbLine
10
18.993016
20
10.639273
30
0
11
19.064819
21
10.569814
31
0
39
0
210
0
220
0
230
1
0
LINE
5
11E
100
AcDbEntity
8
1
62
256
6
ByLayer
370
18
48
1
60
0
100
AcDbLine
10
28.178552
20
10.158091
30
0
11
28.266137
21
10.245676
31
0
39
0
210
0
220
0
230
1
0
LINE
5
11F
100
AcDbEntity
8
1
62
256
6
ByLayer
370
18
48
1
60
0
100
AcDbLine
10
27.419088
20
8.937039
30
0
11
28.266454
21
9.784404
31
0
39
0
210
0
220
0
230
1
0
LINE
5
120
100
AcDbEntity
8
1
62
256
6
ByLayer
370
18
48
1
60
0
100
AcDbLine
10
19.091098
20
10.73891
30
0
11
19.16158
21
10.668105
31
0
39
0
210
0
220
0
230
1
0
LINE
5
121
100
AcDbEntity
8
1
62
256
6
ByLayer
370
18
48
1
60
0
100
AcDbLine
10
22.010566
20
11.010267
30
0
11
21.163201
21
10.162901
31
0
39
0
210
0
220
0
230
1
0
LINE
5
122
100
AcDbEntity
8
1
62
256
6
ByLayer
370
18
48
1
60
0
100
AcDbLine
10
23.592611
20
7.269206
30
0
11
24.441139
21
6.420677
31
0
39
0
210
0
220
0
230
1
0
LINE
5
123
100
AcDbEntity
8
1
62
256
6
ByLayer
370
18
48
1
60
0
100
AcDbLine
10
24.902411
20
6.420361
30
0
11
25.749776
21
7.267726
31
0
39
0
210
0
220
0
230
1
0
MTEXT
5
222
100
AcDbEntity
8
SK6
62
256
6
ByLayer
370
18
48
1
60
0
100
AcDbMText
10
23.575434
20
-10.764385
30
0
210
0
220
0
230
1
1
\W0.7834;SSSPR08CCX08
40
3
41
0
44
1.084337
50
0
71
7
72
5
7
iso_b_vert
0
DIMENSION
5
230
100
AcDbEntity
8
2
62
256
6
ByLayer
370
13
48
1
60
0
100
AcDbDimension
2
DimnDraft3D1
10
0
20
21.952029
30
0
11
9.057895
21
21.952029
31
0
70
32
71
5
72
1
41
1
210
0
220
0
230
1
3
Standard
100
AcDbAlignedDimension
13
25
23
18
33
0
14
0
24
2
34
0
50
0
100
AcDbRotatedDimension
1001
ACAD
1000
DSTYLE
1002
{
1070
   279
1070
     0
1070
   172
1070
     1
1070
   173
1070
     1
1070
   340
1005
223
1070
   271
1070
     1
1070
    77
1070
     1
1070
    73
1070
     0
1070
   171
1070
     4
1070
   274
1070
     4
1070
   177
1070
     7
1070
   176
1070
     7
1070
   178
1070
     7
1070
    41
1041
3.175
1070
   147
1041
1.5
1070
    42
1041
2.0
1070
    44
1041
2.0
1070
   140
1041
3.0
1070
   343
1005
0
1070
   344
1005
0
1002
}
0
DIMENSION
5
23B
100
AcDbEntity
8
SK2
62
256
6
ByLayer
370
13
48
1
60
0
100
AcDbDimension
2
DimnDraft3D2
10
26
20
16
30
0
11
38.733299
21
10.311481
31
0
70
34
71
5
72
1
41
1
210
0
220
0
230
1
3
Standard
100
AcDb2LineAngularDimension
13
30.268754
23
10.731246
33
0
14
25.383047
24
15.616953
34
0
15
25
25
16
35
0
16
41.504938
26
9.163431
36
0
40
0
0
DIMENSION
5
245
100
AcDbEntity
8
SK2
62
256
6
ByLayer
370
13
48
1
60
0
100
AcDbDimension
2
DimnDraft3D3
10
50.918712
20
16
30
0
11
50.918712
21
4.857002
31
0
70
32
71
5
72
1
41
1
210
0
220
0
230
1
3
Standard
100
AcDbAlignedDimension
13
32.2
23
0.006109
33
0
14
27
24
16
34
0
50
90
100
AcDbRotatedDimension
1001
ACAD
1000
DSTYLE
1002
{
1070
    74
1070
     0
1070
   279
1070
     0
1070
   172
1070
     1
1070
   173
1070
     1
1070
   340
1005
223
1070
   271
1070
     1
1070
    77
1070
     1
1070
    73
1070
     0
1070
   171
1070
     4
1070
   274
1070
     4
1070
   177
1070
     7
1070
   176
1070
     7
1070
   178
1070
     7
1070
    41
1041
3.175
1070
   147
1041
1.5
1070
    42
1041
2.0
1070
    44
1041
2.0
1070
   140
1041
3.0
1070
   343
1005
0
1070
   344
1005
0
1002
}
0
DIMENSION
5
24F
100
AcDbEntity
8
SK2
62
256
6
ByLayer
370
13
48
1
60
0
100
AcDbDimension
2
DimnDraft3D4
10
11.199913
20
-13.213138
30
0
11
2.828904
21
-13.213138
31
0
70
32
71
5
72
1
41
1
210
0
220
0
230
1
3
Standard
100
AcDbAlignedDimension
13
0
23
-2
33
0
14
11.199913
24
-7.560837
34
0
50
0
100
AcDbRotatedDimension
1001
ACAD
1000
DSTYLE
1002
{
1070
   279
1070
     0
1070
   172
1070
     1
1070
   173
1070
     1
1070
   340
1005
223
1070
   271
1070
     1
1070
    77
1070
     1
1070
    73
1070
     0
1070
   171
1070
     4
1070
   274
1070
     4
1070
   177
1070
     7
1070
   176
1070
     7
1070
   178
1070
     7
1070
    41
1041
3.175
1070
   147
1041
1.5
1070
    42
1041
2.0
1070
    44
1041
2.0
1070
   140
1041
3.0
1070
   343
1005
0
1070
   344
1005
0
1002
}
0
ENDSEC
0
SECTION
2
OBJECTS
0
DICTIONARY
5
2bc
330
0
100
AcDbDictionary
280
0
281
1
3
ACAD_GROUP
350
2bd
3
ACAD_GROUP
350
2be
3
ACAD_MLINESTYLE
350
2bf
0
DICTIONARY
5
2bd
330
0
100
AcDbDictionary
280
0
281
1
0
DICTIONARY
5
2be
330
0
100
AcDbDictionary
280
0
281
1
3
<201056153NDI000_00>
350
259
3
<201057671MOD000_00>
350
258
0
DICTIONARY
5
2bf
330
0
100
AcDbDictionary
280
0
281
1
3
Standard
350
18
0
GROUP
5
259
330
2be
100
AcDbGroup
300

70
0
71
1
340
72
340
74
340
76
340
77
340
78
340
79
340
7A
340
7B
340
7C
340
7D
340
7E
340
7F
340
80
340
81
340
82
340
83
340
84
340
85
340
86
340
87
340
88
340
89
340
8A
340
8B
340
8C
340
8D
340
8E
340
8F
340
90
340
91
340
92
340
93
340
94
340
95
340
96
340
97
340
98
340
99
340
9A
340
9B
340
9C
340
9D
340
9E
340
9F
340
A0
340
A1
340
A2
340
A3
340
A4
340
A5
340
A6
340
A7
340
A8
340
A9
340
AA
340
AB
340
AC
340
AD
340
AE
340
AF
340
B0
340
B1
340
B2
340
B3
340
B4
340
B5
340
B6
340
B7
340
B8
340
B9
340
BA
340
BB
340
BC
340
BD
340
BE
340
BF
340
C0
340
C1
340
C2
340
C3
340
C4
340
C5
340
C6
340
C7
340
C8
340
C9
340
CA
340
CB
340
CC
340
CD
340
CE
340
CF
340
D0
340
D1
340
D2
340
D3
340
D4
340
D5
340
D6
340
D7
340
D8
340
D9
340
DA
340
DB
340
DC
340
DD
340
DE
340
DF
340
E0
340
E1
340
E2
340
E3
340
E4
340
E5
340
E6
340
E7
340
E8
340
E9
340
EA
340
EB
340
EC
340
ED
340
EE
340
EF
340
F0
340
F1
340
F2
340
F3
340
F4
340
F5
340
F6
340
F7
340
F8
340
F9
340
FA
340
FB
340
FC
340
FD
340
FE
340
FF
340
100
340
101
340
102
340
103
340
104
340
105
340
106
340
107
340
108
340
109
340
10A
340
10B
340
10C
340
10D
340
10E
340
10F
340
110
340
111
340
112
340
113
340
114
340
115
340
116
340
117
340
118
340
119
340
11A
340
11B
340
11C
340
11D
340
11E
340
11F
340
120
340
121
340
122
340
123
340
124
340
125
340
126
340
127
340
128
340
129
340
12A
340
12B
340
12C
340
12D
340
12E
340
12F
340
130
340
131
340
132
340
133
340
134
340
135
340
136
340
137
340
138
340
139
340
13A
340
13B
340
13C
340
13D
340
13E
340
13F
340
140
340
141
340
142
340
143
340
144
340
145
340
146
340
147
340
148
340
149
340
14A
340
14B
340
14C
340
14D
340
14E
340
14F
340
150
340
151
340
152
340
153
340
154
340
155
340
156
340
157
340
158
340
159
340
15A
340
15B
340
15C
340
15D
340
15E
340
15F
340
160
340
161
340
162
340
163
340
164
340
165
340
166
340
167
340
168
340
169
340
16A
340
16B
340
16C
340
16D
340
16E
340
16F
340
170
340
171
340
172
340
173
340
174
340
175
340
176
340
177
340
178
340
179
340
17A
340
17B
340
17C
340
17D
340
17E
340
17F
340
180
340
181
340
182
340
183
340
184
340
185
340
186
340
187
340
188
340
189
340
18A
340
18B
340
18C
340
18D
340
18E
340
18F
340
190
340
191
340
192
340
193
340
194
340
195
340
196
340
197
340
198
340
199
340
19A
340
19B
340
19C
340
19D
340
19E
340
19F
340
1A0
340
1A1
340
1A2
340
1A3
340
1A4
340
1A5
340
1A6
340
1A7
340
1A8
340
1A9
340
1AA
340
1AB
340
1AC
340
1AD
340
1AE
340
1AF
340
1B0
340
1B1
340
1B2
340
1B3
340
1B4
340
1B5
340
1B6
340
1B7
340
1B8
340
1B9
340
1BA
340
1BB
340
1BC
340
1BD
340
1BE
340
1BF
340
1C0
340
1C1
340
1C2
340
1C3
340
1C4
340
1C5
340
1C6
340
1C7
340
1C8
340
1C9
340
1CA
340
1CB
340
1CC
340
1CD
340
1CE
340
1CF
340
1D0
340
1D1
340
1D2
340
1D3
340
1D4
340
1D5
340
1D6
340
1D7
340
1D8
340
1D9
340
1DA
340
1DB
340
1DC
340
1DD
340
1DE
340
1DF
340
1E0
340
1E1
340
1E2
340
1E3
340
1E4
340
1E5
340
1E6
340
1E7
340
1E8
340
1E9
340
1EA
340
1EB
340
1EC
340
1ED
340
1EE
340
1EF
340
1F0
340
1F1
340
1F2
340
1F3
340
1F4
340
1F5
340
1F6
340
1F7
340
1F8
340
1F9
340
1FA
340
1FB
340
1FC
340
1FD
340
1FE
340
1FF
340
200
340
201
340
202
340
203
340
204
340
205
340
206
340
207
340
208
340
209
340
20A
340
20B
340
20C
340
20D
340
20E
340
20F
340
210
340
211
340
212
340
213
340
214
340
215
340
216
340
217
340
218
340
219
340
21A
340
21B
340
21C
340
21D
340
21E
340
21F
340
220
340
221
0
GROUP
5
258
330
2be
100
AcDbGroup
300

70
0
71
1
340
6C
340
6E
340
70
340
71
340
72
340
74
340
76
340
77
340
78
340
79
340
7A
340
7B
340
7C
340
7D
340
7E
340
7F
340
80
340
81
340
82
340
83
340
84
340
85
340
86
340
87
340
88
340
89
340
8A
340
8B
340
8C
340
8D
340
8E
340
8F
340
90
340
91
340
92
340
93
340
94
340
95
340
96
340
97
340
98
340
99
340
9A
340
9B
340
9C
340
9D
340
9E
340
9F
340
A0
340
A1
340
A2
340
A3
340
A4
340
A5
340
A6
340
A7
340
A8
340
A9
340
AA
340
AB
340
AC
340
AD
340
AE
340
AF
340
B0
340
B1
340
B2
340
B3
340
B4
340
B5
340
B6
340
B7
340
B8
340
B9
340
BA
340
BB
340
BC
340
BD
340
BE
340
BF
340
C0
340
C1
340
C2
340
C3
340
C4
340
C5
340
C6
340
C7
340
C8
340
C9
340
CA
340
CB
340
CC
340
CD
340
CE
340
CF
340
D0
340
D1
340
D2
340
D3
340
D4
340
D5
340
D6
340
D7
340
D8
340
D9
340
DA
340
DB
340
DC
340
DD
340
DE
340
DF
340
E0
340
E1
340
E2
340
E3
340
E4
340
E5
340
E6
340
E7
340
E8
340
E9
340
EA
340
EB
340
EC
340
ED
340
EE
340
EF
340
F0
340
F1
340
F2
340
F3
340
F4
340
F5
340
F6
340
F7
340
F8
340
F9
340
FA
340
FB
340
FC
340
FD
340
FE
340
FF
340
100
340
101
340
102
340
103
340
104
340
105
340
106
340
107
340
108
340
109
340
10A
340
10B
340
10C
340
10D
340
10E
340
10F
340
110
340
111
340
112
340
113
340
114
340
115
340
116
340
117
340
118
340
119
340
11A
340
11B
340
11C
340
11D
340
11E
340
11F
340
120
340
121
340
122
340
123
340
124
340
125
340
126
340
127
340
128
340
129
340
12A
340
12B
340
12C
340
12D
340
12E
340
12F
340
130
340
131
340
132
340
133
340
134
340
135
340
136
340
137
340
138
340
139
340
13A
340
13B
340
13C
340
13D
340
13E
340
13F
340
140
340
141
340
142
340
143
340
144
340
145
340
146
340
147
340
148
340
149
340
14A
340
14B
340
14C
340
14D
340
14E
340
14F
340
150
340
151
340
152
340
153
340
154
340
155
340
156
340
157
340
158
340
159
340
15A
340
15B
340
15C
340
15D
340
15E
340
15F
340
160
340
161
340
162
340
163
340
164
340
165
340
166
340
167
340
168
340
169
340
16A
340
16B
340
16C
340
16D
340
16E
340
16F
340
170
340
171
340
172
340
173
340
174
340
175
340
176
340
177
340
178
340
179
340
17A
340
17B
340
17C
340
17D
340
17E
340
17F
340
180
340
181
340
182
340
183
340
184
340
185
340
186
340
187
340
188
340
189
340
18A
340
18B
340
18C
340
18D
340
18E
340
18F
340
190
340
191
340
192
340
193
340
194
340
195
340
196
340
197
340
198
340
199
340
19A
340
19B
340
19C
340
19D
340
19E
340
19F
340
1A0
340
1A1
340
1A2
340
1A3
340
1A4
340
1A5
340
1A6
340
1A7
340
1A8
340
1A9
340
1AA
340
1AB
340
1AC
340
1AD
340
1AE
340
1AF
340
1B0
340
1B1
340
1B2
340
1B3
340
1B4
340
1B5
340
1B6
340
1B7
340
1B8
340
1B9
340
1BA
340
1BB
340
1BC
340
1BD
340
1BE
340
1BF
340
1C0
340
1C1
340
1C2
340
1C3
340
1C4
340
1C5
340
1C6
340
1C7
340
1C8
340
1C9
340
1CA
340
1CB
340
1CC
340
1CD
340
1CE
340
1CF
340
1D0
340
1D1
340
1D2
340
1D3
340
1D4
340
1D5
340
1D6
340
1D7
340
1D8
340
1D9
340
1DA
340
1DB
340
1DC
340
1DD
340
1DE
340
1DF
340
1E0
340
1E1
340
1E2
340
1E3
340
1E4
340
1E5
340
1E6
340
1E7
340
1E8
340
1E9
340
1EA
340
1EB
340
1EC
340
1ED
340
1EE
340
1EF
340
1F0
340
1F1
340
1F2
340
1F3
340
1F4
340
1F5
340
1F6
340
1F7
340
1F8
340
1F9
340
1FA
340
1FB
340
1FC
340
1FD
340
1FE
340
1FF
340
200
340
201
340
202
340
203
340
204
340
205
340
206
340
207
340
208
340
209
340
20A
340
20B
340
20C
340
20D
340
20E
340
20F
340
210
340
211
340
212
340
213
340
214
340
215
340
216
340
217
340
218
340
219
340
21A
340
21B
340
21C
340
21D
340
21E
340
21F
340
220
340
221
340
72
340
74
340
76
340
77
340
78
340
79
340
7A
340
7B
340
7C
340
7D
340
7E
340
7F
340
80
340
81
340
82
340
83
340
84
340
85
340
86
340
87
340
88
340
89
340
8A
340
8B
340
8C
340
8D
340
8E
340
8F
340
90
340
91
340
92
340
93
340
94
340
95
340
96
340
97
340
98
340
99
340
9A
340
9B
340
9C
340
9D
340
9E
340
9F
340
A0
340
A1
340
A2
340
A3
340
A4
340
A5
340
A6
340
A7
340
A8
340
A9
340
AA
340
AB
340
AC
340
AD
340
AE
340
AF
340
B0
340
B1
340
B2
340
B3
340
B4
340
B5
340
B6
340
B7
340
B8
340
B9
340
BA
340
BB
340
BC
340
BD
340
BE
340
BF
340
C0
340
C1
340
C2
340
C3
340
C4
340
C5
340
C6
340
C7
340
C8
340
C9
340
CA
340
CB
340
CC
340
CD
340
CE
340
CF
340
D0
340
D1
340
D2
340
D3
340
D4
340
D5
340
D6
340
D7
340
D8
340
D9
340
DA
340
DB
340
DC
340
DD
340
DE
340
DF
340
E0
340
E1
340
E2
340
E3
340
E4
340
E5
340
E6
340
E7
340
E8
340
E9
340
EA
340
EB
340
EC
340
ED
340
EE
340
EF
340
F0
340
F1
340
F2
340
F3
340
F4
340
F5
340
F6
340
F7
340
F8
340
F9
340
FA
340
FB
340
FC
340
FD
340
FE
340
FF
340
100
340
101
340
102
340
103
340
104
340
105
340
106
340
107
340
108
340
109
340
10A
340
10B
340
10C
340
10D
340
10E
340
10F
340
110
340
111
340
112
340
113
340
114
340
115
340
116
340
117
340
118
340
119
340
11A
340
11B
340
11C
340
11D
340
11E
340
11F
340
120
340
121
340
122
340
123
340
124
340
125
340
126
340
127
340
128
340
129
340
12A
340
12B
340
12C
340
12D
340
12E
340
12F
340
130
340
131
340
132
340
133
340
134
340
135
340
136
340
137
340
138
340
139
340
13A
340
13B
340
13C
340
13D
340
13E
340
13F
340
140
340
141
340
142
340
143
340
144
340
145
340
146
340
147
340
148
340
149
340
14A
340
14B
340
14C
340
14D
340
14E
340
14F
340
150
340
151
340
152
340
153
340
154
340
155
340
156
340
157
340
158
340
159
340
15A
340
15B
340
15C
340
15D
340
15E
340
15F
340
160
340
161
340
162
340
163
340
164
340
165
340
166
340
167
340
168
340
169
340
16A
340
16B
340
16C
340
16D
340
16E
340
16F
340
170
340
171
340
172
340
173
340
174
340
175
340
176
340
177
340
178
340
179
340
17A
340
17B
340
17C
340
17D
340
17E
340
17F
340
180
340
181
340
182
340
183
340
184
340
185
340
186
340
187
340
188
340
189
340
18A
340
18B
340
18C
340
18D
340
18E
340
18F
340
190
340
191
340
192
340
193
340
194
340
195
340
196
340
197
340
198
340
199
340
19A
340
19B
340
19C
340
19D
340
19E
340
19F
340
1A0
340
1A1
340
1A2
340
1A3
340
1A4
340
1A5
340
1A6
340
1A7
340
1A8
340
1A9
340
1AA
340
1AB
340
1AC
340
1AD
340
1AE
340
1AF
340
1B0
340
1B1
340
1B2
340
1B3
340
1B4
340
1B5
340
1B6
340
1B7
340
1B8
340
1B9
340
1BA
340
1BB
340
1BC
340
1BD
340
1BE
340
1BF
340
1C0
340
1C1
340
1C2
340
1C3
340
1C4
340
1C5
340
1C6
340
1C7
340
1C8
340
1C9
340
1CA
340
1CB
340
1CC
340
1CD
340
1CE
340
1CF
340
1D0
340
1D1
340
1D2
340
1D3
340
1D4
340
1D5
340
1D6
340
1D7
340
1D8
340
1D9
340
1DA
340
1DB
340
1DC
340
1DD
340
1DE
340
1DF
340
1E0
340
1E1
340
1E2
340
1E3
340
1E4
340
1E5
340
1E6
340
1E7
340
1E8
340
1E9
340
1EA
340
1EB
340
1EC
340
1ED
340
1EE
340
1EF
340
1F0
340
1F1
340
1F2
340
1F3
340
1F4
340
1F5
340
1F6
340
1F7
340
1F8
340
1F9
340
1FA
340
1FB
340
1FC
340
1FD
340
1FE
340
1FF
340
200
340
201
340
202
340
203
340
204
340
205
340
206
340
207
340
208
340
209
340
20A
340
20B
340
20C
340
20D
340
20E
340
20F
340
210
340
211
340
212
340
213
340
214
340
215
340
216
340
217
340
218
340
219
340
21A
340
21B
340
21C
340
21D
340
21E
340
21F
340
220
340
221
340
222
340
230
340
23B
340
245
340
24F
0
MLINESTYLE
5
18
330
2bf
100
AcDbMlineStyle
2
Standard
70
0
3

62
256
51
90
52
90
71
2
49
-0.5
62
256
6
ByLayer
49
0.5
62
256
6
ByLayer
0
RASTERVARIABLES
5
2aa
330

100
AcDbRasterVariables
90
0
70
1
71
1
72
1
0
ENDSEC
0
EOF
