0
SECTION
2
HEADER
9
$ACADVER
1
AC1015
9
$DWGCODEPAGE
3
ANSI_1252
9
$HANDSEED
5
239
9
$ANGBASE
50
0
9
$ANGDIR
70
0
9
$ATTMODE
70
1
9
$AUNITS
70
0
9
$AUPREC
70
0
9
$CECOLOR
62
256
9
$CELTSCALE
40
1
9
$CELTYPE
6
ByLayer
9
$CELWEIGHT
370
18
9
$CLAYER
8
0
9
$CMLJUST
70
0
9
$CMLSCALE
40
1
9
$CMLSTYLE
2
Standard
9
$DIMSTYLE
2
Standard
9
$TEXTSIZE
40
0.2
9
$TEXTSTYLE
7
Standard
9
$LUNITS
70
2
9
$LUPREC
70
4
9
$EXTNAMES
290
1
9
$INSUNITS
70
4
9
$LTSCALE
40
1
9
$LWDISPLAY
290
1
9
$PDMODE
70
0
9
$PDSIZE
40
0
9
$PLINEGEN
70
0
0
ENDSEC
0
SECTION
2
CLASSES
0
CLASS
1
RASTERVARIABLES
2
AcDbRasterVariables
3
ISM
90
0
280
0
281
0
0
ENDSEC
0
SECTION
2
TABLES
0
TABLE
2
VPORT
5
22f
100
AcDbSymbolTable
0
VPORT
5
1
100
AcDbSymbolTableRecord
100
AcDbViewportTableRecord
2
*Active
70
0
10
0
20
0
11
1
21
1
12
-1
22
1
13
0
23
0
14
0.5
24
0.5
15
10
25
10
16
0
26
0
36
1
17
0
27
0
37
0
0
ENDTAB
0
TABLE
2
LTYPE
5
230
100
AcDbSymbolTable
0
LTYPE
5
14
100
AcDbSymbolTableRecord
100
AcDbLinetypeTableRecord
70
0
2
ByBlock
3

72
65
73
0
40
0
0
LTYPE
5
15
100
AcDbSymbolTableRecord
100
AcDbLinetypeTableRecord
70
0
2
ByLayer
3

72
65
73
0
40
0
0
LTYPE
5
16
100
AcDbSymbolTableRecord
100
AcDbLinetypeTableRecord
70
0
2
CONTINUOUS
3
Solid line
72
65
73
0
40
0
0
LTYPE
5
6A
100
AcDbSymbolTableRecord
100
AcDbLinetypeTableRecord
70
0
2
CENTER
3
____ _ ____ _ ____ _ ____
72
65
73
4
40
47.5
49
22
74
0
49
-8.5
74
0
49
8.5
74
0
49
-8.5
74
0
0
LTYPE
5
6B
100
AcDbSymbolTableRecord
100
AcDbLinetypeTableRecord
70
0
2
DASHED
3
__ __ __ __ __ __ __ __ __
72
65
73
2
40
25.72
49
12.86
74
0
49
-12.86
74
0
0
ENDTAB
0
TABLE
2
LAYER
5
231
100
AcDbSymbolTable
0
LAYER
5
10
100
AcDbSymbolTableRecord
100
AcDbLayerTableRecord
2
0
70
0
62
7
6
CONTINUOUS
290
1
370
-3
390
0
0
LAYER
5
6D
100
AcDbSymbolTableRecord
100
AcDbLayerTableRecord
2
80
70
0
62
-6
6
CONTINUOUS
290
1
370
-3
390
0
0
LAYER
5
6F
100
AcDbSymbolTableRecord
100
AcDbLayerTableRecord
2
81
70
0
62
-3
6
CONTINUOUS
290
1
370
-3
390
0
0
LAYER
5
71
100
AcDbSymbolTableRecord
100
AcDbLayerTableRecord
2
1
70
0
62
4
6
CONTINUOUS
290
1
370
-3
390
0
0
LAYER
5
86
100
AcDbSymbolTableRecord
100
AcDbLayerTableRecord
2
4
70
0
62
-2
6
CENTER
290
1
370
-3
390
0
0
LAYER
5
199
100
AcDbSymbolTableRecord
100
AcDbLayerTableRecord
2
2
70
0
62
7
6
CONTINUOUS
290
1
370
-3
390
0
0
LAYER
5
219
100
AcDbSymbolTableRecord
100
AcDbLayerTableRecord
2
SK1
70
0
62
4
6
CONTINUOUS
290
1
370
-3
390
0
0
LAYER
5
21a
100
AcDbSymbolTableRecord
100
AcDbLayerTableRecord
2
SK4
70
0
62
2
6
CENTER
290
1
370
-3
390
0
0
LAYER
5
21b
100
AcDbSymbolTableRecord
100
AcDbLayerTableRecord
2
SK6
70
0
62
5
6
CONTINUOUS
290
1
370
-3
390
0
0
LAYER
5
21c
100
AcDbSymbolTableRecord
100
AcDbLayerTableRecord
2
SK2
70
0
62
7
6
CONTINUOUS
290
1
370
-3
390
0
0
ENDTAB
0
TABLE
2
STYLE
5
232
100
AcDbSymbolTable
0
STYLE
5
11
100
AcDbSymbolTableRecord
100
AcDbTextStyleTableRecord
2
Standard
3
txt
70
0
71
0
40
0
41
1
42
0
50
0
0
STYLE
5
17E
100
AcDbSymbolTableRecord
100
AcDbTextStyleTableRecord
2
iso_b_vert
3
simplex.shx
70
0
71
0
40
0
41
1
42
0
50
0
0
STYLE
5
17F
100
AcDbSymbolTableRecord
100
AcDbTextStyleTableRecord
2
DWGDirectTextStyle
3
simplex
70
0
71
0
40
0
41
1
42
0
50
0
0
ENDTAB
0
TABLE
2
DIMSTYLE
5
233
100
AcDbSymbolTable
100
AcDbDimStyleTable
0
DIMSTYLE
105
27
100
AcDbSymbolTableRecord
100
AcDbDimStyleTableRecord
2
Standard
70
0
3
<>
41
0.18
42
0.0625
44
0.18
140
0.18
147
0.09
73
0
74
0
77
1
271
2
275
0
278
52
280
0
340
11
0
ENDTAB
0
TABLE
2
VIEW
5
234
100
AcDbSymbolTable
0
ENDTAB
0
TABLE
2
UCS
5
235
100
AcDbSymbolTable
0
ENDTAB
0
TABLE
2
APPID
5
236
100
AcDbSymbolTable
0
APPID
5
12
100
AcDbSymbolTableRecord
100
AcDbRegAppTableRecord
2
ACAD
70
0
0
ENDTAB
0
TABLE
2
BLOCK_RECORD
5
237
100
AcDbSymbolTable
0
BLOCK_RECORD
5
1F
100
AcDbSymbolTableRecord
100
AcDbBlockTableRecord
2
*Model_Space
340
0
70
0
0
BLOCK_RECORD
5
1B
100
AcDbSymbolTableRecord
100
AcDbBlockTableRecord
2
*Paper_Space
340
0
70
0
0
BLOCK_RECORD
5
23
100
AcDbSymbolTableRecord
100
AcDbBlockTableRecord
2
*Paper_Space0
340
0
70
0
0
BLOCK_RECORD
5
181
100
AcDbSymbolTableRecord
100
AcDbBlockTableRecord
2
DimnDraft3D1
340
0
70
0
0
BLOCK_RECORD
5
18D
100
AcDbSymbolTableRecord
100
AcDbBlockTableRecord
2
DimnDraft3D2
340
0
70
0
0
BLOCK_RECORD
5
197
100
AcDbSymbolTableRecord
100
AcDbBlockTableRecord
2
DimnDraft3D3
340
0
70
0
0
BLOCK_RECORD
5
1A2
100
AcDbSymbolTableRecord
100
AcDbBlockTableRecord
2
DimnDraft3D4
340
0
70
0
0
BLOCK_RECORD
5
1AC
100
AcDbSymbolTableRecord
100
AcDbBlockTableRecord
2
DimnDraft3D5
340
0
70
0
0
BLOCK_RECORD
5
1B5
100
AcDbSymbolTableRecord
100
AcDbBlockTableRecord
2
DimnDraft3D66
340
0
70
0
0
ENDTAB
0
ENDSEC
0
SECTION
2
BLOCKS
0
BLOCK
5
20
100
AcDbEntity
8
0
100
AcDbBlockBegin
2
*Model_Space
70
0
10
0
20
0
30
0
3
*Model_Space
0
ENDBLK
5
21
100
AcDbEntity
8
0
100
AcDbBlockEnd
0
BLOCK
5
1C
100
AcDbEntity
8
0
100
AcDbBlockBegin
2
*Paper_Space
70
0
10
0
20
0
30
0
3
*Paper_Space
0
ENDBLK
5
1D
100
AcDbEntity
8
0
100
AcDbBlockEnd
0
BLOCK
5
24
100
AcDbEntity
8
0
100
AcDbBlockBegin
2
*Paper_Space0
70
0
10
0
20
0
30
0
3
*Paper_Space0
0
ENDBLK
5
25
100
AcDbEntity
8
0
100
AcDbBlockEnd
0
BLOCK
5
18A
100
AcDbEntity
8
0
100
AcDbBlockBegin
2
DimnDraft3D1
70
0
10
0
20
0
30
0
3
DimnDraft3D1
0
MTEXT
5
182
100
AcDbEntity
8
SK2
62
256
6
ByLayer
370
18
48
1
60
0
100
AcDbMText
10
-55.318906
20
1.957895
30
0
210
0
220
0
230
1
1
\W0.6740;63
40
3
41
0
44
1.084337
50
90
71
7
72
5
7
iso_b_vert
0
MTEXT
5
184
100
AcDbEntity
8
SK2
62
256
6
ByLayer
370
18
48
1
60
0
100
AcDbMText
10
-55.318906
20
-2.518668
30
0
210
0
220
0
230
1
1
%%c
40
3
41
0
44
1.084337
50
90
71
7
72
5
7
iso_b_vert
0
LINE
5
185
100
AcDbEntity
8
SK2
62
256
6
ByLayer
370
13
48
1
60
0
100
AcDbLine
10
-0.7
20
31.5
30
0
11
-54.818906
21
31.5
31
0
39
0
210
0
220
0
230
1
0
LINE
5
186
100
AcDbEntity
8
SK2
62
256
6
ByLayer
370
13
48
1
60
0
100
AcDbLine
10
-0.7
20
-31.5
30
0
11
-54.818906
21
-31.5
31
0
39
0
210
0
220
0
230
1
0
LINE
5
187
100
AcDbEntity
8
SK2
62
256
6
ByLayer
370
13
48
1
60
0
100
AcDbLine
10
-53.818906
20
31.5
30
0
11
-53.818906
21
-31.5
31
0
39
0
210
0
220
0
230
1
0
SOLID
5
188
100
AcDbEntity
8
SK2
62
256
6
ByLayer
370
13
48
1
60
0
100
AcDbTrace
10
-53.818906
20
31.5
30
0
11
-53.358122
21
28.000002
31
0
12
-54.27969
22
27.999998
32
0
13
-53.818906
23
31.5
33
0
39
0
210
0
220
0
230
1
0
SOLID
5
189
100
AcDbEntity
8
SK2
62
256
6
ByLayer
370
13
48
1
60
0
100
AcDbTrace
10
-53.818906
20
-31.5
30
0
11
-54.27969
21
-28.000002
31
0
12
-53.358122
22
-27.999998
32
0
13
-53.818906
23
-31.5
33
0
39
0
210
0
220
0
230
1
0
ENDBLK
5
18B
100
AcDbEntity
8
0
100
AcDbBlockEnd
0
BLOCK
5
194
100
AcDbEntity
8
0
100
AcDbBlockBegin
2
DimnDraft3D2
70
0
10
0
20
0
30
0
3
DimnDraft3D2
0
MTEXT
5
18E
100
AcDbEntity
8
SK2
62
256
6
ByLayer
370
18
48
1
60
0
100
AcDbMText
10
9.957895
20
46.918262
30
0
210
0
220
0
230
1
1
\W0.6740;22
40
3
41
0
44
1.084337
50
0
71
7
72
5
7
iso_b_vert
0
LINE
5
18F
100
AcDbEntity
8
SK2
62
256
6
ByLayer
370
13
48
1
60
0
100
AcDbLine
10
0
20
32.2
30
0
11
0
21
47.168262
31
0
39
0
210
0
220
0
230
1
0
LINE
5
190
100
AcDbEntity
8
SK2
62
256
6
ByLayer
370
13
48
1
60
0
100
AcDbLine
10
22
20
32.5
30
0
11
22
21
47.168262
31
0
39
0
210
0
220
0
230
1
0
LINE
5
191
100
AcDbEntity
8
SK2
62
256
6
ByLayer
370
13
48
1
60
0
100
AcDbLine
10
0
20
46.168262
30
0
11
22
21
46.168262
31
0
39
0
210
0
220
0
230
1
0
SOLID
5
192
100
AcDbEntity
8
SK2
62
256
6
ByLayer
370
13
48
1
60
0
100
AcDbTrace
10
0
20
46.168262
30
0
11
3.499998
21
46.629046
31
0
12
3.500002
22
45.707478
32
0
13
0
23
46.168262
33
0
39
0
210
0
220
0
230
1
0
SOLID
5
193
100
AcDbEntity
8
SK2
62
256
6
ByLayer
370
13
48
1
60
0
100
AcDbTrace
10
22
20
46.168262
30
0
11
18.500002
21
45.707478
31
0
12
18.499998
22
46.629046
32
0
13
22
23
46.168262
33
0
39
0
210
0
220
0
230
1
0
ENDBLK
5
195
100
AcDbEntity
8
0
100
AcDbBlockEnd
0
BLOCK
5
19F
100
AcDbEntity
8
0
100
AcDbBlockBegin
2
DimnDraft3D3
70
0
10
0
20
0
30
0
3
DimnDraft3D3
0
MTEXT
5
198
100
AcDbEntity
8
2
62
256
6
ByLayer
370
18
48
1
60
0
100
AcDbMText
10
48.211842
20
59.112327
30
0
210
0
220
0
230
1
1
\W0.6217;100
40
3
41
0
44
1.084337
50
0
71
7
72
5
7
iso_b_vert
0
LINE
5
19A
100
AcDbEntity
8
2
62
256
6
ByLayer
370
13
48
1
60
0
100
AcDbLine
10
0
20
32.2
30
0
11
0
21
59.362327
31
0
39
0
210
0
220
0
230
1
0
LINE
5
19B
100
AcDbEntity
8
2
62
256
6
ByLayer
370
13
48
1
60
0
100
AcDbLine
10
100
20
-10
30
0
11
100
21
59.362327
31
0
39
0
210
0
220
0
230
1
0
LINE
5
19C
100
AcDbEntity
8
2
62
256
6
ByLayer
370
13
48
1
60
0
100
AcDbLine
10
0
20
58.362327
30
0
11
100
21
58.362327
31
0
39
0
210
0
220
0
230
1
0
SOLID
5
19D
100
AcDbEntity
8
2
62
256
6
ByLayer
370
13
48
1
60
0
100
AcDbTrace
10
0
20
58.362327
30
0
11
3.499998
21
58.823111
31
0
12
3.500002
22
57.901543
32
0
13
0
23
58.362327
33
0
39
0
210
0
220
0
230
1
0
SOLID
5
19E
100
AcDbEntity
8
2
62
256
6
ByLayer
370
13
48
1
60
0
100
AcDbTrace
10
100
20
58.362327
30
0
11
96.500002
21
57.901543
31
0
12
96.499998
22
58.823111
32
0
13
100
23
58.362327
33
0
39
0
210
0
220
0
230
1
0
ENDBLK
5
1A0
100
AcDbEntity
8
0
100
AcDbBlockEnd
0
BLOCK
5
1A9
100
AcDbEntity
8
0
100
AcDbBlockBegin
2
DimnDraft3D4
70
0
10
0
20
0
30
0
3
DimnDraft3D4
0
MTEXT
5
1A3
100
AcDbEntity
8
SK2
62
256
6
ByLayer
370
18
48
1
60
0
100
AcDbMText
10
132.669864
20
-5.792105
30
0
210
0
220
0
230
1
1
\W0.4657;11
40
3
41
0
44
1.084337
50
90
71
7
72
5
7
iso_b_vert
0
LINE
5
1A4
100
AcDbEntity
8
SK2
62
256
6
ByLayer
370
13
48
1
60
0
100
AcDbLine
10
103
20
0
30
0
11
134.419864
21
0
31
0
39
0
210
0
220
0
230
1
0
LINE
5
1A5
100
AcDbEntity
8
SK2
62
256
6
ByLayer
370
13
48
1
60
0
100
AcDbLine
10
101
20
-11
30
0
11
134.419864
21
-11
31
0
39
0
210
0
220
0
230
1
0
LINE
5
1A6
100
AcDbEntity
8
SK2
62
256
6
ByLayer
370
13
48
1
60
0
100
AcDbLine
10
133.419864
20
0
30
0
11
133.419864
21
-11
31
0
39
0
210
0
220
0
230
1
0
SOLID
5
1A7
100
AcDbEntity
8
SK2
62
256
6
ByLayer
370
13
48
1
60
0
100
AcDbTrace
10
133.419864
20
0
30
0
11
133.880648
21
-3.499998
31
0
12
132.95908
22
-3.500002
32
0
13
133.419864
23
0
33
0
39
0
210
0
220
0
230
1
0
SOLID
5
1A8
100
AcDbEntity
8
SK2
62
256
6
ByLayer
370
13
48
1
60
0
100
AcDbTrace
10
133.419864
20
-11
30
0
11
132.95908
21
-7.500002
31
0
12
133.880648
22
-7.499998
32
0
13
133.419864
23
-11
33
0
39
0
210
0
220
0
230
1
0
ENDBLK
5
1AA
100
AcDbEntity
8
0
100
AcDbBlockEnd
0
BLOCK
5
1B2
100
AcDbEntity
8
0
100
AcDbBlockBegin
2
DimnDraft3D5
70
0
10
0
20
0
30
0
3
DimnDraft3D5
0
MTEXT
5
1AD
100
AcDbEntity
8
SK2
62
256
6
ByLayer
370
18
48
1
60
0
100
AcDbMText
10
71.312768
20
22.698714
30
0
210
0
220
0
230
1
1
\W0.8531;85%%d
40
3
41
0
44
1.084337
50
47.5
71
7
72
5
7
iso_b_vert
0
LINE
5
1AE
100
AcDbEntity
8
SK2
62
256
6
ByLayer
370
13
48
1
60
0
100
AcDbLine
10
99.912844
20
-10.003805
30
0
11
95.897757
21
35.888848
31
0
39
0
210
0
220
0
230
1
0
ARC
5
1AF
100
AcDbEntity
8
SK2
62
256
6
ByLayer
370
13
48
1
60
0
100
AcDbCircle
39
0
10
99.037625
20
0
30
0
40
35.0259376550495
210
0
220
0
230
1
100
AcDbArc
50
95
51
180
0
SOLID
5
1B0
100
AcDbEntity
8
SK2
62
256
6
ByLayer
370
13
48
1
60
0
100
AcDbTrace
10
95.984913
20
34.892653
30
0
11
92.558537
21
34.042797
31
0
12
92.455325
22
34.958567
32
0
13
95.984913
23
34.892653
33
0
39
0
210
0
220
0
230
1
0
SOLID
5
1B1
100
AcDbEntity
8
SK2
62
256
6
ByLayer
370
13
48
1
60
0
100
AcDbTrace
10
64.011687
20
0
30
0
11
63.6384
21
3.510408
31
0
12
64.559681
22
3.487411
32
0
13
64.011687
23
0
33
0
39
0
210
0
220
0
230
1
0
ENDBLK
5
1B3
100
AcDbEntity
8
0
100
AcDbBlockEnd
0
BLOCK
5
1B6
100
AcDbEntity
8
0
100
AcDbBlockBegin
2
DimnDraft3D66
70
0
10
0
20
0
30
0
3
DimnDraft3D66
0
LINE
5
1B8
100
AcDbEntity
8
SK2
62
256
6
ByLayer
370
18
48
1
60
0
100
AcDbLine
10
98.759484
20
8.967866
30
0
11
144.620899
21
12.98022
31
0
39
0
210
0
220
0
230
1
0
LINE
5
1B9
100
AcDbEntity
8
SK2
62
256
6
ByLayer
370
18
48
1
60
0
100
AcDbLine
10
102.245714
20
-30.879922
30
0
11
148.107128
21
-26.867568
31
0
39
0
210
0
220
0
230
1
0
LINE
5
1BA
100
AcDbEntity
8
SK2
62
256
6
ByLayer
370
18
48
1
60
0
100
AcDbLine
10
143.624704
20
12.893064
30
0
11
147.110934
21
-26.954724
31
0
39
0
210
0
220
0
230
1
0
SOLID
5
1BB
100
AcDbEntity
8
SK2
62
256
6
ByLayer
370
18
48
1
60
0
100
AcDbTrace
10
143.624704
20
12.893064
30
0
11
144.388779
21
9.446544
31
0
12
143.470719
22
9.366221
32
0
13
143.624704
23
12.893064
33
0
39
0
210
0
220
0
230
1
0
SOLID
5
1BC
100
AcDbEntity
8
SK2
62
256
6
ByLayer
370
18
48
1
60
0
100
AcDbTrace
10
147.110934
20
-26.954724
30
0
11
146.346858
21
-23.508204
31
0
12
147.264919
22
-23.427881
32
0
13
147.110934
23
-26.954724
33
0
39
0
210
0
220
0
230
1
0
MTEXT
5
1BD
100
AcDbEntity
8
SK2
62
256
6
ByLayer
370
18
48
1
60
0
100
AcDbMText
10
146.010378
20
-5.77003
30
0
210
0
220
0
230
1
1
\W0.7361;40
40
3
41
0
44
1.084337
50
275
71
7
72
5
7
iso_b_vert
0
ENDBLK
5
1B7
100
AcDbEntity
8
0
100
AcDbBlockEnd
0
ENDSEC
0
SECTION
2
ENTITIES
0
ARC
5
107
100
AcDbEntity
8
SK1
62
256
6
ByLayer
370
18
48
1
60
0
100
AcDbCircle
39
0
10
-0.6
20
-23.45
30
0
40
0.999999999999999
210
0
220
0
230
1
100
AcDbArc
50
53.130102
51
66.421822
0
ARC
5
108
100
AcDbEntity
8
SK1
62
256
6
ByLayer
370
18
48
1
60
0
100
AcDbCircle
39
0
10
-0.6
20
23.45
30
0
40
0.999999999999999
210
0
220
0
230
1
100
AcDbArc
50
293.578178
51
306.869898
0
ARC
5
109
100
AcDbEntity
8
1
62
256
6
ByLayer
370
18
48
1
60
0
100
AcDbCircle
39
0
10
100.640228
20
-16.315464
30
0
40
0.150000000001045
210
0
220
0
230
1
100
AcDbArc
50
305
51
5
0
ARC
5
10A
100
AcDbEntity
8
1
62
256
6
ByLayer
370
18
48
1
60
0
100
AcDbCircle
39
0
10
100.622617
20
-16.11416
30
0
40
0.149999999999956
210
0
220
0
230
1
100
AcDbArc
50
5
51
65
0
ARC
5
10B
100
AcDbEntity
8
1
62
256
6
ByLayer
370
18
48
1
60
0
100
AcDbCircle
39
0
10
100.08386
20
-15.509853
30
0
40
0.169999999999953
210
0
220
0
230
1
100
AcDbArc
50
125
51
245
0
ARC
5
10C
100
AcDbEntity
8
1
62
256
6
ByLayer
370
18
48
1
60
0
100
AcDbCircle
39
0
10
100.509495
20
-14.821172
30
0
40
0.15000000000046
210
0
220
0
230
1
100
AcDbArc
50
305
51
5
0
ARC
5
10D
100
AcDbEntity
8
1
62
256
6
ByLayer
370
18
48
1
60
0
100
AcDbCircle
39
0
10
100.491883
20
-14.619868
30
0
40
0.150000000000114
210
0
220
0
230
1
100
AcDbArc
50
5
51
65
0
ARC
5
10E
100
AcDbEntity
8
1
62
256
6
ByLayer
370
18
48
1
60
0
100
AcDbCircle
39
0
10
99.953126
20
-14.01556
30
0
40
0.16999999999994
210
0
220
0
230
1
100
AcDbArc
50
125
51
245
0
ARC
5
10F
100
AcDbEntity
8
1
62
256
6
ByLayer
370
18
48
1
60
0
100
AcDbCircle
39
0
10
100.378761
20
-13.32688
30
0
40
0.15000000000227
210
0
220
0
230
1
100
AcDbArc
50
305
51
5
0
ARC
5
110
100
AcDbEntity
8
1
62
256
6
ByLayer
370
18
48
1
60
0
100
AcDbCircle
39
0
10
100.361149
20
-13.125576
30
0
40
0.149999999999558
210
0
220
0
230
1
100
AcDbArc
50
5
51
65
0
ARC
5
111
100
AcDbEntity
8
1
62
256
6
ByLayer
370
18
48
1
60
0
100
AcDbCircle
39
0
10
99.822392
20
-12.521268
30
0
40
0.169999999999955
210
0
220
0
230
1
100
AcDbArc
50
125
51
245
0
ARC
5
112
100
AcDbEntity
8
1
62
256
6
ByLayer
370
18
48
1
60
0
100
AcDbCircle
39
0
10
100.248028
20
-11.832588
30
0
40
0.150000000004047
210
0
220
0
230
1
100
AcDbArc
50
305
51
5
0
ARC
5
113
100
AcDbEntity
8
1
62
256
6
ByLayer
370
18
48
1
60
0
100
AcDbCircle
39
0
10
100.230416
20
-11.631284
30
0
40
0.14999999999981
210
0
220
0
230
1
100
AcDbArc
50
5
51
65
0
ARC
5
114
100
AcDbEntity
8
1
62
256
6
ByLayer
370
18
48
1
60
0
100
AcDbCircle
39
0
10
99.691659
20
-11.026976
30
0
40
0.170000000000271
210
0
220
0
230
1
100
AcDbArc
50
125
51
245
0
ARC
5
115
100
AcDbEntity
8
1
62
256
6
ByLayer
370
18
48
1
60
0
100
AcDbCircle
39
0
10
100.117294
20
-10.338295
30
0
40
0.150000000001586
210
0
220
0
230
1
100
AcDbArc
50
305
51
5
0
ARC
5
116
100
AcDbEntity
8
1
62
256
6
ByLayer
370
18
48
1
60
0
100
AcDbCircle
39
0
10
100.099682
20
-10.136992
30
0
40
0.150000000002
210
0
220
0
230
1
100
AcDbArc
50
5
51
65
0
ARC
5
117
100
AcDbEntity
8
1
62
256
6
ByLayer
370
18
48
1
60
0
100
AcDbCircle
39
0
10
99.560925
20
-9.532684
30
0
40
0.169999999999942
210
0
220
0
230
1
100
AcDbArc
50
125
51
245
0
ARC
5
118
100
AcDbEntity
8
1
62
256
6
ByLayer
370
18
48
1
60
0
100
AcDbCircle
39
0
10
99.98656
20
-8.844003
30
0
40
0.150000000000499
210
0
220
0
230
1
100
AcDbArc
50
305
51
5
0
ARC
5
119
100
AcDbEntity
8
1
62
256
6
ByLayer
370
18
48
1
60
0
100
AcDbCircle
39
0
10
99.968949
20
-8.6427
30
0
40
0.150000000003968
210
0
220
0
230
1
100
AcDbArc
50
5
51
65
0
ARC
5
11A
100
AcDbEntity
8
1
62
256
6
ByLayer
370
18
48
1
60
0
100
AcDbCircle
39
0
10
99.430192
20
-8.038392
30
0
40
0.16999999999997
210
0
220
0
230
1
100
AcDbArc
50
125
51
245
0
ARC
5
11B
100
AcDbEntity
8
1
62
256
6
ByLayer
370
18
48
1
60
0
100
AcDbCircle
39
0
10
99.855827
20
-7.349711
30
0
40
0.150000000002186
210
0
220
0
230
1
100
AcDbArc
50
305
51
5
0
ARC
5
11C
100
AcDbEntity
8
1
62
256
6
ByLayer
370
18
48
1
60
0
100
AcDbCircle
39
0
10
99.838215
20
-7.148408
30
0
40
0.15000000000094
210
0
220
0
230
1
100
AcDbArc
50
5
51
65
0
ARC
5
11D
100
AcDbEntity
8
1
62
256
6
ByLayer
370
18
48
1
60
0
100
AcDbCircle
39
0
10
99.299458
20
-6.5441
30
0
40
0.169999999999955
210
0
220
0
230
1
100
AcDbArc
50
125
51
245
0
ARC
5
11E
100
AcDbEntity
8
1
62
256
6
ByLayer
370
18
48
1
60
0
100
AcDbCircle
39
0
10
99.725093
20
-5.855419
30
0
40
0.150000000001901
210
0
220
0
230
1
100
AcDbArc
50
305
51
5
0
ARC
5
11F
100
AcDbEntity
8
1
62
256
6
ByLayer
370
18
48
1
60
0
100
AcDbCircle
39
0
10
99.707481
20
-5.654116
30
0
40
0.149999999999789
210
0
220
0
230
1
100
AcDbArc
50
5
51
65
0
ARC
5
120
100
AcDbEntity
8
1
62
256
6
ByLayer
370
18
48
1
60
0
100
AcDbCircle
39
0
10
23.5
20
10.75
30
0
40
1.5
210
0
220
0
230
1
100
AcDbArc
50
180
51
270
0
ARC
5
121
100
AcDbEntity
8
1
62
256
6
ByLayer
370
18
48
1
60
0
100
AcDbCircle
39
0
10
22.4
20
-31.65
30
0
40
0.4
210
0
220
0
230
1
100
AcDbArc
50
90
51
157.975687
0
ELLIPSE
5
122
100
AcDbEntity
8
1
62
256
6
ByLayer
370
18
48
1
60
0
100
AcDbEllipse
10
26.347154
20
0
30
0
11
14.7536831606555
21
31.0932549155802
31
0
210
0
220
0
230
-1
40
0.341999
41
-2.98378646694436
42
-2.05035306783695
0
ELLIPSE
5
123
100
AcDbEntity
8
1
62
256
6
ByLayer
370
18
48
1
60
0
100
AcDbEllipse
10
26.347154
20
0
30
0
11
-14.7536831606557
21
31.0932549155801
31
0
210
0
220
0
230
1
40
0.341999
41
0.157806186645435
42
1.09123958575285
0
ELLIPSE
5
124
100
AcDbEntity
8
1
62
256
6
ByLayer
370
18
48
1
60
0
100
AcDbEllipse
10
-2.347154
20
0
30
0
11
-14.7536831606546
21
31.0932549155778
31
0
210
0
220
0
230
1
40
0.341999
41
-2.98378646694435
42
-2.05035306783689
0
ELLIPSE
5
125
100
AcDbEntity
8
1
62
256
6
ByLayer
370
18
48
1
60
0
100
AcDbEllipse
10
-2.347154
20
0
30
0
11
14.7536831606548
21
31.0932549155788
31
0
210
0
220
0
230
1
40
0.341999
41
-1.09123958575288
42
-0.15780618664544
0
POINT
5
6C
100
AcDbEntity
8
80
62
256
6
ByLayer
370
18
48
1
60
0
100
AcDbPoint
10
0
20
0
30
0
39
0
210
0
220
0
230
1
50
360
0
POINT
5
6E
100
AcDbEntity
8
81
62
256
6
ByLayer
370
18
48
1
60
0
100
AcDbPoint
10
100
20
-11
30
0
39
0
210
0
220
0
230
1
50
360
0
SPLINE
5
126
100
AcDbEntity
8
SK1
62
256
6
ByLayer
370
18
48
1
60
0
100
AcDbSpline
70
4
71
5
72
12
73
6
40
0
40
0
40
0
40
0
40
0
40
0
40
1
40
1
40
1
40
1
40
1
40
1
41
1
10
-36.5
20
-21.1439529105615
30
-4.179E-13
41
1
10
-29.6400021936587
20
-21.3189926769245
30
-4.179E-13
41
1
10
-22.7800032553883
20
-21.4939880817909
30
-4.179E-13
41
1
10
-15.9200032216215
20
-21.6689405379383
30
3.605E-13
41
1
10
-9.0600021258407
20
-21.8438513447662
30
3.605E-13
41
1
10
-2.2
20
-22.0187217432878
30
3.605E-13
0
SPLINE
5
127
100
AcDbEntity
8
SK1
62
256
6
ByLayer
370
18
48
1
60
0
100
AcDbSpline
70
4
71
5
72
12
73
6
40
0
40
0
40
0
40
0
40
0
40
0
40
1
40
1
40
1
40
1
40
1
40
1
41
1
10
-2.2
20
22.0187217766081
30
9.7216786E-09
41
1
10
-9.06000212584947
20
21.843851378903
30
9.7216786E-09
41
1
10
-15.9200032216265
20
21.6689405724465
30
9.7216786E-09
41
1
10
-22.7800032554629
20
21.4939881194727
30
-4E-16
41
1
10
-29.6400021937014
20
21.318992713874
30
-4E-16
41
1
10
-36.5
20
21.1439529463075
30
-4E-16
0
SPLINE
5
128
100
AcDbEntity
8
1
62
256
6
ByLayer
370
18
48
1
60
0
100
AcDbSpline
70
4
71
3
72
20
73
16
40
0
40
0
40
0
40
0
40
0.250000000000001
40
0.250000000000001
40
0.500000000000002
40
0.500000000000002
40
0.625000000000004
40
0.625000000000004
40
0.750000000000005
40
0.750000000000005
40
0.875000000000006
40
0.875000000000006
40
0.937500000000003
40
0.937500000000003
40
1
40
1
40
1
40
1
41
1
10
10.1056624327025
20
-29.9139548464691
30
0
41
1
10
10.1212556944726
20
-29.9327613369587
30
0
41
1
10
10.1400559187761
20
-29.9511519005795
30
0
41
1
10
10.1857347330743
20
-29.9863830332716
30
0
41
1
10
10.2125137122668
20
-30.0032932993814
30
0
41
1
10
10.2625062023862
20
-30.027107286276
30
0
41
1
10
10.2807959636713
20
-30.0347407881727
30
0
41
1
10
10.3209123403485
20
-30.048869374708
30
0
41
1
10
10.3428384525281
20
-30.055427253592
30
0
41
1
10
10.3920418953324
20
-30.0669872793661
30
0
41
1
10
10.4184736929998
20
-30.0717959485601
30
0
41
1
10
10.4620456032698
20
-30.0769634801343
30
0
41
1
10
10.4770951469809
20
-30.0783134473999
30
0
41
1
10
10.5074817098164
20
-30.0801205034908
30
0
41
1
10
10.5229355536387
20
-30.0805927603169
30
0
41
1
10
10.5386751345948
20
-30.0805927603169
30
0
0
SPLINE
5
129
100
AcDbEntity
8
1
62
256
6
ByLayer
370
18
48
1
60
0
100
AcDbSpline
70
4
71
3
72
22
73
18
40
0
40
0
40
0
40
0
40
0.125000000000002
40
0.125000000000002
40
0.187500000000001
40
0.187500000000001
40
0.250000000000001
40
0.250000000000001
40
0.375
40
0.375
40
0.5
40
0.5
40
0.625
40
0.625
40
0.75
40
0.75
40
1
40
1
40
1
40
1
41
1
10
10.5386751345948
20
-9.34922131452505
30
0
41
1
10
10.5072412025891
20
-9.34922131452505
30
0
41
1
10
10.4761894743047
20
-9.35548920253853
30
0
41
1
10
10.4329857409659
20
-9.37196693550722
30
0
41
1
10
10.4189050579785
20
-9.3787061732045
30
0
41
1
10
10.392156025832
20
-9.39389972204378
30
0
41
1
10
10.3794828926306
20
-9.40232505361251
30
0
41
1
10
10.3431560434001
20
-9.42959825985626
30
0
41
1
10
10.3210597058744
20
-9.45055053780227
30
0
41
1
10
10.2806617049327
20
-9.49566900868387
30
0
41
1
10
10.2625095528536
20
-9.51963294536125
30
0
41
1
10
10.2291686648068
20
-9.56958483867116
30
0
41
1
10
10.2140339430553
20
-9.59554701961163
30
0
41
1
10
10.1865318440057
20
-9.64819007031201
30
0
41
1
10
10.1740902691451
20
-9.67499387250789
30
0
41
1
10
10.1399018475135
20
-9.75655023082972
30
0
41
1
10
10.1212498345487
20
-9.81243201498807
30
0
41
1
10
10.1056624327026
20
-9.86941261896621
30
0
0
SPLINE
5
12A
100
AcDbEntity
8
1
62
256
6
ByLayer
370
18
48
1
60
0
100
AcDbSpline
70
4
71
3
72
20
73
16
40
0
40
0
40
0
40
0
40
0.062500000000002
40
0.062500000000002
40
0.125000000000004
40
0.125000000000004
40
0.250000000000004
40
0.250000000000004
40
0.375000000000004
40
0.375000000000004
40
0.500000000000004
40
0.500000000000004
40
0.750000000000002
40
0.750000000000002
40
1
40
1
40
1
40
1
41
1
10
10.5386751345948
20
9.34922131452512
30
0
41
1
10
10.5229355536387
20
9.34922131452512
30
0
41
1
10
10.5074817098164
20
9.35074113394287
30
0
41
1
10
10.4770951469809
20
9.35655221855277
30
0
41
1
10
10.4620456032698
20
9.36089212483335
30
0
41
1
10
10.4184736929998
20
9.37748487924966
30
0
41
1
10
10.3920418953324
20
9.39290424748309
30
0
41
1
10
10.3428384525281
20
9.42982857023336
30
0
41
1
10
10.3209123403485
20
9.45071431640774
30
0
41
1
10
10.2807959636713
20
9.49551986864821
30
0
41
1
10
10.2625062023862
20
9.51963835126784
30
0
41
1
10
10.2125137122668
20
9.59453680346901
30
0
41
1
10
10.1857347330743
20
9.64728479257935
30
0
41
1
10
10.1400559187761
20
9.75611455014877
30
0
41
1
10
10.1212556944726
20
9.81241059371428
30
0
41
1
10
10.1056624327025
20
9.86941261896619
30
0
0
SPLINE
5
12B
100
AcDbEntity
8
1
62
256
6
ByLayer
370
18
48
1
60
0
100
AcDbSpline
70
4
71
3
72
22
73
18
40
0
40
0
40
0
40
0
40
0.250000000000006
40
0.250000000000006
40
0.375000000000006
40
0.375000000000006
40
0.500000000000006
40
0.500000000000006
40
0.625000000000005
40
0.625000000000005
40
0.750000000000005
40
0.750000000000005
40
0.812500000000004
40
0.812500000000004
40
0.875000000000003
40
0.875000000000003
40
1
40
1
40
1
40
1
41
1
10
10.1056624327026
20
29.9139548464691
30
0
41
1
10
10.1212498345487
20
29.9327542695084
30
0
41
1
10
10.1399018475135
20
29.9510098933136
30
0
41
1
10
10.1740902691451
20
29.977413331973
30
0
41
1
10
10.1865318440057
20
29.9860499646858
30
0
41
1
10
10.2140339430553
20
30.0029372147449
30
0
41
1
10
10.2291686648068
20
30.011226780568
30
0
41
1
10
10.2625095528536
20
30.0271090091071
30
0
41
1
10
10.2806617049327
20
30.0346937657148
30
0
41
1
10
10.3210597058744
20
30.0489210131611
30
0
41
1
10
10.3431560434001
20
30.0554993245996
30
0
41
1
10
10.3794828926306
20
30.0640378913834
30
0
41
1
10
10.392156025832
20
30.0666711051738
30
0
41
1
10
10.4189050579785
20
30.0714138984386
30
0
41
1
10
10.4329857409659
20
30.073514408101
30
0
41
1
10
10.4761894743047
20
30.0786461490401
30
0
41
1
10
10.5072412025891
20
30.0805927603169
30
0
41
1
10
10.5386751345948
20
30.0805927603169
30
0
0
SPLINE
5
12C
100
AcDbEntity
8
1
62
256
6
ByLayer
370
18
48
1
60
0
100
AcDbSpline
70
4
71
3
72
22
73
18
40
0
40
0
40
0
40
0
40
0.125000000000006
40
0.125000000000006
40
0.187500000000008
40
0.187500000000008
40
0.250000000000011
40
0.250000000000011
40
0.375000000000009
40
0.375000000000009
40
0.500000000000007
40
0.500000000000007
40
0.625000000000005
40
0.625000000000005
40
0.750000000000003
40
0.750000000000003
40
1
40
1
40
1
40
1
41
1
10
13.4613248654052
20
-30.0805927603169
30
0
41
1
10
13.4927587974109
20
-30.080592760317
30
0
41
1
10
13.5238105256953
20
-30.0786461490401
30
0
41
1
10
13.5670142590341
20
-30.073514408101
30
0
41
1
10
13.5810949420215
20
-30.0714138984386
30
0
41
1
10
13.607843974168
20
-30.0666711051738
30
0
41
1
10
13.6205171073694
20
-30.0640378913834
30
0
41
1
10
13.6568439565999
20
-30.0554993245996
30
0
41
1
10
13.6789402941256
20
-30.0489210131611
30
0
41
1
10
13.7193382950672
20
-30.0346937657148
30
0
41
1
10
13.7374904471464
20
-30.0271090091071
30
0
41
1
10
13.7708313351932
20
-30.011226780568
30
0
41
1
10
13.7859660569447
20
-30.0029372147449
30
0
41
1
10
13.8134681559943
20
-29.9860499646858
30
0
41
1
10
13.8259097308549
20
-29.977413331973
30
0
41
1
10
13.8600981524864
20
-29.9510098933136
30
0
41
1
10
13.8787501654512
20
-29.9327542695084
30
0
41
1
10
13.8943375672974
20
-29.9139548464691
30
0
0
SPLINE
5
12D
100
AcDbEntity
8
1
62
256
6
ByLayer
370
18
48
1
60
0
100
AcDbSpline
70
4
71
3
72
22
73
18
40
0
40
0
40
0
40
0
40
0.125000000000001
40
0.125000000000001
40
0.187500000000001
40
0.187500000000001
40
0.250000000000001
40
0.250000000000001
40
0.374999999999999
40
0.374999999999999
40
0.499999999999998
40
0.499999999999998
40
0.624999999999996
40
0.624999999999996
40
0.749999999999994
40
0.749999999999994
40
1
40
1
40
1
40
1
41
1
10
13.4613248654052
20
-9.34922131452503
30
0
41
1
10
13.4927587974109
20
-9.34922131452503
30
0
41
1
10
13.5238105256953
20
-9.35548920253852
30
0
41
1
10
13.5670142590341
20
-9.37196693550721
30
0
41
1
10
13.5810949420215
20
-9.37870617320448
30
0
41
1
10
13.607843974168
20
-9.39389972204376
30
0
41
1
10
13.6205171073694
20
-9.4023250536125
30
0
41
1
10
13.6568439565999
20
-9.42959825985625
30
0
41
1
10
13.6789402941256
20
-9.45055053780226
30
0
41
1
10
13.7193382950672
20
-9.49566900868386
30
0
41
1
10
13.7374904471464
20
-9.51963294536124
30
0
41
1
10
13.7708313351932
20
-9.56958483867115
30
0
41
1
10
13.7859660569447
20
-9.59554701961163
30
0
41
1
10
13.8134681559943
20
-9.648190070312
30
0
41
1
10
13.8259097308549
20
-9.67499387250789
30
0
41
1
10
13.8600981524865
20
-9.75655023082972
30
0
41
1
10
13.8787501654512
20
-9.81243201498807
30
0
41
1
10
13.8943375672974
20
-9.86941261896621
30
0
0
SPLINE
5
12E
100
AcDbEntity
8
1
62
256
6
ByLayer
370
18
48
1
60
0
100
AcDbSpline
70
4
71
3
72
22
73
18
40
0
40
0
40
0
40
0
40
0.250000000000006
40
0.250000000000006
40
0.375000000000007
40
0.375000000000007
40
0.500000000000009
40
0.500000000000009
40
0.62500000000001
40
0.62500000000001
40
0.750000000000012
40
0.750000000000012
40
0.812500000000009
40
0.812500000000009
40
0.875000000000007
40
0.875000000000007
40
1
40
1
40
1
40
1
41
1
10
13.8943375672974
20
9.86941261896621
30
0
41
1
10
13.8787501654512
20
9.81243201498806
30
0
41
1
10
13.8600981524864
20
9.75655023082971
30
0
41
1
10
13.8259097308549
20
9.67499387250788
30
0
41
1
10
13.8134681559943
20
9.648190070312
30
0
41
1
10
13.7859660569447
20
9.59554701961162
30
0
41
1
10
13.7708313351932
20
9.56958483867115
30
0
41
1
10
13.7374904471464
20
9.51963294536124
30
0
41
1
10
13.7193382950673
20
9.49566900868386
30
0
41
1
10
13.6789402941256
20
9.45055053780225
30
0
41
1
10
13.6568439565999
20
9.42959825985624
30
0
41
1
10
13.6205171073694
20
9.40232505361249
30
0
41
1
10
13.607843974168
20
9.39389972204377
30
0
41
1
10
13.5810949420215
20
9.37870617320449
30
0
41
1
10
13.5670142590341
20
9.3719669355072
30
0
41
1
10
13.5238105256953
20
9.35548920253851
30
0
41
1
10
13.4927587974109
20
9.34922131452502
30
0
41
1
10
13.4613248654052
20
9.34922131452502
30
0
0
SPLINE
5
12F
100
AcDbEntity
8
1
62
256
6
ByLayer
370
18
48
1
60
0
100
AcDbSpline
70
4
71
3
72
20
73
16
40
0
40
0
40
0
40
0
40
0.0624999999999993
40
0.0624999999999993
40
0.124999999999999
40
0.124999999999999
40
0.249999999999999
40
0.249999999999999
40
0.374999999999999
40
0.374999999999999
40
0.499999999999999
40
0.499999999999999
40
0.75
40
0.75
40
1
40
1
40
1
40
1
41
1
10
13.4613248654052
20
30.0805927603169
30
0
41
1
10
13.4770644463612
20
30.0805927603169
30
0
41
1
10
13.4925182901835
20
30.0801205034908
30
0
41
1
10
13.5229048530191
20
30.0783134473999
30
0
41
1
10
13.5379543967302
20
30.0769634801343
30
0
41
1
10
13.5815263070002
20
30.0717959485601
30
0
41
1
10
13.6079581046676
20
30.0669872793662
30
0
41
1
10
13.6571615474719
20
30.0554272535921
30
0
41
1
10
13.6790876596515
20
30.048869374708
30
0
41
1
10
13.7192040363287
20
30.0347407881727
30
0
41
1
10
13.7374937976138
20
30.027107286276
30
0
41
1
10
13.7874862877332
20
30.0032932993815
30
0
41
1
10
13.8142652669256
20
29.9863830332716
30
0
41
1
10
13.8599440812239
20
29.9511519005795
30
0
41
1
10
13.8787443055274
20
29.9327613369587
30
0
41
1
10
13.8943375672975
20
29.9139548464691
30
0
0
SPLINE
5
130
100
AcDbEntity
8
SK1
62
256
6
ByLayer
370
18
48
1
60
0
100
AcDbSpline
70
4
71
5
72
32
73
26
40
0
40
0
40
0
40
0
40
0
40
0
40
0.0260474786319704
40
0.0762211565558521
40
0.126552433813415
40
0.176885895844012
40
0.224894257454744
40
0.271991286645407
40
0.321891439276301
40
0.372082609102253
40
0.421696802371781
40
0.468008512524858
40
0.516438219587675
40
0.566211749208717
40
0.6160120580276
40
0.663336313711158
40
0.708564559533956
40
0.757579075341253
40
0.807068463779935
40
0.856304446663594
40
0.903226982070231
40
0.951056320109604
40
1
40
1
40
1
40
1
40
1
40
1
41
1
10
-0.200000000082154
20
22.0659818997097
30
-2.1442093E-09
41
1
10
-0.200000000082154
20
22.0643587189715
30
-2.1442093E-09
41
1
10
-0.200046810358139
20
22.0596089172937
30
-2.1442093E-09
41
1
10
-0.200352661955815
20
22.0517269407716
30
-1.6074151E-09
41
1
10
-0.201305558282318
20
22.0407501026022
30
-8.90742E-10
41
1
10
-0.203444739393735
20
22.026923657267
30
-1.43604E-10
41
1
10
-0.206917129849273
20
22.0120100918838
30
7.31825E-11
41
1
10
-0.211489564039525
20
21.9973773586366
30
1.143666E-10
41
1
10
-0.217126435649614
20
21.9831341197221
30
5.47935E-11
41
1
10
-0.223769117875817
20
21.9694213229987
30
2.04612E-11
41
1
10
-0.231366060928062
20
21.9563454384964
30
-1.7378E-12
41
1
10
-0.239985331936679
20
21.9437841956291
30
-4.1355E-12
41
1
10
-0.249527081681393
20
21.9318856585755
30
-3.6338E-12
41
1
10
-0.259894891319367
20
21.9207681890408
30
-7.899E-13
41
1
10
-0.27094240746505
20
21.9105759931405
30
4.726E-13
41
1
10
-0.28268439488766
20
21.9012864216421
30
5.966E-13
41
1
10
-0.295145195373138
20
21.892858828337
30
2.811E-13
41
1
10
-0.308184752035529
20
21.8853884313416
30
5.85E-14
41
1
10
-0.32168103657584
20
21.8789414791284
30
-1.309E-13
41
1
10
-0.335591500639887
20
21.8735477711747
30
-1.347E-13
41
1
10
-0.350062577764973
20
21.8691788348314
30
-3.37E-14
41
1
10
-0.364878731797523
20
21.8659112845259
30
7.445E-13
41
1
10
-0.376860884475408
20
21.8642130002297
30
1.5034E-12
41
1
10
-0.385844785194125
20
21.8634568010807
30
2.4807E-12
41
1
10
-0.391908574017069
20
21.8631840241806
30
2.4807E-12
41
1
10
-0.39497688870783
20
21.8631057957383
30
2.4807E-12
0
SPLINE
5
131
100
AcDbEntity
8
SK1
62
256
6
ByLayer
370
18
48
1
60
0
100
AcDbSpline
70
4
71
5
72
32
73
26
40
0
40
0
40
0
40
0
40
0
40
0
40
0.0231521552974816
40
0.0730637909642676
40
0.123154458566785
40
0.17312789489845
40
0.218324349482021
40
0.263479705766336
40
0.313404668088199
40
0.363730043980531
40
0.412420576778566
40
0.45557430845081
40
0.504581285341415
40
0.555172305686187
40
0.605669158391774
40
0.651815468124122
40
0.698646662477007
40
0.749345799186044
40
0.800377562747486
40
0.850655510802726
40
0.898745406646065
40
0.94908821883428
40
1
40
1
40
1
40
1
40
1
40
1
41
1
10
-0.394976888875288
20
-21.8631058121192
30
-9.8966421E-09
41
1
10
-0.39353482175075
20
-21.8631425784457
30
-9.8966421E-09
41
1
10
-0.388985008050475
20
-21.8633002422357
30
-9.8966421E-09
41
1
10
-0.381325338647088
20
-21.8637884580914
30
-9.8558787E-09
41
1
10
-0.370608898583126
20
-21.8649964237143
30
-9.797375E-09
41
1
10
-0.357245548747115
20
-21.8674358171495
30
-9.7363059E-09
41
1
10
-0.342774150221614
20
-21.8712455177934
30
-9.7167221E-09
41
1
10
-0.328597239987254
20
-21.8761365890736
30
-9.7124584E-09
41
1
10
-0.314813939558314
20
-21.8820737470703
30
-9.7167991E-09
41
1
10
-0.301609982259144
20
-21.8889709684939
30
-9.7197094E-09
41
1
10
-0.289080133584585
20
-21.8967799897105
30
-9.7216441E-09
41
1
10
-0.276954083063763
20
-21.9056617936325
30
-9.7219789E-09
41
1
10
-0.265473268126669
20
-21.9154559995914
30
-9.7219895E-09
41
1
10
-0.254758116179062
20
-21.9260614441303
30
-9.7217861E-09
41
1
10
-0.244982923192868
20
-21.9373006228976
30
-9.7216984E-09
41
1
10
-0.235937177295013
20
-21.9494396907598
30
-9.7216525E-09
41
1
10
-0.22774939486224
20
-21.9623314655446
30
-9.7216564E-09
41
1
10
-0.220521314225016
20
-21.9758085734561
30
-9.721662E-09
41
1
10
-0.214346853654316
20
-21.989739370709
30
-9.721671E-09
41
1
10
-0.209169043062122
20
-22.0042095947753
30
-9.7216721E-09
41
1
10
-0.205082748407689
20
-22.0192830521242
30
-9.7216765E-09
41
1
10
-0.202012571265589
20
-22.0346862283462
30
-9.7216745E-09
41
1
10
-0.200663746121965
20
-22.0471108432648
30
-9.7216829E-09
41
1
10
-0.199999999999996
20
-22.0564525882792
30
-9.7216729E-09
41
1
10
-0.199999999999996
20
-22.0627935966682
30
-9.7216729E-09
41
1
10
-0.199999999999996
20
-22.0659819161937
30
-9.7216729E-09
0
SPLINE
5
132
100
AcDbEntity
8
SK1
62
256
6
ByLayer
370
18
48
1
60
0
100
AcDbSpline
70
4
71
5
72
32
73
26
40
0
40
0
40
0
40
0
40
0
40
0
40
0.026382598910065
40
0.0765959775097485
40
0.126965527837048
40
0.1773022035455
40
0.225010669911682
40
0.272483634154768
40
0.322466284809108
40
0.372674402526909
40
0.421962170262028
40
0.468025416105479
40
0.517001214715144
40
0.566820958194447
40
0.616504869184361
40
0.662547796943662
40
0.708836939680485
40
0.758121885416636
40
0.807642214561511
40
0.85629528302009
40
0.902500276515979
40
0.950965237902672
40
1
40
1
40
1
40
1
40
1
40
1
41
1
10
-2.2
20
-22.0200986776347
30
0
41
1
10
-2.19995865572535
20
-22.018428941637
30
0
41
1
10
-2.19978946561146
20
-22.0135824686018
30
0
41
1
10
-2.19927182933152
20
-22.0055593973326
30
-2.5312669E-09
41
1
10
-2.19800494870705
20
-21.9944114582122
30
-5.8268307E-09
41
1
10
-2.19544066904993
20
-21.9804234099102
30
-9.1870611E-09
41
1
10
-2.19147283212738
20
-21.9653689406939
30
-1.00859991E-08
41
1
10
-2.18637563833315
20
-21.9506356304284
30
-1.02303898E-08
41
1
10
-2.18019232736462
20
-21.936344941968
30
-9.947104E-09
41
1
10
-2.17299541712576
20
-21.9226537947207
30
-9.7998909E-09
41
1
10
-2.16482990109575
20
-21.9096451673952
30
-9.708196E-09
41
1
10
-2.1556220487464
20
-21.8971920832951
30
-9.7028638E-09
41
1
10
-2.14549130464296
20
-21.8854650780791
30
-9.7057968E-09
41
1
10
-2.13454666519152
20
-21.874586346056
30
-9.7168501E-09
41
1
10
-2.12297590513547
20
-21.8647263572264
30
-9.7200808E-09
41
1
10
-2.11065713101961
20
-21.8557630692994
30
-9.7225371E-09
41
1
10
-2.09764884495409
20
-21.8477351714504
30
-9.7222211E-09
41
1
10
-2.08409632322106
20
-21.840719585029
30
-9.7220717E-09
41
1
10
-2.07014405065172
20
-21.834808761569
30
-9.7215872E-09
41
1
10
-2.05576627693841
20
-21.8299563742446
30
-9.7214288E-09
41
1
10
-2.04088100530302
20
-21.8262343040005
30
-9.7215122E-09
41
1
10
-2.02571266541612
20
-21.8235430811476
30
-9.721617E-09
41
1
10
-2.01351573160256
20
-21.8225030287628
30
-9.7216531E-09
41
1
10
-2.00436499705402
20
-21.8220726350157
30
-9.7216739E-09
41
1
10
-1.99816040361936
20
-21.8222308316456
30
-9.7216739E-09
41
1
10
-1.99503997730622
20
-21.8223103921968
30
-9.7216739E-09
0
SPLINE
5
133
100
AcDbEntity
8
SK1
62
256
6
ByLayer
370
18
48
1
60
0
100
AcDbSpline
70
4
71
5
72
32
73
26
40
0
40
0
40
0
40
0
40
0
40
0
40
0.0233910373980566
40
0.0733229043291722
40
0.123432941136092
40
0.173366029121139
40
0.217976716454202
40
0.263771940926721
40
0.313790511723746
40
0.364093188416247
40
0.411806884611934
40
0.455387596162899
40
0.504903047289987
40
0.555494562163042
40
0.605551619983119
40
0.650492455923915
40
0.698643763632416
40
0.749492811997883
40
0.800494686052647
40
0.849859148588593
40
0.898242911724189
40
0.94900713394055
40
1
40
1
40
1
40
1
40
1
40
1
41
1
10
-1.99503997802146
20
21.8223103725962
30
9.7193314E-09
41
1
10
-1.99652020360003
20
21.8222726317394
30
9.7193314E-09
41
1
10
-2.00116130106691
20
21.8221979045798
30
9.7193314E-09
41
1
10
-2.00897614273191
20
21.8223032984737
30
7.3694314E-09
41
1
10
-2.01992595300927
20
21.8229938171125
30
4.0700586E-09
41
1
10
-2.03358454008189
20
21.8248144402092
30
7.035961E-10
41
1
10
-2.04845815014567
20
21.8279912880495
30
-3.102317E-10
41
1
10
-2.06308356109985
20
21.8323002090114
30
-5.053894E-10
41
1
10
-2.07734397923503
20
21.8377064030117
30
-2.492511E-10
41
1
10
-2.09099696141763
20
21.8441070619095
30
-9.43024E-11
41
1
10
-2.1040577895073
20
21.8515084323594
30
4.9251E-12
41
1
10
-2.11673999239858
20
21.8600280016527
30
1.78165E-11
41
1
10
-2.12878335183926
20
21.8695087625435
30
1.67027E-11
41
1
10
-2.14004504338978
20
21.8798376020623
30
5.6696E-12
41
1
10
-2.1503571126128
20
21.8908533186561
30
1.5955E-12
41
1
10
-2.15999184447761
20
21.9028653893189
30
-8.954E-13
41
1
10
-2.16875754763225
20
21.9156619161673
30
-6.625E-13
41
1
10
-2.17653871085849
20
21.9290846171064
30
-4.811E-13
41
1
10
-2.18325143422306
20
21.9429886742415
30
-8.38E-14
41
1
10
-2.18895461835936
20
21.9575803784934
30
-9.3E-15
41
1
10
-2.19358015972583
20
21.9727745662075
30
4.05E-14
41
1
10
-2.19703657595626
20
21.9883208518348
30
9.6E-15
41
1
10
-2.1988304741929
20
22.0008808081356
30
-6.1E-15
41
1
10
-2.19963243421581
20
22.0103957117423
30
0
41
1
10
-2.19991976913302
20
22.0168584471795
30
0
41
1
10
-2.2
20
22.0200986607268
30
0
0
SPLINE
5
134
100
AcDbEntity
8
SK1
62
256
6
ByLayer
370
18
48
1
60
0
100
AcDbSpline
70
4
71
5
72
12
73
6
40
0
40
0
40
0
40
0
40
0
40
0
40
1
40
1
40
1
40
1
40
1
40
1
41
1
10
-1.9950399779393
20
-21.8223103888172
30
-2.3443E-12
41
1
10
-1.67502736469863
20
-21.830469652119
30
-2.3443E-12
41
1
10
-1.35501474916858
20
-21.8386288256297
30
-2.3443E-12
41
1
10
-1.03500213143809
20
-21.8467879128361
30
-9.7216714E-09
41
1
10
-0.714989511339196
20
-21.8549469071492
30
-9.7216714E-09
41
1
10
-0.394976888960852
20
-21.8631058120565
30
-9.7216714E-09
0
SPLINE
5
135
100
AcDbEntity
8
SK1
62
256
6
ByLayer
370
18
48
1
60
0
100
AcDbSpline
70
4
71
5
72
12
73
6
40
0
40
0
40
0
40
0
40
0
40
0
40
1
40
1
40
1
40
1
40
1
40
1
41
1
10
-0.394976888957447
20
21.8631057923741
30
9.7188128E-09
41
1
10
-0.714989511335822
20
21.8549468874891
30
9.7188128E-09
41
1
10
-1.03500213143472
20
21.8467878931972
30
9.7188128E-09
41
1
10
-1.35501474933647
20
21.8386288127292
30
2.7E-15
41
1
10
-1.67502736486652
20
21.8304696392394
30
2.7E-15
41
1
10
-1.99503997810716
20
21.8223103759575
30
2.7E-15
0
SPLINE
5
136
100
AcDbEntity
8
1
62
256
6
ByLayer
370
18
48
1
60
0
100
AcDbSpline
70
4
71
3
72
30
73
26
40
0
40
0
40
0
40
0
40
0.124999999999997
40
0.124999999999997
40
0.249999999999995
40
0.249999999999995
40
0.312499999999993
40
0.312499999999993
40
0.374999999999992
40
0.374999999999992
40
0.499999999999991
40
0.499999999999991
40
0.562499999999992
40
0.562499999999992
40
0.624999999999993
40
0.624999999999993
40
0.687499999999994
40
0.687499999999994
40
0.749999999999996
40
0.749999999999996
40
0.874999999999998
40
0.874999999999998
40
0.937499999999999
40
0.937499999999999
40
1
40
1
40
1
40
1
41
1
10
22
20
2.1550245098039
30
0
41
1
10
22
20
2.04633490425687
30
0
41
1
10
22.0079945486245
20
1.93904756486044
30
0
41
1
10
22.0397050748903
20
1.72723434896982
30
0
41
1
10
22.0634142674886
20
1.62270722825706
30
0
41
1
10
22.1117230564887
20
1.46816260832562
30
0
41
1
10
22.1300618487114
20
1.41679096900384
30
0
41
1
10
22.1708424244432
20
1.31609974221543
30
0
41
1
10
22.1932130148649
20
1.26689181588778
30
0
41
1
10
22.2663713397885
20
1.12274380553256
30
0
41
1
10
22.3231372286981
20
1.03124001147941
30
0
41
1
10
22.4217493239418
20
0.901733276082393
30
0
41
1
10
22.4570211775269
20
0.859753289008955
30
0
41
1
10
22.5308645200997
20
0.780362402027638
30
0
41
1
10
22.5695812977863
20
0.742731353474762
30
0
41
1
10
22.6507306244543
20
0.671743601902041
30
0
41
1
10
22.6931621324931
20
0.638385699466392
30
0
41
1
10
22.7819921558476
20
0.576234401213372
30
0
41
1
10
22.8287201731138
20
0.547286119828165
30
0
41
1
10
22.9719048032033
20
0.469797396960131
30
0
41
1
10
23.0717724657573
20
0.429980492472174
30
0
41
1
10
23.2285625658248
20
0.389019706452876
30
0
41
1
10
23.2823099367315
20
0.378486086944942
30
0
41
1
10
23.3907282270266
20
0.364441000820105
30
0
41
1
10
23.4452206296922
20
0.360906862745078
30
0
41
1
10
23.5
20
0.360906862745078
30
0
0
SPLINE
5
137
100
AcDbEntity
8
1
62
256
6
ByLayer
370
18
48
1
60
0
100
AcDbSpline
70
4
71
3
72
14
73
10
40
0
40
0
40
0
40
0
40
0.125000000000002
40
0.125000000000002
40
0.250000000000004
40
0.250000000000004
40
0.500000000000001
40
0.500000000000001
40
1
40
1
40
1
40
1
41
1
10
22.399999999998
20
-30.9729048135385
30
0
41
1
10
22.3912937428647
20
-30.9738617824941
30
0
41
1
10
22.3837376811861
20
-30.9751536969215
30
0
41
1
10
22.3698097043526
20
-30.9780710583814
30
0
41
1
10
22.3634662759027
20
-30.979705004429
30
0
41
1
10
22.3456305510391
20
-30.9849298326489
30
0
41
1
10
22.3354436144722
20
-30.9887932334967
30
0
41
1
10
22.3076161488513
20
-31.0008361745712
30
0
41
1
10
22.2926192488319
20
-31.0095004363037
30
0
41
1
10
22.2792076144253
20
-31.0183295877096
30
0
0
SPLINE
5
138
100
AcDbEntity
8
1
62
256
6
ByLayer
370
18
48
1
60
0
100
AcDbSpline
70
4
71
3
72
12
73
8
40
0
40
0
40
0
40
0
40
0.250000000000005
40
0.250000000000005
40
0.50000000000001
40
0.50000000000001
40
1
40
1
40
1
40
1
41
1
10
22.7587907667566
20
0.299044117647105
30
0
41
1
10
22.721971307292
20
0.308990509109034
30
0
41
1
10
22.6840270578197
20
0.317874495110882
30
0
41
1
10
22.6057275639016
20
0.333375339678254
30
0
41
1
10
22.5658162945015
20
0.339892586121053
30
0
41
1
10
22.4452297837159
20
0.355532312585733
30
0
41
1
10
22.363129937738
20
0.360906862745088
30
0
41
1
10
22.2792076144253
20
0.360906862745087
30
0
0
SPLINE
5
139
100
AcDbEntity
8
1
62
256
6
ByLayer
370
18
48
1
60
0
100
AcDbSpline
70
4
71
3
72
8
73
4
40
0
40
0
40
0
40
0
40
1
40
1
40
1
40
1
41
1
10
24.3883737984952
20
0.299044117647069
30
0
41
1
10
24.7967260019751
20
0.299044117647069
30
0
41
1
10
25.2029508811849
20
0.283622014316238
30
0
41
1
10
25.6070672325466
20
0.252805018154731
30
0
0
SPLINE
5
13A
100
AcDbEntity
8
1
62
256
6
ByLayer
370
18
48
1
60
0
100
AcDbSpline
70
4
71
3
72
19
73
15
40
0
40
0
40
0
40
0
40
0.125000000000005
40
0.187500000000007
40
0.187500000000007
40
0.250000000000008
40
0.250000000000008
40
0.50000000000001
40
0.50000000000001
40
0.625000000000008
40
0.625000000000008
40
0.750000000000005
40
0.750000000000005
40
1
40
1
40
1
40
1
41
1
10
24.3883737984952
20
-30.8707327586207
30
0
41
1
10
24.44909035452
20
-30.8707327586207
30
0
41
1
10
24.5388630294085
20
-30.8698299210687
30
0
41
1
10
24.6268498302497
20
-30.8676800227042
30
0
41
1
10
24.6851291375669
20
-30.8659797451431
30
0
41
1
10
24.7141864032467
20
-30.8649918529605
30
0
41
1
10
24.8571883006357
20
-30.8594647218161
30
0
41
1
10
24.9634441707305
20
-30.8532558616838
30
0
41
1
10
25.1149684763024
20
-30.8420593460947
30
0
41
1
10
25.1642951301261
20
-30.8379916967308
30
0
41
1
10
25.2597377833886
20
-30.8293874025221
30
0
41
1
10
25.3058982098918
20
-30.8248506522246
30
0
41
1
10
25.4406410198627
20
-30.8106330594204
30
0
41
1
10
25.5255335655789
20
-30.8003500731724
30
0
41
1
10
25.6070672325469
20
-30.7894157215825
30
0
0
SPLINE
5
13B
100
AcDbEntity
8
1
62
256
6
ByLayer
370
18
48
1
60
0
100
AcDbSpline
70
4
71
3
72
18
73
14
40
0
40
0
40
0
40
0
40
0.0625000000000038
40
0.0625000000000038
40
0.125000000000007
40
0.125000000000007
40
0.250000000000008
40
0.250000000000008
40
0.500000000000005
40
0.500000000000005
40
0.750000000000003
40
0.750000000000003
40
1
40
1
40
1
40
1
41
1
10
22.4
20
-30.972904813539
30
0
41
1
10
22.4144939457445
20
-30.9713116770273
30
0
41
1
10
22.4274230180392
20
-30.969611408003
30
0
41
1
10
22.4515316484533
20
-30.9660811056162
30
0
41
1
10
22.4626829820508
20
-30.9642493123016
30
0
41
1
10
22.4943537582312
20
-30.9586098915626
30
0
41
1
10
22.5129757590328
20
-30.9546892938923
30
0
41
1
10
22.564826623026
20
-30.9426296333384
30
0
41
1
10
22.5940167063453
20
-30.9342111659177
30
0
41
1
10
22.6476604155496
20
-30.9168792961706
30
0
41
1
10
22.6719192397894
20
-30.9079591149106
30
0
41
1
10
22.7174366489964
20
-30.8896697771799
30
0
41
1
10
22.7386395616695
20
-30.8803060513892
30
0
41
1
10
22.7587907667573
20
-30.8707327586207
30
0
0
SPLINE
5
13C
100
AcDbEntity
8
1
62
256
6
ByLayer
370
18
48
1
60
0
100
AcDbSpline
70
4
71
3
72
8
73
4
40
0
40
0
40
0
40
0
40
1
40
1
40
1
40
1
41
1
10
31.1649275357581
20
-0.175590449681128
30
0
41
1
10
29.3123071116792
20
-0.0312700519463395
30
0
41
1
10
27.4596870036345
20
0.111528437333419
30
0
41
1
10
25.6070672325466
20
0.252805018154691
30
0
0
SPLINE
5
13D
100
AcDbEntity
8
1
62
256
6
ByLayer
370
18
48
1
60
0
100
AcDbSpline
70
4
71
3
72
38
73
34
40
0
40
0
40
0
40
0
40
0.0156250000000007
40
0.0156250000000007
40
0.0312500000000013
40
0.0312500000000013
40
0.0625000000000027
40
0.0625000000000027
40
0.093750000000004
40
0.093750000000004
40
0.109375000000004
40
0.109375000000004
40
0.125000000000005
40
0.125000000000005
40
0.156250000000004
40
0.156250000000004
40
0.187500000000004
40
0.187500000000004
40
0.250000000000004
40
0.250000000000004
40
0.312500000000004
40
0.312500000000004
40
0.375000000000003
40
0.375000000000003
40
0.500000000000003
40
0.500000000000003
40
0.625000000000002
40
0.625000000000002
40
0.750000000000001
40
0.750000000000001
40
0.875000000000001
40
0.875000000000001
40
1
40
1
40
1
40
1
41
1
10
58.1352143477077
20
-5.44783210427848
30
0
41
1
10
58.0194788836926
20
-5.35479177010655
30
0
41
1
10
57.8999811044951
20
-5.26957243405863
30
0
41
1
10
57.6561649108752
20
-5.10915350132297
30
0
41
1
10
57.5318070298486
20
-5.03403596308204
30
0
41
1
10
57.1534910343851
20
-4.81957810389595
30
0
41
1
10
56.8943873423521
20
-4.69093131809928
30
0
41
1
10
56.367866446822
20
-4.45090880979686
30
0
41
1
10
56.1003513722794
20
-4.33973658301774
30
0
41
1
10
55.6946576290348
20
-4.1821594964469
30
0
41
1
10
55.5586761228558
20
-4.13119187882257
30
0
41
1
10
55.2854223519926
20
-4.03193661805266
30
0
41
1
10
55.148129230824
20
-3.98364579671239
30
0
41
1
10
54.7358695900815
20
-3.84272070050622
30
0
41
1
10
54.4600579220884
20
-3.75382944423865
30
0
41
1
10
53.9069301556569
20
-3.58386177725134
30
0
41
1
10
53.6296111468521
20
-3.50280061678366
30
0
41
1
10
52.7958236157227
20
-3.26910588715662
30
0
41
1
10
52.2375466605001
20
-3.12584539842501
30
0
41
1
10
51.1175562181243
20
-2.85705444228474
30
0
41
1
10
50.5558272821877
20
-2.73160493110351
30
0
41
1
10
49.42970692099
20
-2.49437791517968
30
0
41
1
10
48.8653093396488
20
-2.38263267155366
30
0
41
1
10
47.1688745429606
20
-2.0639635427071
30
0
41
1
10
46.033634282826
20
-1.87340178213331
30
0
41
1
10
43.7569893088864
20
-1.52344372211821
30
0
41
1
10
42.615259389105
20
-1.36416914154729
30
0
41
1
10
40.33043803055
20
-1.07046037806787
30
0
41
1
10
39.1868898676928
20
-0.936008766279562
30
0
41
1
10
36.8978926274077
20
-0.687334496439745
30
0
41
1
10
35.7524412677917
20
-0.573139712714432
30
0
41
1
10
33.4598833986216
20
-0.361969704501786
30
0
41
1
10
32.3127757324172
20
-0.26500860902336
30
0
41
1
10
31.1649275357581
20
-0.175590449681104
30
0
0
SPLINE
5
13E
100
AcDbEntity
8
1
62
256
6
ByLayer
370
18
48
1
60
0
100
AcDbSpline
70
4
71
3
72
34
73
30
40
0
40
0
40
0
40
0
40
0.125
40
0.125
40
0.249999999999999
40
0.249999999999999
40
0.374999999999999
40
0.374999999999999
40
0.499999999999998
40
0.499999999999998
40
0.624999999999998
40
0.624999999999998
40
0.687499999999998
40
0.687499999999998
40
0.749999999999999
40
0.749999999999999
40
0.812499999999999
40
0.812499999999999
40
0.84375
40
0.84375
40
0.875
40
0.875
40
0.9375
40
0.9375
40
0.96875
40
0.96875
40
0.984375
40
0.984375
40
1
40
1
40
1
40
1
41
1
10
84.8017935434869
20
-16.5521678957215
30
0
41
1
10
83.6504681103175
20
-16.219574632477
30
0
41
1
10
82.5011646915698
20
-15.8793891503994
30
0
41
1
10
80.2073996305294
20
-15.1808383819893
30
0
41
1
10
79.0629339587096
20
-14.8224882256433
30
0
41
1
10
76.7799192205295
20
-14.0835723625004
30
0
41
1
10
75.641362933055
20
-13.7030337693967
30
0
41
1
10
73.3716849550928
20
-12.9140413088698
30
0
41
1
10
72.2405491393837
20
-12.5056404785417
30
0
41
1
10
69.9879752178471
20
-11.6524260530645
30
0
41
1
10
68.8665059829288
20
-11.2077293407957
30
0
41
1
10
67.194302111002
20
-10.5031365481554
30
0
41
1
10
66.6385805668728
20
-10.2619652057262
30
0
41
1
10
65.531200475334
20
-9.76436686300314
30
0
41
1
10
64.9795376829104
20
-9.50795580180216
30
0
41
1
10
63.8812462768648
20
-8.97623144670762
30
0
41
1
10
63.3346096112209
20
-8.70094838638279
30
0
41
1
10
62.5194941197612
20
-8.26985251292122
30
0
41
1
10
62.249148442602
20
-8.12339396663443
30
0
41
1
10
61.7123738148044
20
-7.82468131486896
30
0
41
1
10
61.445821023449
20
-7.6723639247667
30
0
41
1
10
60.6524498749716
20
-7.2052636759879
30
0
41
1
10
60.1318216694332
20
-6.88048942394714
30
0
41
1
10
59.3677878957856
20
-6.36603633602747
30
0
41
1
10
59.1159484869662
20
-6.18997038490081
30
0
41
1
10
58.743283087939
20
-5.91764980134378
30
0
41
1
10
58.6198590967126
20
-5.82545789088723
30
0
41
1
10
58.3756360581305
20
-5.63862756022475
30
0
41
1
10
58.2547536274923
20
-5.5439303454915
30
0
41
1
10
58.1352143477077
20
-5.44783210427847
30
0
0
SPLINE
5
13F
100
AcDbEntity
8
1
62
256
6
ByLayer
370
18
48
1
60
0
100
AcDbSpline
70
4
71
3
72
70
73
66
40
0
40
0
40
0
40
0
40
0.124999999999999
40
0.124999999999999
40
0.187499999999999
40
0.187499999999999
40
0.218749999999999
40
0.218749999999999
40
0.249999999999998
40
0.249999999999998
40
0.312499999999995
40
0.312499999999995
40
0.343749999999994
40
0.343749999999994
40
0.359374999999995
40
0.359374999999995
40
0.374999999999996
40
0.374999999999996
40
0.406249999999995
40
0.406249999999995
40
0.421874999999995
40
0.421874999999995
40
0.429687499999996
40
0.429687499999996
40
0.437499999999998
40
0.437499999999998
40
0.453125
40
0.453125
40
0.468750000000003
40
0.468750000000003
40
0.476562500000004
40
0.476562500000004
40
0.484375000000006
40
0.484375000000006
40
0.500000000000009
40
0.500000000000009
40
0.50781250000001
40
0.50781250000001
40
0.515625000000012
40
0.515625000000012
40
0.531250000000013
40
0.531250000000013
40
0.546875000000013
40
0.546875000000013
40
0.562500000000014
40
0.562500000000014
40
0.593750000000016
40
0.593750000000016
40
0.609375000000017
40
0.609375000000017
40
0.625000000000018
40
0.625000000000018
40
0.656250000000018
40
0.656250000000018
40
0.687500000000017
40
0.687500000000017
40
0.750000000000014
40
0.750000000000014
40
0.812500000000011
40
0.812500000000011
40
0.875000000000007
40
0.875000000000007
40
0.937500000000004
40
0.937500000000004
40
1
40
1
40
1
40
1
41
1
10
85.502670311645
20
-21.8244095503189
30
0
41
1
10
86.0167017419196
20
-21.7394679248178
30
0
41
1
10
86.5267817562581
20
-21.6441916572893
30
0
41
1
10
87.2824699430965
20
-21.4764572643105
30
0
41
1
10
87.5327734880139
20
-21.4163545285805
30
0
41
1
10
87.9049770386459
20
-21.3176195903684
30
0
41
1
10
88.0284988157839
20
-21.2832668780141
30
0
41
1
10
88.2742293248612
20
-21.211092209905
30
0
41
1
10
88.3965674224362
20
-21.1732311047315
30
0
41
1
10
88.7601922043983
20
-21.0535370969014
30
0
41
1
10
88.9977915037632
20
-20.9660374187122
30
0
41
1
10
89.3422605472873
20
-20.8156746050364
30
0
41
1
10
89.4550675002519
20
-20.7623235509977
30
0
41
1
10
89.6200566030954
20
-20.675528550037
30
0
41
1
10
89.6743434839306
20
-20.6454592848554
30
0
41
1
10
89.7811839157221
20
-20.5825406110796
30
0
41
1
10
89.8337676043896
20
-20.5496588166473
30
0
41
1
10
89.9864487290812
20
-20.4470766589487
30
0
41
1
10
90.0822165299179
20
-20.3732732955071
30
0
41
1
10
90.2116546925832
20
-20.2497750077181
30
0
41
1
10
90.25240172609
20
-20.2064495952503
30
0
41
1
10
90.3087060312837
20
-20.1371256175864
30
0
41
1
10
90.32672921905
20
-20.1131885191485
30
0
41
1
10
90.3603862559611
20
-20.0643145030597
30
0
41
1
10
90.3760575380711
20
-20.0393463691148
30
0
41
1
10
90.419215841095
20
-19.962672259322
30
0
41
1
10
90.4429030130965
20
-19.9091487216043
30
0
41
1
10
90.4772455509973
20
-19.7964165746414
30
0
41
1
10
90.4872962612672
20
-19.7390781586975
30
0
41
1
10
90.4911878685743
20
-19.6515430190817
30
0
41
1
10
90.4906202089811
20
-19.6221099491627
30
0
41
1
10
90.4856610075152
20
-19.5627215743184
30
0
41
1
10
90.4812293666705
20
-19.5327026873517
30
0
41
1
10
90.4626922086754
20
-19.4441561225901
30
0
41
1
10
90.4433467411244
20
-19.386363762171
30
0
41
1
10
90.4054569826816
20
-19.3012482672005
30
0
41
1
10
90.3912965765197
20
-19.273077929048
30
0
41
1
10
90.360799764208
20
-19.2181700596734
30
0
41
1
10
90.3444153885389
20
-19.1913072817222
30
0
41
1
10
90.2923081471125
20
-19.1122563750021
30
0
41
1
10
90.2536518143728
20
-19.0615949313198
30
0
41
1
10
90.170233896288
20
-18.963450020043
30
0
41
1
10
90.1252487430875
20
-18.9157796442925
30
0
41
1
10
90.0317962627174
20
-18.8243952693829
30
0
41
1
10
89.9832551288652
20
-18.7805576370417
30
0
41
1
10
89.8333946954337
20
-18.6533750113328
30
0
41
1
10
89.7278998021203
20
-18.5742975385756
30
0
41
1
10
89.5640514074713
20
-18.4614128892494
30
0
41
1
10
89.5084806604072
20
-18.4247606393518
30
0
41
1
10
89.3957184590586
20
-18.3531134352237
30
0
41
1
10
89.3385493081164
20
-18.3181386682591
30
0
41
1
10
89.1660997414932
20
-18.2160165649784
30
0
41
1
10
89.0494785732954
20
-18.1513803179455
30
0
41
1
10
88.813787955247
20
-18.0272061095098
30
0
41
1
10
88.694711542635
20
-17.9676826356024
30
0
41
1
10
88.3345998655614
20
-17.7951160342581
30
0
41
1
10
88.0907233615804
20
-17.6879910065488
30
0
41
1
10
87.5978515679762
20
-17.4844089845481
30
0
41
1
10
87.348824955102
20
-17.3880171634467
30
0
41
1
10
86.8469541628315
20
-17.2031944978257
30
0
41
1
10
86.5940982813212
20
-17.1147880010973
30
0
41
1
10
86.0853886447274
20
-16.9442307686693
30
0
41
1
10
85.829717191395
20
-16.8621557218053
30
0
41
1
10
85.3169406854395
20
-16.7033951151985
30
0
41
1
10
85.0597150004019
20
-16.6266758815131
30
0
41
1
10
84.8017935434869
20
-16.5521678957215
30
0
0
SPLINE
5
140
100
AcDbEntity
8
1
62
256
6
ByLayer
370
18
48
1
60
0
100
AcDbSpline
70
4
71
3
72
38
73
34
40
0
40
0
40
0
40
0
40
0.03125
40
0.03125
40
0.0625
40
0.0625
40
0.09375
40
0.09375
40
0.125
40
0.125
40
0.15625
40
0.15625
40
0.1875
40
0.1875
40
0.21875
40
0.21875
40
0.25
40
0.25
40
0.3125
40
0.3125
40
0.375
40
0.375
40
0.4375
40
0.4375
40
0.5
40
0.5
40
0.625
40
0.625
40
0.75
40
0.75
40
0.875
40
0.875
40
1
40
1
40
1
40
1
41
1
10
25.6070672325467
20
-30.7894157215824
30
0
41
1
10
26.0835200063104
20
-30.7255193909248
30
0
41
1
10
26.5804759795364
20
-30.6586951905924
30
0
41
1
10
27.6039825806219
20
-30.520644102329
30
0
41
1
10
28.1306324088721
20
-30.4494042741444
30
0
41
1
10
29.2067113001504
20
-30.3033803241092
30
0
41
1
10
29.7561847171321
20
-30.2285904414433
30
0
41
1
10
30.8733329698596
20
-30.0760373878713
30
0
41
1
10
31.4410302490886
20
-29.9982713145088
30
0
41
1
10
32.5913847680978
20
-29.8401662400064
30
0
41
1
10
33.1740544389123
20
-29.7598256381822
30
0
41
1
10
34.3519631599469
20
-29.5968638484667
30
0
41
1
10
34.947209587542
20
-29.5142417147281
30
0
41
1
10
36.1484510886427
20
-29.3469372834273
30
0
41
1
10
36.754460317792
20
-29.2622530590337
30
0
41
1
10
37.9757659469927
20
-29.0910003553037
30
0
41
1
10
38.5890553557183
20
-29.0047134018037
30
0
41
1
10
40.4357289420524
20
-28.7440050197645
30
0
41
1
10
41.6758676844167
20
-28.5677423964418
30
0
41
1
10
44.1700008549648
20
-28.2108062115501
30
0
41
1
10
45.4240207118135
20
-28.0301294326679
30
0
41
1
10
47.9431568126401
20
-27.6646900891725
30
0
41
1
10
49.2082861366897
20
-27.4799258821333
30
0
41
1
10
51.7476789063973
20
-27.1065388737988
30
0
41
1
10
53.0219496857966
20
-26.917915158603
30
0
41
1
10
56.8562875220454
20
-26.3465034541785
30
0
41
1
10
59.4277722926971
20
-25.9581877314344
30
0
41
1
10
64.5933612977634
20
-25.1676806849193
30
0
41
1
10
67.1875256655391
20
-24.7654820316054
30
0
41
1
10
72.393599396119
20
-23.9477233133339
30
0
41
1
10
75.005537394622
20
-23.5321598125927
30
0
41
1
10
80.2438486725346
20
-22.6880033231374
30
0
41
1
10
82.8702371043241
20
-22.2594085454843
30
0
41
1
10
85.502670311645
20
-21.8244095503189
30
0
0
SPLINE
5
141
100
AcDbEntity
8
1
62
256
6
ByLayer
370
18
48
1
60
0
100
AcDbSpline
70
4
71
3
72
12
73
8
40
0
40
0
40
0
40
0
40
0.250000000000003
40
0.250000000000003
40
0.500000000000006
40
0.500000000000006
40
1
40
1
40
1
40
1
41
1
10
98.8286534909892
20
6.11199041767451
30
0
41
1
10
98.8301062224974
20
6.09538562055334
30
0
41
1
10
98.8287656350372
20
6.08098958852931
30
0
41
1
10
98.8231233459209
20
6.05445280408208
30
0
41
1
10
98.8187228644629
20
6.04239752637015
30
0
41
1
10
98.8019259977157
20
6.00913101997657
30
0
41
1
10
98.7860714457829
20
5.99061605447028
30
0
41
1
10
98.7652607517289
20
5.97604424961826
30
0
0
SPLINE
5
142
100
AcDbEntity
8
1
62
256
6
ByLayer
370
18
48
1
60
0
100
AcDbSpline
70
4
71
3
72
26
73
22
40
0
40
0
40
0
40
0
40
0.249999999999995
40
0.249999999999995
40
0.499999999999991
40
0.499999999999991
40
0.624999999999987
40
0.624999999999987
40
0.749999999999983
40
0.749999999999983
40
0.812499999999981
40
0.812499999999981
40
0.874999999999979
40
0.874999999999979
40
0.906249999999984
40
0.906249999999984
40
0.937499999999989
40
0.937499999999989
40
0.968749999999995
40
0.968749999999995
40
1
40
1
40
1
40
1
41
1
10
98.156081011088
20
5.54949200309831
30
0
41
1
10
98.1400360725245
20
5.53825721616598
30
0
41
1
10
98.1264205684895
20
5.52471144734181
30
0
41
1
10
98.1038976672793
20
5.49311502543532
30
0
41
1
10
98.0949605098135
20
5.47508098919884
30
0
41
1
10
98.0865725096325
20
5.44373918812352
30
0
41
1
10
98.0846161225883
20
5.43256007266349
30
0
41
1
10
98.0831613141535
20
5.40809268714457
30
0
41
1
10
98.0835796708564
20
5.39487332368264
30
0
41
1
10
98.0877522109115
20
5.37205297556439
30
0
41
1
10
98.0897469193574
20
5.36394535230234
30
0
41
1
10
98.0957975525009
20
5.34629145276845
30
0
41
1
10
98.0997227735838
20
5.33678876902379
30
0
41
1
10
98.1094513237705
20
5.31986656591999
30
0
41
1
10
98.113267566508
20
5.31389951629732
30
0
41
1
10
98.1234707609047
20
5.30050878101895
30
0
41
1
10
98.1299229551438
20
5.29311261691319
30
0
41
1
10
98.145346802574
20
5.27872630492456
30
0
41
1
10
98.1537998378148
20
5.27231349675013
30
0
41
1
10
98.1688758508592
20
5.26257363755325
30
0
41
1
10
98.1755885376022
20
5.25903412475763
30
0
41
1
10
98.1817439007718
20
5.25616383177291
30
0
0
SPLINE
5
143
100
AcDbEntity
8
1
62
256
6
ByLayer
370
18
48
1
60
0
100
AcDbSpline
70
4
71
3
72
10
73
6
40
0
40
0
40
0
40
0
40
0.5
40
0.5
40
1
40
1
40
1
40
1
41
1
10
98.6211123145259
20
-0.498030833301267
30
0
41
1
10
98.6276484393747
20
-0.483288177645394
30
0
41
1
10
98.6359005684333
20
-0.470207125795043
30
0
41
1
10
98.6552660019115
20
-0.446819026905374
30
0
41
1
10
98.6663866124339
20
-0.436519005020008
30
0
41
1
10
98.6790154675738
20
-0.427676185452041
30
0
0
SPLINE
5
144
100
AcDbEntity
8
1
62
256
6
ByLayer
370
18
48
1
60
0
100
AcDbSpline
70
4
71
3
72
28
73
24
40
0
40
0
40
0
40
0
40
0.0312499999999978
40
0.0312499999999978
40
0.0624999999999956
40
0.0624999999999956
40
0.0937499999999934
40
0.0937499999999934
40
0.124999999999991
40
0.124999999999991
40
0.187499999999987
40
0.187499999999987
40
0.249999999999982
40
0.249999999999982
40
0.374999999999985
40
0.374999999999985
40
0.499999999999988
40
0.499999999999988
40
0.62499999999999
40
0.62499999999999
40
0.749999999999993
40
0.749999999999993
40
1
40
1
40
1
40
1
41
1
10
98.5739447431367
20
0.773287690359035
30
0
41
1
10
98.5689219618081
20
0.775629851757751
30
0
41
1
10
98.5637512276668
20
0.778332786026917
30
0
41
1
10
98.5529778213093
20
0.784792915358613
30
0
41
1
10
98.5473718122543
20
0.788566384772643
30
0
41
1
10
98.5362092745542
20
0.797199039785998
30
0
41
1
10
98.5306574207571
20
0.802067521055082
30
0
41
1
10
98.5203042177269
20
0.812438122277764
30
0
41
1
10
98.5155047439321
20
0.81793847541702
30
0
41
1
10
98.5028872187624
20
0.83425811188311
30
0
41
1
10
98.4968155809643
20
0.844760326161658
30
0
41
1
10
98.4875809791255
20
0.864225281149294
30
0
41
1
10
98.4843949845018
20
0.873247480599241
30
0
41
1
10
98.4773443106151
20
0.898516061749965
30
0
41
1
10
98.4758351651161
20
0.913204402927673
30
0
41
1
10
98.4757463428224
20
0.94040539304716
30
0
41
1
10
98.47728080238
20
0.952715814815724
30
0
41
1
10
98.4823752366874
20
0.97567026036396
30
0
41
1
10
98.4859685309628
20
0.986292018101148
30
0
41
1
10
98.4946767166519
20
1.0059771623889
30
0
41
1
10
98.4998056013445
20
1.01507334817822
30
0
41
1
10
98.5171972895697
20
1.04042667824724
30
0
41
1
10
98.5314089376723
20
1.05480131886469
30
0
41
1
10
98.5482818534524
20
1.06661586168553
30
0
0
SPLINE
5
145
100
AcDbEntity
8
1
62
256
6
ByLayer
370
18
48
1
60
0
100
AcDbSpline
70
4
71
3
72
12
73
8
40
0
40
0
40
0
40
0
40
0.499999999999996
40
0.499999999999996
40
0.749999999999998
40
0.749999999999998
40
1
40
1
40
1
40
1
41
1
10
99.1574615940927
20
1.49316810820601
30
0
41
1
10
99.1776749650555
20
1.5073216629268
30
0
41
1
10
99.1935327300558
20
1.5254295932526
30
0
41
1
10
99.2105840924227
20
1.55868280923067
30
0
41
1
10
99.2151162001133
20
1.57086191276471
30
0
41
1
10
99.2209282867918
20
1.59768139543449
30
0
41
1
10
99.2223284415213
20
1.61226514280465
30
0
41
1
10
99.2208543333536
20
1.62911427626166
30
0
0
SPLINE
5
146
100
AcDbEntity
8
1
62
256
6
ByLayer
370
18
48
1
60
0
100
AcDbSpline
70
4
71
3
72
18
73
14
40
0
40
0
40
0
40
0
40
0.249999999999984
40
0.249999999999984
40
0.499999999999967
40
0.499999999999967
40
0.624999999999975
40
0.624999999999975
40
0.749999999999984
40
0.749999999999984
40
0.874999999999992
40
0.874999999999992
40
1
40
1
40
1
40
1
41
1
10
99.2032425463157
20
1.83041792324966
30
0
41
1
10
99.2025297237321
20
1.83856552266402
30
0
41
1
10
99.2011414871367
20
1.84719872840985
30
0
41
1
10
99.1959778983623
20
1.86619220793819
30
0
41
1
10
99.1922817738847
20
1.87649700671082
30
0
41
1
10
99.1829909993127
20
1.89387078197584
30
0
41
1
10
99.1792149852048
20
1.9000442084568
30
0
41
1
10
99.1696436810194
20
1.91299045165876
30
0
41
1
10
99.1637455151553
20
1.91980202820289
30
0
41
1
10
99.1505697236543
20
1.93232637660978
30
0
41
1
10
99.1432950177763
20
1.93800644330074
30
0
41
1
10
99.1297121140548
20
1.94698111667206
30
0
41
1
10
99.1232623668238
20
1.95046663737002
30
0
41
1
10
99.1172060808628
20
1.95329072989359
30
0
0
SPLINE
5
147
100
AcDbEntity
8
1
62
256
6
ByLayer
370
18
48
1
60
0
100
AcDbSpline
70
4
71
3
72
26
73
22
40
0
40
0
40
0
40
0
40
0.0312500000000003
40
0.0312500000000003
40
0.0625000000000006
40
0.0625000000000006
40
0.0937500000000009
40
0.0937500000000009
40
0.125000000000001
40
0.125000000000001
40
0.187500000000003
40
0.187500000000003
40
0.250000000000005
40
0.250000000000005
40
0.375000000000004
40
0.375000000000004
40
0.500000000000003
40
0.500000000000003
40
0.750000000000001
40
0.750000000000001
40
1
40
1
40
1
40
1
41
1
10
98.443211129015
20
2.26757973749729
30
0
41
1
10
98.4378951382396
20
2.27005862470657
30
0
41
1
10
98.4323035296896
20
2.27299821706309
30
0
41
1
10
98.4207270073807
20
2.28006119826942
30
0
41
1
10
98.4145918543499
20
2.28429432643348
30
0
41
1
10
98.402493723949
20
2.29402008940859
30
0
41
1
10
98.3965001184206
20
2.29956348245535
30
0
41
1
10
98.3857906026442
20
2.31096525004365
30
0
41
1
10
98.3810214108022
20
2.31685133710916
30
0
41
1
10
98.3688339057911
20
2.33382761806269
30
0
41
1
10
98.3633820744872
20
2.34417194646206
30
0
41
1
10
98.3550666356702
20
2.36324360905751
30
0
41
1
10
98.3522575994514
20
2.37197062647679
30
0
41
1
10
98.3460629395645
20
2.39659557580386
30
0
41
1
10
98.3448853887558
20
2.41085644969244
30
0
41
1
10
98.3452615012883
20
2.43728569631449
30
0
41
1
10
98.3469218165904
20
2.44926313156634
30
0
41
1
10
98.354770786401
20
2.48276498025327
30
0
41
1
10
98.3638165884425
20
2.50186909591334
30
0
41
1
10
98.3868310825603
20
2.53508271652974
30
0
41
1
10
98.4008867816558
20
2.54924143056138
30
0
41
1
10
98.417548239331
20
2.56090790882311
30
0
0
SPLINE
5
148
100
AcDbEntity
8
1
62
256
6
ByLayer
370
18
48
1
60
0
100
AcDbSpline
70
4
71
3
72
12
73
8
40
0
40
0
40
0
40
0
40
0.5
40
0.5
40
0.75
40
0.75
40
1
40
1
40
1
40
1
41
1
10
99.0267279799712
20
2.98746015534367
30
0
41
1
10
99.0470748113675
20
3.00170716006611
30
0
41
1
10
99.0629494487309
20
3.01991763365194
30
0
41
1
10
99.0799585230844
20
3.05323494237103
30
0
41
1
10
99.084437592016
20
3.06534840526241
30
0
41
1
10
99.0901983423055
20
3.0920503586517
30
0
41
1
10
99.0915930804802
20
3.10657715732604
30
0
41
1
10
99.0901207192321
20
3.12340632339927
30
0
0
SPLINE
5
149
100
AcDbEntity
8
1
62
256
6
ByLayer
370
18
48
1
60
0
100
AcDbSpline
70
4
71
3
72
18
73
14
40
0
40
0
40
0
40
0
40
0.250000000000017
40
0.250000000000017
40
0.500000000000034
40
0.500000000000034
40
0.625000000000025
40
0.625000000000025
40
0.750000000000017
40
0.750000000000017
40
0.875000000000008
40
0.875000000000008
40
1
40
1
40
1
40
1
41
1
10
99.0725089321943
20
3.32470997038727
30
0
41
1
10
99.0718365890227
20
3.33239488800358
30
0
41
1
10
99.0705579358212
20
3.34051026223659
30
0
41
1
10
99.0659621410045
20
3.35819974561326
30
0
41
1
10
99.0627896280741
20
3.36766920241033
30
0
41
1
10
99.0543184666114
20
3.38454765281671
30
0
41
1
10
99.0508745438549
20
3.39056988711099
30
0
41
1
10
99.0419097566372
20
3.4035137098222
30
0
41
1
10
99.0362385945903
20
3.41059515134884
30
0
41
1
10
99.0222729614893
20
3.42458980565933
30
0
41
1
10
99.0142908273744
20
3.43104947684391
30
0
41
1
10
98.9995604349248
20
3.44097956063981
30
0
41
1
10
98.9927510587207
20
3.44465502150864
30
0
41
1
10
98.9864724667414
20
3.44758277703099
30
0
0
SPLINE
5
14A
100
AcDbEntity
8
1
62
256
6
ByLayer
370
18
48
1
60
0
100
AcDbSpline
70
4
71
3
72
26
73
22
40
0
40
0
40
0
40
0
40
0.0312500000000066
40
0.0312500000000066
40
0.0625000000000131
40
0.0625000000000131
40
0.0937500000000197
40
0.0937500000000197
40
0.125000000000026
40
0.125000000000026
40
0.187500000000027
40
0.187500000000027
40
0.250000000000027
40
0.250000000000027
40
0.375000000000022
40
0.375000000000022
40
0.500000000000018
40
0.500000000000018
40
0.750000000000009
40
0.750000000000009
40
1
40
1
40
1
40
1
41
1
10
98.3124775148934
20
3.76187178463514
30
0
41
1
10
98.3066960828045
20
3.76456771069331
30
0
41
1
10
98.3005667848007
20
3.76780674652897
30
0
41
1
10
98.2874721518935
20
3.77601661018714
30
0
41
1
10
98.2803481509419
20
3.78114666274765
30
0
41
1
10
98.2666932506959
20
3.79288163213349
30
0
41
1
10
98.2602145379261
20
3.79946664625375
30
0
41
1
10
98.2493905214891
20
3.81219853485801
30
0
41
1
10
98.2449375237997
20
3.81837786457923
30
0
41
1
10
98.2337902993214
20
3.83575977166436
30
0
41
1
10
98.2292230083053
20
3.84565445966786
30
0
41
1
10
98.22215826779
20
3.86398982899204
30
0
41
1
10
98.2197784898721
20
3.87246268627077
30
0
41
1
10
98.2147015861816
20
3.89618749889591
30
0
41
1
10
98.2139640892644
20
3.90982496621838
30
0
41
1
10
98.2149297601458
20
3.93506299765259
30
0
41
1
10
98.2167377797527
20
3.94657829517989
30
0
41
1
10
98.2248440808724
20
3.97886567268032
30
0
41
1
10
98.2338279525396
20
3.99745391361669
30
0
41
1
10
98.2566043422673
20
4.02987625833004
30
0
41
1
10
98.2704472743918
20
4.0437394135376
30
0
41
1
10
98.2868146252095
20
4.05519995596069
30
0
0
SPLINE
5
14B
100
AcDbEntity
8
1
62
256
6
ByLayer
370
18
48
1
60
0
100
AcDbSpline
70
4
71
3
72
12
73
8
40
0
40
0
40
0
40
0
40
0.499999999999991
40
0.499999999999991
40
0.749999999999995
40
0.749999999999995
40
1
40
1
40
1
40
1
41
1
10
98.8959943658496
20
4.48175220248133
30
0
41
1
10
98.9165178674644
20
4.49612291302245
30
0
41
1
10
98.9324228040033
20
4.51450186888416
30
0
41
1
10
98.9493338750459
20
4.54779811455681
30
0
41
1
10
98.9537631915632
20
4.55984651977223
30
0
41
1
10
98.9594728253479
20
4.58644914344998
30
0
41
1
10
98.9608551266394
20
4.6009188076813
30
0
41
1
10
98.9593871051107
20
4.6176983705369
30
0
0
SPLINE
5
14C
100
AcDbEntity
8
1
62
256
6
ByLayer
370
18
48
1
60
0
100
AcDbSpline
70
4
71
3
72
22
73
18
40
0
40
0
40
0
40
0
40
0.249999999999999
40
0.249999999999999
40
0.499999999999998
40
0.499999999999998
40
0.624999999999997
40
0.624999999999997
40
0.687499999999997
40
0.687499999999997
40
0.749999999999996
40
0.749999999999996
40
0.812499999999996
40
0.812499999999996
40
0.874999999999996
40
0.874999999999996
40
1
40
1
40
1
40
1
41
1
10
98.9417753180728
20
4.81900201752488
30
0
41
1
10
98.9411379077764
20
4.82628765055123
30
0
41
1
10
98.9399529012268
20
4.83398742233647
30
0
41
1
10
98.9357409394814
20
4.85079492437723
30
0
41
1
10
98.9327775010569
20
4.85989210240366
30
0
41
1
10
98.925351953769
20
4.87551819170117
30
0
41
1
10
98.9223721315105
20
4.88108676129858
30
0
41
1
10
98.9163064813214
20
4.89047274944593
30
0
41
1
10
98.9140420565052
20
4.89373079383556
30
0
41
1
10
98.9087210119349
20
4.90067041537648
30
0
41
1
10
98.9056498440485
20
4.90436337144593
30
0
41
1
10
98.8985492062524
20
4.91198539390324
30
0
41
1
10
98.8944874210787
20
4.91592216940668
30
0
41
1
10
98.8859933518751
20
4.92323856374095
30
0
41
1
10
98.8816477570102
20
4.92655111574061
30
0
41
1
10
98.8694127145241
20
4.93499834382442
30
0
41
1
10
98.8621960368892
20
4.93886378969857
30
0
41
1
10
98.8557388526149
20
4.94187482417539
30
0
0
SPLINE
5
14D
100
AcDbEntity
8
1
62
256
6
ByLayer
370
18
48
1
60
0
100
AcDbSpline
70
4
71
3
72
22
73
18
40
0
40
0
40
0
40
0
40
0.250000000000006
40
0.250000000000006
40
0.500000000000012
40
0.500000000000012
40
0.625000000000006
40
0.625000000000006
40
0.75
40
0.75
40
0.8125
40
0.8125
40
0.875
40
0.875
40
0.9375
40
0.9375
40
1
40
1
40
1
40
1
41
1
10
98.8110417039513
20
6.3132940646625
30
0
41
1
10
98.8104544389518
20
6.32000653432293
30
0
41
1
10
98.8093982337281
20
6.32707125146578
30
0
41
1
10
98.8057899445562
20
6.34234479991419
30
0
41
1
10
98.8033042145319
20
6.35050138030682
30
0
41
1
10
98.7971991271688
20
6.36458248145826
30
0
41
1
10
98.7947742711828
20
6.36957896327302
30
0
41
1
10
98.7882443789867
20
6.3808866364077
30
0
41
1
10
98.7842442968376
20
6.38716942911311
30
0
41
1
10
98.7748436041083
20
6.39872642170215
30
0
41
1
10
98.7709701922463
20
6.40311286913845
30
0
41
1
10
98.7612490031885
20
6.41255266620736
30
0
41
1
10
98.755432583791
20
6.4174342868447
30
0
41
1
10
98.7450722735747
20
6.42502334149266
30
0
41
1
10
98.7404404576522
20
6.42792687437717
30
0
41
1
10
98.732174634085
20
6.43267332986634
30
0
41
1
10
98.7284491529992
20
6.43456094764105
30
0
41
1
10
98.7250052385143
20
6.43616687133941
30
0
0
SPLINE
5
14E
100
AcDbEntity
8
1
62
256
6
ByLayer
370
18
48
1
60
0
100
AcDbSpline
70
4
71
3
72
32
73
28
40
0
40
0
40
0
40
0
40
0.0156249999999993
40
0.0156249999999993
40
0.0312499999999988
40
0.0312499999999988
40
0.0468749999999982
40
0.0468749999999982
40
0.0624999999999976
40
0.0624999999999976
40
0.078124999999997
40
0.078124999999997
40
0.0937499999999964
40
0.0937499999999964
40
0.124999999999992
40
0.124999999999992
40
0.187499999999993
40
0.187499999999993
40
0.249999999999994
40
0.249999999999994
40
0.374999999999996
40
0.374999999999996
40
0.499999999999997
40
0.499999999999997
40
0.749999999999998
40
0.749999999999998
40
1
40
1
40
1
40
1
41
1
10
98.0510102866504
20
6.75045587891051
30
0
41
1
10
98.047525192358
20
6.75208100506844
30
0
41
1
10
98.0438413395331
20
6.75393611984403
30
0
41
1
10
98.0358065577554
20
6.75843338288565
30
0
41
1
10
98.0313861888347
20
6.76111418815493
30
0
41
1
10
98.0217478201678
20
6.76773838717858
30
0
41
1
10
98.0163089719178
20
6.77188272021353
30
0
41
1
10
98.0059777117782
20
6.78088932717887
30
0
41
1
10
98.0012289574748
20
6.78560983568758
30
0
41
1
10
97.993303874232
20
6.79429675598051
30
0
41
1
10
97.9901479679371
20
6.79818127491612
30
0
41
1
10
97.9846204083671
20
6.80547256802933
30
0
41
1
10
97.9822634134505
20
6.80888135924351
30
0
41
1
10
97.9760668413981
20
6.81844212316777
30
0
41
1
10
97.9729837318775
20
6.82407162271577
30
0
41
1
10
97.9651613690473
20
6.83993952368906
30
0
41
1
10
97.9619680168748
20
6.84893281836586
30
0
41
1
10
97.9571355860458
20
6.86563681346137
30
0
41
1
10
97.9555917272155
20
6.87328458846545
30
0
41
1
10
97.9524976586447
20
6.89496631029148
30
0
41
1
10
97.9524749400135
20
6.90775044597576
30
0
41
1
10
97.9545625288175
20
6.93131240456288
30
0
41
1
10
97.9567248585899
20
6.94208261372674
30
0
41
1
10
97.9655239093254
20
6.97224493155688
30
0
41
1
10
97.9744324815537
20
6.98952273226223
30
0
41
1
10
97.9965902838242
20
7.0198995718554
30
0
41
1
10
98.009862839135
20
7.03294164611636
30
0
41
1
10
98.0253473969666
20
7.0437840502359
30
0
0
SPLINE
5
14F
100
AcDbEntity
8
1
62
256
6
ByLayer
370
18
48
1
60
0
100
AcDbSpline
70
4
71
3
72
12
73
8
40
0
40
0
40
0
40
0
40
0.500000000000001
40
0.500000000000001
40
0.750000000000001
40
0.750000000000001
40
1
40
1
40
1
40
1
41
1
10
98.6345271376066
20
7.47033629675663
30
0
41
1
10
98.6566153055699
20
7.48580259846978
30
0
41
1
10
98.6725329764408
20
7.5052676333667
30
0
41
1
10
98.6888550723023
20
7.53886865785441
30
0
41
1
10
98.6929903411994
20
7.55084801139455
30
0
41
1
10
98.6981708921529
20
7.57676379369801
30
0
41
1
10
98.6992884525854
20
7.59063957277904
30
0
41
1
10
98.6979198768677
20
7.60628246481213
30
0
0
SPLINE
5
150
100
AcDbEntity
8
1
62
256
6
ByLayer
370
18
48
1
60
0
100
AcDbSpline
70
4
71
3
72
30
73
26
40
0
40
0
40
0
40
0
40
0.249999999999975
40
0.249999999999975
40
0.49999999999995
40
0.49999999999995
40
0.624999999999939
40
0.624999999999939
40
0.749999999999928
40
0.749999999999928
40
0.812499999999926
40
0.812499999999926
40
0.843749999999919
40
0.843749999999919
40
0.859374999999927
40
0.859374999999927
40
0.874999999999935
40
0.874999999999935
40
0.890624999999943
40
0.890624999999943
40
0.906249999999951
40
0.906249999999951
40
0.937499999999968
40
0.937499999999968
40
1
40
1
40
1
40
1
41
1
10
98.6803080898368
20
7.80758611180074
30
0
41
1
10
98.6797535860428
20
7.81392411916823
30
0
41
1
10
98.6787817434183
20
7.82052565535016
30
0
41
1
10
98.6756070669535
20
7.83458368874198
30
0
41
1
10
98.6734422759721
20
7.84200560426463
30
0
41
1
10
98.6684556638852
20
7.85445107568113
30
0
41
1
10
98.6665024513168
20
7.85881924839544
30
0
41
1
10
98.6615348255426
20
7.86839172321691
30
0
41
1
10
98.6586048764972
20
7.87353144341277
30
0
41
1
10
98.6521168949859
20
7.88291985215862
30
0
41
1
10
98.6496404164713
20
7.88630289919284
30
0
41
1
10
98.6444068157132
20
7.89258844646667
30
0
41
1
10
98.6424309122497
20
7.89486964387968
30
0
41
1
10
98.6383861611563
20
7.89913600691202
30
0
41
1
10
98.6368704136376
20
7.90068784676381
30
0
41
1
10
98.6329630334983
20
7.90444992270853
30
0
41
1
10
98.6303865670572
20
7.90681749770869
30
0
41
1
10
98.6246354530777
20
7.91166154893119
30
0
41
1
10
98.621890925423
20
7.91377760119533
30
0
41
1
10
98.6175379754991
20
7.91697702343489
30
0
41
1
10
98.6157746241997
20
7.91819162877615
30
0
41
1
10
98.6109419722551
20
7.92141786425289
30
0
41
1
10
98.6083679995386
20
7.92297548008632
30
0
41
1
10
98.6013843463218
20
7.92701906360499
30
0
41
1
10
98.5976856001261
20
7.92886695546718
30
0
41
1
10
98.5942716244002
20
7.93045891849291
30
0
0
SPLINE
5
151
100
AcDbEntity
8
1
62
256
6
ByLayer
370
18
48
1
60
0
100
AcDbSpline
70
4
71
3
72
36
73
32
40
0
40
0
40
0
40
0
40
0.015625000000038
40
0.015625000000038
40
0.0234375000000572
40
0.0234375000000572
40
0.0273437500000623
40
0.0273437500000623
40
0.0312500000000674
40
0.0312500000000674
40
0.0390625000000661
40
0.0390625000000661
40
0.0468750000000647
40
0.0468750000000647
40
0.0625000000000623
40
0.0625000000000623
40
0.09375000000006
40
0.09375000000006
40
0.125000000000058
40
0.125000000000058
40
0.187500000000053
40
0.187500000000053
40
0.250000000000049
40
0.250000000000049
40
0.375000000000041
40
0.375000000000041
40
0.500000000000033
40
0.500000000000033
40
0.750000000000016
40
0.750000000000016
40
1
40
1
40
1
40
1
41
1
10
97.9202766725289
20
8.24474792604815
30
0
41
1
10
97.9158028774282
20
8.2468340909646
30
0
41
1
10
97.9109474904588
20
8.24926729635377
30
0
41
1
10
97.9013815609458
20
8.25501464890946
30
0
41
1
10
97.8978102446994
20
8.25726908362987
30
0
41
1
10
97.8909728617204
20
8.26215735663874
30
0
41
1
10
97.8884140059975
20
8.26407138885589
30
0
41
1
10
97.8828888833068
20
8.26851011117845
30
0
41
1
10
97.8799497099099
20
8.27103504889369
30
0
41
1
10
97.8723978089256
20
8.27793728018428
30
0
41
1
10
97.8688600599598
20
8.28166697482592
30
0
41
1
10
97.8631175482074
20
8.28802201119146
30
0
41
1
10
97.8608549023164
20
8.29074968212652
30
0
41
1
10
97.8548937442618
20
8.29827460361265
30
0
41
1
10
97.8520234003436
20
8.30241781934941
30
0
41
1
10
97.844541051269
20
8.31394466795199
30
0
41
1
10
97.8412247966829
20
8.32026169570026
30
0
41
1
10
97.8357216860872
20
8.33188478345888
30
0
41
1
10
97.8336203807925
20
8.33713728818864
30
0
41
1
10
97.8283712944619
20
8.3519619429469
30
0
41
1
10
97.8262715676836
20
8.36060686244323
30
0
41
1
10
97.8233744852502
20
8.37666384142792
30
0
41
1
10
97.8226232677649
20
8.38403757254262
30
0
41
1
10
97.8216617401015
20
8.40485883895245
30
0
41
1
10
97.8227222903899
20
8.41702411677634
30
0
41
1
10
97.8266194491395
20
8.43927449941086
30
0
41
1
10
97.8294977948247
20
8.44932724016478
30
0
41
1
10
97.8399104463835
20
8.47706201270588
30
0
41
1
10
97.8491877654352
20
8.49236523265799
30
0
41
1
10
97.8702026234016
20
8.51847189194963
30
0
41
1
10
97.881988615947
20
8.52923586034033
30
0
41
1
10
97.8946137828451
20
8.5380760973735
30
0
0
SPLINE
5
152
100
AcDbEntity
8
1
62
256
6
ByLayer
370
18
48
1
60
0
100
AcDbSpline
70
4
71
3
72
20
73
16
40
0
40
0
40
0
40
0
40
0.249999999999991
40
0.249999999999991
40
0.499999999999982
40
0.499999999999982
40
0.624999999999977
40
0.624999999999977
40
0.749999999999973
40
0.749999999999973
40
0.812499999999961
40
0.812499999999961
40
0.874999999999948
40
0.874999999999948
40
1
40
1
40
1
40
1
41
1
10
98.621112314526
20
-0.498030833301243
30
0
41
1
10
98.615686745934
20
-0.510268556928094
30
0
41
1
10
98.6113521394895
20
-0.523808934226101
30
0
41
1
10
98.6062725787772
20
-0.554449878098971
30
0
41
1
10
98.6054152720103
20
-0.571229035725447
30
0
41
1
10
98.6096334801798
20
-0.600797254931405
30
0
41
1
10
98.6119959241443
20
-0.611397233571696
30
0
41
1
10
98.6199541715581
20
-0.634256041054255
30
0
41
1
10
98.6256159134884
20
-0.646749471019019
30
0
41
1
10
98.6384174038105
20
-0.666368920724251
30
0
41
1
10
98.643348847583
20
-0.672934339958644
30
0
41
1
10
98.6545636307281
20
-0.685666049001352
30
0
41
1
10
98.6606293763155
20
-0.691584546046045
30
0
41
1
10
98.6797849460118
20
-0.707717017207945
30
0
41
1
10
98.6926532086005
20
-0.715396937869523
30
0
41
1
10
98.7046783572584
20
-0.721004356779059
30
0
0
SPLINE
5
153
100
AcDbEntity
8
1
62
256
6
ByLayer
370
18
48
1
60
0
100
AcDbSpline
70
4
71
3
72
20
73
16
40
0
40
0
40
0
40
0
40
0.124999999999995
40
0.124999999999995
40
0.24999999999999
40
0.24999999999999
40
0.374999999999985
40
0.374999999999985
40
0.49999999999998
40
0.49999999999998
40
0.624999999999975
40
0.624999999999975
40
0.74999999999997
40
0.74999999999997
40
1
40
1
40
1
40
1
41
1
10
99.3786733091057
20
-1.03529336438112
30
0
41
1
10
99.3844029229068
20
-1.03796512717482
30
0
41
1
10
99.3904351254168
20
-1.04122159937232
30
0
41
1
10
99.402658336718
20
-1.04910028404447
30
0
41
1
10
99.4090134019872
20
-1.0538513131773
30
0
41
1
10
99.4211293228513
20
-1.06464741579889
30
0
41
1
10
99.4269278218098
20
-1.07075135072093
30
0
41
1
10
99.4369081029624
20
-1.08309347907286
30
0
41
1
10
99.4411704521337
20
-1.0893832219014
30
0
41
1
10
99.4482279150573
20
-1.10142748879
30
0
41
1
10
99.4511189204896
20
-1.10732733636048
30
0
41
1
10
99.4558378590434
20
-1.11850932509433
30
0
41
1
10
99.4577049277274
20
-1.12386265433953
30
0
41
1
10
99.4622692465354
20
-1.13943710945662
30
0
41
1
10
99.4639158031935
20
-1.14909103668941
30
0
41
1
10
99.464709774568
20
-1.15816617103185
30
0
0
SPLINE
5
154
100
AcDbEntity
8
1
62
256
6
ByLayer
370
18
48
1
60
0
100
AcDbSpline
70
4
71
3
72
12
73
8
40
0
40
0
40
0
40
0
40
0.249999999999993
40
0.249999999999993
40
0.499999999999986
40
0.499999999999986
40
1
40
1
40
1
40
1
41
1
10
99.4823215615966
20
-1.35946981801358
30
0
41
1
10
99.483742942235
20
-1.37571627305322
30
0
41
1
10
99.4824857184114
20
-1.39017087215123
30
0
41
1
10
99.4767911321393
20
-1.41706342025978
30
0
41
1
10
99.4723099993753
20
-1.42927786813131
30
0
41
1
10
99.4553488148339
20
-1.46270321308132
30
0
41
1
10
99.4393313997883
20
-1.4811299475377
30
0
41
1
10
99.4189288223355
20
-1.49541598606908
30
0
0
SPLINE
5
155
100
AcDbEntity
8
1
62
256
6
ByLayer
370
18
48
1
60
0
100
AcDbSpline
70
4
71
3
72
26
73
22
40
0
40
0
40
0
40
0
40
0.12500000000001
40
0.12500000000001
40
0.25000000000002
40
0.25000000000002
40
0.37500000000003
40
0.37500000000003
40
0.50000000000004
40
0.50000000000004
40
0.562500000000049
40
0.562500000000049
40
0.625000000000058
40
0.625000000000058
40
0.750000000000066
40
0.750000000000066
40
0.812500000000065
40
0.812500000000065
40
0.875000000000064
40
0.875000000000064
40
1
40
1
40
1
40
1
41
1
10
98.8097490816955
20
-1.92196823258983
30
0
41
1
10
98.8007239153824
20
-1.92828772207583
30
0
41
1
10
98.7923267656364
20
-1.93546163430719
30
0
41
1
10
98.7768362663446
20
-1.95160847251893
30
0
41
1
10
98.7697304922552
20
-1.96061410606246
30
0
41
1
10
98.7572827977063
20
-1.98033128705594
30
0
41
1
10
98.7518967101425
20
-1.9910662220016
30
0
41
1
10
98.7432467601669
20
-2.01475274876867
30
0
41
1
10
98.7399611409156
20
-2.02783786761392
30
0
41
1
10
98.7375443031232
20
-2.04904963857969
30
0
41
1
10
98.7371508303118
20
-2.05640111805673
30
0
41
1
10
98.7374122102
20
-2.07181262801359
30
0
41
1
10
98.7380815542725
20
-2.07993517709262
30
0
41
1
10
98.7420809474936
20
-2.10479810506761
30
0
41
1
10
98.7475549618566
20
-2.12268302715234
30
0
41
1
10
98.7611399597612
20
-2.14866137323038
30
0
41
1
10
98.7665114394574
20
-2.15706833354535
30
0
41
1
10
98.778418438616
20
-2.1725616776981
30
0
41
1
10
98.7851254414805
20
-2.17984987602848
30
0
41
1
10
98.8058424409651
20
-2.19894820337318
30
0
41
1
10
98.8208146083266
20
-2.2084895417352
30
0
41
1
10
98.8354119713793
20
-2.21529640391556
30
0
0
SPLINE
5
156
100
AcDbEntity
8
1
62
256
6
ByLayer
370
18
48
1
60
0
100
AcDbSpline
70
4
71
3
72
8
73
4
40
0
40
0
40
0
40
0
40
1
40
1
40
1
40
1
41
1
10
98.8354119713793
20
-2.21529640391519
30
0
41
1
10
99.0600800898515
20
-2.32006086810207
30
0
41
1
10
99.2847454517239
20
-2.42482404686535
30
0
41
1
10
99.5094069232276
20
-2.52958541151986
30
0
0
SPLINE
5
157
100
AcDbEntity
8
1
62
256
6
ByLayer
370
18
48
1
60
0
100
AcDbSpline
70
4
71
3
72
14
73
10
40
0
40
0
40
0
40
0
40
0.25
40
0.25
40
0.5
40
0.5
40
0.75
40
0.75
40
1
40
1
40
1
40
1
41
1
10
99.5094069232276
20
-2.52958541151975
30
0
41
1
10
99.5198085909346
20
-2.5344357888291
30
0
41
1
10
99.5304163524386
20
-2.54084724601418
30
0
41
1
10
99.5506587634476
20
-2.55727530463664
30
0
41
1
10
99.5604048518307
20
-2.56750386840017
30
0
41
1
10
99.5765218421751
20
-2.59028260482109
30
0
41
1
10
99.5830251054254
20
-2.60302164101561
30
0
41
1
10
99.5919342435342
20
-2.62829153079025
30
0
41
1
10
99.594409299409
20
-2.64063852370772
30
0
41
1
10
99.5954433886802
20
-2.65245821816321
30
0
0
SPLINE
5
158
100
AcDbEntity
8
1
62
256
6
ByLayer
370
18
48
1
60
0
100
AcDbSpline
70
4
71
3
72
14
73
10
40
0
40
0
40
0
40
0
40
0.25
40
0.25
40
0.5
40
0.5
40
0.75
40
0.75
40
1
40
1
40
1
40
1
41
1
10
99.6130551757265
20
-2.85376186515532
30
0
41
1
10
99.6144643392969
20
-2.86986867847441
30
0
41
1
10
99.6131933251947
20
-2.88491801921671
30
0
41
1
10
99.6072341246784
20
-2.91237728435572
30
0
41
1
10
99.6025975928787
20
-2.92470246957316
30
0
41
1
10
99.5908718329816
20
-2.94727290498344
30
0
41
1
10
99.5837908362533
20
-2.95740065189461
30
0
41
1
10
99.56800298156
20
-2.9752194079423
30
0
41
1
10
99.5592404252431
20
-2.98300145325781
30
0
41
1
10
99.549662436457
20
-2.98970803320672
30
0
0
SPLINE
5
159
100
AcDbEntity
8
1
62
256
6
ByLayer
370
18
48
1
60
0
100
AcDbSpline
70
4
71
3
72
24
73
20
40
0
40
0
40
0
40
0
40
0.124999999999969
40
0.124999999999969
40
0.249999999999937
40
0.249999999999937
40
0.49999999999991
40
0.49999999999991
40
0.562499999999901
40
0.562499999999901
40
0.624999999999891
40
0.624999999999891
40
0.74999999999987
40
0.74999999999987
40
0.812499999999886
40
0.812499999999886
40
0.874999999999902
40
0.874999999999902
40
1
40
1
40
1
40
1
41
1
10
98.940482695817
20
-3.41626027972745
30
0
41
1
10
98.9308760317082
20
-3.42298693835346
30
0
41
1
10
98.9218895638572
20
-3.43074129924083
30
0
41
1
10
98.9052935863095
20
-3.44855955723751
30
0
41
1
10
98.8977387036387
20
-3.45858665119335
30
0
41
1
10
98.8782319529877
20
-3.49194791213294
30
0
41
1
10
98.868821812573
20
-3.51920802729184
30
0
41
1
10
98.8678454641285
20
-3.55943739171892
30
0
41
1
10
98.8682137626226
20
-3.56763237762491
30
0
41
1
10
98.8702442434264
20
-3.58436293391854
30
0
41
1
10
98.8719338843787
20
-3.59294240899699
30
0
41
1
10
98.8789607024476
20
-3.61806067208717
30
0
41
1
10
98.8864936164636
20
-3.63454533663201
30
0
41
1
10
98.9006997465133
20
-3.65614138076352
30
0
41
1
10
98.9059685741773
20
-3.66293071965898
30
0
41
1
10
98.9169619797545
20
-3.6751814314325
30
0
41
1
10
98.9227411143367
20
-3.68073347314498
30
0
41
1
10
98.9408204051013
20
-3.69589179942921
30
0
41
1
10
98.9533934500221
20
-3.70364203262139
30
0
41
1
10
98.9661455855008
20
-3.70958845105294
30
0
0
SPLINE
5
15A
100
AcDbEntity
8
1
62
256
6
ByLayer
370
18
48
1
60
0
100
AcDbSpline
70
4
71
3
72
14
73
10
40
0
40
0
40
0
40
0
40
0.25
40
0.25
40
0.5
40
0.5
40
0.75
40
0.75
40
1
40
1
40
1
40
1
41
1
10
99.6401405373491
20
-4.02387745865748
30
0
41
1
10
99.6502987256749
20
-4.0286142996668
30
0
41
1
10
99.660249051448
20
-4.03460500065402
30
0
41
1
10
99.6795839452187
20
-4.04992872024277
30
0
41
1
10
99.6886744881467
20
-4.05905108355244
30
0
41
1
10
99.7048861839298
20
-4.08068297043327
30
0
41
1
10
99.7116863897427
20
-4.09280469183631
30
0
41
1
10
99.7218337502935
20
-4.11920309468355
30
0
41
1
10
99.7249762010329
20
-4.13302503827867
30
0
41
1
10
99.7261770028017
20
-4.14675026530082
30
0
0
SPLINE
5
15B
100
AcDbEntity
8
1
62
256
6
ByLayer
370
18
48
1
60
0
100
AcDbSpline
70
4
71
3
72
12
73
8
40
0
40
0
40
0
40
0
40
0.250000000000002
40
0.250000000000002
40
0.500000000000005
40
0.500000000000005
40
1
40
1
40
1
40
1
41
1
10
99.7437887898397
20
-4.34805391228883
30
0
41
1
10
99.7451340529796
20
-4.36343034033985
30
0
41
1
10
99.7440152667829
20
-4.37856821468972
30
0
41
1
10
99.7380971787468
20
-4.40629931876049
30
0
41
1
10
99.7332829798981
20
-4.41913265320799
30
0
41
1
10
99.7154971786299
20
-4.45323057497373
30
0
41
1
10
99.6990007811939
20
-4.47097290772106
30
0
41
1
10
99.6803960505785
20
-4.48400008034432
30
0
0
SPLINE
5
15C
100
AcDbEntity
8
1
62
256
6
ByLayer
370
18
48
1
60
0
100
AcDbSpline
70
4
71
3
72
24
73
20
40
0
40
0
40
0
40
0
40
0.125000000000009
40
0.125000000000009
40
0.250000000000019
40
0.250000000000019
40
0.375000000000028
40
0.375000000000028
40
0.500000000000038
40
0.500000000000038
40
0.562500000000043
40
0.562500000000043
40
0.625000000000047
40
0.625000000000047
40
0.750000000000032
40
0.750000000000032
40
0.875000000000016
40
0.875000000000016
40
1
40
1
40
1
40
1
41
1
10
99.0712163099385
20
-4.91055232686507
30
0
41
1
10
99.0609918353139
20
-4.91771158107145
30
0
41
1
10
99.0512881122868
20
-4.92619120001681
30
0
41
1
10
99.0336980694397
20
-4.94569126196103
30
0
41
1
10
99.0257236914279
20
-4.95675280180583
30
0
41
1
10
99.0120781696363
20
-4.98220295159854
30
0
41
1
10
99.0066488112285
20
-4.99610570329445
30
0
41
1
10
98.9995046514841
20
-5.02706768275414
30
0
41
1
10
98.9979963045322
20
-5.04376115270508
30
0
41
1
10
98.9996024141651
20
-5.06901599616518
30
0
41
1
10
99.0007585097655
20
-5.07735727969153
30
0
41
1
10
99.0043201957728
20
-5.09388481712435
30
0
41
1
10
99.0067518165601
20
-5.1020897102941
30
0
41
1
10
99.0155148666637
20
-5.12531083105037
30
0
41
1
10
99.0235337703166
20
-5.13953914241895
30
0
41
1
10
99.0417948291027
20
-5.16391709648423
30
0
41
1
10
99.0522453995045
20
-5.17440152963504
30
0
41
1
10
99.0738900905296
20
-5.19157316063273
30
0
41
1
10
99.0851883812653
20
-5.19842898006057
30
0
41
1
10
99.0968791996222
20
-5.20388049819051
30
0
0
SPLINE
5
15D
100
AcDbEntity
8
1
62
256
6
ByLayer
370
18
48
1
60
0
100
AcDbSpline
70
4
71
3
72
20
73
16
40
0
40
0
40
0
40
0
40
0.125000000000012
40
0.125000000000012
40
0.187500000000018
40
0.187500000000018
40
0.250000000000023
40
0.250000000000023
40
0.375000000000019
40
0.375000000000019
40
0.500000000000016
40
0.500000000000016
40
0.750000000000008
40
0.750000000000008
40
1
40
1
40
1
40
1
41
1
10
100.509286065276
20
-21.3477648453729
30
0
41
1
10
100.498442410179
20
-21.3553576544133
30
0
41
1
10
100.487011742268
20
-21.3652363919688
30
0
41
1
10
100.470947009699
20
-21.3844761467876
30
0
41
1
10
100.466052711616
20
-21.3912948075531
30
0
41
1
10
100.457244055323
20
-21.4057411236252
30
0
41
1
10
100.453536709888
20
-21.4130460528795
30
0
41
1
10
100.444394124954
20
-21.4344230548546
30
0
41
1
10
100.440907677212
20
-21.4479156069686
30
0
41
1
10
100.437033350874
20
-21.4718945109108
30
0
41
1
10
100.436555999944
20
-21.4826282888798
30
0
41
1
10
100.437548605655
20
-21.5126553734081
30
0
41
1
10
100.4414160103
20
-21.5293063725804
30
0
41
1
10
100.451729075919
20
-21.5583847505892
30
0
41
1
10
100.458284480324
20
-21.5708180126584
30
0
41
1
10
100.465708524524
20
-21.58186199105
30
0
0
SPLINE
5
15E
100
AcDbEntity
8
1
62
256
6
ByLayer
370
18
48
1
60
0
100
AcDbSpline
70
4
71
3
72
18
73
14
40
0
40
0
40
0
40
0
40
0.250000000000028
40
0.250000000000028
40
0.500000000000055
40
0.500000000000055
40
0.625000000000041
40
0.625000000000041
40
0.750000000000028
40
0.750000000000028
40
0.875000000000014
40
0.875000000000014
40
1
40
1
40
1
40
1
41
1
10
101.181858545176
20
-20.7852664308026
30
0
41
1
10
101.182649862026
20
-20.7943112237864
30
0
41
1
10
101.182713333787
20
-20.8039666862106
30
0
41
1
10
101.180352129856
20
-20.8254652224163
30
0
41
1
10
101.1779131701
20
-20.8374413699502
30
0
41
1
10
101.170636908741
20
-20.85705339871
30
0
41
1
10
101.167547502576
20
-20.8639613637679
30
0
41
1
10
101.159860394327
20
-20.8778661079672
30
0
41
1
10
101.155213128316
20
-20.884883742801
30
0
41
1
10
101.145171100235
20
-20.897612192942
30
0
41
1
10
101.139719245629
20
-20.9034205988371
30
0
41
1
10
101.129028486376
20
-20.9133254638431
30
0
41
1
10
101.123652230786
20
-20.9175810250676
30
0
41
1
10
101.118465805915
20
-20.921212598859
30
0
0
SPLINE
5
15F
100
AcDbEntity
8
1
62
256
6
ByLayer
370
18
48
1
60
0
100
AcDbSpline
70
4
71
3
72
12
73
8
40
0
40
0
40
0
40
0
40
0.499999999999981
40
0.499999999999981
40
0.749999999999991
40
0.749999999999991
40
1
40
1
40
1
40
1
41
1
10
101.078210292686
20
-20.461089977171
30
0
41
1
10
101.100748089059
20
-20.4715995242179
30
0
41
1
10
101.119632660645
20
-20.486852633631
30
0
41
1
10
101.142206814455
20
-20.5168574110982
30
0
41
1
10
101.148788912011
20
-20.5281859012842
30
0
41
1
10
101.159065616713
20
-20.5536636049494
30
0
41
1
10
101.162822244101
20
-20.5676805138626
30
0
41
1
10
101.164246758138
20
-20.5839627838146
30
0
0
SPLINE
5
160
100
AcDbEntity
8
1
62
256
6
ByLayer
370
18
48
1
60
0
100
AcDbSpline
70
4
71
3
72
22
73
18
40
0
40
0
40
0
40
0
40
0.125000000000006
40
0.125000000000006
40
0.18750000000001
40
0.18750000000001
40
0.250000000000013
40
0.250000000000013
40
0.312500000000016
40
0.312500000000016
40
0.375000000000019
40
0.375000000000019
40
0.500000000000021
40
0.500000000000021
40
0.750000000000011
40
0.750000000000011
40
1
40
1
40
1
40
1
41
1
10
100.378552451153
20
-19.8534727982413
30
0
41
1
10
100.365258047565
20
-19.8627816398501
30
0
41
1
10
100.352274355387
20
-19.8746577085804
30
0
41
1
10
100.334959994927
20
-19.8974312246951
30
0
41
1
10
100.329749305545
20
-19.9055978149809
30
0
41
1
10
100.320594814741
20
-19.9232364231509
30
0
41
1
10
100.316817818919
20
-19.9324288306873
30
0
41
1
10
100.310987566078
20
-19.9509527400256
30
0
41
1
10
100.308907629596
20
-19.9604239359656
30
0
41
1
10
100.306406429997
20
-19.9785450931515
30
0
41
1
10
100.305934849072
20
-19.9874464614897
30
0
41
1
10
100.306397535142
20
-20.0126529222707
30
0
41
1
10
100.309051534465
20
-20.0275563067267
30
0
41
1
10
100.321316132694
20
-20.0687152683705
30
0
41
1
10
100.33492984241
20
-20.0903131217272
30
0
41
1
10
100.366315082331
20
-20.1246245605246
30
0
41
1
10
100.384285216417
20
-20.1375073999217
30
0
41
1
10
100.404215340837
20
-20.1468009695667
30
0
0
SPLINE
5
161
100
AcDbEntity
8
1
62
256
6
ByLayer
370
18
48
1
60
0
100
AcDbSpline
70
4
71
3
72
8
73
4
40
0
40
0
40
0
40
0
40
1
40
1
40
1
40
1
41
1
10
100.987732191793
20
-19.4269205517205
30
0
41
1
10
100.784675452916
20
-19.569102410967
30
0
41
1
10
100.581615197789
20
-19.7112867323173
30
0
41
1
10
100.378552451153
20
-19.8534727982413
30
0
0
SPLINE
5
162
100
AcDbEntity
8
1
62
256
6
ByLayer
370
18
48
1
60
0
100
AcDbSpline
70
4
71
3
72
16
73
12
40
0
40
0
40
0
40
0
40
0.249999999999978
40
0.249999999999978
40
0.499999999999956
40
0.499999999999956
40
0.624999999999945
40
0.624999999999945
40
0.749999999999934
40
0.749999999999934
40
1
40
1
40
1
40
1
41
1
10
101.051124931055
20
-19.2909743836647
30
0
41
1
10
101.05215396284
20
-19.3027362707915
30
0
41
1
10
101.051845270551
20
-19.3155171393541
30
0
41
1
10
101.047493340841
20
-19.3417238414498
30
0
41
1
10
101.043328902757
20
-19.3553860051805
30
0
41
1
10
101.03438050193
20
-19.3743587949188
30
0
41
1
10
101.030891334903
20
-19.3805698331707
30
0
41
1
10
101.023360963736
20
-19.392051752073
30
0
41
1
10
101.019287331772
20
-19.3974050260961
30
0
41
1
10
101.006336424638
20
-19.4123242180936
30
0
41
1
10
100.997196905136
20
-19.4202932880913
30
0
41
1
10
100.987732191793
20
-19.4269205517205
30
0
0
SPLINE
5
163
100
AcDbEntity
8
1
62
256
6
ByLayer
370
18
48
1
60
0
100
AcDbSpline
70
4
71
3
72
12
73
8
40
0
40
0
40
0
40
0
40
0.499999999999949
40
0.499999999999949
40
0.749999999999975
40
0.749999999999975
40
1
40
1
40
1
40
1
41
1
10
100.947476678564
20
-18.9667979300336
30
0
41
1
10
100.968666903194
20
-18.9766790940568
30
0
41
1
10
100.987465453029
20
-18.9910872308033
30
0
41
1
10
101.010846687555
20
-19.0215347759411
30
0
41
1
10
101.017589748746
20
-19.0329264481171
30
0
41
1
10
101.028251504553
20
-19.0589946005761
30
0
41
1
10
101.032103986886
20
-19.0735639968763
30
0
41
1
10
101.033513144025
20
-19.0896707366706
30
0
0
SPLINE
5
164
100
AcDbEntity
8
1
62
256
6
ByLayer
370
18
48
1
60
0
100
AcDbSpline
70
4
71
3
72
22
73
18
40
0
40
0
40
0
40
0
40
0.125000000000032
40
0.125000000000032
40
0.250000000000063
40
0.250000000000063
40
0.312500000000068
40
0.312500000000068
40
0.375000000000073
40
0.375000000000073
40
0.500000000000049
40
0.500000000000049
40
0.625000000000025
40
0.625000000000025
40
0.750000000000001
40
0.750000000000001
40
1
40
1
40
1
40
1
41
1
10
100.247818837032
20
-18.3591807511036
30
0
41
1
10
100.236228991378
20
-18.3672960483968
30
0
41
1
10
100.225041803142
20
-18.377297393403
30
0
41
1
10
100.205009714097
20
-18.4012033652916
30
0
41
1
10
100.195959197527
20
-18.4154440322209
30
0
41
1
10
100.185727774263
20
-18.4392525210503
30
0
41
1
10
100.182843145535
20
-18.4476836277236
30
0
41
1
10
100.178485363677
20
-18.4646618021401
30
0
41
1
10
100.176958575502
20
-18.4733432272559
30
0
41
1
10
100.174421182387
20
-18.499639291492
30
0
41
1
10
100.175558636188
20
-18.516685135952
30
0
41
1
10
100.18191307281
20
-18.5479360200517
30
0
41
1
10
100.187102875968
20
-18.5622174951095
30
0
41
1
10
100.199920148806
20
-18.5876538586239
30
0
41
1
10
100.207496723972
20
-18.598801130745
30
0
41
1
10
100.232886948485
20
-18.6285826083408
30
0
41
1
10
100.252280014742
20
-18.6426224017697
30
0
41
1
10
100.273481726716
20
-18.652508922429
30
0
0
SPLINE
5
165
100
AcDbEntity
8
1
62
256
6
ByLayer
370
18
48
1
60
0
100
AcDbSpline
70
4
71
3
72
14
73
10
40
0
40
0
40
0
40
0
40
0.25
40
0.25
40
0.5
40
0.5
40
0.75
40
0.75
40
1
40
1
40
1
40
1
41
1
10
100.920391316933
20
-17.7966823365274
30
0
41
1
10
100.921575673321
20
-17.8102195919904
30
0
41
1
10
100.920885805046
20
-17.8245474713258
30
0
41
1
10
100.915560863724
20
-17.8520299370718
30
0
41
1
10
100.910883775035
20
-17.8654535090468
30
0
41
1
10
100.898765867718
20
-17.8894207339813
30
0
41
1
10
100.891326663725
20
-17.9000977267809
30
0
41
1
10
100.875118076636
20
-17.918387380753
30
0
41
1
10
100.866201064624
20
-17.9261848538489
30
0
41
1
10
100.856998577672
20
-17.9326285045829
30
0
0
SPLINE
5
166
100
AcDbEntity
8
1
62
256
6
ByLayer
370
18
48
1
60
0
100
AcDbSpline
70
4
71
3
72
14
73
10
40
0
40
0
40
0
40
0
40
0.25
40
0.25
40
0.5
40
0.5
40
0.75
40
0.75
40
1
40
1
40
1
40
1
41
1
10
100.816743064442
20
-17.472505882896
30
0
41
1
10
100.827020592122
20
-17.4772983727598
30
0
41
1
10
100.8368729675
20
-17.4832888388617
30
0
41
1
10
100.855578668974
20
-17.4980381606758
30
0
41
1
10
100.864434712634
20
-17.5068415551227
30
0
41
1
10
100.880069732075
20
-17.527170897449
30
0
41
1
10
100.887038000109
20
-17.5389700561119
30
0
41
1
10
100.897671358602
20
-17.5651902739777
30
0
41
1
10
100.901428155232
20
-17.5799324064657
30
0
41
1
10
100.902779529895
20
-17.5953786895394
30
0
0
SPLINE
5
167
100
AcDbEntity
8
1
62
256
6
ByLayer
370
18
48
1
60
0
100
AcDbSpline
70
4
71
3
72
20
73
16
40
0
40
0
40
0
40
0
40
0.249999999999968
40
0.249999999999968
40
0.374999999999974
40
0.374999999999974
40
0.499999999999979
40
0.499999999999979
40
0.624999999999984
40
0.624999999999984
40
0.749999999999989
40
0.749999999999989
40
0.874999999999995
40
0.874999999999995
40
1
40
1
40
1
40
1
41
1
10
100.11708522291
20
-16.864888703966
30
0
41
1
10
100.095821714631
20
-16.8797775727517
30
0
41
1
10
100.076490617215
20
-16.9003513803703
30
0
41
1
10
100.055785753612
20
-16.9415623882239
30
0
41
1
10
100.050437788167
20
-16.9569486891297
30
0
41
1
10
100.044414293855
20
-16.9895298891336
30
0
41
1
10
100.043798320685
20
-17.0069313181074
30
0
41
1
10
100.04760264677
20
-17.0401002482701
30
0
41
1
10
100.052045953359
20
-17.056344626672
30
0
41
1
10
100.064354499212
20
-17.0852296206838
30
0
41
1
10
100.072309361419
20
-17.0982662854394
30
0
41
1
10
100.089989507678
20
-17.1206671329383
30
0
41
1
10
100.09993714487
20
-17.1303433731372
30
0
41
1
10
100.120660176622
20
-17.1464426238265
30
0
41
1
10
100.13149939272
20
-17.1529715110696
30
0
41
1
10
100.142748112594
20
-17.1582168752914
30
0
0
SPLINE
5
168
100
AcDbEntity
8
1
62
256
6
ByLayer
370
18
48
1
60
0
100
AcDbSpline
70
4
71
3
72
24
73
20
40
0
40
0
40
0
40
0
40
0.24999999999997
40
0.24999999999997
40
0.499999999999939
40
0.499999999999939
40
0.624999999999928
40
0.624999999999928
40
0.749999999999917
40
0.749999999999917
40
0.812499999999907
40
0.812499999999907
40
0.874999999999897
40
0.874999999999897
40
0.906249999999914
40
0.906249999999914
40
0.93749999999993
40
0.93749999999993
40
1
40
1
40
1
40
1
41
1
10
100.66568256908
20
-23.1353850638419
30
0
41
1
10
100.647005082723
20
-23.1266756089187
30
0
41
1
10
100.630434226251
20
-23.1149132483744
30
0
41
1
10
100.601808192076
20
-23.0857077812452
30
0
41
1
10
100.589623912535
20
-23.0683162328386
30
0
41
1
10
100.576139288623
20
-23.0359942888007
30
0
41
1
10
100.572436451941
20
-23.0240723965443
30
0
41
1
10
100.567748219785
20
-22.9973887082961
30
0
41
1
10
100.566637585326
20
-22.982781194414
30
0
41
1
10
100.569095497434
20
-22.9566754371264
30
0
41
1
10
100.57063999536
20
-22.9472091278914
30
0
41
1
10
100.576235066124
20
-22.926547346925
30
0
41
1
10
100.580342789577
20
-22.9150951983407
30
0
41
1
10
100.589937055212
20
-22.8966665823189
30
0
41
1
10
100.593664899128
20
-22.8904346095626
30
0
41
1
10
100.602152524262
20
-22.8782161764751
30
0
41
1
10
100.606747723541
20
-22.8724642357359
30
0
41
1
10
100.621190033202
20
-22.8565284368732
30
0
41
1
10
100.63087121324
20
-22.8484627174807
30
0
41
1
10
100.640019679397
20
-22.8420568925145
30
0
0
SPLINE
5
169
100
AcDbEntity
8
1
62
256
6
ByLayer
370
18
48
1
60
0
100
AcDbSpline
70
4
71
3
72
18
73
14
40
0
40
0
40
0
40
0
40
0.125
40
0.125
40
0.25
40
0.25
40
0.375
40
0.375
40
0.5
40
0.5
40
0.75
40
0.75
40
1
40
1
40
1
40
1
41
1
10
101.379933034158
20
-23.9097966931334
30
0
41
1
10
101.38534999593
20
-23.9060036956661
30
0
41
1
10
101.391009162338
20
-23.9015385102198
30
0
41
1
10
101.402935023629
20
-23.8902582136161
30
0
41
1
10
101.409048509171
20
-23.8834802770242
30
0
41
1
10
101.419894224065
20
-23.8688244163404
30
0
41
1
10
101.424595377975
20
-23.860970473589
30
0
41
1
10
101.431782969321
20
-23.8465260368775
30
0
41
1
10
101.434430288516
20
-23.8397799143437
30
0
41
1
10
101.440574651789
20
-23.8209750871849
30
0
41
1
10
101.442394443415
20
-23.8102610377699
30
0
41
1
10
101.444169067847
20
-23.7907209149127
30
0
41
1
10
101.444037955613
20
-23.7819908048043
30
0
41
1
10
101.443325773419
20
-23.7738505250779
30
0
0
SPLINE
5
16A
100
AcDbEntity
8
1
62
256
6
ByLayer
370
18
48
1
60
0
100
AcDbSpline
70
4
71
3
72
36
73
32
40
0
40
0
40
0
40
0
40
0.0156250000000192
40
0.0156250000000192
40
0.0234375000000258
40
0.0234375000000258
40
0.0273437500000248
40
0.0273437500000248
40
0.0312500000000238
40
0.0312500000000238
40
0.0390625000000225
40
0.0390625000000225
40
0.0468750000000212
40
0.0468750000000212
40
0.0625000000000214
40
0.0625000000000214
40
0.093750000000021
40
0.093750000000021
40
0.125000000000021
40
0.125000000000021
40
0.187500000000019
40
0.187500000000019
40
0.250000000000018
40
0.250000000000018
40
0.375000000000015
40
0.375000000000015
40
0.500000000000012
40
0.500000000000012
40
0.750000000000006
40
0.750000000000006
40
1
40
1
40
1
40
1
41
1
10
101.293687750004
20
-30.3135171282046
30
0
41
1
10
101.289644180639
20
-30.3163484659548
30
0
41
1
10
101.28528507959
20
-30.3195878345859
30
0
41
1
10
101.276862495338
20
-30.3269089781696
30
0
41
1
10
101.273736913891
20
-30.329749315519
30
0
41
1
10
101.267852245823
20
-30.3357506237713
30
0
41
1
10
101.265664633075
20
-30.3380799181715
30
0
41
1
10
101.260994225455
20
-30.3434106338148
30
0
41
1
10
101.258538155539
20
-30.3464075941569
30
0
41
1
10
101.252299544786
20
-30.3545163388888
30
0
41
1
10
101.249463196854
20
-30.3588036947492
30
0
41
1
10
101.244911467242
20
-30.3660593605337
30
0
41
1
10
101.243156851113
20
-30.3691384963539
30
0
41
1
10
101.238592945347
20
-30.3775842416072
30
0
41
1
10
101.236485670265
20
-30.3821629425779
30
0
41
1
10
101.23111861114
20
-30.394813968731
30
0
41
1
10
101.228949678269
20
-30.401610888199
30
0
41
1
10
101.225548500297
20
-30.414013000264
30
0
41
1
10
101.224391206426
20
-30.4195505954798
30
0
41
1
10
101.221796139795
20
-30.4350615246972
30
0
41
1
10
101.221229487101
20
-30.44393972217
30
0
41
1
10
101.221164682999
20
-30.4602558326492
30
0
41
1
10
101.221705313166
20
-30.4676479877669
30
0
41
1
10
101.224373968237
20
-30.4883198998814
30
0
41
1
10
101.227530884708
20
-30.500116197175
30
0
41
1
10
101.235232575257
20
-30.521351811986
30
0
41
1
10
101.239812832516
20
-30.5307520095365
30
0
41
1
10
101.25488338521
20
-30.5562572905952
30
0
41
1
10
101.266677137196
20
-30.5697170307031
30
0
41
1
10
101.291906106061
20
-30.591777879389
30
0
41
1
10
101.305382186392
20
-30.6003317027858
30
0
41
1
10
101.319350639687
20
-30.6068452995299
30
0
0
SPLINE
5
16B
100
AcDbEntity
8
1
62
256
6
ByLayer
370
18
48
1
60
0
100
AcDbSpline
70
4
71
3
72
30
73
26
40
0
40
0
40
0
40
0
40
0.250000000000002
40
0.250000000000002
40
0.500000000000005
40
0.500000000000005
40
0.625000000000008
40
0.625000000000008
40
0.750000000000011
40
0.750000000000011
40
0.81250000000001
40
0.81250000000001
40
0.843750000000009
40
0.843750000000009
40
0.859375000000007
40
0.859375000000007
40
0.875000000000006
40
0.875000000000006
40
0.890625000000004
40
0.890625000000004
40
0.906250000000002
40
0.906250000000002
40
0.9375
40
0.9375
40
1
40
1
40
1
40
1
41
1
10
101.966260229911
20
-29.7510187136208
30
0
41
1
10
101.966814733706
20
-29.7573567209951
30
0
41
1
10
101.967004000283
20
-29.7640267237171
30
0
41
1
10
101.966318706165
20
-29.7784224607939
30
0
41
1
10
101.965475605325
20
-29.7861075327617
30
0
41
1
10
101.962725884504
20
-29.7992298456252
30
0
41
1
10
101.961560870851
20
-29.8038708277918
30
0
41
1
10
101.95833095727
20
-29.8141604943962
30
0
41
1
10
101.956338023773
20
-29.8197309110179
30
0
41
1
10
101.95157888932
20
-29.8301033149443
30
0
41
1
10
101.949727494019
20
-29.8338650018882
30
0
41
1
10
101.945664877204
20
-29.8409638628604
30
0
41
1
10
101.944115117912
20
-29.8435535158132
30
0
41
1
10
101.940872661781
20
-29.8484574269301
30
0
41
1
10
101.939649416015
20
-29.8502488976647
30
0
41
1
10
101.936454675295
20
-29.8546323287681
30
0
41
1
10
101.934328476169
20
-29.857411333769
30
0
41
1
10
101.929505895177
20
-29.8631804634108
30
0
41
1
10
101.927170511752
20
-29.8657409502138
30
0
41
1
10
101.92343926682
20
-29.8696476477758
30
0
41
1
10
101.921913618824
20
-29.8711500032347
30
0
41
1
10
101.917714615679
20
-29.8751664060859
30
0
41
1
10
101.915450224559
20
-29.8771473238861
30
0
41
1
10
101.90927482967
20
-29.8823421748934
30
0
41
1
10
101.905953158802
20
-29.8848042736513
30
0
41
1
10
101.902867490523
20
-29.8869648818347
30
0
0
SPLINE
5
16C
100
AcDbEntity
8
1
62
256
6
ByLayer
370
18
48
1
60
0
100
AcDbSpline
70
4
71
3
72
12
73
8
40
0
40
0
40
0
40
0
40
0.500000000000002
40
0.500000000000002
40
0.750000000000001
40
0.750000000000001
40
1
40
1
40
1
40
1
41
1
10
101.862611977414
20
-29.426842259997
30
0
41
1
10
101.887050271582
20
-29.4382380237197
30
0
41
1
10
101.906106185104
20
-29.4546432664594
30
0
41
1
10
101.928015068324
20
-29.484899513682
30
0
41
1
10
101.934167706106
20
-29.4959787920162
30
0
41
1
10
101.94376978122
20
-29.5206012621217
30
0
41
1
10
101.947279867149
20
-29.5340721746073
30
0
41
1
10
101.948648442867
20
-29.5497150666403
30
0
0
SPLINE
5
16D
100
AcDbEntity
8
1
62
256
6
ByLayer
370
18
48
1
60
0
100
AcDbSpline
70
4
71
3
72
32
73
28
40
0
40
0
40
0
40
0
40
0.0156250000000013
40
0.0156250000000013
40
0.0312500000000028
40
0.0312500000000028
40
0.0468750000000041
40
0.0468750000000041
40
0.0625000000000054
40
0.0625000000000054
40
0.0781250000000069
40
0.0781250000000069
40
0.0937500000000082
40
0.0937500000000082
40
0.125000000000008
40
0.125000000000008
40
0.187500000000008
40
0.187500000000008
40
0.250000000000007
40
0.250000000000007
40
0.375000000000008
40
0.375000000000008
40
0.500000000000009
40
0.500000000000009
40
0.750000000000005
40
0.750000000000005
40
1
40
1
40
1
40
1
41
1
10
101.162954135882
20
-28.8192250810669
30
0
41
1
10
101.159804188199
20
-28.8214306981798
30
0
41
1
10
101.156498438676
20
-28.8238973239233
30
0
41
1
10
101.149366664819
20
-28.8297214886477
30
0
41
1
10
101.145478968185
20
-28.8331291554689
30
0
41
1
10
101.137137308084
20
-28.8413264031796
30
0
41
1
10
101.132500744039
20
-28.8463522205707
30
0
41
1
10
101.123890419842
20
-28.8570160014347
30
0
41
1
10
101.120033517487
20
-28.8624894073432
30
0
41
1
10
101.113737301945
20
-28.8724205300605
30
0
41
1
10
101.111303880592
20
-28.876794051802
30
0
41
1
10
101.107126416834
20
-28.8849344244356
30
0
41
1
10
101.105397160349
20
-28.8887007163238
30
0
41
1
10
101.100954937382
20
-28.8991922542058
30
0
41
1
10
101.098896219561
20
-28.905271605356
30
0
41
1
10
101.093948128086
20
-28.9222567763091
30
0
41
1
10
101.09236495934
20
-28.9316679624173
30
0
41
1
10
101.090506562302
20
-28.9489573291008
30
0
41
1
10
101.090314180349
20
-28.9567570054906
30
0
41
1
10
101.091032109116
20
-28.9786466126125
30
0
41
1
10
101.093229677496
20
-28.9912404735988
30
0
41
1
10
101.099377042307
20
-29.0140819671
30
0
41
1
10
101.103376748625
20
-29.0243130679617
30
0
41
1
10
101.117279753534
20
-29.0524892132842
30
0
41
1
10
101.12905324314
20
-29.0679575680407
30
0
41
1
10
101.156149301444
20
-29.0940252531987
30
0
41
1
10
101.171484949245
20
-29.1045644340036
30
0
41
1
10
101.188617025566
20
-29.1125532523923
30
0
0
SPLINE
5
16E
100
AcDbEntity
8
1
62
256
6
ByLayer
370
18
48
1
60
0
100
AcDbSpline
70
4
71
3
72
22
73
18
40
0
40
0
40
0
40
0
40
0.24999999999999
40
0.24999999999999
40
0.49999999999998
40
0.49999999999998
40
0.624999999999973
40
0.624999999999973
40
0.749999999999966
40
0.749999999999966
40
0.812499999999975
40
0.812499999999975
40
0.874999999999983
40
0.874999999999983
40
0.937499999999992
40
0.937499999999992
40
1
40
1
40
1
40
1
41
1
10
101.835526615783
20
-28.2567266664907
30
0
41
1
10
101.836113880783
20
-28.2634391361512
30
0
41
1
10
101.836300496948
20
-28.2705799324786
30
0
41
1
10
101.83539924965
20
-28.2862480142458
30
0
41
1
10
101.834367658772
20
-28.2947123203434
30
0
41
1
10
101.830800478958
20
-28.3096396352234
30
0
41
1
10
101.829280091945
20
-28.3149812810755
30
0
41
1
10
101.824812960318
20
-28.3272510691272
30
0
41
1
10
101.821964643909
20
-28.3341330190698
30
0
41
1
10
101.814713619527
20
-28.3471468481342
30
0
41
1
10
101.811660752099
20
-28.3521392664889
30
0
41
1
10
101.803726453305
20
-28.3631237185938
30
0
41
1
10
101.798846082915
20
-28.3689411870737
30
0
41
1
10
101.7899609946
20
-28.3782139959181
30
0
41
1
10
101.785903739564
20
-28.3818777240081
30
0
41
1
10
101.778587705776
20
-28.3879874153726
30
0
41
1
10
101.775246604505
20
-28.3904932789933
30
0
41
1
10
101.772133876544
20
-28.3926728345765
30
0
0
SPLINE
5
16F
100
AcDbEntity
8
1
62
256
6
ByLayer
370
18
48
1
60
0
100
AcDbSpline
70
4
71
3
72
12
73
8
40
0
40
0
40
0
40
0
40
0.500000000000003
40
0.500000000000003
40
0.750000000000002
40
0.750000000000002
40
1
40
1
40
1
40
1
41
1
10
101.731878363293
20
-27.9325502128593
30
0
41
1
10
101.75491536274
20
-27.9432925421225
30
0
41
1
10
101.773812246557
20
-27.9588445563486
30
0
41
1
10
101.796108441683
20
-27.9887046430876
30
0
41
1
10
101.802505430593
20
-27.9997808528365
30
0
41
1
10
101.812640011077
20
-28.0248770612787
30
0
41
1
10
101.816460383755
20
-28.0387986371836
30
0
41
1
10
101.817914828746
20
-28.0554230195027
30
0
0
SPLINE
5
170
100
AcDbEntity
8
1
62
256
6
ByLayer
370
18
48
1
60
0
100
AcDbSpline
70
4
71
3
72
28
73
24
40
0
40
0
40
0
40
0
40
0.0312500000000313
40
0.0312500000000313
40
0.0468750000000371
40
0.0468750000000371
40
0.0625000000000429
40
0.0625000000000429
40
0.0937500000000387
40
0.0937500000000387
40
0.125000000000035
40
0.125000000000035
40
0.187500000000029
40
0.187500000000029
40
0.250000000000023
40
0.250000000000023
40
0.37500000000002
40
0.37500000000002
40
0.500000000000018
40
0.500000000000018
40
0.750000000000009
40
0.750000000000009
40
1
40
1
40
1
40
1
41
1
10
101.032220521747
20
-27.3249330339103
30
0
41
1
10
101.026626668868
20
-27.3288498918639
30
0
41
1
10
101.020550730946
20
-27.3335767288547
30
0
41
1
10
101.010762875624
20
-27.3426693060352
30
0
41
1
10
101.007326403178
20
-27.3461066916856
30
0
41
1
10
101.000510049092
20
-27.3536073794989
30
0
41
1
10
100.997073910475
20
-27.3577464601114
30
0
41
1
10
100.987655271655
20
-27.3702520574123
30
0
41
1
10
100.982486175997
20
-27.3788203268387
30
0
41
1
10
100.974910060523
20
-27.3934828516453
30
0
41
1
10
100.972176467887
20
-27.4000069630867
30
0
41
1
10
100.965535167598
20
-27.4182714520117
30
0
41
1
10
100.963302221535
20
-27.428275096612
30
0
41
1
10
100.960366489636
20
-27.4467528424055
30
0
41
1
10
100.959799081391
20
-27.4550573404231
30
0
41
1
10
100.959605298032
20
-27.4781775125654
30
0
41
1
10
100.961463616082
20
-27.4913734730626
30
0
41
1
10
100.967148607207
20
-27.5153733695507
30
0
41
1
10
100.971026228635
20
-27.5260851431463
30
0
41
1
10
100.98475046205
20
-27.5555760617274
30
0
41
1
10
100.996675020868
20
-27.5717700699165
30
0
41
1
10
101.024357693922
20
-27.5989996174116
30
0
41
1
10
101.040126206756
20
-27.609980884721
30
0
41
1
10
101.057883411443
20
-27.6182612052541
30
0
0
SPLINE
5
171
100
AcDbEntity
8
1
62
256
6
ByLayer
370
18
48
1
60
0
100
AcDbSpline
70
4
71
3
72
22
73
18
40
0
40
0
40
0
40
0
40
0.25000000000001
40
0.25000000000001
40
0.50000000000002
40
0.50000000000002
40
0.625000000000046
40
0.625000000000046
40
0.687500000000059
40
0.687500000000059
40
0.750000000000071
40
0.750000000000071
40
0.812500000000084
40
0.812500000000084
40
0.875000000000097
40
0.875000000000097
40
1
40
1
40
1
40
1
41
1
10
101.704793001662
20
-26.7624346193531
30
0
41
1
10
101.705430411958
20
-26.7697202523795
30
0
41
1
10
101.70560045966
20
-26.7775088215578
30
0
41
1
10
101.704371079178
20
-26.7947923793578
30
0
41
1
10
101.703032370428
20
-26.8042659464908
30
0
41
1
10
101.698433075819
20
-26.820944073135
30
0
41
1
10
101.696465495719
20
-26.8269454843527
30
0
41
1
10
101.692121856123
20
-26.8372421673516
30
0
41
1
10
101.690457586479
20
-26.8408439279689
30
0
41
1
10
101.686422433167
20
-26.8486021107583
30
0
41
1
10
101.684039198313
20
-26.8527722652338
30
0
41
1
10
101.67836998547
20
-26.861511504857
30
0
41
1
10
101.675053521832
20
-26.8660937934881
30
0
41
1
10
101.667958975169
20
-26.8747740149908
30
0
41
1
10
101.664254618273
20
-26.8787908465115
30
0
41
1
10
101.653672299337
20
-26.8892343350513
30
0
41
1
10
101.647236486883
20
-26.8942942190371
30
0
41
1
10
101.641400262397
20
-26.8983807874165
30
0
0
SPLINE
5
172
100
AcDbEntity
8
1
62
256
6
ByLayer
370
18
48
1
60
0
100
AcDbSpline
70
4
71
3
72
12
73
8
40
0
40
0
40
0
40
0
40
0.500000000000005
40
0.500000000000005
40
0.750000000000002
40
0.750000000000002
40
1
40
1
40
1
40
1
41
1
10
101.601144749171
20
-26.4382581657217
30
0
41
1
10
101.623851900378
20
-26.4488466842241
30
0
41
1
10
101.642706677385
20
-26.4641845592031
30
0
41
1
10
101.665142663644
20
-26.4940383834188
30
0
41
1
10
101.6715968725
20
-26.5051346035449
30
0
41
1
10
101.681839261241
20
-26.5303416060913
30
0
41
1
10
101.685713193095
20
-26.5443514095095
30
0
41
1
10
101.687181214624
20
-26.5611309723651
30
0
0
SPLINE
5
173
100
AcDbEntity
8
1
62
256
6
ByLayer
370
18
48
1
60
0
100
AcDbSpline
70
4
71
3
72
26
73
22
40
0
40
0
40
0
40
0
40
0.0312499999999984
40
0.0312499999999984
40
0.0624999999999969
40
0.0624999999999969
40
0.0937499999999952
40
0.0937499999999952
40
0.124999999999994
40
0.124999999999994
40
0.18749999999999
40
0.18749999999999
40
0.249999999999986
40
0.249999999999986
40
0.37499999999999
40
0.37499999999999
40
0.499999999999993
40
0.499999999999993
40
0.749999999999997
40
0.749999999999997
40
1
40
1
40
1
40
1
41
1
10
100.901486907639
20
-25.8306409867916
30
0
41
1
10
100.896261451142
20
-25.8342998908217
30
0
41
1
10
100.890787723617
20
-25.8385540598537
30
0
41
1
10
100.879317655471
20
-25.848913056377
30
0
41
1
10
100.87319270838
20
-25.8552022416949
30
0
41
1
10
100.8617830128
20
-25.8691300790714
30
0
41
1
10
100.856546201936
20
-25.8767400686968
30
0
41
1
10
100.848097495885
20
-25.8911581020341
30
0
41
1
10
100.844785178581
20
-25.8980168087859
30
0
41
1
10
100.83682564198
20
-25.9170703408622
30
0
41
1
10
100.834045932918
20
-25.9276078080835
30
0
41
1
10
100.830272425155
20
-25.9468914012645
30
0
41
1
10
100.829400097637
20
-25.9556487809014
30
0
41
1
10
100.828520094
20
-25.9798947553875
30
0
41
1
10
100.830161922666
20
-25.9934531039338
30
0
41
1
10
100.835495461003
20
-26.0181400259722
30
0
41
1
10
100.839275623161
20
-26.0291664209454
30
0
41
1
10
100.852865415616
20
-26.0595556362152
30
0
41
1
10
100.864940616251
20
-26.0763014470608
30
0
41
1
10
100.893001062515
20
-26.1042761449353
30
0
41
1
10
100.909041001035
20
-26.1155248877279
30
0
41
1
10
100.927149797323
20
-26.1239691581172
30
0
0
SPLINE
5
174
100
AcDbEntity
8
1
62
256
6
ByLayer
370
18
48
1
60
0
100
AcDbSpline
70
4
71
3
72
18
73
14
40
0
40
0
40
0
40
0
40
0.250000000000017
40
0.250000000000017
40
0.500000000000034
40
0.500000000000034
40
0.625000000000025
40
0.625000000000025
40
0.750000000000017
40
0.750000000000017
40
0.875000000000008
40
0.875000000000008
40
1
40
1
40
1
40
1
41
1
10
101.57405938754
20
-25.2681425722155
30
0
41
1
10
101.574731730712
20
-25.2758274898318
30
0
41
1
10
101.574881723072
20
-25.2840416090934
30
0
41
1
10
101.573427495258
20
-25.3022604008643
30
0
41
1
10
101.571947533844
20
-25.3121368964239
30
0
41
1
10
101.566535980513
20
-25.3302299269937
30
0
41
1
10
101.564190128693
20
-25.3367587009278
30
0
41
1
10
101.557609207962
20
-25.351062596851
30
0
41
1
10
101.553253883026
20
-25.3590212423236
30
0
41
1
10
101.541930565491
20
-25.3752283931273
30
0
41
1
10
101.535191408058
20
-25.3829760104347
30
0
41
1
10
101.522409144324
20
-25.3953131397501
30
0
41
1
10
101.516341454927
20
-25.4001151978785
30
0
41
1
10
101.510666648279
20
-25.4040887402714
30
0
0
SPLINE
5
175
100
AcDbEntity
8
1
62
256
6
ByLayer
370
18
48
1
60
0
100
AcDbSpline
70
4
71
3
72
12
73
8
40
0
40
0
40
0
40
0
40
0.499999999999983
40
0.499999999999983
40
0.749999999999991
40
0.749999999999991
40
1
40
1
40
1
40
1
41
1
10
101.47041113505
20
-24.943966118584
30
0
41
1
10
101.492922818766
20
-24.9544634890986
30
0
41
1
10
101.51171850027
20
-24.9696407028227
30
0
41
1
10
101.534254658509
20
-24.9994982519935
30
0
41
1
10
101.540769161075
20
-25.0106499020071
30
0
41
1
10
101.55107913817
20
-25.0359458489357
30
0
41
1
10
101.554975239255
20
-25.0500097591543
30
0
41
1
10
101.556447600502
20
-25.0668389252275
30
0
0
SPLINE
5
176
100
AcDbEntity
8
1
62
256
6
ByLayer
370
18
48
1
60
0
100
AcDbSpline
70
4
71
3
72
26
73
22
40
0
40
0
40
0
40
0
40
0.0312499999999952
40
0.0312499999999952
40
0.0624999999999905
40
0.0624999999999905
40
0.0937499999999857
40
0.0937499999999857
40
0.124999999999981
40
0.124999999999981
40
0.187499999999989
40
0.187499999999989
40
0.249999999999997
40
0.249999999999997
40
0.374999999999996
40
0.374999999999996
40
0.499999999999994
40
0.499999999999994
40
0.749999999999997
40
0.749999999999997
40
1
40
1
40
1
40
1
41
1
10
100.770753293518
20
-24.3363489396537
30
0
41
1
10
100.765948518834
20
-24.3397132791069
30
0
41
1
10
100.760952314238
20
-24.3435791850852
30
0
41
1
10
100.750778139131
20
-24.3525451057392
30
0
41
1
10
100.745471267851
20
-24.3577792813182
30
0
41
1
10
100.735245796253
20
-24.3694581063974
30
0
41
1
10
100.73030584716
20
-24.3759580615255
30
0
41
1
10
100.721738929157
20
-24.3890462985427
30
0
41
1
10
100.718064300348
20
-24.3956711241921
30
0
41
1
10
100.709009851174
20
-24.4145058353279
30
0
41
1
10
100.705437119214
20
-24.4256397107062
30
0
41
1
10
100.700559770052
20
-24.4458655926901
30
0
41
1
10
100.699308840076
20
-24.4549478111257
30
0
41
1
10
100.697484368568
20
-24.4802743435411
30
0
41
1
10
100.698801082165
20
-24.4945230422633
30
0
41
1
10
100.703760871216
20
-24.5204854579872
30
0
41
1
10
100.707475822402
20
-24.5319926183578
30
0
41
1
10
100.721023083698
20
-24.5636225393808
30
0
41
1
10
100.733248854551
20
-24.5808656335572
30
0
41
1
10
100.761681191484
20
-24.6095782396824
30
0
41
1
10
100.777981987817
20
-24.6210811044996
30
0
41
1
10
100.796416183202
20
-24.6296771109796
30
0
0
SPLINE
5
177
100
AcDbEntity
8
1
62
256
6
ByLayer
370
18
48
1
60
0
100
AcDbSpline
70
4
71
3
72
12
73
8
40
0
40
0
40
0
40
0
40
0.499999999999979
40
0.499999999999979
40
0.74999999999999
40
0.74999999999999
40
1
40
1
40
1
40
1
41
1
10
101.339677520929
20
-23.4496740714463
30
0
41
1
10
101.362041544352
20
-23.4601025868359
30
0
41
1
10
101.380802803372
20
-23.4751817450175
30
0
41
1
10
101.403369477586
20
-23.5049688319236
30
0
41
1
10
101.409947611512
20
-23.5161759152672
30
0
41
1
10
101.420328553826
20
-23.541578691472
30
0
41
1
10
101.424239878213
20
-23.5556977446329
30
0
41
1
10
101.425713986381
20
-23.5725468780899
30
0
0
SPLINE
5
178
100
AcDbEntity
8
1
62
256
6
ByLayer
370
18
48
1
60
0
100
AcDbSpline
70
4
71
3
72
18
73
14
40
0
40
0
40
0
40
0
40
0.250000000000061
40
0.250000000000061
40
0.500000000000121
40
0.500000000000121
40
0.625000000000091
40
0.625000000000091
40
0.750000000000061
40
0.750000000000061
40
0.87500000000003
40
0.87500000000003
40
1
40
1
40
1
40
1
41
1
10
101.312592159297
20
-22.2795584779403
30
0
41
1
10
101.313336119733
20
-22.2880619846296
30
0
41
1
10
101.31344664561
20
-22.2971898692518
30
0
41
1
10
101.311415099508
20
-22.3176770973939
30
0
41
1
10
101.309303336329
20
-22.3290622050901
30
0
41
1
10
101.302619505658
20
-22.3482907653746
30
0
41
1
10
101.299744636779
20
-22.3551665571489
30
0
41
1
10
101.292245559351
20
-22.369461703257
30
0
41
1
10
101.287558493824
20
-22.3768907022409
30
0
41
1
10
101.277124986516
20
-22.3905423159933
30
0
41
1
10
101.27136995795
20
-22.3968036726054
30
0
41
1
10
101.260012428243
20
-22.4074390946667
30
0
41
1
10
101.254544548527
20
-22.4117619467337
30
0
41
1
10
101.249199420036
20
-22.4155046459959
30
0
0
SPLINE
5
179
100
AcDbEntity
8
1
62
256
6
ByLayer
370
18
48
1
60
0
100
AcDbSpline
70
4
71
3
72
12
73
8
40
0
40
0
40
0
40
0
40
0.499999999999988
40
0.499999999999988
40
0.749999999999994
40
0.749999999999994
40
1
40
1
40
1
40
1
41
1
10
101.208943906807
20
-21.9553820243087
30
0
41
1
10
101.231186844728
20
-21.9657540766013
30
0
41
1
10
101.249911799548
20
-21.9807495528559
30
0
41
1
10
101.272492430966
20
-22.0104541551329
30
0
41
1
10
101.279101629887
20
-22.0216513052988
30
0
41
1
10
101.289576074364
20
-22.0471986013996
30
0
41
1
10
101.293504740315
20
-22.0613882806452
30
0
41
1
10
101.29498037226
20
-22.0782548309523
30
0
0
SPLINE
5
17A
100
AcDbEntity
8
1
62
256
6
ByLayer
370
18
48
1
60
0
100
AcDbSpline
70
4
71
3
72
10
73
6
40
0
40
0
40
0
40
0
40
0.5
40
0.5
40
1
40
1
40
1
40
1
41
1
10
100.465708524524
20
-21.58186199105
30
0
41
1
10
100.474705386238
20
-21.5952456864709
30
0
41
1
10
100.48510364773
20
-21.6066950405778
30
0
41
1
10
100.508236177511
20
-21.6263650494593
30
0
41
1
10
100.520976421002
20
-21.6345775171165
30
0
41
1
10
100.534948954958
20
-21.6410930167044
30
0
0
SPLINE
5
17B
100
AcDbEntity
8
1
62
256
6
ByLayer
370
18
48
1
60
0
100
AcDbSpline
70
4
71
3
72
12
73
8
40
0
40
0
40
0
40
0
40
0.249999999999993
40
0.249999999999993
40
0.499999999999986
40
0.499999999999986
40
1
40
1
40
1
40
1
41
1
10
99.351587947475
20
0.134822229124005
30
0
41
1
10
99.3530093281134
20
0.11857577408437
30
0
41
1
10
99.3517521042898
20
0.104121174986354
30
0
41
1
10
99.3460575180177
20
0.0772286268777995
30
0
41
1
10
99.3415763852537
20
0.0650141790062759
30
0
41
1
10
99.3246152007123
20
0.0315888340562664
30
0
41
1
10
99.3085977856667
20
0.0131620995998845
30
0
41
1
10
99.2881952082139
20
-0.0011239389314914
30
0
0
SPLINE
5
17C
100
AcDbEntity
8
1
62
256
6
ByLayer
370
18
48
1
60
0
100
AcDbSpline
70
4
71
3
72
20
73
16
40
0
40
0
40
0
40
0
40
0.124999999999995
40
0.124999999999995
40
0.24999999999999
40
0.24999999999999
40
0.374999999999985
40
0.374999999999985
40
0.49999999999998
40
0.49999999999998
40
0.624999999999975
40
0.624999999999975
40
0.74999999999997
40
0.74999999999997
40
1
40
1
40
1
40
1
41
1
10
99.2479396949841
20
0.458998682756467
30
0
41
1
10
99.2536693087852
20
0.456326919962765
30
0
41
1
10
99.2597015112952
20
0.453070447765269
30
0
41
1
10
99.2719247225964
20
0.445191763093119
30
0
41
1
10
99.2782797878656
20
0.440440733960281
30
0
41
1
10
99.2903957087297
20
0.429644631338694
30
0
41
1
10
99.2961942076882
20
0.423540696416654
30
0
41
1
10
99.3061744888408
20
0.411198568064726
30
0
41
1
10
99.3104368380121
20
0.404908825236186
30
0
41
1
10
99.3174943009357
20
0.392864558347581
30
0
41
1
10
99.320385306368
20
0.386964710777101
30
0
41
1
10
99.3251042449218
20
0.375782722043253
30
0
41
1
10
99.3269713136058
20
0.370429392798049
30
0
41
1
10
99.3315356324138
20
0.354854937680968
30
0
41
1
10
99.3331821890719
20
0.345201010448172
30
0
41
1
10
99.3339761604464
20
0.336125876105729
30
0
0
INSERT
5
1BE
100
AcDbEntity
8
SK2
62
256
6
ByLayer
370
18
48
1
60
0
100
AcDbBlockReference
2
DimnDraft3D66
10
0
20
0
30
0
41
1
42
1
43
1
50
0
210
0
220
0
230
1
0
LINE
5
70
100
AcDbEntity
8
1
62
256
6
ByLayer
370
18
48
1
60
0
100
AcDbLine
10
0.3
20
31.5
30
0
11
0
21
31.2
31
0
39
0
210
0
220
0
230
1
0
LINE
5
72
100
AcDbEntity
8
SK1
62
256
6
ByLayer
370
18
48
1
60
0
100
AcDbLine
10
-38
20
20.292349
30
0
11
-36.5
21
21.143953
31
0
39
0
210
0
220
0
230
1
0
LINE
5
74
100
AcDbEntity
8
SK1
62
256
6
ByLayer
370
18
48
1
60
0
100
AcDbLine
10
-38
20
-20.292349
30
0
11
-36.5
21
-21.143953
31
0
39
0
210
0
220
0
230
1
0
LINE
5
75
100
AcDbEntity
8
1
62
256
6
ByLayer
370
18
48
1
60
0
100
AcDbLine
10
0
20
-31.2
30
0
11
0.3
21
-31.5
31
0
39
0
210
0
220
0
230
1
0
LINE
5
76
100
AcDbEntity
8
1
62
256
6
ByLayer
370
18
48
1
60
0
100
AcDbLine
10
0
20
-31.2
30
0
11
0.3
21
-31.5
31
0
39
0
210
0
220
0
230
1
0
LINE
5
77
100
AcDbEntity
8
1
62
256
6
ByLayer
370
18
48
1
60
0
100
AcDbLine
10
0
20
31.2
30
0
11
0
21
-31.2
31
0
39
0
210
0
220
0
230
1
0
LINE
5
78
100
AcDbEntity
8
1
62
256
6
ByLayer
370
18
48
1
60
0
100
AcDbLine
10
10.25
20
-9.869413
30
0
11
10.25
21
-29.913955
31
0
39
0
210
0
220
0
230
1
0
LINE
5
79
100
AcDbEntity
8
1
62
256
6
ByLayer
370
18
48
1
60
0
100
AcDbLine
10
10.25
20
29.913955
30
0
11
10.25
21
9.869413
31
0
39
0
210
0
220
0
230
1
0
LINE
5
7A
100
AcDbEntity
8
1
62
256
6
ByLayer
370
18
48
1
60
0
100
AcDbLine
10
10.538675
20
-30.080593
30
0
11
13.461325
21
-30.080593
31
0
39
0
210
0
220
0
230
1
0
LINE
5
7B
100
AcDbEntity
8
1
62
256
6
ByLayer
370
18
48
1
60
0
100
AcDbLine
10
13.461325
20
-9.349221
30
0
11
10.538675
21
-9.349221
31
0
39
0
210
0
220
0
230
1
0
LINE
5
7C
100
AcDbEntity
8
1
62
256
6
ByLayer
370
18
48
1
60
0
100
AcDbLine
10
10.538675
20
9.349221
30
0
11
13.461325
21
9.349221
31
0
39
0
210
0
220
0
230
1
0
LINE
5
7D
100
AcDbEntity
8
1
62
256
6
ByLayer
370
18
48
1
60
0
100
AcDbLine
10
13.461325
20
30.080593
30
0
11
10.538675
21
30.080593
31
0
39
0
210
0
220
0
230
1
0
LINE
5
7E
100
AcDbEntity
8
1
62
256
6
ByLayer
370
18
48
1
60
0
100
AcDbLine
10
13.75
20
-29.913955
30
0
11
13.75
21
-9.869413
31
0
39
0
210
0
220
0
230
1
0
LINE
5
7F
100
AcDbEntity
8
1
62
256
6
ByLayer
370
18
48
1
60
0
100
AcDbLine
10
13.75
20
9.869413
30
0
11
13.75
21
29.913955
31
0
39
0
210
0
220
0
230
1
0
LINE
5
80
100
AcDbEntity
8
SK1
62
256
6
ByLayer
370
18
48
1
60
0
100
AcDbLine
10
-38
20
20.292349
30
0
11
-38
21
-20.292349
31
0
39
0
210
0
220
0
230
1
0
LINE
5
81
100
AcDbEntity
8
1
62
256
6
ByLayer
370
18
48
1
60
0
100
AcDbLine
10
0.3
20
31.5
30
0
11
0
21
31.2
31
0
39
0
210
0
220
0
230
1
0
LINE
5
82
100
AcDbEntity
8
SK1
62
256
6
ByLayer
370
18
48
1
60
0
100
AcDbLine
10
-2.2
20
-22.020099
30
0
11
-2.2
21
22.020099
31
0
39
0
210
0
220
0
230
1
0
LINE
5
83
100
AcDbEntity
8
SK1
62
256
6
ByLayer
370
18
48
1
60
0
100
AcDbLine
10
-0.2
20
-22.533485
30
0
11
-0.2
21
22.533485
31
0
39
0
210
0
220
0
230
1
0
LINE
5
84
100
AcDbEntity
8
80
62
256
6
ByLayer
370
18
48
1
60
0
100
AcDbLine
10
0
20
0
30
0
11
-8
21
0
31
0
39
0
210
0
220
0
230
1
0
LINE
5
85
100
AcDbEntity
8
4
62
256
6
ByLayer
370
13
48
0.05
60
0
100
AcDbLine
10
0
20
0
30
0
11
22
21
0
31
0
39
0
210
0
220
0
230
1
0
LINE
5
87
100
AcDbEntity
8
SK1
62
256
6
ByLayer
370
18
48
1
60
0
100
AcDbLine
10
-36.5
20
-21.143953
30
0
11
-36.5
21
21.143953
31
0
39
0
210
0
220
0
230
1
0
LINE
5
88
100
AcDbEntity
8
1
62
256
6
ByLayer
370
18
48
1
60
0
100
AcDbLine
10
22
20
31.5
30
0
11
0.3
21
31.5
31
0
39
0
210
0
220
0
230
1
0
LINE
5
89
100
AcDbEntity
8
1
62
256
6
ByLayer
370
18
48
1
60
0
100
AcDbLine
10
22.758791
20
0.299044
30
0
11
22.758791
21
-30.870733
31
0
39
0
210
0
220
0
230
1
0
LINE
5
8A
100
AcDbEntity
8
1
62
256
6
ByLayer
370
18
48
1
60
0
100
AcDbLine
10
23.5
20
0.360907
30
0
11
22.279208
21
0.360907
31
0
39
0
210
0
220
0
230
1
0
LINE
5
8B
100
AcDbEntity
8
1
62
256
6
ByLayer
370
18
48
1
60
0
100
AcDbLine
10
98.07378
20
-0.17559
30
0
11
31.164928
21
-0.17559
31
0
39
0
210
0
220
0
230
1
0
LINE
5
8C
100
AcDbEntity
8
1
62
256
6
ByLayer
370
18
48
1
60
0
100
AcDbLine
10
24.388374
20
0.299044
30
0
11
22.758791
21
0.299044
31
0
39
0
210
0
220
0
230
1
0
LINE
5
8D
100
AcDbEntity
8
1
62
256
6
ByLayer
370
18
48
1
60
0
100
AcDbLine
10
99.506545
20
-16.552168
30
0
11
84.801794
21
-16.552168
31
0
39
0
210
0
220
0
230
1
0
LINE
5
8E
100
AcDbEntity
8
1
62
256
6
ByLayer
370
18
48
1
60
0
100
AcDbLine
10
58.135214
20
-5.447832
30
0
11
98.535041
21
-5.447832
31
0
39
0
210
0
220
0
230
1
0
LINE
5
8F
100
AcDbEntity
8
1
62
256
6
ByLayer
370
18
48
1
60
0
100
AcDbLine
10
22.4
20
-31.25
30
0
11
22.4
21
-30.972905
31
0
39
0
210
0
220
0
230
1
0
LINE
5
90
100
AcDbEntity
8
1
62
256
6
ByLayer
370
18
48
1
60
0
100
AcDbLine
10
99.967806
20
-21.82441
30
0
11
85.50267
21
-21.82441
31
0
39
0
210
0
220
0
230
1
0
LINE
5
91
100
AcDbEntity
8
1
62
256
6
ByLayer
370
18
48
1
60
0
100
AcDbLine
10
22.758791
20
-30.870733
30
0
11
24.388374
21
-30.870733
31
0
39
0
210
0
220
0
230
1
0
LINE
5
92
100
AcDbEntity
8
1
62
256
6
ByLayer
370
18
48
1
60
0
100
AcDbLine
10
98.103202
20
-0.511887
30
0
11
98.581375
21
-0.470052
31
0
39
0
210
0
220
0
230
1
0
LINE
5
93
100
AcDbEntity
8
1
62
256
6
ByLayer
370
18
48
1
60
0
100
AcDbLine
10
98.045617
20
8.643809
30
0
11
97.894614
21
8.538076
31
0
39
0
210
0
220
0
230
1
0
LINE
5
94
100
AcDbEntity
8
1
62
256
6
ByLayer
370
18
48
1
60
0
100
AcDbLine
10
98.581375
20
-0.470052
30
0
11
98.621112
21
-0.498031
31
0
39
0
210
0
220
0
230
1
0
LINE
5
95
100
AcDbEntity
8
1
62
256
6
ByLayer
370
18
48
1
60
0
100
AcDbLine
10
98.679015
20
-0.427676
30
0
11
99.288195
21
-0.001124
31
0
39
0
210
0
220
0
230
1
0
LINE
5
96
100
AcDbEntity
8
1
62
256
6
ByLayer
370
18
48
1
60
0
100
AcDbLine
10
99.24794
20
0.458999
30
0
11
98.573945
21
0.773288
31
0
39
0
210
0
220
0
230
1
0
LINE
5
97
100
AcDbEntity
8
1
62
256
6
ByLayer
370
18
48
1
60
0
100
AcDbLine
10
98.548282
20
1.066616
30
0
11
99.157462
21
1.493168
31
0
39
0
210
0
220
0
230
1
0
LINE
5
98
100
AcDbEntity
8
1
62
256
6
ByLayer
370
18
48
1
60
0
100
AcDbLine
10
99.220854
20
1.629114
30
0
11
99.203243
21
1.830418
31
0
39
0
210
0
220
0
230
1
0
LINE
5
99
100
AcDbEntity
8
1
62
256
6
ByLayer
370
18
48
1
60
0
100
AcDbLine
10
99.117206
20
1.953291
30
0
11
98.443211
21
2.26758
31
0
39
0
210
0
220
0
230
1
0
LINE
5
9A
100
AcDbEntity
8
1
62
256
6
ByLayer
370
18
48
1
60
0
100
AcDbLine
10
98.417548
20
2.560908
30
0
11
99.026728
21
2.98746
31
0
39
0
210
0
220
0
230
1
0
LINE
5
9B
100
AcDbEntity
8
1
62
256
6
ByLayer
370
18
48
1
60
0
100
AcDbLine
10
99.090121
20
3.123406
30
0
11
99.072509
21
3.32471
31
0
39
0
210
0
220
0
230
1
0
LINE
5
9C
100
AcDbEntity
8
1
62
256
6
ByLayer
370
18
48
1
60
0
100
AcDbLine
10
98.986472
20
3.447583
30
0
11
98.312478
21
3.761872
31
0
39
0
210
0
220
0
230
1
0
LINE
5
9D
100
AcDbEntity
8
1
62
256
6
ByLayer
370
18
48
1
60
0
100
AcDbLine
10
98.286815
20
4.0552
30
0
11
98.895994
21
4.481752
31
0
39
0
210
0
220
0
230
1
0
LINE
5
9E
100
AcDbEntity
8
1
62
256
6
ByLayer
370
18
48
1
60
0
100
AcDbLine
10
98.959387
20
4.617698
30
0
11
98.941775
21
4.819002
31
0
39
0
210
0
220
0
230
1
0
LINE
5
9F
100
AcDbEntity
8
1
62
256
6
ByLayer
370
18
48
1
60
0
100
AcDbLine
10
98.855739
20
4.941875
30
0
11
98.181744
21
5.256164
31
0
39
0
210
0
220
0
230
1
0
LINE
5
A0
100
AcDbEntity
8
1
62
256
6
ByLayer
370
18
48
1
60
0
100
AcDbLine
10
98.156081
20
5.549492
30
0
11
98.765261
21
5.976044
31
0
39
0
210
0
220
0
230
1
0
LINE
5
A1
100
AcDbEntity
8
1
62
256
6
ByLayer
370
18
48
1
60
0
100
AcDbLine
10
98.828653
20
6.11199
30
0
11
98.811042
21
6.313294
31
0
39
0
210
0
220
0
230
1
0
LINE
5
A2
100
AcDbEntity
8
1
62
256
6
ByLayer
370
18
48
1
60
0
100
AcDbLine
10
98.725005
20
6.436167
30
0
11
98.05101
21
6.750456
31
0
39
0
210
0
220
0
230
1
0
LINE
5
A3
100
AcDbEntity
8
1
62
256
6
ByLayer
370
18
48
1
60
0
100
AcDbLine
10
98.025347
20
7.043784
30
0
11
98.634527
21
7.470336
31
0
39
0
210
0
220
0
230
1
0
LINE
5
A4
100
AcDbEntity
8
1
62
256
6
ByLayer
370
18
48
1
60
0
100
AcDbLine
10
98.69792
20
7.606282
30
0
11
98.680308
21
7.807586
31
0
39
0
210
0
220
0
230
1
0
LINE
5
A5
100
AcDbEntity
8
1
62
256
6
ByLayer
370
18
48
1
60
0
100
AcDbLine
10
98.594272
20
7.930459
30
0
11
97.920277
21
8.244748
31
0
39
0
210
0
220
0
230
1
0
LINE
5
A6
100
AcDbEntity
8
1
62
256
6
ByLayer
370
18
48
1
60
0
100
AcDbLine
10
98.704678
20
-0.721004
30
0
11
99.378673
21
-1.035293
31
0
39
0
210
0
220
0
230
1
0
LINE
5
A7
100
AcDbEntity
8
1
62
256
6
ByLayer
370
18
48
1
60
0
100
AcDbLine
10
99.46471
20
-1.158166
30
0
11
99.482322
21
-1.35947
31
0
39
0
210
0
220
0
230
1
0
LINE
5
A8
100
AcDbEntity
8
1
62
256
6
ByLayer
370
18
48
1
60
0
100
AcDbLine
10
99.418929
20
-1.495416
30
0
11
98.809749
21
-1.921968
31
0
39
0
210
0
220
0
230
1
0
LINE
5
A9
100
AcDbEntity
8
1
62
256
6
ByLayer
370
18
48
1
60
0
100
AcDbLine
10
99.595443
20
-2.652458
30
0
11
99.613055
21
-2.853762
31
0
39
0
210
0
220
0
230
1
0
LINE
5
AA
100
AcDbEntity
8
1
62
256
6
ByLayer
370
18
48
1
60
0
100
AcDbLine
10
99.549662
20
-2.989708
30
0
11
98.940483
21
-3.41626
31
0
39
0
210
0
220
0
230
1
0
LINE
5
AB
100
AcDbEntity
8
1
62
256
6
ByLayer
370
18
48
1
60
0
100
AcDbLine
10
98.966146
20
-3.709588
30
0
11
99.640141
21
-4.023877
31
0
39
0
210
0
220
0
230
1
0
LINE
5
AC
100
AcDbEntity
8
1
62
256
6
ByLayer
370
18
48
1
60
0
100
AcDbLine
10
99.726177
20
-4.14675
30
0
11
99.743789
21
-4.348054
31
0
39
0
210
0
220
0
230
1
0
LINE
5
AD
100
AcDbEntity
8
1
62
256
6
ByLayer
370
18
48
1
60
0
100
AcDbLine
10
99.680396
20
-4.484
30
0
11
99.071216
21
-4.910552
31
0
39
0
210
0
220
0
230
1
0
LINE
5
AE
100
AcDbEntity
8
1
62
256
6
ByLayer
370
18
48
1
60
0
100
AcDbLine
10
99.096879
20
-5.20388
30
0
11
99.641766
21
-5.457965
31
0
39
0
210
0
220
0
230
1
0
LINE
5
AF
100
AcDbEntity
8
1
62
256
6
ByLayer
370
18
48
1
60
0
100
AcDbLine
10
100.726265
20
-16.438336
30
0
11
100.609572
21
-16.520046
31
0
39
0
210
0
220
0
230
1
0
LINE
5
B0
100
AcDbEntity
8
1
62
256
6
ByLayer
370
18
48
1
60
0
100
AcDbLine
10
100.772046
20
-16.101087
30
0
11
100.789658
21
-16.30239
31
0
39
0
210
0
220
0
230
1
0
LINE
5
B1
100
AcDbEntity
8
1
62
256
6
ByLayer
370
18
48
1
60
0
100
AcDbLine
10
100.012014
20
-15.663925
30
0
11
100.686009
21
-15.978214
31
0
39
0
210
0
220
0
230
1
0
LINE
5
B2
100
AcDbEntity
8
1
62
256
6
ByLayer
370
18
48
1
60
0
100
AcDbLine
10
100.595531
20
-14.944044
30
0
11
99.986352
21
-15.370597
31
0
39
0
210
0
220
0
230
1
0
LINE
5
B3
100
AcDbEntity
8
1
62
256
6
ByLayer
370
18
48
1
60
0
100
AcDbLine
10
100.641312
20
-14.606795
30
0
11
100.658924
21
-14.808098
31
0
39
0
210
0
220
0
230
1
0
LINE
5
B4
100
AcDbEntity
8
1
62
256
6
ByLayer
370
18
48
1
60
0
100
AcDbLine
10
99.881281
20
-14.169633
30
0
11
100.555276
21
-14.483922
31
0
39
0
210
0
220
0
230
1
0
LINE
5
B5
100
AcDbEntity
8
1
62
256
6
ByLayer
370
18
48
1
60
0
100
AcDbLine
10
100.464798
20
-13.449752
30
0
11
99.855618
21
-13.876305
31
0
39
0
210
0
220
0
230
1
0
LINE
5
B6
100
AcDbEntity
8
1
62
256
6
ByLayer
370
18
48
1
60
0
100
AcDbLine
10
100.510579
20
-13.112503
30
0
11
100.52819
21
-13.313806
31
0
39
0
210
0
220
0
230
1
0
LINE
5
B7
100
AcDbEntity
8
1
62
256
6
ByLayer
370
18
48
1
60
0
100
AcDbLine
10
99.750547
20
-12.675341
30
0
11
100.424542
21
-12.98963
31
0
39
0
210
0
220
0
230
1
0
LINE
5
B8
100
AcDbEntity
8
1
62
256
6
ByLayer
370
18
48
1
60
0
100
AcDbLine
10
100.334064
20
-11.95546
30
0
11
99.724884
21
-12.382013
31
0
39
0
210
0
220
0
230
1
0
LINE
5
B9
100
AcDbEntity
8
1
62
256
6
ByLayer
370
18
48
1
60
0
100
AcDbLine
10
100.379845
20
-11.618211
30
0
11
100.397457
21
-11.819514
31
0
39
0
210
0
220
0
230
1
0
LINE
5
BA
100
AcDbEntity
8
1
62
256
6
ByLayer
370
18
48
1
60
0
100
AcDbLine
10
99.619814
20
-11.181049
30
0
11
100.293809
21
-11.495338
31
0
39
0
210
0
220
0
230
1
0
LINE
5
BB
100
AcDbEntity
8
1
62
256
6
ByLayer
370
18
48
1
60
0
100
AcDbLine
10
100.203331
20
-10.461168
30
0
11
99.594151
21
-10.887721
31
0
39
0
210
0
220
0
230
1
0
LINE
5
BC
100
AcDbEntity
8
1
62
256
6
ByLayer
370
18
48
1
60
0
100
AcDbLine
10
100.249111
20
-10.123918
30
0
11
100.266723
21
-10.325222
31
0
39
0
210
0
220
0
230
1
0
LINE
5
BD
100
AcDbEntity
8
1
62
256
6
ByLayer
370
18
48
1
60
0
100
AcDbLine
10
99.48908
20
-9.686757
30
0
11
100.163075
21
-10.001046
31
0
39
0
210
0
220
0
230
1
0
LINE
5
BE
100
AcDbEntity
8
1
62
256
6
ByLayer
370
18
48
1
60
0
100
AcDbLine
10
100.072597
20
-8.966876
30
0
11
99.463417
21
-9.393428
31
0
39
0
210
0
220
0
230
1
0
LINE
5
BF
100
AcDbEntity
8
1
62
256
6
ByLayer
370
18
48
1
60
0
100
AcDbLine
10
100.118378
20
-8.629626
30
0
11
100.13599
21
-8.83093
31
0
39
0
210
0
220
0
230
1
0
LINE
5
C0
100
AcDbEntity
8
1
62
256
6
ByLayer
370
18
48
1
60
0
100
AcDbLine
10
99.358346
20
-8.192465
30
0
11
100.032341
21
-8.506754
31
0
39
0
210
0
220
0
230
1
0
LINE
5
C1
100
AcDbEntity
8
1
62
256
6
ByLayer
370
18
48
1
60
0
100
AcDbLine
10
99.941863
20
-7.472584
30
0
11
99.332684
21
-7.899136
31
0
39
0
210
0
220
0
230
1
0
LINE
5
C2
100
AcDbEntity
8
1
62
256
6
ByLayer
370
18
48
1
60
0
100
AcDbLine
10
99.987644
20
-7.135334
30
0
11
100.005256
21
-7.336638
31
0
39
0
210
0
220
0
230
1
0
LINE
5
C3
100
AcDbEntity
8
1
62
256
6
ByLayer
370
18
48
1
60
0
100
AcDbLine
10
99.227613
20
-6.698173
30
0
11
99.901608
21
-7.012462
31
0
39
0
210
0
220
0
230
1
0
LINE
5
C4
100
AcDbEntity
8
1
62
256
6
ByLayer
370
18
48
1
60
0
100
AcDbLine
10
99.81113
20
-5.978292
30
0
11
99.20195
21
-6.404844
31
0
39
0
210
0
220
0
230
1
0
LINE
5
C5
100
AcDbEntity
8
1
62
256
6
ByLayer
370
18
48
1
60
0
100
AcDbLine
10
99.856911
20
-5.641042
30
0
11
99.874522
21
-5.842346
31
0
39
0
210
0
220
0
230
1
0
LINE
5
C6
100
AcDbEntity
8
1
62
256
6
ByLayer
370
18
48
1
60
0
100
AcDbLine
10
99.641766
20
-5.457965
30
0
11
99.770874
21
-5.51817
31
0
39
0
210
0
220
0
230
1
0
LINE
5
C7
100
AcDbEntity
8
1
62
256
6
ByLayer
370
18
48
1
60
0
100
AcDbLine
10
101.118466
20
-20.921213
30
0
11
100.509286
21
-21.347765
31
0
39
0
210
0
220
0
230
1
0
LINE
5
C8
100
AcDbEntity
8
1
62
256
6
ByLayer
370
18
48
1
60
0
100
AcDbLine
10
101.164247
20
-20.583963
30
0
11
101.181859
21
-20.785266
31
0
39
0
210
0
220
0
230
1
0
LINE
5
C9
100
AcDbEntity
8
1
62
256
6
ByLayer
370
18
48
1
60
0
100
AcDbLine
10
100.404215
20
-20.146801
30
0
11
101.07821
21
-20.46109
31
0
39
0
210
0
220
0
230
1
0
LINE
5
CA
100
AcDbEntity
8
1
62
256
6
ByLayer
370
18
48
1
60
0
100
AcDbLine
10
101.033513
20
-19.089671
30
0
11
101.051125
21
-19.290974
31
0
39
0
210
0
220
0
230
1
0
LINE
5
CB
100
AcDbEntity
8
1
62
256
6
ByLayer
370
18
48
1
60
0
100
AcDbLine
10
100.273482
20
-18.652509
30
0
11
100.947477
21
-18.966798
31
0
39
0
210
0
220
0
230
1
0
LINE
5
CC
100
AcDbEntity
8
1
62
256
6
ByLayer
370
18
48
1
60
0
100
AcDbLine
10
100.856999
20
-17.932629
30
0
11
100.247819
21
-18.359181
31
0
39
0
210
0
220
0
230
1
0
LINE
5
CD
100
AcDbEntity
8
1
62
256
6
ByLayer
370
18
48
1
60
0
100
AcDbLine
10
100.90278
20
-17.595379
30
0
11
100.920391
21
-17.796682
31
0
39
0
210
0
220
0
230
1
0
LINE
5
CE
100
AcDbEntity
8
1
62
256
6
ByLayer
370
18
48
1
60
0
100
AcDbLine
10
100.142748
20
-17.158217
30
0
11
100.816743
21
-17.472506
31
0
39
0
210
0
220
0
230
1
0
LINE
5
CF
100
AcDbEntity
8
1
62
256
6
ByLayer
370
18
48
1
60
0
100
AcDbLine
10
100.609572
20
-16.520046
30
0
11
100.117085
21
-16.864889
31
0
39
0
210
0
220
0
230
1
0
LINE
5
D0
100
AcDbEntity
8
1
62
256
6
ByLayer
370
18
48
1
60
0
100
AcDbLine
10
100.431434
20
-21.616316
30
0
11
99.95326
21
-21.658151
31
0
39
0
210
0
220
0
230
1
0
LINE
5
D1
100
AcDbEntity
8
1
62
256
6
ByLayer
370
18
48
1
60
0
100
AcDbLine
10
100.465709
20
-21.581862
30
0
11
100.431434
21
-21.616316
31
0
39
0
210
0
220
0
230
1
0
LINE
5
D2
100
AcDbEntity
8
1
62
256
6
ByLayer
370
18
48
1
60
0
100
AcDbLine
10
101.48642
20
-30.684751
30
0
11
101.319351
21
-30.606845
31
0
39
0
210
0
220
0
230
1
0
LINE
5
D3
100
AcDbEntity
8
1
62
256
6
ByLayer
370
18
48
1
60
0
100
AcDbLine
10
101.902867
20
-29.886965
30
0
11
101.293688
21
-30.313517
31
0
39
0
210
0
220
0
230
1
0
LINE
5
D4
100
AcDbEntity
8
1
62
256
6
ByLayer
370
18
48
1
60
0
100
AcDbLine
10
101.948648
20
-29.549715
30
0
11
101.96626
21
-29.751019
31
0
39
0
210
0
220
0
230
1
0
LINE
5
D5
100
AcDbEntity
8
1
62
256
6
ByLayer
370
18
48
1
60
0
100
AcDbLine
10
101.188617
20
-29.112553
30
0
11
101.862612
21
-29.426842
31
0
39
0
210
0
220
0
230
1
0
LINE
5
D6
100
AcDbEntity
8
1
62
256
6
ByLayer
370
18
48
1
60
0
100
AcDbLine
10
101.772134
20
-28.392673
30
0
11
101.162954
21
-28.819225
31
0
39
0
210
0
220
0
230
1
0
LINE
5
D7
100
AcDbEntity
8
1
62
256
6
ByLayer
370
18
48
1
60
0
100
AcDbLine
10
101.817915
20
-28.055423
30
0
11
101.835527
21
-28.256727
31
0
39
0
210
0
220
0
230
1
0
LINE
5
D8
100
AcDbEntity
8
1
62
256
6
ByLayer
370
18
48
1
60
0
100
AcDbLine
10
101.057883
20
-27.618261
30
0
11
101.731878
21
-27.93255
31
0
39
0
210
0
220
0
230
1
0
LINE
5
D9
100
AcDbEntity
8
1
62
256
6
ByLayer
370
18
48
1
60
0
100
AcDbLine
10
101.6414
20
-26.898381
30
0
11
101.032221
21
-27.324933
31
0
39
0
210
0
220
0
230
1
0
LINE
5
DA
100
AcDbEntity
8
1
62
256
6
ByLayer
370
18
48
1
60
0
100
AcDbLine
10
101.687181
20
-26.561131
30
0
11
101.704793
21
-26.762435
31
0
39
0
210
0
220
0
230
1
0
LINE
5
DB
100
AcDbEntity
8
1
62
256
6
ByLayer
370
18
48
1
60
0
100
AcDbLine
10
100.92715
20
-26.123969
30
0
11
101.601145
21
-26.438258
31
0
39
0
210
0
220
0
230
1
0
LINE
5
DC
100
AcDbEntity
8
1
62
256
6
ByLayer
370
18
48
1
60
0
100
AcDbLine
10
101.510667
20
-25.404089
30
0
11
100.901487
21
-25.830641
31
0
39
0
210
0
220
0
230
1
0
LINE
5
DD
100
AcDbEntity
8
1
62
256
6
ByLayer
370
18
48
1
60
0
100
AcDbLine
10
101.556448
20
-25.066839
30
0
11
101.574059
21
-25.268143
31
0
39
0
210
0
220
0
230
1
0
LINE
5
DE
100
AcDbEntity
8
1
62
256
6
ByLayer
370
18
48
1
60
0
100
AcDbLine
10
100.796416
20
-24.629677
30
0
11
101.470411
21
-24.943966
31
0
39
0
210
0
220
0
230
1
0
LINE
5
DF
100
AcDbEntity
8
1
62
256
6
ByLayer
370
18
48
1
60
0
100
AcDbLine
10
101.379933
20
-23.909797
30
0
11
100.770753
21
-24.336349
31
0
39
0
210
0
220
0
230
1
0
LINE
5
E0
100
AcDbEntity
8
1
62
256
6
ByLayer
370
18
48
1
60
0
100
AcDbLine
10
101.425714
20
-23.572547
30
0
11
101.443326
21
-23.773851
31
0
39
0
210
0
220
0
230
1
0
LINE
5
E1
100
AcDbEntity
8
1
62
256
6
ByLayer
370
18
48
1
60
0
100
AcDbLine
10
100.665683
20
-23.135385
30
0
11
101.339678
21
-23.449674
31
0
39
0
210
0
220
0
230
1
0
LINE
5
E2
100
AcDbEntity
8
1
62
256
6
ByLayer
370
18
48
1
60
0
100
AcDbLine
10
101.249199
20
-22.415505
30
0
11
100.64002
21
-22.842057
31
0
39
0
210
0
220
0
230
1
0
LINE
5
E3
100
AcDbEntity
8
1
62
256
6
ByLayer
370
18
48
1
60
0
100
AcDbLine
10
101.29498
20
-22.078255
30
0
11
101.312592
21
-22.279558
31
0
39
0
210
0
220
0
230
1
0
LINE
5
E4
100
AcDbEntity
8
1
62
256
6
ByLayer
370
18
48
1
60
0
100
AcDbLine
10
100.534949
20
-21.641093
30
0
11
101.208944
21
-21.955382
31
0
39
0
210
0
220
0
230
1
0
LINE
5
E5
100
AcDbEntity
8
1
62
256
6
ByLayer
370
18
48
1
60
0
100
AcDbLine
10
113.458866
20
3.598569
30
0
11
114.504735
21
-8.355767
31
0
39
0
210
0
220
0
230
1
0
LINE
5
E6
100
AcDbEntity
8
1
62
256
6
ByLayer
370
18
48
1
60
0
100
AcDbLine
10
114.050215
20
-8.897442
30
0
11
112.917191
21
4.053089
31
0
39
0
210
0
220
0
230
1
0
LINE
5
E7
100
AcDbEntity
8
1
62
256
6
ByLayer
370
18
48
1
60
0
100
AcDbLine
10
115.78941
20
-23.039677
30
0
11
114.743542
21
-11.08534
31
0
39
0
210
0
220
0
230
1
0
LINE
5
E8
100
AcDbEntity
8
1
62
256
6
ByLayer
370
18
48
1
60
0
100
AcDbLine
10
106.948295
20
-13.774976
30
0
11
107.645541
21
-21.744533
31
0
39
0
210
0
220
0
230
1
0
LINE
5
E9
100
AcDbEntity
8
1
62
256
6
ByLayer
370
18
48
1
60
0
100
AcDbLine
10
105.66362
20
0.908934
30
0
11
106.360866
21
-7.060624
31
0
39
0
210
0
220
0
230
1
0
LINE
5
EA
100
AcDbEntity
8
1
62
256
6
ByLayer
370
18
48
1
60
0
100
AcDbLine
10
105.44573
20
3.399421
30
0
11
106.578755
21
-9.55111
31
0
39
0
210
0
220
0
230
1
0
LINE
5
EB
100
AcDbEntity
8
1
62
256
6
ByLayer
370
18
48
1
60
0
100
AcDbLine
10
107.863431
20
-24.23502
30
0
11
106.730406
21
-11.284489
31
0
39
0
210
0
220
0
230
1
0
LINE
5
EC
100
AcDbEntity
8
1
62
256
6
ByLayer
370
18
48
1
60
0
100
AcDbLine
10
114.201866
20
-10.630821
30
0
11
115.334891
21
-23.581352
31
0
39
0
210
0
220
0
230
1
0
LINE
5
ED
100
AcDbEntity
8
1
62
256
6
ByLayer
370
18
48
1
60
0
100
AcDbLine
10
100.792438
20
-31.25
30
0
11
22.4
21
-31.25
31
0
39
0
210
0
220
0
230
1
0
LINE
5
EE
100
AcDbEntity
8
1
62
256
6
ByLayer
370
18
48
1
60
0
100
AcDbLine
10
23.5
20
9.25
30
0
11
97.249147
21
9.25
31
0
39
0
210
0
220
0
230
1
0
LINE
5
EF
100
AcDbEntity
8
1
62
256
6
ByLayer
370
18
48
1
60
0
100
AcDbLine
10
97.249147
20
9.25
30
0
11
100.792438
21
-31.25
31
0
39
0
210
0
220
0
230
1
0
LINE
5
F0
100
AcDbEntity
8
1
62
256
6
ByLayer
370
18
48
1
60
0
100
AcDbLine
10
22
20
2.152676
30
0
11
22
21
31.5
31
0
39
0
210
0
220
0
230
1
0
LINE
5
F1
100
AcDbEntity
8
1
62
256
6
ByLayer
370
18
48
1
60
0
100
AcDbLine
10
0.3
20
-31.5
30
0
11
22.02919
21
-31.5
31
0
39
0
210
0
220
0
230
1
0
LINE
5
F2
100
AcDbEntity
8
1
62
256
6
ByLayer
370
18
48
1
60
0
100
AcDbLine
10
113.458866
20
3.598569
30
0
11
112.917191
21
4.053089
31
0
39
0
210
0
220
0
230
1
0
LINE
5
F3
100
AcDbEntity
8
1
62
256
6
ByLayer
370
18
48
1
60
0
100
AcDbLine
10
114.504735
20
-8.355767
30
0
11
114.050215
21
-8.897442
31
0
39
0
210
0
220
0
230
1
0
LINE
5
F4
100
AcDbEntity
8
1
62
256
6
ByLayer
370
18
48
1
60
0
100
AcDbLine
10
112.917191
20
4.053089
30
0
11
105.44573
21
3.399421
31
0
39
0
210
0
220
0
230
1
0
LINE
5
F5
100
AcDbEntity
8
1
62
256
6
ByLayer
370
18
48
1
60
0
100
AcDbLine
10
114.050215
20
-8.897442
30
0
11
106.578755
21
-9.55111
31
0
39
0
210
0
220
0
230
1
0
LINE
5
F6
100
AcDbEntity
8
1
62
256
6
ByLayer
370
18
48
1
60
0
100
AcDbLine
10
114.743542
20
-11.08534
30
0
11
114.201866
21
-10.630821
31
0
39
0
210
0
220
0
230
1
0
LINE
5
F7
100
AcDbEntity
8
1
62
256
6
ByLayer
370
18
48
1
60
0
100
AcDbLine
10
115.78941
20
-23.039677
30
0
11
115.334891
21
-23.581352
31
0
39
0
210
0
220
0
230
1
0
LINE
5
F8
100
AcDbEntity
8
1
62
256
6
ByLayer
370
18
48
1
60
0
100
AcDbLine
10
114.201866
20
-10.630821
30
0
11
106.730406
21
-11.284489
31
0
39
0
210
0
220
0
230
1
0
LINE
5
F9
100
AcDbEntity
8
1
62
256
6
ByLayer
370
18
48
1
60
0
100
AcDbLine
10
115.334891
20
-23.581352
30
0
11
107.863431
21
-24.23502
31
0
39
0
210
0
220
0
230
1
0
LINE
5
FA
100
AcDbEntity
8
1
62
256
6
ByLayer
370
18
48
1
60
0
100
AcDbLine
10
105.66362
20
0.908934
30
0
11
99.33113
21
0.354913
31
0
39
0
210
0
220
0
230
1
0
LINE
5
FB
100
AcDbEntity
8
1
62
256
6
ByLayer
370
18
48
1
60
0
100
AcDbLine
10
106.360866
20
-7.060624
30
0
11
99.697658
21
-7.643579
31
0
39
0
210
0
220
0
230
1
0
LINE
5
FC
100
AcDbEntity
8
1
62
256
6
ByLayer
370
18
48
1
60
0
100
AcDbLine
10
106.948295
20
-13.774976
30
0
11
100.285088
21
-14.357931
31
0
39
0
210
0
220
0
230
1
0
LINE
5
FD
100
AcDbEntity
8
1
62
256
6
ByLayer
370
18
48
1
60
0
100
AcDbLine
10
107.645541
20
-21.744533
30
0
11
101.313052
21
-22.298554
31
0
39
0
210
0
220
0
230
1
0
LINE
5
FE
100
AcDbEntity
8
1
62
256
6
ByLayer
370
18
48
1
60
0
100
AcDbLine
10
99.333976
20
0.336126
30
0
11
99.351588
21
0.134822
31
0
39
0
210
0
220
0
230
1
0
LINE
5
FF
100
AcDbEntity
8
1
62
256
6
ByLayer
370
18
48
1
60
0
100
AcDbLine
10
25
20
-0.200956
30
0
11
24.99999
21
-30.370733
31
0
39
0
210
0
220
0
230
1
0
LINE
5
100
100
AcDbEntity
8
1
62
256
6
ByLayer
370
18
48
1
60
0
100
AcDbLine
10
97.76329
20
8.88071
30
0
11
97.285116
21
8.838875
31
0
39
0
210
0
220
0
230
1
0
LINE
5
101
100
AcDbEntity
8
1
62
256
6
ByLayer
370
18
48
1
60
0
100
AcDbLine
10
98.045617
20
8.643809
30
0
11
97.76329
21
8.88071
31
0
39
0
210
0
220
0
230
1
0
LINE
5
102
100
AcDbEntity
8
1
62
256
6
ByLayer
370
18
48
1
60
0
100
AcDbLine
10
101.249519
20
-30.967078
30
0
11
100.771346
21
-31.008913
31
0
39
0
210
0
220
0
230
1
0
LINE
5
103
100
AcDbEntity
8
1
62
256
6
ByLayer
370
18
48
1
60
0
100
AcDbLine
10
101.48642
20
-30.684751
30
0
11
101.249519
21
-30.967078
31
0
39
0
210
0
220
0
230
1
0
LINE
5
104
100
AcDbEntity
8
81
62
256
6
ByLayer
370
18
48
1
60
0
100
AcDbLine
10
100
20
-11
30
0
11
107.969558
21
-10.302754
31
0
39
0
210
0
220
0
230
1
0
LINE
5
105
100
AcDbEntity
8
SK4
62
256
6
ByLayer
370
13
48
0.05
60
0
100
AcDbLine
10
-40
20
0
30
0
11
102
21
0
31
0
39
0
210
0
220
0
230
1
0
MTEXT
5
17D
100
AcDbEntity
8
SK6
62
256
6
ByLayer
370
18
48
1
60
0
100
AcDbMText
10
35.890231
20
41.268893
30
0
210
0
220
0
230
1
1
\W0.7383;C6-SL70-LX-005-100
40
3
41
0
44
1.084337
50
0
71
7
72
5
7
iso_b_vert
0
DIMENSION
5
18C
100
AcDbEntity
8
SK2
62
256
6
ByLayer
370
13
48
1
60
0
100
AcDbDimension
2
DimnDraft3D1
10
-54.818906
20
-31.5
30
0
11
-56.068906
21
1.207895
31
0
70
33
71
5
72
1
41
1
210
0
220
0
230
1
3
Standard
100
AcDbAlignedDimension
13
-0.7
23
31.5
33
0
14
-0.7
24
-31.5
34
0
1001
ACAD
1000
DSTYLE
1002
{
1070
   279
1070
     0
1070
    74
1070
     0
1070
   173
1070
     1
1070
   340
1005
17E
1070
   271
1070
     3
1070
   272
1070
     2
1070
    77
1070
     1
1070
    73
1070
     0
1070
   171
1070
     3
1070
   274
1070
     4
1070
   177
1070
     7
1070
   176
1070
     7
1070
   178
1070
     7
1070
    78
1070
     8
1070
    48
1040
-0.005
1070
    41
1041
3.5
1070
   147
1041
1.5
1070
    42
1041
1.0
1070
    44
1041
1.0
1070
   140
1041
3.0
1070
   343
1005
0
1070
   344
1005
0
1002
}
0
DIMENSION
5
196
100
AcDbEntity
8
SK2
62
256
6
ByLayer
370
13
48
1
60
0
100
AcDbDimension
2
DimnDraft3D2
10
22
20
46.168262
30
0
11
11
21
46.168262
31
0
70
32
71
5
72
1
41
1
210
0
220
0
230
1
3
Standard
100
AcDbAlignedDimension
13
0
23
32.2
33
0
14
22
24
32.5
34
0
50
0
100
AcDbRotatedDimension
1001
ACAD
1000
DSTYLE
1002
{
1070
   279
1070
     0
1070
   172
1070
     1
1070
   173
1070
     1
1070
   340
1005
17E
1070
   271
1070
     3
1070
   272
1070
     2
1070
    77
1070
     1
1070
    73
1070
     0
1070
   171
1070
     3
1070
   274
1070
     4
1070
   177
1070
     7
1070
   176
1070
     7
1070
   178
1070
     7
1070
    78
1070
     8
1070
    48
1040
-0.005
1070
    41
1041
3.5
1070
   147
1041
1.5
1070
    42
1041
1.0
1070
    44
1041
1.0
1070
   140
1041
3.0
1070
   343
1005
0
1070
   344
1005
0
1002
}
0
DIMENSION
5
1A1
100
AcDbEntity
8
2
62
256
6
ByLayer
370
13
48
1
60
0
100
AcDbDimension
2
DimnDraft3D3
10
100
20
58.362327
30
0
11
50
21
58.362327
31
0
70
32
71
5
72
1
41
1
210
0
220
0
230
1
3
Standard
100
AcDbAlignedDimension
13
0
23
32.2
33
0
14
100
24
-10
34
0
50
0
100
AcDbRotatedDimension
1001
ACAD
1000
DSTYLE
1002
{
1070
   279
1070
     0
1070
   172
1070
     1
1070
   173
1070
     1
1070
   340
1005
17E
1070
   271
1070
     0
1070
   272
1070
     2
1070
    77
1070
     1
1070
    73
1070
     0
1070
   171
1070
     3
1070
   274
1070
     4
1070
   177
1070
     7
1070
   176
1070
     7
1070
   178
1070
     7
1070
    78
1070
     8
1070
    48
1040
-0.005
1070
    41
1041
3.5
1070
   147
1041
1.5
1070
    42
1041
1.0
1070
    44
1041
1.0
1070
   140
1041
3.0
1070
   343
1005
0
1070
   344
1005
0
1002
}
0
DIMENSION
5
1AB
100
AcDbEntity
8
SK2
62
256
6
ByLayer
370
13
48
1
60
0
100
AcDbDimension
2
DimnDraft3D4
10
133.419864
20
-11
30
0
11
133.419864
21
-5.5
31
0
70
32
71
5
72
1
41
1
210
0
220
0
230
1
3
Standard
100
AcDbAlignedDimension
13
103
23
0
33
0
14
101
24
-11
34
0
50
90
100
AcDbRotatedDimension
1001
ACAD
1000
DSTYLE
1002
{
1070
    74
1070
     0
1070
   279
1070
     0
1070
   172
1070
     1
1070
   173
1070
     1
1070
   340
1005
17E
1070
   271
1070
     3
1070
   272
1070
     2
1070
    77
1070
     1
1070
    73
1070
     0
1070
   171
1070
     3
1070
   274
1070
     4
1070
   177
1070
     7
1070
   176
1070
     7
1070
   178
1070
     7
1070
    78
1070
     8
1070
    48
1040
-0.005
1070
    41
1041
3.5
1070
   147
1041
1.5
1070
    42
1041
1.0
1070
    44
1041
1.0
1070
   140
1041
3.0
1070
   343
1005
0
1070
   344
1005
0
1002
}
0
DIMENSION
5
1B4
100
AcDbEntity
8
SK2
62
256
6
ByLayer
370
13
48
1
60
0
100
AcDbDimension
2
DimnDraft3D5
10
102
20
0
30
0
11
71.001963
21
25.689951
31
0
70
34
71
5
72
1
41
1
210
0
220
0
230
1
3
Standard
100
AcDb2LineAngularDimension
13
100
23
-11
33
0
14
99.912844
24
-10.003805
34
0
15
-40
25
0
35
0
16
73.213795
26
23.66318
36
0
40
0
0
ENDSEC
0
SECTION
2
OBJECTS
0
DICTIONARY
5
22b
330
0
100
AcDbDictionary
280
0
281
1
3
ACAD_GROUP
350
22c
3
ACAD_GROUP
350
22d
3
ACAD_MLINESTYLE
350
22e
0
DICTIONARY
5
22c
330
0
100
AcDbDictionary
280
0
281
1
0
DICTIONARY
5
22d
330
0
100
AcDbDictionary
280
0
281
1
3
<201049948MOD000_00>
350
1C7
0
DICTIONARY
5
22e
330
0
100
AcDbDictionary
280
0
281
1
3
Standard
350
18
0
GROUP
5
1C7
330
22d
100
AcDbGroup
300

70
0
71
1
340
6C
340
6E
340
70
340
72
340
74
340
75
340
76
340
77
340
78
340
79
340
7A
340
7B
340
7C
340
7D
340
7E
340
7F
340
80
340
81
340
82
340
83
340
84
340
85
340
87
340
88
340
89
340
8A
340
8B
340
8C
340
8D
340
8E
340
8F
340
90
340
91
340
92
340
93
340
94
340
95
340
96
340
97
340
98
340
99
340
9A
340
9B
340
9C
340
9D
340
9E
340
9F
340
A0
340
A1
340
A2
340
A3
340
A4
340
A5
340
A6
340
A7
340
A8
340
A9
340
AA
340
AB
340
AC
340
AD
340
AE
340
AF
340
B0
340
B1
340
B2
340
B3
340
B4
340
B5
340
B6
340
B7
340
B8
340
B9
340
BA
340
BB
340
BC
340
BD
340
BE
340
BF
340
C0
340
C1
340
C2
340
C3
340
C4
340
C5
340
C6
340
C7
340
C8
340
C9
340
CA
340
CB
340
CC
340
CD
340
CE
340
CF
340
D0
340
D1
340
D2
340
D3
340
D4
340
D5
340
D6
340
D7
340
D8
340
D9
340
DA
340
DB
340
DC
340
DD
340
DE
340
DF
340
E0
340
E1
340
E2
340
E3
340
E4
340
E5
340
E6
340
E7
340
E8
340
E9
340
EA
340
EB
340
EC
340
ED
340
EE
340
EF
340
F0
340
F1
340
F2
340
F3
340
F4
340
F5
340
F6
340
F7
340
F8
340
F9
340
FA
340
FB
340
FC
340
FD
340
FE
340
FF
340
100
340
101
340
102
340
103
340
104
340
105
340
107
340
108
340
109
340
10A
340
10B
340
10C
340
10D
340
10E
340
10F
340
110
340
111
340
112
340
113
340
114
340
115
340
116
340
117
340
118
340
119
340
11A
340
11B
340
11C
340
11D
340
11E
340
11F
340
120
340
121
340
122
340
123
340
124
340
125
340
126
340
127
340
128
340
129
340
12A
340
12B
340
12C
340
12D
340
12E
340
12F
340
130
340
131
340
132
340
133
340
134
340
135
340
136
340
137
340
138
340
139
340
13A
340
13B
340
13C
340
13D
340
13E
340
13F
340
140
340
141
340
142
340
143
340
144
340
145
340
146
340
147
340
148
340
149
340
14A
340
14B
340
14C
340
14D
340
14E
340
14F
340
150
340
151
340
152
340
153
340
154
340
155
340
156
340
157
340
158
340
159
340
15A
340
15B
340
15C
340
15D
340
15E
340
15F
340
160
340
161
340
162
340
163
340
164
340
165
340
166
340
167
340
168
340
169
340
16A
340
16B
340
16C
340
16D
340
16E
340
16F
340
170
340
171
340
172
340
173
340
174
340
175
340
176
340
177
340
178
340
179
340
17A
340
17B
340
17C
340
17D
340
18C
340
196
340
1A1
340
1AB
340
1B4
340
1BE
0
MLINESTYLE
5
18
330
22e
100
AcDbMlineStyle
2
Standard
70
0
3

62
256
51
90
52
90
71
2
49
-0.5
62
256
6
ByLayer
49
0.5
62
256
6
ByLayer
0
RASTERVARIABLES
5
218
330

100
AcDbRasterVariables
90
0
70
1
71
1
72
1
0
ENDSEC
0
EOF
