0
SECTION
2
HEADER
9
$ACADVER
1
AC1015
9
$DWGCODEPAGE
3
ANSI_1252
9
$HANDSEED
5
27b
9
$ANGBASE
50
0
9
$ANGDIR
70
0
9
$ATTMODE
70
1
9
$AUNITS
70
0
9
$AUPREC
70
0
9
$CECOLOR
62
256
9
$CELTSCALE
40
1
9
$CELTYPE
6
ByLayer
9
$CELWEIGHT
370
18
9
$CLAYER
8
0
9
$CMLJUST
70
0
9
$CMLSCALE
40
1
9
$CMLSTYLE
2
Standard
9
$DIMSTYLE
2
Standard
9
$TEXTSIZE
40
0.2
9
$TEXTSTYLE
7
Standard
9
$LUNITS
70
2
9
$LUPREC
70
4
9
$EXTNAMES
290
1
9
$INSUNITS
70
4
9
$LTSCALE
40
1
9
$LWDISPLAY
290
1
9
$PDMODE
70
0
9
$PDSIZE
40
0
9
$PLINEGEN
70
0
0
ENDSEC
0
SECTION
2
CLASSES
0
CLASS
1
RASTERVARIABLES
2
AcDbRasterVariables
3
ISM
90
0
280
0
281
0
0
ENDSEC
0
SECTION
2
TABLES
0
TABLE
2
VPORT
5
271
100
AcDbSymbolTable
0
VPORT
5
1
100
AcDbSymbolTableRecord
100
AcDbViewportTableRecord
2
*Active
70
0
10
0
20
0
11
1
21
1
12
-1
22
1
13
0
23
0
14
0.5
24
0.5
15
10
25
10
16
0
26
0
36
1
17
0
27
0
37
0
0
ENDTAB
0
TABLE
2
LTYPE
5
272
100
AcDbSymbolTable
0
LTYPE
5
14
100
AcDbSymbolTableRecord
100
AcDbLinetypeTableRecord
70
0
2
ByBlock
3

72
65
73
0
40
0
0
LTYPE
5
15
100
AcDbSymbolTableRecord
100
AcDbLinetypeTableRecord
70
0
2
ByLayer
3

72
65
73
0
40
0
0
LTYPE
5
16
100
AcDbSymbolTableRecord
100
AcDbLinetypeTableRecord
70
0
2
CONTINUOUS
3
Solid line
72
65
73
0
40
0
0
LTYPE
5
6A
100
AcDbSymbolTableRecord
100
AcDbLinetypeTableRecord
70
0
2
CENTER
3
____ _ ____ _ ____ _ ____
72
65
73
4
40
47.5
49
22
74
0
49
-8.5
74
0
49
8.5
74
0
49
-8.5
74
0
0
LTYPE
5
6B
100
AcDbSymbolTableRecord
100
AcDbLinetypeTableRecord
70
0
2
DASHED
3
__ __ __ __ __ __ __ __ __
72
65
73
2
40
25.72
49
12.86
74
0
49
-12.86
74
0
0
ENDTAB
0
TABLE
2
LAYER
5
273
100
AcDbSymbolTable
0
LAYER
5
10
100
AcDbSymbolTableRecord
100
AcDbLayerTableRecord
2
0
70
0
62
7
6
CONTINUOUS
290
1
370
-3
390
0
0
LAYER
5
6D
100
AcDbSymbolTableRecord
100
AcDbLayerTableRecord
2
80
70
0
62
-6
6
CONTINUOUS
290
1
370
-3
390
0
0
LAYER
5
6F
100
AcDbSymbolTableRecord
100
AcDbLayerTableRecord
2
81
70
0
62
-3
6
CONTINUOUS
290
1
370
-3
390
0
0
LAYER
5
71
100
AcDbSymbolTableRecord
100
AcDbLayerTableRecord
2
4
70
0
62
-2
6
CENTER
290
1
370
-3
390
0
0
LAYER
5
77
100
AcDbSymbolTableRecord
100
AcDbLayerTableRecord
2
1
70
0
62
4
6
CONTINUOUS
290
1
370
-3
390
0
0
LAYER
5
1D2
100
AcDbSymbolTableRecord
100
AcDbLayerTableRecord
2
2
70
0
62
7
6
CONTINUOUS
290
1
370
-3
390
0
0
LAYER
5
25b
100
AcDbSymbolTableRecord
100
AcDbLayerTableRecord
2
SK4
70
0
62
2
6
CENTER
290
1
370
-3
390
0
0
LAYER
5
25c
100
AcDbSymbolTableRecord
100
AcDbLayerTableRecord
2
SK1
70
0
62
4
6
CONTINUOUS
290
1
370
-3
390
0
0
LAYER
5
25d
100
AcDbSymbolTableRecord
100
AcDbLayerTableRecord
2
SK6
70
0
62
5
6
CONTINUOUS
290
1
370
-3
390
0
0
LAYER
5
25e
100
AcDbSymbolTableRecord
100
AcDbLayerTableRecord
2
SK2
70
0
62
7
6
CONTINUOUS
290
1
370
-3
390
0
0
ENDTAB
0
TABLE
2
STYLE
5
274
100
AcDbSymbolTable
0
STYLE
5
11
100
AcDbSymbolTableRecord
100
AcDbTextStyleTableRecord
2
Standard
3
txt
70
0
71
0
40
0
41
1
42
0
50
0
0
STYLE
5
1CD
100
AcDbSymbolTableRecord
100
AcDbTextStyleTableRecord
2
iso_b_vert
3
simplex.shx
70
0
71
0
40
0
41
1
42
0
50
0
0
STYLE
5
1CE
100
AcDbSymbolTableRecord
100
AcDbTextStyleTableRecord
2
DWGDirectTextStyle
3
simplex
70
0
71
0
40
0
41
1
42
0
50
0
0
ENDTAB
0
TABLE
2
DIMSTYLE
5
275
100
AcDbSymbolTable
100
AcDbDimStyleTable
0
DIMSTYLE
105
27
100
AcDbSymbolTableRecord
100
AcDbDimStyleTableRecord
2
Standard
70
0
3
<>
41
0.18
42
0.0625
44
0.18
140
0.18
147
0.09
73
0
74
0
77
1
271
2
275
0
278
52
280
0
340
11
0
ENDTAB
0
TABLE
2
VIEW
5
276
100
AcDbSymbolTable
0
ENDTAB
0
TABLE
2
UCS
5
277
100
AcDbSymbolTable
0
ENDTAB
0
TABLE
2
APPID
5
278
100
AcDbSymbolTable
0
APPID
5
12
100
AcDbSymbolTableRecord
100
AcDbRegAppTableRecord
2
ACAD
70
0
0
ENDTAB
0
TABLE
2
BLOCK_RECORD
5
279
100
AcDbSymbolTable
0
BLOCK_RECORD
5
1F
100
AcDbSymbolTableRecord
100
AcDbBlockTableRecord
2
*Model_Space
340
0
70
0
0
BLOCK_RECORD
5
1B
100
AcDbSymbolTableRecord
100
AcDbBlockTableRecord
2
*Paper_Space
340
0
70
0
0
BLOCK_RECORD
5
23
100
AcDbSymbolTableRecord
100
AcDbBlockTableRecord
2
*Paper_Space0
340
0
70
0
0
BLOCK_RECORD
5
1D0
100
AcDbSymbolTableRecord
100
AcDbBlockTableRecord
2
DimnDraft3D1
340
0
70
0
0
BLOCK_RECORD
5
1DB
100
AcDbSymbolTableRecord
100
AcDbBlockTableRecord
2
DimnDraft3D2
340
0
70
0
0
BLOCK_RECORD
5
1E3
100
AcDbSymbolTableRecord
100
AcDbBlockTableRecord
2
DimnDraft3D3
340
0
70
0
0
BLOCK_RECORD
5
1ED
100
AcDbSymbolTableRecord
100
AcDbBlockTableRecord
2
DimnDraft3D4
340
0
70
0
0
ENDTAB
0
ENDSEC
0
SECTION
2
BLOCKS
0
BLOCK
5
20
100
AcDbEntity
8
0
100
AcDbBlockBegin
2
*Model_Space
70
0
10
0
20
0
30
0
3
*Model_Space
0
ENDBLK
5
21
100
AcDbEntity
8
0
100
AcDbBlockEnd
0
BLOCK
5
1C
100
AcDbEntity
8
0
100
AcDbBlockBegin
2
*Paper_Space
70
0
10
0
20
0
30
0
3
*Paper_Space
0
ENDBLK
5
1D
100
AcDbEntity
8
0
100
AcDbBlockEnd
0
BLOCK
5
24
100
AcDbEntity
8
0
100
AcDbBlockBegin
2
*Paper_Space0
70
0
10
0
20
0
30
0
3
*Paper_Space0
0
ENDBLK
5
25
100
AcDbEntity
8
0
100
AcDbBlockEnd
0
BLOCK
5
1D8
100
AcDbEntity
8
0
100
AcDbBlockBegin
2
DimnDraft3D1
70
0
10
0
20
0
30
0
3
DimnDraft3D1
0
MTEXT
5
1D1
100
AcDbEntity
8
2
62
256
6
ByLayer
370
18
48
1
60
0
100
AcDbMText
10
21.15
20
55.15542
30
0
210
0
220
0
230
1
1
\W0.7295;48.0
40
3
41
0
44
1.084337
50
0
71
7
72
5
7
iso_b_vert
0
LINE
5
1D3
100
AcDbEntity
8
2
62
256
6
ByLayer
370
13
48
1
60
0
100
AcDbLine
10
0
20
26.7
30
0
11
0
21
56.40542
31
0
39
0
210
0
220
0
230
1
0
LINE
5
1D4
100
AcDbEntity
8
2
62
256
6
ByLayer
370
13
48
1
60
0
100
AcDbLine
10
48
20
39.500184
30
0
11
48
21
56.40542
31
0
39
0
210
0
220
0
230
1
0
LINE
5
1D5
100
AcDbEntity
8
2
62
256
6
ByLayer
370
13
48
1
60
0
100
AcDbLine
10
0
20
54.40542
30
0
11
48
21
54.40542
31
0
39
0
210
0
220
0
230
1
0
SOLID
5
1D6
100
AcDbEntity
8
2
62
256
6
ByLayer
370
13
48
1
60
0
100
AcDbTrace
10
0
20
54.40542
30
0
11
3.174998
21
54.823416
31
0
12
3.175002
22
53.987423
32
0
13
0
23
54.40542
33
0
39
0
210
0
220
0
230
1
0
SOLID
5
1D7
100
AcDbEntity
8
2
62
256
6
ByLayer
370
13
48
1
60
0
100
AcDbTrace
10
48
20
54.40542
30
0
11
44.825002
21
53.987423
31
0
12
44.824998
22
54.823416
32
0
13
48
23
54.40542
33
0
39
0
210
0
220
0
230
1
0
ENDBLK
5
1D9
100
AcDbEntity
8
0
100
AcDbBlockEnd
0
BLOCK
5
1E0
100
AcDbEntity
8
0
100
AcDbBlockBegin
2
DimnDraft3D2
70
0
10
0
20
0
30
0
3
DimnDraft3D2
0
MTEXT
5
1DC
100
AcDbEntity
8
2
62
256
6
ByLayer
370
18
48
1
60
0
100
AcDbMText
10
78.538946
20
-1.300434
30
0
210
0
220
0
230
1
1
\W0.6981;Dc = 75.0 - 91.0
40
3
41
0
44
1.084337
50
90
71
7
72
5
7
iso_b_vert
0
LINE
5
1DD
100
AcDbEntity
8
2
62
256
6
ByLayer
370
13
48
1
60
0
100
AcDbLine
10
50
20
37.500184
30
0
11
81.288946
21
37.500184
31
0
39
0
210
0
220
0
230
1
0
LINE
5
1DE
100
AcDbEntity
8
2
62
256
6
ByLayer
370
13
48
1
60
0
100
AcDbLine
10
79.288946
20
37.500184
30
0
11
79.288946
21
-2.050434
31
0
39
0
210
0
220
0
230
1
0
SOLID
5
1DF
100
AcDbEntity
8
2
62
256
6
ByLayer
370
13
48
1
60
0
100
AcDbTrace
10
79.288946
20
37.500184
30
0
11
79.706943
21
34.325185
31
0
12
78.870949
22
34.325182
32
0
13
79.288946
23
37.500184
33
0
39
0
210
0
220
0
230
1
0
ENDBLK
5
1E1
100
AcDbEntity
8
0
100
AcDbBlockEnd
0
BLOCK
5
1EA
100
AcDbEntity
8
0
100
AcDbBlockBegin
2
DimnDraft3D3
70
0
10
0
20
0
30
0
3
DimnDraft3D3
0
MTEXT
5
1E4
100
AcDbEntity
8
2
62
256
6
ByLayer
370
18
48
1
60
0
100
AcDbMText
10
38.950583
20
43.783511
30
0
210
0
220
0
230
1
1
\W0.5899;90%%d
40
3
41
0
44
1.084337
50
45
71
7
72
5
7
iso_b_vert
0
LINE
5
1E5
100
AcDbEntity
8
2
62
256
6
ByLayer
370
13
48
1
60
0
100
AcDbLine
10
48
20
38.706434
30
0
11
48
21
49.592071
31
0
39
0
210
0
220
0
230
1
0
LINE
5
1E6
100
AcDbEntity
8
2
62
256
6
ByLayer
370
13
48
1
60
0
100
AcDbLine
10
46
20
37.500184
30
0
11
35.908113
21
37.500184
31
0
39
0
210
0
220
0
230
1
0
ARC
5
1E7
100
AcDbEntity
8
2
62
256
6
ByLayer
370
13
48
1
60
0
100
AcDbCircle
39
0
10
48
20
37.500184
30
0
40
10.0918874081447
210
0
220
0
230
1
100
AcDbArc
50
90
51
180
0
SOLID
5
1E8
100
AcDbEntity
8
2
62
256
6
ByLayer
370
13
48
1
60
0
100
AcDbTrace
10
48
20
47.592071
30
0
11
44.867234
21
46.927906
31
0
12
44.802079
22
47.761356
32
0
13
48
23
47.592071
33
0
39
0
210
0
220
0
230
1
0
SOLID
5
1E9
100
AcDbEntity
8
2
62
256
6
ByLayer
370
13
48
1
60
0
100
AcDbTrace
10
37.908113
20
37.500184
30
0
11
37.738827
21
40.698101
31
0
12
38.572278
22
40.632952
32
0
13
37.908113
23
37.500184
33
0
39
0
210
0
220
0
230
1
0
ENDBLK
5
1EB
100
AcDbEntity
8
0
100
AcDbBlockEnd
0
BLOCK
5
1F6
100
AcDbEntity
8
0
100
AcDbBlockBegin
2
DimnDraft3D4
70
0
10
0
20
0
30
0
3
DimnDraft3D4
0
MTEXT
5
1EE
100
AcDbEntity
8
SK2
62
256
6
ByLayer
370
18
48
1
60
0
100
AcDbMText
10
-42.787888
20
1.164474
30
0
210
0
220
0
230
1
1
\W0.6337;50
40
3
41
0
44
1.084337
50
90
71
7
72
5
7
iso_b_vert
0
MTEXT
5
1F0
100
AcDbEntity
8
SK2
62
256
6
ByLayer
370
18
48
1
60
0
100
AcDbMText
10
-42.787888
20
-3.248684
30
0
210
0
220
0
230
1
1
\W1.1719;%%c
40
3
41
0
44
1.084337
50
90
71
7
72
5
7
iso_b_vert
0
LINE
5
1F1
100
AcDbEntity
8
SK2
62
256
6
ByLayer
370
13
48
1
60
0
100
AcDbLine
10
-1.7
20
25
30
0
11
-44.037888
21
25
31
0
39
0
210
0
220
0
230
1
0
LINE
5
1F2
100
AcDbEntity
8
SK2
62
256
6
ByLayer
370
13
48
1
60
0
100
AcDbLine
10
-1.7
20
-25
30
0
11
-44.037888
21
-25
31
0
39
0
210
0
220
0
230
1
0
LINE
5
1F3
100
AcDbEntity
8
SK2
62
256
6
ByLayer
370
13
48
1
60
0
100
AcDbLine
10
-42.037888
20
25
30
0
11
-42.037888
21
-25
31
0
39
0
210
0
220
0
230
1
0
SOLID
5
1F4
100
AcDbEntity
8
SK2
62
256
6
ByLayer
370
13
48
1
60
0
100
AcDbTrace
10
-42.037888
20
25
30
0
11
-41.619891
21
21.825002
31
0
12
-42.455885
22
21.824998
32
0
13
-42.037888
23
25
33
0
39
0
210
0
220
0
230
1
0
SOLID
5
1F5
100
AcDbEntity
8
SK2
62
256
6
ByLayer
370
13
48
1
60
0
100
AcDbTrace
10
-42.037888
20
-25
30
0
11
-42.455885
21
-21.825002
31
0
12
-41.619891
22
-21.824998
32
0
13
-42.037888
23
-25
33
0
39
0
210
0
220
0
230
1
0
ENDBLK
5
1F7
100
AcDbEntity
8
0
100
AcDbBlockEnd
0
ENDSEC
0
SECTION
2
ENTITIES
0
ARC
5
111
100
AcDbEntity
8
SK1
62
256
6
ByLayer
370
18
48
1
60
0
100
AcDbCircle
39
0
10
0.6
20
-18.75
30
0
40
1.00000000000001
210
0
220
0
230
-1
100
AcDbArc
50
113.578178
51
126.870857
0
ARC
5
112
100
AcDbEntity
8
SK1
62
256
6
ByLayer
370
18
48
1
60
0
100
AcDbCircle
39
0
10
0.6
20
18.75
30
0
40
1.00000000000001
210
0
220
0
230
-1
100
AcDbArc
50
233.129143
51
246.421822
0
ARC
5
113
100
AcDbEntity
8
1
62
256
6
ByLayer
370
18
48
1
60
0
100
AcDbCircle
39
0
10
-33.7
20
20.4
30
0
40
0.999999999999997
210
0
220
0
230
-1
100
AcDbArc
50
197.746506
51
167.253494
0
ARC
5
115
100
AcDbEntity
8
1
62
256
6
ByLayer
370
18
48
1
60
0
100
AcDbCircle
39
0
10
-32.736482
20
22.845636
30
0
40
9.99999999852626
210
0
220
0
230
-1
100
AcDbArc
50
280
51
286.91685
0
ARC
5
117
100
AcDbEntity
8
1
62
256
6
ByLayer
370
18
48
1
60
0
100
AcDbCircle
39
0
10
33.7
20
-20.4
30
0
40
0.7
210
0
220
0
230
1
100
AcDbArc
50
5
51
0
0
ARC
5
118
100
AcDbEntity
8
1
62
256
6
ByLayer
370
18
48
1
60
0
100
AcDbCircle
39
0
10
33.7
20
-20.4
30
0
40
0.850000000000001
210
0
220
0
230
1
100
AcDbArc
50
8.304234
51
356.695766
0
ARC
5
119
100
AcDbEntity
8
1
62
256
6
ByLayer
370
18
48
1
60
0
100
AcDbCircle
39
0
10
-33.7
20
20.4
30
0
40
0.7
210
0
220
0
230
-1
100
AcDbArc
50
185
51
180
0
ARC
5
11A
100
AcDbEntity
8
1
62
256
6
ByLayer
370
18
48
1
60
0
100
AcDbCircle
39
0
10
33.7
20
20.4
30
0
40
0.85
210
0
220
0
230
1
100
AcDbArc
50
3.304234
51
351.695766
0
ARC
5
11B
100
AcDbEntity
8
1
62
256
6
ByLayer
370
18
48
1
60
0
100
AcDbCircle
39
0
10
-54.35
20
30.084753
30
0
40
1.2903
210
0
220
0
230
-1
100
AcDbArc
50
110
51
170
0
ARC
5
11C
100
AcDbEntity
8
1
62
256
6
ByLayer
370
18
48
1
60
0
100
AcDbCircle
39
0
10
-54.35
20
30.084753
30
0
40
1.6764
210
0
220
0
230
-1
100
AcDbArc
50
20
51
80
0
ARC
5
11D
100
AcDbEntity
8
1
62
256
6
ByLayer
370
18
48
1
60
0
100
AcDbCircle
39
0
10
-54.35
20
30.084753
30
0
40
1.6764
210
0
220
0
230
-1
100
AcDbArc
50
260
51
320
0
ARC
5
11F
100
AcDbEntity
8
1
62
256
6
ByLayer
370
18
48
1
60
0
100
AcDbCircle
39
0
10
-54.35
20
30.084753
30
0
40
1.6764
210
0
220
0
230
-1
100
AcDbArc
50
140
51
200
0
ARC
5
120
100
AcDbEntity
8
1
62
256
6
ByLayer
370
18
48
1
60
0
100
AcDbCircle
39
0
10
-54.35
20
30.084753
30
0
40
1.6764
210
0
220
0
230
-1
100
AcDbArc
50
200
51
260
0
ARC
5
121
100
AcDbEntity
8
1
62
256
6
ByLayer
370
18
48
1
60
0
100
AcDbCircle
39
0
10
54.35
20
30.084753
30
0
40
1.2903
210
0
220
0
230
1
100
AcDbArc
50
130
51
190
0
ARC
5
122
100
AcDbEntity
8
1
62
256
6
ByLayer
370
18
48
1
60
0
100
AcDbCircle
39
0
10
-54.35
20
30.084753
30
0
40
1.2903
210
0
220
0
230
-1
100
AcDbArc
50
50
51
110
0
ARC
5
123
100
AcDbEntity
8
1
62
256
6
ByLayer
370
18
48
1
60
0
100
AcDbCircle
39
0
10
-54.35
20
30.084753
30
0
40
1.2903
210
0
220
0
230
-1
100
AcDbArc
50
170
51
230
0
ARC
5
124
100
AcDbEntity
8
1
62
256
6
ByLayer
370
18
48
1
60
0
100
AcDbCircle
39
0
10
-54.35
20
30.084753
30
0
40
1.2903
210
0
220
0
230
-1
100
AcDbArc
50
230
51
290
0
ARC
5
126
100
AcDbEntity
8
1
62
256
6
ByLayer
370
18
48
1
60
0
100
AcDbCircle
39
0
10
-54.35
20
30.084753
30
0
40
1.6764
210
0
220
0
230
-1
100
AcDbArc
50
80
51
140
0
ARC
5
127
100
AcDbEntity
8
1
62
256
6
ByLayer
370
18
48
1
60
0
100
AcDbCircle
39
0
10
-54.35
20
30.084753
30
0
40
1.6764
210
0
220
0
230
-1
100
AcDbArc
50
320
51
20
0
ARC
5
128
100
AcDbEntity
8
1
62
256
6
ByLayer
370
18
48
1
60
0
100
AcDbCircle
39
0
10
-54.35
20
30.084753
30
0
40
1.2903
210
0
220
0
230
-1
100
AcDbArc
50
290
51
350
0
ARC
5
129
100
AcDbEntity
8
1
62
256
6
ByLayer
370
18
48
1
60
0
100
AcDbCircle
39
0
10
60.728118
20
23.654514
30
0
40
1.525
210
0
220
0
230
1
100
AcDbArc
50
217.538307
51
27.968379
0
ARC
5
12A
100
AcDbEntity
8
1
62
256
6
ByLayer
370
18
48
1
60
0
100
AcDbCircle
39
0
10
-68.548632
20
3.000184
30
0
40
11.548632170413
210
0
220
0
230
-1
100
AcDbArc
50
360
51
9.767009
0
ARC
5
12B
100
AcDbEntity
8
1
62
256
6
ByLayer
370
18
48
1
60
0
100
AcDbCircle
39
0
10
-68.548632
20
3.000184
30
0
40
11.5486321704478
210
0
220
0
230
-1
100
AcDbArc
50
12.86812
51
35.872478
0
ARC
5
12C
100
AcDbEntity
8
1
62
256
6
ByLayer
370
18
48
1
60
0
100
AcDbCircle
39
0
10
60.46402
20
24.360037
30
0
40
1.71101719810624
210
0
220
0
230
1
100
AcDbArc
50
1.165319
51
80
0
ARC
5
12D
100
AcDbEntity
8
1
62
256
6
ByLayer
370
18
48
1
60
0
100
AcDbCircle
39
0
10
60.46402
20
24.360037
30
0
40
1.61101719810626
210
0
220
0
230
1
100
AcDbArc
50
0.344199
51
80
0
ARC
5
12E
100
AcDbEntity
8
1
62
256
6
ByLayer
370
18
48
1
60
0
100
AcDbCircle
39
0
10
-60.728118
20
23.654514
30
0
40
1.625
210
0
220
0
230
-1
100
AcDbArc
50
152.897631
51
326.185243
0
ARC
5
12F
100
AcDbEntity
8
1
62
256
6
ByLayer
370
13
48
1
60
0
100
AcDbCircle
39
0
10
48.79375
20
25.422505
30
0
40
0.79375
210
0
220
0
230
1
100
AcDbArc
50
180
51
260
0
ARC
5
131
100
AcDbEntity
8
1
62
256
6
ByLayer
370
13
48
1
60
0
100
AcDbCircle
39
0
10
59.90625
20
34.747
30
0
40
0.79375
210
0
220
0
230
1
100
AcDbArc
50
0
51
80
0
ARC
5
134
100
AcDbEntity
8
1
62
256
6
ByLayer
370
13
48
1
60
0
100
AcDbCircle
39
0
10
48.79375
20
36.706434
30
0
40
0.79375
210
0
220
0
230
1
100
AcDbArc
50
80
51
180
0
ARC
5
135
100
AcDbEntity
8
1
62
256
6
ByLayer
370
13
48
1
60
0
100
AcDbCircle
39
0
10
59.90625
20
23.463072
30
0
40
0.79375
210
0
220
0
230
1
100
AcDbArc
50
260
51
0
0
CIRCLE
5
114
100
AcDbEntity
8
1
62
256
6
ByLayer
370
18
48
1
60
0
100
AcDbCircle
10
33.7
20
20.4
30
0
40
0.999999999999997
39
0
210
0
220
0
230
1
0
CIRCLE
5
116
100
AcDbEntity
8
1
62
256
6
ByLayer
370
18
48
1
60
0
100
AcDbCircle
10
33.7
20
-20.4
30
0
40
0.999999999999997
39
0
210
0
220
0
230
1
0
CIRCLE
5
11E
100
AcDbEntity
8
1
62
256
6
ByLayer
370
18
48
1
60
0
100
AcDbCircle
10
54.35
20
30.084753
30
0
40
2.4
39
0
210
0
220
0
230
1
0
CIRCLE
5
125
100
AcDbEntity
8
1
62
256
6
ByLayer
370
18
48
1
60
0
100
AcDbCircle
10
54.35
20
30.084753
30
0
40
3.425
39
0
210
0
220
0
230
1
0
CIRCLE
5
130
100
AcDbEntity
8
1
62
256
6
ByLayer
370
13
48
1
60
0
100
AcDbCircle
10
54.35
20
30.084753
30
0
40
4.07132534818238
39
0
210
0
220
0
230
1
0
CIRCLE
5
132
100
AcDbEntity
8
1
62
256
6
ByLayer
370
13
48
1
60
0
100
AcDbCircle
10
-54.35
20
30.084753
30
0
40
4.01313034290072
39
0
210
0
220
0
230
-1
0
CIRCLE
5
133
100
AcDbEntity
8
1
62
256
6
ByLayer
370
13
48
1
60
0
100
AcDbCircle
10
54.35
20
30.084753
30
0
40
3.8738651713511
39
0
210
0
220
0
230
1
0
ELLIPSE
5
136
100
AcDbEntity
8
1
62
256
6
ByLayer
370
18
48
1
60
0
100
AcDbEllipse
10
47.7
20
-7.222711
30
0
11
-9.79685083135107E-16
21
16.0000000012609
31
0
210
0
220
0
230
-1
40
0.139651
41
-2.97454858263356
42
-2.81337024810381
0
ELLIPSE
5
137
100
AcDbEntity
8
1
62
256
6
ByLayer
370
18
48
1
60
0
100
AcDbEllipse
10
47.7
20
-7.222711
30
0
11
-9.79685082941491E-16
21
15.9999999980988
31
0
210
0
220
0
230
-1
40
0.139651
41
-2.08232994316347
42
-1.92621752851
0
ELLIPSE
5
138
100
AcDbEntity
8
1
62
256
6
ByLayer
370
18
48
1
60
0
100
AcDbEllipse
10
47.7
20
-7.222711
30
0
11
-9.79685083135107E-16
21
16.0000000012609
31
0
210
0
220
0
230
-1
40
0.139651
41
-2.97454858263356
42
-2.81337024810381
0
ELLIPSE
5
139
100
AcDbEntity
8
1
62
256
6
ByLayer
370
18
48
1
60
0
100
AcDbEllipse
10
47.7
20
-7.222711
30
0
11
-9.79685082941491E-16
21
15.9999999980988
31
0
210
0
220
0
230
-1
40
0.139651
41
-2.08232994316347
42
-1.92621752851
0
ELLIPSE
5
13A
100
AcDbEntity
8
1
62
256
6
ByLayer
370
18
48
1
60
0
100
AcDbEllipse
10
47.7
20
-7.222711
30
0
11
-9.79685083135107E-16
21
16.0000000012609
31
0
210
0
220
0
230
-1
40
0.139651
41
-2.97454858263356
42
-2.81337024810381
0
ELLIPSE
5
13B
100
AcDbEntity
8
1
62
256
6
ByLayer
370
18
48
1
60
0
100
AcDbEllipse
10
47.7
20
-7.222711
30
0
11
-9.79685082941491E-16
21
15.9999999980988
31
0
210
0
220
0
230
-1
40
0.139651
41
-2.08232994316347
42
-1.92621752851
0
ELLIPSE
5
13C
100
AcDbEntity
8
1
62
256
6
ByLayer
370
18
48
1
60
0
100
AcDbEllipse
10
47.7
20
-7.222711
30
0
11
-9.79685083135107E-16
21
16.0000000012609
31
0
210
0
220
0
230
-1
40
0.139651
41
-2.97454858263356
42
-2.81337024810381
0
ELLIPSE
5
13D
100
AcDbEntity
8
1
62
256
6
ByLayer
370
18
48
1
60
0
100
AcDbEllipse
10
47.7
20
-7.222711
30
0
11
-9.79685082941491E-16
21
15.9999999980988
31
0
210
0
220
0
230
-1
40
0.139651
41
-2.08232994316347
42
-1.92621752851
0
ELLIPSE
5
13E
100
AcDbEntity
8
1
62
256
6
ByLayer
370
18
48
1
60
0
100
AcDbEllipse
10
-1.056258
20
0
30
0
11
11.709272349726
21
24.6771864409358
31
0
210
0
220
0
230
-1
40
0.341999
41
0.167213071908987
42
1.08183270048933
0
ELLIPSE
5
13F
100
AcDbEntity
8
1
62
256
6
ByLayer
370
18
48
1
60
0
100
AcDbEllipse
10
48.538849
20
0
30
0
11
-1.53075794227795E-15
21
24.9999999999997
31
0
210
0
220
0
230
-1
40
0.139651
41
-2.21705113940265
42
-2.14381162277057
0
ELLIPSE
5
140
100
AcDbEntity
8
1
62
256
6
ByLayer
370
18
48
1
60
0
100
AcDbEllipse
10
48.538849
20
0
30
0
11
-1.53075794227795E-15
21
24.9999999999997
31
0
210
0
220
0
230
-1
40
0.139651
41
-2.7388768120092
42
-2.67864509732812
0
ELLIPSE
5
141
100
AcDbEntity
8
1
62
256
6
ByLayer
370
18
48
1
60
0
100
AcDbEllipse
10
153.675594
20
0
30
0
11
128.613850400212
21
1.29982180238975E-13
31
0
210
0
220
0
230
-1
40
0.19438
41
2.56857735761594
42
2.81162735117368
0
ELLIPSE
5
142
100
AcDbEntity
8
1
62
256
6
ByLayer
370
18
48
1
60
0
100
AcDbEllipse
10
153.676057
20
-3.1E-05
30
0
11
128.614313565846
21
-3.08461798190395E-05
31
0
210
0
220
0
230
-1
40
0.19438
41
-2.81162797889794
42
-2.80530949815251
0
ELLIPSE
5
143
100
AcDbEntity
8
1
62
256
6
ByLayer
370
18
48
1
60
0
100
AcDbEllipse
10
21.056258
20
0
30
0
11
11.7092723497278
21
24.6771864409381
31
0
210
0
220
0
230
-1
40
0.341999
41
-2.97437958168082
42
-2.05975995310054
0
ELLIPSE
5
144
100
AcDbEntity
8
1
62
256
6
ByLayer
370
18
48
1
60
0
100
AcDbEllipse
10
-1.056258
20
0
30
0
11
11.7092723497265
21
-24.6771864409365
31
0
210
0
220
0
230
-1
40
0.341999
41
-1.08183270048931
42
-0.167213071908985
0
ELLIPSE
5
145
100
AcDbEntity
8
1
62
256
6
ByLayer
370
18
48
1
60
0
100
AcDbEllipse
10
21.056258
20
0
30
0
11
11.7092723497275
21
-24.6771864409378
31
0
210
0
220
0
230
-1
40
0.341999
41
2.05975995310053
42
2.97437958168082
0
ELLIPSE
5
146
100
AcDbEntity
8
1
62
256
6
ByLayer
370
18
48
1
60
0
100
AcDbEllipse
10
118.12294
20
-0.00026
30
0
11
95.3269257751584
21
-18.3011616602132
31
0
210
0
220
0
230
-1
40
0.178669
41
2.6565789263263
42
2.66301718932758
0
ELLIPSE
5
147
100
AcDbEntity
8
1
62
256
6
ByLayer
370
18
48
1
60
0
100
AcDbEllipse
10
62.81256
20
-6.25
30
0
11
-1.19399119497682E-15
21
-6.5
31
0
210
0
220
0
230
1
40
0.104528
41
0
42
-3.14159256297536
0
ELLIPSE
5
148
100
AcDbEntity
8
1
62
256
6
ByLayer
370
18
48
1
60
0
100
AcDbEllipse
10
63.608177
20
-6.25
30
0
11
-9.16641437233301E-16
21
5.7
31
0
210
0
220
0
230
1
40
0.104528
41
-2.74967908774021
42
-0.485866866092482
0
ELLIPSE
5
149
100
AcDbEntity
8
1
62
256
6
ByLayer
370
18
48
1
60
0
100
AcDbEllipse
10
63.908177
20
6.25
30
0
11
-5.64504725906145E-16
21
3.51028963667292
31
0
210
0
220
0
230
1
40
0.104528
41
-0.236788826969437
42
0.810408724227162
0
ELLIPSE
5
14A
100
AcDbEntity
8
1
62
256
6
ByLayer
370
18
48
1
60
0
100
AcDbEllipse
10
63.908177
20
6.25
30
0
11
-5.64504725906145E-16
21
3.51028963667292
31
0
210
0
220
0
230
1
40
0.104528
41
2.90480382662036
42
-2.33118392936264
0
ELLIPSE
5
14B
100
AcDbEntity
8
1
62
256
6
ByLayer
370
18
48
1
60
0
100
AcDbEllipse
10
63.908177
20
6.25
30
0
11
-5.64504725906145E-16
21
3.51028963667292
31
0
210
0
220
0
230
1
40
0.104528
41
-2.33118392936264
42
-1.28398637816603
0
ELLIPSE
5
14C
100
AcDbEntity
8
1
62
256
6
ByLayer
370
18
48
1
60
0
100
AcDbEllipse
10
63.908177
20
6.25
30
0
11
-5.64504725906145E-16
21
3.51028963667292
31
0
210
0
220
0
230
1
40
0.104528
41
0.810408724227162
42
1.85760627542377
0
ELLIPSE
5
14D
100
AcDbEntity
8
1
62
256
6
ByLayer
370
18
48
1
60
0
100
AcDbEllipse
10
63.908177
20
6.25
30
0
11
-9.16641437233301E-16
21
5.7
31
0
210
0
220
0
230
1
40
0.104528
41
0
42
6.28318530717959
0
ELLIPSE
5
14E
100
AcDbEntity
8
1
62
256
6
ByLayer
370
18
48
1
60
0
100
AcDbEllipse
10
63.908177
20
6.25
30
0
11
-5.64504725906145E-16
21
3.51028963667292
31
0
210
0
220
0
230
1
40
0.104528
41
1.85760627542377
42
2.90480382662036
0
ELLIPSE
5
14F
100
AcDbEntity
8
1
62
256
6
ByLayer
370
18
48
1
60
0
100
AcDbEllipse
10
63.908177
20
6.25
30
0
11
-5.64504725906145E-16
21
3.51028963667292
31
0
210
0
220
0
230
1
40
0.104528
41
-1.28398637816603
42
-0.236788826969437
0
ELLIPSE
5
150
100
AcDbEntity
8
1
62
256
6
ByLayer
370
18
48
1
60
0
100
AcDbEllipse
10
63.11256
20
6.25
30
0
11
-1.19399119497682E-15
21
-6.5
31
0
210
0
220
0
230
1
40
0.104528
41
3.13874495684252
42
-0.358239737604696
0
ELLIPSE
5
151
100
AcDbEntity
8
1
62
256
6
ByLayer
370
18
48
1
60
0
100
AcDbEllipse
10
47.7
20
-7.222711
30
0
11
-9.79685083057804E-16
21
15.9999999999984
31
0
210
0
220
0
230
-1
40
0.141431
41
-3.04486743078736
42
-2.08233912984014
0
ELLIPSE
5
152
100
AcDbEntity
8
1
62
256
6
ByLayer
370
18
48
1
60
0
100
AcDbEllipse
10
54.572319
20
-7.222711
30
0
11
-9.79685082776414E-16
21
15.9999999954028
31
0
210
0
220
0
230
-1
40
0.105104
41
1.92621752853286
42
2.13087163313618
0
ELLIPSE
5
153
100
AcDbEntity
8
1
62
256
6
ByLayer
370
18
48
1
60
0
100
AcDbEllipse
10
48.848547
20
-7.222533
30
0
11
6.59529783057353E-05
21
16.0001784898299
31
0
210
0
220
0
230
-1
40
0.88472
41
-3.05632973786113
42
-3.04487161656695
0
ELLIPSE
5
154
100
AcDbEntity
8
1
62
256
6
ByLayer
370
18
48
1
60
0
100
AcDbEllipse
10
55.831016
20
-6.25
30
0
11
-1.46952762458685E-15
21
-8
31
0
210
0
220
0
230
1
40
0.104528
41
0.333794367230168
42
2.75174081771137
0
ELLIPSE
5
155
100
AcDbEntity
8
1
62
256
6
ByLayer
370
18
48
1
60
0
100
AcDbEllipse
10
63.893686
20
19.948321
30
0
11
0.18719970206135
21
-0.808058681384893
31
0
210
0
220
0
230
-1
40
0.737986
41
-1.26662162458107
42
-0.219424073384744
0
ELLIPSE
5
156
100
AcDbEntity
8
1
62
256
6
ByLayer
370
18
48
1
60
0
100
AcDbEllipse
10
50.510754
20
20.312009
30
0
11
1.66439109572232
21
-0.703217355441503
31
0
210
0
220
0
230
-1
40
0.540566
41
0
42
6.28318530717959
0
ELLIPSE
5
157
100
AcDbEntity
8
1
62
256
6
ByLayer
370
18
48
1
60
0
100
AcDbEllipse
10
61.14942
20
11.299577
30
0
11
-1.2246063538392E-16
21
2.00000000002747
31
0
210
0
220
0
230
-1
40
0.781286
41
-2.00460348006728
42
-1.5707963267949
0
ELLIPSE
5
158
100
AcDbEntity
8
1
62
256
6
ByLayer
370
18
48
1
60
0
100
AcDbEllipse
10
54.452639
20
19.449869
30
0
11
1.86886421091252
21
-0.819295075838337
31
0
210
0
220
0
230
-1
40
0.454703
41
0
42
6.28318530717959
0
POINT
5
6C
100
AcDbEntity
8
80
62
256
6
ByLayer
370
13
48
1
60
0
100
AcDbPoint
10
0
20
0
30
0
39
0
210
0
220
0
230
1
50
360
0
POINT
5
6E
100
AcDbEntity
8
81
62
256
6
ByLayer
370
18
48
1
60
0
100
AcDbPoint
10
48
20
37.500184
30
0
39
0
210
0
220
0
230
1
50
360
0
SPLINE
5
159
100
AcDbEntity
8
SK1
62
256
6
ByLayer
370
18
48
1
60
0
100
AcDbSpline
70
4
71
3
72
13
73
9
40
0
40
0
40
0
40
0
40
0.239456135732699
40
0.368359721896259
40
0.499998983985049
40
0.631638415255947
40
0.760542467762324
40
1
40
1
40
1
40
1
41
1
10
-2.19999999999999
20
-17.520098551796
30
0
41
1
10
-2.19909198642199
20
-17.4940410756899
30
0
41
1
10
-2.19103284106866
20
-17.4566684913668
30
0
41
1
10
-2.16563592203269
20
-17.4104493175481
30
0
41
1
10
-2.13886378679187
20
-17.3791677636996
30
0
41
1
10
-2.10627712749813
20
-17.3540003935064
30
0
41
1
10
-2.05884064234175
20
-17.3309565910454
30
0
41
1
10
-2.02111030873064
20
-17.3247843360228
30
0
41
1
10
-1.99503997793928
20
-17.3251859759625
30
0
0
SPLINE
5
15A
100
AcDbEntity
8
SK1
62
256
6
ByLayer
370
18
48
1
60
0
100
AcDbSpline
70
4
71
3
72
13
73
9
40
0
40
0
40
0
40
0
40
0.23945753228309
40
0.368361584805051
40
0.500001016081932
40
0.631640278165591
40
0.76054386431401
40
1
40
1
40
1
40
1
41
1
10
-1.9950399779393
20
17.3251861589553
30
0
41
1
10
-2.02111030872967
20
17.3247845190151
30
0
41
1
10
-2.0588406423399
20
17.3309567740351
30
0
41
1
10
-2.10627712749677
20
17.3540005764862
30
0
41
1
10
-2.13886378679061
20
17.3791679466685
30
0
41
1
10
-2.16563592203174
20
17.4104495005039
30
0
41
1
10
-2.19103284106794
20
17.4566686743028
30
0
41
1
10
-2.19909198642127
20
17.4940412586115
30
0
41
1
10
-2.2
20
17.5200987347078
30
0
0
SPLINE
5
15B
100
AcDbEntity
8
SK1
62
256
6
ByLayer
370
18
48
1
60
0
100
AcDbSpline
70
4
71
2
72
6
73
3
40
0
40
0
40
0
40
1
40
1
40
1
41
1
10
-28.5
20
-16.8542724489282
30
0
41
1
10
-15.3499999999286
20
-17.1845422635703
30
0
41
1
10
-2.19999999999999
20
-17.5148116792767
30
0
0
SPLINE
5
15C
100
AcDbEntity
8
SK1
62
256
6
ByLayer
370
18
48
1
60
0
100
AcDbSpline
70
4
71
2
72
6
73
3
40
0
40
0
40
0
40
1
40
1
40
1
41
1
10
-2.2
20
17.5148117187522
30
0
41
1
10
-15.3499999999294
20
17.1845422725478
30
0
41
1
10
-28.5
20
16.854272429841
30
0
0
SPLINE
5
15D
100
AcDbEntity
8
SK1
62
256
6
ByLayer
370
18
48
1
60
0
100
AcDbSpline
70
4
71
2
72
6
73
3
40
0
40
0
40
0
40
1
40
1
40
1
41
1
10
-1.99503997793928
20
-17.3199593099743
30
0
41
1
10
-1.19500843340704
20
-17.340052552406
30
0
41
1
10
-0.394976888875291
20
-17.3601457933935
30
0
0
SPLINE
5
15E
100
AcDbEntity
8
SK1
62
256
6
ByLayer
370
18
48
1
60
0
100
AcDbSpline
70
4
71
2
72
6
73
3
40
0
40
0
40
0
40
1
40
1
40
1
41
1
10
-0.394976888875291
20
17.3601458189993
30
0
41
1
10
-1.19500843340704
20
17.3400525762132
30
0
41
1
10
-1.9950399779393
20
17.3199593319919
30
0
0
SPLINE
5
15F
100
AcDbEntity
8
SK1
62
256
6
ByLayer
370
18
48
1
60
0
100
AcDbSpline
70
4
71
2
72
6
73
3
40
0
40
0
40
0
40
1
40
1
40
1
41
1
10
-30
20
-15.9924794145163
30
0
41
1
10
-29.2499999991495
20
-16.4254650261934
30
0
41
1
10
-28.5
20
-16.8584504491482
30
0
0
SPLINE
5
160
100
AcDbEntity
8
SK1
62
256
6
ByLayer
370
18
48
1
60
0
100
AcDbSpline
70
4
71
2
72
6
73
3
40
0
40
0
40
0
40
1
40
1
40
1
41
1
10
-28.5
20
16.8584505716142
30
0
41
1
10
-29.2499999991496
20
16.4254651505507
30
0
41
1
10
-30
20
15.99247954079
30
0
0
SPLINE
5
161
100
AcDbEntity
8
SK1
62
256
6
ByLayer
370
18
48
1
60
0
100
AcDbSpline
70
4
71
2
72
6
73
3
40
0
40
0
40
0
40
1
40
1
40
1
41
1
10
-0.394976888875291
20
-17.3596967958969
30
0
41
1
10
-0.305277226309712
20
-17.3671842624703
30
0
41
1
10
-0.258658740615658
20
-17.4310145299902
30
0
0
SPLINE
5
162
100
AcDbEntity
8
SK1
62
256
6
ByLayer
370
18
48
1
60
0
100
AcDbSpline
70
4
71
2
72
6
73
3
40
0
40
0
40
0
40
1
40
1
40
1
41
1
10
-0.258442643302431
20
17.4312381196178
30
0
41
1
10
-0.305123774552598
20
17.3672404580573
30
0
41
1
10
-0.394976888875291
20
17.3596982935393
30
0
0
SPLINE
5
163
100
AcDbEntity
8
SK1
62
256
6
ByLayer
370
18
48
1
60
0
100
AcDbSpline
70
4
71
3
72
103
73
99
40
0
40
0
40
0
40
0
40
0.0079700778397191
40
0.0168024510092201
40
0.0256348241787211
40
0.0344671973482222
40
0.0432995705177232
40
0.0521319436872242
40
0.0609643168567253
40
0.0697966900262263
40
0.0786290631957273
40
0.0874614363652284
40
0.105126182704231
40
0.113958555873732
40
0.122790929043232
40
0.131623302212734
40
0.140455675382235
40
0.158120421721237
40
0.166952794890738
40
0.175785168060239
40
0.193449914399241
40
0.202282287568742
40
0.211114660738243
40
0.228779407077245
40
0.237611780246746
40
0.246444153416247
40
0.255276526585748
40
0.264108899755249
40
0.27294127292475
40
0.281773646094251
40
0.290606019263752
40
0.299438392433253
40
0.317103138772255
40
0.325935511941756
40
0.334767885111257
40
0.343600258280758
40
0.352432631450259
40
0.370097377789261
40
0.378929750958763
40
0.383345937543513
40
0.387762124128264
40
0.396594497297765
40
0.405426870467266
40
0.423091616806268
40
0.431923989975769
40
0.44075636314527
40
0.449588736314771
40
0.458421109484272
40
0.476085855823274
40
0.484918228992775
40
0.493750602162276
40
0.502582975331777
40
0.511415348501278
40
0.52908009484028
40
0.537912468009781
40
0.546744841179282
40
0.555577214348783
40
0.564409587518284
40
0.582074333857286
40
0.590906707026787
40
0.599739080196288
40
0.608571453365789
40
0.617403826535291
40
0.635068572874293
40
0.643900946043794
40
0.652733319213295
40
0.670398065552297
40
0.688062811891299
40
0.6968951850608
40
0.705727558230301
40
0.723392304569303
40
0.732224677738804
40
0.741057050908305
40
0.749889424077806
40
0.758721797247307
40
0.767554170416808
40
0.776386543586309
40
0.794051289925311
40
0.811716036264313
40
0.820548409433814
40
0.829380782603315
40
0.838213155772816
40
0.847045528942317
40
0.855877902111818
40
0.864710275281319
40
0.882375021620322
40
0.900039767959324
40
0.917704514298326
40
0.926536887467827
40
0.935369260637328
40
0.944201633806829
40
0.95303400697633
40
0.961866380145831
40
0.970698753315332
40
0.979531126484833
40
0.988363499654334
40
0.997195872823835
40
1
40
1
40
1
40
1
41
1
10
-0.394976888875306
20
-17.3601928955998
30
0
41
1
10
-0.394976888875291
20
-17.3586442947252
30
0
41
1
10
-0.394976888875306
20
-17.3546578463237
30
0
41
1
10
-0.394976888875291
20
-17.3462909802274
30
0
41
1
10
-0.394976888875291
20
-17.3352007360526
30
0
41
1
10
-0.394976888875291
20
-17.3217086355548
30
0
41
1
10
-0.394976888875291
20
-17.3058521626298
30
0
41
1
10
-0.394976888875291
20
-17.2876678382251
30
0
41
1
10
-0.394976888875291
20
-17.2671905287463
30
0
41
1
10
-0.394976888875291
20
-17.2444531170066
30
0
41
1
10
-0.394976888875291
20
-17.2194882612007
30
0
41
1
10
-0.394976888875291
20
-17.1832568369982
30
0
41
1
10
-0.394976888875291
20
-17.1427382787905
30
0
41
1
10
-0.394976888875291
20
-17.0979462837243
30
0
41
1
10
-0.394976888875291
20
-17.0622798511847
30
0
41
1
10
-0.394976888875291
20
-17.024552403858
30
0
41
1
10
-0.394976888875291
20
-16.9715145305624
30
0
41
1
10
-0.394976888875291
20
-16.9145141001581
30
0
41
1
10
-0.394976888875291
20
-16.8535135500206
30
0
41
1
10
-0.394976888875291
20
-16.7899145981056
30
0
41
1
10
-0.394976888875291
20
-16.7225357579898
30
0
41
1
10
-0.394976888875291
20
-16.6513062771914
30
0
41
1
10
-0.394976888875291
20
-16.5775834628441
30
0
41
1
10
-0.394976888875291
20
-16.5002370830775
30
0
41
1
10
-0.394976888875291
20
-16.4191737297992
30
0
41
1
10
-0.394976888875291
20
-16.3565947902754
30
0
41
1
10
-0.394976888875291
20
-16.2922298358683
30
0
41
1
10
-0.394976888875291
20
-16.2260943811825
30
0
41
1
10
-0.394976888875291
20
-16.1582019472912
30
0
41
1
10
-0.394976888875291
20
-16.0885678110445
30
0
41
1
10
-0.394976888875291
20
-16.0172057969154
30
0
41
1
10
-0.394976888875291
20
-15.9197362187748
30
0
41
1
10
-0.394976888875291
20
-15.8189643831875
30
0
41
1
10
-0.394976888875291
20
-15.7147364921469
30
0
41
1
10
-0.394976888875291
20
-15.6349267624759
30
0
41
1
10
-0.394976888875291
20
-15.5534637367265
30
0
41
1
10
-0.394976888875291
20
-15.4426196109061
30
0
41
1
10
-0.394976888875291
20
-15.3286250474484
30
0
41
1
10
-0.394976888875291
20
-15.2259771214207
30
0
41
1
10
-0.394976888875291
20
-15.1665127141503
30
0
41
1
10
-0.394976888875291
20
-15.1065165223896
30
0
41
1
10
-0.394976888875291
20
-15.0305708978545
30
0
41
1
10
-0.394976888875291
20
-14.9068780878822
30
0
41
1
10
-0.394976888875291
20
-14.7801642532389
30
0
41
1
10
-0.394976888875291
20
-14.6502180419884
30
0
41
1
10
-0.394976888875291
20
-14.5512443837086
30
0
41
1
10
-0.394976888875291
20
-14.4507333681675
30
0
41
1
10
-0.394976888875291
20
-14.3146351237356
30
0
41
1
10
-0.394976888875291
20
-14.1756274475866
30
0
41
1
10
-0.394976888875291
20
-14.0334711580348
30
0
41
1
10
-0.394976888875291
20
-13.9253889718329
30
0
41
1
10
-0.394976888875291
20
-13.8158144768541
30
0
41
1
10
-0.394976888875291
20
-13.6676860552913
30
0
41
1
10
-0.394976888875291
20
-13.5167448476072
30
0
41
1
10
-0.394976888875291
20
-13.3627236547322
30
0
41
1
10
-0.394976888875291
20
-13.2457849051211
30
0
41
1
10
-0.394976888875291
20
-13.1273919665529
30
0
41
1
10
-0.394976888875291
20
-12.9675509360494
30
0
41
1
10
-0.394976888875291
20
-12.8049814458532
30
0
41
1
10
-0.394976888875291
20
-12.6393872302303
30
0
41
1
10
-0.394976888875291
20
-12.5138050519686
30
0
41
1
10
-0.394976888875291
20
-12.3868007979199
30
0
41
1
10
-0.394976888875291
20
-12.2155153161813
30
0
41
1
10
-0.394976888875291
20
-12.0415756040849
30
0
41
1
10
-0.394976888875291
20
-11.8646543496781
30
0
41
1
10
-0.394976888875291
20
-11.685867652055
30
0
41
1
10
-0.394976888875291
20
-11.4590305143918
30
0
41
1
10
-0.394976888875291
20
-11.2275701299333
30
0
41
1
10
-0.394976888875291
20
-11.0395280782787
30
0
41
1
10
-0.394976888875291
20
-10.8496518506122
30
0
41
1
10
-0.394976888875291
20
-10.6572263081633
30
0
41
1
10
-0.394976888875291
20
-10.4618684189216
30
0
41
1
10
-0.394976888875291
20
-10.3140380843155
30
0
41
1
10
-0.394976888875291
20
-10.1648480067744
30
0
41
1
10
-0.394976888875291
20
-10.0143015815252
30
0
41
1
10
-0.394976888875291
20
-9.86240080704215
30
0
41
1
10
-0.394976888875291
20
-9.65799296546987
30
0
41
1
10
-0.394976888875291
20
-9.39928045092245
30
0
41
1
10
-0.394976888875291
20
-9.1360908691222
30
0
41
1
10
-0.394976888875291
20
-8.922721214403
30
0
41
1
10
-0.394976888875291
20
-8.76141979186252
30
0
41
1
10
-0.394976888875291
20
-8.59878513137221
30
0
41
1
10
-0.394976888875291
20
-8.43482035476103
30
0
41
1
10
-0.394976888875291
20
-8.2695273659856
30
0
41
1
10
-0.394976888875291
20
-8.04728288344245
30
0
41
1
10
-0.394976888875291
20
-7.76637138106327
30
0
41
1
10
-0.394976888875291
20
-7.42389186204957
30
0
41
1
10
-0.394976888875291
20
-7.13420903787926
30
0
41
1
10
-0.394976888875291
20
-6.89966740060396
30
0
41
1
10
-0.394976888875291
20
-6.7225343094135
30
0
41
1
10
-0.394976888875291
20
-6.54409937286442
30
0
41
1
10
-0.394976888875291
20
-6.3643662218949
30
0
41
1
10
-0.394976888875291
20
-6.18333830919045
30
0
41
1
10
-0.394976888875291
20
-6.00101977124672
30
0
41
1
10
-0.394976888875291
20
-5.81741451623537
30
0
41
1
10
-0.394976888875291
20
-5.63252719489225
30
0
41
1
10
-0.394976888875291
20
-5.48871660168982
30
0
41
1
10
-0.394976888875291
20
-5.40659307656728
30
0
41
1
10
-0.394976888875291
20
-5.38678189578286
30
0
0
SPLINE
5
164
100
AcDbEntity
8
SK1
62
256
6
ByLayer
370
18
48
1
60
0
100
AcDbSpline
70
4
71
3
72
24
73
20
40
0
40
0
40
0
40
0
40
0.469770575826713
40
0.469770575826713
40
0.663612078687298
40
0.663612078687298
40
0.860454184613418
40
0.860454184613418
40
0.903064590395678
40
0.903064590395678
40
0.923089343972162
40
0.923089343972162
40
0.943389594779289
40
0.943389594779289
40
0.961332284531899
40
0.961332284531899
40
0.988068136377815
40
0.988068136377815
40
1
40
1
40
1
40
1
41
1
10
-0.199999999999989
20
-6.10344849123027
30
0
41
1
10
-0.199999999999989
20
-5.97798788494981
30
0
41
1
10
-0.204016575726513
20
-5.85096356701223
30
0
41
1
10
-0.223752631922082
20
-5.67079358995505
30
0
41
1
10
-0.231244965282229
20
-5.61789623093802
30
0
41
1
10
-0.253819137983143
20
-5.51250015101135
30
0
41
1
10
-0.267096215270371
20
-5.45724004647025
30
0
41
1
10
-0.303692478692526
20
-5.40035311573848
30
0
41
1
10
-0.311479622041318
20
-5.39039941672757
30
0
41
1
10
-0.325477757614365
20
-5.37891036834912
30
0
41
1
10
-0.330455622185014
20
-5.3756771312581
30
0
41
1
10
-0.341078704143143
20
-5.37102422840917
30
0
41
1
10
-0.346883276538151
20
-5.36960762575524
30
0
41
1
10
-0.357630415747778
20
-5.36914354197148
30
0
41
1
10
-0.362713068049587
20
-5.36981917830479
30
0
41
1
10
-0.374583401808834
20
-5.37316903610406
30
0
41
1
10
-0.3812109954861
20
-5.37664910167558
30
0
41
1
10
-0.38989246528871
20
-5.38265091141972
30
0
41
1
10
-0.392483363308571
20
-5.38466360919148
30
0
41
1
10
-0.394976888875334
20
-5.38678189578178
30
0
0
SPLINE
5
165
100
AcDbEntity
8
SK1
62
256
6
ByLayer
370
18
48
1
60
0
100
AcDbSpline
70
4
71
3
72
22
73
18
40
0
40
0
40
0
40
0
40
0.359503326352592
40
0.359503326352592
40
0.722215553677066
40
0.722215553677066
40
0.826527133697721
40
0.826527133697721
40
0.863141914878009
40
0.863141914878009
40
0.900378805007222
40
0.900378805007222
40
0.933500873078508
40
0.933500873078508
40
0.972947835056124
40
0.972947835056124
40
1
40
1
40
1
40
1
41
1
10
-1.30710678118655
20
3.91806548153784
30
0
41
1
10
-1.26486058419175
20
4.15139729989579
30
0
41
1
10
-1.21446435132795
20
4.3814323255595
30
0
41
1
10
-1.08204001032738
20
4.82987250608483
30
0
41
1
10
-1.00537527699572
20
5.05527264511534
30
0
41
1
10
-0.832356114396674
20
5.30654108347397
30
0
41
1
10
-0.78723829488635
20
5.36152992388782
30
0
41
1
10
-0.709490490588578
20
5.41877880440927
30
0
41
1
10
-0.687203973712826
20
5.43218986569764
30
0
41
1
10
-0.639076749164033
20
5.45244590583036
30
0
41
1
10
-0.612446414061694
20
5.45928056674791
30
0
41
1
10
-0.562058433231044
20
5.46233960302249
30
0
41
1
10
-0.537713914852588
20
5.45964677314572
30
0
41
1
10
-0.48805385269695
20
5.4462870125007
30
0
41
1
10
-0.462609559288765
20
5.43420976008088
30
0
41
1
10
-0.423860760477325
20
5.40985221311718
30
0
41
1
10
-0.408979654247759
20
5.39867780521598
30
0
41
1
10
-0.394976888875405
20
5.3867822332395
30
0
0
SPLINE
5
166
100
AcDbEntity
8
SK1
62
256
6
ByLayer
370
18
48
1
60
0
100
AcDbSpline
70
4
71
3
72
22
73
18
40
0
40
0
40
0
40
0
40
0.0394331151890913
40
0.0394331151890913
40
0.0795339708694829
40
0.0795339708694829
40
0.109637917244288
40
0.109637917244288
40
0.13957706301322
40
0.13957706301322
40
0.189266399657458
40
0.189266399657458
40
0.289571152403382
40
0.289571152403382
40
0.658284396834382
40
0.658284396834382
40
1
40
1
40
1
40
1
41
1
10
-0.394976888875291
20
-5.38678189578292
30
0
41
1
10
-0.415237014773382
20
-5.40399317028476
30
0
41
1
10
-0.437419275645468
20
-5.41977813092007
30
0
41
1
10
-0.486103141154984
20
-5.44521655864725
30
0
41
1
10
-0.51341298093098
20
-5.45496005292574
30
0
41
1
10
-0.562874322366525
20
-5.46212264681105
30
0
41
1
10
-0.585106616517606
20
-5.46199323188387
30
0
41
1
10
-0.627692822126718
20
-5.45533455005085
30
0
41
1
10
-0.648523068172722
20
-5.44883772858987
30
0
41
1
10
-0.699826196362139
20
-5.42613682765011
30
0
41
1
10
-0.728695564403452
20
-5.40623396070794
30
0
41
1
10
-0.806075449923839
20
-5.34007786619355
30
0
41
1
10
-0.847522380016557
20
-5.28655870152033
30
0
41
1
10
-1.01570466784385
20
-5.03084699030376
30
0
41
1
10
-1.09210771407481
20
-4.80149729085088
30
0
41
1
10
-1.21929875138234
20
-4.35887826398971
30
0
41
1
10
-1.26692602208389
20
-4.13998960128646
30
0
41
1
10
-1.30710678118655
20
-3.91806548057696
30
0
0
SPLINE
5
167
100
AcDbEntity
8
SK1
62
256
6
ByLayer
370
18
48
1
60
0
100
AcDbSpline
70
4
71
3
72
22
73
18
40
0
40
0
40
0
40
0
40
0.0260455644157255
40
0.0260455644157255
40
0.0526262165848573
40
0.0526262165848573
40
0.0706056579866949
40
0.0706056579866949
40
0.0884949509195831
40
0.0884949509195831
40
0.117489218732023
40
0.117489218732023
40
0.174590867319722
40
0.174590867319722
40
0.376524252937452
40
0.376524252937452
40
1
40
1
40
1
40
1
41
1
10
-0.394976888872947
20
5.38678223324206
30
0
41
1
10
-0.389612432086423
20
5.38222504185001
30
0
41
1
10
-0.383763200778972
20
5.3781170044989
30
0
41
1
10
-0.370972888875414
20
5.37184824531647
30
0
41
1
10
-0.363785592650899
20
5.36968256852498
30
0
41
1
10
-0.351475656346565
20
5.3691458249703
30
0
41
1
10
-0.346317238365032
20
5.36979468027801
30
0
41
1
10
-0.336550133197363
20
5.3727304206256
30
0
41
1
10
-0.33182986596411
20
5.37502411826847
30
0
41
1
10
-0.320511111438336
20
5.38234306083376
30
0
41
1
10
-0.31432144813617
20
5.38824406879633
30
0
41
1
10
-0.298260159254525
20
5.40702817233921
30
0
41
1
10
-0.290032841564667
20
5.42147709180324
30
0
41
1
10
-0.258449669573651
20
5.48745345024412
30
0
41
1
10
-0.24608390551893
20
5.5434138926733
30
0
41
1
10
-0.204764795451908
20
5.7670899064446
30
0
41
1
10
-0.200000000000358
20
5.93709576978205
30
0
41
1
10
-0.200000000000358
20
6.10344667966001
30
0
0
SPLINE
5
168
100
AcDbEntity
8
SK1
62
256
6
ByLayer
370
18
48
1
60
0
100
AcDbSpline
70
4
71
3
72
10
73
6
40
0
40
0
40
0
40
0
40
0.5
40
0.5
40
1
40
1
40
1
40
1
41
1
10
-1.30710678118655
20
3.91806548153784
30
0
41
1
10
-1.53227959010833
20
2.67440369212437
30
0
41
1
10
-1.71681589069691
20
1.34075776539186
30
0
41
1
10
-1.71598271729604
20
-1.35050010337164
30
0
41
1
10
-1.53230696904969
20
-2.6742524020969
30
0
41
1
10
-1.30710678118655
20
-3.91806548057696
30
0
0
SPLINE
5
169
100
AcDbEntity
8
SK1
62
256
6
ByLayer
370
18
48
1
60
0
100
AcDbSpline
70
4
71
3
72
284
73
280
40
0
40
0
40
0
40
0
40
0.0001143368034694
40
0.0036847465516763
40
0.0072551562998832
40
0.0108255660480901
40
0.014395975796297
40
0.0179663855445039
40
0.0215367952927108
40
0.0251072050409177
40
0.0286776147891246
40
0.0322480245373315
40
0.0358184342855384
40
0.0429592537819522
40
0.0465296635301591
40
0.050100073278366
40
0.0536704830265729
40
0.0572408927747798
40
0.0643817122711936
40
0.0679521220194005
40
0.0715225317676074
40
0.0786633512640212
40
0.0822337610122281
40
0.085804170760435
40
0.0929449902568488
40
0.0965154000050557
40
0.100085809753263
40
0.103656219501469
40
0.107226629249676
40
0.110797038997883
40
0.11436744874609
40
0.117937858494297
40
0.121508268242504
40
0.128649087738918
40
0.132219497487125
40
0.135789907235331
40
0.139360316983539
40
0.142930726731745
40
0.150071546228159
40
0.153641955976366
40
0.15542716085047
40
0.157212365724573
40
0.16078277547278
40
0.164353185220987
40
0.171494004717401
40
0.175064414465607
40
0.178634824213814
40
0.182205233962021
40
0.185775643710228
40
0.192916463206642
40
0.196486872954849
40
0.200057282703056
40
0.203627692451263
40
0.207198102199469
40
0.214338921695883
40
0.21790933144409
40
0.221479741192297
40
0.225050150940504
40
0.228620560688711
40
0.235761380185125
40
0.239331789933332
40
0.242902199681539
40
0.246472609429745
40
0.250043019177952
40
0.257183838674366
40
0.260754248422573
40
0.26432465817078
40
0.271465477667194
40
0.278606297163608
40
0.282176706911814
40
0.285747116660021
40
0.292887936156435
40
0.296458345904642
40
0.300028755652849
40
0.303599165401056
40
0.307169575149263
40
0.31073998489747
40
0.314310394645676
40
0.32145121414209
40
0.328592033638504
40
0.332162443386711
40
0.335732853134918
40
0.339303262883125
40
0.342873672631332
40
0.346444082379539
40
0.350014492127745
40
0.357155311624159
40
0.364296131120573
40
0.371436950616987
40
0.375007360365194
40
0.378577770113401
40
0.382148179861607
40
0.385718589609814
40
0.389288999358021
40
0.392859409106228
40
0.396429818854435
40
0.400000228602642
40
0.403570638350849
40
0.407141048099056
40
0.410711457847263
40
0.41428186759547
40
0.417852277343677
40
0.421422687091883
40
0.42499309684009
40
0.428563506588297
40
0.432133916336504
40
0.433919121210607
40
0.435704326084711
40
0.437489530958814
40
0.439274735832918
40
0.442845145581125
40
0.446415555329332
40
0.448200760203435
40
0.449985965077539
40
0.453556374825746
40
0.455341579699849
40
0.457126784573952
40
0.458911989448056
40
0.460697194322159
40
0.462482399196263
40
0.464267604070366
40
0.46605280894447
40
0.467838013818573
40
0.469623218692676
40
0.47140842356678
40
0.473193628440883
40
0.474978833314987
40
0.47676403818909
40
0.478549243063194
40
0.480334447937297
40
0.482119652811401
40
0.483904857685504
40
0.485690062559608
40
0.487475267433711
40
0.489260472307814
40
0.491045677181918
40
0.492830882056021
40
0.494616086930125
40
0.496401291804228
40
0.498186496678332
40
0.499971701552435
40
0.501756906426539
40
0.503542111300642
40
0.505327316174746
40
0.507112521048849
40
0.508897725922952
40
0.510682930797056
40
0.512468135671159
40
0.514253340545263
40
0.516038545419366
40
0.51782375029347
40
0.519608955167573
40
0.521394160041677
40
0.52317936491578
40
0.524964569789883
40
0.526749774663987
40
0.52853497953809
40
0.530320184412194
40
0.532105389286297
40
0.533890594160401
40
0.535675799034504
40
0.537461003908608
40
0.539246208782711
40
0.542816618530918
40
0.544601823405021
40
0.546387028279125
40
0.548172233153228
40
0.549957438027332
40
0.551742642901435
40
0.553527847775539
40
0.557098257523746
40
0.560668667271952
40
0.562453872146056
40
0.564239077020159
40
0.566024281894263
40
0.567809486768366
40
0.571379896516573
40
0.57495030626478
40
0.578520716012987
40
0.582091125761194
40
0.585661535509401
40
0.589231945257608
40
0.592802355005815
40
0.596372764754021
40
0.599943174502228
40
0.603513584250435
40
0.607083993998642
40
0.610654403746849
40
0.614224813495056
40
0.617795223243263
40
0.62136563299147
40
0.624936042739677
40
0.628506452487884
40
0.635647271984297
40
0.642788091480711
40
0.649928910977125
40
0.653499320725332
40
0.657069730473539
40
0.660640140221746
40
0.664210549969952
40
0.667780959718159
40
0.671351369466366
40
0.67849218896278
40
0.685633008459194
40
0.689203418207401
40
0.692773827955608
40
0.696344237703814
40
0.699914647452021
40
0.703485057200228
40
0.707055466948435
40
0.714196286444849
40
0.717766696193056
40
0.721337105941263
40
0.728477925437677
40
0.735618744934091
40
0.739189154682297
40
0.742759564430504
40
0.749900383926918
40
0.753470793675125
40
0.757041203423332
40
0.760611613171539
40
0.764182022919746
40
0.771322842416159
40
0.774893252164366
40
0.778463661912573
40
0.78203407166078
40
0.785604481408987
40
0.792745300905401
40
0.796315710653608
40
0.799886120401815
40
0.803456530150022
40
0.807026939898228
40
0.814167759394642
40
0.817738169142849
40
0.821308578891056
40
0.824878988639263
40
0.82844939838747
40
0.835590217883884
40
0.83916062763209
40
0.842731037380297
40
0.846301447128504
40
0.849871856876711
40
0.857012676373125
40
0.860583086121332
40
0.864153495869539
40
0.867723905617746
40
0.871294315365952
40
0.878435134862366
40
0.882005544610573
40
0.88557595435878
40
0.889146364106987
40
0.892716773855194
40
0.896287183603401
40
0.899857593351608
40
0.903428003099815
40
0.906998412848022
40
0.914139232344435
40
0.917709642092642
40
0.921280051840849
40
0.928420871337263
40
0.93199128108547
40
0.935561690833677
40
0.942702510330091
40
0.946272920078297
40
0.949843329826504
40
0.953413739574711
40
0.956984149322918
40
0.964124968819332
40
0.967695378567539
40
0.971265788315746
40
0.974836198063953
40
0.978406607812159
40
0.981977017560366
40
0.985547427308573
40
0.98911783705678
40
0.992688246804987
40
0.996258656553194
40
0.999829066301401
40
1
40
1
40
1
40
1
41
1
10
-1.99503997793928
20
-17.3206505183984
30
0
41
1
10
-1.99503997793928
20
-17.3205991713197
30
0
41
1
10
-1.9950399779393
20
-17.3189305069685
30
0
41
1
10
-1.99503997793928
20
-17.3147637210185
30
0
41
1
10
-1.99503997793928
20
-17.3061342543252
30
0
41
1
10
-1.99503997793928
20
-17.2950677779805
30
0
41
1
10
-1.99503997793928
20
-17.2816041393821
30
0
41
1
10
-1.99503997793928
20
-17.2657806121613
30
0
41
1
10
-1.99503997793928
20
-17.2476335178127
30
0
41
1
10
-1.99503997793928
20
-17.2271975480507
30
0
41
1
10
-1.99503997793928
20
-17.204505416066
30
0
41
1
10
-1.99503997793928
20
-17.1795896288676
30
0
41
1
10
-1.99503997793928
20
-17.1434240170937
30
0
41
1
10
-1.99503997793928
20
-17.1029924178939
30
0
41
1
10
-1.99503997793928
20
-17.0582791544303
30
0
41
1
10
-1.99503997793928
20
-17.0226788299273
30
0
41
1
10
-1.99503997793928
20
-16.9850205784632
30
0
41
1
10
-1.99503997793928
20
-16.9320728583858
30
0
41
1
10
-1.99503997793928
20
-16.8751872797735
30
0
41
1
10
-1.99503997793928
20
-16.8142877377231
30
0
41
1
10
-1.99503997793928
20
-16.7507930080793
30
0
41
1
10
-1.99503997793928
20
-16.6835453043615
30
0
41
1
10
-1.99503997793928
20
-16.6124299668847
30
0
41
1
10
-1.99503997793928
20
-16.538824252381
30
0
41
1
10
-1.99503997793928
20
-16.4616240235723
30
0
41
1
10
-1.99503997793928
20
-16.3806869997558
30
0
41
1
10
-1.99503997793928
20
-16.3182114280861
30
0
41
1
10
-1.99503997793928
20
-16.2539521307207
30
0
41
1
10
-1.99503997793928
20
-16.1879246525291
30
0
41
1
10
-1.99503997793928
20
-16.1201424632648
30
0
41
1
10
-1.99503997793928
20
-16.0506207879892
30
0
41
1
10
-1.99503997793928
20
-15.9793734967038
30
0
41
1
10
-1.99503997793928
20
-15.8820499896636
30
0
41
1
10
-1.99503997793928
20
-15.781458474053
30
0
41
1
10
-1.99503997793928
20
-15.677384979663
30
0
41
1
10
-1.99503997793928
20
-15.5977008570348
30
0
41
1
10
-1.99503997793928
20
-15.5163656330196
30
0
41
1
10
-1.99503997793928
20
-15.4056838559475
30
0
41
1
10
-1.99503997793928
20
-15.2918890331241
30
0
41
1
10
-1.99503997793928
20
-15.1893946011098
30
0
41
1
10
-1.99503997793928
20
-15.130016414734
30
0
41
1
10
-1.99503997793928
20
-15.070107125687
30
0
41
1
10
-1.99503997793928
20
-14.9942845913974
30
0
41
1
10
-1.99503997793928
20
-14.8707702595594
30
0
41
1
10
-1.99503997793928
20
-14.7442755571137
30
0
41
1
10
-1.99503997793928
20
-14.614516060936
30
0
41
1
10
-1.99503997793928
20
-14.5156939237825
30
0
41
1
10
-1.99503997793928
20
-14.4153366880848
30
0
41
1
10
-1.99503997793928
20
-14.2794333813788
30
0
41
1
10
-1.99503997793928
20
-14.1406647319193
30
0
41
1
10
-1.99503997793928
20
-13.99871189727
30
0
41
1
10
-1.99503997793928
20
-13.8907947392413
30
0
41
1
10
-1.99503997793928
20
-13.7813876543746
30
0
41
1
10
-1.99503997793928
20
-13.6334713858817
30
0
41
1
10
-1.99503997793928
20
-13.4827901435456
30
0
41
1
10
-1.99503997793928
20
-13.3289901210133
30
0
41
1
10
-1.99503997793928
20
-13.2122307543484
30
0
41
1
10
-1.99503997793928
20
-13.0940197637218
30
0
41
1
10
-1.99503997793928
20
-12.9344093235711
30
0
41
1
10
-1.99503997793928
20
-12.7721223466594
30
0
41
1
10
-1.99503997793928
20
-12.6067684751262
30
0
41
1
10
-1.99503997793928
20
-12.4813812819682
30
0
41
1
10
-1.99503997793928
20
-12.3545748313202
30
0
41
1
10
-1.99503997793928
20
-12.1835401209566
30
0
41
1
10
-1.99503997793928
20
-12.0099077334538
30
0
41
1
10
-1.99503997793928
20
-11.8332480225582
30
0
41
1
10
-1.99503997793928
20
-11.6547268446385
30
0
41
1
10
-1.99503997793928
20
-11.4282697094187
30
0
41
1
10
-1.99503997793928
20
-11.1972001338813
30
0
41
1
10
-1.99503997793928
20
-11.0094435667743
30
0
41
1
10
-1.99503997793928
20
-10.8198574709635
30
0
41
1
10
-1.99503997793928
20
-10.6277879483349
30
0
41
1
10
-1.99503997793928
20
-10.432733482583
30
0
41
1
10
-1.99503997793928
20
-10.2851499142427
30
0
41
1
10
-1.99503997793928
20
-10.136210478965
30
0
41
1
10
-1.99503997793928
20
-9.98591881051334
30
0
41
1
10
-1.99503997793928
20
-9.83427694277646
30
0
41
1
10
-1.99503997793928
20
-9.63019832461663
30
0
41
1
10
-1.99503997793928
20
-9.37195865915049
30
0
41
1
10
-1.99503997793928
20
-9.10925720032844
30
0
41
1
10
-1.99503997793928
20
-8.89624560664998
30
0
41
1
10
-1.99503997793928
20
-8.73523610803539
30
0
41
1
10
-1.99503997793928
20
-8.57289871422529
30
0
41
1
10
-1.99503997793928
20
-8.40923674956804
30
0
41
1
10
-1.99503997793928
20
-8.24425235284599
30
0
41
1
10
-1.99503997793928
20
-8.02240145976873
30
0
41
1
10
-1.99503997793928
20
-7.742057818099
30
0
41
1
10
-1.99503997793928
20
-7.40025292645402
30
0
41
1
10
-1.99503997793928
20
-7.11118459991684
30
0
41
1
10
-1.99503997793928
20
-6.87709665926303
30
0
41
1
10
-1.99503997793928
20
-6.70033533418757
30
0
41
1
10
-1.99503997793928
20
-6.52228076981254
30
0
41
1
10
-1.99503997793928
20
-6.34293700639154
30
0
41
1
10
-1.99503997793928
20
-6.16230794338162
30
0
41
1
10
-1.99503997793928
20
-5.98039819956614
30
0
41
1
10
-1.99503997793928
20
-5.79721217482029
30
0
41
1
10
-1.99503997793928
20
-5.61275497462714
30
0
41
1
10
-1.99503997793928
20
-5.42703263168386
30
0
41
1
10
-1.99503997793928
20
-5.24005183821339
30
0
41
1
10
-1.99503997793928
20
-5.05181944357969
30
0
41
1
10
-1.99503997793928
20
-4.86234315765489
30
0
41
1
10
-1.99503997793928
20
-4.67163198724228
30
0
41
1
10
-1.99503997793928
20
-4.47969611179559
30
0
41
1
10
-1.99503997793928
20
-4.28654650347454
30
0
41
1
10
-1.99503997793928
20
-4.09219631216945
30
0
41
1
10
-1.99503997793928
20
-3.92934662557201
30
0
41
1
10
-1.99503997793928
20
-3.79829732832764
30
0
41
1
10
-1.99503997793928
20
-3.6997999651449
30
0
41
1
10
-1.99503997793928
20
-3.60101470543907
30
0
41
1
10
-1.99503997793928
20
-3.46881383607314
30
0
41
1
10
-1.99503997793928
20
-3.30310842941958
30
0
41
1
10
-1.99503997793928
20
-3.13647582573117
30
0
41
1
10
-1.99503997793928
20
-3.00241855173454
30
0
41
1
10
-1.99503997793928
20
-2.86801083241158
30
0
41
1
10
-1.99503997793928
20
-2.73345090264121
30
0
41
1
10
-1.99503997793928
20
-2.59800197223717
30
0
41
1
10
-1.99503997793928
20
-2.4962670319988
30
0
41
1
10
-1.99503997793928
20
-2.3942897393672
30
0
41
1
10
-1.99503997793928
20
-2.292076372064
30
0
41
1
10
-1.99503997793928
20
-2.18963189754737
30
0
41
1
10
-1.99503997793928
20
-2.08696370566378
30
0
41
1
10
-1.99503997793928
20
-1.98407766278626
30
0
41
1
10
-1.99503997793928
20
-1.88098142742643
30
0
41
1
10
-1.9950399779393
20
-1.77768276258212
30
0
41
1
10
-1.9950399779393
20
-1.67418896894679
30
0
41
1
10
-1.9950399779393
20
-1.57050948928742
30
0
41
1
10
-1.9950399779393
20
-1.46665210416359
30
0
41
1
10
-1.9950399779393
20
-1.36262723194545
30
0
41
1
10
-1.9950399779393
20
-1.25844373877697
30
0
41
1
10
-1.9950399779393
20
-1.15411258033265
30
0
41
1
10
-1.9950399779393
20
-1.04964379294302
30
0
41
1
10
-1.9950399779393
20
-0.945048896197648
30
0
41
1
10
-1.9950399779393
20
-0.840338966235606
30
0
41
1
10
-1.9950399779393
20
-0.735526093018507
30
0
41
1
10
-1.9950399779393
20
-0.630622120770227
30
0
41
1
10
-1.9950399779393
20
-0.525639723935797
30
0
41
1
10
-1.9950399779393
20
-0.420591355720489
30
0
41
1
10
-1.9950399779393
20
-0.315490140896543
30
0
41
1
10
-1.9950399779393
20
-0.210348954454048
30
0
41
1
10
-1.9950399779393
20
-0.105181173899382
30
0
41
1
10
-1.9950399779393
20
-2.6093403E-09
30
0
41
1
10
-1.9950399779393
20
0.105181165306249
30
0
41
1
10
-1.9950399779393
20
0.210348939519463
30
0
41
1
10
-1.9950399779393
20
0.315490126623786
30
0
41
1
10
-1.9950399779393
20
0.420591350928703
30
0
41
1
10
-1.9950399779393
20
0.52563972115729
30
0
41
1
10
-1.9950399779393
20
0.630622105582688
30
0
41
1
10
-1.9950399779393
20
0.735526073032361
30
0
41
1
10
-1.9950399779393
20
0.840338961204225
30
0
41
1
10
-1.9950399779393
20
0.945048899580627
30
0
41
1
10
-1.9950399779393
20
1.04964378000579
30
0
41
1
10
-1.9950399779393
20
1.15411255471389
30
0
41
1
10
-1.9950399779393
20
1.25844372920938
30
0
41
1
10
-1.9950399779393
20
1.36262724011794
30
0
41
1
10
-1.9950399779393
20
1.4666520999574
30
0
41
1
10
-1.9950399779393
20
1.57050946303122
30
0
41
1
10
-1.9950399779393
20
1.67418894734925
30
0
41
1
10
-1.9950399779393
20
1.77768276547397
30
0
41
1
10
-1.9950399779393
20
1.88098143773601
30
0
41
1
10
-1.9950399779393
20
1.98407765086858
30
0
41
1
10
-1.9950399779393
20
2.08696367451518
30
0
41
1
10
-1.9950399779393
20
2.18963187963749
30
0
41
1
10
-1.9950399779393
20
2.32636708010438
30
0
41
1
10
-1.9950399779393
20
2.46222694501739
30
0
41
1
10
-1.9950399779393
20
2.5980019734576
30
0
41
1
10
-1.9950399779393
20
2.69948931487846
30
0
41
1
10
-1.9950399779393
20
2.80072442890969
30
0
41
1
10
-1.9950399779393
20
2.90170218623103
30
0
41
1
10
-1.9950399779393
20
3.00241852965871
30
0
41
1
10
-1.9950399779393
20
3.1364757982418
30
0
41
1
10
-1.9950399779393
20
3.30310841087515
30
0
41
1
10
-1.9950399779393
20
3.46881385164499
30
0
41
1
10
-1.9950399779393
20
3.60101470619622
30
0
41
1
10
-1.9950399779393
20
3.69979994526256
30
0
41
1
10
-1.9950399779393
20
3.79829729672917
30
0
41
1
10
-1.9950399779393
20
3.92934661081904
30
0
41
1
10
-1.9950399779393
20
4.09219634432208
30
0
41
1
10
-1.9950399779393
20
4.28654656517494
30
0
41
1
10
-1.9950399779393
20
4.47969614999016
30
0
41
1
10
-1.9950399779393
20
4.67163207713236
30
0
41
1
10
-1.9950399779393
20
4.86234332329406
30
0
41
1
10
-1.9950399779393
20
5.05181945337137
30
0
41
1
10
-1.9950399779393
20
5.24005175731475
30
0
41
1
10
-1.9950399779393
20
5.42703270327695
30
0
41
1
10
-1.9950399779393
20
5.61275496243292
30
0
41
1
10
-1.9950399779393
20
5.79721186805693
30
0
41
1
10
-1.9950399779393
20
5.98039789106798
30
0
41
1
10
-1.9950399779393
20
6.16230788845581
30
0
41
1
10
-1.9950399779393
20
6.34293707417913
30
0
41
1
10
-1.9950399779393
20
6.52228078287743
30
0
41
1
10
-1.9950399779393
20
6.70033531356592
30
0
41
1
10
-1.9950399779393
20
6.87709665618263
30
0
41
1
10
-1.9950399779393
20
7.11118461088938
30
0
41
1
10
-1.9950399779393
20
7.40025290593451
30
0
41
1
10
-1.9950399779393
20
7.7420578132905
30
0
41
1
10
-1.9950399779393
20
8.02240146480563
30
0
41
1
10
-1.9950399779393
20
8.24425232954013
30
0
41
1
10
-1.9950399779393
20
8.40923673354894
30
0
41
1
10
-1.9950399779393
20
8.57289871794615
30
0
41
1
10
-1.9950399779393
20
8.73523611643316
30
0
41
1
10
-1.9950399779393
20
8.89624559944804
30
0
41
1
10
-1.9950399779393
20
9.1092571782612
30
0
41
1
10
-1.9950399779393
20
9.37195865327328
30
0
41
1
10
-1.9950399779393
20
9.63019833168175
30
0
41
1
10
-1.9950399779393
20
9.83427692622888
30
0
41
1
10
-1.9950399779393
20
9.98591879047711
30
0
41
1
10
-1.9950399779393
20
10.13621047024
30
0
41
1
10
-1.9950399779393
20
10.2851499168301
30
0
41
1
10
-1.9950399779393
20
10.4327334855783
30
0
41
1
10
-1.9950399779393
20
10.627787937013
30
0
41
1
10
-1.9950399779393
20
10.8198574498995
30
0
41
1
10
-1.9950399779393
20
11.00944356136
30
0
41
1
10
-1.9950399779393
20
11.1972001365959
30
0
41
1
10
-1.9950399779393
20
11.4282697000141
30
0
41
1
10
-1.9950399779393
20
11.6547268261542
30
0
41
1
10
-1.9950399779393
20
11.8332480165124
30
0
41
1
10
-1.9950399779393
20
12.0099077332894
30
0
41
1
10
-1.9950399779393
20
12.1835401119864
30
0
41
1
10
-1.9950399779393
20
12.3545748152048
30
0
41
1
10
-1.9950399779393
20
12.4813812679684
30
0
41
1
10
-1.9950399779393
20
12.606768466692
30
0
41
1
10
-1.9950399779393
20
12.7721223429485
30
0
41
1
10
-1.9950399779393
20
12.9344093145834
30
0
41
1
10
-1.9950399779393
20
13.09401974916
30
0
41
1
10
-1.9950399779393
20
13.2122307400426
30
0
41
1
10
-1.9950399779393
20
13.328990109671
30
0
41
1
10
-1.9950399779393
20
13.482790135872
30
0
41
1
10
-1.9950399779393
20
13.6334713769854
30
0
41
1
10
-1.9950399779393
20
13.7813876415877
30
0
41
1
10
-1.9950399779393
20
13.8907947247769
30
0
41
1
10
-1.9950399779393
20
13.9987118830366
30
0
41
1
10
-1.9950399779393
20
14.1406647198644
30
0
41
1
10
-1.9950399779393
20
14.2794333721973
30
0
41
1
10
-1.9950399779393
20
14.4153366771621
30
0
41
1
10
-1.9950399779393
20
14.5156939096276
30
0
41
1
10
-1.9950399779393
20
14.6145160455858
30
0
41
1
10
-1.9950399779393
20
14.7442755428493
30
0
41
1
10
-1.9950399779393
20
14.8707702235387
30
0
41
1
10
-1.9950399779393
20
14.9942846604514
30
0
41
1
10
-1.9950399779393
20
15.0853020659338
30
0
41
1
10
-1.9950399779393
20
15.1747311694574
30
0
41
1
10
-1.9950399779393
20
15.2918890118944
30
0
41
1
10
-1.9950399779393
20
15.4056838451686
30
0
41
1
10
-1.9950399779393
20
15.5163656256123
30
0
41
1
10
-1.9950399779393
20
15.5977008436634
30
0
41
1
10
-1.9950399779393
20
15.677384958149
30
0
41
1
10
-1.9950399779393
20
15.7814584486047
30
0
41
1
10
-1.9950399779393
20
15.8820499794418
30
0
41
1
10
-1.9950399779393
20
15.979373490825
30
0
41
1
10
-1.9950399779393
20
16.0506207732709
30
0
41
1
10
-1.9950399779393
20
16.1201424382026
30
0
41
1
10
-1.9950399779393
20
16.1879246249362
30
0
41
1
10
-1.9950399779393
20
16.2539521138774
30
0
41
1
10
-1.9950399779393
20
16.3182114219941
30
0
41
1
10
-1.9950399779393
20
16.3806869939664
30
0
41
1
10
-1.9950399779393
20
16.4616240004255
30
0
41
1
10
-1.9950399779393
20
16.5388242186582
30
0
41
1
10
-1.9950399779393
20
16.6124299551482
30
0
41
1
10
-1.9950399779393
20
16.6835453056651
30
0
41
1
10
-1.9950399779393
20
16.7507929832779
30
0
41
1
10
-1.9950399779393
20
16.8142877036055
30
0
41
1
10
-1.9950399779393
20
16.8751872660894
30
0
41
1
10
-1.9950399779393
20
16.9320728615657
30
0
41
1
10
-1.9950399779393
20
16.9850205529168
30
0
41
1
10
-1.9950399779393
20
17.0226787925821
30
0
41
1
10
-1.9950399779393
20
17.0582791326422
30
0
41
1
10
-1.9950399779393
20
17.1029924242496
30
0
41
1
10
-1.9950399779393
20
17.143423992764
30
0
41
1
10
-1.9950399779393
20
17.1795895960111
30
0
41
1
10
-1.9950399779393
20
17.2045053960087
30
0
41
1
10
-1.9950399779393
20
17.2271975457697
30
0
41
1
10
-1.9950399779393
20
17.2476335117891
30
0
41
1
10
-1.9950399779393
20
17.2657805776118
30
0
41
1
10
-1.9950399779393
20
17.2816041041457
30
0
41
1
10
-1.9950399779393
20
17.295067771448
30
0
41
1
10
-1.9950399779393
20
17.3061342577567
30
0
41
1
10
-1.9950399779393
20
17.3147637003649
30
0
41
1
10
-1.9950399779393
20
17.3189630099068
30
0
41
1
10
-1.9950399779393
20
17.3206503540488
30
0
41
1
10
-1.9950399779393
20
17.3207264811427
30
0
0
SPLINE
5
16A
100
AcDbEntity
8
SK1
62
256
6
ByLayer
370
18
48
1
60
0
100
AcDbSpline
70
4
71
3
72
286
73
282
40
0
40
0
40
0
40
0
40
0.0005145134027122
40
0.0040569568014169
40
0.0075994002001217
40
0.0111418435988265
40
0.0146842869975312
40
0.018226730396236
40
0.0217691737949407
40
0.0253116171936455
40
0.0288540605923502
40
0.032396503991055
40
0.0359389473897598
40
0.0394813907884646
40
0.046566277585874
40
0.0501087209845788
40
0.0536511643832836
40
0.0571936077819884
40
0.0607360511806931
40
0.0678209379781026
40
0.0713633813768074
40
0.0749058247755122
40
0.0819907115729217
40
0.0855331549716264
40
0.0890755983703312
40
0.0961604851677406
40
0.0997029285664455
40
0.10324537196515
40
0.106787815363855
40
0.11033025876256
40
0.113872702161265
40
0.117415145559969
40
0.120957588958674
40
0.124500032357379
40
0.131584919154788
40
0.135127362553493
40
0.138669805952198
40
0.142212249350903
40
0.145754692749607
40
0.152839579547017
40
0.156382022945722
40
0.159924466344426
40
0.163466909743131
40
0.167009353141836
40
0.174094239939245
40
0.17763668333795
40
0.181179126736655
40
0.18472157013536
40
0.188264013534065
40
0.195348900331474
40
0.198891343730179
40
0.202433787128884
40
0.205976230527588
40
0.209518673926293
40
0.216603560723703
40
0.220146004122407
40
0.223688447521112
40
0.227230890919817
40
0.230773334318522
40
0.237858221115931
40
0.241400664514636
40
0.244943107913341
40
0.248485551312045
40
0.25202799471075
40
0.25911288150816
40
0.262655324906865
40
0.266197768305569
40
0.273282655102979
40
0.280367541900388
40
0.283909985299093
40
0.287452428697798
40
0.294537315495207
40
0.298079758893912
40
0.301622202292617
40
0.305164645691322
40
0.308707089090026
40
0.312249532488731
40
0.315791975887436
40
0.322876862684846
40
0.329961749482255
40
0.33350419288096
40
0.337046636279665
40
0.340589079678369
40
0.344131523077074
40
0.347673966475779
40
0.351216409874484
40
0.358301296671893
40
0.365386183469303
40
0.372471070266712
40
0.376013513665417
40
0.379555957064122
40
0.383098400462826
40
0.386640843861531
40
0.390183287260236
40
0.393725730658941
40
0.397268174057645
40
0.40081061745635
40
0.404353060855055
40
0.40789550425376
40
0.411437947652465
40
0.414980391051169
40
0.418522834449874
40
0.422065277848579
40
0.425607721247284
40
0.429150164645988
40
0.432692608044693
40
0.434463829744046
40
0.436235051443398
40
0.43800627314275
40
0.439777494842103
40
0.443319938240807
40
0.446862381639512
40
0.448633603338864
40
0.450404825038217
40
0.452176046737569
40
0.453947268436922
40
0.455718490136274
40
0.457489711835626
40
0.461032155234331
40
0.462803376933684
40
0.464574598633036
40
0.466345820332388
40
0.468117042031741
40
0.469888263731093
40
0.471659485430445
40
0.473430707129798
40
0.47520192882915
40
0.476973150528503
40
0.478744372227855
40
0.480515593927207
40
0.48228681562656
40
0.484058037325912
40
0.485829259025264
40
0.487600480724617
40
0.489371702423969
40
0.491142924123322
40
0.492914145822674
40
0.494685367522026
40
0.496456589221379
40
0.498227810920731
40
0.499999032620083
40
0.501770254319436
40
0.503541476018788
40
0.505312697718141
40
0.507083919417493
40
0.508855141116845
40
0.510626362816198
40
0.51239758451555
40
0.514168806214903
40
0.515940027914255
40
0.517711249613607
40
0.51948247131296
40
0.521253693012312
40
0.523024914711665
40
0.524796136411017
40
0.526567358110369
40
0.528338579809722
40
0.530109801509074
40
0.531881023208426
40
0.533652244907779
40
0.535423466607131
40
0.537194688306483
40
0.538965910005836
40
0.540737131705188
40
0.542508353404541
40
0.544279575103893
40
0.546050796803245
40
0.54959324020195
40
0.551364461901303
40
0.553135683600655
40
0.55667812699936
40
0.560220570398065
40
0.561991792097417
40
0.563763013796769
40
0.565534235496122
40
0.567305457195474
40
0.570847900594179
40
0.574390343992883
40
0.577932787391588
40
0.581475230790293
40
0.585017674188998
40
0.588560117587703
40
0.592102560986407
40
0.595645004385112
40
0.599187447783817
40
0.602729891182521
40
0.606272334581226
40
0.609814777979931
40
0.613357221378636
40
0.616899664777341
40
0.620442108176045
40
0.62398455157475
40
0.627526994973455
40
0.634611881770864
40
0.641696768568274
40
0.648781655365684
40
0.652324098764388
40
0.655866542163093
40
0.659408985561798
40
0.662951428960503
40
0.666493872359207
40
0.670036315757912
40
0.677121202555322
40
0.684206089352731
40
0.687748532751436
40
0.691290976150141
40
0.694833419548845
40
0.69837586294755
40
0.701918306346255
40
0.70546074974496
40
0.712545636542369
40
0.716088079941074
40
0.719630523339779
40
0.726715410137188
40
0.733800296934598
40
0.737342740333302
40
0.740885183732007
40
0.747970070529417
40
0.751512513928122
40
0.755054957326826
40
0.758597400725531
40
0.762139844124236
40
0.769224730921645
40
0.77276717432035
40
0.776309617719055
40
0.77985206111776
40
0.783394504516464
40
0.790479391313874
40
0.794021834712579
40
0.797564278111284
40
0.801106721509988
40
0.804649164908693
40
0.811734051706103
40
0.815276495104807
40
0.818818938503512
40
0.822361381902217
40
0.825903825300921
40
0.832988712098331
40
0.836531155497036
40
0.840073598895741
40
0.841844820595093
40
0.843616042294445
40
0.84715848569315
40
0.85424337249056
40
0.857785815889264
40
0.861328259287969
40
0.864870702686674
40
0.868413146085379
40
0.875498032882788
40
0.879040476281493
40
0.882582919680198
40
0.886125363078903
40
0.889667806477607
40
0.893210249876312
40
0.896752693275017
40
0.900295136673722
40
0.903837580072426
40
0.910922466869836
40
0.91446491026854
40
0.918007353667246
40
0.925092240464655
40
0.92863468386336
40
0.932177127262064
40
0.939262014059474
40
0.942804457458179
40
0.946346900856883
40
0.949889344255588
40
0.953431787654293
40
0.960516674451703
40
0.964059117850407
40
0.967601561249112
40
0.971144004647817
40
0.974686448046521
40
0.978228891445226
40
0.981771334843931
40
0.985313778242636
40
0.988856221641341
40
0.992398665040045
40
0.99594110843875
40
0.999483551837455
40
1
40
1
40
1
40
1
41
1
10
-30
20
15.9926380776278
30
0
41
1
10
-30
20
15.9925496912422
30
0
41
1
10
-30
20
15.9917867656383
30
0
41
1
10
-30
20
15.9893850921089
30
0
41
1
10
-30
20
15.9836860314146
30
0
41
1
10
-30
20
15.9756808210229
30
0
41
1
10
-30
20
15.9654018084482
30
0
41
1
10
-30
20
15.9528811264941
30
0
41
1
10
-30
20
15.9381491278438
30
0
41
1
10
-30
20
15.9212355486336
30
0
41
1
10
-30
20
15.9021692443495
30
0
41
1
10
-30
20
15.8809772874923
30
0
41
1
10
-30
20
15.85768719628
30
0
41
1
10
-30
20
15.8237020449635
30
0
41
1
10
-30
20
15.786151572388
30
0
41
1
10
-30
20
15.7440467976174
30
0
41
1
10
-30
20
15.7106366986067
30
0
41
1
10
-30
20
15.6752710038507
30
0
41
1
10
-30
20
15.6253102414823
30
0
41
1
10
-30
20
15.5722298833996
30
0
41
1
10
-30
20
15.5146768571487
30
0
41
1
10
-30
20
15.454635155867
30
0
41
1
10
-30
20
15.3917322415494
30
0
41
1
10
-30
20
15.3243986601424
30
0
41
1
10
-30
20
15.2546726017927
30
0
41
1
10
-30
20
15.1823145630236
30
0
41
1
10
-30
20
15.1055630554725
30
0
41
1
10
-30
20
15.0465122402176
30
0
41
1
10
-30
20
14.9857535165871
30
0
41
1
10
-30
20
14.9233034368069
30
0
41
1
10
-30
20
14.8591738020485
30
0
41
1
10
-30
20
14.7933781380804
30
0
41
1
10
-30
20
14.7259318150055
30
0
41
1
10
-30
20
14.6334478809413
30
0
41
1
10
-30
20
14.5388306139923
30
0
41
1
10
-30
20
14.4398724968665
30
0
41
1
10
-30
20
14.3643499358607
30
0
41
1
10
-30
20
14.2872489988171
30
0
41
1
10
-30
20
14.1819460940194
30
0
41
1
10
-30
20
14.0747689624993
30
0
41
1
10
-30
20
13.9632604256822
30
0
41
1
10
-30
20
13.8784200007502
30
0
41
1
10
-30
20
13.7920640526128
30
0
41
1
10
-30
20
13.674463030797
30
0
41
1
10
-30
20
13.5552283874056
30
0
41
1
10
-30
20
13.4316550911984
30
0
41
1
10
-30
20
13.337853067095
30
0
41
1
10
-30
20
13.2425907988595
30
0
41
1
10
-30
20
13.1131460860381
30
0
41
1
10
-30
20
12.9822967545724
30
0
41
1
10
-30
20
12.847084683004
30
0
41
1
10
-30
20
12.7446351532221
30
0
41
1
10
-30
20
12.6407746180399
30
0
41
1
10
-30
20
12.499887311655
30
0
41
1
10
-30
20
12.3578191289812
30
0
41
1
10
-30
20
12.2113468162577
30
0
41
1
10
-30
20
12.100530667573
30
0
41
1
10
-30
20
11.9883478761207
30
0
41
1
10
-30
20
11.8363772491739
30
0
41
1
10
-30
20
11.6834503922585
30
0
41
1
10
-30
20
11.5260594948948
30
0
41
1
10
-30
20
11.4071324366749
30
0
41
1
10
-30
20
11.286879488698
30
0
41
1
10
-30
20
11.1241532157817
30
0
41
1
10
-30
20
10.9607029988619
30
0
41
1
10
-30
20
10.7927086404325
30
0
41
1
10
-30
20
10.6229844866849
30
0
41
1
10
-30
20
10.4091173939315
30
0
41
1
10
-30
20
10.1909959678346
30
0
41
1
10
-30
20
10.0126979588286
30
0
41
1
10
-30
20
9.83272430289384
30
0
41
1
10
-30
20
9.65245023276196
30
0
41
1
10
-30
20
9.46744871362006
30
0
41
1
10
-30
20
9.32804093460692
30
0
41
1
10
-30
20
9.18740563851225
30
0
41
1
10
-30
20
9.0455543785921
30
0
41
1
10
-30
20
8.90249044231979
30
0
41
1
10
-30
20
8.70931958714522
30
0
41
1
10
-30
20
8.46674616603485
30
0
41
1
10
-30
20
8.22021686294164
30
0
41
1
10
-30
20
8.01906836645577
30
0
41
1
10
-30
20
7.86773085832669
30
0
41
1
10
-30
20
7.71524241280139
30
0
41
1
10
-30
20
7.56161298420648
30
0
41
1
10
-30
20
7.40685260452795
30
0
41
1
10
-30
20
7.19804202206524
30
0
41
1
10
-30
20
6.93651252502832
30
0
41
1
10
-30
20
6.61705894701072
30
0
41
1
10
-30
20
6.34834996432818
30
0
41
1
10
-30
20
6.12929373929512
30
0
41
1
10
-30
20
5.96484945115367
30
0
41
1
10
-30
20
5.79939743818983
30
0
41
1
10
-30
20
5.6329554281462
30
0
41
1
10
-30
20
5.4655408318975
30
0
41
1
10
-30
20
5.29717335727497
30
0
41
1
10
-30
20
5.1278759130733
30
0
41
1
10
-30
20
4.9576706384986
30
0
41
1
10
-30
20
4.78658071628462
30
0
41
1
10
-30
20
4.61463355062483
30
0
41
1
10
-30
20
4.44186113006066
30
0
41
1
10
-30
20
4.26829321973946
30
0
41
1
10
-30
20
4.09396155182321
30
0
41
1
10
-30
20
3.91890592173866
30
0
41
1
10
-30
20
3.74316620306934
30
0
41
1
10
-30
20
3.56678705857649
30
0
41
1
10
-30
20
3.42015123791833
30
0
41
1
10
-30
20
3.3009810984795
30
0
41
1
10
-30
20
3.21216327477833
30
0
41
1
10
-30
20
3.12322377081893
30
0
41
1
10
-30
20
3.00356413190349
30
0
41
1
10
-30
20
2.85589664232998
30
0
41
1
10
-30
20
2.70788037697059
30
0
41
1
10
-30
20
2.58749550859631
30
0
41
1
10
-30
20
2.49793822974368
30
0
41
1
10
-30
20
2.40833000131903
30
0
41
1
10
-30
20
2.31867596083526
30
0
41
1
10
-30
20
2.22899146909504
30
0
41
1
10
-30
20
2.10827328924756
30
0
41
1
10
-30
20
1.99097459417123
30
0
41
1
10
-30
20
1.87012467714987
30
0
41
1
10
-30
20
1.78043031683035
30
0
41
1
10
-30
20
1.69076251244053
30
0
41
1
10
-30
20
1.60113247848602
30
0
41
1
10
-30
20
1.5115531360978
30
0
41
1
10
-30
20
1.422025757727
30
0
41
1
10
-30
20
1.33256776537956
30
0
41
1
10
-30
20
1.24317741509077
30
0
41
1
10
-30
20
1.15386860885189
30
0
41
1
10
-30
20
1.0646401367365
30
0
41
1
10
-30
20
0.975500136218272
30
0
41
1
10
-30
20
0.886447988926818
30
0
41
1
10
-30
20
0.797485776681128
30
0
41
1
10
-30
20
0.708610852102652
30
0
41
1
10
-30
20
0.619820737442751
30
0
41
1
10
-30
20
0.531109764951225
30
0
41
1
10
-30
20
0.442471434007643
30
0
41
1
10
-30
20
0.353896007963442
30
0
41
1
10
-30
20
0.265373879214224
30
0
41
1
10
-30
20
0.176892371692134
30
0
41
1
10
-30
20
0.0884392148653887
30
0
41
1
10
-30
20
2.04973958E-08
30
0
41
1
10
-30
20
-0.0884392031952643
30
0
41
1
10
-30
20
-0.17689241471993
30
0
41
1
10
-30
20
-0.265373915570137
30
0
41
1
10
-30
20
-0.353895962579486
30
0
41
1
10
-30
20
-0.442471374506852
30
0
41
1
10
-30
20
-0.531109813902617
30
0
41
1
10
-30
20
-0.619820822982149
30
0
41
1
10
-30
20
-0.708610806550098
30
0
41
1
10
-30
20
-0.797485667180183
30
0
41
1
10
-30
20
-0.88644802600686
30
0
41
1
10
-30
20
-0.97550027278379
30
0
41
1
10
-30
20
-1.06464012636252
30
0
41
1
10
-30
20
-1.15386845800867
30
0
41
1
10
-30
20
-1.24317738635409
30
0
41
1
10
-30
20
-1.33256791795026
30
0
41
1
10
-30
20
-1.42202585063245
30
0
41
1
10
-30
20
-1.5115530207047
30
0
41
1
10
-30
20
-1.60113232466114
30
0
41
1
10
-30
20
-1.69076256252157
30
0
41
1
10
-30
20
-1.78043050963589
30
0
41
1
10
-30
20
-1.8701247319346
30
0
41
1
10
-30
20
-1.95984062320622
30
0
41
1
10
-30
20
-2.04956121840735
30
0
41
1
10
-30
20
-2.13928298465072
30
0
41
1
10
-30
20
-2.22899154181988
30
0
41
1
10
-30
20
-2.34971237639814
30
0
41
1
10
-30
20
-2.46705810448162
30
0
41
1
10
-30
20
-2.5874956726754
30
0
41
1
10
-30
20
-2.70788056755163
30
0
41
1
10
-30
20
-2.85589666602101
30
0
41
1
10
-30
20
-3.00356394920902
30
0
41
1
10
-30
20
-3.12322374659237
30
0
41
1
10
-30
20
-3.21216341650842
30
0
41
1
10
-30
20
-3.3009812939207
30
0
41
1
10
-30
20
-3.42015124315617
30
0
41
1
10
-30
20
-3.56678672363677
30
0
41
1
10
-30
20
-3.74316585626099
30
0
41
1
10
-30
20
-3.91890584757374
30
0
41
1
10
-30
20
-4.09396100129447
30
0
41
1
10
-30
20
-4.26829259541552
30
0
41
1
10
-30
20
-4.4418618308207
30
0
41
1
10
-30
20
-4.61463414914385
30
0
41
1
10
-30
20
-4.78658021025495
30
0
41
1
10
-30
20
-4.95767123056282
30
0
41
1
10
-30
20
-5.1278778625566
30
0
41
1
10
-30
20
-5.29717415068041
30
0
41
1
10
-30
20
-5.46553992297879
30
0
41
1
10
-30
20
-5.63295448869491
30
0
41
1
10
-30
20
-5.79939725011724
30
0
41
1
10
-30
20
-5.96484950556561
30
0
41
1
10
-30
20
-6.1292936535483
30
0
41
1
10
-30
20
-6.34834993475852
30
0
41
1
10
-30
20
-6.6170590196507
30
0
41
1
10
-30
20
-6.93651248001379
30
0
41
1
10
-30
20
-7.19804203228608
30
0
41
1
10
-30
20
-7.40685270744598
30
0
41
1
10
-30
20
-7.56161297986853
30
0
41
1
10
-30
20
-7.71524232371235
30
0
41
1
10
-30
20
-7.86773082006812
30
0
41
1
10
-30
20
-8.01906843480589
30
0
41
1
10
-30
20
-8.22021692135615
30
0
41
1
10
-30
20
-8.4667461231511
30
0
41
1
10
-30
20
-8.70931957903713
30
0
41
1
10
-30
20
-8.90249052457438
30
0
41
1
10
-30
20
-9.04555441784282
30
0
41
1
10
-30
20
-9.18740560593943
30
0
41
1
10
-30
20
-9.32804088163152
30
0
41
1
10
-30
20
-9.46744870809562
30
0
41
1
10
-30
20
-9.65245029192153
30
0
41
1
10
-30
20
-9.83272433616031
30
0
41
1
10
-30
20
-10.0126979221092
30
0
41
1
10
-30
20
-10.1909959517429
30
0
41
1
10
-30
20
-10.4091174330404
30
0
41
1
10
-30
20
-10.6229845090751
30
0
41
1
10
-30
20
-10.7927086151922
30
0
41
1
10
-30
20
-10.9607029915804
30
0
41
1
10
-30
20
-11.1241532476502
30
0
41
1
10
-30
20
-11.286879520772
30
0
41
1
10
-30
20
-11.4071324437642
30
0
41
1
10
-30
20
-11.526059483736
30
0
41
1
10
-30
20
-11.6834503898541
30
0
41
1
10
-30
20
-11.8363772717575
30
0
41
1
10
-30
20
-11.9883479026383
30
0
41
1
10
-30
20
-12.100530681097
30
0
41
1
10
-30
20
-12.211346817793
30
0
41
1
10
-30
20
-12.3578191303265
30
0
41
1
10
-30
20
-12.4998873251014
30
0
41
1
10
-30
20
-12.640774639564
30
0
41
1
10
-30
20
-12.7446351726738
30
0
41
1
10
-30
20
-12.8470846962099
30
0
41
1
10
-30
20
-12.9822967603461
30
0
41
1
10
-30
20
-13.1131460918651
30
0
41
1
10
-30
20
-13.2425908150843
30
0
41
1
10
-30
20
-13.3378530905647
30
0
41
1
10
-30
20
-13.4316551022429
30
0
41
1
10
-30
20
-13.5552284439381
30
0
41
1
10
-30
20
-13.6744629632361
30
0
41
1
10
-30
20
-13.7920640428987
30
0
41
1
10
-30
20
-13.8638084100541
30
0
41
1
10
-30
20
-13.9208384799596
30
0
41
1
10
-30
20
-13.9773600368973
30
0
41
1
10
-30
20
-14.0747689786766
30
0
41
1
10
-30
20
-14.1819460903518
30
0
41
1
10
-30
20
-14.2872490063531
30
0
41
1
10
-30
20
-14.3643499644422
30
0
41
1
10
-30
20
-14.4398725346097
30
0
41
1
10
-30
20
-14.5388306330265
30
0
41
1
10
-30
20
-14.6334478734244
30
0
41
1
10
-30
20
-14.7259318226356
30
0
41
1
10
-30
20
-14.793378171537
30
0
41
1
10
-30
20
-14.8591738437125
30
0
41
1
10
-30
20
-14.9233034607296
30
0
41
1
10
-30
20
-14.9857535133679
30
0
41
1
10
-30
20
-15.0465122321639
30
0
41
1
10
-30
20
-15.1055630695376
30
0
41
1
10
-30
20
-15.1823146060513
30
0
41
1
10
-30
20
-15.2546726312332
30
0
41
1
10
-30
20
-15.3243986497297
30
0
41
1
10
-30
20
-15.3917322452796
30
0
41
1
10
-30
20
-15.4546352005829
30
0
41
1
10
-30
20
-15.5146768877911
30
0
41
1
10
-30
20
-15.5722298782127
30
0
41
1
10
-30
20
-15.6253102421943
30
0
41
1
10
-30
20
-15.6752710489662
30
0
41
1
10
-30
20
-15.7106367362118
30
0
41
1
10
-30
20
-15.7440468008705
30
0
41
1
10
-30
20
-15.7861515665346
30
0
41
1
10
-30
20
-15.8237020814765
30
0
41
1
10
-30
20
-15.8576872273509
30
0
41
1
10
-30
20
-15.8809772969169
30
0
41
1
10
-30
20
-15.9021692417173
30
0
41
1
10
-30
20
-15.921235563756
30
0
41
1
10
-30
20
-15.9381491696965
30
0
41
1
10
-30
20
-15.9528811556008
30
0
41
1
10
-30
20
-15.9654018081648
30
0
41
1
10
-30
20
-15.9756808201301
30
0
41
1
10
-30
20
-15.9836860510364
30
0
41
1
10
-30
20
-15.989385071505
30
0
41
1
10
-30
20
-15.9917872644376
30
0
41
1
10
-30
20
-15.9925502710052
30
0
41
1
10
-30
20
-15.9926389223957
30
0
0
SPLINE
5
16B
100
AcDbEntity
8
SK1
62
256
6
ByLayer
370
18
48
1
60
0
100
AcDbSpline
70
4
71
3
72
102
73
98
40
0
40
0
40
0
40
0
40
0.0028041102745436
40
0.0116364787240647
40
0.0204688471735859
40
0.029301215623107
40
0.0381335840726281
40
0.0469659525221492
40
0.0557983209716704
40
0.0646306894211915
40
0.0734630578707126
40
0.0822954263202337
40
0.0999601632192759
40
0.117624900118318
40
0.13528963701736
40
0.144122005466882
40
0.152954373916403
40
0.161786742365924
40
0.170619110815445
40
0.179451479264966
40
0.188283847714487
40
0.205948584613529
40
0.223613321512572
40
0.232445689962093
40
0.241278058411614
40
0.250110426861135
40
0.258942795310656
40
0.267775163760177
40
0.276607532209698
40
0.294272269108741
40
0.303104637558262
40
0.311937006007783
40
0.329601742906825
40
0.347266479805867
40
0.356098848255389
40
0.36493121670491
40
0.382595953603952
40
0.391428322053473
40
0.400260690502994
40
0.409093058952515
40
0.417925427402036
40
0.435590164301079
40
0.4444225327506
40
0.453254901200121
40
0.462087269649642
40
0.470919638099163
40
0.488584374998205
40
0.497416743447727
40
0.506249111897248
40
0.515081480346769
40
0.52391384879629
40
0.541578585695332
40
0.550410954144853
40
0.559243322594374
40
0.568075691043895
40
0.576908059493417
40
0.594572796392459
40
0.60340516484198
40
0.612237533291501
40
0.621069901741022
40
0.629902270190543
40
0.647567007089586
40
0.656399375539107
40
0.665231743988628
40
0.674064112438149
40
0.68289648088767
40
0.700561217786712
40
0.709393586236233
40
0.718225954685755
40
0.727058323135276
40
0.735890691584797
40
0.744723060034318
40
0.753555428483839
40
0.76238779693336
40
0.771220165382881
40
0.788884902281924
40
0.797717270731444
40
0.806549639180966
40
0.824214376080008
40
0.833046744529529
40
0.84187911297905
40
0.859543849878093
40
0.868376218327613
40
0.877208586777135
40
0.886040955226656
40
0.894873323676177
40
0.912538060575219
40
0.92137042902474
40
0.930202797474261
40
0.939035165923782
40
0.947867534373304
40
0.956699902822825
40
0.965532271272346
40
0.974364639721867
40
0.983197008171388
40
0.992029376620909
40
1
40
1
40
1
40
1
41
1
10
-0.394976888875291
20
5.38678223324206
30
0
41
1
10
-0.394976888875291
20
5.40659331253005
30
0
41
1
10
-0.394976888875291
20
5.48871675629277
30
0
41
1
10
-0.394976888875291
20
5.63252720020006
30
0
41
1
10
-0.394976888875291
20
5.81741425905381
30
0
41
1
10
-0.394976888875291
20
6.00101947738438
30
0
41
1
10
-0.394976888875291
20
6.18333822517315
30
0
41
1
10
-0.394976888875291
20
6.36436626337326
30
0
41
1
10
-0.394976888875291
20
6.54409938064708
30
0
41
1
10
-0.394976888875291
20
6.72253428981168
30
0
41
1
10
-0.394976888875291
20
6.89966739484254
30
0
41
1
10
-0.394976888875291
20
7.13420904829047
30
0
41
1
10
-0.394976888875291
20
7.42389184310315
30
0
41
1
10
-0.394976888875291
20
7.76637137475097
30
0
41
1
10
-0.394976888875291
20
8.04728288893983
30
0
41
1
10
-0.394976888875291
20
8.26952734508268
30
0
41
1
10
-0.394976888875291
20
8.43482033812745
30
0
41
1
10
-0.394976888875291
20
8.59878513251641
30
0
41
1
10
-0.394976888875291
20
8.76141979935898
30
0
41
1
10
-0.394976888875291
20
8.9227212090467
30
0
41
1
10
-0.394976888875291
20
9.13609084815204
30
0
41
1
10
-0.394976888875291
20
9.3992804435735
30
0
41
1
10
-0.394976888875291
20
9.65799297250351
30
0
41
1
10
-0.394976888875291
20
9.86240079247779
30
0
41
1
10
-0.394976888875291
20
10.014301562069
30
0
41
1
10
-0.394976888875291
20
10.1648479968029
30
0
41
1
10
-0.394976888875291
20
10.3140380853821
30
0
41
1
10
-0.394976888875291
20
10.4618684218406
30
0
41
1
10
-0.394976888875291
20
10.6572262982852
30
0
41
1
10
-0.394976888875291
20
10.8496518299165
30
0
41
1
10
-0.394976888875291
20
11.0395280715927
30
0
41
1
10
-0.394976888875291
20
11.2275701322441
30
0
41
1
10
-0.394976888875291
20
11.4590305058839
30
0
41
1
10
-0.394976888875291
20
11.6858676336886
30
0
41
1
10
-0.394976888875291
20
11.8646543426879
30
0
41
1
10
-0.394976888875291
20
12.0415756036957
30
0
41
1
10
-0.394976888875291
20
12.2155153079022
30
0
41
1
10
-0.394976888875291
20
12.3868007822861
30
0
41
1
10
-0.394976888875291
20
12.5138050377602
30
0
41
1
10
-0.394976888875291
20
12.6393872212047
30
0
41
1
10
-0.394976888875291
20
12.8049814419576
30
0
41
1
10
-0.394976888875291
20
12.967550927472
30
0
41
1
10
-0.394976888875291
20
13.127391952352
30
0
41
1
10
-0.394976888875291
20
13.2457848907918
30
0
41
1
10
-0.394976888875291
20
13.3627236430939
30
0
41
1
10
-0.394976888875291
20
13.5167448397426
30
0
41
1
10
-0.394976888875291
20
13.6676860465324
30
0
41
1
10
-0.394976888875291
20
13.8158144643309
30
0
41
1
10
-0.394976888875291
20
13.9253889575191
30
0
41
1
10
-0.394976888875291
20
14.0334711437703
30
0
41
1
10
-0.394976888875291
20
14.1756274353422
30
0
41
1
10
-0.394976888875291
20
14.3146351144528
30
0
41
1
10
-0.394976888875291
20
14.4507333574048
30
0
41
1
10
-0.394976888875291
20
14.5512443698349
30
0
41
1
10
-0.394976888875291
20
14.6502180265082
30
0
41
1
10
-0.394976888875291
20
14.7801642402503
30
0
41
1
10
-0.394976888875291
20
14.906878048735
30
0
41
1
10
-0.394976888875291
20
15.0305709686995
30
0
41
1
10
-0.394976888875291
20
15.1217290697223
30
0
41
1
10
-0.394976888875291
20
15.2112966721244
30
0
41
1
10
-0.394976888875291
20
15.3286250260664
30
0
41
1
10
-0.394976888875291
20
15.4426195996911
30
0
41
1
10
-0.394976888875291
20
15.553463729323
30
0
41
1
10
-0.394976888875291
20
15.6349267495635
30
0
41
1
10
-0.394976888875291
20
15.7147364711228
30
0
41
1
10
-0.394976888875291
20
15.8189643575456
30
0
41
1
10
-0.394976888875291
20
15.9197362080175
30
0
41
1
10
-0.394976888875291
20
16.0172057910894
30
0
41
1
10
-0.394976888875291
20
16.0885677968918
30
0
41
1
10
-0.394976888875291
20
16.1582019227301
30
0
41
1
10
-0.394976888875291
20
16.2260943534788
30
0
41
1
10
-0.394976888875291
20
16.2922298184193
30
0
41
1
10
-0.394976888875291
20
16.3565947837565
30
0
41
1
10
-0.394976888875291
20
16.4191737242596
30
0
41
1
10
-0.394976888875291
20
16.5002370605308
30
0
41
1
10
-0.394976888875291
20
16.5775834289921
30
0
41
1
10
-0.394976888875291
20
16.6513062647865
30
0
41
1
10
-0.394976888875291
20
16.7225357594453
30
0
41
1
10
-0.394976888875291
20
16.7899145739052
30
0
41
1
10
-0.394976888875291
20
16.8535135157982
30
0
41
1
10
-0.394976888875291
20
16.9145140859044
30
0
41
1
10
-0.394976888875291
20
16.9715145338598
30
0
41
1
10
-0.394976888875291
20
17.0245523789023
30
0
41
1
10
-0.394976888875291
20
17.0622798138473
30
0
41
1
10
-0.394976888875291
20
17.0979462613767
30
0
41
1
10
-0.394976888875291
20
17.1427382851614
30
0
41
1
10
-0.394976888875291
20
17.1832568130363
30
0
41
1
10
-0.394976888875291
20
17.2194882282903
30
0
41
1
10
-0.394976888875291
20
17.2444530966284
30
0
41
1
10
-0.394976888875291
20
17.2671905263171
30
0
41
1
10
-0.394976888875291
20
17.2876678324761
30
0
41
1
10
-0.394976888875291
20
17.3058521283006
30
0
41
1
10
-0.394976888875291
20
17.3217086001334
30
0
41
1
10
-0.394976888875291
20
17.3352007293143
30
0
41
1
10
-0.394976888875291
20
17.3462909837355
30
0
41
1
10
-0.394976888875291
20
17.3546580058729
30
0
41
1
10
-0.394976888875291
20
17.358644551368
30
0
41
1
10
-0.394976888875291
20
17.3601932333234
30
0
0
SPLINE
5
16C
100
AcDbEntity
8
SK1
62
256
6
ByLayer
370
18
48
1
60
0
100
AcDbSpline
70
4
71
3
72
282
73
278
40
0
40
0
40
0
40
0
40
0.0031167404917006
40
0.006691131374764
40
0.0102655222578275
40
0.013839913140891
40
0.0174143040239544
40
0.0209886949070179
40
0.0245630857900814
40
0.0281374766731449
40
0.0317118675562083
40
0.0352862584392718
40
0.0424350402053987
40
0.0460094310884622
40
0.0495838219715257
40
0.0531582128545892
40
0.0567326037376526
40
0.0638813855037796
40
0.067455776386843
40
0.0710301672699065
40
0.0781789490360335
40
0.0817533399190969
40
0.0853277308021604
40
0.0924765125682873
40
0.0960509034513508
40
0.0996252943344143
40
0.103199685217478
40
0.106774076100541
40
0.110348466983605
40
0.113922857866668
40
0.117497248749732
40
0.121071639632795
40
0.128220421398922
40
0.131794812281986
40
0.135369203165049
40
0.138943594048112
40
0.142517984931176
40
0.149666766697303
40
0.153241157580366
40
0.155028353021898
40
0.15681554846343
40
0.160389939346493
40
0.163964330229557
40
0.171113111995684
40
0.174687502878747
40
0.178261893761811
40
0.181836284644874
40
0.185410675527938
40
0.192559457294065
40
0.196133848177128
40
0.199708239060191
40
0.203282629943255
40
0.206857020826318
40
0.214005802592445
40
0.217580193475509
40
0.221154584358572
40
0.224728975241636
40
0.228303366124699
40
0.235452147890826
40
0.23902653877389
40
0.242600929656953
40
0.246175320540017
40
0.24974971142308
40
0.256898493189207
40
0.26047288407227
40
0.264047274955334
40
0.271196056721461
40
0.278344838487588
40
0.281919229370651
40
0.285493620253715
40
0.292642402019842
40
0.296216792902905
40
0.299791183785969
40
0.303365574669032
40
0.306939965552096
40
0.310514356435159
40
0.314088747318223
40
0.321237529084349
40
0.328386310850476
40
0.33196070173354
40
0.335535092616603
40
0.339109483499667
40
0.34268387438273
40
0.346258265265794
40
0.349832656148857
40
0.356981437914984
40
0.364130219681111
40
0.371279001447238
40
0.374853392330302
40
0.378427783213365
40
0.382002174096429
40
0.385576564979492
40
0.389150955862555
40
0.392725346745619
40
0.396299737628682
40
0.399874128511746
40
0.403448519394809
40
0.407022910277873
40
0.410597301160936
40
0.414171692044
40
0.417746082927063
40
0.421320473810127
40
0.42489486469319
40
0.428469255576254
40
0.432043646459317
40
0.433830841900849
40
0.435618037342381
40
0.437405232783912
40
0.439192428225444
40
0.442766819108508
40
0.446341209991571
40
0.448128405433103
40
0.449915600874634
40
0.453489991757698
40
0.45527718719923
40
0.457064382640761
40
0.458851578082293
40
0.460638773523825
40
0.462425968965357
40
0.464213164406888
40
0.46600035984842
40
0.467787555289952
40
0.469574750731484
40
0.471361946173015
40
0.473149141614547
40
0.474936337056079
40
0.476723532497611
40
0.478510727939142
40
0.480297923380674
40
0.482085118822206
40
0.483872314263737
40
0.485659509705269
40
0.487446705146801
40
0.489233900588333
40
0.491021096029864
40
0.492808291471396
40
0.494595486912928
40
0.49638268235446
40
0.498169877795991
40
0.499957073237523
40
0.501744268679055
40
0.503531464120587
40
0.505318659562118
40
0.50710585500365
40
0.508893050445182
40
0.510680245886713
40
0.512467441328245
40
0.514254636769777
40
0.516041832211309
40
0.51782902765284
40
0.519616223094372
40
0.521403418535904
40
0.523190613977436
40
0.524977809418967
40
0.526765004860499
40
0.528552200302031
40
0.530339395743563
40
0.532126591185094
40
0.533913786626626
40
0.535700982068158
40
0.537488177509689
40
0.539275372951221
40
0.542849763834285
40
0.544636959275816
40
0.546424154717348
40
0.54821135015888
40
0.549998545600412
40
0.551785741041943
40
0.553572936483475
40
0.557147327366539
40
0.560721718249602
40
0.562508913691134
40
0.564296109132665
40
0.566083304574197
40
0.567870500015729
40
0.571444890898792
40
0.575019281781856
40
0.578593672664919
40
0.582168063547983
40
0.585742454431046
40
0.58931684531411
40
0.592891236197173
40
0.596465627080237
40
0.6000400179633
40
0.603614408846364
40
0.607188799729427
40
0.610763190612491
40
0.614337581495554
40
0.617911972378618
40
0.621486363261681
40
0.625060754144744
40
0.628635145027808
40
0.635783926793935
40
0.642932708560062
40
0.650081490326189
40
0.653655881209252
40
0.657230272092316
40
0.660804662975379
40
0.664379053858443
40
0.667953444741506
40
0.67152783562457
40
0.678676617390697
40
0.685825399156824
40
0.689399790039887
40
0.69297418092295
40
0.696548571806014
40
0.700122962689077
40
0.703697353572141
40
0.707271744455204
40
0.714420526221331
40
0.717994917104395
40
0.721569307987458
40
0.728718089753585
40
0.735866871519712
40
0.739441262402776
40
0.743015653285839
40
0.750164435051966
40
0.75373882593503
40
0.757313216818093
40
0.760887607701156
40
0.76446199858422
40
0.771610780350347
40
0.77518517123341
40
0.778759562116474
40
0.782333952999537
40
0.785908343882601
40
0.793057125648728
40
0.796631516531791
40
0.800205907414855
40
0.803780298297918
40
0.807354689180982
40
0.814503470947109
40
0.818077861830172
40
0.821652252713236
40
0.825226643596299
40
0.828801034479362
40
0.835949816245489
40
0.839524207128553
40
0.843098598011616
40
0.84667298889468
40
0.850247379777743
40
0.85739616154387
40
0.860970552426934
40
0.864544943309997
40
0.868119334193061
40
0.871693725076124
40
0.878842506842251
40
0.882416897725314
40
0.885991288608378
40
0.889565679491441
40
0.893140070374505
40
0.896714461257568
40
0.900288852140632
40
0.903863243023695
40
0.907437633906759
40
0.914586415672886
40
0.918160806555949
40
0.921735197439013
40
0.92888397920514
40
0.932458370088203
40
0.936032760971267
40
0.943181542737393
40
0.946755933620457
40
0.95033032450352
40
0.953904715386584
40
0.957479106269647
40
0.964627888035774
40
0.968202278918838
40
0.971776669801901
40
0.975351060684965
40
0.978925451568028
40
0.982499842451092
40
0.986074233334155
40
0.989648624217219
40
0.993223015100282
40
0.996797405983346
40
1
40
1
40
1
40
1
41
1
10
-2.19999999999999
20
-17.5147025704913
30
0
41
1
10
-2.19999999999999
20
-17.5131708539635
30
0
41
1
10
-2.19999999999999
20
-17.5091909611618
30
0
41
1
10
-2.19999999999999
20
-17.5008423321234
30
0
41
1
10
-2.19999999999999
20
-17.4896606126055
30
0
41
1
10
-2.19999999999999
20
-17.4760589706817
30
0
41
1
10
-2.19999999999999
20
-17.4600756994924
30
0
41
1
10
-2.19999999999999
20
-17.4417480876219
30
0
41
1
10
-2.19999999999999
20
-17.4211116738093
30
0
41
1
10
-2.19999999999999
20
-17.398199993695
30
0
41
1
10
-2.19999999999999
20
-17.3730462873428
30
0
41
1
10
-2.19999999999999
20
-17.3365615705832
30
0
41
1
10
-2.19999999999999
20
-17.2957083328928
30
0
41
1
10
-2.19999999999999
20
-17.2506133231919
30
0
41
1
10
-2.19999999999999
20
-17.2146924603873
30
0
41
1
10
-2.19999999999999
20
-17.1766986986672
30
0
41
1
10
-2.19999999999999
20
-17.123313852319
30
0
41
1
10
-2.19999999999999
20
-17.0658713913631
30
0
41
1
10
-2.19999999999999
20
-17.0044820909957
30
0
41
1
10
-2.19999999999999
20
-16.9404820184079
30
0
41
1
10
-2.19999999999999
20
-16.8725984731112
30
0
41
1
10
-2.19999999999999
20
-16.8009296884544
30
0
41
1
10
-2.19999999999999
20
-16.7267561914694
30
0
41
1
10
-2.19999999999999
20
-16.6488473199257
30
0
41
1
10
-2.19999999999999
20
-16.5672977619412
30
0
41
1
10
-2.19999999999999
20
-16.5043209901434
30
0
41
1
10
-2.19999999999999
20
-16.439549393056
30
0
41
1
10
-2.19999999999999
20
-16.3729983688048
30
0
41
1
10
-2.19999999999999
20
-16.3046816359758
30
0
41
1
10
-2.19999999999999
20
-16.2346146707391
30
0
41
1
10
-2.19999999999999
20
-16.1628111223414
30
0
41
1
10
-2.19999999999999
20
-16.0647793597711
30
0
41
1
10
-2.19999999999999
20
-15.9633135259672
30
0
41
1
10
-2.19999999999999
20
-15.8584914079188
30
0
41
1
10
-2.19999999999999
20
-15.7781982539187
30
0
41
1
10
-2.19999999999999
20
-15.6962433571226
30
0
41
1
10
-2.19999999999999
20
-15.5847743990242
30
0
41
1
10
-2.19999999999999
20
-15.4700110929875
30
0
41
1
10
-2.19999999999999
20
-15.3667724139347
30
0
41
1
10
-2.19999999999999
20
-15.3069761679616
30
0
41
1
10
-2.19999999999999
20
-15.2466455133785
30
0
41
1
10
-2.19999999999999
20
-15.1702261509224
30
0
41
1
10
-2.19999999999999
20
-15.0458464314392
30
0
41
1
10
-2.19999999999999
20
-14.9182892218295
30
0
41
1
10
-2.19999999999999
20
-14.7876243995297
30
0
41
1
10
-2.19999999999999
20
-14.6880675812844
30
0
41
1
10
-2.19999999999999
20
-14.5869647126432
30
0
41
1
10
-2.19999999999999
20
-14.4501162106047
30
0
41
1
10
-2.19999999999999
20
-14.3101885914782
30
0
41
1
10
-2.19999999999999
20
-14.1672492642274
30
0
41
1
10
-2.19999999999999
20
-14.0585319334344
30
0
41
1
10
-2.19999999999999
20
-13.9483131264862
30
0
41
1
10
-2.19999999999999
20
-13.7993681905533
30
0
41
1
10
-2.19999999999999
20
-13.6474264531923
30
0
41
1
10
-2.19999999999999
20
-13.4925540411334
30
0
41
1
10
-2.19999999999999
20
-13.3749248996583
30
0
41
1
10
-2.19999999999999
20
-13.2558316973182
30
0
41
1
10
-2.19999999999999
20
-13.0951031927999
30
0
41
1
10
-2.19999999999999
20
-12.9314463925932
30
0
41
1
10
-2.19999999999999
20
-12.7649271637091
30
0
41
1
10
-2.19999999999999
20
-12.6385945454976
30
0
41
1
10
-2.19999999999999
20
-12.510829004708
30
0
41
1
10
-2.19999999999999
20
-12.3385783781737
30
0
41
1
10
-2.19999999999999
20
-12.1634558646821
30
0
41
1
10
-2.19999999999999
20
-11.9855280067157
30
0
41
1
10
-2.19999999999999
20
-11.8057194023465
30
0
41
1
10
-2.19999999999999
20
-11.5774197477568
30
0
41
1
10
-2.19999999999999
20
-11.3444552554371
30
0
41
1
10
-2.19999999999999
20
-11.1553144582602
30
0
41
1
10
-2.19999999999999
20
-10.9643215989582
30
0
41
1
10
-2.19999999999999
20
-10.7705258416001
30
0
41
1
10
-2.19999999999999
20
-10.5740001651574
30
0
41
1
10
-2.19999999999999
20
-10.4252201002359
30
0
41
1
10
-2.19999999999999
20
-10.2750653748105
30
0
41
1
10
-2.19999999999999
20
-10.123538466054
30
0
41
1
10
-2.19999999999999
20
-9.97064123613961
30
0
41
1
10
-2.19999999999999
20
-9.76496631110052
30
0
41
1
10
-2.19999999999999
20
-9.50443394039922
30
0
41
1
10
-2.19999999999999
20
-9.23936571773675
30
0
41
1
10
-2.19999999999999
20
-9.02461799205525
30
0
41
1
10
-2.19999999999999
20
-8.86219304073114
30
0
41
1
10
-2.19999999999999
20
-8.69841428877766
30
0
41
1
10
-2.19999999999999
20
-8.53328407858572
30
0
41
1
10
-2.19999999999999
20
-8.36680341033821
30
0
41
1
10
-2.19999999999999
20
-8.14304411844034
30
0
41
1
10
-2.19999999999999
20
-7.85994708827315
30
0
41
1
10
-2.19999999999999
20
-7.51487112820212
30
0
41
1
10
-2.19999999999999
20
-7.22282328452872
30
0
41
1
10
-2.19999999999999
20
-6.98653550324826
30
0
41
1
10
-2.19999999999999
20
-6.80797159432132
30
0
41
1
10
-2.19999999999999
20
-6.62807271786153
30
0
41
1
10
-2.19999999999999
20
-6.44684092947375
30
0
41
1
10
-2.19999999999999
20
-6.26427796235191
30
0
41
1
10
-2.19999999999999
20
-6.08038609680852
30
0
41
1
10
-2.19999999999999
20
-5.89516734859467
30
0
41
1
10
-2.19999999999999
20
-5.70862461825789
30
0
41
1
10
-2.19999999999999
20
-5.52076102284178
30
0
41
1
10
-2.19999999999999
20
-5.33157993903222
30
0
41
1
10
-2.19999999999999
20
-5.14108500618136
30
0
41
1
10
-2.19999999999999
20
-4.94928076863459
30
0
41
1
10
-2.19999999999999
20
-4.75617249379656
30
0
41
1
10
-2.19999999999999
20
-4.56176617271484
30
0
41
1
10
-2.19999999999999
20
-4.36606871643772
30
0
41
1
10
-2.19999999999999
20
-4.16908851178403
30
0
41
1
10
-2.19999999999999
20
-4.00386592221611
30
0
41
1
10
-2.19999999999999
20
-3.87107811616198
30
0
41
1
10
-2.19999999999999
20
-3.77116418775421
30
0
41
1
10
-2.19999999999999
20
-3.67093805397229
30
0
41
1
10
-2.19999999999999
20
-3.53690183437425
30
0
41
1
10
-2.19999999999999
20
-3.3685565996314
30
0
41
1
10
-2.19999999999999
20
-3.19919952332833
30
0
41
1
10
-2.19999999999999
20
-3.06314133551615
30
0
41
1
10
-2.19999999999999
20
-2.92668912429065
30
0
41
1
10
-2.19999999999999
20
-2.78960994504098
30
0
41
1
10
-2.19999999999999
20
-2.65200559968281
30
0
41
1
10
-2.19999999999999
20
-2.54851063247162
30
0
41
1
10
-2.19999999999999
20
-2.44473977839391
30
0
41
1
10
-2.19999999999999
20
-2.34069812940874
30
0
41
1
10
-2.19999999999999
20
-2.23639086291985
30
0
41
1
10
-2.19999999999999
20
-2.13182396747072
30
0
41
1
10
-2.19999999999999
20
-2.02700349385555
30
0
41
1
10
-2.19999999999999
20
-1.92193654804362
30
0
41
1
10
-2.19999999999999
20
-1.81663009373557
30
0
41
1
10
-2.19999999999999
20
-1.71109232444707
30
0
41
1
10
-2.19999999999999
20
-1.60533156181742
30
0
41
1
10
-2.19999999999999
20
-1.49935699380711
30
0
41
1
10
-2.19999999999999
20
-1.39317848503856
30
0
41
1
10
-2.19999999999999
20
-1.2868063464968
30
0
41
1
10
-2.19999999999999
20
-1.18025198377217
30
0
41
1
10
-2.19999999999999
20
-1.073527029491
30
0
41
1
10
-2.19999999999999
20
-0.966644355262417
30
0
41
1
10
-2.19999999999999
20
-0.859617007920519
30
0
41
1
10
-2.19999999999999
20
-0.752459230354134
30
0
41
1
10
-2.19999999999999
20
-0.645185463980454
30
0
41
1
10
-2.19999999999999
20
-0.537811175438549
30
0
41
1
10
-2.19999999999999
20
-0.430352036900842
30
0
41
1
10
-2.19999999999999
20
-0.322824507999485
30
0
41
1
10
-2.19999999999999
20
-0.215245223931788
30
0
41
1
10
-2.19999999999999
20
-0.107631313716809
30
0
41
1
10
-2.19999999999999
20
-5.9909553E-09
30
0
41
1
10
-2.19999999999999
20
0.107631302158211
30
0
41
1
10
-2.19999999999999
20
0.215245213108574
30
0
41
1
10
-2.19999999999999
20
0.322824496958617
30
0
41
1
10
-2.19999999999999
20
0.430352024765966
30
0
41
1
10
-2.19999999999999
20
0.537811163545598
30
0
41
1
10
-2.19999999999999
20
0.6451854537342
30
0
41
1
10
-2.19999999999999
20
0.752459219961509
30
0
41
1
10
-2.19999999999999
20
0.859616995486306
30
0
41
1
10
-2.19999999999999
20
0.96664434311532
30
0
41
1
10
-2.19999999999999
20
1.073527020087
30
0
41
1
10
-2.19999999999999
20
1.18025197439016
30
0
41
1
10
-2.19999999999999
20
1.28680633401086
30
0
41
1
10
-2.19999999999999
20
1.39317847233161
30
0
41
1
10
-2.19999999999999
20
1.49935698477981
30
0
41
1
10
-2.19999999999999
20
1.60533155404698
30
0
41
1
10
-2.19999999999999
20
1.71109231328518
30
0
41
1
10
-2.19999999999999
20
1.81663008016324
30
0
41
1
10
-2.19999999999999
20
1.92193653735018
30
0
41
1
10
-2.19999999999999
20
2.0270034875229
30
0
41
1
10
-2.19999999999999
20
2.13182395998013
30
0
41
1
10
-2.19999999999999
20
2.23639085040651
30
0
41
1
10
-2.19999999999999
20
2.375450816946
30
0
41
1
10
-2.19999999999999
20
2.51402705629772
30
0
41
1
10
-2.19999999999999
20
2.65200561172497
30
0
41
1
10
-2.19999999999999
20
2.75522026664271
30
0
41
1
10
-2.19999999999999
20
2.85815023786415
30
0
41
1
10
-2.19999999999999
20
2.96079189341759
30
0
41
1
10
-2.19999999999999
20
3.06314133422205
30
0
41
1
10
-2.19999999999999
20
3.19919951970695
30
0
41
1
10
-2.19999999999999
20
3.36855658184021
30
0
41
1
10
-2.19999999999999
20
3.5369018254882
30
0
41
1
10
-2.2
20
3.67093805129474
30
0
41
1
10
-2.2
20
3.77116418570387
30
0
41
1
10
-2.2
20
3.87107810854144
30
0
41
1
10
-2.2
20
4.00386590607064
30
0
41
1
10
-2.2
20
4.16908849962459
30
0
41
1
10
-2.2
20
4.36606873641341
30
0
41
1
10
-2.2
20
4.56176620564526
30
0
41
1
10
-2.2
20
4.75617251627347
30
0
41
1
10
-2.2
20
4.94928086714646
30
0
41
1
10
-2.2
20
5.14108511996028
30
0
41
1
10
-2.2
20
5.33157993388585
30
0
41
1
10
-2.2
20
5.52076103085631
30
0
41
1
10
-2.2
20
5.708624690926
30
0
41
1
10
-2.2
20
5.89516728223867
30
0
41
1
10
-2.2
20
6.08038585927517
30
0
41
1
10
-2.2
20
6.26427776637019
30
0
41
1
10
-2.2
20
6.44684086969579
30
0
41
1
10
-2.2
20
6.62807270531454
30
0
41
1
10
-2.2
20
6.80797157864475
30
0
41
1
10
-2.2
20
6.98653548716828
30
0
41
1
10
-2.2
20
7.22282329277959
30
0
41
1
10
-2.2
20
7.51487111531026
30
0
41
1
10
-2.2
20
7.85994707617317
30
0
41
1
10
-2.2
20
8.14304412571011
30
0
41
1
10
-2.2
20
8.36680339868337
30
0
41
1
10
-2.2
20
8.53328405958746
30
0
41
1
10
-2.2
20
8.69841428000512
30
0
41
1
10
-2.2
20
8.86219304475884
30
0
41
1
10
-2.2
20
9.02461799380217
30
0
41
1
10
-2.2
20
9.23936570098886
30
0
41
1
10
-2.2
20
9.50443392738595
30
0
41
1
10
-2.2
20
9.76496631801302
30
0
41
1
10
-2.2
20
9.97064122920807
30
0
41
1
10
-2.2
20
10.1235384488298
30
0
41
1
10
-2.2
20
10.2750653600417
30
0
41
1
10
-2.2
20
10.4252200954492
30
0
41
1
10
-2.2
20
10.5740001677826
30
0
41
1
10
-2.2
20
10.7705258372791
30
0
41
1
10
-2.2
20
10.96432157968
30
0
41
1
10
-2.2
20
11.1553144466798
30
0
41
1
10
-2.2
20
11.3444552561941
30
0
41
1
10
-2.2
20
11.5774197426994
30
0
41
1
10
-2.2
20
11.8057193844339
30
0
41
1
10
-2.2
20
11.9855279960913
30
0
41
1
10
-2.2
20
12.1634558634281
30
0
41
1
10
-2.2
20
12.3385783725546
30
0
41
1
10
-2.2
20
12.510828990928
30
0
41
1
10
-2.2
20
12.6385945304865
30
0
41
1
10
-2.2
20
12.7649271524075
30
0
41
1
10
-2.2
20
12.9314463879873
30
0
41
1
10
-2.2
20
13.0951031858018
30
0
41
1
10
-2.2
20
13.2558316845062
30
0
41
1
10
-2.2
20
13.3749248852382
30
0
41
1
10
-2.2
20
13.4925540283558
30
0
41
1
10
-2.2
20
13.6474264445926
30
0
41
1
10
-2.2
20
13.7993681823228
30
0
41
1
10
-2.2
20
13.9483131149779
30
0
41
1
10
-2.2
20
14.0585319196999
30
0
41
1
10
-2.2
20
14.1672492498436
30
0
41
1
10
-2.2
20
14.310188578504
30
0
41
1
10
-2.2
20
14.4501162009323
30
0
41
1
10
-2.2
20
14.5869647024965
30
0
41
1
10
-2.2
20
14.6880675684927
30
0
41
1
10
-2.2
20
14.7876243835494
30
0
41
1
10
-2.2
20
14.9182892137509
30
0
41
1
10
-2.2
20
15.0458463802595
30
0
41
1
10
-2.2
20
15.1702262286607
30
0
41
1
10
-2.2
20
15.2619258251736
30
0
41
1
10
-2.2
20
15.3520264687641
30
0
41
1
10
-2.2
20
15.4700110710185
30
0
41
1
10
-2.2
20
15.5847743861311
30
0
41
1
10
-2.2
20
15.6962433497342
30
0
41
1
10
-2.2
20
15.7781982427732
30
0
41
1
10
-2.2
20
15.8584913887799
30
0
41
1
10
-2.2
20
15.9633134995801
30
0
41
1
10
-2.2
20
16.0647793469533
30
0
41
1
10
-2.2
20
16.1628111167188
30
0
41
1
10
-2.2
20
16.2346146587631
30
0
41
1
10
-2.2
20
16.3046816133433
30
0
41
1
10
-2.2
20
16.3729983406747
30
0
41
1
10
-2.2
20
16.4395493732765
30
0
41
1
10
-2.2
20
16.5043209819811
30
0
41
1
10
-2.2
20
16.567297757363
30
0
41
1
10
-2.2
20
16.6488472996884
30
0
41
1
10
-2.2
20
16.72675615712
30
0
41
1
10
-2.2
20
16.8009296734765
30
0
41
1
10
-2.2
20
16.8725984751516
30
0
41
1
10
-2.2
20
16.9404819965209
30
0
41
1
10
-2.2
20
17.0044820563696
30
0
41
1
10
-2.2
20
17.0658713749173
30
0
41
1
10
-2.2
20
17.1233138560685
30
0
41
1
10
-2.2
20
17.1766986759848
30
0
41
1
10
-2.2
20
17.2146924230801
30
0
41
1
10
-2.2
20
17.2506132986913
30
0
41
1
10
-2.2
20
17.2957083393221
30
0
41
1
10
-2.2
20
17.3365615480365
30
0
41
1
10
-2.2
20
17.373046254225
30
0
41
1
10
-2.2
20
17.3981999720817
30
0
41
1
10
-2.2
20
17.4211116708093
30
0
41
1
10
-2.2
20
17.4417480829298
30
0
41
1
10
-2.2
20
17.4600756660116
30
0
41
1
10
-2.2
20
17.4760589345483
30
0
41
1
10
-2.2
20
17.4896606050755
30
0
41
1
10
-2.2
20
17.5008423359265
30
0
41
1
10
-2.20000000000002
20
17.5092607632043
30
0
41
1
10
-2.2
20
17.5132727395139
30
0
41
1
10
-2.2
20
17.5148284304411
30
0
0
SPLINE
5
16D
100
AcDbEntity
8
SK1
62
256
6
ByLayer
370
18
48
1
60
0
100
AcDbSpline
70
4
71
3
72
290
73
286
40
0
40
0
40
0
40
0
40
0.0008596815730393
40
0.0043501767618107
40
0.0078406719505821
40
0.0113311671393534
40
0.0148216623281248
40
0.0183121575168961
40
0.0218026527056675
40
0.0252931478944388
40
0.0287836430832102
40
0.0322741382719815
40
0.0357646334607529
40
0.0392551286495243
40
0.0427456238382956
40
0.046236119027067
40
0.0532171094046097
40
0.0567076045933811
40
0.0601980997821524
40
0.0636885949709238
40
0.0671790901596951
40
0.0741600805372378
40
0.0776505757260092
40
0.0811410709147806
40
0.0881220612923233
40
0.0916125564810946
40
0.095103051669866
40
0.102084042047409
40
0.10557453723618
40
0.109065032424951
40
0.112555527613723
40
0.116046022802494
40
0.119536517991265
40
0.123027013180037
40
0.126517508368808
40
0.13000800355758
40
0.136988993935122
40
0.140479489123894
40
0.143969984312665
40
0.147460479501436
40
0.150950974690208
40
0.157931965067751
40
0.161422460256522
40
0.163167707850908
40
0.164912955445293
40
0.168403450634065
40
0.171893945822836
40
0.178874936200379
40
0.18236543138915
40
0.185855926577921
40
0.189346421766693
40
0.192836916955464
40
0.199817907333007
40
0.203308402521778
40
0.206798897710549
40
0.210289392899321
40
0.213779888088092
40
0.220760878465635
40
0.224251373654406
40
0.227741868843178
40
0.231232364031949
40
0.23472285922072
40
0.241703849598263
40
0.245194344787034
40
0.248684839975806
40
0.252175335164577
40
0.255665830353349
40
0.262646820730891
40
0.266137315919663
40
0.269627811108434
40
0.276608801485977
40
0.283589791863519
40
0.287080287052291
40
0.290570782241062
40
0.297551772618605
40
0.301042267807376
40
0.304532762996148
40
0.308023258184919
40
0.31151375337369
40
0.315004248562462
40
0.318494743751233
40
0.325475734128776
40
0.332456724506318
40
0.33594721969509
40
0.339437714883861
40
0.342928210072633
40
0.346418705261404
40
0.349909200450175
40
0.353399695638947
40
0.360380686016489
40
0.367361676394032
40
0.374342666771575
40
0.377833161960346
40
0.381323657149117
40
0.384814152337889
40
0.38830464752666
40
0.391795142715432
40
0.395285637904203
40
0.398776133092974
40
0.402266628281746
40
0.405757123470517
40
0.409247618659288
40
0.41273811384806
40
0.416228609036831
40
0.419719104225602
40
0.423209599414374
40
0.426700094603145
40
0.430190589791916
40
0.433681084980688
40
0.435426332575074
40
0.437171580169459
40
0.438916827763845
40
0.440662075358231
40
0.444152570547002
40
0.447643065735773
40
0.449388313330159
40
0.451133560924545
40
0.454624056113316
40
0.456369303707702
40
0.458114551302087
40
0.459859798896473
40
0.461605046490859
40
0.463350294085244
40
0.46509554167963
40
0.466840789274016
40
0.468586036868402
40
0.470331284462787
40
0.472076532057173
40
0.473821779651558
40
0.475567027245944
40
0.47731227484033
40
0.479057522434716
40
0.480802770029101
40
0.482548017623487
40
0.484293265217873
40
0.486038512812258
40
0.487783760406644
40
0.48952900800103
40
0.491274255595415
40
0.493019503189801
40
0.494764750784187
40
0.496509998378572
40
0.498255245972958
40
0.500000493567344
40
0.501745741161729
40
0.503490988756115
40
0.505236236350501
40
0.506981483944886
40
0.508726731539272
40
0.510471979133658
40
0.512217226728043
40
0.513962474322429
40
0.515707721916815
40
0.517452969511201
40
0.519198217105586
40
0.520943464699972
40
0.522688712294358
40
0.524433959888743
40
0.526179207483129
40
0.527924455077515
40
0.5296697026719
40
0.531414950266286
40
0.533160197860672
40
0.534905445455057
40
0.536650693049443
40
0.538395940643829
40
0.5418864358326
40
0.543631683426986
40
0.545376931021371
40
0.547122178615757
40
0.548867426210143
40
0.550612673804528
40
0.552357921398914
40
0.555848416587685
40
0.559338911776457
40
0.561084159370843
40
0.562829406965228
40
0.564574654559614
40
0.566319902154
40
0.569810397342771
40
0.573300892531542
40
0.576791387720314
40
0.580281882909085
40
0.583772378097856
40
0.587262873286628
40
0.590753368475399
40
0.59424386366417
40
0.597734358852942
40
0.601224854041713
40
0.604715349230485
40
0.608205844419256
40
0.611696339608027
40
0.615186834796798
40
0.61867732998557
40
0.622167825174341
40
0.625658320363113
40
0.632639310740655
40
0.639620301118198
40
0.646601291495741
40
0.650091786684512
40
0.653582281873283
40
0.657072777062055
40
0.660563272250826
40
0.664053767439598
40
0.667544262628369
40
0.674525253005912
40
0.681506243383454
40
0.684996738572226
40
0.688487233760997
40
0.691977728949769
40
0.69546822413854
40
0.698958719327311
40
0.702449214516083
40
0.709430204893625
40
0.712920700082397
40
0.716411195271168
40
0.723392185648711
40
0.730373176026254
40
0.733863671215025
40
0.737354166403796
40
0.744335156781339
40
0.74782565197011
40
0.751316147158882
40
0.754806642347653
40
0.758297137536424
40
0.765278127913967
40
0.768768623102738
40
0.77225911829151
40
0.775749613480281
40
0.779240108669053
40
0.786221099046595
40
0.789711594235367
40
0.793202089424138
40
0.796692584612909
40
0.800183079801681
40
0.807164070179223
40
0.810654565367995
40
0.814145060556766
40
0.817635555745538
40
0.821126050934309
40
0.828107041311851
40
0.831597536500623
40
0.835088031689394
40
0.838578526878165
40
0.842069022066937
40
0.84905001244448
40
0.852540507633251
40
0.856031002822022
40
0.859521498010794
40
0.863011993199565
40
0.869992983577108
40
0.873483478765879
40
0.876973973954651
40
0.880464469143422
40
0.883954964332193
40
0.887445459520965
40
0.890935954709736
40
0.894426449898507
40
0.897916945087279
40
0.904897935464821
40
0.908388430653593
40
0.911878925842364
40
0.918859916219907
40
0.922350411408678
40
0.92584090659745
40
0.932821896974992
40
0.936312392163764
40
0.939802887352535
40
0.943293382541306
40
0.946783877730078
40
0.95376486810762
40
0.957255363296392
40
0.960745858485163
40
0.964236353673935
40
0.967726848862706
40
0.971217344051477
40
0.974707839240249
40
0.97819833442902
40
0.981688829617791
40
0.985179324806563
40
0.988669819995334
40
0.992160315184106
40
0.995650810372877
40
0.999141305561648
40
1
40
1
40
1
40
1
41
1
10
-28.5
20
-16.8570615126367
30
0
41
1
10
-28.5
20
-16.8573439117445
30
0
41
1
10
-28.5
20
-16.8586399007828
30
0
41
1
10
-28.5
20
-16.8597680746869
30
0
41
1
10
-28.5
20
-16.8587319423622
30
0
41
1
10
-28.5
20
-16.8551966659016
30
0
41
1
10
-28.5
20
-16.8492033090471
30
0
41
1
10
-28.5
20
-16.8407921763224
30
0
41
1
10
-28.5
20
-16.8300011251081
30
0
41
1
10
-28.5
20
-16.816867307208
30
0
41
1
10
-28.5
20
-16.8014255596809
30
0
41
1
10
-28.5
20
-16.7837098927271
30
0
41
1
10
-28.5
20
-16.7637529737167
30
0
41
1
10
-28.5
20
-16.741585550229
30
0
41
1
10
-28.5
20
-16.7172383773104
30
0
41
1
10
-28.5
20
-16.6818354096897
30
0
41
1
10
-28.5
20
-16.642411504334
30
0
41
1
10
-28.5
20
-16.5986105943247
30
0
41
1
10
-28.5
20
-16.5637763395247
30
0
41
1
10
-28.5
20
-16.5269199399481
30
0
41
1
10
-28.5
20
-16.4750169286961
30
0
41
1
10
-28.5
20
-16.4194622696319
30
0
41
1
10
-28.5
20
-16.3597332242326
30
0
41
1
10
-28.5
20
-16.2974462376793
30
0
41
1
10
-28.5
20
-16.2317181619347
30
0
41
1
10
-28.5
20
-16.1619255341458
30
0
41
1
10
-28.5
20
-16.0896767899467
30
0
41
1
10
-28.5
20
-16.0141701800502
30
0
41
1
10
-28.5
20
-15.9346970807191
30
0
41
1
10
-28.5
20
-15.8734193510279
30
0
41
1
10
-28.5
20
-15.810384423087
30
0
41
1
10
-28.5
20
-15.7456081924763
30
0
41
1
10
-28.5
20
-15.679103534252
30
0
41
1
10
-28.5
20
-15.6108850733398
30
0
41
1
10
-28.5
20
-15.5409672073329
30
0
41
1
10
-28.5
20
-15.4453363938053
30
0
41
1
10
-28.5
20
-15.3468344527491
30
0
41
1
10
-28.5
20
-15.2445501295776
30
0
41
1
10
-28.5
20
-15.1663215599361
30
0
41
1
10
-28.5
20
-15.0864673213159
30
0
41
1
10
-28.5
20
-14.9776668655465
30
0
41
1
10
-28.5
20
-14.8661866667289
30
0
41
1
10
-28.5
20
-14.7654709460418
30
0
41
1
10
-28.5
20
-14.7070919001429
30
0
41
1
10
-28.5
20
-14.6481896525931
30
0
41
1
10
-28.5
20
-14.5737935062701
30
0
41
1
10
-28.5
20
-14.452347405446
30
0
41
1
10
-28.5
20
-14.328392039309
30
0
41
1
10
-28.5
20
-14.2007962250068
30
0
41
1
10
-28.5
20
-14.1037299370702
30
0
41
1
10
-28.5
20
-14.0051547249398
30
0
41
1
10
-28.5
20
-13.8715103854275
30
0
41
1
10
-28.5
20
-13.7355116125921
30
0
41
1
10
-28.5
20
-13.5959164434403
30
0
41
1
10
-28.5
20
-13.4899116562855
30
0
41
1
10
-28.5
20
-13.3824445445542
30
0
41
1
10
-28.5
20
-13.2369867372074
30
0
41
1
10
-28.5
20
-13.0893180117674
30
0
41
1
10
-28.5
20
-12.9380809438717
30
0
41
1
10
-28.5
20
-12.8234002933141
30
0
41
1
10
-28.5
20
-12.7072977423403
30
0
41
1
10
-28.5
20
-12.5503594172971
30
0
41
1
10
-28.5
20
-12.3913462461042
30
0
41
1
10
-28.5
20
-12.2287775174239
30
0
41
1
10
-28.5
20
-12.1056498404809
30
0
41
1
10
-28.5
20
-11.9811355648908
30
0
41
1
10
-28.5
20
-11.8130068303033
30
0
41
1
10
-28.5
20
-11.6429357656381
30
0
41
1
10
-28.5
20
-11.4693068596264
30
0
41
1
10
-28.5
20
-11.2938625632929
30
0
41
1
10
-28.5
20
-11.0718089525805
30
0
41
1
10
-28.5
20
-10.8452681286137
30
0
41
1
10
-28.5
20
-10.6608197986608
30
0
41
1
10
-28.5
20
-10.4745957936974
30
0
41
1
10
-28.5
20
-10.2866518813937
30
0
41
1
10
-28.5
20
-10.095113531911
30
0
41
1
10
-28.5
20
-9.95038952754788
30
0
41
1
10
-28.5
20
-9.80435457188474
30
0
41
1
10
-28.5
20
-9.6570150628749
30
0
41
1
10
-28.5
20
-9.50837344479851
30
0
41
1
10
-28.5
20
-9.30810991622684
30
0
41
1
10
-28.5
20
-9.05534969583795
30
0
41
1
10
-28.5
20
-8.79830467826935
30
0
41
1
10
-28.5
20
-8.5894423488798
30
0
41
1
10
-28.5
20
-8.43181570788789
30
0
41
1
10
-28.5
20
-8.27292308432646
30
0
41
1
10
-28.5
20
-8.11277014937082
30
0
41
1
10
-28.5
20
-7.95136176299604
30
0
41
1
10
-28.5
20
-7.73407184285281
30
0
41
1
10
-28.5
20
-7.46030865505759
30
0
41
1
10
-28.5
20
-7.12632144512304
30
0
41
1
10
-28.5
20
-6.84437400802858
30
0
41
1
10
-28.5
20
-6.61554357091569
30
0
41
1
10
-28.5
20
-6.44309032655627
30
0
41
1
10
-28.5
20
-6.26944357118299
30
0
41
1
10
-28.5
20
-6.0946120882553
30
0
41
1
10
-28.5
20
-5.91860495448572
30
0
41
1
10
-28.5
20
-5.74143237747984
30
0
41
1
10
-28.5
20
-5.56310445504442
30
0
41
1
10
-28.5
20
-5.38363156234237
30
0
41
1
10
-28.5
20
-5.2030267003301
30
0
41
1
10
-28.5
20
-5.02130448518983
30
0
41
1
10
-28.5
20
-4.83847943804494
30
0
41
1
10
-28.5
20
-4.65456683421036
30
0
41
1
10
-28.5
20
-4.4695846174555
30
0
41
1
10
-28.5
20
-4.28355297730502
30
0
41
1
10
-28.5
20
-4.09649259176149
30
0
41
1
10
-28.5
20
-3.90842799420625
30
0
41
1
10
-28.5
20
-3.75124942106055
30
0
41
1
10
-28.5
20
-3.62435506854831
30
0
41
1
10
-28.5
20
-3.52924322184191
30
0
41
1
10
-28.5
20
-3.43390157548936
30
0
41
1
10
-28.5
20
-3.30608709676801
30
0
41
1
10
-28.5
20
-3.14669074057872
30
0
41
1
10
-28.5
20
-2.98656948332388
30
0
41
1
10
-28.5
20
-2.8572942882393
30
0
41
1
10
-28.5
20
-2.72777279716706
30
0
41
1
10
-28.5
20
-2.59923374131699
30
0
41
1
10
-28.5
20
-2.46893613943036
30
0
41
1
10
-28.5
20
-2.37140757120352
30
0
41
1
10
-28.5
20
-2.27371679621319
30
0
41
1
10
-28.5
20
-2.17587292609085
30
0
41
1
10
-28.5
20
-2.0778804265363
30
0
41
1
10
-28.5
20
-1.9797500364362
30
0
41
1
10
-28.5
20
-1.88148718140701
30
0
41
1
10
-28.5
20
-1.78310084050696
30
0
41
1
10
-28.5
20
-1.6846006870125
30
0
41
1
10
-28.5
20
-1.58599188781932
30
0
41
1
10
-28.5
20
-1.48728656512981
30
0
41
1
10
-28.5
20
-1.38848913588993
30
0
41
1
10
-28.5
20
-1.28961134189751
30
0
41
1
10
-28.5
20
-1.19065859620264
30
0
41
1
10
-28.5
20
-1.09164077920423
30
0
41
1
10
-28.5
20
-0.992564112169873
30
0
41
1
10
-28.5
20
-0.89343688343348
30
0
41
1
10
-28.5
20
-0.794265459276176
30
0
41
1
10
-28.5
20
-0.695056784277028
30
0
41
1
10
-28.5
20
-0.595816495504096
30
0
41
1
10
-28.5
20
-0.496550594205587
30
0
41
1
10
-28.5
20
-0.397263840423989
30
0
41
1
10
-28.5
20
-0.297961388791691
30
0
41
1
10
-28.5
20
-0.198647127601248
30
0
41
1
10
-28.5
20
-0.0993254684406111
30
0
41
1
10
-28.5
20
5.4724865E-09
30
0
41
1
10
-28.5
20
0.0993254669347152
30
0
41
1
10
-28.5
20
0.198647102840709
30
0
41
1
10
-28.5
20
0.297961366795107
30
0
41
1
10
-28.5
20
0.397263853181812
30
0
41
1
10
-28.5
20
0.49655061320999
30
0
41
1
10
-28.5
20
0.595816468507223
30
0
41
1
10
-28.5
20
0.695056741362862
30
0
41
1
10
-28.5
20
0.794265471937138
30
0
41
1
10
-28.5
20
0.893436923932541
30
0
41
1
10
-28.5
20
0.992564090788449
30
0
41
1
10
-28.5
20
1.09164071478051
30
0
41
1
10
-28.5
20
1.1906585936099
30
0
41
1
10
-28.5
20
1.28961139997085
30
0
41
1
10
-28.5
20
1.3884891432059
30
0
41
1
10
-28.5
20
1.48728649469353
30
0
41
1
10
-28.5
20
1.58599184128093
30
0
41
1
10
-28.5
20
1.68460072925302
30
0
41
1
10
-28.5
20
1.7831009010128
30
0
41
1
10
-28.5
20
1.88148715614125
30
0
41
1
10
-28.5
20
1.97974994874613
30
0
41
1
10
-28.5
20
2.07788039572898
30
0
41
1
10
-28.5
20
2.20905952740145
30
0
41
1
10
-28.5
20
2.33842740009589
30
0
41
1
10
-28.5
20
2.46893611478754
30
0
41
1
10
-28.5
20
2.56629526768592
30
0
41
1
10
-28.5
20
2.66347976206254
30
0
41
1
10
-28.5
20
2.76048089001324
30
0
41
1
10
-28.5
20
2.85729421649609
30
0
41
1
10
-28.5
20
2.98656939879123
30
0
41
1
10
-28.5
20
3.14669072023423
30
0
41
1
10
-28.5
20
3.30608717079298
30
0
41
1
10
-28.5
20
3.43390158445521
30
0
41
1
10
-28.5
20
3.52924315934183
30
0
41
1
10
-28.5
20
3.6243549796439
30
0
41
1
10
-28.5
20
3.75124940963565
30
0
41
1
10
-28.5
20
3.90842813226232
30
0
41
1
10
-28.5
20
4.09649275318179
30
0
41
1
10
-28.5
20
4.28355302808069
30
0
41
1
10
-28.5
20
4.46958486845949
30
0
41
1
10
-28.5
20
4.65456716028001
30
0
41
1
10
-28.5
20
4.83847919931264
30
0
41
1
10
-28.5
20
5.02130422324717
30
0
41
1
10
-28.5
20
5.20302692387259
30
0
41
1
10
-28.5
20
5.38363134733163
30
0
41
1
10
-28.5
20
5.56310357372001
30
0
41
1
10
-28.5
20
5.74143189937956
30
0
41
1
10
-28.5
20
5.91860523667611
30
0
41
1
10
-28.5
20
6.09461246091769
30
0
41
1
10
-28.5
20
6.26944364545886
30
0
41
1
10
-28.5
20
6.44309029411608
30
0
41
1
10
-28.5
20
6.61554359890368
30
0
41
1
10
-28.5
20
6.84437402550572
30
0
41
1
10
-28.5
20
7.12632140637373
30
0
41
1
10
-28.5
20
7.46030866767529
30
0
41
1
10
-28.5
20
7.73407184255308
30
0
41
1
10
-28.5
20
7.95136171184487
30
0
41
1
10
-28.5
20
8.11277014047181
30
0
41
1
10
-28.5
20
8.27292311790592
30
0
41
1
10
-28.5
20
8.43181572672978
30
0
41
1
10
-28.5
20
8.58944232029052
30
0
41
1
10
-28.5
20
8.79830464348919
30
0
41
1
10
-28.5
20
9.05534970701541
30
0
41
1
10
-28.5
20
9.30810992365679
30
0
41
1
10
-28.5
20
9.50837340526908
30
0
41
1
10
-28.5
20
9.6570150361182
30
0
41
1
10
-28.5
20
9.8043545776041
30
0
41
1
10
-28.5
20
9.95038954775907
30
0
41
1
10
-28.5
20
10.0951135357909
30
0
41
1
10
-28.5
20
10.28665185334
30
0
41
1
10
-28.5
20
10.4745957683654
30
0
41
1
10
-28.5
20
10.6608198079832
30
0
41
1
10
-28.5
20
10.8452681360072
30
0
41
1
10
-28.5
20
11.0718089327864
30
0
41
1
10
-28.5
20
11.2938625434425
30
0
41
1
10
-28.5
20
11.4693068645233
30
0
41
1
10
-28.5
20
11.642935768078
30
0
41
1
10
-28.5
20
11.8130068133241
30
0
41
1
10
-28.5
20
11.9811355431937
30
0
41
1
10
-28.5
20
12.1056498288981
30
0
41
1
10
-28.5
20
12.2287775158425
30
0
41
1
10
-28.5
20
12.3913462445321
30
0
41
1
10
-28.5
20
12.550359403554
30
0
41
1
10
-28.5
20
12.7072977235969
30
0
41
1
10
-28.5
20
12.8234002792818
30
0
41
1
10
-28.5
20
12.9380809359595
30
0
41
1
10
-28.5
20
13.0893180063072
30
0
41
1
10
-28.5
20
13.2369867267196
30
0
41
1
10
-28.5
20
13.3824445287113
30
0
41
1
10
-28.5
20
13.4899116400767
30
0
41
1
10
-28.5
20
13.5959164295663
30
0
41
1
10
-28.5
20
13.7355116027341
30
0
41
1
10
-28.5
20
13.8715103774192
30
0
41
1
10
-28.5
20
14.0051547121626
30
0
41
1
10
-28.5
20
14.1037299196573
30
0
41
1
10
-28.5
20
14.2007962111626
30
0
41
1
10
-28.5
20
14.3283920102608
30
0
41
1
10
-28.5
20
14.4523474056541
30
0
41
1
10
-28.5
20
14.5737935545692
30
0
41
1
10
-28.5
20
14.6631805593238
30
0
41
1
10
-28.5
20
14.7510047173632
30
0
41
1
10
-28.5
20
14.8661866472664
30
0
41
1
10
-28.5
20
14.9776668598204
30
0
41
1
10
-28.5
20
15.0864673138636
30
0
41
1
10
-28.5
20
15.1663215412447
30
0
41
1
10
-28.5
20
15.2445501023873
30
0
41
1
10
-28.5
20
15.3468344295442
30
0
41
1
10
-28.5
20
15.4453363897878
30
0
41
1
10
-28.5
20
15.5409672008416
30
0
41
1
10
-28.5
20
15.6108850520675
30
0
41
1
10
-28.5
20
15.6791035033831
30
0
41
1
10
-28.5
20
15.745608166167
30
0
41
1
10
-28.5
20
15.8103844132607
30
0
41
1
10
-28.5
20
15.8734193498834
30
0
41
1
10
-28.5
20
15.9346970720351
30
0
41
1
10
-28.5
20
16.0141701499498
30
0
41
1
10
-28.5
20
16.0896767577218
30
0
41
1
10
-28.5
20
16.1619255301562
30
0
41
1
10
-28.5
20
16.2317181614777
30
0
41
1
10
-28.5
20
16.2974462059125
30
0
41
1
10
-28.5
20
16.3597331913305
30
0
41
1
10
-28.5
20
16.4194622625482
30
0
41
1
10
-28.5
20
16.4750169305148
30
0
41
1
10
-28.5
20
16.5269199075572
30
0
41
1
10
-28.5
20
16.5637763020886
30
0
41
1
10
-28.5
20
16.5986105790194
30
0
41
1
10
-28.5
20
16.642411510514
30
0
41
1
10
-28.5
20
16.6818353810987
30
0
41
1
10
-28.5
20
16.7172383450784
30
0
41
1
10
-28.5
20
16.7415855338906
30
0
41
1
10
-28.5
20
16.7637529731542
30
0
41
1
10
-28.5
20
16.783709883521
30
0
41
1
10
-28.5
20
16.8014255225769
30
0
41
1
10
-28.5
20
16.8168672741156
30
0
41
1
10
-28.5
20
16.8300011209595
30
0
41
1
10
-28.5
20
16.8407921788659
30
0
41
1
10
-28.5
20
16.8492032887544
30
0
41
1
10
-28.5
20
16.8551966776124
30
0
41
1
10
-28.5
20
16.8587320876464
30
0
41
1
10
-28.5
20
16.8597682913315
30
0
41
1
10
-28.5
20
16.8586401515025
30
0
41
1
10
-28.5
20
16.8573445204181
30
0
41
1
10
-28.5
20
16.8570624876409
30
0
0
SPLINE
5
16E
100
AcDbEntity
8
1
62
256
6
ByLayer
370
18
48
1
60
0
100
AcDbSpline
70
4
71
3
72
12
73
8
40
0
40
0
40
0
40
0
40
0.152522236299536
40
0.420292567932624
40
0.641827454338565
40
0.824641600591161
40
1
40
1
40
1
40
1
41
1
10
64.0823316816272
20
11.8069146861344
30
0
41
1
10
64.0703665774109
20
11.8654535079003
30
0
41
1
10
64.0284175938542
20
12.0237819291903
30
0
41
1
10
63.9402276728681
20
12.2240464737641
30
0
41
1
10
63.7756977347987
20
12.4738996010439
30
0
41
1
10
63.4895128273344
20
12.6925287658707
30
0
41
1
10
63.2598384559239
20
12.7371967155143
30
0
41
1
10
63.1326077280784
20
12.7448561775242
30
0
0
SPLINE
5
16F
100
AcDbEntity
8
1
62
256
6
ByLayer
370
18
48
1
60
0
100
AcDbSpline
70
4
71
2
72
6
73
3
40
0
40
0
40
0
40
1
40
1
40
1
41
1
10
64.2214450945713
20
1.33701035518874
30
0
41
1
10
64.2718816352732
20
1.58826378396486
30
0
41
1
10
64.3070785667301
20
1.96456127818061
30
0
0
SPLINE
5
170
100
AcDbEntity
8
1
62
256
6
ByLayer
370
18
48
1
60
0
100
AcDbSpline
70
4
71
3
72
13
73
9
40
0
40
0
40
0
40
0
40
0.0475399535896794
40
0.175347598976218
40
0.321072020867231
40
0.520061943690206
40
0.864590273419478
40
1
40
1
40
1
40
1
41
1
10
63.5359992403058
20
-0.141226111704782
30
0
41
1
10
63.5699776900837
20
-0.121694304731022
30
0
41
1
10
63.6879892016557
20
-0.0426831975885307
30
0
41
1
10
63.841421973751
20
0.116791997894893
30
0
41
1
10
63.9686262063007
20
0.334881043722305
30
0
41
1
10
64.0808760152792
20
0.630558783860693
30
0
41
1
10
64.1611566783876
20
0.945732193461595
30
0
41
1
10
64.2089911719291
20
1.24766074750187
30
0
41
1
10
64.2214450945713
20
1.33701035518874
30
0
0
SPLINE
5
171
100
AcDbEntity
8
1
62
256
6
ByLayer
370
18
48
1
60
0
100
AcDbSpline
70
4
71
3
72
13
73
9
40
0
40
0
40
0
40
0
40
0.0960875974169709
40
0.267728433954019
40
0.427975478423614
40
0.60899917544472
40
0.853346528847468
40
1
40
1
40
1
40
1
41
1
10
62.8086636617241
20
-12.7289460333824
30
0
41
1
10
62.8789690514623
20
-12.7374995718434
30
0
41
1
10
63.0639622883641
20
-12.7395650836331
30
0
41
1
10
63.3315617308418
20
-12.5970619389305
30
0
41
1
10
63.5328295608186
20
-12.3954523404195
30
0
41
1
10
63.6619185443479
20
-12.1767054314021
30
0
41
1
10
63.7397294607175
20
-11.9901254521897
30
0
41
1
10
63.7795560520148
20
-11.8357052219324
30
0
41
1
10
63.7916959594312
20
-11.7763797409595
30
0
0
SPLINE
5
172
100
AcDbEntity
8
1
62
256
6
ByLayer
370
18
48
1
60
0
100
AcDbSpline
70
4
71
3
72
12
73
8
40
0
40
0
40
0
40
0
40
0.171438896642428
40
0.553125948097375
40
0.720284024100254
40
0.858996526077161
40
1
40
1
40
1
40
1
41
1
10
63.8755205200836
20
-1.05410519847828
30
0
41
1
10
63.8582380645091
20
-0.961264710633657
30
0
41
1
10
63.7896734899929
20
-0.668913319462945
30
0
41
1
10
63.7011312402893
20
-0.373378474392382
30
0
41
1
10
63.4907907276339
20
-0.0444146299657291
30
0
41
1
10
63.2119999104538
20
0.181636252750934
30
0
41
1
10
62.9788267841245
20
0.235719617432267
30
0
41
1
10
62.8444682463328
20
0.248724518181916
30
0
0
SPLINE
5
173
100
AcDbEntity
8
1
62
256
6
ByLayer
370
18
48
1
60
0
100
AcDbSpline
70
4
71
3
72
8
73
4
40
0
40
0
40
0
40
0
40
1
40
1
40
1
40
1
41
1
10
36.1917586424413
20
-0.123840162538613
30
0
41
1
10
35.6970526942725
20
-0.123840162538613
30
0
41
1
10
35.2023467461036
20
-0.123840162538613
30
0
41
1
10
34.7076407979348
20
-0.123840162538613
30
0
0
SPLINE
5
174
100
AcDbEntity
8
1
62
256
6
ByLayer
370
18
48
1
60
0
100
AcDbSpline
70
4
71
3
72
8
73
4
40
0
40
0
40
0
40
0
40
1
40
1
40
1
40
1
41
1
10
32.4651412460833
20
-1.48070892692846
30
0
41
1
10
32.4915088220009
20
-1.60247920065581
30
0
41
1
10
32.5367103807168
20
-1.70378388216
30
0
41
1
10
32.5994903233779
20
-1.7856462510523
30
0
0
SPLINE
5
175
100
AcDbEntity
8
1
62
256
6
ByLayer
370
18
48
1
60
0
100
AcDbSpline
70
4
71
3
72
8
73
4
40
0
40
0
40
0
40
0
40
1
40
1
40
1
40
1
41
1
10
29.826646040029
20
13.2783557115683
30
0
41
1
10
30.0837312461071
20
12.0110600736875
30
0
41
1
10
30.4840411477849
20
10.7402679985614
30
0
41
1
10
31
20
9.46665267220504
30
0
0
SPLINE
5
176
100
AcDbEntity
8
1
62
256
6
ByLayer
370
18
48
1
60
0
100
AcDbSpline
70
4
71
3
72
16
73
12
40
0
40
0
40
0
40
0
40
0.111430279628047
40
0.111430279628047
40
0.248747543515475
40
0.248747543515475
40
0.465535329195272
40
0.465535329195272
40
0.883855351867603
40
0.883855351867603
40
1
40
1
40
1
40
1
41
1
10
11.4613248654052
20
7.52966679426504
30
0
41
1
10
11.4891847159942
20
7.52966679426504
30
0
41
1
10
11.5173911427755
20
7.53471706780857
30
0
41
1
10
11.5758492032393
20
7.55489210221026
30
0
41
1
10
11.6060413892306
20
7.57218953888446
30
0
41
1
10
11.6751537543576
20
7.62460019394092
30
0
41
1
10
11.7107854085705
20
7.6648929425391
30
0
41
1
10
11.798993890746
20
7.78941367630352
30
0
41
1
10
11.8397320068509
20
7.88247511004147
30
0
41
1
10
11.8792917015268
20
8.00269269538012
30
0
41
1
10
11.8871615985731
20
8.02920008991578
30
0
41
1
10
11.8943375672976
20
8.05584836782771
30
0
0
SPLINE
5
177
100
AcDbEntity
8
1
62
256
6
ByLayer
370
18
48
1
60
0
100
AcDbSpline
70
4
71
3
72
16
73
12
40
0
40
0
40
0
40
0
40
0.461208588217085
40
0.461208588217085
40
0.643534962278541
40
0.643534962278541
40
0.828408472975291
40
0.828408472975291
40
0.943003644159993
40
0.943003644159993
40
1
40
1
40
1
40
1
41
1
10
11.8943375672974
20
23.6665017920809
30
0
41
1
10
11.8660503915152
20
23.7022583261632
30
0
41
1
10
11.8273339192908
20
23.7370095736338
30
0
41
1
10
11.7473160248315
20
23.7800170858174
30
0
41
1
10
11.7212784637477
20
23.7917125768793
30
0
41
1
10
11.6606543989164
20
23.8127037684951
30
0
41
1
10
11.6251722226874
20
23.8222104320954
30
0
41
1
10
11.5599225851958
20
23.8331586856493
30
0
41
1
10
11.5324782774944
20
23.836332378473
30
0
41
1
10
11.4901684747699
20
23.8387183279986
30
0
41
1
10
11.4757173930754
20
23.8391299750505
30
0
41
1
10
11.4613248654053
20
23.8391299750505
30
0
0
SPLINE
5
178
100
AcDbEntity
8
1
62
256
6
ByLayer
370
18
48
1
60
0
100
AcDbSpline
70
4
71
3
72
10
73
6
40
0
40
0
40
0
40
0
40
0.5
40
0.5
40
1
40
1
40
1
40
1
41
1
10
22.7980370318757
20
21.737793228327
30
0
41
1
10
22.8776063326681
20
21.0239780776407
30
0
41
1
10
23.0560131155654
20
19.7801494605699
30
0
41
1
10
24.6881258768962
20
16.6542995312925
30
0
41
1
10
26.2835659220373
20
14.7409574271928
30
0
41
1
10
28.767949192431
20
13.66681551932
30
0
0
SPLINE
5
179
100
AcDbEntity
8
1
62
256
6
ByLayer
370
18
48
1
60
0
100
AcDbSpline
70
4
71
3
72
16
73
12
40
0
40
0
40
0
40
0
40
0.0007520868393337
40
0.0007520868393337
40
0.27283947472893
40
0.27283947472893
40
0.541661429659608
40
0.541661429659608
40
0.747061689166359
40
0.747061689166359
40
1
40
1
40
1
40
1
41
1
10
35.4016635129565
20
-1.90025274741794
30
0
41
1
10
35.4011883373273
20
-1.90025329414038
30
0
41
1
10
35.4007130101213
20
-1.90025356750158
30
0
41
1
10
35.2282204885426
20
-1.90025356750152
30
0
41
1
10
35.0851993008983
20
-1.86628243926606
30
0
41
1
10
34.8578188268426
20
-1.73038915205001
30
0
41
1
10
34.7765352966266
20
-1.62793545572424
30
0
41
1
10
34.689568580511
20
-1.39168360075809
30
0
41
1
10
34.6694789988595
20
-1.22386574452889
30
0
41
1
10
34.6694789988595
20
-0.700969863229318
30
0
41
1
10
34.6694789988595
20
-0.412405012883994
30
0
41
1
10
34.6694789988595
20
-0.123840162538613
30
0
0
SPLINE
5
17A
100
AcDbEntity
8
1
62
256
6
ByLayer
370
18
48
1
60
0
100
AcDbSpline
70
4
71
3
72
8
73
4
40
0
40
0
40
0
40
0
40
1
40
1
40
1
40
1
41
1
10
34.1288097266002
20
-0.123840162538613
30
0
41
1
10
33.5663014403575
20
-0.123840162538613
30
0
41
1
10
33.0037931541148
20
-0.123840162538613
30
0
41
1
10
32.4412848678721
20
-0.123840162538613
30
0
0
SPLINE
5
17B
100
AcDbEntity
8
1
62
256
6
ByLayer
370
18
48
1
60
0
100
AcDbSpline
70
4
71
3
72
18
73
14
40
0
40
0
40
0
40
0
40
0.252026352812658
40
0.252026352812658
40
0.40561296454716
40
0.40561296454716
40
0.559855857535999
40
0.559855857535999
40
0.714098750524839
40
0.714098750524839
40
0.85720187902004
40
0.85720187902004
40
1
40
1
40
1
40
1
41
1
10
36.7705897137758
20
0.405195396427871
30
0
41
1
10
36.7705897137758
20
-0.0951883334263357
30
0
41
1
10
36.7705897137758
20
-0.595572063280486
30
0
41
1
10
36.7705897137758
20
-1.40089311725848
30
0
41
1
10
36.720365759647
20
-1.64648022393538
30
0
41
1
10
36.5215572884431
20
-2.01564793602154
30
0
41
1
10
36.3687980807453
20
-2.16016658873457
30
0
41
1
10
35.9569616568891
20
-2.36891562940991
30
0
41
1
10
35.7409986541351
20
-2.42110288957878
30
0
41
1
10
35.3053058520677
20
-2.42110288957878
30
0
41
1
10
35.1081768321121
20
-2.37505530707688
30
0
41
1
10
34.7369156434644
20
-2.18901688887763
30
0
41
1
10
34.5871033080257
20
-2.04965239072999
30
0
41
1
10
34.4740994112358
20
-1.86239222188885
30
0
0
SPLINE
5
17C
100
AcDbEntity
8
1
62
256
6
ByLayer
370
18
48
1
60
0
100
AcDbSpline
70
4
71
3
72
10
73
6
40
0
40
0
40
0
40
0
40
0.5
40
0.5
40
1
40
1
40
1
40
1
41
1
10
31
20
6.56170528289073
30
0
41
1
10
30.5160453101751
20
4.39574562138375
30
0
41
1
10
30.2596545320433
20
2.21656600686077
30
0
41
1
10
30.2561947465942
20
-2.17138143689829
30
0
41
1
10
30.5155708405056
20
-4.39362211233214
30
0
41
1
10
30.9999999999999
20
-6.56170528289073
30
0
0
SPLINE
5
17D
100
AcDbEntity
8
1
62
256
6
ByLayer
370
18
48
1
60
0
100
AcDbSpline
70
4
71
3
72
8
73
4
40
0
40
0
40
0
40
0
40
1
40
1
40
1
40
1
41
1
10
31
20
9.46665267220504
30
0
41
1
10
31.3207376167115
20
9.106485948211
30
0
41
1
10
31.6549850679878
20
8.75130200742217
30
0
41
1
10
32
20
8.40130452626937
30
0
0
SPLINE
5
17E
100
AcDbEntity
8
1
62
256
6
ByLayer
370
18
48
1
60
0
100
AcDbSpline
70
4
71
3
72
8
73
4
40
0
40
0
40
0
40
0
40
1
40
1
40
1
40
1
41
1
10
29.826646040029
20
13.2783557115683
30
0
41
1
10
29.4586225091489
20
13.3902880441817
30
0
41
1
10
29.105340186054
20
13.5209419699737
30
0
41
1
10
28.7679491924311
20
13.6668155193201
30
0
0
SPLINE
5
17F
100
AcDbEntity
8
1
62
256
6
ByLayer
370
18
48
1
60
0
100
AcDbSpline
70
4
71
3
72
8
73
4
40
0
40
0
40
0
40
0
40
1
40
1
40
1
40
1
41
1
10
31
20
-6.56170528289073
30
0
41
1
10
31.3081734540596
20
-7.09063355873542
30
0
41
1
10
31.6438432364371
20
-7.60358220386848
30
0
41
1
10
32
20
-8.10025507041979
30
0
0
SPLINE
5
180
100
AcDbEntity
8
1
62
256
6
ByLayer
370
18
48
1
60
0
100
AcDbSpline
70
4
71
3
72
16
73
12
40
0
40
0
40
0
40
0
40
0.461208588217095
40
0.461208588217095
40
0.643534962278547
40
0.643534962278547
40
0.828408472975285
40
0.828408472975285
40
0.943003644159988
40
0.943003644159988
40
1
40
1
40
1
40
1
41
1
10
8.1056624327026
20
-23.6665017920809
30
0
41
1
10
8.13394960848487
20
-23.7022583261633
30
0
41
1
10
8.17266608070922
20
-23.7370095736338
30
0
41
1
10
8.25268397516849
20
-23.7800170858174
30
0
41
1
10
8.27872153625232
20
-23.7917125768793
30
0
41
1
10
8.33934560108361
20
-23.8127037684951
30
0
41
1
10
8.37482777731263
20
-23.8222104320954
30
0
41
1
10
8.44007741480421
20
-23.8331586856493
30
0
41
1
10
8.46752172250564
20
-23.836332378473
30
0
41
1
10
8.50983152523006
20
-23.8387183279986
30
0
41
1
10
8.5242826069246
20
-23.8391299750505
30
0
41
1
10
8.53867513459475
20
-23.8391299750505
30
0
0
SPLINE
5
181
100
AcDbEntity
8
1
62
256
6
ByLayer
370
18
48
1
60
0
100
AcDbSpline
70
4
71
3
72
16
73
12
40
0
40
0
40
0
40
0
40
0.111430279628047
40
0.111430279628047
40
0.248747543515467
40
0.248747543515467
40
0.465535329195252
40
0.465535329195252
40
0.883855351867553
40
0.883855351867553
40
1
40
1
40
1
40
1
41
1
10
8.53867513459481
20
-7.52966679426504
30
0
41
1
10
8.51081528400578
20
-7.52966679426504
30
0
41
1
10
8.48260885722448
20
-7.53471706780857
30
0
41
1
10
8.42415079676071
20
-7.55489210221026
30
0
41
1
10
8.39395861076944
20
-7.57218953888446
30
0
41
1
10
8.32484624564244
20
-7.62460019394092
30
0
41
1
10
8.28921459142954
20
-7.6648929425391
30
0
41
1
10
8.20100610925398
20
-7.78941367630352
30
0
41
1
10
8.16026799314913
20
-7.88247511004147
30
0
41
1
10
8.12070829847319
20
-8.00269269538006
30
0
41
1
10
8.11283840142688
20
-8.02920008991578
30
0
41
1
10
8.10566243270245
20
-8.05584836782771
30
0
0
SPLINE
5
182
100
AcDbEntity
8
1
62
256
6
ByLayer
370
18
48
1
60
0
100
AcDbSpline
70
4
71
3
72
18
73
14
40
0
40
0
40
0
40
0
40
0.191325435437366
40
0.191325435437366
40
0.382650870874736
40
0.382650870874736
40
0.536214707212624
40
0.536214707212624
40
0.690626528447002
40
0.690626528447002
40
0.845885455798056
40
0.845885455798056
40
1
40
1
40
1
40
1
41
1
10
34.4740994112358
20
-1.86239222188885
30
0
41
1
10
34.3862074915104
20
-2.10388621012112
30
0
41
1
10
34.2380468268304
20
-2.29012309935109
30
0
41
1
10
33.8186768098548
20
-2.55003612058414
30
0
41
1
10
33.5713238357704
20
-2.61552601569798
30
0
41
1
10
33.0552727070968
20
-2.61552601569798
30
0
41
1
10
32.8418209020494
20
-2.57561811086299
30
0
41
1
10
32.446474308768
20
-2.41759795562763
30
0
41
1
10
32.2943798020453
20
-2.31979820807453
30
0
41
1
10
32.0803424967161
20
-2.08585049140487
30
0
41
1
10
31.9993140715385
20
-1.94118475194767
30
0
41
1
10
31.8892285824787
20
-1.59047385741422
30
0
41
1
10
31.8624537965375
20
-1.37428784736852
30
0
41
1
10
31.8624537965375
20
-1.12051450380238
30
0
0
SPLINE
5
183
100
AcDbEntity
8
1
62
256
6
ByLayer
370
18
48
1
60
0
100
AcDbSpline
70
4
71
3
72
16
73
12
40
0
40
0
40
0
40
0
40
0.111430279628052
40
0.111430279628052
40
0.248747543515474
40
0.248747543515474
40
0.465535329195271
40
0.465535329195271
40
0.883855351867598
40
0.883855351867598
40
1
40
1
40
1
40
1
41
1
10
11.4613248654052
20
-23.8391299750504
30
0
41
1
10
11.4891847159942
20
-23.8391299750504
30
0
41
1
10
11.5173911427755
20
-23.8375361275706
30
0
41
1
10
11.5758492032393
20
-23.831150658589
30
0
41
1
10
11.6060413892306
20
-23.825666877018
30
0
41
1
10
11.6751537543576
20
-23.8089605749788
30
0
41
1
10
11.7107854085705
20
-23.796037970776
30
0
41
1
10
11.798993890746
20
-23.7556824246832
30
0
41
1
10
11.8397320068509
20
-23.7250165399981
30
0
41
1
10
11.8792917015268
20
-23.6845451449633
30
0
41
1
10
11.8871615985731
20
-23.6755726082077
30
0
41
1
10
11.8943375672976
20
-23.6665017920809
30
0
0
SPLINE
5
184
100
AcDbEntity
8
1
62
256
6
ByLayer
370
18
48
1
60
0
100
AcDbSpline
70
4
71
3
72
16
73
12
40
0
40
0
40
0
40
0
40
0.461208588217066
40
0.461208588217066
40
0.643534962278522
40
0.643534962278522
40
0.828408472975271
40
0.828408472975271
40
0.943003644159981
40
0.943003644159981
40
1
40
1
40
1
40
1
41
1
10
11.8943375672974
20
-8.05584836782776
30
0
41
1
10
11.8660503915152
20
-7.95080268681443
30
0
41
1
10
11.8273339192908
20
-7.84628670970801
30
0
41
1
10
11.7473160248315
20
-7.71442469145126
30
0
41
1
10
11.7212784637477
20
-7.67825379650725
30
0
41
1
10
11.6606543989164
20
-7.61290523367228
30
0
41
1
10
11.6251722226874
20
-7.5830592305141
30
0
41
1
10
11.5599225851958
20
-7.54855881865592
30
0
41
1
10
11.5324782774944
20
-7.53852018102288
30
0
41
1
10
11.49016847477
20
-7.53097042135255
30
0
41
1
10
11.4757173930754
20
-7.5296667942647
30
0
41
1
10
11.4613248654053
20
-7.5296667942647
30
0
0
SPLINE
5
185
100
AcDbEntity
8
1
62
256
6
ByLayer
370
18
48
1
60
0
100
AcDbSpline
70
4
71
3
72
12
73
8
40
0
40
0
40
0
40
0
40
0.0200612127786678
40
0.0200612127786678
40
0.510030606389339
40
0.510030606389339
40
1
40
1
40
1
40
1
41
1
10
33.2118491696976
20
-2.61521460411109
30
0
41
1
10
33.2234854703773
20
-2.61542216655749
30
0
41
1
10
33.2351642465318
20
-2.61552601569798
30
0
41
1
10
33.5331620366951
20
-2.61552601569798
30
0
41
1
10
33.7805150107795
20
-2.55003612058414
30
0
41
1
10
34.1998850277551
20
-2.29012309935109
30
0
41
1
10
34.3480456924351
20
-2.10388621012112
30
0
41
1
10
34.4359376121605
20
-1.86239222188885
30
0
0
SPLINE
5
186
100
AcDbEntity
8
1
62
256
6
ByLayer
370
18
48
1
60
0
100
AcDbSpline
70
4
71
3
72
10
73
6
40
0
40
0
40
0
40
0
40
0.660338983050846
40
0.660338983050846
40
1
40
1
40
1
40
1
41
1
10
32.4412848678721
20
-0.123840162538613
30
0
41
1
10
32.4412848678721
20
-0.45606494295987
30
0
41
1
10
32.4412848678721
20
-0.788289723381126
30
0
41
1
10
32.4412848678721
20
-1.29140219886506
30
0
41
1
10
32.4488184609914
20
-1.41112591337003
30
0
41
1
10
32.4651412460833
20
-1.48070892692846
30
0
0
SPLINE
5
187
100
AcDbEntity
8
1
62
256
6
ByLayer
370
18
48
1
60
0
100
AcDbSpline
70
4
71
3
72
16
73
12
40
0
40
0
40
0
40
0
40
0.461208588217088
40
0.461208588217088
40
0.643534962278544
40
0.643534962278544
40
0.82840847297529
40
0.82840847297529
40
0.943003644159989
40
0.943003644159989
40
1
40
1
40
1
40
1
41
1
10
8.1056624327026
20
8.05584836782776
30
0
41
1
10
8.13394960848486
20
7.95080268681443
30
0
41
1
10
8.17266608070922
20
7.84628670970801
30
0
41
1
10
8.25268397516849
20
7.71442469145126
30
0
41
1
10
8.27872153625232
20
7.67825379650725
30
0
41
1
10
8.33934560108361
20
7.61290523367228
30
0
41
1
10
8.37482777731262
20
7.5830592305141
30
0
41
1
10
8.44007741480421
20
7.54855881865592
30
0
41
1
10
8.46752172250564
20
7.53852018102293
30
0
41
1
10
8.50983152523006
20
7.53097042135255
30
0
41
1
10
8.52428260692459
20
7.5296667942647
30
0
41
1
10
8.53867513459475
20
7.5296667942647
30
0
0
SPLINE
5
188
100
AcDbEntity
8
1
62
256
6
ByLayer
370
18
48
1
60
0
100
AcDbSpline
70
4
71
3
72
16
73
12
40
0
40
0
40
0
40
0
40
0.11143027962805
40
0.11143027962805
40
0.248747543515472
40
0.248747543515472
40
0.465535329195252
40
0.465535329195252
40
0.88385535186756
40
0.88385535186756
40
1
40
1
40
1
40
1
41
1
10
8.53867513459481
20
23.8391299750504
30
0
41
1
10
8.51081528400578
20
23.8391299750504
30
0
41
1
10
8.48260885722448
20
23.8375361275706
30
0
41
1
10
8.42415079676071
20
23.831150658589
30
0
41
1
10
8.39395861076943
20
23.825666877018
30
0
41
1
10
8.32484624564244
20
23.8089605749788
30
0
41
1
10
8.28921459142955
20
23.796037970776
30
0
41
1
10
8.20100610925399
20
23.7556824246832
30
0
41
1
10
8.16026799314912
20
23.7250165399981
30
0
41
1
10
8.12070829847319
20
23.6845451449633
30
0
41
1
10
8.11283840142688
20
23.6755726082077
30
0
41
1
10
8.10566243270245
20
23.6665017920809
30
0
0
SPLINE
5
189
100
AcDbEntity
8
1
62
256
6
ByLayer
370
18
48
1
60
0
100
AcDbSpline
70
4
71
3
72
8
73
4
40
0
40
0
40
0
40
0
40
1
40
1
40
1
40
1
41
1
10
29.2710957693301
20
23
30
0
41
1
10
29.2709568215732
20
23
30
0
41
1
10
29.4390476236777
20
23
30
0
41
1
10
29.7648605971775
20
23
30
0
0
SPLINE
5
18A
100
AcDbEntity
8
1
62
256
6
ByLayer
370
18
48
1
60
0
100
AcDbSpline
70
4
71
3
72
18
73
14
40
0
40
0
40
0
40
0
40
0.138639897892128
40
0.138639897892128
40
0.27737498115861
40
0.27737498115861
40
0.416073604816641
40
0.416073604816641
40
0.622125733220286
40
0.622125733220286
40
0.904989751062273
40
0.904989751062273
40
1
40
1
40
1
40
1
41
1
10
29.7648605971775
20
23
30
0
41
1
10
29.7815950483834
20
23
30
0
41
1
10
29.7891526458573
20
22.9895214804581
30
0
41
1
10
29.7835392637434
20
22.9481703184471
30
0
41
1
10
29.770309523494
20
22.9167837968002
30
0
41
1
10
29.7269164384115
20
22.8394530931807
30
0
41
1
10
29.6963869098512
20
22.7927426797409
30
0
41
1
10
29.6068574680247
20
22.6671760473458
30
0
41
1
10
29.5399519574698
20
22.5817594571035
30
0
41
1
10
29.3682552467512
20
22.375001011097
30
0
41
1
10
29.2556090251845
20
22.2483097594779
30
0
41
1
10
29.1011197158158
20
22.0831477483218
30
0
41
1
10
29.0613916662837
20
22.0413880191287
30
0
41
1
10
29.0213741118251
20
22
30
0
0
SPLINE
5
18B
100
AcDbEntity
8
1
62
256
6
ByLayer
370
18
48
1
60
0
100
AcDbSpline
70
4
71
3
72
10
73
6
40
0
40
0
40
0
40
0
40
0.392240140849008
40
0.392240140849008
40
1
40
1
40
1
40
1
41
1
10
33.0887038064744
20
-2.05737596307358
30
0
41
1
10
32.9959594114215
20
-2.0454963305516
30
0
41
1
10
32.9107764236406
20
-2.02259698969408
30
0
41
1
10
32.7145115843954
20
-1.93504507428077
30
0
41
1
10
32.6228528681104
20
-1.8675086199446
30
0
41
1
10
32.5613285243026
20
-1.7856462510523
30
0
0
SPLINE
5
18C
100
AcDbEntity
8
1
62
256
6
ByLayer
370
18
48
1
60
0
100
AcDbSpline
70
4
71
3
72
10
73
6
40
0
40
0
40
0
40
0
40
0.23895709223778
40
0.23895709223778
40
1
40
1
40
1
40
1
41
1
10
29.2710959999971
20
-23
30
0
41
1
10
29.2712180439507
20
-23
30
0
41
1
10
29.3066095215332
20
-23
30
0
41
1
10
29.6065359137228
20
-23
30
0
41
1
10
30.1816735982953
20
-23
30
0
41
1
10
31
20
-23
30
0
0
SPLINE
5
18D
100
AcDbEntity
8
1
62
256
6
ByLayer
370
18
48
1
60
0
100
AcDbSpline
70
4
71
3
72
8
73
4
40
0
40
0
40
0
40
0
40
1
40
1
40
1
40
1
41
1
10
31
20
-23
30
0
41
1
10
31.3294928647027
20
-23
30
0
41
1
10
31.6630217311712
20
-23
30
0
41
1
10
32
20
-23
30
0
0
SPLINE
5
18E
100
AcDbEntity
8
1
62
256
6
ByLayer
370
18
48
1
60
0
100
AcDbSpline
70
4
71
3
72
8
73
4
40
0
40
0
40
0
40
0
40
1
40
1
40
1
40
1
41
1
10
31.8624537965375
20
0.405195396427871
30
0
41
1
10
33.4984991022836
20
0.405195396427871
30
0
41
1
10
35.1345444080297
20
0.405195396427871
30
0
41
1
10
36.7705897137758
20
0.405195396427871
30
0
0
SPLINE
5
18F
100
AcDbEntity
8
1
62
256
6
ByLayer
370
18
48
1
60
0
100
AcDbSpline
70
4
71
3
72
8
73
4
40
0
40
0
40
0
40
0
40
1
40
1
40
1
40
1
41
1
10
32.5613285243026
20
-1.7856462510523
30
0
41
1
10
32.4985485816415
20
-1.70378388216
30
0
41
1
10
32.4533470229256
20
-1.60247920065581
30
0
41
1
10
32.426979447008
20
-1.48070892692846
30
0
0
SPLINE
5
190
100
AcDbEntity
8
1
62
256
6
ByLayer
370
18
48
1
60
0
100
AcDbSpline
70
4
71
3
72
16
73
12
40
0
40
0
40
0
40
0
40
0.037582564334879
40
0.037582564334879
40
0.245461445835211
40
0.245461445835211
40
0.453340327335544
40
0.453340327335544
40
0.660334714189429
40
0.660334714189429
40
1
40
1
40
1
40
1
41
1
10
35.3556697929814
20
-2.41584975340356
30
0
41
1
10
35.3955856328614
20
-2.4193543680704
30
0
41
1
10
35.4359689588036
20
-2.42110288957878
30
0
41
1
10
35.7028368550598
20
-2.42110288957878
30
0
41
1
10
35.9187998578138
20
-2.36891562940991
30
0
41
1
10
36.33063628167
20
-2.16016658873457
30
0
41
1
10
36.4833954893678
20
-2.01564793602154
30
0
41
1
10
36.6822039605717
20
-1.64648022393538
30
0
41
1
10
36.7324279147005
20
-1.40089311725848
30
0
41
1
10
36.7324279147005
20
-0.595572063280486
30
0
41
1
10
36.7324279147005
20
-0.0951883334263357
30
0
41
1
10
36.7324279147005
20
0.405195396427871
30
0
0
SPLINE
5
191
100
AcDbEntity
8
1
62
256
6
ByLayer
370
18
48
1
60
0
100
AcDbSpline
70
2053
71
3
72
48
73
44
40
0
40
0
40
0
40
0
40
0.106043837609079
40
0.106043837609079
40
0.106043837609079
40
0.151794378937456
40
0.151794378937456
40
0.190549055640922
40
0.190549055640922
40
0.218642758805659
40
0.218642758805659
40
0.247007012179066
40
0.247007012179066
40
0.271952167609097
40
0.271952167609097
40
0.303700742317121
40
0.303700742317121
40
0.348700375708791
40
0.348700375708791
40
0.419058154389223
40
0.419058154389223
40
0.525650765246377
40
0.525650765246377
40
0.635527826427069
40
0.635527826427069
40
0.635527826427069
40
0.668834587187668
40
0.668834587187668
40
0.70248936466893
40
0.70248936466893
40
0.724432167293909
40
0.724432167293909
40
0.746643152179805
40
0.746643152179805
40
0.766096794803256
40
0.766096794803256
40
0.793885023718209
40
0.793885023718209
40
0.839888871995383
40
0.839888871995383
40
0.924370969909755
40
0.924370969909755
40
1
40
1
40
1
40
1
41
1
10
32.45
20
-20.4009099314428
30
0
41
1
10
32.45
20
-20.1784836900745
30
0
41
1
10
32.5075235053216
20
-19.9436588177197
30
0
41
1
10
32.6481523521047
20
-19.724636005089
30
0
41
1
10
32.7096516655265
20
-19.6288537178226
30
0
41
1
10
32.7884124876637
20
-19.534810198537
30
0
41
1
10
32.9715237210328
20
-19.3782350276246
30
0
41
1
10
33.0721924748911
20
-19.3116619095851
30
0
41
1
10
33.2722313110183
20
-19.2218516200262
30
0
41
1
10
33.3664428871159
20
-19.1911422889203
30
0
41
1
10
33.5644129516141
20
-19.1532714057571
30
0
41
1
10
33.6711900464692
20
-19.1460672492893
30
0
41
1
10
33.865511905569
20
-19.1576442087535
30
0
41
1
10
33.9561934939166
20
-19.1734424584604
30
0
41
1
10
34.1463288705473
20
-19.2271798391772
30
0
41
1
10
34.2445979796343
20
-19.2705183602229
30
0
41
1
10
34.4511353638769
20
-19.3910812404721
30
0
41
1
10
34.5510524357459
20
-19.4766353304362
30
0
41
1
10
34.7558172514917
20
-19.7052385905824
30
0
41
1
10
34.8375061095254
20
-19.8580256777975
30
0
41
1
10
34.9620926171379
20
-20.2359687783024
30
0
41
1
10
34.9676409513901
20
-20.4665365553819
30
0
41
1
10
34.8665589123234
20
-20.9032974537705
30
0
41
1
10
34.7568507665163
20
-21.117666861052
30
0
41
1
10
34.5669643114933
20
-21.300484804201
30
0
41
1
10
34.5084546850934
20
-21.3568164132752
30
0
41
1
10
34.4413989337235
20
-21.4105499305596
30
0
41
1
10
34.2857815124576
20
-21.5080798967343
30
0
41
1
10
34.1954603213075
20
-21.5527333875627
30
0
41
1
10
34.0250470209294
20
-21.6090830489069
30
0
41
1
10
33.9507733151346
20
-21.6270913816887
30
0
41
1
10
33.7949895169268
20
-21.6488828503392
30
0
41
1
10
33.7111708798184
20
-21.6525586636035
30
0
41
1
10
33.5594318325273
20
-21.6441088844439
30
0
41
1
10
33.4890814929591
20
-21.6338883136692
30
0
41
1
10
33.3310994641266
20
-21.5981091042598
30
0
41
1
10
33.2460330364444
20
-21.5675857194796
30
0
41
1
10
33.047396609863
20
-21.4748227086003
30
0
41
1
10
32.9460959612701
20
-21.403468570942
30
0
41
1
10
32.7084936854872
20
-21.1888288214912
30
0
41
1
10
32.6057368904293
20
-21.0298826219919
30
0
41
1
10
32.4801300519509
20
-20.7162212656498
30
0
41
1
10
32.45
20
-20.5595413171091
30
0
41
1
10
32.45
20
-20.4009099314428
30
0
0
SPLINE
5
192
100
AcDbEntity
8
1
62
256
6
ByLayer
370
18
48
1
60
0
100
AcDbSpline
70
4
71
3
72
8
73
4
40
0
40
0
40
0
40
0
40
1
40
1
40
1
40
1
41
1
10
31.8624537965375
20
-1.12051450380238
30
0
41
1
10
31.8624537965375
20
-0.611944537058946
30
0
41
1
10
31.8624537965375
20
-0.103374570315566
30
0
41
1
10
31.8624537965375
20
0.405195396427871
30
0
0
SPLINE
5
193
100
AcDbEntity
8
1
62
256
6
ByLayer
370
18
48
1
60
0
100
AcDbSpline
70
4
71
3
72
10
73
6
40
0
40
0
40
0
40
0
40
0.339661016949154
40
0.339661016949154
40
1
40
1
40
1
40
1
41
1
10
32.426979447008
20
-1.48070892692846
30
0
41
1
10
32.4106566619161
20
-1.41112591337003
30
0
41
1
10
32.4031230687968
20
-1.29140219886506
30
0
41
1
10
32.4031230687968
20
-0.788289723381126
30
0
41
1
10
32.4031230687968
20
-0.45606494295987
30
0
41
1
10
32.4031230687968
20
-0.123840162538613
30
0
0
SPLINE
5
194
100
AcDbEntity
8
1
62
256
6
ByLayer
370
18
48
1
60
0
100
AcDbSpline
70
4
71
3
72
22
73
18
40
0
40
0
40
0
40
0
40
0.125919801008139
40
0.125919801008139
40
0.22817382381262
40
0.22817382381262
40
0.362000949327635
40
0.362000949327635
40
0.497453699158071
40
0.497453699158071
40
0.624996799363375
40
0.624996799363375
40
0.75357703132643
40
0.75357703132643
40
0.88119435172458
40
0.88119435172458
40
1
40
1
40
1
40
1
41
1
10
34.7076407979348
20
-0.123840162538613
30
0
41
1
10
34.7076407979348
20
-0.412405012883994
30
0
41
1
10
34.7076407979348
20
-0.700969863229318
30
0
41
1
10
34.7076407979348
20
-1.22386574452889
30
0
41
1
10
34.7277303795863
20
-1.39168360075809
30
0
41
1
10
34.8146970957019
20
-1.62793545572424
30
0
41
1
10
34.8959806259179
20
-1.73038915205001
30
0
41
1
10
35.1233610999736
20
-1.86628243926606
30
0
41
1
10
35.2663822876179
20
-1.90025356750152
30
0
41
1
10
35.6003715825745
20
-1.90025356750152
30
0
41
1
10
35.7447654506948
20
-1.86853189955576
30
0
41
1
10
35.9918634108379
20
-1.74112933080636
30
0
41
1
10
36.0774991467982
20
-1.65057334238003
30
0
41
1
10
36.167563758824
20
-1.41406139633881
30
0
41
1
10
36.1917586424413
20
-1.21056310958392
30
0
41
1
10
36.1917586424413
20
-0.657309933153442
30
0
41
1
10
36.1917586424413
20
-0.390575047846028
30
0
41
1
10
36.1917586424413
20
-0.123840162538613
30
0
0
SPLINE
5
195
100
AcDbEntity
8
1
62
256
6
ByLayer
370
18
48
1
60
0
100
AcDbSpline
70
4
71
3
72
8
73
4
40
0
40
0
40
0
40
0
40
1
40
1
40
1
40
1
41
1
10
29.0213741118251
20
22
30
0
41
1
10
28.9368812754559
20
21.9126135723384
30
0
41
1
10
28.8524060945424
20
21.8252114992409
30
0
41
1
10
28.7679491924311
20
21.737793228327
30
0
0
SPLINE
5
196
100
AcDbEntity
8
1
62
256
6
ByLayer
370
18
48
1
60
0
100
AcDbSpline
70
4
71
3
72
8
73
4
40
0
40
0
40
0
40
0
40
1
40
1
40
1
40
1
41
1
10
32
20
8.10025507041979
30
0
41
1
10
31.6438432364371
20
7.60358220386848
30
0
41
1
10
31.3081734540596
20
7.09063355873542
30
0
41
1
10
31
20
6.56170528289073
30
0
0
SPLINE
5
197
100
AcDbEntity
8
1
62
256
6
ByLayer
370
18
48
1
60
0
100
AcDbSpline
70
4
71
3
72
18
73
14
40
0
40
0
40
0
40
0
40
0.144086644560488
40
0.144086644560488
40
0.28773106250512
40
0.28773106250512
40
0.456860780407677
40
0.456860780407677
40
0.627194363444235
40
0.627194363444235
40
0.795871414023978
40
0.795871414023978
40
1
40
1
40
1
40
1
41
1
10
32.5994903233779
20
-1.7856462510523
30
0
41
1
10
32.6610146671857
20
-1.8675086199446
30
0
41
1
10
32.7526733834708
20
-1.93504507428077
30
0
41
1
10
32.9908710690081
20
-2.04130284157117
30
0
41
1
10
33.1293530394369
20
-2.06704814411955
30
0
41
1
10
33.4683647298063
20
-2.06704814411955
30
0
41
1
10
33.6278257841653
20
-2.02918679850689
30
0
41
1
10
33.8974802353294
20
-1.87514857910327
30
0
41
1
10
33.9919494515992
20
-1.770297056885
30
0
41
1
10
34.101904867491
20
-1.49942824640016
30
0
41
1
10
34.1288097266002
20
-1.30368155419887
30
0
41
1
10
34.1288097266002
20
-0.740536674860607
30
0
41
1
10
34.1288097266002
20
-0.432188418699638
30
0
41
1
10
34.1288097266002
20
-0.123840162538613
30
0
0
SPLINE
5
198
100
AcDbEntity
8
1
62
256
6
ByLayer
370
18
48
1
60
0
100
AcDbSpline
70
4
71
3
72
8
73
4
40
0
40
0
40
0
40
0
40
1
40
1
40
1
40
1
41
1
10
63.7312447500916
20
3.25649842200937
30
0
41
1
10
63.7705931265577
20
3.44961544768592
30
0
41
1
10
63.9190015111612
20
3.64443877117083
30
0
41
1
10
64.1740398106374
20
3.83070016252776
30
0
0
SPLINE
5
199
100
AcDbEntity
8
1
62
256
6
ByLayer
370
18
48
1
60
0
100
AcDbSpline
70
4
71
3
72
8
73
4
40
0
40
0
40
0
40
0
40
1
40
1
40
1
40
1
41
1
10
64.1740398106363
20
3.83070016252759
30
0
41
1
10
63.8730454076845
20
4.94503900864277
30
0
41
1
10
63.9024574498131
20
6.12731229585904
30
0
41
1
10
64.260113953305
20
7.24303962414217
30
0
0
SPLINE
5
19A
100
AcDbEntity
8
1
62
256
6
ByLayer
370
18
48
1
60
0
100
AcDbSpline
70
4
71
3
72
8
73
4
40
0
40
0
40
0
40
0
40
1
40
1
40
1
40
1
41
1
10
64.2601139533044
20
7.243039624142
30
0
41
1
10
63.8441905487096
20
8.03308991650653
30
0
41
1
10
63.7516670691227
20
8.87130475526612
30
0
41
1
10
63.9942513677888
20
9.66233946161441
30
0
0
SPLINE
5
19B
100
AcDbEntity
8
1
62
256
6
ByLayer
370
18
48
1
60
0
100
AcDbSpline
70
4
71
3
72
18
73
14
40
0
40
0
40
0
40
0
40
0.144086644560489
40
0.144086644560489
40
0.287731062505122
40
0.287731062505122
40
0.456860780407675
40
0.456860780407675
40
0.627194363444236
40
0.627194363444236
40
0.795871414023979
40
0.795871414023979
40
1
40
1
40
1
40
1
41
1
10
47.3293687345472
20
-4.18707430009221
30
0
41
1
10
47.3920446107304
20
-4.26893666898451
30
0
41
1
10
47.4854188752481
20
-4.33647312332062
30
0
41
1
10
47.7280748342047
20
-4.44273089061107
30
0
41
1
10
47.8691487294308
20
-4.46847619315946
30
0
41
1
10
48.2145055981952
20
-4.46847619315946
30
0
41
1
10
48.3769512364658
20
-4.43061484754679
30
0
41
1
10
48.6516527277356
20
-4.27657662814318
30
0
41
1
10
48.7478900955091
20
-4.17172510592491
30
0
41
1
10
48.8599035133787
20
-3.90085629544007
30
0
41
1
10
48.8873119425288
20
-3.70510960323878
30
0
41
1
10
48.8873119425288
20
-3.14196472390051
30
0
41
1
10
48.8873119425288
20
-2.83361646773949
30
0
41
1
10
48.8873119425288
20
-2.52526821157852
30
0
0
SPLINE
5
19C
100
AcDbEntity
8
1
62
256
6
ByLayer
370
18
48
1
60
0
100
AcDbSpline
70
4
71
3
72
8
73
4
40
0
40
0
40
0
40
0
40
1
40
1
40
1
40
1
41
1
10
48.8873119425288
20
-2.52526821157852
30
0
41
1
10
48.3142753602827
20
-2.52526821157852
30
0
41
1
10
47.7412387780366
20
-2.52526821157852
30
0
41
1
10
47.1682021957905
20
-2.52526821157852
30
0
0
SPLINE
5
19D
100
AcDbEntity
8
1
62
256
6
ByLayer
370
18
48
1
60
0
100
AcDbSpline
70
4
71
3
72
18
73
14
40
0
40
0
40
0
40
0
40
0.252026352812658
40
0.252026352812658
40
0.40561296454716
40
0.40561296454716
40
0.559855857536
40
0.559855857536
40
0.714098750524839
40
0.714098750524839
40
0.85720187902004
40
0.85720187902004
40
1
40
1
40
1
40
1
41
1
10
51.5785373198631
20
-1.99623265261204
30
0
41
1
10
51.5785373198631
20
-2.49661638246619
30
0
41
1
10
51.5785373198631
20
-2.99700011232039
30
0
41
1
10
51.5785373198631
20
-3.80232116629838
30
0
41
1
10
51.5273733393054
20
-4.04790827297529
30
0
41
1
10
51.3248438305915
20
-4.41707598506144
30
0
41
1
10
51.1692254754016
20
-4.56159463777448
30
0
41
1
10
50.7496808348286
20
-4.77034367844982
30
0
41
1
10
50.5296757184305
20
-4.82253093861868
30
0
41
1
10
50.0858281870926
20
-4.82253093861868
30
0
41
1
10
49.8850095634037
20
-4.77648335611673
30
0
41
1
10
49.5067995923393
20
-4.59044493791754
30
0
41
1
10
49.3541832651176
20
-4.45108043976984
30
0
41
1
10
49.2390643088629
20
-4.2638202709287
30
0
0
SPLINE
5
19E
100
AcDbEntity
8
1
62
256
6
ByLayer
370
18
48
1
60
0
100
AcDbSpline
70
4
71
3
72
10
73
6
40
0
40
0
40
0
40
0
40
0.660338983050847
40
0.660338983050847
40
1
40
1
40
1
40
1
41
1
10
47.1682021957905
20
-2.52526821157852
30
0
41
1
10
47.1682021957905
20
-2.85749299199978
30
0
41
1
10
47.1682021957905
20
-3.18971777242103
30
0
41
1
10
47.1682021957905
20
-3.69283024790491
30
0
41
1
10
47.1758767928741
20
-3.81255396240994
30
0
41
1
10
47.1925050865554
20
-3.88213697596836
30
0
0
SPLINE
5
19F
100
AcDbEntity
8
1
62
256
6
ByLayer
370
18
48
1
60
0
100
AcDbSpline
70
4
71
3
72
18
73
14
40
0
40
0
40
0
40
0
40
0.191325435437369
40
0.191325435437369
40
0.382650870874736
40
0.382650870874736
40
0.536214707212623
40
0.536214707212623
40
0.690626528447001
40
0.690626528447001
40
0.845885455798056
40
0.845885455798056
40
1
40
1
40
1
40
1
41
1
10
49.2390643088629
20
-4.2638202709287
30
0
41
1
10
49.1495273428869
20
-4.50531425916103
30
0
41
1
10
48.9985936002417
20
-4.691551148391
30
0
41
1
10
48.571374362585
20
-4.95146416962405
30
0
41
1
10
48.3193917583384
20
-5.01695406473789
30
0
41
1
10
47.7936818581082
20
-5.01695406473789
30
0
41
1
10
47.576234940738
20
-4.9770461599029
30
0
41
1
10
47.1734887658686
20
-4.81902600466753
30
0
41
1
10
47.0185475526592
20
-4.72122625711444
30
0
41
1
10
46.8005041763772
20
-4.48727854044472
30
0
41
1
10
46.7179591668828
20
-4.34261280098758
30
0
41
1
10
46.6058132413053
20
-3.99190190645413
30
0
41
1
10
46.5785373198631
20
-3.77571589640837
30
0
41
1
10
46.5785373198631
20
-3.52194255284223
30
0
0
SPLINE
5
1A0
100
AcDbEntity
8
1
62
256
6
ByLayer
370
18
48
1
60
0
100
AcDbSpline
70
4
71
3
72
8
73
4
40
0
40
0
40
0
40
0
40
1
40
1
40
1
40
1
41
1
10
50.9888724439358
20
-2.52526821157852
30
0
41
1
10
50.4849072354425
20
-2.52526821157852
30
0
41
1
10
49.9809420269493
20
-2.52526821157852
30
0
41
1
10
49.4769768184561
20
-2.52526821157852
30
0
0
SPLINE
5
1A1
100
AcDbEntity
8
1
62
256
6
ByLayer
370
18
48
1
60
0
100
AcDbSpline
70
4
71
3
72
8
73
4
40
0
40
0
40
0
40
0
40
1
40
1
40
1
40
1
41
1
10
46.5785373198631
20
-1.99623265261204
30
0
41
1
10
48.2452039865298
20
-1.99623265261204
30
0
41
1
10
49.9118706531964
20
-1.99623265261204
30
0
41
1
10
51.5785373198631
20
-1.99623265261204
30
0
0
SPLINE
5
1A2
100
AcDbEntity
8
1
62
256
6
ByLayer
370
18
48
1
60
0
100
AcDbSpline
70
4
71
3
72
8
73
4
40
0
40
0
40
0
40
0
40
1
40
1
40
1
40
1
41
1
10
47.1925050865554
20
-3.88213697596836
30
0
41
1
10
47.2193661763482
20
-4.00390724969566
30
0
41
1
10
47.2654137588501
20
-4.1052119311999
30
0
41
1
10
47.3293687345472
20
-4.18707430009221
30
0
0
SPLINE
5
1A3
100
AcDbEntity
8
1
62
256
6
ByLayer
370
18
48
1
60
0
100
AcDbSpline
70
4
71
3
72
22
73
18
40
0
40
0
40
0
40
0
40
0.125919801008142
40
0.125919801008142
40
0.228173823812626
40
0.228173823812626
40
0.362000949327647
40
0.362000949327647
40
0.497453699158083
40
0.497453699158083
40
0.624996799363384
40
0.624996799363384
40
0.753577031326436
40
0.753577031326436
40
0.881194351724583
40
0.881194351724583
40
1
40
1
40
1
40
1
41
1
10
49.4769768184561
20
-2.52526821157852
30
0
41
1
10
49.4769768184561
20
-2.81383306192385
30
0
41
1
10
49.4769768184561
20
-3.10239791226922
30
0
41
1
10
49.4769768184561
20
-3.6252937935688
30
0
41
1
10
49.4974424106792
20
-3.79311164979799
30
0
41
1
10
49.5860368562915
20
-4.02936350476415
30
0
41
1
10
49.6688417455474
20
-4.13181720108992
30
0
41
1
10
49.9004780305748
20
-4.26771048830597
30
0
41
1
10
50.0461761021604
20
-4.30168161654143
30
0
41
1
10
50.386416572869
20
-4.30168161654143
30
0
41
1
10
50.5335130169724
20
-4.26995994859567
30
0
41
1
10
50.7852358342595
20
-4.14255737984627
30
0
41
1
10
50.872474388167
20
-4.05200139141988
30
0
41
1
10
50.9642247120623
20
-3.81548944537872
30
0
41
1
10
50.9888724439358
20
-3.61199115862377
30
0
41
1
10
50.9888724439358
20
-3.05873798219335
30
0
41
1
10
50.9888724439358
20
-2.79200309688594
30
0
41
1
10
50.9888724439358
20
-2.52526821157852
30
0
0
SPLINE
5
1A4
100
AcDbEntity
8
1
62
256
6
ByLayer
370
18
48
1
60
0
100
AcDbSpline
70
4
71
3
72
10
73
6
40
0
40
0
40
0
40
0
40
0.500579446573399
40
0.500579446573399
40
1
40
1
40
1
40
1
41
1
10
47.6081749752803
20
-23.2227111772599
30
0
41
1
10
47.6864318138996
20
-23.2227111772599
30
0
41
1
10
47.7519992803872
20
-23.2220822557849
30
0
41
1
10
47.8467954683648
20
-23.2186005868297
30
0
41
1
10
47.8774088218453
20
-23.2156840694719
30
0
41
1
10
47.8887994035957
20
-23.2115383842418
30
0
0
SPLINE
5
1A5
100
AcDbEntity
8
1
62
256
6
ByLayer
370
18
48
1
60
0
100
AcDbSpline
70
4
71
3
72
12
73
8
40
0
40
0
40
0
40
0
40
0.325591751081182
40
0.325591751081182
40
0.790920665058144
40
0.790920665058144
40
1
40
1
40
1
40
1
41
1
10
47.893961487582
20
-23.2074287862187
30
0
41
1
10
47.8939814411615
20
-23.2039781013925
30
0
41
1
10
47.8847684750872
20
-23.1999399665672
30
0
41
1
10
47.8405308989433
20
-23.1891474647062
30
0
41
1
10
47.7954167822452
20
-23.1818090423111
30
0
41
1
10
47.7074662992753
20
-23.1711754979419
30
0
41
1
10
47.6766372993174
20
-23.1678335773855
30
0
41
1
10
47.642987853215
20
-23.1645826672765
30
0
0
SPLINE
5
1A6
100
AcDbEntity
8
1
62
256
6
ByLayer
370
18
48
1
60
0
100
AcDbSpline
70
4
71
3
72
8
73
4
40
0
40
0
40
0
40
0
40
1
40
1
40
1
40
1
41
1
10
46.5785373198631
20
-3.52194255284223
30
0
41
1
10
46.5785373198631
20
-3.01337258609885
30
0
41
1
10
46.5785373198631
20
-2.50480261935542
30
0
41
1
10
46.5785373198631
20
-1.99623265261204
30
0
0
SPLINE
5
1A7
100
AcDbEntity
8
1
62
256
6
ByLayer
370
18
48
1
60
0
100
AcDbSpline
70
4
71
3
72
8
73
4
40
0
40
0
40
0
40
0
40
1
40
1
40
1
40
1
41
1
10
34.66337017613
20
-20.6044093847936
30
0
41
1
10
34.6260128016787
20
-20.5538272606705
30
0
41
1
10
34.5878704875642
20
-20.502182323219
30
0
41
1
10
34.5485869261514
20
-20.4489921296211
30
0
0
SPLINE
5
1A8
100
AcDbEntity
8
1
62
256
6
ByLayer
370
18
48
1
60
0
100
AcDbSpline
70
4
71
3
72
8
73
4
40
0
40
0
40
0
40
0
40
1
40
1
40
1
40
1
41
1
10
34.5410878512561
20
-20.2772350763885
30
0
41
1
10
34.575090476148
20
-20.2216339378653
30
0
41
1
10
34.6081194646477
20
-20.1676248908962
30
0
41
1
10
34.6404744276557
20
-20.114718011329
30
0
0
SPLINE
5
1A9
100
AcDbEntity
8
1
62
256
6
ByLayer
370
18
48
1
60
0
100
AcDbSpline
70
4
71
3
72
8
73
4
40
0
40
0
40
0
40
0
40
1
40
1
40
1
40
1
41
1
10
34.6499587717032
20
20.099209199028
30
0
41
1
10
34.6145777475722
20
20.1570642978641
30
0
41
1
10
34.5784196112208
20
20.2161901316611
30
0
41
1
10
34.5410878512561
20
20.2772350763886
30
0
0
SPLINE
5
1AA
100
AcDbEntity
8
1
62
256
6
ByLayer
370
18
48
1
60
0
100
AcDbSpline
70
4
71
3
72
8
73
4
40
0
40
0
40
0
40
0
40
1
40
1
40
1
40
1
41
1
10
34.5485869261514
20
20.4489921296211
30
0
41
1
10
34.587200195292
20
20.5012747431922
30
0
41
1
10
34.6247108308911
20
20.5520643838904
30
0
41
1
10
34.661457211077
20
20.6018192178673
30
0
0
SPLINE
5
1AB
100
AcDbEntity
8
1
62
256
6
ByLayer
370
18
48
1
60
0
100
AcDbSpline
70
4
71
3
72
8
73
4
40
0
40
0
40
0
40
0
40
1
40
1
40
1
40
1
41
1
10
55.193492310733
20
31.2977208502786
30
0
41
1
10
55.1986939687827
20
31.3018946068669
30
0
41
1
10
55.2038949366659
20
31.3060678096728
30
0
41
1
10
55.2090952402787
20
31.3102404794748
30
0
0
SPLINE
5
1AC
100
AcDbEntity
8
1
62
256
6
ByLayer
370
18
48
1
60
0
100
AcDbSpline
70
4
71
3
72
24
73
20
40
0
40
0
40
0
40
0
40
0.158126111966012
40
0.158126111966012
40
0.271563393607312
40
0.271563393607312
40
0.38506623046979
40
0.38506623046979
40
0.498714519310313
40
0.498714519310313
40
0.612721087896075
40
0.612721087896075
40
0.746221642583611
40
0.746221642583611
40
0.824913378297542
40
0.824913378297542
40
0.908986128606075
40
0.908986128606075
40
1
40
1
40
1
40
1
41
1
10
55.6341969044447
20
31.1623218262076
30
0
41
1
10
55.6521863527119
20
31.1408828366064
30
0
41
1
10
55.6690928421864
20
31.1184759417271
30
0
41
1
10
55.6959188017136
20
31.0785764557152
30
0
41
1
10
55.7064884597266
20
31.061437745327
30
0
41
1
10
55.7260643284058
20
31.0263582791191
30
0
41
1
10
55.7350940325529
20
31.0083768839796
30
0
41
1
10
55.7512106969369
20
30.971667043788
30
0
41
1
10
55.7583268652533
20
30.9528741725322
30
0
41
1
10
55.7699590936741
20
30.9146723842427
30
0
41
1
10
55.7745101958459
20
30.895139767916
30
0
41
1
10
55.7802355322251
20
30.852784561768
30
0
41
1
10
55.7807686508733
20
30.8294686221497
30
0
41
1
10
55.7749134754492
20
30.7945604741561
30
0
41
1
10
55.771182547337
20
30.7818762537937
30
0
41
1
10
55.7598633832709
20
30.7582644027005
30
0
41
1
10
55.7518366842983
20
30.7472527003279
30
0
41
1
10
55.7318098692039
20
30.7291951636075
30
0
41
1
10
55.7192604973107
20
30.7222700468769
30
0
41
1
10
55.7060502116918
20
30.7179926069357
30
0
0
SPLINE
5
1AD
100
AcDbEntity
8
1
62
256
6
ByLayer
370
18
48
1
60
0
100
AcDbSpline
70
4
71
3
72
26
73
22
40
0
40
0
40
0
40
0
40
0.0611212350797083
40
0.0611212350797083
40
0.145349009858785
40
0.145349009858785
40
0.228936526328737
40
0.228936526328737
40
0.391532191220694
40
0.391532191220694
40
0.475817926908327
40
0.475817926908327
40
0.589557559273582
40
0.589557559273582
40
0.70314906037643
40
0.70314906037643
40
0.816673845780341
40
0.816673845780341
40
0.930168712116192
40
0.930168712116192
40
1
40
1
40
1
40
1
41
1
10
55.2090952402787
20
31.3102404794748
30
0
41
1
10
55.2135200969193
20
31.3185828724004
30
0
41
1
10
55.2190414743993
20
31.3263898877699
30
0
41
1
10
55.234534731161
20
31.3425171591885
30
0
41
1
10
55.2456878325201
20
31.3501394057718
30
0
41
1
10
55.2702143316723
20
31.3604697521008
30
0
41
1
10
55.2838520197818
20
31.363383657211
30
0
41
1
10
55.3242308696785
20
31.3660901156496
30
0
41
1
10
55.3523571306442
20
31.3608549623783
30
0
41
1
10
55.3927009003507
20
31.3476498697306
30
0
41
1
10
55.4063861847658
20
31.3420919563383
30
0
41
1
10
55.4377645643495
20
31.3273564280452
30
0
41
1
10
55.4552867426431
20
31.3175520007212
30
0
41
1
10
55.4891280143633
20
31.2961272170887
30
0
41
1
10
55.5055135037518
20
31.2844634056246
30
0
41
1
10
55.5371443022912
20
31.2597294401265
30
0
41
1
10
55.5524289206521
20
31.2466273208809
30
0
41
1
10
55.5818807058966
20
31.2192627215431
30
0
41
1
10
55.5960754528282
20
31.2049739189277
30
0
41
1
10
55.6180792610857
20
31.18108713875
30
0
41
1
10
55.6262483080826
20
31.1717945944781
30
0
41
1
10
55.6341969044447
20
31.1623218262076
30
0
0
SPLINE
5
1AE
100
AcDbEntity
8
1
62
256
6
ByLayer
370
18
48
1
60
0
100
AcDbSpline
70
4
71
3
72
8
73
4
40
0
40
0
40
0
40
0
40
1
40
1
40
1
40
1
41
1
10
55.7060502116918
20
30.7179926069357
30
0
41
1
10
55.7010379108742
20
30.713595884127
30
0
41
1
10
55.6960249698011
20
30.7091985996948
30
0
41
1
10
55.6910113635126
20
30.7048007317445
30
0
0
SPLINE
5
1AF
100
AcDbEntity
8
1
62
256
6
ByLayer
370
18
48
1
60
0
100
AcDbSpline
70
4
71
3
72
8
73
4
40
0
40
0
40
0
40
0
40
1
40
1
40
1
40
1
41
1
10
53.4909047597213
20
28.8592648751833
30
0
41
1
10
53.4961050633341
20
28.8634375449854
30
0
41
1
10
53.5013060312173
20
28.8676107477912
30
0
41
1
10
53.5065076892669
20
28.8717845043796
30
0
0
SPLINE
5
1B0
100
AcDbEntity
8
1
62
256
6
ByLayer
370
18
48
1
60
0
100
AcDbSpline
70
4
71
3
72
26
73
22
40
0
40
0
40
0
40
0
40
0.0611212350797633
40
0.0611212350797633
40
0.145349009858826
40
0.145349009858826
40
0.22893652632877
40
0.22893652632877
40
0.391532191220672
40
0.391532191220672
40
0.475817926908278
40
0.475817926908278
40
0.589557559273533
40
0.589557559273533
40
0.703149060376373
40
0.703149060376373
40
0.816673845780276
40
0.816673845780276
40
0.930168712116128
40
0.930168712116128
40
1
40
1
40
1
40
1
41
1
10
52.9939497883082
20
29.4515127477224
30
0
41
1
10
52.9849657667844
20
29.4486037559257
30
0
41
1
10
52.9763185803825
20
29.4445219345678
30
0
41
1
10
52.9577459426518
20
29.4320645264819
30
0
41
1
10
52.9483027793953
20
29.4224044550225
30
0
41
1
10
52.9338703923569
20
29.400044414318
30
0
41
1
10
52.928632596325
20
29.3871199076468
30
0
41
1
10
52.9189555413706
20
29.3478244747866
30
0
41
1
10
52.9192270869392
20
29.319216440099
30
0
41
1
10
52.9252259424681
20
29.2771925426321
30
0
41
1
10
52.9283229939678
20
29.2627500469058
30
0
41
1
10
52.9373858580428
20
29.2292895777797
30
0
41
1
10
52.9439986397554
20
29.2103310798083
30
0
41
1
10
52.9592214576192
20
29.1732835584118
30
0
41
1
10
52.9678627592065
20
29.15512160182
30
0
41
1
10
52.9867283296674
20
29.1196763381493
30
0
41
1
10
52.9969772521566
20
29.102348768355
30
0
41
1
10
53.0188118729057
20
29.0685926090986
30
0
41
1
10
53.0304187045655
20
29.0521322877331
30
0
41
1
10
53.0501216696734
20
29.0263148709171
30
0
41
1
10
53.0578544991933
20
29.0166562967211
30
0
41
1
10
53.0658030955553
20
29.0071835284506
30
0
0
SPLINE
5
1B1
100
AcDbEntity
8
1
62
256
6
ByLayer
370
18
48
1
60
0
100
AcDbSpline
70
4
71
3
72
8
73
4
40
0
40
0
40
0
40
0
40
1
40
1
40
1
40
1
41
1
10
54.4796232401159
20
31.5757465742648
30
0
41
1
10
54.4809247633528
20
31.569207433021
30
0
41
1
10
54.4822264528423
20
31.5626674564879
30
0
41
1
10
54.4835283150655
20
31.5561266121023
30
0
0
SPLINE
5
1B2
100
AcDbEntity
8
1
62
256
6
ByLayer
370
18
48
1
60
0
100
AcDbSpline
70
4
71
3
72
8
73
4
40
0
40
0
40
0
40
0
40
1
40
1
40
1
40
1
41
1
10
52.8777925928772
20
30.208754359846
30
0
41
1
10
52.8715771846176
20
30.2111722495646
30
0
41
1
10
52.865362601031
20
30.2135898184728
30
0
41
1
10
52.8591488111745
20
30.2160070786078
30
0
0
SPLINE
5
1B3
100
AcDbEntity
8
1
62
256
6
ByLayer
370
18
48
1
60
0
100
AcDbSpline
70
4
71
3
72
24
73
20
40
0
40
0
40
0
40
0
40
0.158126111965999
40
0.158126111965999
40
0.271563393607295
40
0.271563393607295
40
0.385066230469773
40
0.385066230469773
40
0.498714519310306
40
0.498714519310306
40
0.61272108789606
40
0.61272108789606
40
0.746221642583608
40
0.746221642583608
40
0.82491337829754
40
0.82491337829754
40
0.90898612860607
40
0.90898612860607
40
1
40
1
40
1
40
1
41
1
10
54.6411038050408
20
28.4338209601794
30
0
41
1
10
54.6135423712811
20
28.4289611357806
30
0
41
1
10
54.5856841863584
20
28.4255231338464
30
0
41
1
10
54.5377172381106
20
28.4222409144209
30
0
41
1
10
54.5175898505198
20
28.4216566772665
30
0
41
1
10
54.477422207293
20
28.4222432107931
30
0
41
1
10
54.4573350102332
20
28.4234139551827
30
0
41
1
10
54.4174850238664
20
28.4278114344978
30
0
41
1
10
54.3976518357906
20
28.4310450875861
30
0
41
1
10
54.3587520024515
20
28.4400721764158
30
0
41
1
10
54.3395607094243
20
28.4458971144831
30
0
41
1
10
54.300017356728
20
28.4621164308076
30
0
41
1
10
54.2795586013813
20
28.4733127063241
30
0
41
1
10
54.2522548461318
20
28.4958375109818
30
0
41
1
10
54.2431354531269
20
28.5054106996878
30
0
41
1
10
54.2283465722829
20
28.5270193088653
30
0
41
1
10
54.2228235077756
20
28.5394764852704
30
0
41
1
10
54.2171986297932
20
28.5658489842592
30
0
41
1
10
54.2174759887269
20
28.5801796174856
30
0
41
1
10
54.2203767598841
20
28.5937587803934
30
0
0
SPLINE
5
1B4
100
AcDbEntity
8
1
62
256
6
ByLayer
370
18
48
1
60
0
100
AcDbSpline
70
4
71
3
72
26
73
22
40
0
40
0
40
0
40
0
40
0.0611212350797086
40
0.0611212350797086
40
0.145349009858796
40
0.145349009858796
40
0.228936526328742
40
0.228936526328742
40
0.391532191220698
40
0.391532191220698
40
0.475817926908335
40
0.475817926908335
40
0.589557559273595
40
0.589557559273595
40
0.703149060376439
40
0.703149060376439
40
0.816673845780335
40
0.816673845780335
40
0.930168712116189
40
0.930168712116189
40
1
40
1
40
1
40
1
41
1
10
53.7182440514531
20
31.4414948807536
30
0
41
1
10
53.7132317555715
20
31.4494981154753
30
0
41
1
10
53.7092313706739
20
31.4581832763216
30
0
41
1
10
53.7030113723125
20
31.4796644659739
30
0
41
1
10
53.701986863817
20
31.4931344583735
30
0
41
1
10
53.7053037710422
20
31.5195402028696
30
0
41
1
10
53.7095990992474
20
31.5328077397764
30
0
41
1
10
53.7274446624336
20
31.5691300787819
30
0
41
1
10
53.7460415686422
20
31.590870558656
30
0
41
1
10
53.7776493991877
20
31.6192067417825
30
0
41
1
10
53.7893053355849
20
31.6282795890479
30
0
41
1
10
53.8177558672168
20
31.6480862987503
30
0
41
1
10
53.8350078394957
20
31.6583587366202
30
0
41
1
10
53.8704828822522
20
31.67695374581
30
0
41
1
10
53.8887767839792
20
31.6853120901419
30
0
41
1
10
53.9260124257066
20
31.7003381824699
30
0
41
1
10
53.9450015029972
20
31.7070239906348
30
0
41
1
10
53.9834258338103
20
31.7188476851745
30
0
41
1
10
54.0028976733307
20
31.7239962953098
30
0
41
1
10
54.034586135908
20
31.731108762152
30
0
41
1
10
54.0467182388117
20
31.7335370922401
30
0
41
1
10
54.0588961949592
20
31.7356843944788
30
0
0
SPLINE
5
1B5
100
AcDbEntity
8
1
62
256
6
ByLayer
370
18
48
1
60
0
100
AcDbSpline
70
4
71
3
72
26
73
22
40
0
40
0
40
0
40
0
40
0.061121235079708
40
0.061121235079708
40
0.145349009858786
40
0.145349009858786
40
0.228936526328737
40
0.228936526328737
40
0.391532191220693
40
0.391532191220693
40
0.475817926908333
40
0.475817926908333
40
0.589557559273584
40
0.589557559273584
40
0.703149060376417
40
0.703149060376417
40
0.816673845780325
40
0.816673845780325
40
0.930168712116177
40
0.930168712116177
40
1
40
1
40
1
40
1
41
1
10
54.9817559485469
20
28.7280104739046
30
0
41
1
10
54.9867682444284
20
28.7200072391829
30
0
41
1
10
54.9907686293261
20
28.7113220783366
30
0
41
1
10
54.9969886276875
20
28.6898408886843
30
0
41
1
10
54.9980131361829
20
28.6763708962846
30
0
41
1
10
54.9946962289578
20
28.6499651517885
30
0
41
1
10
54.9904009007526
20
28.6366976148817
30
0
41
1
10
54.9725553375664
20
28.6003752758762
30
0
41
1
10
54.9539584313578
20
28.5786347960021
30
0
41
1
10
54.9223506008123
20
28.5502986128757
30
0
41
1
10
54.9106946644151
20
28.5412257656103
30
0
41
1
10
54.8822441327832
20
28.5214190559078
30
0
41
1
10
54.8649921605042
20
28.511146618038
30
0
41
1
10
54.8295171177478
20
28.4925516088481
30
0
41
1
10
54.8112232160208
20
28.4841932645163
30
0
41
1
10
54.7739875742934
20
28.4691671721883
30
0
41
1
10
54.7549984970028
20
28.4624813640233
30
0
41
1
10
54.7165741661897
20
28.4506576694836
30
0
41
1
10
54.6971023266693
20
28.4455090593484
30
0
41
1
10
54.665413864092
20
28.4383965925062
30
0
41
1
10
54.6532817611882
20
28.4359682624181
30
0
41
1
10
54.6411038050408
20
28.4338209601794
30
0
0
SPLINE
5
1B6
100
AcDbEntity
8
1
62
256
6
ByLayer
370
18
48
1
60
0
100
AcDbSpline
70
4
71
3
72
30
73
26
40
0
40
0
40
0
40
0
40
0.072868112638109
40
0.072868112638109
40
0.127812593477834
40
0.127812593477834
40
0.199092397893557
40
0.199092397893557
40
0.288874798004154
40
0.288874798004154
40
0.393641276926428
40
0.393641276926428
40
0.49991562193292
40
0.49991562193292
40
0.631623646297737
40
0.631623646297737
40
0.73486891174353
40
0.73486891174353
40
0.796951047610517
40
0.796951047610517
40
0.859105215562996
40
0.859105215562996
40
0.921420364650284
40
0.921420364650284
40
1
40
1
40
1
40
1
41
1
10
53.1425169515528
20
30.9360785576869
30
0
41
1
10
53.1599297810972
20
30.9301700042176
30
0
41
1
10
53.1789257637117
20
30.9277473717795
30
0
41
1
10
53.2124253719881
20
30.9276928577312
30
0
41
1
10
53.227107191056
20
30.9290328231208
30
0
41
1
10
53.2607092889302
20
30.9344439787599
30
0
41
1
10
53.2797382239137
20
30.9392259985792
30
0
41
1
10
53.3221687287279
20
30.9528416452955
30
0
41
1
10
53.3456086577714
20
30.962462053157
30
0
41
1
10
53.3952122596416
20
30.9864766163548
30
0
41
1
10
53.421382733481
20
31.0015019830428
30
0
41
1
10
53.4722120230598
20
31.0348727620921
30
0
41
1
10
53.497016936746
20
31.0533819289776
30
0
41
1
10
53.5498024785817
20
31.0976742576635
30
0
41
1
10
53.5774053790197
20
31.1243600110469
30
0
41
1
10
53.6221699617386
20
31.1747789388678
30
0
41
1
10
53.6404519877676
20
31.1980805134757
30
0
41
1
10
53.6664515748928
20
31.2367606538913
30
0
41
1
10
53.6755152856653
20
31.2516626741313
30
0
41
1
10
53.6917921075387
20
31.282033304673
30
0
41
1
10
53.6990392909724
20
31.2975650381479
30
0
41
1
10
53.7110989673806
20
31.3290757531869
30
0
41
1
10
53.7159482970468
20
31.345158590811
30
0
41
1
10
53.723007802104
20
31.3814721429105
30
0
41
1
10
53.7242952242428
20
31.4021487081114
30
0
41
1
10
53.7212849036102
20
31.4217225327955
30
0
0
SPLINE
5
1B7
100
AcDbEntity
8
1
62
256
6
ByLayer
370
18
48
1
60
0
100
AcDbSpline
70
4
71
3
72
8
73
4
40
0
40
0
40
0
40
0
40
1
40
1
40
1
40
1
41
1
10
55.8222074071228
20
29.9607509948122
30
0
41
1
10
55.8284228153823
20
29.9583331050935
30
0
41
1
10
55.834637398969
20
29.9559155361853
30
0
41
1
10
55.8408511888255
20
29.9534982760504
30
0
0
SPLINE
5
1B8
100
AcDbEntity
8
1
62
256
6
ByLayer
370
18
48
1
60
0
100
AcDbSpline
70
4
71
3
72
8
73
4
40
0
40
0
40
0
40
0
40
1
40
1
40
1
40
1
41
1
10
53.0089886364874
20
29.4647046229136
30
0
41
1
10
53.0039750301989
20
29.4603067549634
30
0
41
1
10
52.9989620891257
20
29.4559094705311
30
0
41
1
10
52.9939497883082
20
29.4515127477224
30
0
0
SPLINE
5
1B9
100
AcDbEntity
8
1
62
256
6
ByLayer
370
18
48
1
60
0
100
AcDbSpline
70
4
71
3
72
8
73
4
40
0
40
0
40
0
40
0
40
1
40
1
40
1
40
1
41
1
10
53.1235730284241
20
30.9425066446581
30
0
41
1
10
53.1298868524786
20
30.940364226223
30
0
41
1
10
53.1362014830411
20
30.9382215341222
30
0
41
1
10
53.1425169515528
20
30.9360785576869
30
0
0
SPLINE
5
1BA
100
AcDbEntity
8
1
62
256
6
ByLayer
370
18
48
1
60
0
100
AcDbSpline
70
4
71
3
72
8
73
4
40
0
40
0
40
0
40
0
40
1
40
1
40
1
40
1
41
1
10
54.2203767598841
20
28.5937587803934
30
0
41
1
10
54.2190752366472
20
28.6002979216372
30
0
41
1
10
54.2177735471577
20
28.6068378981703
30
0
41
1
10
54.2164716849345
20
28.6133787425558
30
0
0
SPLINE
5
1BB
100
AcDbEntity
8
1
62
256
6
ByLayer
370
18
48
1
60
0
100
AcDbSpline
70
4
71
3
72
26
73
22
40
0
40
0
40
0
40
0
40
0.0611212350797123
40
0.0611212350797123
40
0.145349009858796
40
0.145349009858796
40
0.228936526328742
40
0.228936526328742
40
0.391532191220699
40
0.391532191220699
40
0.475817926908338
40
0.475817926908338
40
0.589557559273593
40
0.589557559273593
40
0.703149060376437
40
0.703149060376437
40
0.816673845780345
40
0.816673845780345
40
0.930168712116199
40
0.930168712116199
40
1
40
1
40
1
40
1
41
1
10
52.8591488111745
20
30.2160070786078
30
0
41
1
10
52.8497116586522
20
30.2156679204039
30
0
41
1
10
52.8401898962746
20
30.2165460658807
30
0
41
1
10
52.8184766411514
20
30.2218999841145
30
0
41
1
10
52.8062990312969
20
30.2277477299308
30
0
41
1
10
52.7850894393699
20
30.2438231280979
30
0
41
1
10
52.7757470794656
20
30.2541767598946
30
0
41
1
10
52.7532137927551
20
30.2877926404614
30
0
41
1
10
52.7436844379979
20
30.3147682736069
30
0
41
1
10
52.7349484988369
20
30.356309549381
30
0
41
1
10
52.732919150819
20
30.3709403100386
30
0
41
1
10
52.7299913028673
20
30.4054825480342
30
0
41
1
10
52.7297210968526
20
30.4255594132281
30
0
41
1
10
52.7313548678889
20
30.4655792060505
30
0
41
1
10
52.7332632802274
20
30.4856013618464
30
0
41
1
10
52.7388681234155
20
30.5253614196725
30
0
41
1
10
52.742572582345
20
30.545149347083
30
0
41
1
10
52.7515451279137
20
30.5843376409604
30
0
41
1
10
52.7568222205025
20
30.6037750537111
30
0
41
1
10
52.7665068748223
20
30.634774300731
30
0
41
1
10
52.7704699307291
20
30.6464951750911
30
0
41
1
10
52.7746992905145
20
30.6581152456002
30
0
0
SPLINE
5
1BC
100
AcDbEntity
8
1
62
256
6
ByLayer
370
18
48
1
60
0
100
AcDbSpline
70
4
71
3
72
8
73
4
40
0
40
0
40
0
40
0
40
1
40
1
40
1
40
1
41
1
10
55.5764269715759
20
29.22699871
30
0
41
1
10
55.5701131475214
20
29.2291411284351
30
0
41
1
10
55.5637985169588
20
29.231283820536
30
0
41
1
10
55.5574830484472
20
29.2334267969712
30
0
0
SPLINE
5
1BD
100
AcDbEntity
8
1
62
256
6
ByLayer
370
18
48
1
60
0
100
AcDbSpline
70
4
71
3
72
30
73
26
40
0
40
0
40
0
40
0
40
0.0728681126381151
40
0.0728681126381151
40
0.127812593477836
40
0.127812593477836
40
0.19909239789356
40
0.19909239789356
40
0.288874798004161
40
0.288874798004161
40
0.39364127692643
40
0.39364127692643
40
0.499915621932922
40
0.499915621932922
40
0.631623646297741
40
0.631623646297741
40
0.734868911743529
40
0.734868911743529
40
0.796951047610513
40
0.796951047610513
40
0.859105215562994
40
0.859105215562994
40
0.921420364650287
40
0.921420364650287
40
1
40
1
40
1
40
1
41
1
10
55.6910113635126
20
30.7048007317445
30
0
41
1
10
55.6771879913364
20
30.692675055742
30
0
41
1
10
55.6655919387937
20
30.677435368447
30
0
41
1
10
55.6487949241048
20
30.6484511136869
30
0
41
1
10
55.6426144586385
20
30.6350663027056
30
0
41
1
10
55.6304996079486
20
30.6032604545065
30
0
41
1
10
55.6251264911018
20
30.5843899034942
30
0
41
1
10
55.61570273464
20
30.5408361850716
30
0
41
1
10
55.612314287721
20
30.5157264071263
30
0
41
1
10
55.608309708576
20
30.4607611461885
30
0
41
1
10
55.6082368209093
20
30.4305841676706
30
0
41
1
10
55.6117221185207
20
30.3698793221144
30
0
41
1
10
55.6153490704033
20
30.3391430532807
30
0
41
1
10
55.6273145813202
20
30.2712832687554
30
0
41
1
10
55.6366236714504
20
30.2340355790663
30
0
41
1
10
55.6579054524154
20
30.1700588493316
30
0
41
1
10
55.6689441949595
20
30.1425753630538
30
0
41
1
10
55.6894423856188
20
30.1007189899076
30
0
41
1
10
55.6978160583281
20
30.0854185760061
30
0
41
1
10
55.7159793849694
20
30.0561371195001
30
0
41
1
10
55.7258066690067
20
30.042095007803
30
0
41
1
10
55.7470659105177
20
30.0158956641527
30
0
41
1
10
55.7585693916321
20
30.0036546026583
30
0
41
1
10
55.7864880977233
20
29.9793841158909
30
0
41
1
10
55.8037508173808
20
29.9679308930129
30
0
41
1
10
55.8222074071228
20
29.9607509948122
30
0
0
SPLINE
5
1BE
100
AcDbEntity
8
1
62
256
6
ByLayer
370
18
48
1
60
0
100
AcDbSpline
70
4
71
3
72
24
73
20
40
0
40
0
40
0
40
0
40
0.158126111966034
40
0.158126111966034
40
0.27156339360733
40
0.27156339360733
40
0.385066230469803
40
0.385066230469803
40
0.49871451931033
40
0.49871451931033
40
0.612721087896077
40
0.612721087896077
40
0.746221642583613
40
0.746221642583613
40
0.824913378297548
40
0.824913378297548
40
0.908986128606076
40
0.908986128606076
40
1
40
1
40
1
40
1
41
1
10
55.9253007094855
20
29.511390109058
30
0
41
1
10
55.915728723993
20
29.4850912950578
30
0
41
1
10
55.9047770285449
20
29.4592463982444
30
0
41
1
10
55.8836360398242
20
29.416064692807
30
0
41
1
10
55.8740783102464
20
29.3983417452644
30
0
41
1
10
55.8534865356988
20
29.3638488125831
30
0
41
1
10
55.8424290427861
20
29.3470381618333
30
0
41
1
10
55.8186957208033
20
29.3147258009567
30
0
41
1
10
55.8059787010439
20
29.2991665827892
30
0
41
1
10
55.7787110961256
20
29.2699918833295
30
0
41
1
10
55.7640709052702
20
29.25628420507
30
0
41
1
10
55.7302528889531
20
29.2301483152464
30
0
41
1
10
55.7103272522546
20
29.2180286511447
30
0
41
1
10
55.677168321581
20
29.2056453078088
30
0
41
1
10
55.6643180004639
20
29.2025342761524
30
0
41
1
10
55.6382099555538
20
29.2005310342367
30
0
41
1
10
55.6246601920739
20
29.2019765082692
30
0
41
1
10
55.5990084989971
20
29.2102914705376
30
0
41
1
10
55.5867364860376
20
29.2176969870334
30
0
41
1
10
55.5764269715759
20
29.22699871
30
0
0
SPLINE
5
1BF
100
AcDbEntity
8
1
62
256
6
ByLayer
370
18
48
1
60
0
100
AcDbSpline
70
4
71
3
72
24
73
20
40
0
40
0
40
0
40
0
40
0.158126111966015
40
0.158126111966015
40
0.271563393607313
40
0.271563393607313
40
0.385066230469788
40
0.385066230469788
40
0.498714519310318
40
0.498714519310318
40
0.612721087896074
40
0.612721087896074
40
0.746221642583602
40
0.746221642583602
40
0.824913378297541
40
0.824913378297541
40
0.908986128606073
40
0.908986128606073
40
1
40
1
40
1
40
1
41
1
10
52.7746992905145
20
30.6581152456002
30
0
41
1
10
52.784271276007
20
30.6844140596003
30
0
41
1
10
52.7952229714551
20
30.7102589564137
30
0
41
1
10
52.8163639601758
20
30.7534406618511
30
0
41
1
10
52.8259216897536
20
30.7711636093938
30
0
41
1
10
52.8465134643012
20
30.805656542075
30
0
41
1
10
52.8575709572139
20
30.8224671928248
30
0
41
1
10
52.8813042791967
20
30.8547795537015
30
0
41
1
10
52.8940212989561
20
30.8703387718689
30
0
41
1
10
52.9212889038744
20
30.8995134713287
30
0
41
1
10
52.9359290947298
20
30.9132211495881
30
0
41
1
10
52.9697471110469
20
30.9393570394117
30
0
41
1
10
52.9896727477454
20
30.9514767035134
30
0
41
1
10
53.022831678419
20
30.9638600468493
30
0
41
1
10
53.0356819995361
20
30.9669710785057
30
0
41
1
10
53.0617900444462
20
30.9689743204214
30
0
41
1
10
53.0753398079261
20
30.967528846389
30
0
41
1
10
53.1009915010029
20
30.9592138841205
30
0
41
1
10
53.1132635139624
20
30.9518083676248
30
0
41
1
10
53.1235730284241
20
30.9425066446581
30
0
0
SPLINE
5
1C0
100
AcDbEntity
8
1
62
256
6
ByLayer
370
18
48
1
60
0
100
AcDbSpline
70
4
71
3
72
26
73
22
40
0
40
0
40
0
40
0
40
0.0611212350797038
40
0.0611212350797038
40
0.1453490098588
40
0.1453490098588
40
0.228936526328748
40
0.228936526328748
40
0.391532191220715
40
0.391532191220715
40
0.475817926908344
40
0.475817926908344
40
0.589557559273607
40
0.589557559273607
40
0.703149060376454
40
0.703149060376454
40
0.816673845780364
40
0.816673845780364
40
0.93016871211622
40
0.93016871211622
40
1
40
1
40
1
40
1
41
1
10
55.8408511888255
20
29.9534982760504
30
0
41
1
10
55.8502883413477
20
29.9538374342542
30
0
41
1
10
55.8598101037254
20
29.9529592887774
30
0
41
1
10
55.8815233588485
20
29.9476053705437
30
0
41
1
10
55.8937009687031
20
29.9417576247274
30
0
41
1
10
55.91491056063
20
29.9256822265602
30
0
41
1
10
55.9242529205344
20
29.9153285947636
30
0
41
1
10
55.9467862072449
20
29.8817127141967
30
0
41
1
10
55.956315562002
20
29.8547370810513
30
0
41
1
10
55.9650515011631
20
29.8131958052771
30
0
41
1
10
55.967080849181
20
29.7985650446196
30
0
41
1
10
55.9700086971327
20
29.7640228066239
30
0
41
1
10
55.9702789031474
20
29.7439459414301
30
0
41
1
10
55.9686451321111
20
29.7039261486077
30
0
41
1
10
55.9667367197726
20
29.6839039928118
30
0
41
1
10
55.9611318765845
20
29.6441439349857
30
0
41
1
10
55.9574274176549
20
29.6243560075752
30
0
41
1
10
55.9484548720863
20
29.5851677136977
30
0
41
1
10
55.9431777794975
20
29.565730300947
30
0
41
1
10
55.9334931251777
20
29.5347310539272
30
0
41
1
10
55.9295300692709
20
29.5230101795671
30
0
41
1
10
55.9253007094855
20
29.511390109058
30
0
0
SPLINE
5
1C1
100
AcDbEntity
8
1
62
256
6
ByLayer
370
18
48
1
60
0
100
AcDbSpline
70
4
71
3
72
8
73
4
40
0
40
0
40
0
40
0
40
1
40
1
40
1
40
1
41
1
10
53.7212849036102
20
31.4217225327955
30
0
41
1
10
53.7202711534004
20
31.4283141791025
30
0
41
1
10
53.719257537697
20
31.4349049508165
30
0
41
1
10
53.7182440514531
20
31.4414948807536
30
0
0
SPLINE
5
1C2
100
AcDbEntity
8
1
62
256
6
ByLayer
370
18
48
1
60
0
100
AcDbSpline
70
4
71
3
72
30
73
26
40
0
40
0
40
0
40
0
40
0.0728681126381103
40
0.0728681126381103
40
0.127812593477836
40
0.127812593477836
40
0.199092397893559
40
0.199092397893559
40
0.288874798004157
40
0.288874798004157
40
0.393641276926431
40
0.393641276926431
40
0.499915621932922
40
0.499915621932922
40
0.631623646297736
40
0.631623646297736
40
0.734868911743531
40
0.734868911743531
40
0.796951047610518
40
0.796951047610518
40
0.859105215562993
40
0.859105215562993
40
0.921420364650285
40
0.921420364650285
40
1
40
1
40
1
40
1
41
1
10
55.5574830484472
20
29.2334267969712
30
0
41
1
10
55.5400702189028
20
29.2393353504406
30
0
41
1
10
55.5210742362883
20
29.2417579828787
30
0
41
1
10
55.4875746280119
20
29.2418124969269
30
0
41
1
10
55.472892808944
20
29.2404725315373
30
0
41
1
10
55.4392907110698
20
29.2350613758983
30
0
41
1
10
55.4202617760862
20
29.230279356079
30
0
41
1
10
55.3778312712721
20
29.2166637093626
30
0
41
1
10
55.3543913422286
20
29.2070433015012
30
0
41
1
10
55.3047877403584
20
29.1830287383033
30
0
41
1
10
55.278617266519
20
29.1680033716154
30
0
41
1
10
55.2277879769402
20
29.1346325925661
30
0
41
1
10
55.202983063254
20
29.1161234256805
30
0
41
1
10
55.1501975214183
20
29.0718310969947
30
0
41
1
10
55.1225946209803
20
29.0451453436113
30
0
41
1
10
55.0778300382614
20
28.9947264157904
30
0
41
1
10
55.0595480122324
20
28.9714248411825
30
0
41
1
10
55.0335484251072
20
28.9327447007668
30
0
41
1
10
55.0244847143347
20
28.9178426805268
30
0
41
1
10
55.0082078924613
20
28.8874720499852
30
0
41
1
10
55.0009607090276
20
28.8719403165102
30
0
41
1
10
54.9889010326194
20
28.8404296014713
30
0
41
1
10
54.9840517029532
20
28.8243467638471
30
0
41
1
10
54.976992197896
20
28.7880332117476
30
0
41
1
10
54.9757047757572
20
28.7673566465468
30
0
41
1
10
54.9787150963898
20
28.7477828218626
30
0
0
SPLINE
5
1C3
100
AcDbEntity
8
1
62
256
6
ByLayer
370
18
48
1
60
0
100
AcDbSpline
70
4
71
3
72
24
73
20
40
0
40
0
40
0
40
0
40
0.158126111965951
40
0.158126111965951
40
0.271563393607253
40
0.271563393607253
40
0.385066230469741
40
0.385066230469741
40
0.498714519310274
40
0.498714519310274
40
0.612721087896032
40
0.612721087896032
40
0.746221642583591
40
0.746221642583591
40
0.824913378297529
40
0.824913378297529
40
0.908986128606068
40
0.908986128606068
40
1
40
1
40
1
40
1
41
1
10
53.0658030955553
20
29.0071835284506
30
0
41
1
10
53.0837925438226
20
28.9857445388493
30
0
41
1
10
53.1029232465326
20
28.9652039804756
30
0
41
1
10
53.1375582907122
20
28.9318570945154
30
0
41
1
10
53.1526012237266
20
28.9184719075311
30
0
41
1
10
53.1837484400973
20
28.8931019549033
30
0
41
1
10
53.19988866577
20
28.8810869957533
30
0
41
1
10
53.2332421716022
20
28.8588405828635
30
0
41
1
10
53.2505138272568
20
28.8485691772878
30
0
41
1
10
53.2861153292757
20
28.8304799976341
30
0
41
1
10
53.3045609106724
20
28.8226062337003
30
0
41
1
10
53.3452784518386
20
28.8096129736832
30
0
41
1
10
53.3681475948617
20
28.8050391838798
30
0
41
1
10
53.4035421501914
20
28.8047436697479
30
0
41
1
10
53.4166815376129
20
28.8062153249276
30
0
41
1
10
53.4419002238453
20
28.8132623705439
30
0
41
1
10
53.454138455365
20
28.8192549638732
30
0
41
1
10
53.4753992774731
20
28.8358418683017
30
0
41
1
10
53.48439836168
20
28.8469980531371
30
0
41
1
10
53.4909047597213
20
28.8592648751833
30
0
0
SPLINE
5
1C4
100
AcDbEntity
8
1
62
256
6
ByLayer
370
18
48
1
60
0
100
AcDbSpline
70
4
71
3
72
8
73
4
40
0
40
0
40
0
40
0
40
1
40
1
40
1
40
1
41
1
10
54.9787150963898
20
28.7477828218626
30
0
41
1
10
54.9797288465996
20
28.7411911755557
30
0
41
1
10
54.980742462303
20
28.7346004038416
30
0
41
1
10
54.9817559485469
20
28.7280104739046
30
0
0
SPLINE
5
1C5
100
AcDbEntity
8
1
62
256
6
ByLayer
370
18
48
1
60
0
100
AcDbSpline
70
4
71
3
72
26
73
22
40
0
40
0
40
0
40
0
40
0.0727938302380711
40
0.0727938302380711
40
0.12768230018694
40
0.12768230018694
40
0.198889441338004
40
0.198889441338004
40
0.288580316474556
40
0.288580316474556
40
0.393239995518879
40
0.393239995518879
40
0.499406003515843
40
0.499406003515843
40
0.600539842293492
40
0.600539842293492
40
0.795411350082978
40
0.795411350082978
40
0.921875057553228
40
0.921875057553228
40
1
40
1
40
1
40
1
41
1
10
53.5065076892669
20
28.8717845043796
30
0
41
1
10
53.5208495523924
20
28.8832922669306
30
0
41
1
10
53.5378713479861
20
28.8920658054521
30
0
41
1
10
53.5693320377801
20
28.9035745727249
30
0
41
1
10
53.5835867299725
20
28.9073368949981
30
0
41
1
10
53.617013097615
20
28.9137446663052
30
0
41
1
10
53.6365299945044
20
28.915759316639
30
0
41
1
10
53.681058452216
20
28.9174768812303
30
0
41
1
10
53.7063751538464
20
28.9164535828463
30
0
41
1
10
53.7612007568351
20
28.9108527060389
30
0
41
1
10
53.7909319360517
20
28.9056843090498
30
0
41
1
10
53.8501093230219
20
28.8917106751342
30
0
41
1
10
53.8797488252831
20
28.882801527729
30
0
41
1
10
53.9362701754126
20
28.8622294386814
30
0
41
1
10
53.9633808541036
20
28.8506558182143
30
0
41
1
10
54.0394613658504
20
28.812913147263
30
0
41
1
10
54.0870148989075
20
28.7825995756392
30
0
41
1
10
54.1531277096824
20
28.7238349884637
30
0
41
1
10
54.1766389237724
20
28.6978647026333
30
0
41
1
10
54.2043242358182
20
28.6517910029043
30
0
41
1
10
54.2126058186953
20
28.6328017114663
30
0
41
1
10
54.2164716849345
20
28.6133787425558
30
0
0
SPLINE
5
1C6
100
AcDbEntity
8
1
62
256
6
ByLayer
370
18
48
1
60
0
100
AcDbSpline
70
4
71
3
72
24
73
20
40
0
40
0
40
0
40
0
40
0.158126111966013
40
0.158126111966013
40
0.271563393607308
40
0.271563393607308
40
0.385066230469785
40
0.385066230469785
40
0.498714519310318
40
0.498714519310318
40
0.612721087896068
40
0.612721087896068
40
0.746221642583613
40
0.746221642583613
40
0.824913378297548
40
0.824913378297548
40
0.908986128606082
40
0.908986128606082
40
1
40
1
40
1
40
1
41
1
10
54.0588961949592
20
31.7356843944788
30
0
41
1
10
54.0864576287189
20
31.7405442188776
30
0
41
1
10
54.1143158136415
20
31.7439822208117
30
0
41
1
10
54.1622827618894
20
31.7472644402372
30
0
41
1
10
54.1824101494802
20
31.7478486773917
30
0
41
1
10
54.222577792707
20
31.747262143865
30
0
41
1
10
54.2426649897668
20
31.7460913994754
30
0
41
1
10
54.2825149761336
20
31.7416939201604
30
0
41
1
10
54.3023481642094
20
31.7384602670721
30
0
41
1
10
54.3412479975485
20
31.7294331782424
30
0
41
1
10
54.3604392905757
20
31.7236082401751
30
0
41
1
10
54.399982643272
20
31.7073889238506
30
0
41
1
10
54.4204413986187
20
31.696192648334
30
0
41
1
10
54.4477451538682
20
31.6736678436764
30
0
41
1
10
54.4568645468731
20
31.6640946549703
30
0
41
1
10
54.4716534277171
20
31.6424860457929
30
0
41
1
10
54.4771764922244
20
31.6300288693878
30
0
41
1
10
54.4828013702068
20
31.603656370399
30
0
41
1
10
54.4825240112731
20
31.5893257371726
30
0
41
1
10
54.4796232401159
20
31.5757465742648
30
0
0
SPLINE
5
1C7
100
AcDbEntity
8
1
62
256
6
ByLayer
370
18
48
1
60
0
100
AcDbSpline
70
4
71
3
72
28
73
24
40
0
40
0
40
0
40
0
40
0.0405984349493353
40
0.0405984349493353
40
0.136918028510171
40
0.136918028510171
40
0.284178405664794
40
0.284178405664794
40
0.500822929974463
40
0.500822929974463
40
0.566758824834819
40
0.566758824834819
40
0.63205009504478
40
0.63205009504478
40
0.735175839208405
40
0.735175839208405
40
0.797186106051236
40
0.797186106051236
40
0.859268321592044
40
0.859268321592044
40
0.92151133190884
40
0.92151133190884
40
1
40
1
40
1
40
1
41
1
10
52.8777925928772
20
30.208754359846
30
0
41
1
10
52.8874620746959
20
30.2049927822153
30
0
41
1
10
52.8968014229393
20
30.2000562503232
30
0
41
1
10
52.9265607206143
20
30.1808016854159
30
0
41
1
10
52.9453127506262
20
30.1626622752272
30
0
41
1
10
52.9870982162505
20
30.1119825614956
30
0
41
1
10
53.0080412691458
20
30.0760008966689
30
0
41
1
10
53.0504842162683
20
29.9829464675758
30
0
41
1
10
53.0684964406594
20
29.9219789607927
30
0
41
1
10
53.0826314415283
20
29.8418153873442
30
0
41
1
10
53.0852901571656
20
29.8227944854284
30
0
41
1
10
53.0891855491175
20
29.7849268736301
30
0
41
1
10
53.0904408382572
20
29.7660341024949
30
0
41
1
10
53.0917944685048
20
29.7175842473758
30
0
41
1
10
53.0908213495092
20
29.68798274582
30
0
41
1
10
53.0858750737497
20
29.6416398267345
30
0
41
1
10
53.0832394450518
20
29.6243981759562
30
0
41
1
10
53.0761863489891
20
29.5906703837705
30
0
41
1
10
53.0717544077533
20
29.5741139859342
30
0
41
1
10
53.0607379586523
20
29.5422235672079
30
0
41
1
10
53.0541149119407
20
29.5267863097909
30
0
41
1
10
53.0361809052077
20
29.4944307526138
30
0
41
1
10
53.0238764878611
20
29.4777640457397
30
0
41
1
10
53.0089886364874
20
29.4647046229136
30
0
0
SPLINE
5
1C8
100
AcDbEntity
8
1
62
256
6
ByLayer
370
18
48
1
60
0
100
AcDbSpline
70
4
71
3
72
30
73
26
40
0
40
0
40
0
40
0
40
0.0728681126381103
40
0.0728681126381103
40
0.127812593477835
40
0.127812593477835
40
0.199092397893559
40
0.199092397893559
40
0.288874798004162
40
0.288874798004162
40
0.393641276926423
40
0.393641276926423
40
0.499915621932923
40
0.499915621932923
40
0.631623646297736
40
0.631623646297736
40
0.734868911743532
40
0.734868911743532
40
0.796951047610513
40
0.796951047610513
40
0.859105215562992
40
0.859105215562992
40
0.921420364650284
40
0.921420364650284
40
1
40
1
40
1
40
1
41
1
10
54.4835283150655
20
31.5561266121023
30
0
41
1
10
54.4871177724336
20
31.5380923826304
30
0
41
1
10
54.4945177025054
20
31.5204300628974
30
0
41
1
10
54.511220296093
20
31.4913912940891
30
0
41
1
10
54.5197216496945
20
31.4793464484973
30
0
41
1
10
54.5412088968788
20
31.4529517559373
30
0
41
1
10
54.5548647150155
20
31.4388632247442
30
0
41
1
10
54.5878714633679
20
31.408925153038
30
0
41
1
10
54.6079229454924
20
31.3934357829542
30
0
41
1
10
54.6535219682177
20
31.3624850852142
30
0
41
1
10
54.6796195543903
20
31.3473334733843
30
0
41
1
10
54.7339341415804
20
31.3199994068773
30
0
41
1
10
54.7623660071493
20
31.3077723049292
30
0
41
1
10
54.8271170599019
20
31.2842048490899
30
0
41
1
10
54.8640290504701
20
31.2736429127841
30
0
41
1
10
54.9300754141539
20
31.2600851108702
30
0
41
1
10
54.9593961827271
20
31.2559031992004
30
0
41
1
10
55.0058939605117
20
31.2527269664699
30
0
41
1
10
55.0233313439934
20
31.2523285728084
30
0
41
1
10
55.0577714925081
20
31.253417746844
30
0
41
1
10
55.0748459599791
20
31.2549073686219
30
0
41
1
10
55.1081648778983
20
31.2602187400105
30
0
41
1
10
55.1245176886789
20
31.2640605161403
30
0
41
1
10
55.1594958998273
20
31.2761035814723
30
0
41
1
10
55.1780460416237
20
31.2853269237952
30
0
41
1
10
55.193492310733
20
31.2977208502786
30
0
0
SPLINE
5
1C9
100
AcDbEntity
8
1
62
256
6
ByLayer
370
18
48
1
60
0
100
AcDbSpline
70
4
71
3
72
10
73
6
40
0
40
0
40
0
40
0
40
0.813901711154342
40
0.813901711154342
40
1
40
1
40
1
40
1
41
1
10
59.1905074842453
20
9.76748786708089
30
0
41
1
10
59.3022903478865
20
9.92206610544059
30
0
41
1
10
59.4406908689206
20
10.1047383500627
30
0
41
1
10
59.6286162736765
20
10.3355333574616
30
0
41
1
10
59.6648618716612
20
10.3794006420196
30
0
41
1
10
59.7018666706431
20
10.4235012441495
30
0
0
SPLINE
5
1CA
100
AcDbEntity
8
1
62
256
6
ByLayer
370
18
48
1
60
0
100
AcDbSpline
70
4
71
3
72
12
73
8
40
0
40
0
40
0
40
0
40
0.393623265950673
40
0.393623265950673
40
0.787226027104186
40
0.787226027104186
40
1
40
1
40
1
40
1
41
1
10
57.1673888646811
20
4.95931752342119
30
0
41
1
10
57.1830695443867
20
5.05041166794359
30
0
41
1
10
57.2001186625967
20
5.14255546450067
30
0
41
1
10
57.2337792183076
20
5.31375611450193
30
0
41
1
10
57.2508448356221
20
5.39520362647698
30
0
41
1
10
57.274680284157
20
5.50427397388796
30
0
41
1
10
57.2827083988312
20
5.54005573537586
30
0
41
1
10
57.2900408779982
20
5.57215307791637
30
0
0
SPLINE
5
1CB
100
AcDbEntity
8
1
62
256
6
ByLayer
370
18
48
1
60
0
100
AcDbSpline
70
4
71
3
72
8
73
4
40
0
40
0
40
0
40
0
40
1
40
1
40
1
40
1
41
1
10
62.1746830269161
20
24.3948346665659
30
0
41
1
10
62.1414837991018
20
24.3864747461288
30
0
41
1
10
62.1082604039416
20
24.378102473609
30
0
41
1
10
62.0750078350044
20
24.369715267747
30
0
0
LINE
5
70
100
AcDbEntity
8
4
62
256
6
ByLayer
370
13
48
0.05
60
0
100
AcDbLine
10
0
20
0
30
0
11
48
21
0
31
0
39
0
210
0
220
0
230
1
0
LINE
5
72
100
AcDbEntity
8
80
62
256
6
ByLayer
370
13
48
1
60
0
100
AcDbLine
10
0
20
0
30
0
11
-4.28511
21
0
31
0
39
0
210
0
220
0
230
1
0
LINE
5
73
100
AcDbEntity
8
SK4
62
256
6
ByLayer
370
13
48
0.05
60
0
100
AcDbLine
10
-32.5
20
0
30
0
11
67
21
0
31
0
39
0
210
0
220
0
230
1
0
LINE
5
75
100
AcDbEntity
8
81
62
256
6
ByLayer
370
13
48
1
60
0
100
AcDbLine
10
48
20
37.500184
30
0
11
50
21
37.500184
31
0
39
0
210
0
220
0
230
1
0
LINE
5
76
100
AcDbEntity
8
1
62
256
6
ByLayer
370
18
48
1
60
1
100
AcDbLine
10
0
20
0
30
0
11
0
21
420
31
0
39
0
210
0
220
0
230
1
0
LINE
5
78
100
AcDbEntity
8
1
62
256
6
ByLayer
370
18
48
1
60
1
100
AcDbLine
10
594
20
420
30
0
11
0
21
420
31
0
39
0
210
0
220
0
230
1
0
LINE
5
79
100
AcDbEntity
8
1
62
256
6
ByLayer
370
18
48
1
60
1
100
AcDbLine
10
594
20
420
30
0
11
594
21
0
31
0
39
0
210
0
220
0
230
1
0
LINE
5
7A
100
AcDbEntity
8
1
62
256
6
ByLayer
370
18
48
1
60
1
100
AcDbLine
10
0
20
0
30
0
11
594
21
0
31
0
39
0
210
0
220
0
230
1
0
LINE
5
7B
100
AcDbEntity
8
1
62
256
6
ByLayer
370
18
48
1
60
1
100
AcDbLine
10
0
20
0
30
0
11
0
21
420
31
0
39
0
210
0
220
0
230
1
0
LINE
5
7C
100
AcDbEntity
8
1
62
256
6
ByLayer
370
18
48
1
60
1
100
AcDbLine
10
594
20
420
30
0
11
0
21
420
31
0
39
0
210
0
220
0
230
1
0
LINE
5
7D
100
AcDbEntity
8
1
62
256
6
ByLayer
370
18
48
1
60
1
100
AcDbLine
10
594
20
420
30
0
11
594
21
0
31
0
39
0
210
0
220
0
230
1
0
LINE
5
7E
100
AcDbEntity
8
1
62
256
6
ByLayer
370
18
48
1
60
1
100
AcDbLine
10
0
20
0
30
0
11
594
21
0
31
0
39
0
210
0
220
0
230
1
0
LINE
5
7F
100
AcDbEntity
8
1
62
256
6
ByLayer
370
18
48
1
60
1
100
AcDbLine
10
0
20
0
30
0
11
0
21
420
31
0
39
0
210
0
220
0
230
1
0
LINE
5
80
100
AcDbEntity
8
1
62
256
6
ByLayer
370
18
48
1
60
1
100
AcDbLine
10
594
20
420
30
0
11
0
21
420
31
0
39
0
210
0
220
0
230
1
0
LINE
5
81
100
AcDbEntity
8
1
62
256
6
ByLayer
370
18
48
1
60
1
100
AcDbLine
10
594
20
420
30
0
11
594
21
0
31
0
39
0
210
0
220
0
230
1
0
LINE
5
82
100
AcDbEntity
8
1
62
256
6
ByLayer
370
18
48
1
60
1
100
AcDbLine
10
0
20
0
30
0
11
594
21
0
31
0
39
0
210
0
220
0
230
1
0
LINE
5
83
100
AcDbEntity
8
1
62
256
6
ByLayer
370
18
48
1
60
1
100
AcDbLine
10
0
20
0
30
0
11
0
21
420
31
0
39
0
210
0
220
0
230
1
0
LINE
5
84
100
AcDbEntity
8
1
62
256
6
ByLayer
370
18
48
1
60
1
100
AcDbLine
10
594
20
420
30
0
11
0
21
420
31
0
39
0
210
0
220
0
230
1
0
LINE
5
85
100
AcDbEntity
8
1
62
256
6
ByLayer
370
18
48
1
60
1
100
AcDbLine
10
594
20
420
30
0
11
594
21
0
31
0
39
0
210
0
220
0
230
1
0
LINE
5
86
100
AcDbEntity
8
1
62
256
6
ByLayer
370
18
48
1
60
1
100
AcDbLine
10
0
20
0
30
0
11
594
21
0
31
0
39
0
210
0
220
0
230
1
0
LINE
5
87
100
AcDbEntity
8
1
62
256
6
ByLayer
370
18
48
1
60
1
100
AcDbLine
10
0
20
0
30
0
11
0
21
420
31
0
39
0
210
0
220
0
230
1
0
LINE
5
88
100
AcDbEntity
8
1
62
256
6
ByLayer
370
18
48
1
60
1
100
AcDbLine
10
594
20
420
30
0
11
0
21
420
31
0
39
0
210
0
220
0
230
1
0
LINE
5
89
100
AcDbEntity
8
1
62
256
6
ByLayer
370
18
48
1
60
1
100
AcDbLine
10
594
20
420
30
0
11
594
21
0
31
0
39
0
210
0
220
0
230
1
0
LINE
5
8A
100
AcDbEntity
8
1
62
256
6
ByLayer
370
18
48
1
60
1
100
AcDbLine
10
0
20
0
30
0
11
594
21
0
31
0
39
0
210
0
220
0
230
1
0
LINE
5
8B
100
AcDbEntity
8
1
62
256
6
ByLayer
370
18
48
1
60
1
100
AcDbLine
10
0
20
0
30
0
11
0
21
420
31
0
39
0
210
0
220
0
230
1
0
LINE
5
8C
100
AcDbEntity
8
1
62
256
6
ByLayer
370
18
48
1
60
1
100
AcDbLine
10
594
20
420
30
0
11
0
21
420
31
0
39
0
210
0
220
0
230
1
0
LINE
5
8D
100
AcDbEntity
8
1
62
256
6
ByLayer
370
18
48
1
60
1
100
AcDbLine
10
594
20
420
30
0
11
594
21
0
31
0
39
0
210
0
220
0
230
1
0
LINE
5
8E
100
AcDbEntity
8
1
62
256
6
ByLayer
370
18
48
1
60
1
100
AcDbLine
10
0
20
0
30
0
11
594
21
0
31
0
39
0
210
0
220
0
230
1
0
LINE
5
8F
100
AcDbEntity
8
SK1
62
256
6
ByLayer
370
18
48
1
60
0
100
AcDbLine
10
-1.307107
20
-3.918065
30
0
11
-1.307107
21
3.918065
31
0
39
0
210
0
220
0
230
1
0
LINE
5
91
100
AcDbEntity
8
SK1
62
256
6
ByLayer
370
18
48
1
60
0
100
AcDbLine
10
-0.2
20
-17.833485
30
0
11
-0.2
21
-6.103448
31
0
39
0
210
0
220
0
230
1
0
LINE
5
92
100
AcDbEntity
8
SK1
62
256
6
ByLayer
370
18
48
1
60
0
100
AcDbLine
10
-0.2
20
6.103447
30
0
11
-0.2
21
17.833485
31
0
39
0
210
0
220
0
230
1
0
LINE
5
93
100
AcDbEntity
8
1
62
256
6
ByLayer
370
18
48
1
60
1
100
AcDbLine
10
0
20
0
30
0
11
0
21
420
31
0
39
0
210
0
220
0
230
1
0
LINE
5
94
100
AcDbEntity
8
1
62
256
6
ByLayer
370
18
48
1
60
1
100
AcDbLine
10
594
20
420
30
0
11
0
21
420
31
0
39
0
210
0
220
0
230
1
0
LINE
5
95
100
AcDbEntity
8
1
62
256
6
ByLayer
370
18
48
1
60
1
100
AcDbLine
10
594
20
420
30
0
11
594
21
0
31
0
39
0
210
0
220
0
230
1
0
LINE
5
96
100
AcDbEntity
8
1
62
256
6
ByLayer
370
18
48
1
60
1
100
AcDbLine
10
0
20
0
30
0
11
594
21
0
31
0
39
0
210
0
220
0
230
1
0
LINE
5
97
100
AcDbEntity
8
1
62
256
6
ByLayer
370
18
48
1
60
0
100
AcDbLine
10
0.3
20
-25
30
0
11
20
21
-25
31
0
39
0
210
0
220
0
230
1
0
LINE
5
98
100
AcDbEntity
8
1
62
256
6
ByLayer
370
18
48
1
60
0
100
AcDbLine
10
20
20
25
30
0
11
0.3
21
25
31
0
39
0
210
0
220
0
230
1
0
LINE
5
99
100
AcDbEntity
8
1
62
256
6
ByLayer
370
18
48
1
60
0
100
AcDbLine
10
21.443376
20
22.5
30
0
11
20
21
25
31
0
39
0
210
0
220
0
230
1
0
LINE
5
9A
100
AcDbEntity
8
1
62
256
6
ByLayer
370
18
48
1
60
0
100
AcDbLine
10
20
20
-25
30
0
11
21.443376
21
-22.5
31
0
39
0
210
0
220
0
230
1
0
LINE
5
9B
100
AcDbEntity
8
1
62
256
6
ByLayer
370
18
48
1
60
0
100
AcDbLine
10
0
20
-24.7
30
0
11
0.3
21
-25
31
0
39
0
210
0
220
0
230
1
0
LINE
5
9C
100
AcDbEntity
8
1
62
256
6
ByLayer
370
18
48
1
60
0
100
AcDbLine
10
0.3
20
25
30
0
11
0
21
24.7
31
0
39
0
210
0
220
0
230
1
0
LINE
5
9D
100
AcDbEntity
8
1
62
256
6
ByLayer
370
18
48
1
60
0
100
AcDbLine
10
28.767949
20
-22.5
30
0
11
29.267949
21
-23
31
0
39
0
210
0
220
0
230
1
0
LINE
5
9E
100
AcDbEntity
8
1
62
256
6
ByLayer
370
18
48
1
60
0
100
AcDbLine
10
33.246885
20
-2.067048
30
0
11
33.285047
21
-2.067048
31
0
39
0
210
0
220
0
230
1
0
LINE
5
9F
100
AcDbEntity
8
1
62
256
6
ByLayer
370
18
48
1
60
0
100
AcDbLine
10
29.267949
20
23
30
0
11
28.767949
21
22.5
31
0
39
0
210
0
220
0
230
1
0
LINE
5
A0
100
AcDbEntity
8
1
62
256
6
ByLayer
370
18
48
1
60
0
100
AcDbLine
10
28.767949
20
22.5
30
0
11
21.443376
21
22.5
31
0
39
0
210
0
220
0
230
1
0
LINE
5
A1
100
AcDbEntity
8
1
62
256
6
ByLayer
370
18
48
1
60
0
100
AcDbLine
10
21.443376
20
-22.5
30
0
11
28.767949
21
-22.5
31
0
39
0
210
0
220
0
230
1
0
LINE
5
A2
100
AcDbEntity
8
1
62
256
6
ByLayer
370
18
48
1
60
0
100
AcDbLine
10
35.400238
20
-1.900254
30
0
11
35.438399
21
-1.900254
31
0
39
0
210
0
220
0
230
1
0
LINE
5
A3
100
AcDbEntity
8
1
62
256
6
ByLayer
370
18
48
1
60
0
100
AcDbLine
10
63.11256
20
12.75
30
0
11
61.653963
21
12.75
31
0
39
0
210
0
220
0
230
1
0
LINE
5
A4
100
AcDbEntity
8
1
62
256
6
ByLayer
370
18
48
1
60
0
100
AcDbLine
10
62.81256
20
0.25
30
0
11
56.318524
21
0.25
31
0
39
0
210
0
220
0
230
1
0
LINE
5
A5
100
AcDbEntity
8
1
62
256
6
ByLayer
370
18
48
1
60
0
100
AcDbLine
10
56.318524
20
-12.75
30
0
11
62.81256
21
-12.75
31
0
39
0
210
0
220
0
230
1
0
LINE
5
A6
100
AcDbEntity
8
1
62
256
6
ByLayer
370
18
48
1
60
0
100
AcDbLine
10
46.979712
20
-22.368581
30
0
11
46.970532
21
-22.368581
31
0
39
0
210
0
220
0
230
1
0
LINE
5
A7
100
AcDbEntity
8
1
62
256
6
ByLayer
370
18
48
1
60
0
100
AcDbLine
10
45.726769
20
-15.054953
30
0
11
45.7516
21
-15.054953
31
0
39
0
210
0
220
0
230
1
0
LINE
5
A8
100
AcDbEntity
8
1
62
256
6
ByLayer
370
18
48
1
60
0
100
AcDbLine
10
45.910749
20
7.964991
30
0
11
45.909424
21
8.116854
31
0
39
0
210
0
220
0
230
1
0
LINE
5
A9
100
AcDbEntity
8
1
62
256
6
ByLayer
370
18
48
1
60
0
100
AcDbLine
10
45.605234
20
5.777289
30
0
11
45.910749
21
7.964991
31
0
39
0
210
0
220
0
230
1
0
LINE
5
AA
100
AcDbEntity
8
1
62
256
6
ByLayer
370
18
48
1
60
0
100
AcDbLine
10
47.328487
20
-23
30
0
11
47.323753
21
-23
31
0
39
0
210
0
220
0
230
1
0
LINE
5
AB
100
AcDbEntity
8
1
62
256
6
ByLayer
370
18
48
1
60
0
100
AcDbLine
10
11.461325
20
23.83913
30
0
11
8.538675
21
23.83913
31
0
39
0
210
0
220
0
230
1
0
LINE
5
AC
100
AcDbEntity
8
1
62
256
6
ByLayer
370
18
48
1
60
0
100
AcDbLine
10
8.538675
20
7.529667
30
0
11
11.461325
21
7.529667
31
0
39
0
210
0
220
0
230
1
0
LINE
5
AD
100
AcDbEntity
8
1
62
256
6
ByLayer
370
18
48
1
60
0
100
AcDbLine
10
0
20
-24.7
30
0
11
0
21
24.7
31
0
39
0
210
0
220
0
230
1
0
LINE
5
AE
100
AcDbEntity
8
1
62
256
6
ByLayer
370
18
48
1
60
0
100
AcDbLine
10
39
20
23
30
0
11
29.764861
21
23
31
0
39
0
210
0
220
0
230
1
0
LINE
5
AF
100
AcDbEntity
8
1
62
256
6
ByLayer
370
18
48
1
60
0
100
AcDbLine
10
34.474099
20
-1.862392
30
0
11
34.435938
21
-1.862392
31
0
39
0
210
0
220
0
230
1
0
LINE
5
B0
100
AcDbEntity
8
1
62
256
6
ByLayer
370
18
48
1
60
0
100
AcDbLine
10
31
20
-23
30
0
11
31
21
-6.561705
31
0
39
0
210
0
220
0
230
1
0
LINE
5
B1
100
AcDbEntity
8
1
62
256
6
ByLayer
370
18
48
1
60
0
100
AcDbLine
10
8.105662
20
23.666502
30
0
11
8.105662
21
8.055848
31
0
39
0
210
0
220
0
230
1
0
LINE
5
B2
100
AcDbEntity
8
1
62
256
6
ByLayer
370
18
48
1
60
0
100
AcDbLine
10
8.538675
20
23.83913
30
0
11
8.538675
21
7.529667
31
0
39
0
210
0
220
0
230
1
0
LINE
5
B3
100
AcDbEntity
8
1
62
256
6
ByLayer
370
18
48
1
60
0
100
AcDbLine
10
11.461325
20
23.83913
30
0
11
11.461325
21
7.529667
31
0
39
0
210
0
220
0
230
1
0
LINE
5
B4
100
AcDbEntity
8
1
62
256
6
ByLayer
370
18
48
1
60
0
100
AcDbLine
10
11.894338
20
23.666502
30
0
11
11.894338
21
8.055848
31
0
39
0
210
0
220
0
230
1
0
LINE
5
B5
100
AcDbEntity
8
1
62
256
6
ByLayer
370
18
48
1
60
0
100
AcDbLine
10
8.105662
20
-8.055848
30
0
11
8.105662
21
-23.666502
31
0
39
0
210
0
220
0
230
1
0
LINE
5
B6
100
AcDbEntity
8
1
62
256
6
ByLayer
370
18
48
1
60
0
100
AcDbLine
10
8.538675
20
-7.529667
30
0
11
8.538675
21
-23.83913
31
0
39
0
210
0
220
0
230
1
0
LINE
5
B7
100
AcDbEntity
8
1
62
256
6
ByLayer
370
18
48
1
60
0
100
AcDbLine
10
11.461325
20
-7.529667
30
0
11
11.461325
21
-23.83913
31
0
39
0
210
0
220
0
230
1
0
LINE
5
B8
100
AcDbEntity
8
1
62
256
6
ByLayer
370
18
48
1
60
0
100
AcDbLine
10
11.894338
20
-8.055848
30
0
11
11.894338
21
-23.666502
31
0
39
0
210
0
220
0
230
1
0
LINE
5
B9
100
AcDbEntity
8
1
62
256
6
ByLayer
370
18
48
1
60
0
100
AcDbLine
10
32.441285
20
-0.12384
30
0
11
32.403123
21
-0.12384
31
0
39
0
210
0
220
0
230
1
0
LINE
5
BA
100
AcDbEntity
8
1
62
256
6
ByLayer
370
18
48
1
60
0
100
AcDbLine
10
32.465141
20
-1.480709
30
0
11
32.426979
21
-1.480709
31
0
39
0
210
0
220
0
230
1
0
LINE
5
BB
100
AcDbEntity
8
1
62
256
6
ByLayer
370
18
48
1
60
0
100
AcDbLine
10
32
20
8.100255
30
0
11
32
21
8.401305
31
0
39
0
210
0
220
0
230
1
0
LINE
5
BC
100
AcDbEntity
8
1
62
256
6
ByLayer
370
18
48
1
60
0
100
AcDbLine
10
32
20
-23
30
0
11
32
21
-8.100255
31
0
39
0
210
0
220
0
230
1
0
LINE
5
BD
100
AcDbEntity
8
1
62
256
6
ByLayer
370
18
48
1
60
0
100
AcDbLine
10
31
20
6.561705
30
0
11
31
21
9.466653
31
0
39
0
210
0
220
0
230
1
0
LINE
5
BE
100
AcDbEntity
8
1
62
256
6
ByLayer
370
18
48
1
60
0
100
AcDbLine
10
28.767949
20
22.5
30
0
11
28.767949
21
21.737793
31
0
39
0
210
0
220
0
230
1
0
LINE
5
BF
100
AcDbEntity
8
1
62
256
6
ByLayer
370
18
48
1
60
0
100
AcDbLine
10
28.767949
20
-22.5
30
0
11
28.767949
21
13.666816
31
0
39
0
210
0
220
0
230
1
0
LINE
5
C0
100
AcDbEntity
8
1
62
256
6
ByLayer
370
18
48
1
60
0
100
AcDbLine
10
20
20
-25
30
0
11
20
21
25
31
0
39
0
210
0
220
0
230
1
0
LINE
5
C1
100
AcDbEntity
8
1
62
256
6
ByLayer
370
18
48
1
60
0
100
AcDbLine
10
32.59949
20
-1.785646
30
0
11
32.561329
21
-1.785646
31
0
39
0
210
0
220
0
230
1
0
LINE
5
C2
100
AcDbEntity
8
1
62
256
6
ByLayer
370
18
48
1
60
0
100
AcDbLine
10
22.798037
20
21.737793
30
0
11
28.767949
21
21.737793
31
0
39
0
210
0
220
0
230
1
0
LINE
5
C3
100
AcDbEntity
8
1
62
256
6
ByLayer
370
18
48
1
60
0
100
AcDbLine
10
21.443376
20
-22.5
30
0
11
21.443376
21
22.5
31
0
39
0
210
0
220
0
230
1
0
LINE
5
C4
100
AcDbEntity
8
1
62
256
6
ByLayer
370
18
48
1
60
0
100
AcDbLine
10
8.538675
20
-23.83913
30
0
11
11.461325
21
-23.83913
31
0
39
0
210
0
220
0
230
1
0
LINE
5
C5
100
AcDbEntity
8
1
62
256
6
ByLayer
370
18
48
1
60
0
100
AcDbLine
10
34.707641
20
-0.12384
30
0
11
34.669479
21
-0.12384
31
0
39
0
210
0
220
0
230
1
0
LINE
5
C6
100
AcDbEntity
8
1
62
256
6
ByLayer
370
18
48
1
60
0
100
AcDbLine
10
39
20
23
30
0
11
39.8001
21
23
31
0
39
0
210
0
220
0
230
1
0
LINE
5
C7
100
AcDbEntity
8
1
62
256
6
ByLayer
370
18
48
1
60
0
100
AcDbLine
10
39
20
22
30
0
11
39
21
23
31
0
39
0
210
0
220
0
230
1
0
LINE
5
C8
100
AcDbEntity
8
1
62
256
6
ByLayer
370
18
48
1
60
0
100
AcDbLine
10
39
20
22
30
0
11
29.021374
21
22
31
0
39
0
210
0
220
0
230
1
0
LINE
5
C9
100
AcDbEntity
8
1
62
256
6
ByLayer
370
18
48
1
60
0
100
AcDbLine
10
47.328488
20
-23
30
0
11
47.170554
21
-23
31
0
39
0
210
0
220
0
230
1
0
LINE
5
CA
100
AcDbEntity
8
1
62
256
6
ByLayer
370
18
48
1
60
0
100
AcDbLine
10
32
20
-23
30
0
11
47.170554
21
-23
31
0
39
0
210
0
220
0
230
1
0
LINE
5
CB
100
AcDbEntity
8
1
62
256
6
ByLayer
370
18
48
1
60
0
100
AcDbLine
10
46.25687
20
10.307361
30
0
11
46.25242
21
10.277249
31
0
39
0
210
0
220
0
230
1
0
LINE
5
CC
100
AcDbEntity
8
1
62
256
6
ByLayer
370
18
48
1
60
0
100
AcDbLine
10
45.91075
20
7.964993
30
0
11
45.605234
21
5.897419
31
0
39
0
210
0
220
0
230
1
0
LINE
5
CD
100
AcDbEntity
8
1
62
256
6
ByLayer
370
18
48
1
60
0
100
AcDbLine
10
46.25687
20
10.307361
30
0
11
46.427429
21
10.277287
31
0
39
0
210
0
220
0
230
1
0
LINE
5
CE
100
AcDbEntity
8
1
62
256
6
ByLayer
370
18
48
1
60
0
100
AcDbLine
10
32.265733
20
8.249533
30
0
11
45.605234
21
5.897419
31
0
39
0
210
0
220
0
230
1
0
LINE
5
CF
100
AcDbEntity
8
1
62
256
6
ByLayer
370
18
48
1
60
0
100
AcDbLine
10
31
20
12.997559
30
0
11
46.25687
21
10.307361
31
0
39
0
210
0
220
0
230
1
0
LINE
5
D0
100
AcDbEntity
8
1
62
256
6
ByLayer
370
18
48
1
60
0
100
AcDbLine
10
11.461325
20
-7.529667
30
0
11
8.538675
21
-7.529667
31
0
39
0
210
0
220
0
230
1
0
LINE
5
D1
100
AcDbEntity
8
1
62
256
6
ByLayer
370
18
48
1
60
0
100
AcDbLine
10
39
20
22
30
0
11
39
21
11.586943
31
0
39
0
210
0
220
0
230
1
0
LINE
5
D2
100
AcDbEntity
8
1
62
256
6
ByLayer
370
18
48
1
60
0
100
AcDbLine
10
45.605234
20
5.897419
30
0
11
45.605234
21
-13.554204
31
0
39
0
210
0
220
0
230
1
0
LINE
5
D3
100
AcDbEntity
8
1
62
256
6
ByLayer
370
18
48
1
60
0
100
AcDbLine
10
0.3
20
-25
30
0
11
0.3
21
25
31
0
39
0
210
0
220
0
230
1
0
LINE
5
D4
100
AcDbEntity
8
1
62
256
6
ByLayer
370
18
48
1
60
0
100
AcDbLine
10
63.642281
20
3.8307
30
0
11
64.17404
21
3.8307
31
0
39
0
210
0
220
0
230
1
0
LINE
5
D5
100
AcDbEntity
8
1
62
256
6
ByLayer
370
18
48
1
60
0
100
AcDbLine
10
63.556179
20
7.24304
30
0
11
64.260114
21
7.24304
31
0
39
0
210
0
220
0
230
1
0
LINE
5
D6
100
AcDbEntity
8
1
62
256
6
ByLayer
370
18
48
1
60
0
100
AcDbLine
10
55.675913
20
10.277289
30
0
11
56.148882
21
5.777289
31
0
39
0
210
0
220
0
230
1
0
LINE
5
D7
100
AcDbEntity
8
1
62
256
6
ByLayer
370
18
48
1
60
0
100
AcDbLine
10
45.605294
20
-12.790476
30
0
11
56.148882
21
-12.790476
31
0
39
0
210
0
220
0
230
1
0
LINE
5
D8
100
AcDbEntity
8
1
62
256
6
ByLayer
370
18
48
1
60
0
100
AcDbLine
10
56.7
20
-15.722711
30
0
11
55.997053
21
-15.722711
31
0
39
0
210
0
220
0
230
1
0
LINE
5
D9
100
AcDbEntity
8
1
62
256
6
ByLayer
370
18
48
1
60
0
100
AcDbLine
10
46.342095
20
-23.222711
30
0
11
47.608175
21
-23.222711
31
0
39
0
210
0
220
0
230
1
0
LINE
5
DA
100
AcDbEntity
8
1
62
256
6
ByLayer
370
18
48
1
60
0
100
AcDbLine
10
46.214976
20
10.277289
30
0
11
45.909416
21
8.116797
31
0
39
0
210
0
220
0
230
1
0
LINE
5
DB
100
AcDbEntity
8
1
62
256
6
ByLayer
370
18
48
1
60
0
100
AcDbLine
10
56.7
20
-23.222711
30
0
11
56.7
21
-15.722711
31
0
39
0
210
0
220
0
230
1
0
LINE
5
DC
100
AcDbEntity
8
1
62
256
6
ByLayer
370
18
48
1
60
0
100
AcDbLine
10
56.7
20
7.63546
30
0
11
56.7
21
0.249925
31
0
39
0
210
0
220
0
230
1
0
LINE
5
DD
100
AcDbEntity
8
1
62
256
6
ByLayer
370
18
48
1
60
0
100
AcDbLine
10
56.7
20
-23.222711
30
0
11
47.608175
21
-23.222711
31
0
39
0
210
0
220
0
230
1
0
LINE
5
DE
100
AcDbEntity
8
1
62
256
6
ByLayer
370
18
48
1
60
0
100
AcDbLine
10
56.7
20
-12.750003
30
0
11
56.7
21
-15.722711
31
0
39
0
210
0
220
0
230
1
0
LINE
5
DF
100
AcDbEntity
8
1
62
256
6
ByLayer
370
18
48
1
60
0
100
AcDbLine
10
55.946565
20
7.701907
30
0
11
56.7
21
7.63546
31
0
39
0
210
0
220
0
230
1
0
LINE
5
E0
100
AcDbEntity
8
1
62
256
6
ByLayer
370
18
48
1
60
0
100
AcDbLine
10
46.139816
20
-23.222711
30
0
11
46.139816
21
-22.999698
31
0
39
0
210
0
220
0
230
1
0
LINE
5
E1
100
AcDbEntity
8
1
62
256
6
ByLayer
370
18
48
1
60
0
100
AcDbLine
10
56.148882
20
5.777289
30
0
11
56.148882
21
-12.790476
31
0
39
0
210
0
220
0
230
1
0
LINE
5
E2
100
AcDbEntity
8
1
62
256
6
ByLayer
370
18
48
1
60
0
100
AcDbLine
10
39.5
20
-23.222711
30
0
11
39.5
21
-22.999698
31
0
39
0
210
0
220
0
230
1
0
LINE
5
E3
100
AcDbEntity
8
1
62
256
6
ByLayer
370
18
48
1
60
0
100
AcDbLine
10
46.139816
20
-23.222711
30
0
11
46.342095
21
-23.222711
31
0
39
0
210
0
220
0
230
1
0
LINE
5
E4
100
AcDbEntity
8
1
62
256
6
ByLayer
370
18
48
1
60
0
100
AcDbLine
10
46.214976
20
10.277289
30
0
11
55.675913
21
10.277289
31
0
39
0
210
0
220
0
230
1
0
LINE
5
E5
100
AcDbEntity
8
1
62
256
6
ByLayer
370
18
48
1
60
0
100
AcDbLine
10
39.5
20
-23.222711
30
0
11
46.139816
21
-23.222711
31
0
39
0
210
0
220
0
230
1
0
LINE
5
E6
100
AcDbEntity
8
1
62
256
6
ByLayer
370
18
48
1
60
0
100
AcDbLine
10
46.342095
20
-23.222711
30
0
11
46.342095
21
-22.999957
31
0
39
0
210
0
220
0
230
1
0
LINE
5
E7
100
AcDbEntity
8
1
62
256
6
ByLayer
370
18
48
1
60
0
100
AcDbLine
10
45.605294
20
5.777289
30
0
11
56.148882
21
5.777289
31
0
39
0
210
0
220
0
230
1
0
LINE
5
E8
100
AcDbEntity
8
1
62
256
6
ByLayer
370
18
48
1
60
0
100
AcDbLine
10
34.509312
20
-20.329194
30
0
11
34.541088
21
-20.277235
31
0
39
0
210
0
220
0
230
1
0
LINE
5
E9
100
AcDbEntity
8
1
62
256
6
ByLayer
370
18
48
1
60
0
100
AcDbLine
10
34.548587
20
-20.448992
30
0
11
34.512404
21
-20.4
31
0
39
0
210
0
220
0
230
1
0
LINE
5
EA
100
AcDbEntity
8
1
62
256
6
ByLayer
370
18
48
1
60
0
100
AcDbLine
10
34.397336
20
-20.338991
30
0
11
34.509312
21
-20.329194
31
0
39
0
210
0
220
0
230
1
0
LINE
5
EB
100
AcDbEntity
8
1
62
256
6
ByLayer
370
18
48
1
60
0
100
AcDbLine
10
34.4
20
-20.4
30
0
11
34.512404
21
-20.4
31
0
39
0
210
0
220
0
230
1
0
LINE
5
EC
100
AcDbEntity
8
1
62
256
6
ByLayer
370
18
48
1
60
0
100
AcDbLine
10
34.397336
20
20.338991
30
0
11
34.509312
21
20.329194
31
0
39
0
210
0
220
0
230
1
0
LINE
5
ED
100
AcDbEntity
8
1
62
256
6
ByLayer
370
18
48
1
60
0
100
AcDbLine
10
34.541088
20
20.277235
30
0
11
34.509312
21
20.329194
31
0
39
0
210
0
220
0
230
1
0
LINE
5
EE
100
AcDbEntity
8
1
62
256
6
ByLayer
370
18
48
1
60
0
100
AcDbLine
10
34.512404
20
20.4
30
0
11
34.548587
21
20.448992
31
0
39
0
210
0
220
0
230
1
0
LINE
5
EF
100
AcDbEntity
8
1
62
256
6
ByLayer
370
18
48
1
60
0
100
AcDbLine
10
34.4
20
20.4
30
0
11
34.512404
21
20.4
31
0
39
0
210
0
220
0
230
1
0
LINE
5
F0
100
AcDbEntity
8
1
62
256
6
ByLayer
370
18
48
1
60
0
100
AcDbLine
10
57
20
2.030213
30
0
11
56.699806
21
2.030213
31
0
39
0
210
0
220
0
230
1
0
LINE
5
F1
100
AcDbEntity
8
1
62
256
6
ByLayer
370
18
48
1
60
0
100
AcDbLine
10
39.8
20
23.500184
30
0
11
43.750073
21
23.500184
31
0
39
0
210
0
220
0
230
1
0
LINE
5
F2
100
AcDbEntity
8
1
62
256
6
ByLayer
370
18
48
1
60
0
100
AcDbLine
10
57
20
2.030213
30
0
11
57
21
2.559364
31
0
39
0
210
0
220
0
230
1
0
LINE
5
F3
100
AcDbEntity
8
1
62
256
6
ByLayer
370
18
48
1
60
0
100
AcDbLine
10
64.518714
20
33.775038
30
0
11
65.3
21
33.637276
31
0
39
0
210
0
220
0
230
1
0
LINE
5
F4
100
AcDbEntity
8
1
62
256
6
ByLayer
370
18
48
1
60
0
100
AcDbLine
10
57.167389
20
4.959318
30
0
11
56.699826
21
4.959318
31
0
39
0
210
0
220
0
230
1
0
LINE
5
F5
100
AcDbEntity
8
1
62
256
6
ByLayer
370
18
48
1
60
0
100
AcDbLine
10
60.761135
20
26.04506
30
0
11
60.700002
21
26.05584
31
0
39
0
210
0
220
0
230
1
0
LINE
5
F6
100
AcDbEntity
8
1
62
256
6
ByLayer
370
18
48
1
60
0
100
AcDbLine
10
59.701867
20
10.423501
30
0
11
59.731587
21
10.45892
31
0
39
0
210
0
220
0
230
1
0
LINE
5
F7
100
AcDbEntity
8
1
62
256
6
ByLayer
370
18
48
1
60
0
100
AcDbLine
10
65.3
20
17.095097
30
0
11
59.731587
21
10.45892
31
0
39
0
210
0
220
0
230
1
0
LINE
5
F8
100
AcDbEntity
8
1
62
256
6
ByLayer
370
18
48
1
60
0
100
AcDbLine
10
57
20
2.559364
30
0
11
56.699806
21
2.559364
31
0
39
0
210
0
220
0
230
1
0
LINE
5
F9
100
AcDbEntity
8
1
62
256
6
ByLayer
370
18
48
1
60
0
100
AcDbLine
10
59.190507
20
9.767488
30
0
11
55.729302
21
9.767488
31
0
39
0
210
0
220
0
230
1
0
LINE
5
FA
100
AcDbEntity
8
1
62
256
6
ByLayer
370
18
48
1
60
0
100
AcDbLine
10
56.699752
20
5.572153
30
0
11
57.290041
21
5.572153
31
0
39
0
210
0
220
0
230
1
0
LINE
5
FB
100
AcDbEntity
8
1
62
256
6
ByLayer
370
18
48
1
60
0
100
AcDbLine
10
59.586849
20
16.537981
30
0
11
39.8
21
20.026936
31
0
39
0
210
0
220
0
230
1
0
LINE
5
FC
100
AcDbEntity
8
1
62
256
6
ByLayer
370
18
48
1
60
0
100
AcDbLine
10
39.8
20
11.445896
30
0
11
39.8
21
20.026936
31
0
39
0
210
0
220
0
230
1
0
LINE
5
FD
100
AcDbEntity
8
1
62
256
6
ByLayer
370
18
48
1
60
0
100
AcDbLine
10
64.518714
20
33.775038
30
0
11
64.518714
21
19.838112
31
0
39
0
210
0
220
0
230
1
0
LINE
5
FE
100
AcDbEntity
8
1
62
256
6
ByLayer
370
18
48
1
60
0
100
AcDbLine
10
64.2062
20
19.189708
30
0
11
59.586849
21
16.537981
31
0
39
0
210
0
220
0
230
1
0
LINE
5
FF
100
AcDbEntity
8
1
62
256
6
ByLayer
370
18
48
1
60
0
100
AcDbLine
10
57
20
0.249914
30
0
11
57
21
2.030213
31
0
39
0
210
0
220
0
230
1
0
LINE
5
100
100
AcDbEntity
8
1
62
256
6
ByLayer
370
18
48
1
60
0
100
AcDbLine
10
59.586849
20
11.299577
30
0
11
59.586849
21
16.537981
31
0
39
0
210
0
220
0
230
1
0
LINE
5
101
100
AcDbEntity
8
1
62
256
6
ByLayer
370
18
48
1
60
0
100
AcDbLine
10
65.3
20
33.637276
30
0
11
65.3
21
17.095097
31
0
39
0
210
0
220
0
230
1
0
LINE
5
102
100
AcDbEntity
8
1
62
256
6
ByLayer
370
18
48
1
60
0
100
AcDbLine
10
64.518714
20
33.775038
30
0
11
60.700005
21
34.448379
31
0
39
0
210
0
220
0
230
1
0
LINE
5
103
100
AcDbEntity
8
1
62
256
6
ByLayer
370
18
48
1
60
0
100
AcDbLine
10
57
20
2.559364
30
0
11
57
21
3.000184
31
0
39
0
210
0
220
0
230
1
0
LINE
5
104
100
AcDbEntity
8
1
62
256
6
ByLayer
370
18
48
1
60
0
100
AcDbLine
10
60.74377
20
25.94658
30
0
11
60.699994
21
25.954298
31
0
39
0
210
0
220
0
230
1
0
LINE
5
105
100
AcDbEntity
8
1
62
256
6
ByLayer
370
18
48
1
60
0
100
AcDbLine
10
60.761135
20
26.04506
30
0
11
60.74377
21
25.94658
31
0
39
0
210
0
220
0
230
1
0
LINE
5
106
100
AcDbEntity
8
1
62
256
6
ByLayer
370
18
48
1
60
0
100
AcDbLine
10
64.2062
20
19.189708
30
0
11
39.8
21
23.49318
31
0
39
0
210
0
220
0
230
1
0
LINE
5
107
100
AcDbEntity
8
1
62
256
6
ByLayer
370
18
48
1
60
0
100
AcDbLine
10
48.95
20
24.588956
30
0
11
48.95
21
23.500184
31
0
39
0
210
0
220
0
230
1
0
LINE
5
108
100
AcDbEntity
8
1
62
256
6
ByLayer
370
18
48
1
60
0
100
AcDbLine
10
43.750073
20
23.500184
30
0
11
64.518714
21
19.838112
31
0
39
0
210
0
220
0
230
1
0
LINE
5
109
100
AcDbEntity
8
1
62
256
6
ByLayer
370
18
48
1
60
0
100
AcDbLine
10
48.95
20
23.500184
30
0
11
43.750073
21
23.500184
31
0
39
0
210
0
220
0
230
1
0
LINE
5
10A
100
AcDbEntity
8
1
62
256
6
ByLayer
370
18
48
1
60
0
100
AcDbLine
10
39.8
20
20.026936
30
0
11
39.8
21
23.49318
31
0
39
0
210
0
220
0
230
1
0
LINE
5
10B
100
AcDbEntity
8
1
62
256
6
ByLayer
370
18
48
1
60
0
100
AcDbLine
10
39.8
20
23.500184
30
0
11
39.8
21
23.49318
31
0
39
0
210
0
220
0
230
1
0
LINE
5
10C
100
AcDbEntity
8
1
62
256
6
ByLayer
370
18
48
1
60
0
100
AcDbLine
10
40.629811
20
11.299577
30
0
11
59.586849
21
11.299577
31
0
39
0
210
0
220
0
230
1
0
LINE
5
10D
100
AcDbEntity
8
1
62
256
6
ByLayer
370
13
48
1
60
0
100
AcDbLine
10
48.655917
20
24.640814
30
0
11
59.768417
21
22.681381
31
0
39
0
210
0
220
0
230
1
0
LINE
5
10E
100
AcDbEntity
8
1
62
256
6
ByLayer
370
13
48
1
60
0
100
AcDbLine
10
48
20
36.706434
30
0
11
48
21
25.422505
31
0
39
0
210
0
220
0
230
1
0
LINE
5
10F
100
AcDbEntity
8
1
62
256
6
ByLayer
370
13
48
1
60
0
100
AcDbLine
10
60.044083
20
35.528691
30
0
11
48.931583
21
37.488125
31
0
39
0
210
0
220
0
230
1
0
LINE
5
110
100
AcDbEntity
8
1
62
256
6
ByLayer
370
13
48
1
60
0
100
AcDbLine
10
60.7
20
23.463072
30
0
11
60.7
21
34.747
31
0
39
0
210
0
220
0
230
1
0
MTEXT
5
1CC
100
AcDbEntity
8
SK6
62
256
6
ByLayer
370
18
48
1
60
0
100
AcDbMText
10
66.510674
20
40.05687
30
0
210
0
220
0
230
1
1
\W0.6805;BR10-91CC12F-C5
40
3
41
0
44
1.084337
50
0
71
7
72
5
7
iso_b_vert
0
DIMENSION
5
1DA
100
AcDbEntity
8
2
62
256
6
ByLayer
370
13
48
1
60
0
100
AcDbDimension
2
DimnDraft3D1
10
48
20
54.40542
30
0
11
20.4
21
54.40542
31
0
70
32
71
5
72
1
41
1
210
0
220
0
230
1
3
Standard
100
AcDbAlignedDimension
13
0
23
26.7
33
0
14
48
24
39.500184
34
0
50
0
100
AcDbRotatedDimension
1001
ACAD
1000
DSTYLE
1002
{
1070
   279
1070
     0
1070
   172
1070
     1
1070
   173
1070
     1
1070
   340
1005
1CD
1070
   271
1070
     1
1070
    77
1070
     1
1070
    73
1070
     0
1070
   171
1070
     4
1070
   274
1070
     4
1070
   177
1070
     7
1070
   176
1070
     7
1070
   178
1070
     7
1070
    41
1041
3.175
1070
   147
1041
1.5
1070
    42
1041
2.0
1070
    44
1041
2.0
1070
   140
1041
3.0
1070
   343
1005
0
1070
   344
1005
0
1002
}
0
DIMENSION
5
1E2
100
AcDbEntity
8
2
62
256
6
ByLayer
370
13
48
1
60
0
100
AcDbDimension
2
DimnDraft3D2
10
79.288946
20
0
30
0
11
79.288946
21
-2.050434
31
0
70
32
71
5
72
1
41
1
210
0
220
0
230
1
3
Standard
100
AcDbAlignedDimension
13
-32.5
23
0
33
0
14
0
24
0
34
0
50
90
100
AcDbRotatedDimension
1001
ACAD
1000
DSTYLE
1002
{
1070
    74
1070
     0
1070
   279
1070
     0
1070
   172
1070
     1
1070
   173
1070
     1
1070
   340
1005
1CD
1070
    76
1070
     1
1070
   271
1070
     1
1070
    77
1070
     1
1070
    73
1070
     0
1070
   171
1070
     4
1070
   274
1070
     4
1070
   282
1070
     1
1070
   177
1070
     7
1070
   176
1070
     7
1070
   178
1070
     7
1070
    41
1041
3.175
1070
   147
1041
1.5
1070
    42
1041
2.0
1070
    44
1041
2.0
1070
   140
1041
3.0
1070
   343
1005
0
1070
   344
1005
0
1002
}
0
DIMENSION
5
1EC
100
AcDbEntity
8
2
62
256
6
ByLayer
370
13
48
1
60
0
100
AcDbDimension
2
DimnDraft3D3
10
49
20
37.500184
30
0
11
38.742638
21
46.757546
31
0
70
34
71
5
72
1
41
1
210
0
220
0
230
1
3
Standard
100
AcDb2LineAngularDimension
13
48
23
36.706434
33
0
14
48
24
25.422505
34
0
15
48
25
37.500184
35
0
16
40.863958
26
44.636226
36
0
40
0
0
DIMENSION
5
1F8
100
AcDbEntity
8
SK2
62
256
6
ByLayer
370
13
48
1
60
0
100
AcDbDimension
2
DimnDraft3D4
10
-44.037888
20
-25
30
0
11
-43.537888
21
0.414474
31
0
70
33
71
5
72
1
41
1
210
0
220
0
230
1
3
Standard
100
AcDbAlignedDimension
13
-1.7
23
25
33
0
14
-1.7
24
-25
34
0
1001
ACAD
1000
DSTYLE
1002
{
1070
   279
1070
     0
1070
    74
1070
     0
1070
   173
1070
     1
1070
   340
1005
1CD
1070
   271
1070
     0
1070
    77
1070
     1
1070
    73
1070
     0
1070
   171
1070
     4
1070
   274
1070
     4
1070
   177
1070
     7
1070
   176
1070
     7
1070
   178
1070
     7
1070
    41
1041
3.175
1070
   147
1041
1.5
1070
    42
1041
2.0
1070
    44
1041
2.0
1070
   140
1041
3.0
1070
   343
1005
0
1070
   344
1005
0
1002
}
0
ENDSEC
0
SECTION
2
OBJECTS
0
DICTIONARY
5
26d
330
0
100
AcDbDictionary
280
0
281
1
3
ACAD_GROUP
350
26e
3
ACAD_GROUP
350
26f
3
ACAD_MLINESTYLE
350
270
0
DICTIONARY
5
26e
330
0
100
AcDbDictionary
280
0
281
1
0
DICTIONARY
5
26f
330
0
100
AcDbDictionary
280
0
281
1
3
<200939244NDI000_00>
350
203
3
<200939244NDI000_00>4
350
204
3
<200939429NDI000_00>
350
205
3
<200939429NDI000_00>6
350
206
3
<200939429NDI000_00>7
350
207
3
<200940349NDI000_00>
350
208
3
<200996761NDI000_00>
350
209
3
<200997276MOD000_00>
350
201
3
391_68A_1_03213C06B_A1
350
202
0
DICTIONARY
5
270
330
0
100
AcDbDictionary
280
0
281
1
3
Standard
350
18
0
GROUP
5
203
330
26f
100
AcDbGroup
300

70
0
71
1
340
76
340
78
340
79
340
7A
0
GROUP
5
204
330
26f
100
AcDbGroup
300

70
0
71
1
340
7B
340
7C
340
7D
340
7E
0
GROUP
5
205
330
26f
100
AcDbGroup
300

70
0
71
1
340
7F
340
80
340
81
340
82
0
GROUP
5
206
330
26f
100
AcDbGroup
300

70
0
71
1
340
83
340
84
340
85
340
86
0
GROUP
5
207
330
26f
100
AcDbGroup
300

70
0
71
1
340
87
340
88
340
89
340
8A
0
GROUP
5
208
330
26f
100
AcDbGroup
300

70
0
71
1
340
8B
340
8C
340
8D
340
8E
340
8F
340
91
340
92
340
111
340
112
340
159
340
15A
340
15B
340
15C
340
15D
340
15E
340
15F
340
160
340
161
340
162
340
163
340
164
340
165
340
166
340
167
340
168
340
169
340
16A
340
16B
340
16C
340
16D
0
GROUP
5
209
330
26f
100
AcDbGroup
300

70
0
71
1
340
93
340
94
340
95
340
96
340
97
340
98
340
99
340
9A
340
9B
340
9C
340
9D
340
9E
340
9F
340
A0
340
A1
340
A2
340
A3
340
A4
340
A5
340
A6
340
A7
340
A8
340
A9
340
AA
340
AB
340
AC
340
AD
340
AE
340
AF
340
B0
340
B1
340
B2
340
B3
340
B4
340
B5
340
B6
340
B7
340
B8
340
B9
340
BA
340
BB
340
BC
340
BD
340
BE
340
BF
340
C0
340
C1
340
C2
340
C3
340
C4
340
C5
340
C6
340
C7
340
C8
340
C9
340
CA
340
CB
340
CC
340
CD
340
CE
340
CF
340
D0
340
D1
340
D2
340
D3
340
D4
340
D5
340
D6
340
D7
340
D8
340
D9
340
DA
340
DB
340
DC
340
DD
340
DE
340
DF
340
E0
340
E1
340
E2
340
E3
340
E4
340
E5
340
E6
340
E7
340
E8
340
E9
340
EA
340
EB
340
EC
340
ED
340
EE
340
EF
340
F0
340
F1
340
F2
340
F3
340
F4
340
F5
340
F6
340
F7
340
F8
340
F9
340
FA
340
FB
340
FC
340
FD
340
FE
340
FF
340
100
340
101
340
102
340
103
340
104
340
105
340
106
340
107
340
108
340
109
340
10A
340
10B
340
10C
340
10D
340
10E
340
10F
340
110
340
113
340
114
340
115
340
116
340
117
340
118
340
119
340
11A
340
11B
340
11C
340
11D
340
11E
340
11F
340
120
340
121
340
122
340
123
340
124
340
125
340
126
340
127
340
128
340
129
340
12A
340
12B
340
12C
340
12D
340
12E
340
12F
340
130
340
131
340
132
340
133
340
134
340
135
340
136
340
137
340
138
340
139
340
13A
340
13B
340
13C
340
13D
340
13E
340
13F
340
140
340
141
340
142
340
143
340
144
340
145
340
146
340
147
340
148
340
149
340
14A
340
14B
340
14C
340
14D
340
14E
340
14F
340
150
340
151
340
152
340
153
340
154
340
155
340
156
340
157
340
158
340
16E
340
16F
340
170
340
171
340
172
340
173
340
174
340
175
340
176
340
177
340
178
340
179
340
17A
340
17B
340
17C
340
17D
340
17E
340
17F
340
180
340
181
340
182
340
183
340
184
340
185
340
186
340
187
340
188
340
189
340
18A
340
18B
340
18C
340
18D
340
18E
340
18F
340
190
340
191
340
192
340
193
340
194
340
195
340
196
340
197
340
198
340
199
340
19A
340
19B
340
19C
340
19D
340
19E
340
19F
340
1A0
340
1A1
340
1A2
340
1A3
340
1A4
340
1A5
340
1A6
340
1A7
340
1A8
340
1A9
340
1AA
340
1AB
340
1AC
340
1AD
340
1AE
340
1AF
340
1B0
340
1B1
340
1B2
340
1B3
340
1B4
340
1B5
340
1B6
340
1B7
340
1B8
340
1B9
340
1BA
340
1BB
340
1BC
340
1BD
340
1BE
340
1BF
340
1C0
340
1C1
340
1C2
340
1C3
340
1C4
340
1C5
340
1C6
340
1C7
340
1C8
340
1C9
340
1CA
340
1CB
0
GROUP
5
201
330
26f
100
AcDbGroup
300

70
0
71
1
340
6C
340
6E
340
70
340
72
340
73
340
75
340
76
340
78
340
79
340
7A
340
7B
340
7C
340
7D
340
7E
340
7F
340
80
340
81
340
82
340
83
340
84
340
85
340
86
340
87
340
88
340
89
340
8A
340
8B
340
8C
340
8D
340
8E
340
8F
340
91
340
92
340
93
340
94
340
95
340
96
340
97
340
98
340
99
340
9A
340
9B
340
9C
340
9D
340
9E
340
9F
340
A0
340
A1
340
A2
340
A3
340
A4
340
A5
340
A6
340
A7
340
A8
340
A9
340
AA
340
AB
340
AC
340
AD
340
AE
340
AF
340
B0
340
B1
340
B2
340
B3
340
B4
340
B5
340
B6
340
B7
340
B8
340
B9
340
BA
340
BB
340
BC
340
BD
340
BE
340
BF
340
C0
340
C1
340
C2
340
C3
340
C4
340
C5
340
C6
340
C7
340
C8
340
C9
340
CA
340
CB
340
CC
340
CD
340
CE
340
CF
340
D0
340
D1
340
D2
340
D3
340
D4
340
D5
340
D6
340
D7
340
D8
340
D9
340
DA
340
DB
340
DC
340
DD
340
DE
340
DF
340
E0
340
E1
340
E2
340
E3
340
E4
340
E5
340
E6
340
E7
340
E8
340
E9
340
EA
340
EB
340
EC
340
ED
340
EE
340
EF
340
F0
340
F1
340
F2
340
F3
340
F4
340
F5
340
F6
340
F7
340
F8
340
F9
340
FA
340
FB
340
FC
340
FD
340
FE
340
FF
340
100
340
101
340
102
340
103
340
104
340
105
340
106
340
107
340
108
340
109
340
10A
340
10B
340
10C
340
10D
340
10E
340
10F
340
110
340
111
340
112
340
113
340
114
340
115
340
116
340
117
340
118
340
119
340
11A
340
11B
340
11C
340
11D
340
11E
340
11F
340
120
340
121
340
122
340
123
340
124
340
125
340
126
340
127
340
128
340
129
340
12A
340
12B
340
12C
340
12D
340
12E
340
12F
340
130
340
131
340
132
340
133
340
134
340
135
340
136
340
137
340
138
340
139
340
13A
340
13B
340
13C
340
13D
340
13E
340
13F
340
140
340
141
340
142
340
143
340
144
340
145
340
146
340
147
340
148
340
149
340
14A
340
14B
340
14C
340
14D
340
14E
340
14F
340
150
340
151
340
152
340
153
340
154
340
155
340
156
340
157
340
158
340
159
340
15A
340
15B
340
15C
340
15D
340
15E
340
15F
340
160
340
161
340
162
340
163
340
164
340
165
340
166
340
167
340
168
340
169
340
16A
340
16B
340
16C
340
16D
340
16E
340
16F
340
170
340
171
340
172
340
173
340
174
340
175
340
176
340
177
340
178
340
179
340
17A
340
17B
340
17C
340
17D
340
17E
340
17F
340
180
340
181
340
182
340
183
340
184
340
185
340
186
340
187
340
188
340
189
340
18A
340
18B
340
18C
340
18D
340
18E
340
18F
340
190
340
191
340
192
340
193
340
194
340
195
340
196
340
197
340
198
340
199
340
19A
340
19B
340
19C
340
19D
340
19E
340
19F
340
1A0
340
1A1
340
1A2
340
1A3
340
1A4
340
1A5
340
1A6
340
1A7
340
1A8
340
1A9
340
1AA
340
1AB
340
1AC
340
1AD
340
1AE
340
1AF
340
1B0
340
1B1
340
1B2
340
1B3
340
1B4
340
1B5
340
1B6
340
1B7
340
1B8
340
1B9
340
1BA
340
1BB
340
1BC
340
1BD
340
1BE
340
1BF
340
1C0
340
1C1
340
1C2
340
1C3
340
1C4
340
1C5
340
1C6
340
1C7
340
1C8
340
1C9
340
1CA
340
1CB
340
6E
340
75
340
1CC
340
1E2
340
1EC
340
76
340
78
340
79
340
7A
340
7B
340
7C
340
7D
340
7E
340
7F
340
80
340
81
340
82
340
83
340
84
340
85
340
86
340
87
340
88
340
89
340
8A
340
8B
340
8C
340
8D
340
8E
340
8F
340
91
340
92
340
111
340
112
340
159
340
15A
340
15B
340
15C
340
15D
340
15E
340
15F
340
160
340
161
340
162
340
163
340
164
340
165
340
166
340
167
340
168
340
169
340
16A
340
16B
340
16C
340
16D
340
93
340
94
340
95
340
96
340
97
340
98
340
99
340
9A
340
9B
340
9C
340
9D
340
9E
340
9F
340
A0
340
A1
340
A2
340
A3
340
A4
340
A5
340
A6
340
A7
340
A8
340
A9
340
AA
340
AB
340
AC
340
AD
340
AE
340
AF
340
B0
340
B1
340
B2
340
B3
340
B4
340
B5
340
B6
340
B7
340
B8
340
B9
340
BA
340
BB
340
BC
340
BD
340
BE
340
BF
340
C0
340
C1
340
C2
340
C3
340
C4
340
C5
340
C6
340
C7
340
C8
340
C9
340
CA
340
CB
340
CC
340
CD
340
CE
340
CF
340
D0
340
D1
340
D2
340
D3
340
D4
340
D5
340
D6
340
D7
340
D8
340
D9
340
DA
340
DB
340
DC
340
DD
340
DE
340
DF
340
E0
340
E1
340
E2
340
E3
340
E4
340
E5
340
E6
340
E7
340
E8
340
E9
340
EA
340
EB
340
EC
340
ED
340
EE
340
EF
340
F0
340
F1
340
F2
340
F3
340
F4
340
F5
340
F6
340
F7
340
F8
340
F9
340
FA
340
FB
340
FC
340
FD
340
FE
340
FF
340
100
340
101
340
102
340
103
340
104
340
105
340
106
340
107
340
108
340
109
340
10A
340
10B
340
10C
340
10D
340
10E
340
10F
340
110
340
113
340
114
340
115
340
116
340
117
340
118
340
119
340
11A
340
11B
340
11C
340
11D
340
11E
340
11F
340
120
340
121
340
122
340
123
340
124
340
125
340
126
340
127
340
128
340
129
340
12A
340
12B
340
12C
340
12D
340
12E
340
12F
340
130
340
131
340
132
340
133
340
134
340
135
340
136
340
137
340
138
340
139
340
13A
340
13B
340
13C
340
13D
340
13E
340
13F
340
140
340
141
340
142
340
143
340
144
340
145
340
146
340
147
340
148
340
149
340
14A
340
14B
340
14C
340
14D
340
14E
340
14F
340
150
340
151
340
152
340
153
340
154
340
155
340
156
340
157
340
158
340
16E
340
16F
340
170
340
171
340
172
340
173
340
174
340
175
340
176
340
177
340
178
340
179
340
17A
340
17B
340
17C
340
17D
340
17E
340
17F
340
180
340
181
340
182
340
183
340
184
340
185
340
186
340
187
340
188
340
189
340
18A
340
18B
340
18C
340
18D
340
18E
340
18F
340
190
340
191
340
192
340
193
340
194
340
195
340
196
340
197
340
198
340
199
340
19A
340
19B
340
19C
340
19D
340
19E
340
19F
340
1A0
340
1A1
340
1A2
340
1A3
340
1A4
340
1A5
340
1A6
340
1A7
340
1A8
340
1A9
340
1AA
340
1AB
340
1AC
340
1AD
340
1AE
340
1AF
340
1B0
340
1B1
340
1B2
340
1B3
340
1B4
340
1B5
340
1B6
340
1B7
340
1B8
340
1B9
340
1BA
340
1BB
340
1BC
340
1BD
340
1BE
340
1BF
340
1C0
340
1C1
340
1C2
340
1C3
340
1C4
340
1C5
340
1C6
340
1C7
340
1C8
340
1C9
340
1CA
340
1CB
340
1CC
340
1DA
340
1E2
340
1EC
340
1F8
0
GROUP
5
202
330
26f
100
AcDbGroup
300

70
0
71
1
340
6E
340
75
340
1CC
340
1E2
340
1EC
0
MLINESTYLE
5
18
330
270
100
AcDbMlineStyle
2
Standard
70
0
3

62
256
51
90
52
90
71
2
49
-0.5
62
256
6
ByLayer
49
0.5
62
256
6
ByLayer
0
RASTERVARIABLES
5
25a
330

100
AcDbRasterVariables
90
0
70
1
71
1
72
1
0
ENDSEC
0
EOF
