0
SECTION
2
HEADER
9
$ACADVER
1
AC1015
9
$DWGCODEPAGE
3
ANSI_1252
9
$HANDSEED
5
2da
9
$ANGBASE
50
0
9
$ANGDIR
70
0
9
$ATTMODE
70
1
9
$AUNITS
70
0
9
$AUPREC
70
0
9
$CECOLOR
62
256
9
$CELTSCALE
40
1
9
$CELTYPE
6
ByLayer
9
$CELWEIGHT
370
18
9
$CLAYER
8
0
9
$CMLJUST
70
0
9
$CMLSCALE
40
1
9
$CMLSTYLE
2
Standard
9
$DIMSTYLE
2
Standard
9
$TEXTSIZE
40
0.2
9
$TEXTSTYLE
7
Standard
9
$LUNITS
70
2
9
$LUPREC
70
4
9
$EXTNAMES
290
1
9
$INSUNITS
70
4
9
$LTSCALE
40
1
9
$LWDISPLAY
290
1
9
$PDMODE
70
0
9
$PDSIZE
40
0
9
$PLINEGEN
70
0
0
ENDSEC
0
SECTION
2
CLASSES
0
CLASS
1
RASTERVARIABLES
2
AcDbRasterVariables
3
ISM
90
0
280
0
281
0
0
ENDSEC
0
SECTION
2
TABLES
0
TABLE
2
VPORT
5
2d0
100
AcDbSymbolTable
0
VPORT
5
1
100
AcDbSymbolTableRecord
100
AcDbViewportTableRecord
2
*Active
70
0
10
0
20
0
11
1
21
1
12
-1
22
1
13
0
23
0
14
0.5
24
0.5
15
10
25
10
16
0
26
0
36
1
17
0
27
0
37
0
0
ENDTAB
0
TABLE
2
LTYPE
5
2d1
100
AcDbSymbolTable
0
LTYPE
5
14
100
AcDbSymbolTableRecord
100
AcDbLinetypeTableRecord
70
0
2
ByBlock
3

72
65
73
0
40
0
0
LTYPE
5
15
100
AcDbSymbolTableRecord
100
AcDbLinetypeTableRecord
70
0
2
ByLayer
3

72
65
73
0
40
0
0
LTYPE
5
16
100
AcDbSymbolTableRecord
100
AcDbLinetypeTableRecord
70
0
2
CONTINUOUS
3
Solid line
72
65
73
0
40
0
0
LTYPE
5
6A
100
AcDbSymbolTableRecord
100
AcDbLinetypeTableRecord
70
0
2
CENTER
3
____ _ ____ _ ____ _ ____
72
65
73
4
40
47.5
49
22
74
0
49
-8.5
74
0
49
8.5
74
0
49
-8.5
74
0
0
LTYPE
5
6B
100
AcDbSymbolTableRecord
100
AcDbLinetypeTableRecord
70
0
2
DASHED
3
__ __ __ __ __ __ __ __ __
72
65
73
2
40
25.72
49
12.86
74
0
49
-12.86
74
0
0
ENDTAB
0
TABLE
2
LAYER
5
2d2
100
AcDbSymbolTable
0
LAYER
5
10
100
AcDbSymbolTableRecord
100
AcDbLayerTableRecord
2
0
70
0
62
7
6
CONTINUOUS
290
1
370
-3
390
0
0
LAYER
5
6D
100
AcDbSymbolTableRecord
100
AcDbLayerTableRecord
2
80
70
0
62
-6
6
CONTINUOUS
290
1
370
-3
390
0
0
LAYER
5
6F
100
AcDbSymbolTableRecord
100
AcDbLayerTableRecord
2
81
70
0
62
-3
6
CONTINUOUS
290
1
370
-3
390
0
0
LAYER
5
71
100
AcDbSymbolTableRecord
100
AcDbLayerTableRecord
2
4
70
0
62
-2
6
CENTER
290
1
370
-3
390
0
0
LAYER
5
76
100
AcDbSymbolTableRecord
100
AcDbLayerTableRecord
2
2
70
0
62
7
6
CONTINUOUS
290
1
370
-3
390
0
0
LAYER
5
79
100
AcDbSymbolTableRecord
100
AcDbLayerTableRecord
2
1
70
0
62
4
6
CONTINUOUS
290
1
370
-3
390
0
0
LAYER
5
2ba
100
AcDbSymbolTableRecord
100
AcDbLayerTableRecord
2
SK4
70
0
62
2
6
CENTER
290
1
370
-3
390
0
0
LAYER
5
2bb
100
AcDbSymbolTableRecord
100
AcDbLayerTableRecord
2
SK1
70
0
62
4
6
CONTINUOUS
290
1
370
-3
390
0
0
LAYER
5
2bc
100
AcDbSymbolTableRecord
100
AcDbLayerTableRecord
2
SK6
70
0
62
5
6
CONTINUOUS
290
1
370
-3
390
0
0
LAYER
5
2bd
100
AcDbSymbolTableRecord
100
AcDbLayerTableRecord
2
SK2
70
0
62
7
6
CONTINUOUS
290
1
370
-3
390
0
0
ENDTAB
0
TABLE
2
STYLE
5
2d3
100
AcDbSymbolTable
0
STYLE
5
11
100
AcDbSymbolTableRecord
100
AcDbTextStyleTableRecord
2
Standard
3
txt
70
0
71
0
40
0
41
1
42
0
50
0
0
STYLE
5
225
100
AcDbSymbolTableRecord
100
AcDbTextStyleTableRecord
2
iso_b_vert
3
simplex.shx
70
0
71
0
40
0
41
1
42
0
50
0
0
STYLE
5
226
100
AcDbSymbolTableRecord
100
AcDbTextStyleTableRecord
2
DWGDirectTextStyle
3
simplex
70
0
71
0
40
0
41
1
42
0
50
0
0
ENDTAB
0
TABLE
2
DIMSTYLE
5
2d4
100
AcDbSymbolTable
100
AcDbDimStyleTable
0
DIMSTYLE
105
27
100
AcDbSymbolTableRecord
100
AcDbDimStyleTableRecord
2
Standard
70
0
3
<>
41
0.18
42
0.0625
44
0.18
140
0.18
147
0.09
73
0
74
0
77
1
271
2
275
0
278
52
280
0
340
11
0
ENDTAB
0
TABLE
2
VIEW
5
2d5
100
AcDbSymbolTable
0
ENDTAB
0
TABLE
2
UCS
5
2d6
100
AcDbSymbolTable
0
ENDTAB
0
TABLE
2
APPID
5
2d7
100
AcDbSymbolTable
0
APPID
5
12
100
AcDbSymbolTableRecord
100
AcDbRegAppTableRecord
2
ACAD
70
0
0
ENDTAB
0
TABLE
2
BLOCK_RECORD
5
2d8
100
AcDbSymbolTable
0
BLOCK_RECORD
5
1F
100
AcDbSymbolTableRecord
100
AcDbBlockTableRecord
2
*Model_Space
340
0
70
0
0
BLOCK_RECORD
5
1B
100
AcDbSymbolTableRecord
100
AcDbBlockTableRecord
2
*Paper_Space
340
0
70
0
0
BLOCK_RECORD
5
23
100
AcDbSymbolTableRecord
100
AcDbBlockTableRecord
2
*Paper_Space0
340
0
70
0
0
BLOCK_RECORD
5
228
100
AcDbSymbolTableRecord
100
AcDbBlockTableRecord
2
DimnDraft3D1
340
0
70
0
0
BLOCK_RECORD
5
232
100
AcDbSymbolTableRecord
100
AcDbBlockTableRecord
2
DimnDraft3D2
340
0
70
0
0
BLOCK_RECORD
5
23C
100
AcDbSymbolTableRecord
100
AcDbBlockTableRecord
2
DimnDraft3D3
340
0
70
0
0
BLOCK_RECORD
5
246
100
AcDbSymbolTableRecord
100
AcDbBlockTableRecord
2
DimnDraft3D4
340
0
70
0
0
BLOCK_RECORD
5
250
100
AcDbSymbolTableRecord
100
AcDbBlockTableRecord
2
DimnDraft3D5
340
0
70
0
0
ENDTAB
0
ENDSEC
0
SECTION
2
BLOCKS
0
BLOCK
5
20
100
AcDbEntity
8
0
100
AcDbBlockBegin
2
*Model_Space
70
0
10
0
20
0
30
0
3
*Model_Space
0
ENDBLK
5
21
100
AcDbEntity
8
0
100
AcDbBlockEnd
0
BLOCK
5
1C
100
AcDbEntity
8
0
100
AcDbBlockBegin
2
*Paper_Space
70
0
10
0
20
0
30
0
3
*Paper_Space
0
ENDBLK
5
1D
100
AcDbEntity
8
0
100
AcDbBlockEnd
0
BLOCK
5
24
100
AcDbEntity
8
0
100
AcDbBlockBegin
2
*Paper_Space0
70
0
10
0
20
0
30
0
3
*Paper_Space0
0
ENDBLK
5
25
100
AcDbEntity
8
0
100
AcDbBlockEnd
0
BLOCK
5
22F
100
AcDbEntity
8
0
100
AcDbBlockBegin
2
DimnDraft3D1
70
0
10
0
20
0
30
0
3
DimnDraft3D1
0
MTEXT
5
229
100
AcDbEntity
8
2
62
256
6
ByLayer
370
18
48
1
60
0
100
AcDbMText
10
38.808363
20
44.25
30
0
210
0
220
0
230
1
1
\W0.6961;83.0
40
3
41
0
44
1.084337
50
0
71
7
72
5
7
iso_b_vert
0
LINE
5
22A
100
AcDbEntity
8
2
62
256
6
ByLayer
370
13
48
1
60
0
100
AcDbLine
10
83.000937
20
19.494259
30
0
11
83.000937
21
45.5
31
0
39
0
210
0
220
0
230
1
0
LINE
5
22B
100
AcDbEntity
8
2
62
256
6
ByLayer
370
13
48
1
60
0
100
AcDbLine
10
0
20
21.7
30
0
11
0
21
45.5
31
0
39
0
210
0
220
0
230
1
0
LINE
5
22C
100
AcDbEntity
8
2
62
256
6
ByLayer
370
13
48
1
60
0
100
AcDbLine
10
83.000937
20
43.5
30
0
11
0
21
43.5
31
0
39
0
210
0
220
0
230
1
0
SOLID
5
22D
100
AcDbEntity
8
2
62
256
6
ByLayer
370
13
48
1
60
0
100
AcDbTrace
10
83.000937
20
43.5
30
0
11
79.825939
21
43.082003
31
0
12
79.825935
22
43.917997
32
0
13
83.000937
23
43.5
33
0
39
0
210
0
220
0
230
1
0
SOLID
5
22E
100
AcDbEntity
8
2
62
256
6
ByLayer
370
13
48
1
60
0
100
AcDbTrace
10
0
20
43.5
30
0
11
3.174998
21
43.917997
31
0
12
3.175002
22
43.082003
32
0
13
0
23
43.5
33
0
39
0
210
0
220
0
230
1
0
ENDBLK
5
230
100
AcDbEntity
8
0
100
AcDbBlockEnd
0
BLOCK
5
239
100
AcDbEntity
8
0
100
AcDbBlockBegin
2
DimnDraft3D2
70
0
10
0
20
0
30
0
3
DimnDraft3D2
0
MTEXT
5
233
100
AcDbEntity
8
2
62
256
6
ByLayer
370
18
48
1
60
0
100
AcDbMText
10
44.916726
20
29.25
30
0
210
0
220
0
230
1
1
\W0.7298;LU = 1.5 X Dc
40
3
41
0
44
1.084337
50
0
71
7
72
5
7
iso_b_vert
0
LINE
5
234
100
AcDbEntity
8
2
62
256
6
ByLayer
370
13
48
1
60
0
100
AcDbLine
10
83.000937
20
19.494259
30
0
11
83.000937
21
30.5
31
0
39
0
210
0
220
0
230
1
0
LINE
5
235
100
AcDbEntity
8
2
62
256
6
ByLayer
370
13
48
1
60
0
100
AcDbLine
10
30.500937
20
19.494259
30
0
11
30.500937
21
30.5
31
0
39
0
210
0
220
0
230
1
0
LINE
5
236
100
AcDbEntity
8
2
62
256
6
ByLayer
370
13
48
1
60
0
100
AcDbLine
10
83.000937
20
28.5
30
0
11
30.500937
21
28.5
31
0
39
0
210
0
220
0
230
1
0
SOLID
5
237
100
AcDbEntity
8
2
62
256
6
ByLayer
370
13
48
1
60
0
100
AcDbTrace
10
83.000937
20
28.5
30
0
11
79.825939
21
28.082003
31
0
12
79.825935
22
28.917997
32
0
13
83.000937
23
28.5
33
0
39
0
210
0
220
0
230
1
0
SOLID
5
238
100
AcDbEntity
8
2
62
256
6
ByLayer
370
13
48
1
60
0
100
AcDbTrace
10
30.500937
20
28.5
30
0
11
33.675935
21
28.917997
31
0
12
33.675939
22
28.082003
32
0
13
30.500937
23
28.5
33
0
39
0
210
0
220
0
230
1
0
ENDBLK
5
23A
100
AcDbEntity
8
0
100
AcDbBlockEnd
0
BLOCK
5
243
100
AcDbEntity
8
0
100
AcDbBlockBegin
2
DimnDraft3D3
70
0
10
0
20
0
30
0
3
DimnDraft3D3
0
MTEXT
5
23D
100
AcDbEntity
8
2
62
256
6
ByLayer
370
18
48
1
60
0
100
AcDbMText
10
105.75
20
-11.127014
30
0
210
0
220
0
230
1
1
\W0.7308;Dc=35.0-45.0
40
3
41
0
44
1.084337
50
90
71
7
72
5
7
iso_b_vert
0
LINE
5
23E
100
AcDbEntity
8
2
62
256
6
ByLayer
370
13
48
1
60
0
100
AcDbLine
10
85.000937
20
17.494259
30
0
11
108.5
21
17.494259
31
0
39
0
210
0
220
0
230
1
0
LINE
5
23F
100
AcDbEntity
8
2
62
256
6
ByLayer
370
13
48
1
60
0
100
AcDbLine
10
84.604062
20
-17.493023
30
0
11
108.5
21
-17.493023
31
0
39
0
210
0
220
0
230
1
0
LINE
5
240
100
AcDbEntity
8
2
62
256
6
ByLayer
370
13
48
1
60
0
100
AcDbLine
10
106.5
20
17.494259
30
0
11
106.5
21
-17.493023
31
0
39
0
210
0
220
0
230
1
0
SOLID
5
241
100
AcDbEntity
8
2
62
256
6
ByLayer
370
13
48
1
60
0
100
AcDbTrace
10
106.5
20
17.494259
30
0
11
106.917997
21
14.31926
31
0
12
106.082003
22
14.319257
32
0
13
106.5
23
17.494259
33
0
39
0
210
0
220
0
230
1
0
SOLID
5
242
100
AcDbEntity
8
2
62
256
6
ByLayer
370
13
48
1
60
0
100
AcDbTrace
10
106.5
20
-17.493023
30
0
11
106.082003
21
-14.318024
31
0
12
106.917997
22
-14.318021
32
0
13
106.5
23
-17.493023
33
0
39
0
210
0
220
0
230
1
0
ENDBLK
5
244
100
AcDbEntity
8
0
100
AcDbBlockEnd
0
BLOCK
5
24D
100
AcDbEntity
8
0
100
AcDbBlockBegin
2
DimnDraft3D4
70
0
10
0
20
0
30
0
3
DimnDraft3D4
0
MTEXT
5
247
100
AcDbEntity
8
2
62
256
6
ByLayer
370
18
48
1
60
0
100
AcDbMText
10
90.462994
20
7.266112
30
0
210
0
220
0
230
1
1
\W0.5899;90%%d
40
3
41
0
44
1.084337
50
45
71
7
72
5
7
iso_b_vert
0
LINE
5
248
100
AcDbEntity
8
2
62
256
6
ByLayer
370
13
48
1
60
0
100
AcDbLine
10
83.000937
20
6.241723
30
0
11
83.000937
21
2.235396
31
0
39
0
210
0
220
0
230
1
0
LINE
5
249
100
AcDbEntity
8
2
62
256
6
ByLayer
370
13
48
1
60
0
100
AcDbLine
10
87.000937
20
17.494259
30
0
11
98.2598
21
17.494259
31
0
39
0
210
0
220
0
230
1
0
ARC
5
24A
100
AcDbEntity
8
2
62
256
6
ByLayer
370
13
48
1
60
0
100
AcDbCircle
39
0
10
83.000937
20
17.494259
30
0
40
13.2588632801672
210
0
220
0
230
1
100
AcDbArc
50
270
51
0
0
SOLID
5
24B
100
AcDbEntity
8
2
62
256
6
ByLayer
370
13
48
1
60
0
100
AcDbTrace
10
83.000937
20
4.235395
30
0
11
86.145411
21
4.841711
31
0
12
86.195195
22
4.007202
32
0
13
83.000937
23
4.235395
33
0
39
0
210
0
220
0
230
1
0
SOLID
5
24C
100
AcDbEntity
8
2
62
256
6
ByLayer
370
13
48
1
60
0
100
AcDbTrace
10
96.2598
20
17.494259
30
0
11
96.487994
21
14.300004
31
0
12
95.653484
22
14.349782
32
0
13
96.2598
23
17.494259
33
0
39
0
210
0
220
0
230
1
0
ENDBLK
5
24E
100
AcDbEntity
8
0
100
AcDbBlockEnd
0
BLOCK
5
259
100
AcDbEntity
8
0
100
AcDbBlockBegin
2
DimnDraft3D5
70
0
10
0
20
0
30
0
3
DimnDraft3D5
0
MTEXT
5
251
100
AcDbEntity
8
SK2
62
256
6
ByLayer
370
18
48
1
60
0
100
AcDbMText
10
-35.359972
20
1.006579
30
0
210
0
220
0
230
1
1
\W0.6920;40
40
3
41
0
44
1.084337
50
90
71
7
72
5
7
iso_b_vert
0
MTEXT
5
253
100
AcDbEntity
8
SK2
62
256
6
ByLayer
370
18
48
1
60
0
100
AcDbMText
10
-35.359972
20
-3.406579
30
0
210
0
220
0
230
1
1
\W1.1719;%%c
40
3
41
0
44
1.084337
50
90
71
7
72
5
7
iso_b_vert
0
LINE
5
254
100
AcDbEntity
8
SK2
62
256
6
ByLayer
370
13
48
1
60
0
100
AcDbLine
10
-1.7
20
20
30
0
11
-36.609972
21
20
31
0
39
0
210
0
220
0
230
1
0
LINE
5
255
100
AcDbEntity
8
SK2
62
256
6
ByLayer
370
13
48
1
60
0
100
AcDbLine
10
-1.7
20
-20
30
0
11
-36.609972
21
-20
31
0
39
0
210
0
220
0
230
1
0
LINE
5
256
100
AcDbEntity
8
SK2
62
256
6
ByLayer
370
13
48
1
60
0
100
AcDbLine
10
-34.609972
20
20
30
0
11
-34.609972
21
-20
31
0
39
0
210
0
220
0
230
1
0
SOLID
5
257
100
AcDbEntity
8
SK2
62
256
6
ByLayer
370
13
48
1
60
0
100
AcDbTrace
10
-34.609972
20
20
30
0
11
-34.191975
21
16.825002
31
0
12
-35.027968
22
16.824998
32
0
13
-34.609972
23
20
33
0
39
0
210
0
220
0
230
1
0
SOLID
5
258
100
AcDbEntity
8
SK2
62
256
6
ByLayer
370
13
48
1
60
0
100
AcDbTrace
10
-34.609972
20
-20
30
0
11
-35.027968
21
-16.825002
31
0
12
-34.191975
22
-16.824998
32
0
13
-34.609972
23
-20
33
0
39
0
210
0
220
0
230
1
0
ENDBLK
5
25A
100
AcDbEntity
8
0
100
AcDbBlockEnd
0
ENDSEC
0
SECTION
2
ENTITIES
0
ARC
5
13A
100
AcDbEntity
8
SK1
62
256
6
ByLayer
370
18
48
1
60
0
100
AcDbCircle
39
0
10
0.6
20
-15
30
0
40
0.999999999999989
210
0
220
0
230
-1
100
AcDbArc
50
113.578178
51
126.870857
0
ARC
5
13B
100
AcDbEntity
8
SK1
62
256
6
ByLayer
370
18
48
1
60
0
100
AcDbCircle
39
0
10
0.6
20
15
30
0
40
0.999999999999989
210
0
220
0
230
-1
100
AcDbArc
50
233.129143
51
246.421822
0
ARC
5
13E
100
AcDbEntity
8
1
62
256
6
ByLayer
370
18
48
1
60
0
100
AcDbCircle
39
0
10
-60
20
18.5
30
0
40
9.99999999947507
210
0
220
0
230
-1
100
AcDbArc
50
270
51
280.26939
0
ARC
5
13F
100
AcDbEntity
8
1
62
256
6
ByLayer
370
18
48
1
60
0
100
AcDbCircle
39
0
10
59.3
20
12.4
30
0
40
0.836792319645751
210
0
220
0
230
1
100
AcDbArc
50
66.279764
51
47.404997
0
ARC
5
140
100
AcDbEntity
8
1
62
256
6
ByLayer
370
18
48
1
60
0
100
AcDbCircle
39
0
10
59.3
20
12.4
30
0
40
0.599999999999999
210
0
220
0
230
1
100
AcDbArc
50
64.072848
51
49.611913
0
ARC
5
141
100
AcDbEntity
8
1
62
256
6
ByLayer
370
18
48
1
60
0
100
AcDbCircle
39
0
10
59.3
20
-12.4
30
0
40
0.599999999999999
210
0
220
0
230
1
100
AcDbArc
50
7.230467
51
352.769533
0
ARC
5
142
100
AcDbEntity
8
1
62
256
6
ByLayer
370
18
48
1
60
0
100
AcDbCircle
39
0
10
59.3
20
-12.4
30
0
40
0.836792319645751
210
0
220
0
230
1
100
AcDbArc
50
9.437384
51
350.562616
0
ARC
5
143
100
AcDbEntity
8
1
62
256
6
ByLayer
370
18
48
1
60
0
100
AcDbCircle
39
0
10
-81.479625
20
-0.749858
30
0
40
4.97868793636581
210
0
220
0
230
-1
100
AcDbArc
50
31.605645
51
76
0
CIRCLE
5
13C
100
AcDbEntity
8
1
62
256
6
ByLayer
370
18
48
1
60
0
100
AcDbCircle
10
59.3
20
-12.4
30
0
40
1
39
0
210
0
220
0
230
1
0
CIRCLE
5
13D
100
AcDbEntity
8
1
62
256
6
ByLayer
370
18
48
1
60
0
100
AcDbCircle
10
59.3
20
12.4
30
0
40
1
39
0
210
0
220
0
230
1
0
ELLIPSE
5
144
100
AcDbEntity
8
1
62
256
6
ByLayer
370
18
48
1
60
0
100
AcDbEllipse
10
36.187185
20
13.100142
30
0
11
38.1622730326315
21
1.99779187460488
31
0
210
0
220
0
230
-1
40
0.002462
41
-0.754058060092937
42
-0.441971534453833
0
ELLIPSE
5
145
100
AcDbEntity
8
1
62
256
6
ByLayer
370
18
48
1
60
0
100
AcDbEllipse
10
71.236031
20
13.100142
30
0
11
0.105446844700215
21
-1.99883371909769
31
0
210
0
220
0
230
-1
40
0.647641
41
1.60494884163252
42
2.78076863854164
0
ELLIPSE
5
146
100
AcDbEntity
8
1
62
256
6
ByLayer
370
18
48
1
60
0
100
AcDbEllipse
10
78.238437
20
-11.00409
30
0
11
1.75
21
0
31
0
210
0
220
0
230
1
40
0.995562
41
-0.123307328194005
42
0
0
ELLIPSE
5
147
100
AcDbEntity
8
1
62
256
6
ByLayer
370
18
48
1
60
0
100
AcDbEllipse
10
78.238437
20
-11.00409
30
0
11
1.75
21
0
31
0
210
0
220
0
230
1
40
0.995562
41
0.941299702928301
42
-2.51356851038395
0
ELLIPSE
5
148
100
AcDbEntity
8
1
62
256
6
ByLayer
370
18
48
1
60
0
100
AcDbEllipse
10
78.238437
20
-11.00409
30
0
11
1.75
21
0
31
0
210
0
220
0
230
1
40
0.995562
41
0
42
0.123307328194005
0
ELLIPSE
5
149
100
AcDbEntity
8
1
62
256
6
ByLayer
370
18
48
1
60
0
100
AcDbEllipse
10
78.238437
20
-10.966446
30
0
11
-1.35
21
1.65321857766021E-16
31
0
210
0
220
0
230
1
40
0.995562
41
0
42
6.28318530717959
0
ELLIPSE
5
14A
100
AcDbEntity
8
1
62
256
6
ByLayer
370
18
48
1
60
0
100
AcDbEllipse
10
78.238437
20
-11.57815
30
0
11
1.75
21
0
31
0
210
0
220
0
230
1
40
0.995562
41
-3.14159251601267
42
-3.10752595745219
0
ELLIPSE
5
14B
100
AcDbEntity
8
1
62
256
6
ByLayer
370
18
48
1
60
0
100
AcDbEllipse
10
16.948929
20
0
30
0
11
9.36741787978693
21
19.7417491527562
31
0
210
0
220
0
230
-1
40
0.341999
41
-2.98886640869149
42
-2.04527312609013
0
ELLIPSE
5
14C
100
AcDbEntity
8
1
62
256
6
ByLayer
370
18
48
1
60
0
100
AcDbEllipse
10
-0.948929
20
0
30
0
11
9.36741787978977
21
19.7417491527599
31
0
210
0
220
0
230
-1
40
0.341999
41
0.152726244898291
42
1.09631952749952
0
ELLIPSE
5
14D
100
AcDbEntity
8
1
62
256
6
ByLayer
370
18
48
1
60
0
100
AcDbEllipse
10
70.429198
20
0
30
0
11
-9.18454765363574E-16
21
14.9999999999476
31
0
210
0
220
0
230
-1
40
0.139651
41
-1.9396434328167
42
-1.8762853107291
0
ELLIPSE
5
14E
100
AcDbEntity
8
1
62
256
6
ByLayer
370
18
48
1
60
0
100
AcDbEllipse
10
70.429198
20
0
30
0
11
-9.18454765330363E-16
21
14.9999999994052
31
0
210
0
220
0
230
-1
40
0.139651
41
-1.15825524631745
42
-1.10918711273008
0
ELLIPSE
5
14F
100
AcDbEntity
8
1
62
256
6
ByLayer
370
18
48
1
60
0
100
AcDbEllipse
10
-0.948929
20
0
30
0
11
9.36741787979035
21
-19.7417491527606
31
0
210
0
220
0
230
-1
40
0.341999
41
-1.09631952749949
42
-0.152726244898287
0
ELLIPSE
5
150
100
AcDbEntity
8
1
62
256
6
ByLayer
370
18
48
1
60
0
100
AcDbEllipse
10
341.396621
20
0
30
0
11
286.217050295171
21
2.89262129258773E-13
31
0
210
0
220
0
230
-1
40
0.052408
41
-2.97802116067767
42
-2.83610366964345
0
ELLIPSE
5
151
100
AcDbEntity
8
1
62
256
6
ByLayer
370
18
48
1
60
0
100
AcDbEllipse
10
16.948929
20
0
30
0
11
9.36741787977888
21
-19.7417491527462
31
0
210
0
220
0
230
-1
40
0.341999
41
2.04527312608974
42
2.98886640869143
0
ELLIPSE
5
152
100
AcDbEntity
8
1
62
256
6
ByLayer
370
18
48
1
60
0
100
AcDbEllipse
10
341.396621
20
0
30
0
11
286.217050276656
21
2.89262129240061E-13
31
0
210
0
220
0
230
-1
40
0.052408
41
2.83610366963383
42
2.9780211606711
0
ELLIPSE
5
153
100
AcDbEntity
8
1
62
256
6
ByLayer
370
18
48
1
60
0
100
AcDbEllipse
10
452.467377
20
0
30
0
11
405.049778072094
21
-10.621137657538
31
0
210
0
220
0
230
-1
40
0.02615
41
2.81643230209949
42
2.90118809606808
0
ELLIPSE
5
154
100
AcDbEntity
8
1
62
256
6
ByLayer
370
18
48
1
60
0
100
AcDbEllipse
10
82.604062
20
8.241723
30
0
11
-0.396875
21
4.86015646673256E-17
31
0
210
0
220
0
230
1
40
0.99889
41
1.74532925199428
42
3.14159265358976
0
ELLIPSE
5
155
100
AcDbEntity
8
1
62
256
6
ByLayer
370
18
48
1
60
0
100
AcDbEllipse
10
73.872812
20
15.559978
30
0
11
-0.396875
21
4.86015646673256E-17
31
0
210
0
220
0
230
1
40
0.99889
41
-1.39626340159551
42
3.58466678238412E-14
0
ELLIPSE
5
156
100
AcDbEntity
8
1
62
256
6
ByLayer
370
18
48
1
60
0
100
AcDbEllipse
10
78.238437
20
11.900851
30
0
11
3
21
0
31
0
210
0
220
0
230
1
40
0.99889
41
0
42
6.28318530717959
0
ELLIPSE
5
157
100
AcDbEntity
8
1
62
256
6
ByLayer
370
18
48
1
60
0
100
AcDbEllipse
10
82.604062
20
17.097824
30
0
11
-0.396875
21
4.86015646673256E-17
31
0
210
0
220
0
230
1
40
0.99889
41
3.14159265358979
42
-1.39626340159551
0
ELLIPSE
5
158
100
AcDbEntity
8
1
62
256
6
ByLayer
370
18
48
1
60
0
100
AcDbEllipse
10
78.238437
20
11.852802
30
0
11
-2.92867465181762
21
3.5864735868944E-16
31
0
210
0
220
0
230
1
40
0.99889
41
0
42
6.28318530717959
0
ELLIPSE
5
159
100
AcDbEntity
8
1
62
256
6
ByLayer
370
18
48
1
60
0
100
AcDbEllipse
10
75.691652
20
-2.5
30
0
11
-9.18454765366783E-16
21
-5
31
0
210
0
220
0
230
1
40
0.104528
41
0
42
2.80465677405019
0
ELLIPSE
5
15A
100
AcDbEntity
8
1
62
256
6
ByLayer
370
18
48
1
60
0
100
AcDbEllipse
10
74.114365
20
-14.989907
30
0
11
0.130044906981128
21
0.0780876868155842
31
0
210
0
220
0
230
-1
40
0.985949
41
2.29234425361326
42
-2.60705412178023
0
ELLIPSE
5
15B
100
AcDbEntity
8
1
62
256
6
ByLayer
370
18
48
1
60
0
100
AcDbEllipse
10
73.872812
20
-15.565187
30
0
11
0.396875
21
0
31
0
210
0
220
0
230
1
40
0.995562
41
3.14159265358979
42
-1.74532925199435
0
ELLIPSE
5
15C
100
AcDbEntity
8
1
62
256
6
ByLayer
370
18
48
1
60
0
100
AcDbEllipse
10
82.362509
20
-8.099608
30
0
11
0.130044906980831
21
0.0780876868175364
31
0
210
0
220
0
230
-1
40
0.985949
41
-0.849248399962401
42
0.534538531819566
0
ELLIPSE
5
15D
100
AcDbEntity
8
1
62
256
6
ByLayer
370
18
48
1
60
0
100
AcDbEllipse
10
78.238437
20
-11.544757
30
0
11
-2.2
21
2.69413397840923E-16
31
0
210
0
220
0
230
1
40
0.995562
41
2.48067990823132
42
2.50728540248175
0
ELLIPSE
5
15E
100
AcDbEntity
8
1
62
256
6
ByLayer
370
18
48
1
60
0
100
AcDbEllipse
10
82.362509
20
-16.437823
30
0
11
0.111726548683437
21
-0.103583386702962
31
0
210
0
220
0
230
-1
40
0.982458
41
-0.738778416952396
42
0.988877364821646
0
ELLIPSE
5
15F
100
AcDbEntity
8
1
62
256
6
ByLayer
370
18
48
1
60
0
100
AcDbEllipse
10
82.604062
20
-17.097909
30
0
11
0.396875
21
0
31
0
210
0
220
0
230
1
40
0.995562
41
-1.74532925199428
42
-3.59664973377416E-14
0
ELLIPSE
5
160
100
AcDbEntity
8
1
62
256
6
ByLayer
370
18
48
1
60
0
100
AcDbEllipse
10
78.238437
20
-11.605638
30
0
11
2.2
21
0
31
0
210
0
220
0
230
1
40
0.995562
41
2.23789390436581
42
2.38515627448351
0
ELLIPSE
5
161
100
AcDbEntity
8
1
62
256
6
ByLayer
370
18
48
1
60
0
100
AcDbEllipse
10
82.604062
20
-8.271313
30
0
11
0.396875
21
0
31
0
210
0
220
0
230
1
40
0.995562
41
0
42
1.39626340159544
0
ELLIPSE
5
162
100
AcDbEntity
8
1
62
256
6
ByLayer
370
18
48
1
60
0
100
AcDbEllipse
10
71.202118
20
-26.966157
30
0
11
8.91125882469853
21
9.29245669985919
31
0
210
0
220
0
230
-1
40
0.864869
41
-0.784591625328231
42
-0.728504117961222
0
ELLIPSE
5
163
100
AcDbEntity
8
1
62
256
6
ByLayer
370
18
48
1
60
0
100
AcDbEllipse
10
71.202118
20
-26.77794
30
0
11
12
21
0
31
0
210
0
220
0
230
1
40
0.995562
41
1.39626340159546
42
1.46234894203778
0
ELLIPSE
5
164
100
AcDbEntity
8
1
62
256
6
ByLayer
370
18
48
1
60
0
100
AcDbEllipse
10
78.238437
20
11.900195
30
0
11
1.6764
21
0
31
0
210
0
220
0
230
1
40
0.99889
41
-1.7453292519943
42
-0.698131700797729
0
ELLIPSE
5
165
100
AcDbEntity
8
1
62
256
6
ByLayer
370
18
48
1
60
0
100
AcDbEllipse
10
79.632377
20
12.332792
30
0
11
0.13487365872712
21
-0.36989133649574
31
0
210
0
220
0
230
-1
40
0.49014
41
2.946157711043
42
-0.919807473445001
0
ELLIPSE
5
166
100
AcDbEntity
8
1
62
256
6
ByLayer
370
18
48
1
60
0
100
AcDbEllipse
10
79.699202
20
11.568716
30
0
11
0.0684813412136524
21
0.387673663055532
31
0
210
0
220
0
230
-1
40
0.490235
41
-2.85290490953608
42
-1.96275223620633
0
ELLIPSE
5
167
100
AcDbEntity
8
1
62
256
6
ByLayer
370
18
48
1
60
0
100
AcDbEllipse
10
78.238437
20
11.826003
30
0
11
1.2903
21
0
31
0
210
0
220
0
230
1
40
0.99889
41
-2.14069550825192
42
-1.3597645485662
0
ELLIPSE
5
168
100
AcDbEntity
8
1
62
256
6
ByLayer
370
18
48
1
60
0
100
AcDbEllipse
10
78.238437
20
11.829536
30
0
11
-2.625
21
3.21459167878374E-16
31
0
210
0
220
0
230
1
40
0.99889
41
0
42
-3.14159262607104
0
ELLIPSE
5
169
100
AcDbEntity
8
1
62
256
6
ByLayer
370
18
48
1
60
0
100
AcDbEllipse
10
78.496027
20
13.285245
30
0
11
0.3881209121636
21
-0.0683123871297888
31
0
210
0
220
0
230
-1
40
0.489212
41
2.94594143566938
42
-0.490937026110498
0
ELLIPSE
5
16A
100
AcDbEntity
8
1
62
256
6
ByLayer
370
18
48
1
60
0
100
AcDbEllipse
10
79.191884
20
12.961015
30
0
11
0.301985436167573
21
-0.252937275490823
31
0
210
0
220
0
230
-1
40
0.489628
41
1.57150080416513
42
2.8533642300395
0
ELLIPSE
5
16B
100
AcDbEntity
8
1
62
256
6
ByLayer
370
18
48
1
60
0
100
AcDbEllipse
10
78.238437
20
11.826003
30
0
11
1.2903
21
0
31
0
210
0
220
0
230
1
40
0.99889
41
-0.111029824222418
42
0.872664625997157
0
ELLIPSE
5
16C
100
AcDbEntity
8
1
62
256
6
ByLayer
370
18
48
1
60
0
100
AcDbEllipse
10
78.238437
20
11.826003
30
0
11
1.2903
21
0
31
0
210
0
220
0
230
1
40
0.99889
41
1.91986217719377
42
2.83215131882352
0
ELLIPSE
5
16D
100
AcDbEntity
8
1
62
256
6
ByLayer
370
18
48
1
60
0
100
AcDbEllipse
10
78.238437
20
11.826003
30
0
11
1.2903
21
0
31
0
210
0
220
0
230
1
40
0.99889
41
-1.03729268236722
42
-0.174532925199449
0
ELLIPSE
5
16E
100
AcDbEntity
8
1
62
256
6
ByLayer
370
18
48
1
60
0
100
AcDbEllipse
10
78.238437
20
11.900195
30
0
11
1.6764
21
0
31
0
210
0
220
0
230
1
40
0.99889
41
-2.79252680319092
42
-1.7453292519943
0
ELLIPSE
5
16F
100
AcDbEntity
8
1
62
256
6
ByLayer
370
18
48
1
60
0
100
AcDbEllipse
10
76.844497
20
11.319213
30
0
11
0.134873658727127
21
-0.36989133649575
31
0
210
0
220
0
230
-1
40
0.49014
41
2.22178544652171
42
-2.94523651307054
0
ELLIPSE
5
170
100
AcDbEntity
8
1
62
256
6
ByLayer
370
18
48
1
60
0
100
AcDbEllipse
10
77.731119
20
13.218301
30
0
11
0.370363142600716
21
0.134557279841558
31
0
210
0
220
0
230
-1
40
0.489307
41
1.57033700444453
42
2.85220043030747
0
ELLIPSE
5
171
100
AcDbEntity
8
1
62
256
6
ByLayer
370
18
48
1
60
0
100
AcDbEllipse
10
78.238437
20
11.900195
30
0
11
1.6764
21
0
31
0
210
0
220
0
230
1
40
0.99889
41
-0.698131700797729
42
0.349065850398858
0
ELLIPSE
5
172
100
AcDbEntity
8
1
62
256
6
ByLayer
370
18
48
1
60
0
100
AcDbEllipse
10
78.238437
20
11.900195
30
0
11
1.6764
21
0
31
0
210
0
220
0
230
1
40
0.99889
41
2.44346095279205
42
-2.79252680319092
0
ELLIPSE
5
173
100
AcDbEntity
8
1
62
256
6
ByLayer
370
18
48
1
60
0
100
AcDbEllipse
10
77.731119
20
13.218301
30
0
11
0.370363142596174
21
0.134557279843029
31
0
210
0
220
0
230
-1
40
0.489307
41
0.288473578587968
42
1.57033700446083
0
ELLIPSE
5
174
100
AcDbEntity
8
1
62
256
6
ByLayer
370
18
48
1
60
0
100
AcDbEllipse
10
78.238437
20
11.900195
30
0
11
1.6764
21
0
31
0
210
0
220
0
230
1
40
0.99889
41
0.349065850398858
42
1.39626340159546
0
ELLIPSE
5
175
100
AcDbEntity
8
1
62
256
6
ByLayer
370
18
48
1
60
0
100
AcDbEllipse
10
78.238437
20
11.826003
30
0
11
1.2903
21
0
31
0
210
0
220
0
230
1
40
0.99889
41
2.96705972839037
42
-2.4106757890777
0
ELLIPSE
5
176
100
AcDbEntity
8
1
62
256
6
ByLayer
370
18
48
1
60
0
100
AcDbEllipse
10
79.191884
20
12.961015
30
0
11
0.301985436174279
21
-0.252937275494197
31
0
210
0
220
0
230
-1
40
0.489628
41
0.289637378317956
42
1.57150080417345
0
ELLIPSE
5
177
100
AcDbEntity
8
1
62
256
6
ByLayer
370
18
48
1
60
0
100
AcDbEllipse
10
78.238437
20
11.897897
30
0
11
-2.625
21
3.21459167878374E-16
31
0
210
0
220
0
230
1
40
0.99889
41
0
42
6.28318530717959
0
ELLIPSE
5
178
100
AcDbEntity
8
1
62
256
6
ByLayer
370
18
48
1
60
0
100
AcDbEllipse
10
78.238437
20
11.826003
30
0
11
-1.2903
21
1.58010957833701E-16
31
0
210
0
220
0
230
1
40
0.99889
41
-2.26892802759263
42
-1.22173047639605
0
ELLIPSE
5
179
100
AcDbEntity
8
1
62
256
6
ByLayer
370
18
48
1
60
0
100
AcDbEllipse
10
76.777672
20
12.083289
30
0
11
0.0684813412160983
21
0.387673663050187
31
0
210
0
220
0
230
-1
40
0.490235
41
1.57055116989822
42
2.85241459577309
0
ELLIPSE
5
17A
100
AcDbEntity
8
1
62
256
6
ByLayer
370
18
48
1
60
0
100
AcDbEllipse
10
77.102087
20
12.778455
30
0
11
0.25342675415036
21
0.301475541475041
31
0
210
0
220
0
230
-1
40
0.489817
41
-2.73922898913651
42
0.195190620777191
0
ELLIPSE
5
17B
100
AcDbEntity
8
1
62
256
6
ByLayer
370
18
48
1
60
0
100
AcDbEllipse
10
78.238437
20
11.900195
30
0
11
1.6764
21
0
31
0
210
0
220
0
230
1
40
0.99889
41
1.39626340159546
42
2.44346095279205
0
ELLIPSE
5
17C
100
AcDbEntity
8
1
62
256
6
ByLayer
370
18
48
1
60
0
100
AcDbEllipse
10
79.374787
20
10.87355
30
0
11
0.253426754150353
21
0.301475541475035
31
0
210
0
220
0
230
-1
40
0.489817
41
-0.196600462288882
42
0.402364594486772
0
ELLIPSE
5
17D
100
AcDbEntity
8
1
62
256
6
ByLayer
370
18
48
1
60
0
100
AcDbEllipse
10
78.238437
20
11.900195
30
0
11
-1.8
21
2.20429143688028E-16
31
0
210
0
220
0
230
1
40
0.99889
41
0
42
6.28318530717959
0
ELLIPSE
5
17E
100
AcDbEntity
8
1
62
256
6
ByLayer
370
18
48
1
60
0
100
AcDbEllipse
10
74.147031
20
8.150567
30
0
11
1.22675503947557
21
-1.0257304458304
31
0
210
0
220
0
230
-1
40
0.927914
41
2.81021588025091
42
2.85443833180864
0
ELLIPSE
5
17F
100
AcDbEntity
8
1
62
256
6
ByLayer
370
18
48
1
60
0
100
AcDbEllipse
10
66.741754
20
9.508705
30
0
11
-1.22460635379691E-16
21
1.99999999995841
31
0
210
0
220
0
230
-1
40
0.176327
41
1.5707963267949
42
2.09942640078086
0
ELLIPSE
5
180
100
AcDbEntity
8
1
62
256
6
ByLayer
370
18
48
1
60
0
100
AcDbEllipse
10
74.4124
20
8.191869
30
0
11
1.65
21
0
31
0
210
0
220
0
230
1
40
0.99889
41
2.17433780433393
42
2.79600525446552
0
ELLIPSE
5
181
100
AcDbEntity
8
1
62
256
6
ByLayer
370
18
48
1
60
0
100
AcDbEllipse
10
74.4124
20
8.088235
30
0
11
-1.525
21
1.86752468957913E-16
31
0
210
0
220
0
230
1
40
0.99889
41
-0.909577778225687
42
-0.449527753177685
0
ELLIPSE
5
182
100
AcDbEntity
8
1
62
256
6
ByLayer
370
18
48
1
60
0
100
AcDbEllipse
10
66.477264
20
8.800142
30
0
11
-7.34763812292183E-17
21
1.19999999999797
31
0
210
0
220
0
230
-1
40
0.176327
41
-1.5707963267949
42
0
0
ELLIPSE
5
183
100
AcDbEntity
8
1
62
256
6
ByLayer
370
18
48
1
60
0
100
AcDbEllipse
10
74.4124
20
8.255463
30
0
11
-1.79983640960441
21
2.20409110304242E-16
31
0
210
0
220
0
230
1
40
0.99889
41
-1.02358654428532
42
-0.314668812958787
0
ELLIPSE
5
184
100
AcDbEntity
8
1
62
256
6
ByLayer
370
18
48
1
60
0
100
AcDbEllipse
10
71.202118
20
26.830027
30
0
11
-12
21
1.46952762458685E-15
31
0
210
0
220
0
230
1
40
0.99889
41
1.69602498515846
42
1.74532925199433
0
ELLIPSE
5
185
100
AcDbEntity
8
1
62
256
6
ByLayer
370
18
48
1
60
0
100
AcDbEllipse
10
74.4124
20
8.094124
30
0
11
1.65
21
0
31
0
210
0
220
0
230
1
40
0.99889
41
2.17433780433395
42
2.73222166379347
0
ELLIPSE
5
186
100
AcDbEntity
8
1
62
256
6
ByLayer
370
18
48
1
60
0
100
AcDbEllipse
10
80.857121
20
2.5
30
0
11
-4.30314191037671E-16
21
-2.34259871723691
31
0
210
0
220
0
230
1
40
0.104528
41
1.97137661120739
42
2.42482971124951
0
ELLIPSE
5
187
100
AcDbEntity
8
1
62
256
6
ByLayer
370
18
48
1
60
0
100
AcDbEllipse
10
80.857121
20
2.5
30
0
11
-6.03053577127172E-16
21
3.75
31
0
210
0
220
0
230
1
40
0.104528
41
1.11879972177406
42
1.80425607210348
0
ELLIPSE
5
188
100
AcDbEntity
8
1
62
256
6
ByLayer
370
18
48
1
60
0
100
AcDbEllipse
10
80.857121
20
2.5
30
0
11
-6.03053577127172E-16
21
3.75
31
0
210
0
220
0
230
1
40
0.104528
41
-2.71472857803786
42
-1.06666891886003
0
ELLIPSE
5
189
100
AcDbEntity
8
1
62
256
6
ByLayer
370
18
48
1
60
0
100
AcDbEllipse
10
80.857121
20
2.5
30
0
11
-4.30314191037671E-16
21
-2.34259871723691
31
0
210
0
220
0
230
1
40
0.104528
41
0.924179060010852
42
1.97137661120739
0
ELLIPSE
5
18A
100
AcDbEntity
8
1
62
256
6
ByLayer
370
18
48
1
60
0
100
AcDbEllipse
10
80.857121
20
2.5
30
0
11
-4.30314191037671E-16
21
-2.34259871723691
31
0
210
0
220
0
230
1
40
0.104528
41
0.299722574159919
42
0.924179060010852
0
ELLIPSE
5
18B
100
AcDbEntity
8
1
62
256
6
ByLayer
370
18
48
1
60
0
100
AcDbEllipse
10
80.857121
20
2.5
30
0
11
-4.30314191037671E-16
21
-2.34259871723691
31
0
210
0
220
0
230
1
40
0.104528
41
-2.21741359357902
42
-1.17021604238236
0
ELLIPSE
5
18C
100
AcDbEntity
8
1
62
256
6
ByLayer
370
18
48
1
60
0
100
AcDbEllipse
10
80.359861
20
2.5
30
0
11
-7.80686550561766E-16
21
-4.25
31
0
210
0
220
0
230
1
40
0.104528
41
-1.92805436386126
42
-1.39349266730518
0
ELLIPSE
5
18D
100
AcDbEntity
8
1
62
256
6
ByLayer
370
18
48
1
60
0
100
AcDbEllipse
10
80.857121
20
2.5
30
0
11
-4.30314191037671E-16
21
-2.34259871723691
31
0
210
0
220
0
230
1
40
0.104528
41
-2.37270994318382
42
-2.21741359357902
0
ELLIPSE
5
18E
100
AcDbEntity
8
1
62
256
6
ByLayer
370
18
48
1
60
0
100
AcDbEllipse
10
77.975159
20
-10.716946
30
0
11
1.75
21
0
31
0
210
0
220
0
230
1
40
0.995562
41
0
42
6.28318530717959
0
ELLIPSE
5
18F
100
AcDbEntity
8
1
62
256
6
ByLayer
370
18
48
1
60
0
100
AcDbEllipse
10
81.681119
20
-2.999846
30
0
11
0.0526013344498754
21
-5.19999698962132
31
0
210
0
220
0
230
-1
40
0.106373
41
-1.10243230336082
42
0.0010760352677642
0
ELLIPSE
5
190
100
AcDbEntity
8
1
62
256
6
ByLayer
370
18
48
1
60
0
100
AcDbEllipse
10
68.994969
20
-14.269087
30
0
11
0.999987466127569
21
-0.0531140215125702
31
0
210
0
220
0
230
-1
40
0.094264
41
-0.729318414711049
42
2.15047485107955
0
ELLIPSE
5
191
100
AcDbEntity
8
1
62
256
6
ByLayer
370
18
48
1
60
0
100
AcDbEllipse
10
36.755985
20
-13.299846
30
0
11
38.1622721160048
21
-1.9911721666551
31
0
210
0
220
0
230
-1
40
0.004919
41
0.517847716001587
42
0.782910014493125
0
ELLIPSE
5
192
100
AcDbEntity
8
1
62
256
6
ByLayer
370
18
48
1
60
0
100
AcDbEllipse
10
77.975159
20
-11.226826
30
0
11
1.75
21
0
31
0
210
0
220
0
230
1
40
0.995562
41
2.26901530797004
42
2.99482151099835
0
ELLIPSE
5
193
100
AcDbEntity
8
1
62
256
6
ByLayer
370
18
48
1
60
0
100
AcDbEllipse
10
77.975159
20
-10.716946
30
0
11
2
21
0
31
0
210
0
220
0
230
1
40
0.995562
41
0
42
3.14159265358979
0
ELLIPSE
5
194
100
AcDbEntity
8
1
62
256
6
ByLayer
370
18
48
1
60
0
100
AcDbEllipse
10
80.664262
20
-2.5
30
0
11
-6.03053577127172E-16
21
3.75
31
0
210
0
220
0
230
1
40
0.104528
41
-2.65906389950038
42
-0.665330527621187
0
ELLIPSE
5
195
100
AcDbEntity
8
1
62
256
6
ByLayer
370
18
48
1
60
0
100
AcDbEllipse
10
80.167001
20
-2.5
30
0
11
-7.80686550561766E-16
21
-4.25
31
0
210
0
220
0
230
1
40
0.104528
41
0
42
-3.14159221666686
0
ELLIPSE
5
196
100
AcDbEntity
8
1
62
256
6
ByLayer
370
18
48
1
60
0
100
AcDbEllipse
10
71.202118
20
26.938748
30
0
11
8.7012540862934
21
-8.88566024598274
31
0
210
0
220
0
230
-1
40
0.93
41
0.685957482858184
42
0.758826263661475
0
ELLIPSE
5
197
100
AcDbEntity
8
1
62
256
6
ByLayer
370
18
48
1
60
0
100
AcDbEllipse
10
71.105462
20
12.737368
30
0
11
0.193613625921721
21
0.644398498283462
31
0
210
0
220
0
230
-1
40
0.632472
41
0
42
6.28318530717959
0
ELLIPSE
5
198
100
AcDbEntity
8
1
62
256
6
ByLayer
370
18
48
1
60
0
100
AcDbEllipse
10
71.095852
20
10.521574
30
0
11
0.200709332248295
21
0.650836671403598
31
0
210
0
220
0
230
-1
40
0.621769
41
0
42
6.28318530717959
0
ELLIPSE
5
199
100
AcDbEntity
8
1
62
256
6
ByLayer
370
18
48
1
60
0
100
AcDbEllipse
10
71.345898
20
9.508705
30
0
11
0.105446844694246
21
-1.99883371910812
31
0
210
0
220
0
230
-1
40
0.647641
41
1.21593110037006
42
1.60494884162709
0
POINT
5
6C
100
AcDbEntity
8
80
62
256
6
ByLayer
370
13
48
1
60
0
100
AcDbPoint
10
0
20
0
30
0
39
0
210
0
220
0
230
1
50
360
0
POINT
5
6E
100
AcDbEntity
8
81
62
256
6
ByLayer
370
18
48
1
60
0
100
AcDbPoint
10
83.000937
20
17.494259
30
0
39
0
210
0
220
0
230
1
50
360
0
SPLINE
5
19A
100
AcDbEntity
8
1
62
256
6
ByLayer
370
18
48
1
60
0
100
AcDbSpline
70
4
71
3
72
9
73
5
40
0
40
0
40
0
40
0
40
0.85009077448776
40
1
40
1
40
1
40
1
41
1
10
76.5167602882215
20
-10.2531070494296
30
0
41
1
10
76.5929681867105
20
-10.1584954443057
30
0
41
1
10
76.6923893936281
20
-10.0543742586308
30
0
41
1
10
76.801060259152
20
-9.96085133995547
30
0
41
1
10
76.8175896713084
20
-9.94704001619476
30
0
0
SPLINE
5
19B
100
AcDbEntity
8
1
62
256
6
ByLayer
370
18
48
1
60
0
100
AcDbSpline
70
4
71
3
72
8
73
4
40
0
40
0
40
0
40
0
40
1
40
1
40
1
40
1
41
1
10
81.0225240411959
20
-0.967110852826295
30
0
41
1
10
81.0351640924287
20
-0.907647540481776
30
0
41
1
10
81.0468237074456
20
-0.844827002535226
30
0
41
1
10
81.0570497967694
20
-0.779302685714242
30
0
0
SPLINE
5
19C
100
AcDbEntity
8
1
62
256
6
ByLayer
370
18
48
1
60
0
100
AcDbSpline
70
4
71
3
72
11
73
7
40
0
40
0
40
0
40
0
40
0.182033886724959
40
0.58380628332645
40
0.984728023145369
40
1
40
1
40
1
40
1
41
1
10
79.268845976632
20
-9.59588591622958
30
0
41
1
10
79.3303986504762
20
-9.66160096774803
30
0
41
1
10
79.5078891799309
20
-9.88284674388154
30
0
41
1
10
79.7092606173778
20
-10.3305947074139
30
0
41
1
10
79.7373257425318
20
-10.737743661553
30
0
41
1
10
79.713683391443
20
-10.9426301502128
30
0
41
1
10
79.7127649260933
20
-10.9501445919189
30
0
0
SPLINE
5
19D
100
AcDbEntity
8
1
62
256
6
ByLayer
370
18
48
1
60
0
100
AcDbSpline
70
4
71
3
72
13
73
9
40
0
40
0
40
0
40
0
40
0.0960372342825025
40
0.22781315569578
40
0.355931147034715
40
0.506015237182005
40
0.718342238805309
40
1
40
1
40
1
40
1
41
1
10
80.166754761552
20
-6.73821727603928
30
0
41
1
10
80.2246999246421
20
-6.7419995080337
30
0
41
1
10
80.3513263188268
20
-6.73459940131409
30
0
41
1
10
80.520215812771
20
-6.6326579174974
30
0
41
1
10
80.6366261117111
20
-6.50297766723531
30
0
41
1
10
80.7153145771289
20
-6.36034255844248
30
0
41
1
10
80.7790955564062
20
-6.18682071820717
30
0
41
1
10
80.8189153464649
20
-6.01927807374176
30
0
41
1
10
80.8355113226914
20
-5.91732101381569
30
0
0
SPLINE
5
19E
100
AcDbEntity
8
1
62
256
6
ByLayer
370
18
48
1
60
0
100
AcDbSpline
70
4
71
3
72
12
73
8
40
0
40
0
40
0
40
0
40
0.175745259880102
40
0.458210533609197
40
0.668636555615363
40
0.846199205994949
40
1
40
1
40
1
40
1
41
1
10
80.7867613191166
20
1.13983293496159
30
0
41
1
10
80.7765714621546
20
1.18109811155898
30
0
41
1
10
80.7431752309471
20
1.28814734390784
30
0
41
1
10
80.6846084307092
20
1.42829074293769
30
0
41
1
10
80.5696071524718
20
1.59112577247299
30
0
41
1
10
80.3865224565659
20
1.72202581764259
30
0
41
1
10
80.2450895630184
20
1.74222468650856
30
0
41
1
10
80.1717728164828
20
1.74317642741948
30
0
0
SPLINE
5
19F
100
AcDbEntity
8
1
62
256
6
ByLayer
370
18
48
1
60
0
100
AcDbSpline
70
4
71
2
72
6
73
3
40
0
40
0
40
0
40
1
40
1
40
1
41
1
10
80.7988535773806
20
1.09726573985773
30
0
41
1
10
80.7937467267338
20
1.12103798553682
30
0
41
1
10
80.7867613191166
20
1.13983293496159
30
0
0
SPLINE
5
1A0
100
AcDbEntity
8
SK1
62
256
6
ByLayer
370
18
48
1
60
0
100
AcDbSpline
70
4
71
2
72
6
73
3
40
0
40
0
40
0
40
1
40
1
40
1
41
1
10
-22.5
20
-13.4933966698402
30
0
41
1
10
-12.0999999999449
20
-13.7545973909209
30
0
41
1
10
-1.69999999999999
20
-14.0157977997179
30
0
0
SPLINE
5
1A1
100
AcDbEntity
8
SK1
62
256
6
ByLayer
370
18
48
1
60
0
100
AcDbSpline
70
4
71
2
72
6
73
3
40
0
40
0
40
0
40
1
40
1
40
1
41
1
10
-1.69999999999999
20
14.0157970602974
30
0
41
1
10
-12.099999999963
20
13.7545958471854
30
0
41
1
10
-22.5
20
13.493394380475
30
0
0
SPLINE
5
1A2
100
AcDbEntity
8
1
62
256
6
ByLayer
370
18
48
1
60
0
100
AcDbSpline
70
4
71
1
72
4
73
2
40
0
40
0
40
1
40
1
41
1
10
68.4574302051273
20
-5.37243369185035
30
0
41
1
10
68.4733008421184
20
-5.37057821599433
30
0
0
SPLINE
5
1A3
100
AcDbEntity
8
SK1
62
256
6
ByLayer
370
18
48
1
60
0
100
AcDbSpline
70
4
71
3
72
13
73
9
40
0
40
0
40
0
40
0
40
0.239456136997429
40
0.36835972341713
40
0.499998985516763
40
0.631638416576521
40
0.760542468702458
40
1
40
1
40
1
40
1
41
1
10
-1.69999999999999
20
-14.0200984156386
30
0
41
1
10
-1.6990919864528
20
-13.9940409390257
30
0
41
1
10
-1.69103284110329
20
-13.9566683539303
30
0
41
1
10
-1.6656359220564
20
-13.9104491790264
30
0
41
1
10
-1.63886378681673
20
-13.8791676243503
30
0
41
1
10
-1.60627712752267
20
-13.8540002532835
30
0
41
1
10
-1.5588406423667
20
-13.830956449625
30
0
41
1
10
-1.52111030874423
20
-13.8247841935567
30
0
41
1
10
-1.49503997793931
20
-13.8251858327438
30
0
0
SPLINE
5
1A4
100
AcDbEntity
8
SK1
62
256
6
ByLayer
370
18
48
1
60
0
100
AcDbSpline
70
4
71
3
72
13
73
9
40
0
40
0
40
0
40
0
40
0.239457531275265
40
0.368361583394607
40
0.500001014452623
40
0.631640276555309
40
0.7605438629823
40
1
40
1
40
1
40
1
41
1
10
-1.49503997793928
20
13.8251858293361
30
0
41
1
10
-1.52111030874494
20
13.8247841901528
30
0
41
1
10
-1.55884064236801
20
13.8309564462264
30
0
41
1
10
-1.60627712752338
20
13.8540002498916
30
0
41
1
10
-1.63886378681735
20
13.8791676209636
30
0
41
1
10
-1.66563592205679
20
13.9104491756452
30
0
41
1
10
-1.69103284110355
20
13.9566683505561
30
0
41
1
10
-1.69909198645305
20
13.9940409356568
30
0
41
1
10
-1.69999999999999
20
14.0200984122732
30
0
0
SPLINE
5
1A5
100
AcDbEntity
8
SK1
62
256
6
ByLayer
370
18
48
1
60
0
100
AcDbSpline
70
4
71
2
72
6
73
3
40
0
40
0
40
0
40
1
40
1
40
1
41
1
10
-24
20
-12.6310964932104
30
0
41
1
10
-23.2499999989322
20
-13.0640911753538
30
0
41
1
10
-22.5
20
-13.4970856697526
30
0
0
SPLINE
5
1A6
100
AcDbEntity
8
SK1
62
256
6
ByLayer
370
18
48
1
60
0
100
AcDbSpline
70
4
71
2
72
6
73
3
40
0
40
0
40
0
40
1
40
1
40
1
41
1
10
-22.5
20
13.4970852847173
30
0
41
1
10
-23.2499999989318
20
13.0640908004416
30
0
41
1
10
-24
20
12.6310961283886
30
0
0
SPLINE
5
1A7
100
AcDbEntity
8
1
62
256
6
ByLayer
370
18
48
1
60
0
100
AcDbSpline
70
4
71
2
72
6
73
3
40
0
40
0
40
0
40
1
40
1
40
1
41
1
10
68.4314197850058
20
-2.59343177231887
30
0
41
1
10
68.4315653554826
20
-4.00092033692567
30
0
41
1
10
68.4733008421184
20
-5.37057821599433
30
0
0
SPLINE
5
1A8
100
AcDbEntity
8
1
62
256
6
ByLayer
370
18
48
1
60
0
100
AcDbSpline
70
4
71
2
72
6
73
3
40
0
40
0
40
0
40
1
40
1
40
1
41
1
10
68.4314197850058
20
-2.59343177231887
30
0
41
1
10
68.4315653554826
20
-4.00092033692567
30
0
41
1
10
68.4733008421184
20
-5.37057821599433
30
0
0
SPLINE
5
1A9
100
AcDbEntity
8
SK1
62
256
6
ByLayer
370
18
48
1
60
0
100
AcDbSpline
70
4
71
2
72
6
73
3
40
0
40
0
40
0
40
1
40
1
40
1
41
1
10
-1.49503997793931
20
-13.7129410868415
30
0
41
1
10
-0.945008433407281
20
-13.7266599565278
30
0
41
1
10
-0.394976888875306
20
-13.7403788260776
30
0
0
SPLINE
5
1AA
100
AcDbEntity
8
SK1
62
256
6
ByLayer
370
18
48
1
60
0
100
AcDbSpline
70
4
71
2
72
6
73
3
40
0
40
0
40
0
40
1
40
1
40
1
41
1
10
-0.394976888875306
20
13.740379899128
30
0
41
1
10
-0.945008433407281
20
13.7266611372792
30
0
41
1
10
-1.49503997793928
20
13.7129423752897
30
0
0
SPLINE
5
1AB
100
AcDbEntity
8
1
62
256
6
ByLayer
370
18
48
1
60
0
100
AcDbSpline
70
4
71
3
72
8
73
4
40
0
40
0
40
0
40
0
40
1
40
1
40
1
40
1
41
1
10
60.5583665739374
20
0.686927602967501
30
0
41
1
10
60.1577906950694
20
0.686927602967501
30
0
41
1
10
59.7572148162013
20
0.686927602967501
30
0
41
1
10
59.3566389373333
20
0.686927602967501
30
0
0
SPLINE
5
1AC
100
AcDbEntity
8
SK1
62
256
6
ByLayer
370
18
48
1
60
0
100
AcDbSpline
70
4
71
3
72
8
73
4
40
0
40
0
40
0
40
0
40
1
40
1
40
1
40
1
41
1
10
-1.49503997794182
20
-2.59465115080906
30
0
41
1
10
-1.43729564430123
20
-2.94660231503167
30
0
41
1
10
-1.37345704406019
20
-3.29127575595925
30
0
41
1
10
-1.30710678118766
20
-3.62781610099944
30
0
0
SPLINE
5
1AD
100
AcDbEntity
8
SK1
62
256
6
ByLayer
370
18
48
1
60
0
100
AcDbSpline
70
4
71
3
72
22
73
18
40
0
40
0
40
0
40
0
40
0.0262443259631621
40
0.0262443259631621
40
0.0530261953237555
40
0.0530261953237555
40
0.071356141713763
40
0.071356141713763
40
0.0895876717321594
40
0.0895876717321594
40
0.119482760569272
40
0.119482760569272
40
0.178619847888697
40
0.178619847888697
40
0.38802524376931
40
0.38802524376931
40
1
40
1
40
1
40
1
41
1
10
-0.394976888875306
20
-13.8446019297682
30
0
41
1
10
-0.389542940031561
20
-13.8449158599001
30
0
41
1
10
-0.383617593481006
20
-13.8454439659091
30
0
41
1
10
-0.370682577094897
20
-13.847185676574
30
0
41
1
10
-0.363425095790518
20
-13.8484584409772
30
0
41
1
10
-0.350979043087193
20
-13.8513238322133
30
0
41
1
10
-0.345738104843406
20
-13.8527220431424
30
0
41
1
10
-0.335836036111402
20
-13.8557300394867
30
0
41
1
10
-0.331061234651429
20
-13.8573680363077
30
0
41
1
10
-0.319536857691617
20
-13.8617043765564
30
0
41
1
10
-0.313226439154875
20
-13.8644842406524
30
0
41
1
10
-0.296825865103983
20
-13.8724174982475
30
0
41
1
10
-0.288454852011284
20
-13.8774557840676
30
0
41
1
10
-0.256352537857253
20
-13.8987262995108
30
0
41
1
10
-0.243999907013659
20
-13.9124642192994
30
0
41
1
10
-0.204596917519382
20
-13.9605471889768
30
0
41
1
10
-0.199999999999989
20
-13.9849787272996
30
0
41
1
10
-0.199999999999989
20
-14.0034375364995
30
0
0
SPLINE
5
1AE
100
AcDbEntity
8
1
62
256
6
ByLayer
370
18
48
1
60
0
100
AcDbSpline
70
4
71
3
72
18
73
14
40
0
40
0
40
0
40
0
40
0.144086644560484
40
0.144086644560484
40
0.287731062505112
40
0.287731062505112
40
0.456860780407667
40
0.456860780407667
40
0.627194363444231
40
0.627194363444231
40
0.795871414023976
40
0.795871414023976
40
1
40
1
40
1
40
1
41
1
10
59.4693009032649
20
-0.476336658992068
30
0
41
1
10
59.5131138900161
20
-0.53364031721668
30
0
41
1
10
59.5783862988495
20
-0.580915835251972
30
0
41
1
10
59.7480126840282
20
-0.655296272355258
30
0
41
1
10
59.8466290748772
20
-0.673317984139146
30
0
41
1
10
60.0880475733022
20
-0.673317984139146
30
0
41
1
10
60.2016036818206
20
-0.646815042210278
30
0
41
1
10
60.3936311975167
20
-0.538988288627763
30
0
41
1
10
60.4609050319807
20
-0.465592223074964
30
0
41
1
10
60.5392069671421
20
-0.275984055735535
30
0
41
1
10
60.5583665739374
20
-0.138961371194682
30
0
41
1
10
60.5583665739374
20
0.255240044342145
30
0
41
1
10
60.5583665739374
20
0.471083823654851
30
0
41
1
10
60.5583665739374
20
0.686927602967501
30
0
0
SPLINE
5
1AF
100
AcDbEntity
8
SK1
62
256
6
ByLayer
370
18
48
1
60
0
100
AcDbSpline
70
4
71
3
72
126
73
122
40
0
40
0
40
0
40
0
40
0.0016366483114686
40
0.0089804995443437
40
0.0163243507772188
40
0.023668202010094
40
0.0310120532429691
40
0.0383559044758442
40
0.0456997557087194
40
0.0530436069415945
40
0.0603874581744696
40
0.0677313094073448
40
0.0750751606402199
40
0.082419011873095
40
0.0897628631059701
40
0.0971067143388453
40
0.10445056557172
40
0.111794416804595
40
0.119138268037471
40
0.126482119270346
40
0.133825970503221
40
0.141169821736096
40
0.148513672968971
40
0.163201375434721
40
0.177889077900472
40
0.192576780366222
40
0.207264482831972
40
0.214608334064847
40
0.221952185297723
40
0.229296036530598
40
0.236639887763473
40
0.251327590229223
40
0.266015292694973
40
0.273359143927848
40
0.280702995160724
40
0.288046846393599
40
0.295390697626474
40
0.302734548859349
40
0.310078400092224
40
0.324766102557974
40
0.33210995379085
40
0.339453805023725
40
0.354141507489475
40
0.368829209955225
40
0.3761730611881
40
0.383516912420975
40
0.398204614886726
40
0.405548466119601
40
0.409220391736038
40
0.412892317352476
40
0.420236168585351
40
0.427580019818226
40
0.442267722283976
40
0.449611573516852
40
0.456955424749727
40
0.464299275982602
40
0.471643127215477
40
0.478986978448352
40
0.486330829681227
40
0.493674680914102
40
0.501018532146977
40
0.508362383379853
40
0.515706234612728
40
0.530393937078478
40
0.537737788311353
40
0.545081639544228
40
0.552425490777103
40
0.556097416393541
40
0.559769342009979
40
0.567113193242854
40
0.574457044475729
40
0.581800895708604
40
0.589144746941479
40
0.596488598174354
40
0.603832449407229
40
0.61852015187298
40
0.63320785433873
40
0.640551705571605
40
0.64789555680448
40
0.66258325927023
40
0.669927110503105
40
0.677270961735981
40
0.684614812968856
40
0.691958664201731
40
0.699302515434606
40
0.706646366667481
40
0.713990217900356
40
0.721334069133231
40
0.736021771598982
40
0.743365622831857
40
0.750709474064732
40
0.758053325297607
40
0.765397176530482
40
0.772741027763357
40
0.780084878996232
40
0.794772581461983
40
0.802116432694858
40
0.809460283927733
40
0.816804135160608
40
0.824147986393483
40
0.838835688859233
40
0.853523391324984
40
0.868211093790734
40
0.875554945023609
40
0.882898796256484
40
0.890242647489359
40
0.897586498722235
40
0.90493034995511
40
0.912274201187985
40
0.91961805242086
40
0.926961903653735
40
0.93430575488661
40
0.941649606119485
40
0.948993457352361
40
0.956337308585235
40
0.963681159818111
40
0.971025011050986
40
0.978368862283861
40
0.985712713516736
40
0.993056564749611
40
1
40
1
40
1
40
1
41
1
10
-1.49503997793928
20
2.5946511583831
30
0
41
1
10
-1.49503997793928
20
2.60647323876151
30
0
41
1
10
-1.49503997793931
20
2.67130381064959
30
0
41
1
10
-1.49503997793931
20
2.78881794429316
30
0
41
1
10
-1.49503997793931
20
2.94652918151195
30
0
41
1
10
-1.49503997793931
20
3.1033357799555
30
0
41
1
10
-1.49503997793931
20
3.25922165821993
30
0
41
1
10
-1.49503997793931
20
3.41417271020583
30
0
41
1
10
-1.49503997793931
20
3.56817690176541
30
0
41
1
10
-1.49503997793931
20
3.7212231412766
30
0
41
1
10
-1.49503997793931
20
3.87330192992579
30
0
41
1
10
-1.49503997793931
20
4.02440432752809
30
0
41
1
10
-1.49503997793931
20
4.17452288947305
30
0
41
1
10
-1.49503997793931
20
4.32365113214263
30
0
41
1
10
-1.49503997793931
20
4.47178260268981
30
0
41
1
10
-1.49503997793931
20
4.61891156596767
30
0
41
1
10
-1.49503997793931
20
4.76503324286352
30
0
41
1
10
-1.49503997793931
20
4.91014315579861
30
0
41
1
10
-1.49503997793931
20
5.05423706888553
30
0
41
1
10
-1.49503997793931
20
5.19731095553271
30
0
41
1
10
-1.49503997793931
20
5.33936157753732
30
0
41
1
10
-1.49503997793931
20
5.48038541909949
30
0
41
1
10
-1.49503997793931
20
5.66717892097086
30
0
41
1
10
-1.49503997793931
20
5.89779783511921
30
0
41
1
10
-1.49503997793931
20
6.17053536578157
30
0
41
1
10
-1.49503997793931
20
6.43910149333703
30
0
41
1
10
-1.49503997793931
20
6.6592985841524
30
0
41
1
10
-1.49503997793931
20
6.83355373772451
30
0
41
1
10
-1.49503997793931
20
6.96311018452548
30
0
41
1
10
-1.49503997793931
20
7.09160986883529
30
0
41
1
10
-1.49503997793931
20
7.26163681175797
30
0
41
1
10
-1.49503997793931
20
7.47128766686797
30
0
41
1
10
-1.49503997793931
20
7.67738589461936
30
0
41
1
10
-1.49503997793931
20
7.84029852533041
30
0
41
1
10
-1.49503997793931
20
7.96134016006346
30
0
41
1
10
-1.49503997793931
20
8.08130642958628
30
0
41
1
10
-1.49503997793931
20
8.20019570647173
30
0
41
1
10
-1.49503997793931
20
8.31800483202284
30
0
41
1
10
-1.49503997793931
20
8.47372854841302
30
0
41
1
10
-1.49503997793931
20
8.62702158956
30
0
41
1
10
-1.49503997793931
20
8.77838738443313
30
0
41
1
10
-1.49503997793931
20
8.9282953771297
30
0
41
1
10
-1.49503997793931
20
9.11275363063515
30
0
41
1
10
-1.49503997793931
20
9.29353602958128
30
0
41
1
10
-1.49503997793931
20
9.43608246295526
30
0
41
1
10
-1.49503997793931
20
9.57714511427093
30
0
41
1
10
-1.49503997793931
20
9.71574944153571
30
0
41
1
10
-1.49503997793931
20
9.83522786489038
30
0
41
1
10
-1.49503997793931
20
9.90295235506755
30
0
41
1
10
-1.49503997793931
20
9.97030026745779
30
0
41
1
10
-1.49503997793931
20
10.0536983054632
30
0
41
1
10
-1.49503997793931
20
10.1857467684219
30
0
41
1
10
-1.49503997793931
20
10.3153089364435
30
0
41
1
10
-1.49503997793931
20
10.4427777751693
30
0
41
1
10
-1.49503997793931
20
10.5371758780398
30
0
41
1
10
-1.49503997793931
20
10.6304166849825
30
0
41
1
10
-1.49503997793931
20
10.7224950378189
30
0
41
1
10
-1.49503997793931
20
10.8134057967923
30
0
41
1
10
-1.49503997793931
20
10.9031442025602
30
0
41
1
10
-1.49503997793931
20
10.9917054044732
30
0
41
1
10
-1.49503997793931
20
11.0790834423826
30
0
41
1
10
-1.49503997793931
20
11.1652732784127
30
0
41
1
10
-1.49503997793931
20
11.278660103453
30
0
41
1
10
-1.49503997793931
20
11.3894728900619
30
0
41
1
10
-1.49503997793931
20
11.4980348993556
30
0
41
1
10
-1.49503997793931
20
11.5781957241672
30
0
41
1
10
-1.49503997793931
20
11.643948764099
30
0
41
1
10
-1.49503997793931
20
11.6959849101866
30
0
41
1
10
-1.49503997793931
20
11.7476093345099
30
0
41
1
10
-1.49503997793931
20
11.8113057028001
30
0
41
1
10
-1.49503997793931
20
11.8865286504803
30
0
41
1
10
-1.49503997793931
20
11.9605000871413
30
0
41
1
10
-1.49503997793931
20
12.0332119345842
30
0
41
1
10
-1.49503997793931
20
12.1046570208051
30
0
41
1
10
-1.49503997793931
20
12.1982668977617
30
0
41
1
10
-1.49503997793931
20
12.3119621458456
30
0
41
1
10
-1.49503997793931
20
12.4213295833849
30
0
41
1
10
-1.49503997793931
20
12.50627175547
30
0
41
1
10
-1.49503997793931
20
12.5894449005115
30
0
41
1
10
-1.49503997793931
20
12.6698142834541
30
0
41
1
10
-1.49503997793931
20
12.74760324418
30
0
41
1
10
-1.49503997793931
20
12.8045464062654
30
0
41
1
10
-1.49503997793931
20
12.860113205584
30
0
41
1
10
-1.49503997793931
20
12.9142925944038
30
0
41
1
10
-1.49503997793931
20
12.9670724273822
30
0
41
1
10
-1.49503997793931
20
13.0184419638583
30
0
41
1
10
-1.49503997793931
20
13.0683888145289
30
0
41
1
10
-1.49503997793931
20
13.1331066142243
30
0
41
1
10
-1.49503997793931
20
13.1948224098965
30
0
41
1
10
-1.49503997793931
20
13.2536925499095
30
0
41
1
10
-1.49503997793931
20
13.2963307178616
30
0
41
1
10
-1.49503997793931
20
13.3374647662751
30
0
41
1
10
-1.49503997793931
20
13.3770798968994
30
0
41
1
10
-1.49503997793931
20
13.4151607370273
30
0
41
1
10
-1.49503997793931
20
13.463896234107
30
0
41
1
10
-1.49503997793931
20
13.509413016618
30
0
41
1
10
-1.49503997793931
20
13.5518061457236
30
0
41
1
10
-1.49503997793931
20
13.5819600687286
30
0
41
1
10
-1.49503997793931
20
13.6104729008558
30
0
41
1
10
-1.49503997793931
20
13.6462985077496
30
0
41
1
10
-1.49503997793931
20
13.6868269300449
30
0
41
1
10
-1.49503997793931
20
13.7285859139399
30
0
41
1
10
-1.49503997793931
20
13.7574597557179
30
0
41
1
10
-1.49503997793931
20
13.7769347476405
30
0
41
1
10
-1.49503997793931
20
13.7896781830989
30
0
41
1
10
-1.49503997793931
20
13.8005402090708
30
0
41
1
10
-1.49503997793931
20
13.8094909095343
30
0
41
1
10
-1.49503997793931
20
13.8164982902869
30
0
41
1
10
-1.49503997793931
20
13.8215305966481
30
0
41
1
10
-1.49503997793931
20
13.8245539604949
30
0
41
1
10
-1.49503997793931
20
13.8255323712897
30
0
41
1
10
-1.49503997793931
20
13.8244272746326
30
0
41
1
10
-1.49503997793931
20
13.8211992752721
30
0
41
1
10
-1.49503997793931
20
13.8158072842266
30
0
41
1
10
-1.49503997793931
20
13.808208301662
30
0
41
1
10
-1.49503997793931
20
13.7983568536387
30
0
41
1
10
-1.49503997793931
20
13.7862048388089
30
0
41
1
10
-1.49503997793931
20
13.7717019129112
30
0
41
1
10
-1.49503997793931
20
13.7547954355729
30
0
41
1
10
-1.49503997793931
20
13.7357814264876
30
0
41
1
10
-1.49503997793931
20
13.7216348215441
30
0
41
1
10
-1.49503997793931
20
13.7143760078671
30
0
0
SPLINE
5
1B0
100
AcDbEntity
8
1
62
256
6
ByLayer
370
18
48
1
60
0
100
AcDbSpline
70
4
71
3
72
16
73
12
40
0
40
0
40
0
40
0
40
0.114691258188368
40
0.114691258188368
40
0.256006982052501
40
0.256006982052501
40
0.478481509698452
40
0.478481509698452
40
0.904237458570162
40
0.904237458570162
40
1
40
1
40
1
40
1
41
1
10
6.9232050807569
20
-5.85988980456938
30
0
41
1
10
6.90623920058414
20
-5.85988980456938
30
0
41
1
10
6.88906253212411
20
-5.8629683550426
30
0
41
1
10
6.85346109846188
20
-5.87527238052309
30
0
41
1
10
6.83507168736793
20
-5.88582364044447
30
0
41
1
10
6.79305201772166
20
-5.91775860341619
30
0
41
1
10
6.77140364934789
20
-5.94228809980598
30
0
41
1
10
6.71814486104421
20
-6.01773563791647
30
0
41
1
10
6.69359399943795
20
-6.07398601286491
30
0
41
1
10
6.67087946572559
20
-6.14371014971232
30
0
41
1
10
6.66699503410797
20
-6.15668833929709
30
0
41
1
10
6.66339745962154
20
-6.16973001948566
30
0
0
SPLINE
5
1B1
100
AcDbEntity
8
1
62
256
6
ByLayer
370
18
48
1
60
0
100
AcDbSpline
70
4
71
3
72
34
73
30
40
0
40
0
40
0
40
0
40
0.0463229326255206
40
0.0463229326255206
40
0.0927055511673482
40
0.0927055511673482
40
0.138113926871991
40
0.138113926871991
40
0.205551558601302
40
0.205551558601302
40
0.304976957374116
40
0.304976957374116
40
0.461892258344797
40
0.461892258344797
40
0.684511041568108
40
0.684511041568108
40
0.764651268365593
40
0.764651268365593
40
0.858632579524954
40
0.858632579524954
40
0.896408472947959
40
0.896408472947959
40
0.934833983995244
40
0.934833983995244
40
0.962982645454327
40
0.962982645454327
40
0.990999076848103
40
0.990999076848103
40
1
40
1
40
1
40
1
41
1
10
59
20
-11.1865338900488
30
0
41
1
10
59.0912199357903
20
-11.163981978205
30
0
41
1
10
59.189452925588
20
-11.1511024791146
30
0
41
1
10
59.384132021423
20
-11.1490370735096
30
0
41
1
10
59.483076045971
20
-11.1598676080605
30
0
41
1
10
59.6659243433728
20
-11.2011568933971
30
0
41
1
10
59.7522777137539
20
-11.2315120370498
30
0
41
1
10
59.9455438154037
20
-11.3220504777823
30
0
41
1
10
60.0458115973174
20
-11.390735840863
30
0
41
1
10
60.2512599455243
20
-11.5727790224825
30
0
41
1
10
60.3413306677149
20
-11.6949661494023
30
0
41
1
10
60.5065484678453
20
-12.0081074152529
30
0
41
1
10
60.5483172192975
20
-12.20469940149
30
0
41
1
10
60.5522596666414
20
-12.6492681287868
30
0
41
1
10
60.4766065815084
20
-12.8948262167543
30
0
41
1
10
60.2770183043926
20
-13.18536148129
30
0
41
1
10
60.2135556792134
20
-13.2593387566139
30
0
41
1
10
60.048371808191
20
-13.4083572653365
30
0
41
1
10
59.9412316998148
20
-13.4833836095451
30
0
41
1
10
59.7487573952165
20
-13.5682466989969
30
0
41
1
10
59.6874378886225
20
-13.5904796051595
30
0
41
1
10
59.5521506767023
20
-13.626321363174
30
0
41
1
10
59.4758366939834
20
-13.6401019370288
30
0
41
1
10
59.3387023265806
20
-13.6507627991183
30
0
41
1
10
59.2778149980362
20
-13.6511765440381
30
0
41
1
10
59.1609764841228
20
-13.6436204079539
30
0
41
1
10
59.1037089941942
20
-13.6356805040164
30
0
41
1
10
59.0333880291017
20
-13.6213627318672
30
0
41
1
10
59.0165050956345
20
-13.6175465936579
30
0
41
1
10
59
20
-13.6134661099512
30
0
0
SPLINE
5
1B2
100
AcDbEntity
8
1
62
256
6
ByLayer
370
18
48
1
60
0
100
AcDbSpline
70
4
71
3
72
12
73
8
40
0
40
0
40
0
40
0
40
0.0182540401635473
40
0.0182540401635473
40
0.509127020081774
40
0.509127020081774
40
1
40
1
40
1
40
1
41
1
10
59.924367156897
20
-1.05707266783378
30
0
41
1
10
59.9318983411845
20
-1.05719252836121
30
0
41
1
10
59.9394544770145
20
-1.05725249424404
30
0
41
1
10
60.1509000741678
20
-1.05725249424404
30
0
41
1
10
60.3270461637593
20
-1.01140956766437
30
0
41
1
10
60.6256897877368
20
-0.829470452801218
30
0
41
1
10
60.7311986129744
20
-0.69910463034023
30
0
41
1
10
60.7937885940476
20
-0.530058838577645
30
0
0
SPLINE
5
1B3
100
AcDbEntity
8
1
62
256
6
ByLayer
370
18
48
1
60
0
100
AcDbSpline
70
4
71
3
72
16
73
12
40
0
40
0
40
0
40
0
40
0.114691258188367
40
0.114691258188367
40
0.256006982052497
40
0.256006982052497
40
0.478481509698433
40
0.478481509698433
40
0.904237458570125
40
0.904237458570125
40
1
40
1
40
1
40
1
41
1
10
9.07679491924313
20
5.85988980456938
30
0
41
1
10
9.09376079941586
20
5.85988980456938
30
0
41
1
10
9.11093746787589
20
5.8629683550426
30
0
41
1
10
9.14653890153815
20
5.87527238052314
30
0
41
1
10
9.1649283126321
20
5.88582364044447
30
0
41
1
10
9.20694798227834
20
5.91775860341619
30
0
41
1
10
9.22859635065214
20
5.94228809980598
30
0
41
1
10
9.28185513895579
20
6.01773563791647
30
0
41
1
10
9.30640600056208
20
6.07398601286491
30
0
41
1
10
9.32912053427441
20
6.14371014971232
30
0
41
1
10
9.33300496589203
20
6.15668833929709
30
0
41
1
10
9.33660254037846
20
6.16973001948571
30
0
0
SPLINE
5
1B4
100
AcDbEntity
8
1
62
256
6
ByLayer
370
18
48
1
60
0
100
AcDbSpline
70
4
71
3
72
22
73
18
40
0
40
0
40
0
40
0
40
0.0351065469420386
40
0.0351065469420386
40
0.0699661121239449
40
0.0699661121239449
40
0.130881003009989
40
0.130881003009989
40
0.248968774937991
40
0.248968774937991
40
0.487028280134993
40
0.487028280134993
40
0.741702471706808
40
0.741702471706808
40
0.882325935462118
40
0.882325935462118
40
1
40
1
40
1
40
1
41
1
10
59
20
-13.6134661099512
30
0
41
1
10
58.9422977546627
20
-13.5992006323583
30
0
41
1
10
58.8839116777658
20
-13.5801588699985
30
0
41
1
10
58.7759644241951
20
-13.536340017059
30
0
41
1
10
58.7250612203088
20
-13.5111998995802
30
0
41
1
10
58.5988849391021
20
-13.4389680127255
30
0
41
1
10
58.5307775667156
20
-13.3883128301703
30
0
41
1
10
58.3610370868685
20
-13.238508254005
30
0
41
1
10
58.2814298829785
20
-13.1345396791857
30
0
41
1
10
58.0987800700382
20
-12.8218261600136
30
0
41
1
10
58.047833888413
20
-12.6038705188232
30
0
41
1
10
58.0524498314784
20
-12.1557088127141
30
0
41
1
10
58.118054451258
20
-11.9178870173953
30
0
41
1
10
58.3425439793083
20
-11.5836035515602
30
0
41
1
10
58.4489620578107
20
-11.4693757783173
30
0
41
1
10
58.7001444201688
20
-11.2945326417383
30
0
41
1
10
58.8390323071879
20
-11.2263292394597
30
0
41
1
10
58.9999999999989
20
-11.1865338900491
30
0
0
SPLINE
5
1B5
100
AcDbEntity
8
1
62
256
6
ByLayer
370
18
48
1
60
0
100
AcDbSpline
70
4
71
3
72
16
73
12
40
0
40
0
40
0
40
0
40
0.464304267159296
40
0.464304267159296
40
0.647533485141966
40
0.647533485141966
40
0.83338367586052
40
0.83338367586052
40
0.950238074309839
40
0.950238074309839
40
1
40
1
40
1
40
1
41
1
10
6.66339745962154
20
-19.0245744101322
30
0
41
1
10
6.68070356543041
20
-19.0449201888242
30
0
41
1
10
6.70445583204739
20
-19.0647708693882
30
0
41
1
10
6.75332706552712
20
-19.0892734034402
30
0
41
1
10
6.76920288341029
20
-19.0959253431034
30
0
41
1
10
6.80605435144611
20
-19.1078085849621
30
0
41
1
10
6.82759190740046
20
-19.1131587398644
30
0
41
1
10
6.86713065155234
20
-19.1192406569511
30
0
41
1
10
6.88386474465563
20
-19.1209710216544
30
0
41
1
10
6.90829201976607
20
-19.1221075563677
30
0
41
1
10
6.91575967688851
20
-19.1222825906926
30
0
41
1
10
6.9232050807569
20
-19.1222825906926
30
0
0
SPLINE
5
1B6
100
AcDbEntity
8
SK1
62
256
6
ByLayer
370
18
48
1
60
0
100
AcDbSpline
70
4
71
3
72
116
73
112
40
0
40
0
40
0
40
0
40
0.007523671910144
40
0.0155476301567899
40
0.0235715884034358
40
0.0315955466500816
40
0.0396195048967275
40
0.0476434631433734
40
0.0556674213900193
40
0.0636913796366651
40
0.071715337883311
40
0.0797392961299569
40
0.0957872126232486
40
0.103811170869894
40
0.11183512911654
40
0.119859087363186
40
0.127883045609832
40
0.143930962103124
40
0.15195492034977
40
0.159978878596416
40
0.168002836843061
40
0.176026795089707
40
0.184050753336353
40
0.192074711582999
40
0.208122628076291
40
0.216146586322937
40
0.224170544569583
40
0.232194502816228
40
0.240218461062874
40
0.24824241930952
40
0.256266377556166
40
0.264290335802812
40
0.272314294049458
40
0.28836221054275
40
0.296386168789396
40
0.304410127036041
40
0.320458043529333
40
0.336505960022625
40
0.344529918269271
40
0.352553876515917
40
0.360577834762563
40
0.368601793009208
40
0.376625751255854
40
0.3846497095025
40
0.388661688625823
40
0.392673667749146
40
0.400697625995792
40
0.408721584242438
40
0.416745542489084
40
0.432793458982375
40
0.440817417229021
40
0.448841375475667
40
0.456865333722313
40
0.464889291968959
40
0.472913250215605
40
0.480937208462251
40
0.488961166708897
40
0.496985124955542
40
0.505009083202188
40
0.513033041448834
40
0.529080957942126
40
0.537104916188772
40
0.545128874435418
40
0.549140853558741
40
0.553152832682064
40
0.561176790928709
40
0.577224707422001
40
0.585248665668647
40
0.593272623915293
40
0.609320540408585
40
0.625368456901876
40
0.633392415148522
40
0.641416373395168
40
0.65746428988846
40
0.665488248135106
40
0.673512206381752
40
0.681536164628398
40
0.689560122875043
40
0.697584081121689
40
0.705608039368335
40
0.721655955861627
40
0.737703872354919
40
0.745727830601565
40
0.75375178884821
40
0.761775747094856
40
0.769799705341502
40
0.785847621834794
40
0.801895538328086
40
0.817943454821377
40
0.833991371314669
40
0.842015329561315
40
0.850039287807961
40
0.858063246054607
40
0.866087204301253
40
0.874111162547899
40
0.882135120794544
40
0.89015907904119
40
0.898183037287836
40
0.906206995534482
40
0.914230953781128
40
0.922254912027774
40
0.93027887027442
40
0.938302828521066
40
0.946326786767711
40
0.954350745014357
40
0.962374703261003
40
0.970398661507649
40
0.978422619754295
40
0.986446578000941
40
0.994470536247587
40
1
40
1
40
1
40
1
41
1
10
-1.69999999999999
20
-14.0157960319671
30
0
41
1
10
-1.70000000000005
20
-14.0144803677111
30
0
41
1
10
-1.69999999999999
20
-14.0111456740939
30
0
41
1
10
-1.69999999999999
20
-14.0041924220526
30
0
41
1
10
-1.69999999999999
20
-13.9951249982352
30
0
41
1
10
-1.69999999999999
20
-13.9841238377961
30
0
41
1
10
-1.69999999999999
20
-13.9712195410174
30
0
41
1
10
-1.69999999999999
20
-13.9564420504847
30
0
41
1
10
-1.69999999999999
20
-13.9398197437578
30
0
41
1
10
-1.69999999999999
20
-13.9213794981547
30
0
41
1
10
-1.69999999999999
20
-13.9011479145568
30
0
41
1
10
-1.69999999999999
20
-13.8718187984145
30
0
41
1
10
-1.69999999999999
20
-13.8389980176943
30
0
41
1
10
-1.69999999999999
20
-13.8027899277569
30
0
41
1
10
-1.69999999999999
20
-13.7739560268625
30
0
41
1
10
-1.69999999999999
20
-13.7434661079966
30
0
41
1
10
-1.69999999999999
20
-13.7006353167884
30
0
41
1
10
-1.69999999999999
20
-13.6545611570252
30
0
41
1
10
-1.69999999999999
20
-13.6053356175565
30
0
41
1
10
-1.69999999999999
20
-13.5668499598694
30
0
41
1
10
-1.69999999999999
20
-13.5268172136993
30
0
41
1
10
-1.69999999999999
20
-13.4852529409442
30
0
41
1
10
-1.69999999999999
20
-13.4421723383994
30
0
41
1
10
-1.69999999999999
20
-13.382734448188
30
0
41
1
10
-1.69999999999999
20
-13.3203101272292
30
0
41
1
10
-1.69999999999999
20
-13.2549799687684
30
0
41
1
10
-1.69999999999999
20
-13.2045321176789
30
0
41
1
10
-1.69999999999999
20
-13.1526505331688
30
0
41
1
10
-1.69999999999999
20
-13.0993474417035
30
0
41
1
10
-1.69999999999999
20
-13.0446338377524
30
0
41
1
10
-1.69999999999999
20
-12.9885221046097
30
0
41
1
10
-1.69999999999999
20
-12.9310230820619
30
0
41
1
10
-1.69999999999999
20
-12.8525264302737
30
0
41
1
10
-1.69999999999999
20
-12.7712834981638
30
0
41
1
10
-1.69999999999999
20
-12.687362440577
30
0
41
1
10
-1.69999999999999
20
-12.6016599065257
30
0
41
1
10
-1.69999999999999
20
-12.4912006631364
30
0
41
1
10
-1.69999999999999
20
-12.3763763795169
30
0
41
1
10
-1.69999999999999
20
-12.2819407102378
30
0
41
1
10
-1.69999999999999
20
-12.209824831333
30
0
41
1
10
-1.69999999999999
20
-12.1364317035572
30
0
41
1
10
-1.69999999999999
20
-12.0617686735772
30
0
41
1
10
-1.69999999999999
20
-11.9858436943514
30
0
41
1
10
-1.69999999999999
20
-11.9215236271769
30
0
41
1
10
-1.69999999999999
20
-11.869448828233
30
0
41
1
10
-1.69999999999999
20
-11.8169591619061
30
0
41
1
10
-1.69999999999999
20
-11.7505641463283
30
0
41
1
10
-1.69999999999999
20
-11.6696587897978
30
0
41
1
10
-1.69999999999999
20
-11.5601529310587
30
0
41
1
10
-1.69999999999999
20
-11.4481829097131
30
0
41
1
10
-1.69999999999999
20
-11.3338110691597
30
0
41
1
10
-1.69999999999999
20
-11.2468221981049
30
0
41
1
10
-1.69999999999999
20
-11.1586337774266
30
0
41
1
10
-1.69999999999999
20
-11.069250952524
30
0
41
1
10
-1.69999999999999
20
-10.9786794570573
30
0
41
1
10
-1.69999999999999
20
-10.8869237943964
30
0
41
1
10
-1.69999999999999
20
-10.7939888545435
30
0
41
1
10
-1.69999999999999
20
-10.6998796625668
30
0
41
1
10
-1.69999999999999
20
-10.6046008653873
30
0
41
1
10
-1.69999999999999
20
-10.4760157822056
30
0
41
1
10
-1.69999999999999
20
-10.3450861597474
30
0
41
1
10
-1.69999999999999
20
-10.2118742978004
30
0
41
1
10
-1.69999999999999
20
-10.127650582945
30
0
41
1
10
-1.69999999999999
20
-10.059706595653
30
0
41
1
10
-1.69999999999999
20
-9.99138145148612
30
0
41
1
10
-1.69999999999999
20
-9.87081045044334
30
0
41
1
10
-1.69999999999999
20
-9.73071863089592
30
0
41
1
10
-1.69999999999999
20
-9.58839009925038
30
0
41
1
10
-1.69999999999999
20
-9.44455857133374
30
0
41
1
10
-1.69999999999999
20
-9.26193699842014
30
0
41
1
10
-1.69999999999999
20
-9.07558728630886
30
0
41
1
10
-1.69999999999999
20
-8.92429762219672
30
0
41
1
10
-1.69999999999999
20
-8.77152769372714
30
0
41
1
10
-1.69999999999999
20
-8.61651163422607
30
0
41
1
10
-1.69999999999999
20
-8.45931946186533
30
0
41
1
10
-1.69999999999999
20
-8.34031608257322
30
0
41
1
10
-1.69999999999999
20
-8.22021382021137
30
0
41
1
10
-1.69999999999999
20
-8.09901466976936
30
0
41
1
10
-1.69999999999999
20
-7.97672004102668
30
0
41
1
10
-1.69999999999999
20
-7.8122141211507
30
0
41
1
10
-1.69999999999999
20
-7.60382757721294
30
0
41
1
10
-1.69999999999999
20
-7.391814483107
30
0
41
1
10
-1.69999999999999
20
-7.22005471809888
30
0
41
1
10
-1.69999999999999
20
-7.09014227483777
30
0
41
1
10
-1.69999999999999
20
-6.95914718913934
30
0
41
1
10
-1.69999999999999
20
-6.78305839594088
30
0
41
1
10
-1.69999999999999
20
-6.56021849497904
30
0
41
1
10
-1.69999999999999
20
-6.28851702131561
30
0
41
1
10
-1.69999999999999
20
-6.01251450148573
30
0
41
1
10
-1.69999999999999
20
-5.77892152593586
30
0
41
1
10
-1.69999999999999
20
-5.58993219435263
30
0
41
1
10
-1.69999999999999
20
-5.44710902267548
30
0
41
1
10
-1.69999999999999
20
-5.30321731736848
30
0
41
1
10
-1.69999999999999
20
-5.15825863689906
30
0
41
1
10
-1.69999999999999
20
-5.01223421717731
30
0
41
1
10
-1.69999999999999
20
-4.86514572624662
30
0
41
1
10
-1.69999999999999
20
-4.71699462569848
30
0
41
1
10
-1.69999999999999
20
-4.56778315161375
30
0
41
1
10
-1.69999999999999
20
-4.41751369191314
30
0
41
1
10
-1.69999999999999
20
-4.26618881241484
30
0
41
1
10
-1.69999999999999
20
-4.11381118090259
30
0
41
1
10
-1.69999999999999
20
-3.96038382889077
30
0
41
1
10
-1.69999999999999
20
-3.80591068333541
30
0
41
1
10
-1.69999999999999
20
-3.65039703338328
30
0
41
1
10
-1.69999999999999
20
-3.49384788295134
30
0
41
1
10
-1.69999999999999
20
-3.33626946559076
30
0
41
1
10
-1.69999999999999
20
-3.17766896347746
30
0
41
1
10
-1.69999999999999
20
-3.01805529196173
30
0
41
1
10
-1.69999999999999
20
-2.85743848960823
30
0
41
1
10
-1.69999999999999
20
-2.71257747842986
30
0
41
1
10
-1.69999999999999
20
-2.62111400924692
30
0
41
1
10
-1.69999999999999
20
-2.5837250319525
30
0
0
SPLINE
5
1B7
100
AcDbEntity
8
SK1
62
256
6
ByLayer
370
18
48
1
60
0
100
AcDbSpline
70
4
71
3
72
32
73
28
40
0
40
0
40
0
40
0
40
0.335339404832324
40
0.335339404832324
40
0.429287156787546
40
0.429287156787546
40
0.475677053762914
40
0.475677053762914
40
0.49453974319823
40
0.49453974319823
40
0.513645880086186
40
0.513645880086186
40
0.520504273461578
40
0.520504273461578
40
0.527488218291183
40
0.527488218291183
40
0.533551201014863
40
0.533551201014863
40
0.540998152878759
40
0.540998152878759
40
0.554393631774914
40
0.554393631774914
40
0.598967269657376
40
0.598967269657376
40
0.809317334416159
40
0.809317334416159
40
1
40
1
40
1
40
1
41
1
10
-1.49503997793931
20
2.59465115838304
30
0
41
1
10
-1.51545804662706
20
2.47020327904033
30
0
41
1
10
-1.53713921924265
20
2.34554891087816
30
0
41
1
10
-1.57392592094843
20
2.19043955590803
30
0
41
1
10
-1.58255890853934
20
2.15670217135892
30
0
41
1
10
-1.5980595693656
20
2.10814688396857
30
0
41
1
10
-1.60359902440041
20
2.09231222948608
30
0
41
1
10
-1.61296122457532
20
2.07152520286888
30
0
41
1
10
-1.6158696741316
20
2.06567372444977
30
0
41
1
10
-1.62242426172162
20
2.0548188617305
30
0
41
1
10
-1.62611615645159
20
2.04963161073078
30
0
41
1
10
-1.63217263701878
20
2.04479089552194
30
0
41
1
10
-1.63391092603905
20
2.04372430879368
30
0
41
1
10
-1.63759701012469
20
2.04243943769597
30
0
41
1
10
-1.63960513001734
20
2.04224314885471
30
0
41
1
10
-1.6432714201469
20
2.04303363449088
30
0
41
1
10
-1.64498274878696
20
2.04388024545898
30
0
41
1
10
-1.64846923771176
20
2.04652261877811
30
0
41
1
10
-1.65023197368771
20
2.04850621085961
30
0
41
1
10
-1.65459297944471
20
2.05462030362452
30
0
41
1
10
-1.65687449353445
20
2.05928542847221
30
0
41
1
10
-1.66535432668741
20
2.07982184742576
30
0
41
1
10
-1.66919635898841
20
2.09736547364696
30
0
41
1
10
-1.6880096715787
20
2.19569498442274
30
0
41
1
10
-1.69174657129577
20
2.27904221250543
30
0
41
1
10
-1.69840552504974
20
2.43548746422846
30
0
41
1
10
-1.69970172620594
20
2.50976932903745
30
0
41
1
10
-1.69999999999999
20
2.58372509632824
30
0
0
SPLINE
5
1B8
100
AcDbEntity
8
1
62
256
6
ByLayer
370
18
48
1
60
0
100
AcDbSpline
70
4
71
3
72
8
73
4
40
0
40
0
40
0
40
0
40
1
40
1
40
1
40
1
41
1
10
58.2172345280869
20
8.66019577064873
30
0
41
1
10
58.4391218174799
20
8.3557170196197
30
0
41
1
10
58.7045763063536
20
8.06872913283547
30
0
41
1
10
58.9999999999992
20
7.79377294187844
30
0
0
SPLINE
5
1B9
100
AcDbEntity
8
SK1
62
256
6
ByLayer
370
18
48
1
60
0
100
AcDbSpline
70
4
71
3
72
128
73
124
40
0
40
0
40
0
40
0
40
0.0069437521000653
40
0.0142876009758675
40
0.0216314498516697
40
0.0289752987274719
40
0.0363191476032741
40
0.0436629964790763
40
0.0510068453548785
40
0.0583506942306807
40
0.0656945431064829
40
0.0730383919822851
40
0.0803822408580873
40
0.0877260897338895
40
0.0950699386096917
40
0.102413787485494
40
0.109757636361296
40
0.117101485237098
40
0.1244453341129
40
0.131789182988703
40
0.139133031864505
40
0.146476880740307
40
0.153820729616109
40
0.161164578491911
40
0.175852276243516
40
0.183196125119318
40
0.19053997399512
40
0.197883822870922
40
0.205227671746725
40
0.219915369498329
40
0.227259218374131
40
0.234603067249933
40
0.241946916125736
40
0.249290765001538
40
0.25663461387734
40
0.263978462753142
40
0.278666160504747
40
0.286010009380549
40
0.293353858256351
40
0.300697707132153
40
0.308041556007956
40
0.315385404883758
40
0.32272925375956
40
0.330073102635362
40
0.337416951511164
40
0.352104649262769
40
0.359448498138571
40
0.366792347014373
40
0.381480044765978
40
0.396167742517582
40
0.403511591393384
40
0.410855440269186
40
0.418199289144989
40
0.425543138020791
40
0.432886986896593
40
0.440230835772395
40
0.443902760210296
40
0.447574684648197
40
0.454918533524
40
0.462262382399802
40
0.469606231275604
40
0.484293929027208
40
0.491637777903011
40
0.498981626778813
40
0.506325475654615
40
0.513669324530417
40
0.521013173406219
40
0.528357022282022
40
0.535700871157824
40
0.543044720033626
40
0.550388568909428
40
0.55773241778523
40
0.572420115536835
40
0.579763964412637
40
0.587107813288439
40
0.59077973772634
40
0.594451662164241
40
0.601795511040043
40
0.616483208791648
40
0.62382705766745
40
0.631170906543252
40
0.645858604294857
40
0.660546302046461
40
0.667890150922263
40
0.675233999798065
40
0.68992169754967
40
0.697265546425472
40
0.704609395301274
40
0.711953244177077
40
0.719297093052879
40
0.726640941928681
40
0.733984790804483
40
0.748672488556088
40
0.763360186307692
40
0.770704035183494
40
0.778047884059296
40
0.785391732935099
40
0.792735581810901
40
0.807423279562505
40
0.82211097731411
40
0.836798675065714
40
0.851486372817318
40
0.85883022169312
40
0.866174070568923
40
0.873517919444725
40
0.880861768320527
40
0.888205617196329
40
0.895549466072132
40
0.902893314947934
40
0.910237163823736
40
0.917581012699538
40
0.92492486157534
40
0.932268710451143
40
0.939612559326945
40
0.946956408202747
40
0.954300257078549
40
0.961644105954351
40
0.968987954830154
40
0.976331803705956
40
0.983675652581758
40
0.99101950145756
40
0.998363350333362
40
1
40
1
40
1
40
1
41
1
10
-1.49503997793931
20
-13.714375015056
30
0
41
1
10
-1.49503997793931
20
-13.7216342013808
30
0
41
1
10
-1.49503997793931
20
-13.7357811614707
30
0
41
1
10
-1.49503997793931
20
-13.7547953489792
30
0
41
1
10
-1.49503997793931
20
-13.77170198028
30
0
41
1
10
-1.49503997793931
20
-13.7862053981965
30
0
41
1
10
-1.49503997793931
20
-13.7983574446221
30
0
41
1
10
-1.49503997793931
20
-13.8082084421559
30
0
41
1
10
-1.49503997793931
20
-13.8158070688212
30
0
41
1
10
-1.49503997793931
20
-13.8211988832959
30
0
41
1
10
-1.49503997793931
20
-13.8244268679687
30
0
41
1
10
-1.49503997793931
20
-13.8255322925994
30
0
41
1
10
-1.49503997793931
20
-13.8245545856003
30
0
41
1
10
-1.49503997793931
20
-13.821531562835
30
0
41
1
10
-1.49503997793931
20
-13.8164987457743
30
0
41
1
10
-1.49503997793931
20
-13.8094907530556
30
0
41
1
10
-1.49503997793931
20
-13.800539960484
30
0
41
1
10
-1.49503997793931
20
-13.7896781016746
30
0
41
1
10
-1.49503997793931
20
-13.7769347594832
30
0
41
1
10
-1.49503997793931
20
-13.7623389110759
30
0
41
1
10
-1.49503997793931
20
-13.7459180935577
30
0
41
1
10
-1.49503997793931
20
-13.7276983600542
30
0
41
1
10
-1.49503997793931
20
-13.7077055842542
30
0
41
1
10
-1.49503997793931
20
-13.6786965897716
30
0
41
1
10
-1.49503997793931
20
-13.646298505966
30
0
41
1
10
-1.49503997793931
20
-13.6104729213425
30
0
41
1
10
-1.49503997793931
20
-13.5819601013665
30
0
41
1
10
-1.49503997793931
20
-13.551806168738
30
0
41
1
10
-1.49503997793931
20
-13.5094130161235
30
0
41
1
10
-1.49503997793931
20
-13.4638962511352
30
0
41
1
10
-1.49503997793931
20
-13.4151607649325
30
0
41
1
10
-1.49503997793931
20
-13.3770799229021
30
0
41
1
10
-1.49503997793931
20
-13.3374647797226
30
0
41
1
10
-1.49503997793931
20
-13.296330722945
30
0
41
1
10
-1.49503997793931
20
-13.2536925631392
30
0
41
1
10
-1.49503997793931
20
-13.1948224412614
30
0
41
1
10
-1.49503997793931
20
-13.133106637017
30
0
41
1
10
-1.49503997793931
20
-13.0683888234861
30
0
41
1
10
-1.49503997793931
20
-13.0184419731185
30
0
41
1
10
-1.49503997793931
20
-12.9670724454162
30
0
41
1
10
-1.49503997793931
20
-12.9142926213842
30
0
41
1
10
-1.49503997793931
20
-12.8601132308426
30
0
41
1
10
-1.49503997793931
20
-12.8045464232669
30
0
41
1
10
-1.49503997793931
20
-12.7476032540011
30
0
41
1
10
-1.49503997793931
20
-12.6698142967671
30
0
41
1
10
-1.49503997793931
20
-12.5894449263383
30
0
41
1
10
-1.49503997793931
20
-12.5062717787185
30
0
41
1
10
-1.49503997793931
20
-12.4213295969168
30
0
41
1
10
-1.49503997793931
20
-12.3119621581916
30
0
41
1
10
-1.49503997793931
20
-12.1982669205398
30
0
41
1
10
-1.49503997793931
20
-12.1046570427268
30
0
41
1
10
-1.49503997793931
20
-12.0332119519516
30
0
41
1
10
-1.49503997793931
20
-11.960500101414
30
0
41
1
10
-1.49503997793931
20
-11.886528664654
30
0
41
1
10
-1.49503997793931
20
-11.8113057197552
30
0
41
1
10
-1.49503997793931
20
-11.747609354201
30
0
41
1
10
-1.49503997793931
20
-11.6959849306732
30
0
41
1
10
-1.49503997793931
20
-11.6439487843731
30
0
41
1
10
-1.49503997793931
20
-11.5781957427673
30
0
41
1
10
-1.49503997793931
20
-11.4980349156058
30
0
41
1
10
-1.49503997793931
20
-11.3894729046301
30
0
41
1
10
-1.49503997793931
20
-11.2786601205037
30
0
41
1
10
-1.49503997793931
20
-11.1652732973629
30
0
41
1
10
-1.49503997793931
20
-11.0790834618892
30
0
41
1
10
-1.49503997793931
20
-10.9917054227683
30
0
41
1
10
-1.49503997793931
20
-10.9031442186804
30
0
41
1
10
-1.49503997793931
20
-10.8134058114344
30
0
41
1
10
-1.49503997793931
20
-10.7224950525572
30
0
41
1
10
-1.49503997793931
20
-10.630416702033
30
0
41
1
10
-1.49503997793931
20
-10.537175897834
30
0
41
1
10
-1.49503997793931
20
-10.4427777956644
30
0
41
1
10
-1.49503997793931
20
-10.3153089526253
30
0
41
1
10
-1.49503997793931
20
-10.1857467801784
30
0
41
1
10
-1.49503997793931
20
-10.0536983203575
30
0
41
1
10
-1.49503997793931
20
-9.9703002864195
30
0
41
1
10
-1.49503997793931
20
-9.90295237623945
30
0
41
1
10
-1.49503997793931
20
-9.835227886979
30
0
41
1
10
-1.49503997793931
20
-9.71574945872362
30
0
41
1
10
-1.49503997793931
20
-9.57714512355727
30
0
41
1
10
-1.49503997793931
20
-9.43608247629777
30
0
41
1
10
-1.49503997793931
20
-9.29353605395187
30
0
41
1
10
-1.49503997793931
20
-9.1127536491245
30
0
41
1
10
-1.49503997793931
20
-8.92829538452321
30
0
41
1
10
-1.49503997793931
20
-8.77838739743157
30
0
41
1
10
-1.49503997793931
20
-8.62702161678089
30
0
41
1
10
-1.49503997793931
20
-8.47372856948016
30
0
41
1
10
-1.49503997793931
20
-8.31800484031692
30
0
41
1
10
-1.49503997793931
20
-8.20019571341777
30
0
41
1
10
-1.49503997793931
20
-8.08130644558901
30
0
41
1
10
-1.49503997793931
20
-7.96134018717208
30
0
41
1
10
-1.49503997793931
20
-7.84029855153602
30
0
41
1
10
-1.49503997793931
20
-7.67738590051289
30
0
41
1
10
-1.49503997793931
20
-7.47128768043939
30
0
41
1
10
-1.49503997793931
20
-7.2616368417514
30
0
41
1
10
-1.49503997793931
20
-7.09160988853205
30
0
41
1
10
-1.49503997793931
20
-6.96311018885422
30
0
41
1
10
-1.49503997793931
20
-6.83355374310952
30
0
41
1
10
-1.49503997793931
20
-6.65929861735816
30
0
41
1
10
-1.49503997793931
20
-6.43910150489376
30
0
41
1
10
-1.49503997793931
20
-6.17053537924176
30
0
41
1
10
-1.49503997793931
20
-5.89779786635279
30
0
41
1
10
-1.49503997793931
20
-5.66717892451572
30
0
41
1
10
-1.49503997793931
20
-5.48038543010182
30
0
41
1
10
-1.49503997793931
20
-5.33936160781599
30
0
41
1
10
-1.49503997793931
20
-5.19731095699922
30
0
41
1
10
-1.49503997793931
20
-5.05423700692029
30
0
41
1
10
-1.49503997793931
20
-4.91014320448994
30
0
41
1
10
-1.49503997793931
20
-4.76503356668587
30
0
41
1
10
-1.49503997793931
20
-4.61891187892093
30
0
41
1
10
-1.49503997793931
20
-4.47178250674136
30
0
41
1
10
-1.49503997793931
20
-4.32365075555242
30
0
41
1
10
-1.49503997793931
20
-4.17452257114439
30
0
41
1
10
-1.49503997793931
20
-4.02440435063471
30
0
41
1
10
-1.49503997793931
20
-3.87330241838259
30
0
41
1
10
-1.49503997793931
20
-3.72122348266288
30
0
41
1
10
-1.49503997793931
20
-3.56817684914563
30
0
41
1
10
-1.49503997793931
20
-3.4141725129254
30
0
41
1
10
-1.49503997793931
20
-3.25922160409141
30
0
41
1
10
-1.49503997793931
20
-3.10333581737223
30
0
41
1
10
-1.49503997793931
20
-2.94652921585708
30
0
41
1
10
-1.49503997793931
20
-2.78881794693001
30
0
41
1
10
-1.49503997793931
20
-2.67130382014665
30
0
41
1
10
-1.49503997793931
20
-2.60647324340221
30
0
41
1
10
-1.49503997793931
20
-2.59465115080991
30
0
0
SPLINE
5
1BA
100
AcDbEntity
8
SK1
62
256
6
ByLayer
370
18
48
1
60
0
100
AcDbSpline
70
4
71
3
72
114
73
110
40
0
40
0
40
0
40
0
40
0.0055294501863305
40
0.0135533950319693
40
0.0215773398776081
40
0.0296012847232469
40
0.0376252295688857
40
0.0456491744145245
40
0.0536731192601633
40
0.0616970641058021
40
0.0697210089514409
40
0.0777449537970797
40
0.0857688986427185
40
0.0937928434883573
40
0.101816788333996
40
0.109840733179635
40
0.117864678025274
40
0.125888622870912
40
0.133912567716551
40
0.14193651256219
40
0.149960457407829
40
0.157984402253468
40
0.166008347099107
40
0.182056236790384
40
0.198104126481662
40
0.214152016172939
40
0.230199905864217
40
0.238223850709856
40
0.246247795555495
40
0.254271740401133
40
0.262295685246772
40
0.27834357493805
40
0.294391464629327
40
0.302415409474966
40
0.310439354320605
40
0.318463299166244
40
0.326487244011883
40
0.334511188857521
40
0.34253513370316
40
0.358583023394438
40
0.366606968240077
40
0.374630913085715
40
0.390678802776993
40
0.406726692468271
40
0.414750637313909
40
0.422774582159548
40
0.438822471850826
40
0.446846416696465
40
0.450858389119284
40
0.454870361542103
40
0.462894306387742
40
0.470918251233381
40
0.486966140924659
40
0.494990085770298
40
0.503014030615936
40
0.511037975461575
40
0.519061920307214
40
0.527085865152853
40
0.535109809998492
40
0.54313375484413
40
0.551157699689769
40
0.559181644535408
40
0.567205589381047
40
0.583253479072325
40
0.591277423917963
40
0.599301368763602
40
0.607325313609241
40
0.61133728603206
40
0.61534925845488
40
0.623373203300518
40
0.631397148146157
40
0.639421092991796
40
0.647445037837435
40
0.655468982683074
40
0.663492927528712
40
0.67954081721999
40
0.695588706911268
40
0.703612651756906
40
0.711636596602545
40
0.727684486293823
40
0.735708431139462
40
0.7437323759851
40
0.751756320830739
40
0.759780265676378
40
0.767804210522017
40
0.775828155367656
40
0.783852100213294
40
0.791876045058933
40
0.807923934750211
40
0.81594787959585
40
0.823971824441489
40
0.831995769287127
40
0.840019714132766
40
0.848043658978405
40
0.856067603824044
40
0.872115493515321
40
0.88013943836096
40
0.888163383206599
40
0.896187328052238
40
0.904211272897877
40
0.920259162589154
40
0.936307052280432
40
0.952354941971709
40
0.960378886817348
40
0.968402831662987
40
0.976426776508626
40
0.984450721354265
40
0.992474666199903
40
1
40
1
40
1
40
1
41
1
10
-1.69999999999999
20
2.58372509632824
30
0
41
1
10
-1.69999999999999
20
2.62111404232411
30
0
41
1
10
-1.69999999999999
20
2.71257747642738
30
0
41
1
10
-1.69999999999999
20
2.85743846779502
30
0
41
1
10
-1.69999999999999
20
3.01805527431179
30
0
41
1
10
-1.69999999999999
20
3.17766893265434
30
0
41
1
10
-1.69999999999999
20
3.33626943234702
30
0
41
1
10
-1.69999999999999
20
3.49384789900154
30
0
41
1
10
-1.69999999999999
20
3.65039714326571
30
0
41
1
10
-1.69999999999999
20
3.80591077742719
30
0
41
1
10
-1.69999999999999
20
3.96038358832215
30
0
41
1
10
-1.69999999999999
20
4.11381092681603
30
0
41
1
10
-1.69999999999999
20
4.26618872973955
30
0
41
1
10
-1.69999999999999
20
4.41751381174834
30
0
41
1
10
-1.69999999999999
20
4.56778337246482
30
0
41
1
10
-1.69999999999999
20
4.71699468615469
30
0
41
1
10
-1.69999999999999
20
4.86514556778678
30
0
41
1
10
-1.69999999999999
20
5.01223405348065
30
0
41
1
10
-1.69999999999999
20
5.15825857839866
30
0
41
1
10
-1.69999999999999
20
5.30321729486519
30
0
41
1
10
-1.69999999999999
20
5.44710899667643
30
0
41
1
10
-1.69999999999999
20
5.58993216915877
30
0
41
1
10
-1.69999999999999
20
5.77892152059968
30
0
41
1
10
-1.69999999999999
20
6.01251447744062
30
0
41
1
10
-1.69999999999999
20
6.28851700104781
30
0
41
1
10
-1.69999999999999
20
6.56021848903174
30
0
41
1
10
-1.69999999999999
20
6.7830583657493
30
0
41
1
10
-1.69999999999999
20
6.95914717066267
30
0
41
1
10
-1.69999999999999
20
7.09014226669848
30
0
41
1
10
-1.69999999999999
20
7.22005470774224
30
0
41
1
10
-1.69999999999999
20
7.39181445781463
30
0
41
1
10
-1.69999999999999
20
7.60382755625841
30
0
41
1
10
-1.69999999999999
20
7.81221411547432
30
0
41
1
10
-1.69999999999999
20
7.97672002429067
30
0
41
1
10
-1.69999999999999
20
8.09901464495698
30
0
41
1
10
-1.69999999999999
20
8.22021379775828
30
0
41
1
10
-1.69999999999999
20
8.34031606829598
30
0
41
1
10
-1.69999999999999
20
8.45931945344489
30
0
41
1
10
-1.69999999999999
20
8.61651162008161
30
0
41
1
10
-1.69999999999999
20
8.77152766795058
30
0
41
1
10
-1.69999999999999
20
8.92429760284432
30
0
41
1
10
-1.69999999999999
20
9.07558727703645
30
0
41
1
10
-1.69999999999999
20
9.26193698423123
30
0
41
1
10
-1.69999999999999
20
9.44455854729449
30
0
41
1
10
-1.69999999999999
20
9.58839008121356
30
0
41
1
10
-1.69999999999999
20
9.73071862052217
30
0
41
1
10
-1.69999999999999
20
9.87081043657867
30
0
41
1
10
-1.69999999999999
20
9.9913814320609
30
0
41
1
10
-1.69999999999999
20
10.0597065749413
30
0
41
1
10
-1.69999999999999
20
10.1276505623382
30
0
41
1
10
-1.69999999999999
20
10.2118742799614
30
0
41
1
10
-1.69999999999999
20
10.3450861470912
30
0
41
1
10
-1.69999999999999
20
10.476015767914
30
0
41
1
10
-1.69999999999999
20
10.6046008465563
30
0
41
1
10
-1.69999999999999
20
10.6998796425436
30
0
41
1
10
-1.69999999999999
20
10.7939888359848
30
0
41
1
10
-1.69999999999999
20
10.8869237783616
30
0
41
1
10
-1.69999999999999
20
10.9786794422307
30
0
41
1
10
-1.69999999999999
20
11.0692509372408
30
0
41
1
10
-1.69999999999999
20
11.1586337603462
30
0
41
1
10
-1.69999999999999
20
11.2468221792499
30
0
41
1
10
-1.69999999999999
20
11.3338110499831
30
0
41
1
10
-1.69999999999999
20
11.448182891669
30
0
41
1
10
-1.69999999999999
20
11.5601529159528
30
0
41
1
10
-1.69999999999999
20
11.6696587742526
30
0
41
1
10
-1.69999999999999
20
11.7505641289662
30
0
41
1
10
-1.69999999999999
20
11.8169591426362
30
0
41
1
10
-1.69999999999999
20
11.8694488081268
30
0
41
1
10
-1.69999999999999
20
11.9215236068654
30
0
41
1
10
-1.69999999999999
20
11.9858436758677
30
0
41
1
10
-1.69999999999999
20
12.0617686582406
30
0
41
1
10
-1.69999999999999
20
12.1364316894724
30
0
41
1
10
-1.69999999999999
20
12.2098248156179
30
0
41
1
10
-1.69999999999999
20
12.2819406900945
30
0
41
1
10
-1.69999999999999
20
12.3763763558488
30
0
41
1
10
-1.69999999999999
20
12.4912006491746
30
0
41
1
10
-1.69999999999999
20
12.6016598943421
30
0
41
1
10
-1.69999999999999
20
12.6873624197502
30
0
41
1
10
-1.69999999999999
20
12.7712834714131
30
0
41
1
10
-1.69999999999999
20
12.8525264142954
30
0
41
1
10
-1.69999999999999
20
12.9310230723471
30
0
41
1
10
-1.69999999999999
20
12.9885220902627
30
0
41
1
10
-1.69999999999999
20
13.0446338149516
30
0
41
1
10
-1.69999999999999
20
13.099347414251
30
0
41
1
10
-1.69999999999999
20
13.1526505121852
30
0
41
1
10
-1.69999999999999
20
13.2045321061977
30
0
41
1
10
-1.69999999999999
20
13.2549799608479
30
0
41
1
10
-1.69999999999999
20
13.3203101073726
30
0
41
1
10
-1.69999999999999
20
13.3827344162837
30
0
41
1
10
-1.69999999999999
20
13.4421723218484
30
0
41
1
10
-1.69999999999999
20
13.485252935173
30
0
41
1
10
-1.69999999999999
20
13.5268172028035
30
0
41
1
10
-1.69999999999999
20
13.5668499361124
30
0
41
1
10
-1.69999999999999
20
13.6053355893185
30
0
41
1
10
-1.69999999999999
20
13.6545611373555
30
0
41
1
10
-1.69999999999999
20
13.7006353174901
30
0
41
1
10
-1.69999999999999
20
13.7434660879002
30
0
41
1
10
-1.69999999999999
20
13.773955994413
30
0
41
1
10
-1.69999999999999
20
13.8027899045867
30
0
41
1
10
-1.69999999999999
20
13.838998019961
30
0
41
1
10
-1.69999999999999
20
13.8800204120324
30
0
41
1
10
-1.69999999999999
20
13.9222750232465
30
0
41
1
10
-1.69999999999999
20
13.9515178138587
30
0
41
1
10
-1.69999999999999
20
13.9712195253815
30
0
41
1
10
-1.69999999999999
20
13.9841239086368
30
0
41
1
10
-1.69999999999999
20
13.9951252442004
30
0
41
1
10
-1.69999999999999
20
14.0041925984504
30
0
41
1
10
-1.69999999999999
20
14.0111457478662
30
0
41
1
10
-1.70000000000002
20
14.0144803195861
30
0
41
1
10
-1.69999999999996
20
14.0157960962493
30
0
0
SPLINE
5
1BB
100
AcDbEntity
8
1
62
256
6
ByLayer
370
18
48
1
60
0
100
AcDbSpline
70
4
71
3
72
10
73
6
40
0
40
0
40
0
40
0
40
0.5
40
0.5
40
1
40
1
40
1
40
1
41
1
10
52
20
12.5
30
0
41
1
10
52.3650859296064
20
12.0132187605249
30
0
41
1
10
52.9150304084277
20
11.3694808707128
30
0
41
1
10
54.5011533521381
20
10.0855016364649
30
0
41
1
10
55.5475375817505
20
9.45352461484623
30
0
41
1
10
56.7679491924311
20
9.03671053083059
30
0
0
SPLINE
5
1BC
100
AcDbEntity
8
1
62
256
6
ByLayer
370
18
48
1
60
0
100
AcDbSpline
70
4
71
3
72
18
73
14
40
0
40
0
40
0
40
0
40
0.252026352812662
40
0.252026352812662
40
0.405612964547167
40
0.405612964547167
40
0.559855857536008
40
0.559855857536008
40
0.714098750524845
40
0.714098750524845
40
0.857201879020043
40
0.857201879020043
40
1
40
1
40
1
40
1
41
1
10
62.4396425764784
20
1.05725249424404
30
0
41
1
10
62.4396425764784
20
0.70698388334614
30
0
41
1
10
62.4396425764784
20
0.356715272448184
30
0
41
1
10
62.4396425764784
20
-0.207009465336398
30
0
41
1
10
62.403876873008
20
-0.378920440010234
30
0
41
1
10
62.2623005086653
20
-0.637337838470557
30
0
41
1
10
62.1535169487155
20
-0.738500895369668
30
0
41
1
10
61.8602381802585
20
-0.88462522384242
30
0
41
1
10
61.706445655336
20
-0.921156305960608
30
0
41
1
10
61.3961781777306
20
-0.921156305960608
30
0
41
1
10
61.2557977916094
20
-0.888922998209239
30
0
41
1
10
60.9914136383989
20
-0.758696105469767
30
0
41
1
10
60.8847286181044
20
-0.661140956766417
30
0
41
1
10
60.8042557852961
20
-0.530058838577645
30
0
0
SPLINE
5
1BD
100
AcDbEntity
8
1
62
256
6
ByLayer
370
18
48
1
60
0
100
AcDbSpline
70
4
71
3
72
18
73
14
40
0
40
0
40
0
40
0
40
0.191325435437372
40
0.191325435437372
40
0.382650870874744
40
0.382650870874744
40
0.53621470721263
40
0.53621470721263
40
0.690626528447007
40
0.690626528447007
40
0.845885455798059
40
0.845885455798059
40
1
40
1
40
1
40
1
41
1
10
60.8042557852961
20
-0.530058838577645
30
0
41
1
10
60.741665804223
20
-0.69910463034023
30
0
41
1
10
60.6361569789854
20
-0.829470452801218
30
0
41
1
10
60.3375133550079
20
-1.01140956766437
30
0
41
1
10
60.1613672654164
20
-1.05725249424404
30
0
41
1
10
59.7938746622585
20
-1.05725249424404
30
0
41
1
10
59.6418704225094
20
-1.02931696085955
30
0
41
1
10
59.3603344648456
20
-0.91870285219477
30
0
41
1
10
59.2520242546825
20
-0.850243028907641
30
0
41
1
10
59.0996030658935
20
-0.686479627238839
30
0
41
1
10
59.0419007467941
20
-0.585213609618791
30
0
41
1
10
58.9635061833552
20
-0.339715983445387
30
0
41
1
10
58.9444392048374
20
-0.188385776413384
30
0
41
1
10
58.9444392048374
20
-0.0107444359171041
30
0
0
SPLINE
5
1BE
100
AcDbEntity
8
1
62
256
6
ByLayer
370
18
48
1
60
0
100
AcDbSpline
70
4
71
3
72
8
73
4
40
0
40
0
40
0
40
0
40
1
40
1
40
1
40
1
41
1
10
59.3736276464817
20
-0.262880532105385
30
0
41
1
10
59.3924046408036
20
-0.34811972371449
30
0
41
1
10
59.424593773927
20
-0.419033000767456
30
0
41
1
10
59.4693009032649
20
-0.476336658992068
30
0
0
SPLINE
5
1BF
100
AcDbEntity
8
SK1
62
256
6
ByLayer
370
18
48
1
60
0
100
AcDbSpline
70
4
71
3
72
30
73
26
40
0
40
0
40
0
40
0
40
0.337353368394063
40
0.337353368394063
40
0.421572476592627
40
0.421572476592627
40
0.437870507637701
40
0.437870507637701
40
0.454360744174236
40
0.454360744174236
40
0.461024373240737
40
0.461024373240737
40
0.467802725011921
40
0.467802725011921
40
0.47379145342185
40
0.47379145342185
40
0.481264268995005
40
0.481264268995005
40
0.494804301419187
40
0.494804301419187
40
0.54106926228023
40
0.54106926228023
40
0.762218024234401
40
0.762218024234401
40
1
40
1
40
1
40
1
41
1
10
-1.69999999999999
20
-2.5837250319525
30
0
41
1
10
-1.69946915813003
20
-2.45210484593008
30
0
41
1
10
-1.69760670671556
20
-2.31884997747193
30
0
41
1
10
-1.67915375522097
20
-2.15294187932722
30
0
41
1
10
-1.67485152519237
20
-2.11932442567115
30
0
41
1
10
-1.66472347048307
20
-2.08095979549279
30
0
41
1
10
-1.66287560510222
20
-2.07475454077752
30
0
41
1
10
-1.65846712486044
20
-2.06274931231138
30
0
41
1
10
-1.65588139752759
20
-2.05680133794198
30
0
41
1
10
-1.65120237663189
20
-2.04976806653178
30
0
41
1
10
-1.64969999009793
20
-2.04787870491487
30
0
41
1
10
-1.64639510213223
20
-2.04478949380393
30
0
41
1
10
-1.64453557847707
20
-2.04357912964019
30
0
41
1
10
-1.64096575658945
20
-2.04240828386776
30
0
41
1
10
-1.63922229186969
20
-2.04230771235825
30
0
41
1
10
-1.63551182442285
20
-2.04297037181766
30
0
41
1
10
-1.63353448434611
20
-2.04393506875681
30
0
41
1
10
-1.62845259442088
20
-2.04750201060244
30
0
41
1
10
-1.62558657915477
20
-2.05080334173016
30
0
41
1
10
-1.61425491864998
20
-2.06649024761708
30
0
41
1
10
-1.60795428020373
20
-2.08189579117896
30
0
41
1
10
-1.57473680217706
20
-2.17064161742098
30
0
41
1
10
-1.55852136531601
20
-2.25243693059412
30
0
41
1
10
-1.52474337309138
20
-2.41950302647172
30
0
41
1
10
-1.50941945205875
20
-2.50700839290505
30
0
41
1
10
-1.49503997793931
20
-2.59465115086948
30
0
0
SPLINE
5
1C0
100
AcDbEntity
8
SK1
62
256
6
ByLayer
370
18
48
1
60
0
100
AcDbSpline
70
4
71
3
72
22
73
18
40
0
40
0
40
0
40
0
40
0.026244285902695
40
0.026244285902695
40
0.0530261157854738
40
0.0530261157854738
40
0.0713559655737669
40
0.0713559655737669
40
0.0895874012638906
40
0.0895874012638906
40
0.119482247898481
40
0.119482247898481
40
0.178618886842837
40
0.178618886842837
40
0.388022338076634
40
0.388022338076634
40
1
40
1
40
1
40
1
41
1
10
-0.394976888875306
20
5.0009244140283
30
0
41
1
10
-0.389542958903149
20
4.99654803778401
30
0
41
1
10
-0.383617633691557
20
4.99263335383438
30
0
41
1
10
-0.370682657201058
20
4.98677476419829
30
0
41
1
10
-0.363425194676552
20
4.98483424058901
30
0
41
1
10
-0.350979181144169
20
4.98462903203949
30
0
41
1
10
-0.345738268039327
20
4.98542011278016
30
0
41
1
10
-0.335836240990034
20
4.98861553627461
30
0
41
1
10
-0.33106145671195
20
4.99102841332405
30
0
41
1
10
-0.319537139874114
20
4.99867156993253
30
0
41
1
10
-0.313226756018594
20
5.00478758784658
30
0
41
1
10
-0.29682625826149
20
5.02421063341325
30
0
41
1
10
-0.288455270980222
20
5.03906576138257
30
0
41
1
10
-0.256353055935392
20
5.10678482490903
30
0
41
1
10
-0.244000373144985
20
5.16381228581218
30
0
41
1
10
-0.204596889637287
20
5.38213882730383
30
0
41
1
10
-0.199999999999989
20
5.54465158381691
30
0
41
1
10
-0.199999999999989
20
5.70317614351302
30
0
0
SPLINE
5
1C1
100
AcDbEntity
8
1
62
256
6
ByLayer
370
18
48
1
60
0
100
AcDbSpline
70
4
71
3
72
18
73
14
40
0
40
0
40
0
40
0
40
0.139401797070497
40
0.139401797070497
40
0.279307293140897
40
0.279307293140897
40
0.416303372896491
40
0.416303372896491
40
0.610414530612453
40
0.610414530612453
40
0.876328953736699
40
0.876328953736699
40
1
40
1
40
1
40
1
41
1
10
57.8024918494947
20
14
30
0
41
1
10
57.8132568984917
20
14
30
0
41
1
10
57.8198307874736
20
13.9949873354509
30
0
41
1
10
57.8226304928614
20
13.9747069184709
30
0
41
1
10
57.8188396857268
20
13.9591278507347
30
0
41
1
10
57.8022246993089
20
13.9206771973595
30
0
41
1
10
57.789456311518
20
13.8975698492376
30
0
41
1
10
57.7512860669585
20
13.8369904002199
30
0
41
1
10
57.7223288417594
20
13.7966262072456
30
0
41
1
10
57.6466968157003
20
13.6990556680864
30
0
41
1
10
57.5961531405199
20
13.6393691808684
30
0
41
1
10
57.5192742554315
20
13.5540028247422
30
0
41
1
10
57.4940831799287
20
13.5268077219432
30
0
41
1
10
57.4685981300678
20
13.5
30
0
0
SPLINE
5
1C2
100
AcDbEntity
8
1
62
256
6
ByLayer
370
18
48
1
60
0
100
AcDbSpline
70
4
71
3
72
8
73
4
40
0
40
0
40
0
40
0
40
1
40
1
40
1
40
1
41
1
10
59
20
-14
30
0
41
1
10
58.6574403531143
20
-14
30
0
41
1
10
58.3231146775989
20
-14
30
0
41
1
10
58
20
-14
30
0
0
SPLINE
5
1C3
100
AcDbEntity
8
SK1
62
256
6
ByLayer
370
18
48
1
60
0
100
AcDbSpline
70
4
71
3
72
100
73
96
40
0
40
0
40
0
40
0
40
0.0012807126879718
40
0.0105736188801102
40
0.0198665250722485
40
0.0291594312643868
40
0.0384523374565251
40
0.0477452436486634
40
0.0570381498408017
40
0.06633105603294
40
0.0756239622250783
40
0.0849168684172166
40
0.103502680801493
40
0.112795586993632
40
0.12208849318577
40
0.131381399377908
40
0.140674305570046
40
0.159260117954323
40
0.168553024146461
40
0.1778459303386
40
0.187138836530738
40
0.196431742722876
40
0.205724648915014
40
0.215017555107153
40
0.233603367491429
40
0.242896273683568
40
0.252189179875706
40
0.261482086067844
40
0.270774992259983
40
0.280067898452121
40
0.289360804644259
40
0.298653710836398
40
0.307946617028536
40
0.326532429412813
40
0.335825335604951
40
0.345118241797089
40
0.363704054181366
40
0.382289866565642
40
0.391582772757781
40
0.400875678949919
40
0.410168585142057
40
0.419461491334196
40
0.428754397526334
40
0.438047303718472
40
0.442693756814541
40
0.44734020991061
40
0.456633116102749
40
0.465926022294887
40
0.475218928487025
40
0.493804740871302
40
0.50309764706344
40
0.512390553255579
40
0.521683459447717
40
0.530976365639855
40
0.540269271831993
40
0.549562178024132
40
0.55885508421627
40
0.568147990408408
40
0.577440896600547
40
0.586733802792685
40
0.605319615176962
40
0.6146125213691
40
0.623905427561238
40
0.628551880657307
40
0.633198333753377
40
0.642491239945515
40
0.661077052329791
40
0.67036995852193
40
0.679662864714068
40
0.698248677098345
40
0.716834489482621
40
0.726127395674759
40
0.735420301866898
40
0.754006114251174
40
0.763299020443313
40
0.772591926635451
40
0.781884832827589
40
0.791177739019728
40
0.800470645211866
40
0.809763551404004
40
0.828349363788281
40
0.846935176172557
40
0.856228082364696
40
0.865520988556834
40
0.874813894748972
40
0.884106800941111
40
0.902692613325387
40
0.921278425709664
40
0.93986423809394
40
0.958450050478217
40
0.967742956670355
40
0.977035862862494
40
0.986328769054632
40
0.99562167524677
40
1
40
1
40
1
40
1
41
1
10
-0.394976888875306
20
-13.8446019297681
30
0
41
1
10
-0.394976888875306
20
-13.8443373794894
30
0
41
1
10
-0.394976888875306
20
-13.8421014019358
30
0
41
1
10
-0.394976888875306
20
-13.8370980881852
30
0
41
1
10
-0.394976888875306
20
-13.8281307581185
30
0
41
1
10
-0.394976888875306
20
-13.8172491473121
30
0
41
1
10
-0.394976888875306
20
-13.8044829828858
30
0
41
1
10
-0.394976888875306
20
-13.7898613788954
30
0
41
1
10
-0.394976888875306
20
-13.7734119916164
30
0
41
1
10
-0.394976888875306
20
-13.7551609910392
30
0
41
1
10
-0.394976888875306
20
-13.7351343539634
30
0
41
1
10
-0.394976888875306
20
-13.706079968468
30
0
41
1
10
-0.394976888875306
20
-13.6736219491958
30
0
41
1
10
-0.394976888875306
20
-13.6377421279937
30
0
41
1
10
-0.394976888875306
20
-13.6091837809886
30
0
41
1
10
-0.394976888875306
20
-13.5789822078613
30
0
41
1
10
-0.394976888875306
20
-13.5365270011545
30
0
41
1
10
-0.394976888875306
20
-13.490931201485
30
0
41
1
10
-0.394976888875306
20
-13.4421262291561
30
0
41
1
10
-0.394976888875306
20
-13.4039879870963
30
0
41
1
10
-0.394976888875306
20
-13.3643136307331
30
0
41
1
10
-0.394976888875306
20
-13.3231185723383
30
0
41
1
10
-0.394976888875306
20
-13.2804176772461
30
0
41
1
10
-0.394976888875306
20
-13.221467049789
30
0
41
1
10
-0.394976888875306
20
-13.1596507828291
30
0
41
1
10
-0.394976888875306
20
-13.0948461430692
30
0
41
1
10
-0.394976888875306
20
-13.0448282543027
30
0
41
1
10
-0.394976888875306
20
-12.9933861205259
30
0
41
1
10
-0.394976888875306
20
-12.940532100831
30
0
41
1
10
-0.394976888875306
20
-12.8862769625636
30
0
41
1
10
-0.394976888875306
20
-12.8306328883531
30
0
41
1
10
-0.394976888875306
20
-12.773610902979
30
0
41
1
10
-0.394976888875306
20
-12.6957215996061
30
0
41
1
10
-0.394976888875306
20
-12.6152283642396
30
0
41
1
10
-0.394976888875306
20
-12.5319491682166
30
0
41
1
10
-0.394976888875306
20
-12.446899173783
30
0
41
1
10
-0.394976888875306
20
-12.3373769247913
30
0
41
1
10
-0.394976888875306
20
-12.2235215963167
30
0
41
1
10
-0.394976888875306
20
-12.1297946270484
30
0
41
1
10
-0.394976888875306
20
-12.0582544232072
30
0
41
1
10
-0.394976888875306
20
-11.9854459723214
30
0
41
1
10
-0.394976888875306
20
-11.9113764724791
30
0
41
1
10
-0.394976888875306
20
-11.8360539840219
30
0
41
1
10
-0.394976888875306
20
-11.7722691819395
30
0
41
1
10
-0.394976888875306
20
-11.7205808983271
30
0
41
1
10
-0.394976888875306
20
-11.6684804460587
30
0
41
1
10
-0.394976888875306
20
-11.6026363770329
30
0
41
1
10
-0.394976888875306
20
-11.5223699808134
30
0
41
1
10
-0.394976888875306
20
-11.413674138825
30
0
41
1
10
-0.394976888875306
20
-11.3026972665534
30
0
41
1
10
-0.394976888875306
20
-11.1891707748317
30
0
41
1
10
-0.394976888875306
20
-11.1028676417001
30
0
41
1
10
-0.394976888875306
20
-11.0153746961414
30
0
41
1
10
-0.394976888875306
20
-10.9266969919675
30
0
41
1
10
-0.394976888875306
20
-10.8368404586375
30
0
41
1
10
-0.394976888875306
20
-10.7458098983121
30
0
41
1
10
-0.394976888875306
20
-10.6536100894112
30
0
41
1
10
-0.394976888875306
20
-10.5602461538978
30
0
41
1
10
-0.394976888875306
20
-10.4657231753345
30
0
41
1
10
-0.394976888875306
20
-10.338096057249
30
0
41
1
10
-0.394976888875306
20
-10.208339989953
30
0
41
1
10
-0.394976888875306
20
-10.0761265678461
30
0
41
1
10
-0.394976888875306
20
-9.99261145812801
30
0
41
1
10
-0.394976888875306
20
-9.92517902838176
30
0
41
1
10
-0.394976888875306
20
-9.8573693704559
30
0
41
1
10
-0.394976888875306
20
-9.73773602301958
30
0
41
1
10
-0.394976888875306
20
-9.59892077296985
30
0
41
1
10
-0.394976888875306
20
-9.45767863215661
30
0
41
1
10
-0.394976888875306
20
-9.31494999082747
30
0
41
1
10
-0.394976888875306
20
-9.13390680482667
30
0
41
1
10
-0.394976888875306
20
-8.94918034619519
30
0
41
1
10
-0.394976888875306
20
-8.79907644696402
30
0
41
1
10
-0.394976888875306
20
-8.64751156797166
30
0
41
1
10
-0.394976888875306
20
-8.49397420958985
30
0
41
1
10
-0.394976888875306
20
-8.33804226544987
30
0
41
1
10
-0.394976888875306
20
-8.22006380191277
30
0
41
1
10
-0.394976888875306
20
-8.10100253994159
30
0
41
1
10
-0.394976888875306
20
-7.98086146605698
30
0
41
1
10
-0.394976888875306
20
-7.85964216476054
30
0
41
1
10
-0.394976888875306
20
-7.69650359935571
30
0
41
1
10
-0.394976888875306
20
-7.49008091096033
30
0
41
1
10
-0.394976888875306
20
-7.2800951209731
30
0
41
1
10
-0.394976888875306
20
-7.10982246715957
30
0
41
1
10
-0.394976888875306
20
-6.98112245032081
30
0
41
1
10
-0.394976888875306
20
-6.85136201549096
30
0
41
1
10
-0.394976888875306
20
-6.6768468885183
30
0
41
1
10
-0.394976888875306
20
-6.45627504712581
30
0
41
1
10
-0.394976888875306
20
-6.18726435105106
30
0
41
1
10
-0.394976888875306
20
-5.91406388300976
30
0
41
1
10
-0.394976888875306
20
-5.68302324398945
30
0
41
1
10
-0.394976888875306
20
-5.49591839522026
30
0
41
1
10
-0.394976888875306
20
-5.35463943777347
30
0
41
1
10
-0.394976888875306
20
-5.21232773830434
30
0
41
1
10
-0.394976888875277
20
-5.09425535366773
30
0
41
1
10
-0.394976888875306
20
-5.02359314607173
30
0
41
1
10
-0.394976888875306
20
-5.00092508225413
30
0
0
SPLINE
5
1C4
100
AcDbEntity
8
1
62
256
6
ByLayer
370
18
48
1
60
0
100
AcDbSpline
70
4
71
3
72
8
73
4
40
0
40
0
40
0
40
0
40
1
40
1
40
1
40
1
41
1
10
62.0274428439825
20
0.686927602967501
30
0
41
1
10
61.6751506647994
20
0.686927602967501
30
0
41
1
10
61.3228584856164
20
0.686927602967501
30
0
41
1
10
60.9705663064333
20
0.686927602967501
30
0
0
SPLINE
5
1C5
100
AcDbEntity
8
SK1
62
256
6
ByLayer
370
18
48
1
60
0
100
AcDbSpline
70
4
71
3
72
8
73
4
40
0
40
0
40
0
40
0
40
1
40
1
40
1
40
1
41
1
10
-1.30710678118652
20
3.62781725664615
30
0
41
1
10
-1.37345758266253
20
3.29127686428785
30
0
41
1
10
-1.4372955614198
20
2.94660267199697
30
0
41
1
10
-1.49503997793931
20
2.5946511583831
30
0
0
SPLINE
5
1C6
100
AcDbEntity
8
1
62
256
6
ByLayer
370
18
48
1
60
0
100
AcDbSpline
70
4
71
3
72
16
73
12
40
0
40
0
40
0
40
0
40
0.464304267159298
40
0.464304267159298
40
0.647533485141965
40
0.647533485141965
40
0.833383675860491
40
0.833383675860491
40
0.950238074309838
40
0.950238074309838
40
1
40
1
40
1
40
1
41
1
10
9.33660254037846
20
19.0245744101322
30
0
41
1
10
9.31929643456959
20
19.0449201888242
30
0
41
1
10
9.29554416795261
20
19.0647708693882
30
0
41
1
10
9.24667293447288
20
19.0892734034403
30
0
41
1
10
9.23079711658974
20
19.0959253431034
30
0
41
1
10
9.19394564855392
20
19.1078085849622
30
0
41
1
10
9.1724080925996
20
19.1131587398644
30
0
41
1
10
9.13286934844768
20
19.1192406569511
30
0
41
1
10
9.11613525534443
20
19.1209710216544
30
0
41
1
10
9.09170798023393
20
19.1221075563677
30
0
41
1
10
9.08424032311152
20
19.1222825906926
30
0
41
1
10
9.07679491924313
20
19.1222825906926
30
0
0
SPLINE
5
1C7
100
AcDbEntity
8
1
62
256
6
ByLayer
370
18
48
1
60
0
100
AcDbSpline
70
4
71
3
72
16
73
12
40
0
40
0
40
0
40
0
40
0.114691258188365
40
0.114691258188365
40
0.256006982052508
40
0.256006982052508
40
0.478481509698437
40
0.478481509698437
40
0.904237458570112
40
0.904237458570112
40
1
40
1
40
1
40
1
41
1
10
6.9232050807569
20
19.1222825906926
30
0
41
1
10
6.90623920058414
20
19.1222825906926
30
0
41
1
10
6.88906253212411
20
19.1213397893258
30
0
41
1
10
6.85346109846188
20
19.117563257367
30
0
41
1
10
6.83507168736793
20
19.1143205262484
30
0
41
1
10
6.79305201772166
20
19.1044641374228
30
0
41
1
10
6.77140364934789
20
19.0968571256395
30
0
41
1
10
6.71814486104421
20
19.0732678361841
30
0
41
1
10
6.69359399943795
20
19.0554522237109
30
0
41
1
10
6.67087946572559
20
19.0329978954364
30
0
41
1
10
6.66699503410797
20
19.0288038685175
30
0
41
1
10
6.66339745962154
20
19.0245744101322
30
0
0
SPLINE
5
1C8
100
AcDbEntity
8
1
62
256
6
ByLayer
370
18
48
1
60
0
100
AcDbSpline
70
4
71
3
72
8
73
4
40
0
40
0
40
0
40
0
40
1
40
1
40
1
40
1
41
1
10
57.4685981300678
20
13.5
30
0
41
1
10
57.2347097662444
20
13.2539728484997
30
0
41
1
10
57.0011362766643
20
13.0076315339328
30
0
41
1
10
56.7679491924311
20
12.7609392189604
30
0
0
SPLINE
5
1C9
100
AcDbEntity
8
1
62
256
6
ByLayer
370
18
48
1
60
0
100
AcDbSpline
70
4
71
3
72
8
73
4
40
0
40
0
40
0
40
0
40
1
40
1
40
1
40
1
41
1
10
59.4588337120163
20
-0.476336658992068
30
0
41
1
10
59.4141265826784
20
-0.419033000767456
30
0
41
1
10
59.3819374495551
20
-0.34811972371449
30
0
41
1
10
59.3631604552331
20
-0.262880532105385
30
0
0
SPLINE
5
1CA
100
AcDbEntity
8
1
62
256
6
ByLayer
370
18
48
1
60
0
100
AcDbSpline
70
4
71
3
72
16
73
12
40
0
40
0
40
0
40
0
40
0.0375826390381682
40
0.0375826390381682
40
0.245461504402839
40
0.245461504402839
40
0.453340369767518
40
0.453340369767518
40
0.660334740554404
40
0.660334740554404
40
1
40
1
40
1
40
1
41
1
10
61.4487521503121
20
-0.91747909543767
30
0
41
1
10
61.4771772513843
20
-0.919932335848898
30
0
41
1
10
61.5059352620521
20
-0.921156305960551
30
0
41
1
10
61.6959784640874
20
-0.921156305960608
30
0
41
1
10
61.8497709890099
20
-0.88462522384242
30
0
41
1
10
62.1430497574669
20
-0.738500895369668
30
0
41
1
10
62.2518333174167
20
-0.637337838470557
30
0
41
1
10
62.3934096817594
20
-0.378920440010234
30
0
41
1
10
62.4291753852298
20
-0.207009465336398
30
0
41
1
10
62.4291753852298
20
0.356715272448184
30
0
41
1
10
62.4291753852298
20
0.70698388334614
30
0
41
1
10
62.4291753852298
20
1.05725249424404
30
0
0
SPLINE
5
1CB
100
AcDbEntity
8
1
62
256
6
ByLayer
370
18
48
1
60
0
100
AcDbSpline
70
4
71
3
72
16
73
12
40
0
40
0
40
0
40
0
40
0.114691258188363
40
0.114691258188363
40
0.256006982052497
40
0.256006982052497
40
0.478481509698437
40
0.478481509698437
40
0.904237458570163
40
0.904237458570163
40
1
40
1
40
1
40
1
41
1
10
9.07679491924313
20
-19.1222825906926
30
0
41
1
10
9.09376079941586
20
-19.1222825906926
30
0
41
1
10
9.11093746787589
20
-19.1213397893258
30
0
41
1
10
9.14653890153815
20
-19.117563257367
30
0
41
1
10
9.1649283126321
20
-19.1143205262484
30
0
41
1
10
9.20694798227834
20
-19.1044641374228
30
0
41
1
10
9.22859635065214
20
-19.0968571256395
30
0
41
1
10
9.28185513895582
20
-19.0732678361841
30
0
41
1
10
9.30640600056208
20
-19.0554522237109
30
0
41
1
10
9.32912053427441
20
-19.0329978954364
30
0
41
1
10
9.33300496589206
20
-19.0288038685174
30
0
41
1
10
9.33660254037846
20
-19.0245744101322
30
0
0
SPLINE
5
1CC
100
AcDbEntity
8
1
62
256
6
ByLayer
370
18
48
1
60
0
100
AcDbSpline
70
4
71
3
72
22
73
18
40
0
40
0
40
0
40
0
40
0.125919801008142
40
0.125919801008142
40
0.228173823812626
40
0.228173823812626
40
0.362000949327647
40
0.362000949327647
40
0.497453699158083
40
0.497453699158083
40
0.624996799363384
40
0.624996799363384
40
0.753577031326436
40
0.753577031326436
40
0.881194351724583
40
0.881194351724583
40
1
40
1
40
1
40
1
41
1
10
60.9705663064333
20
0.686927602967501
30
0
41
1
10
60.9705663064333
20
0.484932207725763
30
0
41
1
10
60.9705663064333
20
0.282936812484024
30
0
41
1
10
60.9705663064333
20
-0.0830903044256956
30
0
41
1
10
60.9848725878215
20
-0.200562803786113
30
0
41
1
10
61.046803708824
20
-0.365939102262416
30
0
41
1
10
61.1046876944472
20
-0.437656689690471
30
0
41
1
10
61.2666108793316
20
-0.532781990741682
30
0
41
1
10
61.3684597575411
20
-0.556561780506513
30
0
41
1
10
61.6063016856189
20
-0.556561780506513
30
0
41
1
10
61.7091280830963
20
-0.534356612944464
30
0
41
1
10
61.8850925710364
20
-0.445174814819893
30
0
41
1
10
61.9460758685874
20
-0.381785622921427
30
0
41
1
10
62.010213076873
20
-0.216227260692619
30
0
41
1
10
62.0274428439825
20
-0.07377845996416
30
0
41
1
10
62.0274428439825
20
0.313498763537154
30
0
41
1
10
62.0274428439825
20
0.500213183252356
30
0
41
1
10
62.0274428439825
20
0.686927602967501
30
0
0
SPLINE
5
1CD
100
AcDbEntity
8
1
62
256
6
ByLayer
370
18
48
1
60
0
100
AcDbSpline
70
4
71
3
72
8
73
4
40
0
40
0
40
0
40
0
40
1
40
1
40
1
40
1
41
1
10
51.7890574534175
20
12.7920737130969
30
0
41
1
10
51.8520174544978
20
12.7015047523888
30
0
41
1
10
51.9220995866253
20
12.6038672178329
30
0
41
1
10
52
20
12.5
30
0
0
SPLINE
5
1CE
100
AcDbEntity
8
1
62
256
6
ByLayer
370
18
48
1
60
0
100
AcDbSpline
70
4
71
3
72
10
73
6
40
0
40
0
40
0
40
0
40
0.5
40
0.5
40
1
40
1
40
1
40
1
41
1
10
59
20
2.44264587394815
30
0
41
1
10
58.6123180319997
20
1.68163448303477
30
0
41
1
10
58.3752052521093
20
0.843115872293993
30
0
41
1
10
58.3748129466222
20
-0.840901976242094
30
0
41
1
10
58.6119943324375
20
-1.68099906774307
30
0
41
1
10
59.0000000000142
20
-2.44264587397601
30
0
0
SPLINE
5
1CF
100
AcDbEntity
8
1
62
256
6
ByLayer
370
18
48
1
60
0
100
AcDbSpline
70
4
71
3
72
10
73
6
40
0
40
0
40
0
40
0
40
0.660338983050848
40
0.660338983050848
40
1
40
1
40
1
40
1
41
1
10
59.3566389373333
20
0.686927602967501
30
0
41
1
10
59.3566389373333
20
0.454370256672632
30
0
41
1
10
59.3566389373333
20
0.221812910377764
30
0
41
1
10
59.3566389373333
20
-0.130365822460988
30
0
41
1
10
59.3620037928538
20
-0.214172422614468
30
0
41
1
10
59.3736276464817
20
-0.262880532105385
30
0
0
SPLINE
5
1D0
100
AcDbEntity
8
1
62
256
6
ByLayer
370
18
48
1
60
0
100
AcDbSpline
70
4
71
3
72
16
73
12
40
0
40
0
40
0
40
0
40
0.0007519016755253
40
0.0007519016755253
40
0.272839339983771
40
0.272839339983771
40
0.541661344728015
40
0.541661344728015
40
0.747061642296086
40
0.747061642296086
40
1
40
1
40
1
40
1
41
1
10
61.4815053268038
20
-0.556561206730805
30
0
41
1
10
61.4811670259611
20
-0.556561589247906
30
0
41
1
10
61.4808286172301
20
-0.556561780506513
30
0
41
1
10
61.3579925662925
20
-0.556561780506513
30
0
41
1
10
61.256143688083
20
-0.532781990741682
30
0
41
1
10
61.0942205031986
20
-0.437656689690471
30
0
41
1
10
61.0363365175754
20
-0.365939102262416
30
0
41
1
10
60.9744053965729
20
-0.200562803786113
30
0
41
1
10
60.9600991151847
20
-0.0830903044256956
30
0
41
1
10
60.9600991151847
20
0.282936812484024
30
0
41
1
10
60.9600991151847
20
0.484932207725763
30
0
41
1
10
60.9600991151847
20
0.686927602967501
30
0
0
SPLINE
5
1D1
100
AcDbEntity
8
SK1
62
256
6
ByLayer
370
18
48
1
60
0
100
AcDbSpline
70
4
71
3
72
24
73
20
40
0
40
0
40
0
40
0
40
0.408002420194565
40
0.408002420194565
40
0.586477084363344
40
0.586477084363344
40
0.763728221544531
40
0.763728221544531
40
0.834648330426433
40
0.834648330426433
40
0.871680147904139
40
0.871680147904139
40
0.909315863704655
40
0.909315863704655
40
0.941446160303608
40
0.941446160303608
40
0.988233002766689
40
0.988233002766689
40
1
40
1
40
1
40
1
41
1
10
-1.30710678118652
20
3.62781725664615
30
0
41
1
10
-1.25754709276271
20
3.87919081380426
30
0
41
1
10
-1.19771793926935
20
4.1258004888399
30
0
41
1
10
-1.07980138365167
20
4.46640123366592
30
0
41
1
10
-1.03947389583288
20
4.56855181342542
30
0
41
1
10
-0.943165684412463
20
4.76452984977919
30
0
41
1
10
-0.887972849225264
20
4.86076144162985
30
0
41
1
10
-0.781589632759676
20
4.97623115222154
30
0
41
1
10
-0.746942513659519
20
5.00751721259149
30
0
41
1
10
-0.685298347589708
20
5.04425501792002
30
0
41
1
10
-0.662073057062685
20
5.05499571071988
30
0
41
1
10
-0.612858105189758
20
5.06918922724969
30
0
41
1
10
-0.586087478285776
20
5.07253385323435
30
0
41
1
10
-0.53789901457904
20
5.06994558199364
30
0
41
1
10
-0.515734678473677
20
5.06532466911642
30
0
41
1
10
-0.465255653618954
20
5.04798484569733
30
0
41
1
10
-0.437776087568864
20
5.03248974169179
30
0
41
1
10
-0.406986543980793
20
5.01034621255963
30
0
41
1
10
-0.400907252385935
20
5.00570060770792
30
0
41
1
10
-0.394976888875277
20
5.00092441402836
30
0
0
SPLINE
5
1D2
100
AcDbEntity
8
1
62
256
6
ByLayer
370
18
48
1
60
0
100
AcDbSpline
70
4
71
3
72
10
73
6
40
0
40
0
40
0
40
0
40
0.390552726282354
40
0.390552726282354
40
1
40
1
40
1
40
1
41
1
10
59.8329927105644
20
-0.666370205623537
30
0
41
1
10
59.7674888735239
20
-0.65800501551081
30
0
41
1
10
59.7072971135504
20
-0.642032488738323
30
0
41
1
10
59.5679191076009
20
-0.580915835251972
30
0
41
1
10
59.5026466987675
20
-0.53364031721668
30
0
41
1
10
59.4588337120163
20
-0.476336658992068
30
0
0
SPLINE
5
1D3
100
AcDbEntity
8
1
62
256
6
ByLayer
370
18
48
1
60
0
100
AcDbSpline
70
4
71
3
72
16
73
12
40
0
40
0
40
0
40
0
40
0.464304267159298
40
0.464304267159298
40
0.647533485141961
40
0.647533485141961
40
0.83338367586049
40
0.83338367586049
40
0.950238074309839
40
0.950238074309839
40
1
40
1
40
1
40
1
41
1
10
9.33660254037846
20
-6.16973001948571
30
0
41
1
10
9.31929643456959
20
-6.10699311212738
30
0
41
1
10
9.29554416795261
20
-6.04466199750289
30
0
41
1
10
9.24667293447288
20
-5.96658891111872
30
0
41
1
10
9.23079711658974
20
-5.94525308185359
30
0
41
1
10
9.19394564855392
20
-5.90694983484815
30
0
41
1
10
9.1724080925996
20
-5.88959453036586
30
0
41
1
10
9.13286934844768
20
-5.86981268651903
30
0
41
1
10
9.11613525534443
20
-5.86416869949437
30
0
41
1
10
9.09170798023393
20
-5.86046107106307
30
0
41
1
10
9.08424032311152
20
-5.85988980456932
30
0
41
1
10
9.07679491924313
20
-5.85988980456932
30
0
0
SPLINE
5
1D4
100
AcDbEntity
8
SK1
62
256
6
ByLayer
370
18
48
1
60
0
100
AcDbSpline
70
4
71
3
72
24
73
20
40
0
40
0
40
0
40
0
40
0.470757791634587
40
0.470757791634587
40
0.661826126045186
40
0.661826126045186
40
0.855689166516014
40
0.855689166516014
40
0.884460546127781
40
0.884460546127781
40
0.913606918141707
40
0.913606918141707
40
0.932763100125353
40
0.932763100125353
40
0.952039096782409
40
0.952039096782409
40
0.974618894615366
40
0.974618894615366
40
1
40
1
40
1
40
1
41
1
10
-0.199999999999989
20
-5.70317605472957
30
0
41
1
10
-0.199999999999932
20
-5.58107998739877
30
0
41
1
10
-0.203895983734867
20
-5.45705658909742
30
0
41
1
10
-0.223509916035653
20
-5.28128624620626
30
0
41
1
10
-0.230869166091793
20
-5.23019697507465
30
0
41
1
10
-0.252992963271993
20
-5.12819212434221
30
0
41
1
10
-0.266168518183178
20
-5.07487581669193
30
0
41
1
10
-0.299311339940999
20
-5.0220298399887
30
0
41
1
10
-0.30416637027804
20
-5.01525404855022
30
0
41
1
10
-0.315232060467992
20
-5.00279573504576
30
0
41
1
10
-0.321587352348615
20
-4.99699852204861
30
0
41
1
10
-0.333432884234526
20
-4.98975078853738
30
0
41
1
10
-0.338586253854487
20
-4.98746585289803
30
0
41
1
10
-0.349157439354428
20
-4.98479989040243
30
0
41
1
10
-0.354703931885979
20
-4.98441392730473
30
0
41
1
10
-0.366193082216284
20
-4.98556317954746
30
0
41
1
10
-0.372213152675215
20
-4.98741181161267
30
0
41
1
10
-0.383950186909431
20
-4.9928551366599
30
0
41
1
10
-0.389694431034428
20
-4.99667072159758
30
0
41
1
10
-0.394976888882155
20
-5.00092508225595
30
0
0
SPLINE
5
1D5
100
AcDbEntity
8
1
62
256
6
ByLayer
370
18
48
1
60
0
100
AcDbSpline
70
4
71
3
72
8
73
4
40
0
40
0
40
0
40
0
40
1
40
1
40
1
40
1
41
1
10
57.2680008494976
20
14
30
0
41
1
10
57.2682197692925
20
14
30
0
41
1
10
57.4593520344666
20
14
30
0
41
1
10
57.8024918494947
20
14
30
0
0
SPLINE
5
1D6
100
AcDbEntity
8
1
62
256
6
ByLayer
370
18
48
1
60
0
100
AcDbSpline
70
4
71
3
72
10
73
6
40
0
40
0
40
0
40
0
40
0.339661016949152
40
0.339661016949152
40
1
40
1
40
1
40
1
41
1
10
59.3631604552331
20
-0.262880532105385
30
0
41
1
10
59.3515366016053
20
-0.214172422614468
30
0
41
1
10
59.3461717460847
20
-0.130365822460988
30
0
41
1
10
59.3461717460847
20
0.221812910377764
30
0
41
1
10
59.3461717460847
20
0.454370256672632
30
0
41
1
10
59.3461717460847
20
0.686927602967501
30
0
0
SPLINE
5
1D7
100
AcDbEntity
8
1
62
256
6
ByLayer
370
18
48
1
60
0
100
AcDbSpline
70
4
71
3
72
10
73
6
40
0
40
0
40
0
40
0
40
0.925599934849105
40
0.925599934849105
40
1
40
1
40
1
40
1
41
1
10
58
20
-14
30
0
41
1
10
57.5761507077106
20
-14
30
0
41
1
10
57.3091191470521
20
-14
30
0
41
1
10
57.26957115055
20
-14
30
0
41
1
10
57.2681253479838
20
-14
30
0
41
1
10
57.2681475014683
20
-14
30
0
0
SPLINE
5
1D8
100
AcDbEntity
8
SK1
62
256
6
ByLayer
370
18
48
1
60
0
100
AcDbSpline
70
4
71
3
72
287
73
283
40
0
40
0
40
0
40
0
40
0.0011263651778015
40
0.0046149876613838
40
0.008103610144966
40
0.0115922326285483
40
0.0150808551121306
40
0.0185694775957128
40
0.0220581000792951
40
0.0255467225628774
40
0.0290353450464596
40
0.0325239675300419
40
0.0360125900136241
40
0.0395012124972064
40
0.0429898349807886
40
0.0464784574643709
40
0.0534557024315354
40
0.0569443249151177
40
0.0604329473987
40
0.0639215698822822
40
0.0674101923658645
40
0.074387437333029
40
0.0778760598166113
40
0.0813646823001935
40
0.0848533047837758
40
0.0883419272673581
40
0.0918305497509403
40
0.0953191722345226
40
0.102296417201687
40
0.105785039685269
40
0.109273662168852
40
0.112762284652434
40
0.116250907136016
40
0.119739529619598
40
0.123228152103181
40
0.126716774586763
40
0.130205397070345
40
0.13718264203751
40
0.140671264521092
40
0.144159887004674
40
0.151137131971839
40
0.158114376939003
40
0.161602999422585
40
0.165091621906168
40
0.16858024438975
40
0.172068866873332
40
0.175557489356915
40
0.179046111840497
40
0.180790423082288
40
0.182534734324079
40
0.186023356807661
40
0.189511979291244
40
0.193000601774826
40
0.199977846741991
40
0.203466469225573
40
0.206955091709155
40
0.210443714192737
40
0.21393233667632
40
0.217420959159902
40
0.220909581643484
40
0.224398204127066
40
0.227886826610648
40
0.231375449094231
40
0.234864071577813
40
0.241841316544978
40
0.24532993902856
40
0.248818561512142
40
0.250562872753933
40
0.252307183995724
40
0.255795806479307
40
0.262773051446471
40
0.266261673930053
40
0.269750296413636
40
0.2767275413808
40
0.283704786347965
40
0.287193408831547
40
0.290682031315129
40
0.297659276282294
40
0.301147898765876
40
0.304636521249458
40
0.308125143733041
40
0.311613766216623
40
0.315102388700205
40
0.318591011183787
40
0.325568256150952
40
0.332545501118116
40
0.336034123601699
40
0.339522746085281
40
0.343011368568863
40
0.346499991052445
40
0.35347723601961
40
0.360454480986775
40
0.367431725953939
40
0.374408970921103
40
0.377897593404686
40
0.381386215888268
40
0.38487483837185
40
0.388363460855433
40
0.391852083339015
40
0.395340705822597
40
0.398829328306179
40
0.402317950789762
40
0.405806573273344
40
0.409295195756926
40
0.412783818240508
40
0.416272440724091
40
0.419761063207673
40
0.423249685691255
40
0.426738308174837
40
0.43022693065842
40
0.433715553142002
40
0.437204175625584
40
0.440692798109167
40
0.444181420592749
40
0.447670043076331
40
0.449414354318122
40
0.451158665559913
40
0.454647288043496
40
0.456391599285287
40
0.458135910527078
40
0.459880221768869
40
0.46162453301066
40
0.463368844252451
40
0.465113155494242
40
0.466857466736034
40
0.468601777977825
40
0.472090400461407
40
0.473834711703198
40
0.475579022944989
40
0.47732333418678
40
0.479067645428571
40
0.480811956670363
40
0.482556267912154
40
0.484300579153945
40
0.486044890395736
40
0.487789201637527
40
0.489533512879318
40
0.491277824121109
40
0.493022135362901
40
0.494766446604692
40
0.496510757846483
40
0.498255069088274
40
0.499999380330065
40
0.501743691571856
40
0.503488002813647
40
0.505232314055438
40
0.506976625297229
40
0.508720936539021
40
0.510465247780812
40
0.512209559022603
40
0.513953870264394
40
0.515698181506185
40
0.517442492747976
40
0.519186803989767
40
0.520931115231559
40
0.52267542647335
40
0.524419737715141
40
0.526164048956932
40
0.527908360198723
40
0.531396982682305
40
0.533141293924096
40
0.534885605165888
40
0.536629916407679
40
0.53837422764947
40
0.540118538891261
40
0.541862850133052
40
0.543607161374843
40
0.545351472616634
40
0.548840095100217
40
0.550584406342008
40
0.552328717583799
40
0.555817340067381
40
0.559305962550963
40
0.562794585034546
40
0.566283207518128
40
0.56977183000171
40
0.573260452485292
40
0.576749074968875
40
0.580237697452457
40
0.583726319936039
40
0.587214942419621
40
0.590703564903204
40
0.594192187386786
40
0.597680809870368
40
0.601169432353951
40
0.604658054837533
40
0.608146677321115
40
0.611635299804697
40
0.61512392228828
40
0.618612544771862
40
0.622101167255444
40
0.625589789739026
40
0.632567034706191
40
0.639544279673355
40
0.64652152464052
40
0.653498769607684
40
0.656987392091267
40
0.660476014574849
40
0.663964637058431
40
0.667453259542014
40
0.674430504509178
40
0.681407749476343
40
0.684896371959925
40
0.688384994443507
40
0.691873616927089
40
0.695362239410672
40
0.698850861894254
40
0.702339484377836
40
0.709316729345001
40
0.712805351828583
40
0.716293974312165
40
0.72327121927933
40
0.730248464246494
40
0.733737086730076
40
0.737225709213659
40
0.744202954180823
40
0.747691576664405
40
0.749435887906197
40
0.751180199147988
40
0.75466882163157
40
0.758157444115152
40
0.765134689082317
40
0.768623311565899
40
0.772111934049481
40
0.775600556533064
40
0.779089179016646
40
0.782577801500228
40
0.78606642398381
40
0.789555046467393
40
0.793043668950975
40
0.796532291434557
40
0.800020913918139
40
0.806998158885304
40
0.810486781368886
40
0.813975403852468
40
0.817464026336051
40
0.819208337577842
40
0.820952648819633
40
0.824441271303215
40
0.827929893786798
40
0.83141851627038
40
0.834907138753962
40
0.838395761237544
40
0.841884383721127
40
0.848861628688291
40
0.855838873655456
40
0.859327496139038
40
0.86281611862262
40
0.869793363589785
40
0.873281986073367
40
0.876770608556949
40
0.880259231040531
40
0.883747853524114
40
0.887236476007696
40
0.890725098491278
40
0.894213720974861
40
0.897702343458443
40
0.904679588425607
40
0.90816821090919
40
0.911656833392772
40
0.915145455876354
40
0.918634078359936
40
0.922122700843519
40
0.925611323327101
40
0.932588568294265
40
0.936077190777848
40
0.93956581326143
40
0.943054435745012
40
0.946543058228595
40
0.953520303195759
40
0.960497548162924
40
0.967474793130088
40
0.97096341561367
40
0.974452038097253
40
0.977940660580835
40
0.981429283064417
40
0.984917905547999
40
0.988406528031582
40
0.991895150515164
40
0.995383772998746
40
0.998872395482328
40
1
40
1
40
1
40
1
41
1
10
-22.5
20
-13.4956568882463
30
0
41
1
10
-22.5
20
-13.4959565548956
30
0
41
1
10
-22.5
20
-13.4970361202017
30
0
41
1
10
-22.5
20
-13.4978715423881
30
0
41
1
10
-22.5
20
-13.4969168014739
30
0
41
1
10
-22.5
20
-13.4939634903146
30
0
41
1
10
-22.5
20
-13.4890446841776
30
0
41
1
10
-22.5
20
-13.4821927509398
30
0
41
1
10
-22.5
20
-13.4734380181859
30
0
41
1
10
-22.5
20
-13.4628103286331
30
0
41
1
10
-22.5
20
-13.4503375548199
30
0
41
1
10
-22.5
20
-13.4360470510206
30
0
41
1
10
-22.5
20
-13.4199649415155
30
0
41
1
10
-22.5
20
-13.4021158939438
30
0
41
1
10
-22.5
20
-13.3825245595672
30
0
41
1
10
-22.5
20
-13.3540536969874
30
0
41
1
10
-22.5
20
-13.3223661764574
30
0
41
1
10
-22.5
20
-13.2871835921006
30
0
41
1
10
-22.5
20
-13.2592105165633
30
0
41
1
10
-22.5
20
-13.2296213845592
30
0
41
1
10
-22.5
20
-13.1879639125281
30
0
41
1
10
-22.5
20
-13.143384141029
30
0
41
1
10
-22.5
20
-13.0954724456838
30
0
41
1
10
-22.5
20
-13.0580721081213
30
0
41
1
10
-22.5
20
-13.0191589652135
30
0
41
1
10
-22.5
20
-12.9787481114295
30
0
41
1
10
-22.5
20
-12.9368537080862
30
0
41
1
10
-22.5
20
-12.8789380178894
30
0
41
1
10
-22.5
20
-12.8184132466048
30
0
41
1
10
-22.5
20
-12.7547247990428
30
0
41
1
10
-22.5
20
-12.7056201424592
30
0
41
1
10
-22.5
20
-12.6551113940765
30
0
41
1
10
-22.5
20
-12.6032111946844
30
0
41
1
10
-22.5
20
-12.5499298292215
30
0
41
1
10
-22.5
20
-12.4952790541085
30
0
41
1
10
-22.5
20
-12.4392702870471
30
0
41
1
10
-22.5
20
-12.3626709807027
30
0
41
1
10
-22.5
20
-12.2837700876339
30
0
41
1
10
-22.5
20
-12.2018541939414
30
0
41
1
10
-22.5
20
-12.1181901818313
30
0
41
1
10
-22.5
20
-12.0106580919609
30
0
41
1
10
-22.5
20
-11.8988608066556
30
0
41
1
10
-22.5
20
-11.8066391033682
30
0
41
1
10
-22.5
20
-11.7363216229303
30
0
41
1
10
-22.5
20
-11.664755015164
30
0
41
1
10
-22.5
20
-11.5919461625788
30
0
41
1
10
-22.5
20
-11.5179033535968
30
0
41
1
10
-22.5
20
-11.4552554448703
30
0
41
1
10
-22.5
20
-11.4043881128182
30
0
41
1
10
-22.5
20
-11.3531143441571
30
0
41
1
10
-22.5
20
-11.2884404756242
30
0
41
1
10
-22.5
20
-11.2095312195267
30
0
41
1
10
-22.5
20
-11.1025558384385
30
0
41
1
10
-22.5
20
-10.9936883968037
30
0
41
1
10
-22.5
20
-10.881957410682
30
0
41
1
10
-22.5
20
-10.7971107724731
30
0
41
1
10
-22.5
20
-10.7110950034658
30
0
41
1
10
-22.5
20
-10.6239149629423
30
0
41
1
10
-22.5
20
-10.5355769962349
30
0
41
1
10
-22.5
20
-10.4460865401309
30
0
41
1
10
-22.5
20
-10.3554481360506
30
0
41
1
10
-22.5
20
-10.2636671117607
30
0
41
1
10
-22.5
20
-10.1707494782419
30
0
41
1
10
-22.5
20
-10.0451570606616
30
0
41
1
10
-22.5
20
-9.91789360326425
30
0
41
1
10
-22.5
20
-9.7878008492857
30
0
41
1
10
-22.5
20
-9.70579080403837
30
0
41
1
10
-22.5
20
-9.63944491324963
30
0
41
1
10
-22.5
20
-9.57273013875857
30
0
41
1
10
-22.5
20
-9.45508835059127
30
0
41
1
10
-22.5
20
-9.31898451102211
30
0
41
1
10
-22.5
20
-9.1800498446504
30
0
41
1
10
-22.5
20
-9.0396637144479
30
0
41
1
10
-22.5
20
-8.86197299364807
30
0
41
1
10
-22.5
20
-8.68069429599308
30
0
41
1
10
-22.5
20
-8.53310893988203
30
0
41
1
10
-22.5
20
-8.38410356414289
30
0
41
1
10
-22.5
20
-8.23370694014301
30
0
41
1
10
-22.5
20
-8.08045169790756
30
0
41
1
10
-22.5
20
-7.96465013686168
30
0
41
1
10
-22.5
20
-7.84779994085653
30
0
41
1
10
-22.5
20
-7.72990620240671
30
0
41
1
10
-22.5
20
-7.61097087712017
30
0
41
1
10
-22.5
20
-7.45073654783442
30
0
41
1
10
-22.5
20
-7.24848505302424
30
0
41
1
10
-22.5
20
-7.04280522024891
30
0
41
1
10
-22.5
20
-6.87569116366484
30
0
41
1
10
-22.5
20
-6.74956631857708
30
0
41
1
10
-22.5
20
-6.62242825981923
30
0
41
1
10
-22.5
20
-6.45125557139397
30
0
41
1
10
-22.5
20
-6.23550104742759
30
0
41
1
10
-22.5
20
-5.97220551419213
30
0
41
1
10
-22.5
20
-5.7049565533743
30
0
41
1
10
-22.5
20
-5.47933703089228
30
0
41
1
10
-22.5
20
-5.29623478947155
30
0
41
1
10
-22.5
20
-5.15823571506775
30
0
41
1
10
-22.5
20
-5.01927991936708
30
0
41
1
10
-22.5
20
-4.87937424460148
30
0
41
1
10
-22.5
20
-4.73852585442467
30
0
41
1
10
-22.5
20
-4.59674271442697
30
0
41
1
10
-22.5
20
-4.45403251641869
30
0
41
1
10
-22.5
20
-4.31040320562681
30
0
41
1
10
-22.5
20
-4.16586499181523
30
0
41
1
10
-22.5
20
-4.0204295025855
30
0
41
1
10
-22.5
20
-3.87410940415094
30
0
41
1
10
-22.5
20
-3.72691655621918
30
0
41
1
10
-22.5
20
-3.57886234252629
30
0
41
1
10
-22.5
20
-3.42996282061051
30
0
41
1
10
-22.5
20
-3.2802363758513
30
0
41
1
10
-22.5
20
-3.12970236953146
30
0
41
1
10
-22.5
20
-2.9783800820847
30
0
41
1
10
-22.5
20
-2.82629223006825
30
0
41
1
10
-22.5
20
-2.67346522993279
30
0
41
1
10
-22.5
20
-2.51992552331166
30
0
41
1
10
-22.5
20
-2.39172837491469
30
0
41
1
10
-22.5
20
-2.28823685042079
30
0
41
1
10
-22.5
20
-2.18454583019769
30
0
41
1
10
-22.5
20
-2.08161605220533
30
0
41
1
10
-22.5
20
-1.97729736527975
30
0
41
1
10
-22.5
20
-1.8992068709004
30
0
41
1
10
-22.5
20
-1.82098461234614
30
0
41
1
10
-22.5
20
-1.74263820265685
30
0
41
1
10
-22.5
20
-1.66417088377818
30
0
41
1
10
-22.5
20
-1.58559131690834
30
0
41
1
10
-22.5
20
-1.50690430877853
30
0
41
1
10
-22.5
20
-1.40144071039384
30
0
41
1
10
-22.5
20
-1.29707565327635
30
0
41
1
10
-22.5
20
-1.19121866112908
30
0
41
1
10
-22.5
20
-1.11209555133371
30
0
41
1
10
-22.5
20
-1.03290641330761
30
0
41
1
10
-22.5
20
-0.953656082911948
30
0
41
1
10
-22.5
20
-0.874352236673587
30
0
41
1
10
-22.5
20
-0.795000235128668
30
0
41
1
10
-22.5
20
-0.715606595157226
30
0
41
1
10
-22.5
20
-0.636176672544991
30
0
41
1
10
-22.5
20
-0.556716044364009
30
0
41
1
10
-22.5
20
-0.477229377934975
30
0
41
1
10
-22.5
20
-0.397721596430074
30
0
41
1
10
-22.5
20
-0.318196574925025
30
0
41
1
10
-22.5
20
-0.238658616598514
30
0
41
1
10
-22.5
20
-0.159110863620981
30
0
41
1
10
-22.5
20
-0.0795570195282949
30
0
41
1
10
-22.5
20
-4.3520458E-09
30
0
41
1
10
-22.5
20
0.0795570008676236
30
0
41
1
10
-22.5
20
0.159110826532412
30
0
41
1
10
-22.5
20
0.238658582119854
30
0
41
1
10
-22.5
20
0.318196568076189
30
0
41
1
10
-22.5
20
0.397721593521055
30
0
41
1
10
-22.5
20
0.477229338262987
30
0
41
1
10
-22.5
20
0.556715993884097
30
0
41
1
10
-22.5
20
0.636176666807899
30
0
41
1
10
-22.5
20
0.715606608921348
30
0
41
1
10
-22.5
20
0.79500019850525
30
0
41
1
10
-22.5
20
0.874352168955852
30
0
41
1
10
-22.5
20
0.95365606681014
30
0
41
1
10
-22.5
20
1.03290644237791
30
0
41
1
10
-22.5
20
1.11209553564783
30
0
41
1
10
-22.5
20
1.1912185842138
30
0
41
1
10
-22.5
20
1.29707563275719
30
0
41
1
10
-22.5
20
1.40144074045128
30
0
41
1
10
-22.5
20
1.50690426712367
30
0
41
1
10
-22.5
20
1.58559123041408
30
0
41
1
10
-22.5
20
1.66417084854152
30
0
41
1
10
-22.5
20
1.74263823347053
30
0
41
1
10
-22.5
20
1.82098464012648
30
0
41
1
10
-22.5
20
1.89920682890118
30
0
41
1
10
-22.5
20
1.97729727415896
30
0
41
1
10
-22.5
20
2.08161602870012
30
0
41
1
10
-22.5
20
2.18454587114542
30
0
41
1
10
-22.5
20
2.28823684006233
30
0
41
1
10
-22.5
20
2.39172828921562
30
0
41
1
10
-22.5
20
2.51992549648588
30
0
41
1
10
-22.5
20
2.67346525953189
30
0
41
1
10
-22.5
20
2.8262921676581
30
0
41
1
10
-22.5
20
2.97838003358396
30
0
41
1
10
-22.5
20
3.12970257053468
30
0
41
1
10
-22.5
20
3.28023687778403
30
0
41
1
10
-22.5
20
3.4299627769704
30
0
41
1
10
-22.5
20
3.57886126909131
30
0
41
1
10
-22.5
20
3.72691565105669
30
0
41
1
10
-22.5
20
3.87410976932693
30
0
41
1
10
-22.5
20
4.02043049501106
30
0
41
1
10
-22.5
20
4.16586580001649
30
0
41
1
10
-22.5
20
4.31040309161108
30
0
41
1
10
-22.5
20
4.45403157575561
30
0
41
1
10
-22.5
20
4.59674211262632
30
0
41
1
10
-22.5
20
4.73852599905979
30
0
41
1
10
-22.5
20
4.87937450907225
30
0
41
1
10
-22.5
20
5.01927995326395
30
0
41
1
10
-22.5
20
5.15823567759486
30
0
41
1
10
-22.5
20
5.29623480232561
30
0
41
1
10
-22.5
20
5.47933703035869
30
0
41
1
10
-22.5
20
5.70495651005672
30
0
41
1
10
-22.5
20
5.97220551217549
30
0
41
1
10
-22.5
20
6.23550102644134
30
0
41
1
10
-22.5
20
6.4512555331213
30
0
41
1
10
-22.5
20
6.62242827644155
30
0
41
1
10
-22.5
20
6.74956632065386
30
0
41
1
10
-22.5
20
6.87569112826708
30
0
41
1
10
-22.5
20
7.04280518235294
30
0
41
1
10
-22.5
20
7.24848505186407
30
0
41
1
10
-22.5
20
7.45073654157579
30
0
41
1
10
-22.5
20
7.61097083499584
30
0
41
1
10
-22.5
20
7.72990617143802
30
0
41
1
10
-22.5
20
7.84779993569691
30
0
41
1
10
-22.5
20
7.96465014223952
30
0
41
1
10
-22.5
20
8.08045168982596
30
0
41
1
10
-22.5
20
8.23370690743872
30
0
41
1
10
-22.5
20
8.38410353449393
30
0
41
1
10
-22.5
20
8.53310893756458
30
0
41
1
10
-22.5
20
8.68069429175796
30
0
41
1
10
-22.5
20
8.86197296792949
30
0
41
1
10
-22.5
20
9.03966368952013
30
0
41
1
10
-22.5
20
9.18004983919923
30
0
41
1
10
-22.5
20
9.31898450356374
30
0
41
1
10
-22.5
20
9.4550883278169
30
0
41
1
10
-22.5
20
9.57273011219269
30
0
41
1
10
-22.5
20
9.63944489130404
30
0
41
1
10
-22.5
20
9.70579078784203
30
0
41
1
10
-22.5
20
9.78780083934151
30
0
41
1
10
-22.5
20
9.9178935930201
30
0
41
1
10
-22.5
20
10.0451570413025
30
0
41
1
10
-22.5
20
10.1707494549495
30
0
41
1
10
-22.5
20
10.2636670923514
30
0
41
1
10
-22.5
20
10.3554481215356
30
0
41
1
10
-22.5
20
10.4460865275718
30
0
41
1
10
-22.5
20
10.5355769819029
30
0
41
1
10
-22.5
20
10.6239149454149
30
0
41
1
10
-22.5
20
10.7110949831286
30
0
41
1
10
-22.5
20
10.7971107518715
30
0
41
1
10
-22.5
20
10.881957392112
30
0
41
1
10
-22.5
20
10.9936883814227
30
0
41
1
10
-22.5
20
11.1025558247745
30
0
41
1
10
-22.5
20
11.2095312020912
30
0
41
1
10
-22.5
20
11.2884404549429
30
0
41
1
10
-22.5
20
11.3531143221948
30
0
41
1
10
-22.5
20
11.4043880916923
30
0
41
1
10
-22.5
20
11.4552554262223
30
0
41
1
10
-22.5
20
11.5179033392113
30
0
41
1
10
-22.5
20
11.59194615036
30
0
41
1
10
-22.5
20
11.6647550005754
30
0
41
1
10
-22.5
20
11.7363216027855
30
0
41
1
10
-22.5
20
11.8066390784571
30
0
41
1
10
-22.5
20
11.8988607853738
30
0
41
1
10
-22.5
20
12.0106580823312
30
0
41
1
10
-22.5
20
12.1181901660327
30
0
41
1
10
-22.5
20
12.201854166622
30
0
41
1
10
-22.5
20
12.2837700633604
30
0
41
1
10
-22.5
20
12.3626709718699
30
0
41
1
10
-22.5
20
12.4392702770472
30
0
41
1
10
-22.5
20
12.4952790326449
30
0
41
1
10
-22.5
20
12.5499297998313
30
0
41
1
10
-22.5
20
12.6032111684974
30
0
41
1
10
-22.5
20
12.6551113810006
30
0
41
1
10
-22.5
20
12.7056201369325
30
0
41
1
10
-22.5
20
12.7547247883428
30
0
41
1
10
-22.5
20
12.8184132188765
30
0
41
1
10
-22.5
20
12.8789379874313
30
0
41
1
10
-22.5
20
12.9368537004399
30
0
41
1
10
-22.5
20
12.9787481075024
30
0
41
1
10
-22.5
20
13.0191589474766
30
0
41
1
10
-22.5
20
13.0580720783436
30
0
41
1
10
-22.5
20
13.0954724183384
30
0
41
1
10
-22.5
20
13.1433841284414
30
0
41
1
10
-22.5
20
13.1879639126742
30
0
41
1
10
-22.5
20
13.2296213566399
30
0
41
1
10
-22.5
20
13.2592104836088
30
0
41
1
10
-22.5
20
13.2871835761246
30
0
41
1
10
-22.5
20
13.3223661774289
30
0
41
1
10
-22.5
20
13.3620642251226
30
0
41
1
10
-22.5
20
13.402990048048
30
0
41
1
10
-22.5
20
13.4312436783152
30
0
41
1
10
-22.5
20
13.4503375493538
30
0
41
1
10
-22.5
20
13.4628104278487
30
0
41
1
10
-22.5
20
13.4734382711797
30
0
41
1
10
-22.5
20
13.4821928739338
30
0
41
1
10
-22.5
20
13.4890441905268
30
0
41
1
10
-22.5
20
13.4939625245411
30
0
41
1
10
-22.5
20
13.4969161903089
30
0
41
1
10
-22.5
20
13.4978716184631
30
0
41
1
10
-22.5
20
13.4970363199821
30
0
41
1
10
-22.5
20
13.4959563496174
30
0
41
1
10
-22.5
20
13.495656280264
30
0
0
SPLINE
5
1D9
100
AcDbEntity
8
SK1
62
256
6
ByLayer
370
18
48
1
60
0
100
AcDbSpline
70
4
71
3
72
24
73
20
40
0
40
0
40
0
40
0
40
0.0014544386984401
40
0.0014544386984401
40
0.361956423059534
40
0.361956423059534
40
0.727731599250264
40
0.727731599250264
40
0.782013304695327
40
0.782013304695327
40
0.837002501937614
40
0.837002501937614
40
0.873144196436421
40
0.873144196436421
40
0.909511909647796
40
0.909511909647796
40
0.952113857168695
40
0.952113857168695
40
1
40
1
40
1
40
1
41
1
10
-0.217773520819833
20
13.9477771104647
30
0
41
1
10
-0.217796303830482
20
13.9477385212397
30
0
41
1
10
-0.217819113763085
20
13.9476999169832
30
0
41
1
10
-0.223510113646768
20
13.9380759054838
30
0
41
1
10
-0.230869554015129
20
13.9275300777215
30
0
41
1
10
-0.252993763945824
20
13.9036085654018
30
0
41
1
10
-0.266169306055161
20
13.8900912648143
30
0
41
1
10
-0.299313210098916
20
13.8713678522793
30
0
41
1
10
-0.304168151080034
20
13.8688119846588
30
0
41
1
10
-0.31523361382682
20
13.8635902765912
30
0
41
1
10
-0.321588767727121
20
13.8608655729355
30
0
41
1
10
-0.333434048045518
20
13.8565368608439
30
0
41
1
10
-0.33858734581375
20
13.8548370746726
30
0
41
1
10
-0.349158334685939
20
13.8517865918864
30
0
41
1
10
-0.354704697438677
20
13.8504050227189
30
0
41
1
10
-0.366193697521936
20
13.847969712967
30
0
41
1
10
-0.37221373013341
20
13.8469665678177
30
0
41
1
10
-0.383950527302631
20
13.8454141457692
30
0
41
1
10
-0.389694590782
20
13.8449066720063
30
0
41
1
10
-0.394976888882155
20
13.8446015176357
30
0
0
SPLINE
5
1DA
100
AcDbEntity
8
SK1
62
256
6
ByLayer
370
18
48
1
60
0
100
AcDbSpline
70
4
71
3
72
281
73
277
40
0
40
0
40
0
40
0
40
0.0026986543387321
40
0.0062508109341928
40
0.0098029675296534
40
0.0133551241251142
40
0.0169072807205749
40
0.0204594373160355
40
0.0240115939114962
40
0.0311159071024177
40
0.038220220293339
40
0.0453245334842604
40
0.0488766900797211
40
0.0524288466751818
40
0.0559810032706425
40
0.0595331598661032
40
0.0666374730570246
40
0.0701896296524853
40
0.0737417862479459
40
0.0772939428434066
40
0.0808460994388673
40
0.084398256034328
40
0.0879504126297888
40
0.0950547258207101
40
0.0986068824161708
40
0.102159039011631
40
0.105711195607092
40
0.109263352202553
40
0.112815508798013
40
0.116367665393474
40
0.119919821988935
40
0.123471978584396
40
0.130576291775317
40
0.134128448370778
40
0.137680604966238
40
0.14478491815716
40
0.151889231348081
40
0.155441387943542
40
0.158993544539003
40
0.162545701134463
40
0.166097857729924
40
0.169650014325385
40
0.173202170920845
40
0.174978249218576
40
0.176754327516306
40
0.180306484111767
40
0.183858640707227
40
0.187410797302688
40
0.19451511049361
40
0.19806726708907
40
0.201619423684531
40
0.205171580279992
40
0.208723736875452
40
0.212275893470913
40
0.215828050066374
40
0.219380206661834
40
0.222932363257295
40
0.226484519852756
40
0.230036676448216
40
0.237140989639138
40
0.240693146234599
40
0.244245302830059
40
0.24602138112779
40
0.24779745942552
40
0.251349616020981
40
0.258453929211902
40
0.262006085807363
40
0.265558242402823
40
0.272662555593745
40
0.279766868784666
40
0.283319025380127
40
0.286871181975587
40
0.293975495166509
40
0.297527651761969
40
0.30107980835743
40
0.304631964952891
40
0.308184121548352
40
0.311736278143812
40
0.315288434739273
40
0.322392747930195
40
0.329497061121116
40
0.333049217716577
40
0.336601374312037
40
0.340153530907498
40
0.343705687502959
40
0.35081000069388
40
0.357914313884801
40
0.365018627075723
40
0.372122940266644
40
0.375675096862105
40
0.379227253457566
40
0.382779410053026
40
0.386331566648487
40
0.389883723243948
40
0.393435879839408
40
0.396988036434869
40
0.40054019303033
40
0.40409234962579
40
0.407644506221251
40
0.411196662816712
40
0.414748819412173
40
0.418300976007633
40
0.421853132603094
40
0.425405289198555
40
0.428957445794015
40
0.432509602389476
40
0.436061758984937
40
0.439613915580397
40
0.443166072175858
40
0.446718228771319
40
0.448494307069049
40
0.450270385366779
40
0.45382254196224
40
0.455598620259971
40
0.457374698557701
40
0.459150776855431
40
0.460926855153162
40
0.462702933450892
40
0.464479011748622
40
0.466255090046353
40
0.468031168344083
40
0.471583324939544
40
0.473359403237274
40
0.475135481535004
40
0.476911559832735
40
0.478687638130465
40
0.480463716428195
40
0.482239794725926
40
0.484015873023656
40
0.485791951321386
40
0.487568029619117
40
0.489344107916847
40
0.491120186214577
40
0.492896264512308
40
0.494672342810038
40
0.496448421107768
40
0.498224499405499
40
0.500000577703229
40
0.50177665600096
40
0.50355273429869
40
0.50532881259642
40
0.507104890894151
40
0.508880969191881
40
0.510657047489611
40
0.512433125787342
40
0.514209204085072
40
0.515985282382802
40
0.517761360680533
40
0.519537438978263
40
0.521313517275993
40
0.523089595573724
40
0.524865673871454
40
0.526641752169184
40
0.528417830466915
40
0.531969987062375
40
0.533746065360106
40
0.535522143657836
40
0.537298221955567
40
0.539074300253297
40
0.540850378551027
40
0.542626456848758
40
0.544402535146488
40
0.546178613444218
40
0.549730770039679
40
0.551506848337409
40
0.55328292663514
40
0.5568350832306
40
0.560387239826061
40
0.563939396421522
40
0.567491553016982
40
0.571043709612443
40
0.574595866207904
40
0.578148022803364
40
0.581700179398825
40
0.585252335994286
40
0.588804492589747
40
0.592356649185207
40
0.595908805780668
40
0.599460962376129
40
0.603013118971589
40
0.60656527556705
40
0.610117432162511
40
0.613669588757971
40
0.617221745353432
40
0.620773901948893
40
0.624326058544354
40
0.627878215139814
40
0.634982528330736
40
0.642086841521657
40
0.649191154712578
40
0.6562954679035
40
0.65984762449896
40
0.663399781094421
40
0.666951937689882
40
0.670504094285342
40
0.677608407476264
40
0.684712720667185
40
0.688264877262646
40
0.691817033858107
40
0.695369190453567
40
0.698921347049028
40
0.702473503644489
40
0.706025660239949
40
0.713129973430871
40
0.716682130026332
40
0.720234286621792
40
0.727338599812714
40
0.734442913003635
40
0.737995069599096
40
0.741547226194557
40
0.748651539385478
40
0.752203695980939
40
0.753979774278669
40
0.755755852576399
40
0.75930800917186
40
0.762860165767321
40
0.769964478958242
40
0.773516635553703
40
0.777068792149163
40
0.780620948744624
40
0.784173105340085
40
0.787725261935545
40
0.791277418531006
40
0.794829575126467
40
0.798381731721928
40
0.801933888317388
40
0.805486044912849
40
0.81259035810377
40
0.816142514699231
40
0.819694671294692
40
0.823246827890152
40
0.825022906187883
40
0.826798984485613
40
0.830351141081074
40
0.833903297676534
40
0.837455454271995
40
0.841007610867456
40
0.844559767462916
40
0.848111924058377
40
0.855216237249299
40
0.86232055044022
40
0.865872707035681
40
0.869424863631141
40
0.876529176822063
40
0.880081333417523
40
0.883633490012984
40
0.887185646608445
40
0.890737803203906
40
0.894289959799366
40
0.897842116394827
40
0.901394272990288
40
0.904946429585748
40
0.91205074277667
40
0.91560289937213
40
0.919155055967591
40
0.922707212563052
40
0.926259369158512
40
0.929811525753973
40
0.933363682349434
40
0.940467995540355
40
0.944020152135816
40
0.947572308731277
40
0.951124465326737
40
0.954676621922198
40
0.961780935113119
40
0.96533309170858
40
0.968885248304041
40
0.972437404899501
40
0.975989561494962
40
0.979541718090423
40
0.983093874685884
40
0.986646031281344
40
0.990198187876805
40
0.993750344472266
40
0.997302501067726
40
1
40
1
40
1
40
1
41
1
10
-24
20
12.6301285473294
30
0
41
1
10
-24
20
12.6295507161573
30
0
41
1
10
-24
20
12.6277960260848
30
0
41
1
10
-24
20
12.623548726994
30
0
41
1
10
-24
20
12.6171099043119
30
0
41
1
10
-24
20
12.6088736083307
30
0
41
1
10
-24
20
12.5988647342338
30
0
41
1
10
-24
20
12.5871069661155
30
0
41
1
10
-24
20
12.569020437469
30
0
41
1
10
-24
20
12.5424060911486
30
0
41
1
10
-24
20
12.5036823998811
30
0
41
1
10
-24
20
12.466179119183
30
0
41
1
10
-24
20
12.4326960489613
30
0
41
1
10
-24
20
12.4061495447384
30
0
41
1
10
-24
20
12.3780532328159
30
0
41
1
10
-24
20
12.3383402816863
30
0
41
1
10
-24
20
12.2962370819873
30
0
41
1
10
-24
20
12.2505027270977
30
0
41
1
10
-24
20
12.2149010201899
30
0
41
1
10
-24
20
12.1778433481664
30
0
41
1
10
-24
20
12.1393440238031
30
0
41
1
10
-24
20
12.0994154546281
30
0
41
1
10
-24
20
12.0440223921017
30
0
41
1
10
-24
20
11.9866456328948
30
0
41
1
10
-24
20
11.9256779328098
30
0
41
1
10
-24
20
11.8787993022056
30
0
41
1
10
-24
20
11.8305656793587
30
0
41
1
10
-24
20
11.78099039585
30
0
41
1
10
-24
20
11.7300825884547
30
0
41
1
10
-24
20
11.6778529900837
30
0
41
1
10
-24
20
11.6243139686469
30
0
41
1
10
-24
20
11.5508590476175
30
0
41
1
10
-24
20
11.4758394707542
30
0
41
1
10
-24
20
11.3972466128896
30
0
41
1
10
-24
20
11.3169609533628
30
0
41
1
10
-24
20
11.2142799019792
30
0
41
1
10
-24
20
11.1074990885262
30
0
41
1
10
-24
20
11.0189464603389
30
0
41
1
10
-24
20
10.9516093773873
30
0
41
1
10
-24
20
10.8830697782116
30
0
41
1
10
-24
20
10.8133337656712
30
0
41
1
10
-24
20
10.742410178912
30
0
41
1
10
-24
20
10.6825334430363
30
0
41
1
10
-24
20
10.6336671760819
30
0
41
1
10
-24
20
10.5844084477175
30
0
41
1
10
-24
20
10.5225869468266
30
0
41
1
10
-24
20
10.4469857296791
30
0
41
1
10
-24
20
10.3442039867663
30
0
41
1
10
-24
20
10.2404782892815
30
0
41
1
10
-24
20
10.133123847137
30
0
41
1
10
-24
20
10.0518274139735
30
0
41
1
10
-24
20
9.96941226524035
30
0
41
1
10
-24
20
9.8858827890852
30
0
41
1
10
-24
20
9.80124634105391
30
0
41
1
10
-24
20
9.71550990056983
30
0
41
1
10
-24
20
9.62867742465994
30
0
41
1
10
-24
20
9.54075474090104
30
0
41
1
10
-24
20
9.4517501287076
30
0
41
1
10
-24
20
9.33111730296775
30
0
41
1
10
-24
20
9.20992961158595
30
0
41
1
10
-24
20
9.08500600225796
30
0
41
1
10
-24
20
9.00666454438806
30
0
41
1
10
-24
20
8.94296708063843
30
0
41
1
10
-24
20
8.87892107357061
30
0
41
1
10
-24
20
8.76613371827506
30
0
41
1
10
-24
20
8.63663898523424
30
0
41
1
10
-24
20
8.50332881313915
30
0
41
1
10
-24
20
8.36865251940401
30
0
41
1
10
-24
20
8.19913342470039
30
0
41
1
10
-24
20
8.02625870426021
30
0
41
1
10
-24
20
7.8848123267644
30
0
41
1
10
-24
20
7.74204568631342
30
0
41
1
10
-24
20
7.59930458489885
30
0
41
1
10
-24
20
7.4525738679572
30
0
41
1
10
-24
20
7.34207855908448
30
0
41
1
10
-24
20
7.23061782890773
30
0
41
1
10
-24
20
7.11820191301103
30
0
41
1
10
-24
20
7.00483374343872
30
0
41
1
10
-24
20
6.8516785758469
30
0
41
1
10
-24
20
6.65959441745031
30
0
41
1
10
-24
20
6.46441027855923
30
0
41
1
10
-24
20
6.30499529459036
30
0
41
1
10
-24
20
6.18514753468799
30
0
41
1
10
-24
20
6.06440158167572
30
0
41
1
10
-24
20
5.90137597131746
30
0
41
1
10
-24
20
5.6973636795567
30
0
41
1
10
-24
20
5.44799894794272
30
0
41
1
10
-24
20
5.19525670130326
30
0
41
1
10
-24
20
4.98285125019771
30
0
41
1
10
-24
20
4.80950544532163
30
0
41
1
10
-24
20
4.67950096380326
30
0
41
1
10
-24
20
4.54872537799758
30
0
41
1
10
-24
20
4.41719445888799
30
0
41
1
10
-24
20
4.28492388892994
30
0
41
1
10
-24
20
4.15193103870837
30
0
41
1
10
-24
20
4.01823650200191
30
0
41
1
10
-24
20
3.88386015063668
30
0
41
1
10
-24
20
3.74882265025218
30
0
41
1
10
-24
20
3.61314816606938
30
0
41
1
10
-24
20
3.47686551917991
30
0
41
1
10
-24
20
3.34000139230267
30
0
41
1
10
-24
20
3.20258393847712
30
0
41
1
10
-24
20
3.06464837689458
30
0
41
1
10
-24
20
2.9262304523017
30
0
41
1
10
-24
20
2.78737006373564
30
0
41
1
10
-24
20
2.64810891556726
30
0
41
1
10
-24
20
2.50849315364218
30
0
41
1
10
-24
20
2.36857603859875
30
0
41
1
10
-24
20
2.22840727338092
30
0
41
1
10
-24
20
2.1123126773407
30
0
41
1
10
-24
20
2.01771125590744
30
0
41
1
10
-24
20
1.92310511773127
30
0
41
1
10
-24
20
1.8313714962141
30
0
41
1
10
-24
20
1.736633689764
30
0
41
1
10
-24
20
1.6663683926929
30
0
41
1
10
-24
20
1.59612143913762
30
0
41
1
10
-24
20
1.52590617425699
30
0
41
1
10
-24
20
1.45572440081645
30
0
41
1
10
-24
20
1.38559146347791
30
0
41
1
10
-24
20
1.31551245865842
30
0
41
1
10
-24
20
1.22103102890804
30
0
41
1
10
-24
20
1.13019491172781
30
0
41
1
10
-24
20
1.03590357373662
30
0
41
1
10
-24
20
0.966211278320714
30
0
41
1
10
-24
20
0.896616942008507
30
0
41
1
10
-24
20
0.827119549474446
30
0
41
1
10
-24
20
0.757724503129282
30
0
41
1
10
-24
20
0.688430802184314
30
0
41
1
10
-24
20
0.619238394305057
30
0
41
1
10
-24
20
0.550143822342477
30
0
41
1
10
-24
20
0.481142957404018
30
0
41
1
10
-24
20
0.412229055265982
30
0
41
1
10
-24
20
0.343394373554929
30
0
41
1
10
-24
20
0.274627961865065
30
0
41
1
10
-24
20
0.205919183520052
30
0
41
1
10
-24
20
0.137254128872428
30
0
41
1
10
-24
20
0.0686195806150636
30
0
41
1
10
-24
20
1.20069785E-08
30
0
41
1
10
-24
20
-0.0686195837654395
30
0
41
1
10
-24
20
-0.1372541822264
30
0
41
1
10
-24
20
-0.205919229600283
30
0
41
1
10
-24
20
-0.274627932715646
30
0
41
1
10
-24
20
-0.343394334295567
30
0
41
1
10
-24
20
-0.412229116407673
30
0
41
1
10
-24
20
-0.481143047124078
30
0
41
1
10
-24
20
-0.550143789897731
30
0
41
1
10
-24
20
-0.619238310392802
30
0
41
1
10
-24
20
-0.688430856535206
30
0
41
1
10
-24
20
-0.757724640342815
30
0
41
1
10
-24
20
-0.827119544713639
30
0
41
1
10
-24
20
-0.896616816711344
30
0
41
1
10
-24
20
-0.966211277672699
30
0
41
1
10
-24
20
-1.03590373801057
30
0
41
1
10
-24
20
-1.13019491751669
30
0
41
1
10
-24
20
-1.22103090337816
30
0
41
1
10
-24
20
-1.31551253110206
30
0
41
1
10
-24
20
-1.38559165365194
30
0
41
1
10
-24
20
-1.45572444737024
30
0
41
1
10
-24
20
-1.52590604398472
30
0
41
1
10
-24
20
-1.59612132289766
30
0
41
1
10
-24
20
-1.66636846888792
30
0
41
1
10
-24
20
-1.73663389391049
30
0
41
1
10
-24
20
-1.83137150908334
30
0
41
1
10
-24
20
-1.923104963833
30
0
41
1
10
-24
20
-2.01771124909396
30
0
41
1
10
-24
20
-2.11231287096445
30
0
41
1
10
-24
20
-2.22840729138045
30
0
41
1
10
-24
20
-2.36857592379664
30
0
41
1
10
-24
20
-2.50849329023106
30
0
41
1
10
-24
20
-2.64810899336408
30
0
41
1
10
-24
20
-2.78736947452717
30
0
41
1
10
-24
20
-2.92622914514118
30
0
41
1
10
-24
20
-3.06464867495959
30
0
41
1
10
-24
20
-3.20258694679336
30
0
41
1
10
-24
20
-3.34000339886188
30
0
41
1
10
-24
20
-3.47686412773231
30
0
41
1
10
-24
20
-3.61314539193523
30
0
41
1
10
-24
20
-3.74882070125756
30
0
41
1
10
-24
20
-3.88386081960971
30
0
41
1
10
-24
20
-4.01823910176785
30
0
41
1
10
-24
20
-4.15193237523465
30
0
41
1
10
-24
20
-4.28492323331267
30
0
41
1
10
-24
20
-4.41719365917407
30
0
41
1
10
-24
20
-4.54872525063161
30
0
41
1
10
-24
20
-4.67950102029136
30
0
41
1
10
-24
20
-4.8095053694127
30
0
41
1
10
-24
20
-4.98285124277226
30
0
41
1
10
-24
20
-5.19525677656026
30
0
41
1
10
-24
20
-5.44799891971269
30
0
41
1
10
-24
20
-5.69736372546623
30
0
41
1
10
-24
20
-5.90137602298267
30
0
41
1
10
-24
20
-6.06440150688547
30
0
41
1
10
-24
20
-6.18514751568057
30
0
41
1
10
-24
20
-6.30499537148728
30
0
41
1
10
-24
20
-6.46441033734266
30
0
41
1
10
-24
20
-6.6595943858062
30
0
41
1
10
-24
20
-6.8516785830704
30
0
41
1
10
-24
20
-7.00483382763792
30
0
41
1
10
-24
20
-7.11820195418233
30
0
41
1
10
-24
20
-7.2306178054078
30
0
41
1
10
-24
20
-7.34207852113332
30
0
41
1
10
-24
20
-7.45257387547736
30
0
41
1
10
-24
20
-7.5993046483614
30
0
41
1
10
-24
20
-7.74204572237983
30
0
41
1
10
-24
20
-7.88481230085068
30
0
41
1
10
-24
20
-8.02625870014725
30
0
41
1
10
-24
20
-8.19913346952643
30
0
41
1
10
-24
20
-8.3686525458042
30
0
41
1
10
-24
20
-8.50332879773276
30
0
41
1
10
-24
20
-8.63663898786109
30
0
41
1
10
-24
20
-8.76613375581502
30
0
41
1
10
-24
20
-8.87892111197033
30
0
41
1
10
-24
20
-8.94296710462896
30
0
41
1
10
-24
20
-9.00666455327519
30
0
41
1
10
-24
20
-9.08500599911849
30
0
41
1
10
-24
20
-9.20992961783276
30
0
41
1
10
-24
20
-9.33111733072479
30
0
41
1
10
-24
20
-9.45175015939355
30
0
41
1
10
-24
20
-9.54075475929307
30
0
41
1
10
-24
20
-9.6286774324733
30
0
41
1
10
-24
20
-9.71550990736876
30
0
41
1
10
-24
20
-9.80124635456616
30
0
41
1
10
-24
20
-9.88588281033202
30
0
41
1
10
-24
20
-9.96941229097467
30
0
41
1
10
-24
20
-10.0518274374697
30
0
41
1
10
-24
20
-10.1331238647016
30
0
41
1
10
-24
20
-10.240478300249
30
0
41
1
10
-24
20
-10.3442039980405
30
0
41
1
10
-24
20
-10.4469857502475
30
0
41
1
10
-24
20
-10.5225869730086
30
0
41
1
10
-24
20
-10.584408474142
30
0
41
1
10
-24
20
-10.6336671988976
30
0
41
1
10
-24
20
-10.6825334589273
30
0
41
1
10
-24
20
-10.7424101865055
30
0
41
1
10
-24
20
-10.8133337727233
30
0
41
1
10
-24
20
-10.8830697936353
30
0
41
1
10
-24
20
-10.951609404873
30
0
41
1
10
-24
20
-11.0189464931514
30
0
41
1
10
-24
20
-11.1074991058536
30
0
41
1
10
-24
20
-11.2142799044294
30
0
41
1
10
-24
20
-11.3169609751523
30
0
41
1
10
-24
20
-11.3972466509688
30
0
41
1
10
-24
20
-11.4758394909226
30
0
41
1
10
-24
20
-11.5508590446085
30
0
41
1
10
-24
20
-11.6243139791192
30
0
41
1
10
-24
20
-11.6778530233414
30
0
41
1
10
-24
20
-11.7300826287653
30
0
41
1
10
-24
20
-11.7809904199399
30
0
41
1
10
-24
20
-11.8305656793297
30
0
41
1
10
-24
20
-11.8787992978642
30
0
41
1
10
-24
20
-11.9256779481161
30
0
41
1
10
-24
20
-11.9866456736684
30
0
41
1
10
-24
20
-12.0440224201628
30
0
41
1
10
-24
20
-12.099415447517
30
0
41
1
10
-24
20
-12.1393440246738
30
0
41
1
10
-24
20
-12.1778433772408
30
0
41
1
10
-24
20
-12.2149010599454
30
0
41
1
10
-24
20
-12.2505027529639
30
0
41
1
10
-24
20
-12.2962370828382
30
0
41
1
10
-24
20
-12.3383402824608
30
0
41
1
10
-24
20
-12.3780532736993
30
0
41
1
10
-24
20
-12.4061495785297
30
0
41
1
10
-24
20
-12.4326960530149
30
0
41
1
10
-24
20
-12.4661791203578
30
0
41
1
10
-24
20
-12.4959885477691
30
0
41
1
10
-24
20
-12.5230370713979
30
0
41
1
10
-24
20
-12.5415673540695
30
0
41
1
10
-24
20
-12.55843663992
30
0
41
1
10
-24
20
-12.5736235086905
30
0
41
1
10
-24
20
-12.5871069547275
30
0
41
1
10
-24
20
-12.5988645879939
30
0
41
1
10
-24
20
-12.6088733436887
30
0
41
1
10
-24
20
-12.617109869821
30
0
41
1
10
-24
20
-12.6235493215145
30
0
41
1
10
-24
20
-12.6277964604793
30
0
41
1
10
-24
20
-12.6295508271639
30
0
41
1
10
-24
20
-12.6301284530505
30
0
0
SPLINE
5
1DB
100
AcDbEntity
8
1
62
256
6
ByLayer
370
18
48
1
60
0
100
AcDbSpline
70
4
71
3
72
16
73
12
40
0
40
0
40
0
40
0
40
0.464304267159289
40
0.464304267159289
40
0.64753348514196
40
0.64753348514196
40
0.833383675860489
40
0.833383675860489
40
0.950238074309838
40
0.950238074309838
40
1
40
1
40
1
40
1
41
1
10
6.66339745962154
20
6.16973001948571
30
0
41
1
10
6.68070356543041
20
6.10699311212738
30
0
41
1
10
6.70445583204739
20
6.04466199750289
30
0
41
1
10
6.75332706552712
20
5.96658891111872
30
0
41
1
10
6.76920288341029
20
5.94525308185365
30
0
41
1
10
6.80605435144611
20
5.90694983484821
30
0
41
1
10
6.82759190740043
20
5.88959453036586
30
0
41
1
10
6.86713065155232
20
5.86981268651903
30
0
41
1
10
6.8838647446556
20
5.86416869949437
30
0
41
1
10
6.90829201976607
20
5.86046107106307
30
0
41
1
10
6.91575967688851
20
5.85988980456938
30
0
41
1
10
6.9232050807569
20
5.85988980456938
30
0
0
SPLINE
5
1DC
100
AcDbEntity
8
1
62
256
6
ByLayer
370
18
48
1
60
0
100
AcDbSpline
70
4
71
3
72
8
73
4
40
0
40
0
40
0
40
0
40
1
40
1
40
1
40
1
41
1
10
58.9444392048374
20
1.05725249424404
30
0
41
1
10
60.1095069953844
20
1.05725249424404
30
0
41
1
10
61.2745747859314
20
1.05725249424404
30
0
41
1
10
62.4396425764784
20
1.05725249424404
30
0
0
SPLINE
5
1DD
100
AcDbEntity
8
1
62
256
6
ByLayer
370
18
48
1
60
0
100
AcDbSpline
70
4
71
3
72
8
73
4
40
0
40
0
40
0
40
0
40
1
40
1
40
1
40
1
41
1
10
57.9999999999998
20
8.70204102886714
30
0
41
1
10
57.5634589423557
20
8.79114959911743
30
0
41
1
10
57.1512749503245
20
8.90579111539898
30
0
41
1
10
56.7679491924309
20
9.03671053083042
30
0
0
SPLINE
5
1DE
100
AcDbEntity
8
1
62
256
6
ByLayer
370
18
48
1
60
0
100
AcDbSpline
70
4
71
3
72
8
73
4
40
0
40
0
40
0
40
0
40
1
40
1
40
1
40
1
41
1
10
51.7890574534174
20
12.7920737130969
30
0
41
1
10
51.8593718294592
20
12.7816968618265
30
0
41
1
10
51.9296860121499
20
12.771318700308
30
0
41
1
10
52
20
12.7609392189604
30
0
0
SPLINE
5
1DF
100
AcDbEntity
8
1
62
256
6
ByLayer
370
18
48
1
60
0
100
AcDbSpline
70
4
71
3
72
8
73
4
40
0
40
0
40
0
40
0
40
1
40
1
40
1
40
1
41
1
10
58.9444392048374
20
-0.0107444359171041
30
0
41
1
10
58.9444392048374
20
0.345254540803296
30
0
41
1
10
58.9444392048374
20
0.701253517523696
30
0
41
1
10
58.9444392048374
20
1.05725249424404
30
0
0
SPLINE
5
1E0
100
AcDbEntity
8
1
62
256
6
ByLayer
370
18
48
1
60
0
100
AcDbSpline
70
4
71
3
72
8
73
4
40
0
40
0
40
0
40
0
40
1
40
1
40
1
40
1
41
1
10
58.217234528083
20
8.6601957706394
30
0
41
1
10
58.1444294861117
20
8.67338651224179
30
0
41
1
10
58.0720062826604
20
8.68734280796792
30
0
41
1
10
58
20
8.70204102886731
30
0
0
SPLINE
5
1E1
100
AcDbEntity
8
SK1
62
256
6
ByLayer
370
18
48
1
60
0
100
AcDbSpline
70
4
71
3
72
22
73
18
40
0
40
0
40
0
40
0
40
0.0408146055974008
40
0.0408146055974008
40
0.0823243808205941
40
0.0823243808205941
40
0.113722137960476
40
0.113722137960476
40
0.144934004837353
40
0.144934004837353
40
0.197663645148051
40
0.197663645148051
40
0.33040493622114
40
0.33040493622114
40
0.796191409882141
40
0.796191409882141
40
1
40
1
40
1
40
1
41
1
10
-0.394976888875306
20
-5.00092508226663
30
0
41
1
10
-0.415530107853925
20
-5.01747813555136
30
0
41
1
10
-0.438024560131538
20
-5.03261131985607
30
0
41
1
10
-0.487324802537898
20
-5.05682200266619
30
0
41
1
10
-0.514951385379675
20
-5.06597371583803
30
0
41
1
10
-0.565001076851445
20
-5.07238571210252
30
0
41
1
10
-0.587551462055274
20
-5.07198375916977
30
0
41
1
10
-0.630654498772827
20
-5.06497384681831
30
0
41
1
10
-0.651690830573216
20
-5.05839846240309
30
0
41
1
10
-0.704063404944179
20
-5.03546962035057
30
0
41
1
10
-0.733646054998758
20
-5.01537181535582
30
0
41
1
10
-0.825717517678271
20
-4.93804001611761
30
0
41
1
10
-0.875568215521128
20
-4.86927174197922
30
0
41
1
10
-1.06893868726917
20
-4.55513362670814
30
0
41
1
10
-1.1521386611181
20
-4.27852588598495
30
0
41
1
10
-1.254789054524
20
-3.87761185644103
30
0
41
1
10
-1.28234760083203
20
-3.75339907142154
30
0
41
1
10
-1.30710678118763
20
-3.62781610099955
30
0
0
SPLINE
5
1E2
100
AcDbEntity
8
SK1
62
256
6
ByLayer
370
18
48
1
60
0
100
AcDbSpline
70
4
71
3
72
10
73
6
40
0
40
0
40
0
40
0
40
0.5
40
0.5
40
1
40
1
40
1
40
1
41
1
10
-1.69999999999999
20
2.58372509632824
30
0
41
1
10
-1.8322226246114
20
1.75185504452617
30
0
41
1
10
-1.92871617486685
20
0.884329181035696
30
0
41
1
10
-1.92842303871004
20
-0.888588835775522
30
0
41
1
10
-1.83224326233346
20
-1.75172436897293
30
0
41
1
10
-1.69999999999999
20
-2.5837250319525
30
0
0
SPLINE
5
1E3
100
AcDbEntity
8
SK1
62
256
6
ByLayer
370
18
48
1
60
0
100
AcDbSpline
70
4
71
3
72
98
73
94
40
0
40
0
40
0
40
0
40
0.0043783660462982
40
0.0136712703442177
40
0.0229641746421373
40
0.0322570789400569
40
0.0415499832379765
40
0.0601357918338157
40
0.0787216004296549
40
0.0973074090254941
40
0.115893217621333
40
0.125186121919253
40
0.134479026217173
40
0.143771930515092
40
0.153064834813012
40
0.171650643408851
40
0.19023645200469
40
0.19952935630261
40
0.208822260600529
40
0.218115164898449
40
0.227408069196368
40
0.236700973494288
40
0.245993877792208
40
0.264579686388047
40
0.273872590685966
40
0.283165494983886
40
0.301751303579725
40
0.320337112175564
40
0.329630016473484
40
0.338922920771404
40
0.357508729367243
40
0.366801633665162
40
0.371448085814122
40
0.376094537963082
40
0.385387442261002
40
0.394680346558921
40
0.41326615515476
40
0.42255905945268
40
0.4318519637506
40
0.441144868048519
40
0.450437772346439
40
0.459730676644358
40
0.469023580942278
40
0.478316485240197
40
0.487609389538117
40
0.496902293836037
40
0.506195198133956
40
0.524781006729796
40
0.534073911027715
40
0.543366815325635
40
0.552659719623554
40
0.557306171772514
40
0.561952623921474
40
0.571245528219394
40
0.580538432517313
40
0.589831336815233
40
0.599124241113152
40
0.608417145411072
40
0.617710049708992
40
0.636295858304831
40
0.65488166690067
40
0.66417457119859
40
0.673467475496509
40
0.692053284092348
40
0.701346188390268
40
0.710639092688187
40
0.719931996986107
40
0.729224901284027
40
0.738517805581946
40
0.747810709879866
40
0.757103614177785
40
0.766396518475705
40
0.784982327071544
40
0.794275231369464
40
0.803568135667384
40
0.812861039965303
40
0.822153944263223
40
0.831446848561142
40
0.840739752859062
40
0.859325561454901
40
0.868618465752821
40
0.87791137005074
40
0.88720427434866
40
0.896497178646579
40
0.915082987242419
40
0.933668795838258
40
0.952254604434097
40
0.961547508732017
40
0.970840413029936
40
0.980133317327856
40
0.989426221625775
40
0.998719125923695
40
1
40
1
40
1
40
1
41
1
10
-0.394976888875277
20
5.0009244140283
30
0
41
1
10
-0.394976888875306
20
5.02359271293307
30
0
41
1
10
-0.394976888875306
20
5.09425517295409
30
0
41
1
10
-0.394976888875306
20
5.21232773385492
30
0
41
1
10
-0.394976888875306
20
5.3546394081016
30
0
41
1
10
-0.394976888875306
20
5.49591838220567
30
0
41
1
10
-0.394976888875306
20
5.68302324019061
30
0
41
1
10
-0.394976888875306
20
5.91406385279549
30
0
41
1
10
-0.394976888875306
20
6.18726433662556
30
0
41
1
10
-0.394976888875306
20
6.45627503636445
30
0
41
1
10
-0.394976888875306
20
6.67684685573994
30
0
41
1
10
-0.394976888875306
20
6.85136200824962
30
0
41
1
10
-0.394976888875306
20
6.98112244545177
30
0
41
1
10
-0.394976888875306
20
7.1098224487871
30
0
41
1
10
-0.394976888875306
20
7.28009509164627
30
0
41
1
10
-0.394976888875306
20
7.49008089634202
30
0
41
1
10
-0.394976888875306
20
7.69650359349293
30
0
41
1
10
-0.394976888875306
20
7.85964213989763
30
0
41
1
10
-0.394976888875306
20
7.98086143927401
30
0
41
1
10
-0.394976888875306
20
8.10100252302425
30
0
41
1
10
-0.394976888875306
20
8.22006379392718
30
0
41
1
10
-0.394976888875306
20
8.33804225713789
30
0
41
1
10
-0.394976888875306
20
8.49397418950429
30
0
41
1
10
-0.394976888875306
20
8.64751154095558
30
0
41
1
10
-0.394976888875306
20
8.79907643306461
30
0
41
1
10
-0.394976888875306
20
8.9491803385352
30
0
41
1
10
-0.394976888875306
20
9.13390678694702
30
0
41
1
10
-0.394976888875306
20
9.31494996650383
30
0
41
1
10
-0.394976888875306
20
9.45767861814852
30
0
41
1
10
-0.394976888875306
20
9.59892076352935
30
0
41
1
10
-0.394976888875306
20
9.7377360063029
30
0
41
1
10
-0.394976888875306
20
9.85736934874495
30
0
41
1
10
-0.394976888875306
20
9.92517900727512
30
0
41
1
10
-0.394976888875306
20
9.99261143893301
30
0
41
1
10
-0.394976888875306
20
10.0761265525343
30
0
41
1
10
-0.394976888875306
20
10.2083399780688
30
0
41
1
10
-0.394976888875306
20
10.3380960413352
30
0
41
1
10
-0.394976888875306
20
10.4657231550754
30
0
41
1
10
-0.394976888875306
20
10.5602461340712
30
0
41
1
10
-0.394976888875306
20
10.6536100721468
30
0
41
1
10
-0.394976888875306
20
10.7458098833899
30
0
41
1
10
-0.394976888875306
20
10.8368404439692
30
0
41
1
10
-0.394976888875306
20
10.9266969759659
30
0
41
1
10
-0.394976888875306
20
11.0153746780185
30
0
41
1
10
-0.394976888875306
20
11.102867622286
30
0
41
1
10
-0.394976888875306
20
11.1891707558493
30
0
41
1
10
-0.394976888875306
20
11.3026972493619
30
0
41
1
10
-0.394976888875306
20
11.4136741241806
30
0
41
1
10
-0.394976888875306
20
11.5223699646631
30
0
41
1
10
-0.394976888875306
20
11.6026363586083
30
0
41
1
10
-0.394976888875306
20
11.6684804259269
30
0
41
1
10
-0.394976888875306
20
11.7205808778945
30
0
41
1
10
-0.394976888875306
20
11.7722691621604
30
0
41
1
10
-0.394976888875306
20
11.8360539668501
30
0
41
1
10
-0.394976888875306
20
11.9113764581405
30
0
41
1
10
-0.394976888875306
20
11.9854459580753
30
0
41
1
10
-0.394976888875306
20
12.0582544060742
30
0
41
1
10
-0.394976888875306
20
12.1297946053789
30
0
41
1
10
-0.394976888875306
20
12.2235215734124
30
0
41
1
10
-0.394976888875306
20
12.3373769122162
30
0
41
1
10
-0.394976888875306
20
12.4468991604422
30
0
41
1
10
-0.394976888875306
20
12.5319491453114
30
0
41
1
10
-0.394976888875306
20
12.6152283382819
30
0
41
1
10
-0.394976888875306
20
12.6957215859151
30
0
41
1
10
-0.394976888875306
20
12.7736108931729
30
0
41
1
10
-0.394976888875306
20
12.8306328717281
30
0
41
1
10
-0.394976888875306
20
12.8862769376535
30
0
41
1
10
-0.394976888875306
20
12.9405320737836
30
0
41
1
10
-0.394976888875306
20
12.9933861020735
30
0
41
1
10
-0.394976888875306
20
13.0448282447276
30
0
41
1
10
-0.394976888875306
20
13.0948461342591
30
0
41
1
10
-0.394976888875306
20
13.1596507604527
30
0
41
1
10
-0.394976888875306
20
13.2214670183476
30
0
41
1
10
-0.394976888875306
20
13.2804176635456
30
0
41
1
10
-0.394976888875306
20
13.3231185671574
30
0
41
1
10
-0.394976888875306
20
13.3643136176474
30
0
41
1
10
-0.394976888875306
20
13.4039879614121
30
0
41
1
10
-0.394976888875306
20
13.4421262012037
30
0
41
1
10
-0.394976888875306
20
13.4909311840823
30
0
41
1
10
-0.394976888875306
20
13.5365270016785
30
0
41
1
10
-0.394976888875306
20
13.5789821852607
30
0
41
1
10
-0.394976888875306
20
13.6091837483775
30
0
41
1
10
-0.394976888875306
20
13.6377421071264
30
0
41
1
10
-0.394976888875306
20
13.6736219510479
30
0
41
1
10
-0.394976888875306
20
13.7142204148031
30
0
41
1
10
-0.394976888875306
20
13.7560496751861
30
0
41
1
10
-0.394976888875306
20
13.7849758313288
30
0
41
1
10
-0.394976888875306
20
13.8044829705053
30
0
41
1
10
-0.394976888875306
20
13.8172492272358
30
0
41
1
10
-0.394976888875306
20
13.8281310063337
30
0
41
1
10
-0.394976888875306
20
13.8370982474883
30
0
41
1
10
-0.394976888875306
20
13.842101166137
30
0
41
1
10
-0.394976888875306
20
13.8443369604552
30
0
41
1
10
-0.394976888875306
20
13.8446015176322
30
0
0
SPLINE
5
1E4
100
AcDbEntity
8
1
62
256
6
ByLayer
370
18
48
1
60
0
100
AcDbSpline
70
4
71
3
72
8
73
4
40
0
40
0
40
0
40
0
40
1
40
1
40
1
40
1
41
1
10
59.6366174100439
20
13.1661005844362
30
0
41
1
10
59.6536488430913
20
13.2180314109637
30
0
41
1
10
59.6706677085074
20
13.269923917317
30
0
41
1
10
59.687679320467
20
13.3217943070351
30
0
0
SPLINE
5
1E5
100
AcDbEntity
8
1
62
256
6
ByLayer
370
18
48
1
60
0
100
AcDbSpline
70
4
71
3
72
8
73
4
40
0
40
0
40
0
40
0
40
1
40
1
40
1
40
1
41
1
10
59.9884186648742
20
13.1253135472697
30
0
41
1
10
59.9477509818988
20
13.0888982780494
30
0
41
1
10
59.9070659589282
20
13.0524674819894
30
0
41
1
10
59.8663508919826
20
13.0160097835008
30
0
0
SPLINE
5
1E6
100
AcDbEntity
8
1
62
256
6
ByLayer
370
18
48
1
60
0
100
AcDbSpline
70
4
71
3
72
8
73
4
40
0
40
0
40
0
40
0
40
1
40
1
40
1
40
1
41
1
10
60.1254666594756
20
-12.2627914714303
30
0
41
1
10
60.1782567854841
20
-12.248646399798
30
0
41
1
10
60.2310079572345
20
-12.2345117659276
30
0
41
1
10
60.2837366463856
20
-12.2203831562517
30
0
0
SPLINE
5
1E7
100
AcDbEntity
8
1
62
256
6
ByLayer
370
18
48
1
60
0
100
AcDbSpline
70
4
71
3
72
8
73
4
40
0
40
0
40
0
40
0
40
1
40
1
40
1
40
1
41
1
10
60.2837366463856
20
-12.5796168437483
30
0
41
1
10
60.2310079572345
20
-12.5654882340723
30
0
41
1
10
60.1782567854841
20
-12.5513536002021
30
0
41
1
10
60.1254666594756
20
-12.5372085285697
30
0
0
SPLINE
5
1E8
100
AcDbEntity
8
1
62
256
6
ByLayer
370
18
48
1
60
0
100
AcDbSpline
70
4
71
3
72
18
73
14
40
0
40
0
40
0
40
0
40
0.0371859032270746
40
0.0371859032270746
40
0.280604469501954
40
0.280604469501954
40
0.499999885747244
40
0.499999885747244
40
0.743172669307103
40
0.743172669307103
40
0.962814096772805
40
0.962814096772805
40
1
40
1
40
1
40
1
41
1
10
73.8469589506731
20
-15.5210815792072
30
0
41
1
10
73.8444433983581
20
-15.5206108672409
30
0
41
1
10
73.8419380093443
20
-15.5200778804644
30
0
41
1
10
73.8231528046269
20
-15.5155751815373
30
0
41
1
10
73.80728616224
20
-15.5088365590659
30
0
41
1
10
73.7804026745974
20
-15.4916653671025
30
0
41
1
10
73.768756341046
20
-15.4814670706568
30
0
41
1
10
73.7482552553468
20
-15.4571432587532
30
0
41
1
10
73.7395525070444
20
-15.4423717881751
30
0
41
1
10
73.7282658153093
20
-15.4127461759302
30
0
41
1
10
73.7250426641496
20
-15.397700539172
30
0
41
1
10
73.7240273474705
20
-15.3801810603239
30
0
41
1
10
73.7239464866749
20
-15.3776455533895
30
0
41
1
10
73.7239301024993
20
-15.375112212472
30
0
0
SPLINE
5
1E9
100
AcDbEntity
8
1
62
256
6
ByLayer
370
18
48
1
60
0
100
AcDbSpline
70
4
71
3
72
18
73
14
40
0
40
0
40
0
40
0
40
0.0371859032255886
40
0.0371859032255886
40
0.280604469489268
40
0.280604469489268
40
0.499999877874693
40
0.499999877874693
40
0.743172669316822
40
0.743172669316822
40
0.962814096774358
40
0.962814096774358
40
1
40
1
40
1
40
1
41
1
10
82.6299150998179
20
-7.93526896320128
30
0
41
1
10
82.6324306521329
20
-7.93571455984164
30
0
41
1
10
82.6349360411467
20
-7.93622467487364
30
0
41
1
10
82.6537212458639
20
-7.94055507771617
30
0
41
1
10
82.6695878882509
20
-7.94717661058201
30
0
41
1
10
82.6964713754473
20
-7.9642051517535
30
0
41
1
10
82.7081177086277
20
-7.974368382016
30
0
41
1
10
82.7286187945879
20
-7.99869219370237
30
0
41
1
10
82.7373215432597
20
-8.01350673533904
30
0
41
1
10
82.7486082351815
20
-8.04328961944475
30
0
41
1
10
82.7518313863414
20
-8.0584439650558
30
0
41
1
10
82.7528467030204
20
-8.07612149501404
30
0
41
1
10
82.752927563816
20
-8.07867987369303
30
0
41
1
10
82.7529439479917
20
-8.08123832993653
30
0
0
SPLINE
5
1EA
100
AcDbEntity
8
1
62
256
6
ByLayer
370
18
48
1
60
0
100
AcDbSpline
70
4
71
3
72
22
73
18
40
0
40
0
40
0
40
0
40
0.0250591414880754
40
0.0250591414880754
40
0.22032148094664
40
0.22032148094664
40
0.415621116410517
40
0.415621116410517
40
0.500011733897118
40
0.500011733897118
40
0.694607209136854
40
0.694607209136854
40
0.889178273941794
40
0.889178273941794
40
0.974940858511941
40
0.974940858511941
40
1
40
1
40
1
40
1
41
1
10
82.7529439479917
20
-16.9078345634177
30
0
41
1
10
82.7529246867366
20
-16.909958633029
30
0
41
1
10
82.752859925901
20
-16.9120841948433
30
0
41
1
10
82.7518819546655
20
-16.9307471198745
30
0
41
1
10
82.7481225493033
20
-16.9473975528141
30
0
41
1
10
82.735416485618
20
-16.9781619460293
30
0
41
1
10
82.7262925403526
20
-16.9927000508738
30
0
41
1
10
82.7102814822044
20
-17.0106336995457
30
0
41
1
10
82.7049923166782
20
-17.0157512330095
30
0
41
1
10
82.6865556296989
20
-17.0311527928823
30
0
41
1
10
82.6717140918013
20
-17.0398354487393
30
0
41
1
10
82.6404422105981
20
-17.0517233478496
30
0
41
1
10
82.6235824364148
20
-17.0550932751015
30
0
41
1
10
82.5994475604684
20
-17.0558570693893
30
0
41
1
10
82.5919725690144
20
-17.0555423764933
30
0
41
1
10
82.5824556912797
20
-17.0544357477571
30
0
41
1
10
82.580328023776
20
-17.0541416872515
30
0
41
1
10
82.5782089506731
20
-17.053803930153
30
0
0
SPLINE
5
1EB
100
AcDbEntity
8
1
62
256
6
ByLayer
370
18
48
1
60
0
100
AcDbSpline
70
4
71
3
72
8
73
4
40
0
40
0
40
0
40
0
40
1
40
1
40
1
40
1
41
1
10
76.8823868135537
20
12.5278427863143
30
0
41
1
10
76.8873991143712
20
12.5232768340015
30
0
41
1
10
76.8924120554443
20
12.5187103930387
30
0
41
1
10
76.8974256617328
20
12.5141434445014
30
0
0
SPLINE
5
1EC
100
AcDbEntity
8
1
62
256
6
ByLayer
370
18
48
1
60
0
100
AcDbSpline
70
4
71
3
72
8
73
4
40
0
40
0
40
0
40
0
40
1
40
1
40
1
40
1
41
1
10
77.0309539767983
20
11.0444029187734
30
0
41
1
10
77.0246385082866
20
11.0424362840803
30
0
41
1
10
77.018323877724
20
11.0404700087017
30
0
41
1
10
77.0120100536695
20
11.0385040790351
30
0
0
SPLINE
5
1ED
100
AcDbEntity
8
1
62
256
6
ByLayer
370
18
48
1
60
0
100
AcDbSpline
70
4
71
3
72
8
73
4
40
0
40
0
40
0
40
0
40
1
40
1
40
1
40
1
41
1
10
77.3949447145125
20
13.1064053475663
30
0
41
1
10
77.3897430564627
20
13.1107484335334
30
0
41
1
10
77.3845420885796
20
13.1150910416284
30
0
41
1
10
77.3793417849668
20
13.1194331896614
30
0
0
SPLINE
5
1EE
100
AcDbEntity
8
1
62
256
6
ByLayer
370
18
48
1
60
0
100
AcDbSpline
70
4
71
3
72
30
73
26
40
0
40
0
40
0
40
0
40
0.0728681126381081
40
0.0728681126381081
40
0.127812593477845
40
0.127812593477845
40
0.199092397893565
40
0.199092397893565
40
0.288874798004163
40
0.288874798004163
40
0.393641276926423
40
0.393641276926423
40
0.499915621932917
40
0.499915621932917
40
0.631623646297735
40
0.631623646297735
40
0.734868911743526
40
0.734868911743526
40
0.796951047610511
40
0.796951047610511
40
0.859105215562989
40
0.859105215562989
40
0.921420364650275
40
0.921420364650275
40
1
40
1
40
1
40
1
41
1
10
79.7106444323683
20
12.0186477461003
30
0
41
1
10
79.6935074860955
20
12.0115089650749
30
0
41
1
10
79.6773984810581
20
12.0007064216555
30
0
41
1
10
79.6517012513366
20
11.9785027625172
30
0
41
1
10
79.6413156385746
20
11.9677519994526
30
0
41
1
10
79.6190531620197
20
11.9413995064559
30
0
41
1
10
79.6075499752063
20
11.9251958435278
30
0
41
1
10
79.5837982917818
20
11.886875182664
30
0
41
1
10
79.5720261433644
20
11.8641491991992
30
0
41
1
10
79.5494638434686
20
11.813362625505
30
0
41
1
10
79.5390742169482
20
11.7848324175374
30
0
41
1
10
79.5215870454172
20
11.7263518084635
30
0
41
1
10
79.5144828422655
20
11.6961835706415
30
0
41
1
10
79.5025173313486
20
11.6283991189621
30
0
41
1
10
79.4985255544841
20
11.5903768237079
30
0
41
1
10
79.4966425567407
20
11.5234795559588
30
0
41
1
10
79.4976156757364
20
11.4941714554077
30
0
41
1
10
79.5025619514959
20
11.4484102194538
30
0
41
1
10
79.5051975801941
20
11.4314133023019
30
0
41
1
10
79.5122506762569
20
11.3982251108721
30
0
41
1
10
79.5166826174939
20
11.381964721387
30
0
41
1
10
79.527699066595
20
11.350716051418
30
0
41
1
10
79.5343221133047
20
11.3356267169885
30
0
41
1
10
79.5522561200377
20
11.3041073878451
30
0
41
1
10
79.5645605373844
20
11.2879523420192
30
0
41
1
10
79.5794483887581
20
11.2754239974105
30
0
0
SPLINE
5
1EF
100
AcDbEntity
8
1
62
256
6
ByLayer
370
18
48
1
60
0
100
AcDbSpline
70
4
71
3
72
30
73
26
40
0
40
0
40
0
40
0
40
0.072868112638119
40
0.072868112638119
40
0.127812593477839
40
0.127812593477839
40
0.199092397893569
40
0.199092397893569
40
0.288874798004166
40
0.288874798004166
40
0.393641276926426
40
0.393641276926426
40
0.499915621932921
40
0.499915621932921
40
0.631623646297728
40
0.631623646297728
40
0.734868911743521
40
0.734868911743521
40
0.796951047610522
40
0.796951047610522
40
0.859105215562999
40
0.859105215562999
40
0.921420364650287
40
0.921420364650287
40
1
40
1
40
1
40
1
41
1
10
79.0819293359785
20
10.6831620943455
30
0
41
1
10
79.0675874728531
20
10.6941774366555
30
0
41
1
10
79.0505656772594
20
10.7024817353421
30
0
41
1
10
79.0191049874654
20
10.7132415821405
30
0
41
1
10
79.004850295273
20
10.7167011130392
30
0
41
1
10
78.9714239276304
20
10.7224648965247
30
0
41
1
10
78.951907030741
20
10.7241508055399
30
0
41
1
10
78.9073785730295
20
10.7252079396827
30
0
41
1
10
78.8820618714001
20
10.7238714423831
30
0
41
1
10
78.8272362684113
20
10.7177151949462
30
0
41
1
10
78.7975050891939
20
10.7123230303036
30
0
41
1
10
78.7383277022236
20
10.6980555880264
30
0
41
1
10
78.7086881999624
20
10.6890777882361
30
0
41
1
10
78.6439371472098
20
10.6655364952196
30
0
41
1
10
78.6088718401589
20
10.6500387849821
30
0
41
1
10
78.5495626031858
20
10.6184316504193
30
0
41
1
10
78.5244135103462
20
10.6030660597441
30
0
41
1
10
78.4867525030123
20
10.576171714986
30
0
41
1
10
78.4731386097842
20
10.5655060655056
30
0
41
1
10
78.4474560329693
20
10.5430616695914
30
0
41
1
10
78.4353337424658
20
10.5312363763424
30
0
41
1
10
78.4132240542621
20
10.5063852809546
30
0
41
1
10
78.4031665205297
20
10.493276647263
30
0
41
1
10
78.3841127894273
20
10.4624030736197
30
0
41
1
10
78.3758312065502
20
10.4439280215893
30
0
41
1
10
78.3719653403109
20
10.425043195228
30
0
0
SPLINE
5
1F0
100
AcDbEntity
8
1
62
256
6
ByLayer
370
18
48
1
60
0
100
AcDbSpline
70
4
71
3
72
8
73
4
40
0
40
0
40
0
40
0
40
1
40
1
40
1
40
1
41
1
10
78.10490871018
20
13.3645242466839
30
0
41
1
10
78.1062105724032
20
13.3712317926847
30
0
41
1
10
78.1075122618927
20
13.3779385470922
30
0
41
1
10
78.1088137851297
20
13.3846445394877
30
0
0
SPLINE
5
1F1
100
AcDbEntity
8
1
62
256
6
ByLayer
370
18
48
1
60
0
100
AcDbSpline
70
4
71
3
72
26
73
22
40
0
40
0
40
0
40
0
40
0.0611212350796877
40
0.0611212350796877
40
0.145349009858787
40
0.145349009858787
40
0.228936526328712
40
0.228936526328712
40
0.391532191220693
40
0.391532191220693
40
0.475817926908316
40
0.475817926908316
40
0.589557559273588
40
0.589557559273588
40
0.703149060376419
40
0.703149060376419
40
0.816673845780327
40
0.816673845780327
40
0.930168712116165
40
0.930168712116165
40
1
40
1
40
1
40
1
41
1
10
77.0120100536695
20
11.0385040790351
30
0
41
1
10
77.0049987821122
20
11.0324400701953
30
0
41
1
10
76.9971402279222
20
11.0272583974166
30
0
41
1
10
76.9770654771891
20
11.0180147145851
30
0
41
1
10
76.9639780282742
20
11.015014309262
30
0
41
1
10
76.9373974714752
20
11.0143133993512
30
0
41
1
10
76.9235856223506
20
11.0165189197869
30
0
41
1
10
76.8847162517638
20
11.0284863068993
30
0
41
1
10
76.8600767397562
20
11.0433622798524
30
0
41
1
10
76.8266824047483
20
11.0699529568265
30
0
41
1
10
76.8157233623051
20
11.0799672592951
30
0
41
1
10
76.7912771780569
20
11.1047688921063
30
0
41
1
10
76.7781650280529
20
11.1200743608221
30
0
41
1
10
76.7536923423081
20
11.1519395998534
30
0
41
1
10
76.7422842773104
20
11.1685631319775
30
0
41
1
10
76.7210205637581
20
11.2027112888039
30
0
41
1
10
76.711138909375
20
11.2202794521932
30
0
41
1
10
76.6928225282994
20
11.2560991052711
30
0
41
1
10
76.6843708876723
20
11.2743847676667
30
0
41
1
10
76.6718638314035
20
11.3043447805147
30
0
41
1
10
76.6673656755454
20
11.3158621184476
30
0
41
1
10
76.66313631576
20
11.3274692892256
30
0
0
SPLINE
5
1F2
100
AcDbEntity
8
1
62
256
6
ByLayer
370
18
48
1
60
0
100
AcDbSpline
70
4
71
3
72
24
73
20
40
0
40
0
40
0
40
0
40
0.158126111965993
40
0.158126111965993
40
0.271563393607285
40
0.271563393607285
40
0.385066230469764
40
0.385066230469764
40
0.49871451931029
40
0.49871451931029
40
0.612721087896045
40
0.612721087896045
40
0.746221642583581
40
0.746221642583581
40
0.824913378297527
40
0.824913378297527
40
0.908986128606067
40
0.908986128606067
40
1
40
1
40
1
40
1
41
1
10
76.66313631576
20
11.3274692892256
30
0
41
1
10
76.6535643302674
20
11.3537389082538
30
0
41
1
10
76.6453410362629
20
11.3805267261685
30
0
41
1
10
76.6337793079741
20
11.4270698521184
30
0
41
1
10
76.6297088625184
20
11.4467257922468
30
0
41
1
10
76.6233114472353
20
11.4862286004128
30
0
41
1
10
76.6209763002232
20
11.5061215529273
30
0
41
1
10
76.6183870944337
20
11.5459088715422
30
0
41
1
10
76.618127624099
20
11.5658734562722
30
0
41
1
10
76.6202626859946
20
11.6054420089957
30
0
41
1
10
76.6226665971029
20
11.6251732775621
30
0
41
1
10
76.6317728744333
20
11.666463854433
30
0
41
1
10
76.6392464277835
20
11.6882490448035
30
0
41
1
10
76.656687782703
20
11.718444162618
30
0
41
1
10
76.664531967185
20
11.7288321519454
30
0
41
1
10
76.6832442308265
20
11.746571334932
30
0
41
1
10
76.694553084644
20
11.7538400038369
30
0
41
1
10
76.7195481763033
20
11.7632459591194
30
0
41
1
10
76.7337092578836
20
11.7650700476816
30
0
41
1
10
76.7475858364199
20
11.7641971397271
30
0
0
SPLINE
5
1F3
100
AcDbEntity
8
1
62
256
6
ByLayer
370
18
48
1
60
0
100
AcDbSpline
70
4
71
3
72
8
73
4
40
0
40
0
40
0
40
0
40
1
40
1
40
1
40
1
41
1
10
79.729288214071
20
12.0264145246901
30
0
41
1
10
79.7230744242144
20
12.0238258376
30
0
41
1
10
79.7168598406278
20
12.0212369144295
30
0
41
1
10
79.7106444323683
20
12.0186477461003
30
0
0
SPLINE
5
1F4
100
AcDbEntity
8
1
62
256
6
ByLayer
370
18
48
1
60
0
100
AcDbSpline
70
4
71
3
72
8
73
4
40
0
40
0
40
0
40
0
40
1
40
1
40
1
40
1
41
1
10
78.3719653403109
20
10.425043195228
30
0
41
1
10
78.3706634780877
20
10.418683574768
30
0
41
1
10
78.3693617885983
20
10.4123248964926
30
0
41
1
10
78.3680602653614
20
10.4059671249295
30
0
0
SPLINE
5
1F5
100
AcDbEntity
8
1
62
256
6
ByLayer
370
18
48
1
60
0
100
AcDbSpline
70
4
71
3
72
26
73
22
40
0
40
0
40
0
40
0
40
0.0611212350797027
40
0.0611212350797027
40
0.145349009858784
40
0.145349009858784
40
0.228936526328733
40
0.228936526328733
40
0.391532191220685
40
0.391532191220685
40
0.475817926908346
40
0.475817926908346
40
0.589557559273623
40
0.589557559273623
40
0.703149060376426
40
0.703149060376426
40
0.816673845780356
40
0.816673845780356
40
0.93016871211623
40
0.93016871211623
40
1
40
1
40
1
40
1
41
1
10
78.3680602653614
20
10.4059671249294
30
0
41
1
10
78.3700330153279
20
10.3969973536375
30
0
41
1
10
78.3708216475391
20
10.3877383908331
30
0
41
1
10
78.3693195345369
20
10.3660511291965
30
0
41
1
10
78.3656752488789
20
10.3534013763009
30
0
41
1
10
78.3535270791183
20
10.3303652481266
30
0
41
1
10
78.3449530260257
20
10.3196606097096
30
0
41
1
10
78.3157607103932
20
10.2923761868056
30
0
41
1
10
78.2908496528171
20
10.2786758835668
30
0
41
1
10
78.2514564622802
20
10.2632893148547
30
0
41
1
10
78.2374003683373
20
10.2588771545732
30
0
41
1
10
78.2038913200141
20
10.2502554635627
30
0
41
1
10
78.184166388297
20
10.2466234806108
30
0
41
1
10
78.1444708846885
20
10.2414823256267
30
0
41
1
10
78.1244215181039
20
10.2399640632014
30
0
41
1
10
78.0842922340908
20
10.2387063050318
30
0
41
1
10
78.0641616572184
20
10.2389661343959
30
0
41
1
10
78.0240106553936
20
10.241067101775
30
0
41
1
10
78.0039521831068
20
10.24291071582
30
0
41
1
10
77.9717421617301
20
10.2470819724128
30
0
41
1
10
77.9595111763521
20
10.2489514583747
30
0
41
1
10
77.9473332202047
20
10.2510963768394
30
0
0
SPLINE
5
1F6
100
AcDbEntity
8
1
62
256
6
ByLayer
370
18
48
1
60
0
100
AcDbSpline
70
4
71
3
72
8
73
4
40
0
40
0
40
0
40
0
40
1
40
1
40
1
40
1
41
1
10
79.0975322655241
20
10.6711784747558
30
0
41
1
10
79.0923319619114
20
10.6751724019565
30
0
41
1
10
79.0871309940282
20
10.6791669339193
30
0
41
1
10
79.0819293359785
20
10.6831620943455
30
0
0
SPLINE
5
1F7
100
AcDbEntity
8
1
62
256
6
ByLayer
370
18
48
1
60
0
100
AcDbSpline
70
4
71
3
72
26
73
22
40
0
40
0
40
0
40
0
40
0.0611212350797746
40
0.0611212350797746
40
0.145349009858843
40
0.145349009858843
40
0.228936526328768
40
0.228936526328768
40
0.391532191220643
40
0.391532191220643
40
0.475817926908251
40
0.475817926908251
40
0.58955755927352
40
0.58955755927352
40
0.703149060376352
40
0.703149060376352
40
0.816673845780265
40
0.816673845780265
40
0.930168712116143
40
0.930168712116143
40
1
40
1
40
1
40
1
41
1
10
77.3793417849668
20
13.1194331896614
30
0
41
1
10
77.3749169283262
20
13.1280211850829
30
0
41
1
10
77.3693955508459
20
13.1360795856182
30
0
41
1
10
77.353902294084
20
13.1527900019364
30
0
41
1
10
77.3427491927254
20
13.1607476484119
30
0
41
1
10
77.3182226935733
20
13.1716829462886
30
0
41
1
10
77.3045850054637
20
13.1748750864339
30
0
41
1
10
77.264206155567
20
13.1782912944072
30
0
41
1
10
77.2360798946013
20
13.1734148833699
30
0
41
1
10
77.1957361248948
20
13.1606371101541
30
0
41
1
10
77.1820508404797
20
13.1552072900532
30
0
41
1
10
77.150672460896
20
13.1407381334249
30
0
41
1
10
77.1331502826021
20
13.1310608536753
30
0
41
1
10
77.0993090108818
20
13.1098531844316
30
0
41
1
10
77.0829235214936
20
13.0982796771266
30
0
41
1
10
77.0512927229544
20
13.0736984427684
30
0
41
1
10
77.0360081045934
20
13.0606588909312
30
0
41
1
10
77.0065563193489
20
13.0333966354257
30
0
41
1
10
76.9923615724173
20
13.0191476810804
30
0
41
1
10
76.9703577641598
20
12.9953087269839
30
0
41
1
10
76.9621887171628
20
12.9860305180532
30
0
41
1
10
76.9542401208008
20
12.97656826574
30
0
0
SPLINE
5
1F8
100
AcDbEntity
8
1
62
256
6
ByLayer
370
18
48
1
60
0
100
AcDbSpline
70
4
71
3
72
8
73
4
40
0
40
0
40
0
40
0
40
1
40
1
40
1
40
1
41
1
10
79.5794483887581
20
11.2754239974105
30
0
41
1
10
79.5844619950466
20
11.2712049744139
30
0
41
1
10
79.5894749361197
20
11.2669866095833
30
0
41
1
10
79.5944872369373
20
11.2627688781029
30
0
0
SPLINE
5
1F9
100
AcDbEntity
8
1
62
256
6
ByLayer
370
18
48
1
60
0
100
AcDbSpline
70
4
71
3
72
8
73
4
40
0
40
0
40
0
40
0
40
1
40
1
40
1
40
1
41
1
10
78.8701929737923
20
13.2505418821429
30
0
41
1
10
78.8691794875485
20
13.2437851574359
30
0
41
1
10
78.8681658718451
20
13.2370276642365
30
0
41
1
10
78.8671521216353
20
13.2302693727107
30
0
0
SPLINE
5
1FA
100
AcDbEntity
8
1
62
256
6
ByLayer
370
18
48
1
60
0
100
AcDbSpline
70
4
71
3
72
8
73
4
40
0
40
0
40
0
40
0
40
1
40
1
40
1
40
1
41
1
10
76.7475858364199
20
11.7641971397271
30
0
41
1
10
76.7537996262765
20
11.7664376059849
30
0
41
1
10
76.7600142098631
20
11.7686784530232
30
0
41
1
10
76.7662296181226
20
11.7709196958116
30
0
0
SPLINE
5
1FB
100
AcDbEntity
8
1
62
256
6
ByLayer
370
18
48
1
60
0
100
AcDbSpline
70
4
71
3
72
24
73
20
40
0
40
0
40
0
40
0
40
0.15812611196599
40
0.15812611196599
40
0.271563393607299
40
0.271563393607299
40
0.385066230469765
40
0.385066230469765
40
0.498714519310314
40
0.498714519310314
40
0.612721087896063
40
0.612721087896063
40
0.746221642583602
40
0.746221642583602
40
0.82491337829752
40
0.82491337829752
40
0.908986128606078
40
0.908986128606078
40
1
40
1
40
1
40
1
41
1
10
79.5226339296901
20
10.8238224409677
30
0
41
1
10
79.5046444814229
20
10.8024072513256
30
0
41
1
10
79.4855137787129
20
10.7818691532132
30
0
41
1
10
79.4508787345333
20
10.7484859489314
30
0
41
1
10
79.4358358015188
20
10.7350732975149
30
0
41
1
10
79.4046885851482
20
10.7096190866589
30
0
41
1
10
79.3885483594748
20
10.6975472793102
30
0
41
1
10
79.3551948536426
20
10.6751491056276
30
0
41
1
10
79.3379231979887
20
10.6647825981571
30
0
41
1
10
79.3023216959698
20
10.6464499252744
30
0
41
1
10
79.2838761145731
20
10.638427050674
30
0
41
1
10
79.2431585734068
20
10.6250260944055
30
0
41
1
10
79.2202894303838
20
10.6201749437817
30
0
41
1
10
79.184894875054
20
10.6193087266146
30
0
41
1
10
79.1717554876325
20
10.6205353369934
30
0
41
1
10
79.1465368014002
20
10.6270175759807
30
0
41
1
10
79.1342985698806
20
10.6326783024871
30
0
41
1
10
79.1130377477724
20
10.648545022134
30
0
41
1
10
79.1040386635655
20
10.6593000269631
30
0
41
1
10
79.0975322655241
20
10.6711784747558
30
0
0
SPLINE
5
1FC
100
AcDbEntity
8
1
62
256
6
ByLayer
370
18
48
1
60
0
100
AcDbSpline
70
4
71
3
72
30
73
26
40
0
40
0
40
0
40
0
40
0.072868112638116
40
0.072868112638116
40
0.127812593477832
40
0.127812593477832
40
0.199092397893563
40
0.199092397893563
40
0.288874798004159
40
0.288874798004159
40
0.393641276926432
40
0.393641276926432
40
0.499915621932925
40
0.499915621932925
40
0.631623646297752
40
0.631623646297752
40
0.734868911743529
40
0.734868911743529
40
0.796951047610525
40
0.796951047610525
40
0.859105215562985
40
0.859105215562985
40
0.92142036465029
40
0.92142036465029
40
1
40
1
40
1
40
1
41
1
10
77.6097219288557
20
10.5592980692011
30
0
41
1
10
77.612517012003
20
10.5769725473506
30
0
41
1
10
77.6116042214467
20
10.5956198893467
30
0
41
1
10
77.6058407613743
20
10.6278472509796
30
0
41
1
10
77.6019716819439
20
10.6417589302167
30
0
41
1
10
77.5908077908562
20
10.6732383323047
30
0
41
1
10
77.5827940807802
20
10.690801399443
30
0
41
1
10
77.5620173064933
20
10.7295206707128
30
0
41
1
10
77.5484727532811
20
10.7505958219745
30
0
41
1
10
77.5162094501882
20
10.7946645599284
30
0
41
1
10
77.4968678974911
20
10.8175730980319
30
0
41
1
10
77.4551776820519
20
10.8614769439861
30
0
41
1
10
77.4326423829424
20
10.8825888393651
30
0
41
1
10
77.3798568411066
20
10.9268319980279
30
0
41
1
10
77.3487833109203
20
10.9494771728428
30
0
41
1
10
77.2913570716906
20
10.9851924775054
30
0
41
1
10
77.2652348598554
20
10.999395527018
30
0
41
1
10
77.222627576762
20
11.0187926549105
30
0
41
1
10
77.2063780548356
20
11.0253495158203
30
0
41
1
10
77.1736423819578
20
11.0365954700253
30
0
41
1
10
77.1570881502174
20
11.0413081949412
30
0
41
1
10
77.1239620129126
20
11.0483121159276
30
0
41
1
10
77.1072814324704
20
11.0506236023663
30
0
41
1
10
77.070293694635
20
11.0520696671858
30
0
41
1
10
77.0497076944113
20
11.0502428199009
30
0
41
1
10
77.0309539767983
20
11.0444029187734
30
0
0
SPLINE
5
1FD
100
AcDbEntity
8
1
62
256
6
ByLayer
370
18
48
1
60
0
100
AcDbSpline
70
4
71
3
72
28
73
24
40
0
40
0
40
0
40
0
40
0.0405984349493398
40
0.0405984349493398
40
0.136918028510161
40
0.136918028510161
40
0.284178405664778
40
0.284178405664778
40
0.50082292997446
40
0.50082292997446
40
0.566758824834818
40
0.566758824834818
40
0.63205009504477
40
0.63205009504477
40
0.735175839208392
40
0.735175839208392
40
0.797186106051241
40
0.797186106051241
40
0.859268321592032
40
0.859268321592032
40
0.921511331908841
40
0.921511331908841
40
1
40
1
40
1
40
1
41
1
10
78.10490871018
20
13.3645242466839
30
0
41
1
10
78.1028833672626
20
13.3540891326262
30
0
41
1
10
78.0996435931853
20
13.343781466387
30
0
41
1
10
78.0858491961937
20
13.3103203543648
30
0
41
1
10
78.0712416202439
20
13.288185740467
30
0
41
1
10
78.0285878151992
20
13.2370972723085
30
0
41
1
10
77.9967895156816
20
13.2096716587213
30
0
41
1
10
77.9125189328812
20
13.1507143373581
30
0
41
1
10
77.8556054494606
20
13.1220942651026
30
0
41
1
10
77.7791142579617
20
13.0942846546683
30
0
41
1
10
77.760844007411
20
13.0884002782029
30
0
41
1
10
77.7242281174377
20
13.0781202654577
30
0
41
1
10
77.7058403486195
20
13.0736978826877
30
0
41
1
10
77.6583616110916
20
13.0642680506234
30
0
41
1
10
77.6290408425184
20
13.0603513210351
30
0
41
1
10
77.5825430647339
20
13.0577088510169
30
0
41
1
10
77.5651056812524
20
13.05753649286
30
0
41
1
10
77.5306655327377
20
13.0591266164656
30
0
41
1
10
77.5135910652674
20
13.0608922132562
30
0
41
1
10
77.4802721473482
20
13.0668040347632
30
0
41
1
10
77.4639193365666
20
13.0709723317435
30
0
41
1
10
77.4289411254181
20
13.0838023370867
30
0
41
1
10
77.4103909836218
20
13.093508599266
30
0
41
1
10
77.3949447145125
20
13.1064053475663
30
0
0
SPLINE
5
1FE
100
AcDbEntity
8
1
62
256
6
ByLayer
370
18
48
1
60
0
100
AcDbSpline
70
4
71
3
72
26
73
22
40
0
40
0
40
0
40
0
40
0.061121235079702
40
0.061121235079702
40
0.145349009858803
40
0.145349009858803
40
0.228936526328739
40
0.228936526328739
40
0.391532191220701
40
0.391532191220701
40
0.475817926908333
40
0.475817926908333
40
0.589557559273582
40
0.589557559273582
40
0.703149060376437
40
0.703149060376437
40
0.816673845780314
40
0.816673845780314
40
0.930168712116164
40
0.930168712116164
40
1
40
1
40
1
40
1
41
1
10
79.5944872369373
20
11.2627688781029
30
0
41
1
10
79.6034712584611
20
11.2601179792459
30
0
41
1
10
79.6121184448624
20
11.256300741149
30
0
41
1
10
79.6306910825932
20
11.2444582105313
30
0
41
1
10
79.6401342458502
20
11.2351527244982
30
0
41
1
10
79.6545666328886
20
11.2134339257584
30
0
41
1
10
79.6598044289204
20
11.2008052367399
30
0
41
1
10
79.6694814838748
20
11.1622661807655
30
0
41
1
10
79.6692099383063
20
11.1340428351329
30
0
41
1
10
79.6632110827774
20
11.0924782495746
30
0
41
1
10
79.6601140312777
20
11.0781737101368
30
0
41
1
10
79.6510511672027
20
11.0450003997013
30
0
41
1
10
79.6444383854896
20
11.0261792114674
30
0
41
1
10
79.6292155676258
20
10.9893661476519
30
0
41
1
10
79.6205742660388
20
10.9713017089729
30
0
41
1
10
79.6017086955781
20
10.9360210673224
30
0
41
1
10
79.5914597730889
20
10.9187607557149
30
0
41
1
10
79.5696251523398
20
10.8851140357214
30
0
41
1
10
79.5580183206799
20
10.8686959732834
30
0
41
1
10
79.5383153555721
20
10.8429285257968
30
0
41
1
10
79.5305825260521
20
10.8332846932809
30
0
41
1
10
79.5226339296901
20
10.8238224409677
30
0
0
SPLINE
5
1FF
100
AcDbEntity
8
1
62
256
6
ByLayer
370
18
48
1
60
0
100
AcDbSpline
70
4
71
3
72
24
73
20
40
0
40
0
40
0
40
0
40
0.158126111965942
40
0.158126111965942
40
0.271563393607241
40
0.271563393607241
40
0.385066230469729
40
0.385066230469729
40
0.498714519310266
40
0.498714519310266
40
0.612721087896028
40
0.612721087896028
40
0.746221642583576
40
0.746221642583576
40
0.82491337829751
40
0.82491337829751
40
0.908986128606046
40
0.908986128606046
40
1
40
1
40
1
40
1
41
1
10
76.9542401208008
20
12.97656826574
30
0
41
1
10
76.9362506725336
20
12.9551530760978
30
0
41
1
10
76.9193441830591
20
12.9327507133468
30
0
41
1
10
76.8925182235319
20
12.8928221832187
30
0
41
1
10
76.8819485655188
20
12.8756601752787
30
0
41
1
10
76.8623726968397
20
12.8405072296167
30
0
41
1
10
76.8533429926918
20
12.8224756097682
30
0
41
1
10
76.8372263283078
20
12.7856300649966
30
0
41
1
10
76.8301101599922
20
12.7667515517387
30
0
41
1
10
76.8184779315714
20
12.7283285977307
30
0
41
1
10
76.8139268293995
20
12.7086598135211
30
0
41
1
10
76.8082014930204
20
12.6659295065533
30
0
41
1
10
76.8076683743722
20
12.6423570122444
30
0
41
1
10
76.8135235497962
20
12.6069165855671
30
0
41
1
10
76.8172544779084
20
12.5940030351957
30
0
41
1
10
76.8285736419746
20
12.5698604126824
30
0
41
1
10
76.8366003409471
20
12.5585357203813
30
0
41
1
10
76.8566271560416
20
12.5397964585409
30
0
41
1
10
76.8691765279348
20
12.5324902343095
30
0
41
1
10
76.8823868135537
20
12.5278427863143
30
0
0
SPLINE
5
200
100
AcDbEntity
8
1
62
256
6
ByLayer
370
18
48
1
60
0
100
AcDbSpline
70
4
71
3
72
26
73
22
40
0
40
0
40
0
40
0
40
0.0727938302380849
40
0.0727938302380849
40
0.12768230018694
40
0.12768230018694
40
0.198889441338007
40
0.198889441338007
40
0.288580316474555
40
0.288580316474555
40
0.393239995518876
40
0.393239995518876
40
0.49940600351584
40
0.49940600351584
40
0.600539842293488
40
0.600539842293488
40
0.795411350082979
40
0.795411350082979
40
0.921875057553226
40
0.921875057553226
40
1
40
1
40
1
40
1
41
1
10
76.8974256617328
20
12.5141434445014
30
0
41
1
10
76.9112490339091
20
12.5015515843295
30
0
41
1
10
76.9228450864518
20
12.485869314883
30
0
41
1
10
76.9396421011406
20
12.4561810919661
30
0
41
1
10
76.945822566607
20
12.4425125250722
30
0
41
1
10
76.9579374172969
20
12.4101051109474
30
0
41
1
10
76.9633105341437
20
12.3909290038014
30
0
41
1
10
76.9727342906055
20
12.346765111715
30
0
41
1
10
76.9761227375259
20
12.321368873859
30
0
41
1
10
76.9801273166709
20
12.2659030429303
30
0
41
1
10
76.9802002043362
20
12.2355300594107
30
0
41
1
10
76.9767149067249
20
12.1745832829811
30
0
41
1
10
76.9730879548422
20
12.1438025925963
30
0
41
1
10
76.9626432315016
20
12.084633381227
30
0
41
1
10
76.9559531602852
20
12.0560279838849
30
0
41
1
10
76.9319951275338
20
11.9750513590692
30
0
41
1
10
76.9103996715341
20
11.9235477432629
30
0
41
1
10
76.8640082195926
20
11.8495994449171
30
0
41
1
10
76.8425151602403
20
11.8225857077222
30
0
41
1
10
76.8019489275222
20
11.7885223922513
30
0
41
1
10
76.7846862078646
20
11.7775750428025
30
0
41
1
10
76.7662296181226
20
11.7709196958116
30
0
0
SPLINE
5
201
100
AcDbEntity
8
1
62
256
6
ByLayer
370
18
48
1
60
0
100
AcDbSpline
70
4
71
3
72
24
73
20
40
0
40
0
40
0
40
0
40
0.15812611196604
40
0.15812611196604
40
0.271563393607322
40
0.271563393607322
40
0.385066230469789
40
0.385066230469789
40
0.498714519310297
40
0.498714519310297
40
0.612721087896075
40
0.612721087896075
40
0.746221642583605
40
0.746221642583605
40
0.824913378297528
40
0.824913378297528
40
0.908986128606064
40
0.908986128606064
40
1
40
1
40
1
40
1
41
1
10
77.9473332202047
20
10.2510963768394
30
0
41
1
10
77.9197717864449
20
10.2559508062255
30
0
41
1
10
77.8924177897303
20
10.2622208683547
30
0
41
1
10
77.8462210172619
20
10.2754541275575
30
0
41
1
10
77.8271076387918
20
10.2817397399327
30
0
41
1
10
77.789563007138
20
10.2959007592906
30
0
41
1
10
77.7710876344526
20
10.3037920907627
30
0
41
1
10
77.7351449228308
20
10.3213576927878
30
0
41
1
10
77.7176137968422
20
10.3310622744859
30
0
41
1
10
77.684147356719
20
10.3525617288069
30
0
41
1
10
77.6681056864306
20
10.364427974302
30
0
41
1
10
77.6364944225946
20
10.3927397152992
30
0
41
1
10
77.6210988329219
20
10.4099561933448
30
0
41
1
10
77.6031456325115
20
10.439856125085
30
0
41
1
10
77.5978504295721
20
10.4517141358709
30
0
41
1
10
77.5913440069812
20
10.476492541372
30
0
41
1
10
77.5904146292791
20
10.4897471510783
30
0
41
1
10
77.5941488988302
20
10.5157215972513
30
0
41
1
10
77.5993108962036
20
10.5286894858888
30
0
41
1
10
77.6066810766986
20
10.5400697822743
30
0
0
SPLINE
5
202
100
AcDbEntity
8
1
62
256
6
ByLayer
370
18
48
1
60
0
100
AcDbSpline
70
4
71
3
72
30
73
26
40
0
40
0
40
0
40
0
40
0.0728681126381156
40
0.0728681126381156
40
0.127812593477843
40
0.127812593477843
40
0.199092397893562
40
0.199092397893562
40
0.288874798004158
40
0.288874798004158
40
0.393641276926432
40
0.393641276926432
40
0.499915621932926
40
0.499915621932926
40
0.631623646297753
40
0.631623646297753
40
0.734868911743531
40
0.734868911743531
40
0.796951047610525
40
0.796951047610525
40
0.859105215563015
40
0.859105215563015
40
0.92142036465029
40
0.92142036465029
40
1
40
1
40
1
40
1
41
1
10
78.8671521216353
20
13.2302693727107
30
0
41
1
10
78.8643570384879
20
13.2116356041895
30
0
41
1
10
78.8652698290442
20
13.1920692619735
30
0
41
1
10
78.8710332891167
20
13.1583696117331
30
0
41
1
10
78.8749023685471
20
13.1438607030435
30
0
41
1
10
78.8860662596347
20
13.111107552167
30
0
41
1
10
78.8940799697107
20
13.092891475419
30
0
41
1
10
78.9148567439977
20
13.0528551566753
30
0
41
1
10
78.9284012972098
20
13.0311513356067
30
0
41
1
10
78.9606646003027
20
12.9859594210462
30
0
41
1
10
78.9800061529997
20
12.9625918724995
30
0
41
1
10
79.0216963684391
20
12.9180693848602
30
0
41
1
10
79.0442316675485
20
12.8968004041759
30
0
41
1
10
79.0970172093843
20
12.852557245513
30
0
41
1
10
79.1280907395706
20
12.8301532502943
30
0
41
1
10
79.1855169788003
20
12.7952882885842
30
0
41
1
10
79.2116391906357
20
12.781606318345
30
0
41
1
10
79.2542464737289
20
12.7632696638462
30
0
41
1
10
79.2704959956554
20
12.7571639894129
30
0
41
1
10
79.3032316685332
20
12.7469223525866
30
0
41
1
10
79.3197859002735
20
12.7427648850306
30
0
41
1
10
79.3529120375783
20
12.7369736568542
30
0
41
1
10
79.3695926180205
20
12.7353237418171
30
0
41
1
10
79.4065803558559
20
12.7354782956365
30
0
41
1
10
79.4271663560796
20
12.7382914607609
30
0
41
1
10
79.4459200736926
20
12.7451645231385
30
0
0
SPLINE
5
203
100
AcDbEntity
8
1
62
256
6
ByLayer
370
18
48
1
60
0
100
AcDbSpline
70
4
71
3
72
8
73
4
40
0
40
0
40
0
40
0
40
1
40
1
40
1
40
1
41
1
10
79.4459200736927
20
12.7451645231385
30
0
41
1
10
79.4522355422043
20
12.7474790833723
30
0
41
1
10
79.4585501727669
20
12.7497934348831
30
0
41
1
10
79.4648639968214
20
12.752107585382
30
0
0
SPLINE
5
204
100
AcDbEntity
8
1
62
256
6
ByLayer
370
18
48
1
60
0
100
AcDbSpline
70
4
71
3
72
26
73
22
40
0
40
0
40
0
40
0
40
0.0611212350797026
40
0.0611212350797026
40
0.145349009858775
40
0.145349009858775
40
0.228936526328718
40
0.228936526328718
40
0.391532191220708
40
0.391532191220708
40
0.475817926908317
40
0.475817926908317
40
0.589557559273589
40
0.589557559273589
40
0.703149060376439
40
0.703149060376439
40
0.816673845780312
40
0.816673845780312
40
0.93016871211618
40
0.93016871211618
40
1
40
1
40
1
40
1
41
1
10
78.1088137851296
20
13.3846445394877
30
0
41
1
10
78.106841035163
20
13.3941240379701
30
0
41
1
10
78.1060524029518
20
13.4039031046318
30
0
41
1
10
78.1075545159541
20
13.4267924626433
30
0
41
1
10
78.1111988016121
20
13.4401299386175
30
0
41
1
10
78.1233469713726
20
13.4643989058395
30
0
41
1
10
78.1319210244653
20
13.4756664839246
30
0
41
1
10
78.1611133400977
20
13.5043764149124
30
0
41
1
10
78.1860243976739
20
13.5187825792702
30
0
41
1
10
78.2254175882107
20
13.5349944682381
30
0
41
1
10
78.2394736821536
20
13.5396504751445
30
0
41
1
10
78.2729827304769
20
13.5487721929269
30
0
41
1
10
78.2927076621939
20
13.5526367027464
30
0
41
1
10
78.3324031658025
20
13.5581645181306
30
0
41
1
10
78.3524525323871
20
13.5598374922964
30
0
41
1
10
78.3925818164003
20
13.5613457971572
30
0
41
1
10
78.4127123932725
20
13.5611820126285
30
0
41
1
10
78.4528633950973
20
13.5592249766601
30
0
41
1
10
78.4729218673842
20
13.5574293344403
30
0
41
1
10
78.5051318887608
20
13.5533006953845
30
0
41
1
10
78.5173628741389
20
13.5514392483329
30
0
41
1
10
78.5295408302864
20
13.5492943298682
30
0
0
SPLINE
5
205
100
AcDbEntity
8
1
62
256
6
ByLayer
370
18
48
1
60
0
100
AcDbSpline
70
4
71
3
72
8
73
4
40
0
40
0
40
0
40
0
40
1
40
1
40
1
40
1
41
1
10
77.6066810766986
20
10.5400697822743
30
0
41
1
10
77.6076945629425
20
10.546478286149
30
0
41
1
10
77.6087081786459
20
10.5528877032162
30
0
41
1
10
77.6097219288557
20
10.5592980692011
30
0
0
SPLINE
5
206
100
AcDbEntity
8
1
62
256
6
ByLayer
370
18
48
1
60
0
100
AcDbSpline
70
4
71
3
72
26
73
22
40
0
40
0
40
0
40
0
40
0.0611212350796961
40
0.0611212350796961
40
0.1453490098588
40
0.1453490098588
40
0.228936526328732
40
0.228936526328732
40
0.391532191220716
40
0.391532191220716
40
0.47581792690834
40
0.47581792690834
40
0.589557559273615
40
0.589557559273615
40
0.703149060376449
40
0.703149060376449
40
0.816673845780359
40
0.816673845780359
40
0.930168712116201
40
0.930168712116201
40
1
40
1
40
1
40
1
41
1
10
79.4648639968214
20
12.752107585382
30
0
41
1
10
79.4718752683787
20
12.7586813214122
30
0
41
1
10
79.4797338225688
20
12.7643830980483
30
0
41
1
10
79.4998085733018
20
12.7748288772547
30
0
41
1
10
79.5128960222168
20
12.7785170056564
30
0
41
1
10
79.5394765790157
20
12.7804507546148
30
0
41
1
10
79.5532884281403
20
12.7788081738474
30
0
41
1
10
79.5921577987272
20
12.7682662948189
30
0
41
1
10
79.6167973107347
20
12.7540961829845
30
0
41
1
10
79.6501916457427
20
12.7283308262663
30
0
41
1
10
79.6611506881858
20
12.7185603704225
30
0
41
1
10
79.6855968724341
20
12.6942587643834
30
0
41
1
10
79.698709022438
20
12.6791858225352
30
0
41
1
10
79.7231817081828
20
12.6477072439038
30
0
41
1
10
79.7345897731805
20
12.6312384235204
30
0
41
1
10
79.7558534867328
20
12.5973408133851
30
0
41
1
10
79.7657351411159
20
12.5798686948311
30
0
41
1
10
79.7840515221916
20
12.544192973164
30
0
41
1
10
79.7925031628185
20
12.5259552825935
30
0
41
1
10
79.8050102190874
20
12.4960378872826
30
0
41
1
10
79.8095083749456
20
12.48452858826
30
0
41
1
10
79.813737734731
20
12.472921417482
30
0
0
SPLINE
5
207
100
AcDbEntity
8
1
62
256
6
ByLayer
370
18
48
1
60
0
100
AcDbSpline
70
4
71
3
72
24
73
20
40
0
40
0
40
0
40
0
40
0.158126111966024
40
0.158126111966024
40
0.271563393607313
40
0.271563393607313
40
0.385066230469789
40
0.385066230469789
40
0.498714519310307
40
0.498714519310307
40
0.61272108789606
40
0.61272108789606
40
0.746221642583593
40
0.746221642583593
40
0.824913378297535
40
0.824913378297535
40
0.908986128606072
40
0.908986128606072
40
1
40
1
40
1
40
1
41
1
10
79.813737734731
20
12.472921417482
30
0
41
1
10
79.8233097202235
20
12.4466517984538
30
0
41
1
10
79.8315330142281
20
12.4198232958854
30
0
41
1
10
79.8430947425169
20
12.3731334948661
30
0
41
1
10
79.8471651879725
20
12.3533929074113
30
0
41
1
10
79.8535626032556
20
12.3136652551494
30
0
41
1
10
79.8558977502677
20
12.2936319300222
30
0
41
1
10
79.8584869560572
20
12.2534916972219
30
0
41
1
10
79.858746426392
20
12.2333141036146
30
0
41
1
10
79.8566113644963
20
12.1932184019308
30
0
41
1
10
79.854207453388
20
12.1731714303059
30
0
41
1
10
79.8451011760577
20
12.1310366126457
30
0
41
1
10
79.8376276227074
20
12.1086865456772
30
0
41
1
10
79.8201862677879
20
12.0773493656771
30
0
41
1
10
79.8123420833059
20
12.0664745541904
30
0
41
1
10
79.7936298196644
20
12.0476214041495
30
0
41
1
10
79.7823209658469
20
12.0397023066545
30
0
41
1
10
79.7573258741877
20
12.0288928088848
30
0
41
1
10
79.7431647926073
20
12.02629112983
30
0
41
1
10
79.729288214071
20
12.0264145246901
30
0
0
SPLINE
5
208
100
AcDbEntity
8
1
62
256
6
ByLayer
370
18
48
1
60
0
100
AcDbSpline
70
4
71
3
72
24
73
20
40
0
40
0
40
0
40
0
40
0.158126111965994
40
0.158126111965994
40
0.271563393607281
40
0.271563393607281
40
0.385066230469757
40
0.385066230469757
40
0.498714519310269
40
0.498714519310269
40
0.612721087896054
40
0.612721087896054
40
0.746221642583589
40
0.746221642583589
40
0.824913378297525
40
0.824913378297525
40
0.908986128606057
40
0.908986128606057
40
1
40
1
40
1
40
1
41
1
10
78.5295408302864
20
13.5492943298682
30
0
41
1
10
78.5571022640461
20
13.5444399004821
30
0
41
1
10
78.5844562607606
20
13.5381291536992
30
0
41
1
10
78.6306530332291
20
13.5247492194271
30
0
41
1
10
78.6497664116991
20
13.5183789597253
30
0
41
1
10
78.6873110433529
20
13.5039930962716
30
0
41
1
10
78.7057864160383
20
13.4959613921868
30
0
41
1
10
78.7417291276601
20
13.4780428759763
30
0
41
1
10
78.7592602536488
20
13.4681252854008
30
0
41
1
10
78.792726693772
20
13.4460986821195
30
0
41
1
10
78.8087683640604
20
13.4339167335659
30
0
41
1
10
78.8403796278963
20
13.4047607517796
30
0
41
1
10
78.8557752175691
20
13.3869793971359
30
0
41
1
10
78.8737284179794
20
13.35593740321
30
0
41
1
10
78.8790236209189
20
13.3435925702649
30
0
41
1
10
78.8855300435097
20
13.3177001977095
30
0
41
1
10
78.8864594212118
20
13.3037951594131
30
0
41
1
10
78.8827251516607
20
13.2764171707528
30
0
41
1
10
78.8775631542874
20
13.2626716916228
30
0
41
1
10
78.8701929737923
20
13.2505418821429
30
0
0
SPLINE
5
209
100
AcDbEntity
8
1
62
256
6
ByLayer
370
18
48
1
60
0
100
AcDbSpline
70
4
71
3
72
10
73
6
40
0
40
0
40
0
40
0
40
0.692269483357584
40
0.692269483357584
40
1
40
1
40
1
40
1
41
1
10
77.1734969993199
20
1.74902518470645
30
0
41
1
10
77.1882947225014
20
1.7745386153652
30
0
41
1
10
77.2033732283691
20
1.8000197040077
30
0
41
1
10
77.2255198875057
20
1.83666451108792
30
0
41
1
10
77.2324375954171
20
1.8480081218911
30
0
41
1
10
77.2393993885569
20
1.85932185742143
30
0
0
SPLINE
5
20A
100
AcDbEntity
8
1
62
256
6
ByLayer
370
18
48
1
60
0
100
AcDbSpline
70
4
71
3
72
10
73
6
40
0
40
0
40
0
40
0
40
0.819165732013035
40
0.819165732013035
40
1
40
1
40
1
40
1
41
1
10
81.0826047072861
20
3.4135028214252
30
0
41
1
10
80.9517247992745
20
3.62632181707619
30
0
41
1
10
80.8519010431121
20
3.84765224916578
30
0
41
1
10
80.8039516449538
20
4.1177898181358
30
0
41
1
10
80.7983205747737
20
4.16656694843891
30
0
41
1
10
80.7954441371296
20
4.21532813099645
30
0
0
SPLINE
5
20B
100
AcDbEntity
8
1
62
256
6
ByLayer
370
18
48
1
60
0
100
AcDbSpline
70
4
71
3
72
10
73
6
40
0
40
0
40
0
40
0
40
0.46433421929278
40
0.46433421929278
40
1
40
1
40
1
40
1
41
1
10
81.0826047072861
20
3.41350282142542
30
0
41
1
10
80.9766631497785
20
3.06293987616937
30
0
41
1
10
80.9027751230643
20
2.69835659303351
30
0
41
1
10
80.8740696993445
20
1.91444650469015
30
0
41
1
10
80.9412401221064
20
1.49141168498585
30
0
41
1
10
81.0525573066981
20
1.08860767723365
30
0
0
SPLINE
5
20C
100
AcDbEntity
8
1
62
256
6
ByLayer
370
18
48
1
60
0
100
AcDbSpline
70
4
71
3
72
8
73
4
40
0
40
0
40
0
40
0
40
1
40
1
40
1
40
1
41
1
10
81.0525573066998
20
1.08860767723388
30
0
41
1
10
80.7607182155913
20
0.791739828252787
30
0
41
1
10
80.6825556593772
20
0.470406023739656
30
0
41
1
10
80.827074090191
20
0.17510485580857
30
0
0
SPLINE
5
20D
100
AcDbEntity
8
1
62
256
6
ByLayer
370
18
48
1
60
0
100
AcDbSpline
70
4
71
3
72
18
73
14
40
0
40
0
40
0
40
0
40
0.252026352812656
40
0.252026352812656
40
0.405612964547159
40
0.405612964547159
40
0.559855857535999
40
0.559855857535999
40
0.714098750524838
40
0.714098750524838
40
0.857201879020038
40
0.857201879020038
40
1
40
1
40
1
40
1
41
1
10
72.4149147408893
20
0.59874609949054
30
0
41
1
10
72.4149147408893
20
0.248477488592585
30
0
41
1
10
72.4149147408893
20
-0.101791122305315
30
0
41
1
10
72.4149147408894
20
-0.665515860089897
30
0
41
1
10
72.379099954499
20
-0.837426834763733
30
0
41
1
10
72.2373292983992
20
-1.09584423322406
30
0
41
1
10
72.1283964497663
20
-1.19700729012317
30
0
41
1
10
71.8347152013653
20
-1.34313161859592
30
0
41
1
10
71.6807116198866
20
-1.37966270071411
30
0
41
1
10
71.37001834795
20
-1.37966270071411
30
0
41
1
10
71.2294453113678
20
-1.34742939296279
30
0
41
1
10
70.9646983316227
20
-1.21720250022332
30
0
41
1
10
70.8578669025676
20
-1.11964735151997
30
0
41
1
10
70.7772836331892
20
-0.988565233331144
30
0
0
SPLINE
5
20E
100
AcDbEntity
8
1
62
256
6
ByLayer
370
18
48
1
60
0
100
AcDbSpline
70
4
71
3
72
8
73
4
40
0
40
0
40
0
40
0
40
1
40
1
40
1
40
1
41
1
10
69.344692177574
20
-0.721386926858941
30
0
41
1
10
69.363494940429
20
-0.806626118468046
30
0
41
1
10
69.3957282481803
20
-0.877539395521012
30
0
41
1
10
69.4404967311682
20
-0.934843053745624
30
0
0
SPLINE
5
20F
100
AcDbEntity
8
1
62
256
6
ByLayer
370
18
48
1
60
0
100
AcDbSpline
70
4
71
3
72
8
73
4
40
0
40
0
40
0
40
0
40
1
40
1
40
1
40
1
41
1
10
81.6567618048257
20
-16.0387485215053
30
0
41
1
10
81.7463388874196
20
-15.931172737916
30
0
41
1
10
81.8509310026525
20
-15.8116234341123
30
0
41
1
10
81.9688091932049
20
-15.6817877626389
30
0
0
SPLINE
5
210
100
AcDbEntity
8
1
62
256
6
ByLayer
370
18
48
1
60
0
100
AcDbSpline
70
4
71
3
72
8
73
4
40
0
40
0
40
0
40
0
40
1
40
1
40
1
40
1
41
1
10
79.9751591396993
20
-12.9103247700858
30
0
41
1
10
79.9751591396993
20
-12.188902708401
30
0
41
1
10
79.9751591396993
20
-11.3901377725777
30
0
41
1
10
79.9751591396993
20
-10.514029962616
30
0
0
SPLINE
5
211
100
AcDbEntity
8
1
62
256
6
ByLayer
370
18
48
1
60
0
100
AcDbSpline
70
4
71
3
72
8
73
4
40
0
40
0
40
0
40
0
40
1
40
1
40
1
40
1
41
1
10
68.9149147408894
20
-0.46925083067066
30
0
41
1
10
68.9149147408894
20
-0.11325185395026
30
0
41
1
10
68.9149147408893
20
0.24274712277014
30
0
41
1
10
68.9149147408893
20
0.598746099490484
30
0
0
SPLINE
5
212
100
AcDbEntity
8
1
62
256
6
ByLayer
370
18
48
1
60
0
100
AcDbSpline
70
4
71
3
72
18
73
14
40
0
40
0
40
0
40
0
40
0.191325435437369
40
0.191325435437369
40
0.382650870874737
40
0.382650870874737
40
0.536214707212625
40
0.536214707212625
40
0.690626528447005
40
0.690626528447005
40
0.845885455798058
40
0.845885455798058
40
1
40
1
40
1
40
1
41
1
10
70.7772836331892
20
-0.988565233331144
30
0
41
1
10
70.7146077570061
20
-1.15761102509379
30
0
41
1
10
70.6089541371545
20
-1.28797684755477
30
0
41
1
10
70.3099006707947
20
-1.46991596241787
30
0
41
1
10
70.1335128478221
20
-1.5157588889976
30
0
41
1
10
69.765515917661
20
-1.5157588889976
30
0
41
1
10
69.6133030755018
20
-1.4878233556131
30
0
41
1
10
69.3313807530933
20
-1.37720924694833
30
0
41
1
10
69.2229219038467
20
-1.3087494236612
30
0
41
1
10
69.0702915404493
20
-1.1449860219924
30
0
41
1
10
69.0125100338032
20
-1.04372000437235
30
0
41
1
10
68.9340078858989
20
-0.798222378198943
30
0
41
1
10
68.9149147408894
20
-0.64689217116694
30
0
41
1
10
68.9149147408894
20
-0.46925083067066
30
0
0
SPLINE
5
213
100
AcDbEntity
8
1
62
256
6
ByLayer
370
18
48
1
60
0
100
AcDbSpline
70
4
71
3
72
8
73
4
40
0
40
0
40
0
40
0
40
1
40
1
40
1
40
1
41
1
10
75.9751591396993
20
-12.5883087975017
30
0
41
1
10
77.308490099898
20
-12.6956766684269
30
0
41
1
10
78.6418234276514
20
-12.8030154026764
30
0
41
1
10
79.9751591396993
20
-12.9103247700858
30
0
0
SPLINE
5
214
100
AcDbEntity
8
1
62
256
6
ByLayer
370
18
48
1
60
0
100
AcDbSpline
70
4
71
3
72
8
73
4
40
0
40
0
40
0
40
0
40
1
40
1
40
1
40
1
41
1
10
81.1622522288193
20
-8.1998455076573
30
0
41
1
10
81.3218585666688
20
-11.5042853039171
30
0
41
1
10
81.6209944652866
20
-14.2643961151138
30
0
41
1
10
81.9688091932049
20
-15.6817877626389
30
0
0
SPLINE
5
215
100
AcDbEntity
8
1
62
256
6
ByLayer
370
18
48
1
60
0
100
AcDbSpline
70
4
71
3
72
8
73
4
40
0
40
0
40
0
40
0
40
1
40
1
40
1
40
1
41
1
10
75.9751591396993
20
-10.537158605833
30
0
41
1
10
75.9751591396993
20
-11.2805849862056
30
0
41
1
10
75.9751591396992
20
-11.9643017167617
30
0
41
1
10
75.9751591396992
20
-12.5883087975017
30
0
0
SPLINE
5
216
100
AcDbEntity
8
1
62
256
6
ByLayer
370
18
48
1
60
0
100
AcDbSpline
70
4
71
3
72
26
73
22
40
0
40
0
40
0
40
0
40
0.147824490853581
40
0.147824490853581
40
0.254285777827006
40
0.254285777827006
40
0.361601348535884
40
0.361601348535884
40
0.456332984219829
40
0.456332984219829
40
0.543523969803101
40
0.543523969803101
40
0.62927971601194
40
0.62927971601194
40
0.71834851724666
40
0.71834851724666
40
0.815694062782543
40
0.815694062782543
40
0.927310674095598
40
0.927310674095598
40
1
40
1
40
1
40
1
41
1
10
79.9751591396993
20
-10.514029962616
30
0
41
1
10
79.9751591396993
20
-10.227207016023
30
0
41
1
10
79.9194725780532
20
-9.92547574030795
30
0
41
1
10
79.7117787185425
20
-9.43846245959617
30
0
41
1
10
79.588100911945
20
-9.23912908203306
30
0
41
1
10
79.2749728435646
20
-8.89055629450763
30
0
41
1
10
79.0797520196923
20
-8.73672269458416
30
0
41
1
10
78.6718369606282
20
-8.52656868941438
30
0
41
1
10
78.4578668646404
20
-8.45812736106251
30
0
41
1
10
78.0421905077362
20
-8.40119152470345
30
0
41
1
10
77.8352080051146
20
-8.40601305292199
30
0
41
1
10
77.4444816755529
20
-8.47727332502654
30
0
41
1
10
77.255350955762
20
-8.54351764210094
30
0
41
1
10
76.9073973107629
20
-8.72628064878751
30
0
41
1
10
76.7456463027968
20
-8.84671079259408
30
0
41
1
10
76.4583556151151
20
-9.13105586926042
30
0
41
1
10
76.3339372722955
20
-9.30112977860114
30
0
41
1
10
76.12920288983
20
-9.68161073492388
30
0
41
1
10
76.0552435589827
20
-9.89855327480194
30
0
41
1
10
75.9879598092083
20
-10.2551520358684
30
0
41
1
10
75.9751591396993
20
-10.397164705911
30
0
41
1
10
75.9751591396993
20
-10.537158605833
30
0
0
SPLINE
5
217
100
AcDbEntity
8
1
62
256
6
ByLayer
370
18
48
1
60
0
100
AcDbSpline
70
4
71
3
72
8
73
4
40
0
40
0
40
0
40
0
40
1
40
1
40
1
40
1
41
1
10
71.8301492471342
20
-14.1798695239544
30
0
41
1
10
72.31778556537
20
-14.2020996638492
30
0
41
1
10
72.8138647111055
20
-14.2620812794399
30
0
41
1
10
73.2858959042223
20
-14.3542915273789
30
0
0
SPLINE
5
218
100
AcDbEntity
8
1
62
256
6
ByLayer
370
18
48
1
60
0
100
AcDbSpline
70
4
71
3
72
8
73
4
40
0
40
0
40
0
40
0
40
1
40
1
40
1
40
1
41
1
10
72.0021493277403
20
0.228421208214002
30
0
41
1
10
71.649373681795
20
0.228421208214002
30
0
41
1
10
71.2965980358497
20
0.228421208214002
30
0
41
1
10
70.9438223899045
20
0.228421208214002
30
0
0
SPLINE
5
219
100
AcDbEntity
8
1
62
256
6
ByLayer
370
18
48
1
60
0
100
AcDbSpline
70
4
71
3
72
8
73
4
40
0
40
0
40
0
40
0
40
1
40
1
40
1
40
1
41
1
10
75.7608027151908
20
-8.19984550765724
30
0
41
1
10
77.561158294153
20
-8.19984550765724
30
0
41
1
10
79.3616504575883
20
-8.19984550765724
30
0
41
1
10
81.1622522288193
20
-8.19984550765724
30
0
0
SPLINE
5
21A
100
AcDbEntity
8
1
62
256
6
ByLayer
370
18
48
1
60
0
100
AcDbSpline
70
4
71
3
72
22
73
18
40
0
40
0
40
0
40
0
40
0.125919801008143
40
0.125919801008143
40
0.228173823812626
40
0.228173823812626
40
0.362000949327647
40
0.362000949327647
40
0.497453699158083
40
0.497453699158083
40
0.624996799363383
40
0.624996799363383
40
0.753577031326435
40
0.753577031326435
40
0.881194351724582
40
0.881194351724582
40
1
40
1
40
1
40
1
41
1
10
70.9438223899045
20
0.228421208214002
30
0
41
1
10
70.9438223899045
20
0.0264258129722066
30
0
41
1
10
70.9438223899045
20
-0.175569582269532
30
0
41
1
10
70.9438223899045
20
-0.541596699179195
30
0
41
1
10
70.9581483044607
20
-0.659069198539669
30
0
41
1
10
71.0201644163893
20
-0.824445497015972
30
0
41
1
10
71.0781278388685
20
-0.89616308444397
30
0
41
1
10
71.2402732383875
20
-0.991288385495238
30
0
41
1
10
71.3422618884975
20
-1.01506817526007
30
0
41
1
10
71.5804302179935
20
-1.01506817526007
30
0
41
1
10
71.6833977288659
20
-0.99286300769802
30
0
41
1
10
71.8596037009668
20
-0.903681209573449
30
0
41
1
10
71.9206706887022
20
-0.840292017674983
30
0
41
1
10
71.9848959154289
20
-0.674733655446119
30
0
41
1
10
72.0021493277403
20
-0.532284854717716
30
0
41
1
10
72.0021493277403
20
-0.145007631216402
30
0
41
1
10
72.0021493277403
20
0.0417067884988001
30
0
41
1
10
72.0021493277403
20
0.228421208214002
30
0
0
SPLINE
5
21B
100
AcDbEntity
8
1
62
256
6
ByLayer
370
18
48
1
60
0
100
AcDbSpline
70
4
71
3
72
10
73
6
40
0
40
0
40
0
40
0
40
0.66033898305085
40
0.66033898305085
40
1
40
1
40
1
40
1
41
1
10
69.3276801540385
20
0.228421208213945
30
0
41
1
10
69.3276801540385
20
-0.0041361380809235
30
0
41
1
10
69.3276801540385
20
-0.236693484375792
30
0
41
1
10
69.3276801540385
20
-0.588872217214544
30
0
41
1
10
69.333052371997
20
-0.672678817368023
30
0
41
1
10
69.344692177574
20
-0.721386926858941
30
0
0
SPLINE
5
21C
100
AcDbEntity
8
1
62
256
6
ByLayer
370
18
48
1
60
0
100
AcDbSpline
70
4
71
3
72
18
73
14
40
0
40
0
40
0
40
0
40
0.144086644560491
40
0.144086644560491
40
0.287731062505125
40
0.287731062505125
40
0.456860780407677
40
0.456860780407677
40
0.627194363444239
40
0.627194363444239
40
0.795871414023982
40
0.795871414023982
40
1
40
1
40
1
40
1
41
1
10
69.4404967311682
20
-0.934843053745624
30
0
41
1
10
69.4843698444964
20
-0.992146711970236
30
0
41
1
10
69.5497318296589
20
-1.03942223000553
30
0
41
1
10
69.7195910009285
20
-1.11380266710881
30
0
41
1
10
69.8183427275868
20
-1.1318243788927
30
0
41
1
10
70.0600925357219
20
-1.1318243788927
30
0
41
1
10
70.1738044825113
20
-1.10532143696383
30
0
41
1
10
70.3660955264002
20
-0.997494683381262
30
0
41
1
10
70.4334616838415
20
-0.924098617828463
30
0
41
1
10
70.5118710763503
20
-0.734490450489091
30
0
41
1
10
70.5310569767554
20
-0.597467765948238
30
0
41
1
10
70.5310569767553
20
-0.203266350411411
30
0
41
1
10
70.5310569767553
20
0.0125774289012952
30
0
41
1
10
70.5310569767553
20
0.228421208214002
30
0
0
SPLINE
5
21D
100
AcDbEntity
8
1
62
256
6
ByLayer
370
18
48
1
60
0
100
AcDbSpline
70
4
71
3
72
8
73
4
40
0
40
0
40
0
40
0
40
1
40
1
40
1
40
1
41
1
10
73.2858959042221
20
-14.3542915273777
30
0
41
1
10
76.1199016996568
20
-14.9079082816689
30
0
41
1
10
78.9393021974095
20
-15.4641539298345
30
0
41
1
10
81.656761804826
20
-16.0387485215053
30
0
0
SPLINE
5
21E
100
AcDbEntity
8
1
62
256
6
ByLayer
370
18
48
1
60
0
100
AcDbSpline
70
4
71
3
72
8
73
4
40
0
40
0
40
0
40
0
40
1
40
1
40
1
40
1
41
1
10
70.5310569767553
20
0.228421208214002
30
0
41
1
10
70.1299313691831
20
0.228421208213945
30
0
41
1
10
69.7288057616108
20
0.228421208213945
30
0
41
1
10
69.3276801540385
20
0.228421208213945
30
0
0
SPLINE
5
21F
100
AcDbEntity
8
1
62
256
6
ByLayer
370
18
48
1
60
0
100
AcDbSpline
70
4
71
3
72
8
73
4
40
0
40
0
40
0
40
0
40
1
40
1
40
1
40
1
41
1
10
69.3717069402521
20
-14.0682044802682
30
0
41
1
10
70.1910791524391
20
-14.1052795649921
30
0
41
1
10
71.0105665005822
20
-14.1425067631633
30
0
41
1
10
71.8301492471342
20
-14.1798695239543
30
0
0
SPLINE
5
220
100
AcDbEntity
8
1
62
256
6
ByLayer
370
18
48
1
60
0
100
AcDbSpline
70
4
71
3
72
8
73
4
40
0
40
0
40
0
40
0
40
1
40
1
40
1
40
1
41
1
10
68.9149147408893
20
0.598746099490484
30
0
41
1
10
70.0815814075561
20
0.59874609949054
30
0
41
1
10
71.2482480742227
20
0.59874609949054
30
0
41
1
10
72.4149147408893
20
0.59874609949054
30
0
0
SPLINE
5
221
100
AcDbEntity
8
1
62
256
6
ByLayer
370
18
48
1
60
0
100
AcDbSpline
70
4
71
3
72
8
73
4
40
0
40
0
40
0
40
0
40
1
40
1
40
1
40
1
41
1
10
75.7608027151678
20
-8.19984550765588
30
0
41
1
10
75.828819364824
20
-6.64246384023392
30
0
41
1
10
75.8644840215812
20
-4.94579701484474
30
0
41
1
10
75.8644840215812
20
-3.24663958768525
30
0
0
SPLINE
5
222
100
AcDbEntity
8
1
62
256
6
ByLayer
370
18
48
1
60
0
100
AcDbSpline
70
4
71
3
72
10
73
6
40
0
40
0
40
0
40
0
40
0.587121252548346
40
0.587121252548346
40
1
40
1
40
1
40
1
41
1
10
69.3717069402522
20
-14.0682044802683
30
0
41
1
10
69.0852577744703
20
-12.9390836663654
30
0
41
1
10
68.8410122660237
20
-11.2588426116417
30
0
41
1
10
68.5554828647338
20
-7.84420086068235
30
0
41
1
10
68.4755851461434
20
-6.28150621743146
30
0
41
1
10
68.4385450399809
20
-4.66321773524083
30
0
0
SPLINE
5
223
100
AcDbEntity
8
1
62
256
6
ByLayer
370
18
48
1
60
0
100
AcDbSpline
70
4
71
3
72
8
73
4
40
0
40
0
40
0
40
0
40
1
40
1
40
1
40
1
41
1
10
68.4296905881924
20
-4.2306244944678
30
0
41
1
10
68.4199000132847
20
-3.68842280151836
30
0
41
1
10
68.4149147408894
20
-3.14100933432002
30
0
41
1
10
68.4149147408894
20
-2.59198133095754
30
0
0
LINE
5
70
100
AcDbEntity
8
4
62
256
6
ByLayer
370
13
48
0.05
60
0
100
AcDbLine
10
0
20
0
30
0
11
83
21
0
31
0
39
0
210
0
220
0
230
1
0
LINE
5
72
100
AcDbEntity
8
80
62
256
6
ByLayer
370
13
48
1
60
0
100
AcDbLine
10
0
20
0
30
0
11
-4.28511
21
0
31
0
39
0
210
0
220
0
230
1
0
LINE
5
73
100
AcDbEntity
8
SK4
62
256
6
ByLayer
370
13
48
0.05
60
0
100
AcDbLine
10
-27.5
20
0
30
0
11
85.5
21
0
31
0
39
0
210
0
220
0
230
1
0
LINE
5
75
100
AcDbEntity
8
2
62
256
6
ByLayer
370
13
48
0.05
60
0
100
AcDbLine
10
83.000937
20
17.494259
30
0
11
30.500937
21
17.494259
31
0
39
0
210
0
220
0
230
1
0
LINE
5
77
100
AcDbEntity
8
81
62
256
6
ByLayer
370
13
48
1
60
0
100
AcDbLine
10
83.000937
20
17.494259
30
0
11
85.000937
21
17.494259
31
0
39
0
210
0
220
0
230
1
0
LINE
5
78
100
AcDbEntity
8
1
62
256
6
ByLayer
370
18
48
1
60
1
100
AcDbLine
10
0
20
0
30
0
11
0
21
420
31
0
39
0
210
0
220
0
230
1
0
LINE
5
7A
100
AcDbEntity
8
1
62
256
6
ByLayer
370
18
48
1
60
1
100
AcDbLine
10
594
20
420
30
0
11
0
21
420
31
0
39
0
210
0
220
0
230
1
0
LINE
5
7B
100
AcDbEntity
8
1
62
256
6
ByLayer
370
18
48
1
60
1
100
AcDbLine
10
594
20
420
30
0
11
594
21
0
31
0
39
0
210
0
220
0
230
1
0
LINE
5
7C
100
AcDbEntity
8
1
62
256
6
ByLayer
370
18
48
1
60
1
100
AcDbLine
10
0
20
0
30
0
11
594
21
0
31
0
39
0
210
0
220
0
230
1
0
LINE
5
7D
100
AcDbEntity
8
1
62
256
6
ByLayer
370
18
48
1
60
1
100
AcDbLine
10
0
20
0
30
0
11
0
21
420
31
0
39
0
210
0
220
0
230
1
0
LINE
5
7E
100
AcDbEntity
8
1
62
256
6
ByLayer
370
18
48
1
60
1
100
AcDbLine
10
594
20
420
30
0
11
0
21
420
31
0
39
0
210
0
220
0
230
1
0
LINE
5
7F
100
AcDbEntity
8
1
62
256
6
ByLayer
370
18
48
1
60
1
100
AcDbLine
10
594
20
420
30
0
11
594
21
0
31
0
39
0
210
0
220
0
230
1
0
LINE
5
80
100
AcDbEntity
8
1
62
256
6
ByLayer
370
18
48
1
60
1
100
AcDbLine
10
0
20
0
30
0
11
594
21
0
31
0
39
0
210
0
220
0
230
1
0
LINE
5
81
100
AcDbEntity
8
1
62
256
6
ByLayer
370
18
48
1
60
1
100
AcDbLine
10
0
20
0
30
0
11
0
21
420
31
0
39
0
210
0
220
0
230
1
0
LINE
5
82
100
AcDbEntity
8
1
62
256
6
ByLayer
370
18
48
1
60
1
100
AcDbLine
10
594
20
420
30
0
11
0
21
420
31
0
39
0
210
0
220
0
230
1
0
LINE
5
83
100
AcDbEntity
8
1
62
256
6
ByLayer
370
18
48
1
60
1
100
AcDbLine
10
594
20
420
30
0
11
594
21
0
31
0
39
0
210
0
220
0
230
1
0
LINE
5
84
100
AcDbEntity
8
1
62
256
6
ByLayer
370
18
48
1
60
1
100
AcDbLine
10
0
20
0
30
0
11
594
21
0
31
0
39
0
210
0
220
0
230
1
0
LINE
5
85
100
AcDbEntity
8
1
62
256
6
ByLayer
370
18
48
1
60
0
100
AcDbLine
10
81.656762
20
-16.148069
30
0
11
73.963238
21
-14.797514
31
0
39
0
210
0
220
0
230
1
0
LINE
5
86
100
AcDbEntity
8
1
62
256
6
ByLayer
370
18
48
1
60
0
100
AcDbLine
10
73.527353
20
-15.055081
30
0
11
73.684361
21
-14.962304
31
0
39
0
210
0
220
0
230
1
0
LINE
5
87
100
AcDbEntity
8
1
62
256
6
ByLayer
370
18
48
1
60
0
100
AcDbLine
10
73.527353
20
-15.055081
30
0
11
73.684361
21
-14.962304
31
0
39
0
210
0
220
0
230
1
0
LINE
5
88
100
AcDbEntity
8
1
62
256
6
ByLayer
370
18
48
1
60
0
100
AcDbLine
10
0.3
20
-20
30
0
11
20
21
-20
31
0
39
0
210
0
220
0
230
1
0
LINE
5
89
100
AcDbEntity
8
1
62
256
6
ByLayer
370
18
48
1
60
0
100
AcDbLine
10
20
20
20
30
0
11
0.3
21
20
31
0
39
0
210
0
220
0
230
1
0
LINE
5
8A
100
AcDbEntity
8
1
62
256
6
ByLayer
370
18
48
1
60
0
100
AcDbLine
10
0.3
20
20
30
0
11
0
21
19.7
31
0
39
0
210
0
220
0
230
1
0
LINE
5
8B
100
AcDbEntity
8
1
62
256
6
ByLayer
370
18
48
1
60
0
100
AcDbLine
10
0
20
-19.7
30
0
11
0.3
21
-20
31
0
39
0
210
0
220
0
230
1
0
LINE
5
8C
100
AcDbEntity
8
1
62
256
6
ByLayer
370
18
48
1
60
0
100
AcDbLine
10
20
20
-20
30
0
11
30.5
21
-16.5
31
0
39
0
210
0
220
0
230
1
0
LINE
5
8D
100
AcDbEntity
8
1
62
256
6
ByLayer
370
18
48
1
60
0
100
AcDbLine
10
30.5
20
16.5
30
0
11
20
21
20
31
0
39
0
210
0
220
0
230
1
0
LINE
5
8E
100
AcDbEntity
8
1
62
256
6
ByLayer
370
18
48
1
60
0
100
AcDbLine
10
30.5
20
-16.5
30
0
11
52
21
-13.5
31
0
39
0
210
0
220
0
230
1
0
LINE
5
8F
100
AcDbEntity
8
1
62
256
6
ByLayer
370
18
48
1
60
0
100
AcDbLine
10
52
20
13.5
30
0
11
30.5
21
16.5
31
0
39
0
210
0
220
0
230
1
0
LINE
5
90
100
AcDbEntity
8
1
62
256
6
ByLayer
370
18
48
1
60
0
100
AcDbLine
10
68.43142
20
4.511393
30
0
11
68.414915
21
4.511393
31
0
39
0
210
0
220
0
230
1
0
LINE
5
91
100
AcDbEntity
8
1
62
256
6
ByLayer
370
18
48
1
60
0
100
AcDbLine
10
68.510173
20
6.014082
30
0
11
68.494671
21
6.014082
31
0
39
0
210
0
220
0
230
1
0
LINE
5
92
100
AcDbEntity
8
1
62
256
6
ByLayer
370
18
48
1
60
0
100
AcDbLine
10
59.943703
20
-0.673318
30
0
11
59.960526
21
-0.673318
31
0
39
0
210
0
220
0
230
1
0
LINE
5
93
100
AcDbEntity
8
1
62
256
6
ByLayer
370
18
48
1
60
0
100
AcDbLine
10
56.767949
20
-13.5
30
0
11
57.267949
21
-14
31
0
39
0
210
0
220
0
230
1
0
LINE
5
94
100
AcDbEntity
8
1
62
256
6
ByLayer
370
18
48
1
60
0
100
AcDbLine
10
61.477345
20
-0.556562
30
0
11
61.494058
21
-0.556562
31
0
39
0
210
0
220
0
230
1
0
LINE
5
95
100
AcDbEntity
8
1
62
256
6
ByLayer
370
18
48
1
60
0
100
AcDbLine
10
68.510173
20
6.014082
30
0
11
68.857334
21
8.5
31
0
39
0
210
0
220
0
230
1
0
LINE
5
96
100
AcDbEntity
8
1
62
256
6
ByLayer
370
18
48
1
60
0
100
AcDbLine
10
52
20
-13.5
30
0
11
56.767949
21
-13.5
31
0
39
0
210
0
220
0
230
1
0
LINE
5
97
100
AcDbEntity
8
1
62
256
6
ByLayer
370
18
48
1
60
0
100
AcDbLine
10
68.846257
20
8.5
30
0
11
68.857334
21
8.5
31
0
39
0
210
0
220
0
230
1
0
LINE
5
98
100
AcDbEntity
8
1
62
256
6
ByLayer
370
18
48
1
60
0
100
AcDbLine
10
56.767949
20
13.5
30
0
11
52
21
13.5
31
0
39
0
210
0
220
0
230
1
0
LINE
5
99
100
AcDbEntity
8
1
62
256
6
ByLayer
370
18
48
1
60
0
100
AcDbLine
10
57.267949
20
14
30
0
11
56.767949
21
13.5
31
0
39
0
210
0
220
0
230
1
0
LINE
5
9A
100
AcDbEntity
8
1
62
256
6
ByLayer
370
18
48
1
60
0
100
AcDbLine
10
80.167001
20
1.75
30
0
11
75.967026
21
1.75
31
0
39
0
210
0
220
0
230
1
0
LINE
5
9B
100
AcDbEntity
8
1
62
256
6
ByLayer
370
18
48
1
60
0
100
AcDbLine
10
75.967026
20
-6.75
30
0
11
80.167001
21
-6.75
31
0
39
0
210
0
220
0
230
1
0
LINE
5
9C
100
AcDbEntity
8
1
62
256
6
ByLayer
370
18
48
1
60
0
100
AcDbLine
10
79.988437
20
-11.57815
30
0
11
79.988437
21
-11.00409
31
0
39
0
210
0
220
0
230
1
0
LINE
5
9D
100
AcDbEntity
8
1
62
256
6
ByLayer
370
18
48
1
60
0
100
AcDbLine
10
79.49719
20
11.533108
30
0
11
79.49719
21
11.468881
31
0
39
0
210
0
220
0
230
1
0
LINE
5
9E
100
AcDbEntity
8
1
62
256
6
ByLayer
370
18
48
1
60
0
100
AcDbLine
10
76.979684
20
12.183125
30
0
11
76.979684
21
12.24737
31
0
39
0
210
0
220
0
230
1
0
LINE
5
9F
100
AcDbEntity
8
1
62
256
6
ByLayer
370
18
48
1
60
0
100
AcDbLine
10
78.86549
20
13.207169
30
0
11
78.86549
21
13.138934
31
0
39
0
210
0
220
0
230
1
0
LINE
5
A0
100
AcDbEntity
8
1
62
256
6
ByLayer
370
18
48
1
60
0
100
AcDbLine
10
76.488437
20
-11.00409
30
0
11
76.488437
21
-11.57815
31
0
39
0
210
0
220
0
230
1
0
LINE
5
A1
100
AcDbEntity
8
1
62
256
6
ByLayer
370
18
48
1
60
0
100
AcDbLine
10
75.613437
20
11.897897
30
0
11
75.613437
21
11.829536
31
0
39
0
210
0
220
0
230
1
0
LINE
5
A2
100
AcDbEntity
8
1
62
256
6
ByLayer
370
18
48
1
60
0
100
AcDbLine
10
80.863437
20
11.829536
30
0
11
80.863437
21
11.897897
31
0
39
0
210
0
220
0
230
1
0
LINE
5
A3
100
AcDbEntity
8
1
62
256
6
ByLayer
370
18
48
1
60
0
100
AcDbLine
10
6.923205
20
-5.85989
30
0
11
6.923205
21
-19.122283
31
0
39
0
210
0
220
0
230
1
0
LINE
5
A4
100
AcDbEntity
8
1
62
256
6
ByLayer
370
18
48
1
60
0
100
AcDbLine
10
9.336603
20
-6.16973
30
0
11
9.336603
21
-19.024574
31
0
39
0
210
0
220
0
230
1
0
LINE
5
A5
100
AcDbEntity
8
1
62
256
6
ByLayer
370
18
48
1
60
0
100
AcDbLine
10
56.767949
20
13.5
30
0
11
56.767949
21
12.760939
31
0
39
0
210
0
220
0
230
1
0
LINE
5
A6
100
AcDbEntity
8
1
62
256
6
ByLayer
370
18
48
1
60
0
100
AcDbLine
10
9.076795
20
-5.85989
30
0
11
9.076795
21
-19.122283
31
0
39
0
210
0
220
0
230
1
0
LINE
5
A7
100
AcDbEntity
8
1
62
256
6
ByLayer
370
18
48
1
60
0
100
AcDbLine
10
52
20
-13.5
30
0
11
52
21
12.5
31
0
39
0
210
0
220
0
230
1
0
LINE
5
A8
100
AcDbEntity
8
1
62
256
6
ByLayer
370
18
48
1
60
0
100
AcDbLine
10
68.43142
20
4.511393
30
0
11
68.43142
21
-4.511393
31
0
39
0
210
0
220
0
230
1
0
LINE
5
A9
100
AcDbEntity
8
SK1
62
256
6
ByLayer
370
18
48
1
60
0
100
AcDbLine
10
-1.307107
20
-3.627816
30
0
11
-1.307107
21
3.627817
31
0
39
0
210
0
220
0
230
1
0
LINE
5
AB
100
AcDbEntity
8
1
62
256
6
ByLayer
370
18
48
1
60
0
100
AcDbLine
10
9.336603
20
19.024574
30
0
11
9.336603
21
6.16973
31
0
39
0
210
0
220
0
230
1
0
LINE
5
AC
100
AcDbEntity
8
1
62
256
6
ByLayer
370
18
48
1
60
0
100
AcDbLine
10
68.809948
20
8.5
30
0
11
68.857336
21
8.5
31
0
39
0
210
0
220
0
230
1
0
LINE
5
AD
100
AcDbEntity
8
1
62
256
6
ByLayer
370
18
48
1
60
0
100
AcDbLine
10
52
20
12.760939
30
0
11
56.767949
21
12.760939
31
0
39
0
210
0
220
0
230
1
0
LINE
5
AE
100
AcDbEntity
8
1
62
256
6
ByLayer
370
18
48
1
60
0
100
AcDbLine
10
56.767949
20
-13.5
30
0
11
56.767949
21
9.036711
31
0
39
0
210
0
220
0
230
1
0
LINE
5
AF
100
AcDbEntity
8
1
62
256
6
ByLayer
370
18
48
1
60
0
100
AcDbLine
10
20
20
-20
30
0
11
20
21
20
31
0
39
0
210
0
220
0
230
1
0
LINE
5
B0
100
AcDbEntity
8
1
62
256
6
ByLayer
370
18
48
1
60
0
100
AcDbLine
10
68.809948
20
8.5
30
0
11
68.553677
21
6.680842
31
0
39
0
210
0
220
0
230
1
0
LINE
5
B1
100
AcDbEntity
8
1
62
256
6
ByLayer
370
18
48
1
60
0
100
AcDbLine
10
60.970566
20
0.686928
30
0
11
60.960099
21
0.686928
31
0
39
0
210
0
220
0
230
1
0
LINE
5
B2
100
AcDbEntity
8
1
62
256
6
ByLayer
370
18
48
1
60
0
100
AcDbLine
10
63.3
20
13.5
30
0
11
63.3
21
8.5
31
0
39
0
210
0
220
0
230
1
0
LINE
5
B3
100
AcDbEntity
8
1
62
256
6
ByLayer
370
18
48
1
60
0
100
AcDbLine
10
59.469301
20
-0.476337
30
0
11
59.458834
21
-0.476337
31
0
39
0
210
0
220
0
230
1
0
LINE
5
B4
100
AcDbEntity
8
SK1
62
256
6
ByLayer
370
18
48
1
60
0
100
AcDbLine
10
-0.2
20
5.703176
30
0
11
-0.2
21
14.083485
31
0
39
0
210
0
220
0
230
1
0
LINE
5
B5
100
AcDbEntity
8
1
62
256
6
ByLayer
370
18
48
1
60
0
100
AcDbLine
10
6.923205
20
19.122283
30
0
11
6.923205
21
5.85989
31
0
39
0
210
0
220
0
230
1
0
LINE
5
B6
100
AcDbEntity
8
1
62
256
6
ByLayer
370
18
48
1
60
0
100
AcDbLine
10
59
20
-14
30
0
11
59
21
-13.613466
31
0
39
0
210
0
220
0
230
1
0
LINE
5
B7
100
AcDbEntity
8
1
62
256
6
ByLayer
370
18
48
1
60
0
100
AcDbLine
10
63.3
20
13.5
30
0
11
57.468598
21
13.5
31
0
39
0
210
0
220
0
230
1
0
LINE
5
B8
100
AcDbEntity
8
1
62
256
6
ByLayer
370
18
48
1
60
0
100
AcDbLine
10
63.3
20
13.5
30
0
11
63.3
21
14
31
0
39
0
210
0
220
0
230
1
0
LINE
5
B9
100
AcDbEntity
8
1
62
256
6
ByLayer
370
18
48
1
60
0
100
AcDbLine
10
60
20
8.5
30
0
11
68.809948
21
8.5
31
0
39
0
210
0
220
0
230
1
0
LINE
5
BA
100
AcDbEntity
8
1
62
256
6
ByLayer
370
18
48
1
60
0
100
AcDbLine
10
59.356639
20
0.686928
30
0
11
59.346172
21
0.686928
31
0
39
0
210
0
220
0
230
1
0
LINE
5
BB
100
AcDbEntity
8
1
62
256
6
ByLayer
370
18
48
1
60
0
100
AcDbLine
10
30.5
20
-16.5
30
0
11
30.5
21
16.5
31
0
39
0
210
0
220
0
230
1
0
LINE
5
BC
100
AcDbEntity
8
1
62
256
6
ByLayer
370
18
48
1
60
0
100
AcDbLine
10
9.076795
20
19.122283
30
0
11
6.923205
21
19.122283
31
0
39
0
210
0
220
0
230
1
0
LINE
5
BD
100
AcDbEntity
8
1
62
256
6
ByLayer
370
18
48
1
60
0
100
AcDbLine
10
6.663397
20
-6.16973
30
0
11
6.663397
21
-19.024574
31
0
39
0
210
0
220
0
230
1
0
LINE
5
BE
100
AcDbEntity
8
1
62
256
6
ByLayer
370
18
48
1
60
0
100
AcDbLine
10
0.3
20
-20
30
0
11
0.3
21
20
31
0
39
0
210
0
220
0
230
1
0
LINE
5
BF
100
AcDbEntity
8
1
62
256
6
ByLayer
370
18
48
1
60
0
100
AcDbLine
10
63.3
20
14
30
0
11
64.001023
21
14
31
0
39
0
210
0
220
0
230
1
0
LINE
5
C0
100
AcDbEntity
8
1
62
256
6
ByLayer
370
18
48
1
60
0
100
AcDbLine
10
9.076795
20
-5.85989
30
0
11
6.923205
21
-5.85989
31
0
39
0
210
0
220
0
230
1
0
LINE
5
C1
100
AcDbEntity
8
1
62
256
6
ByLayer
370
18
48
1
60
0
100
AcDbLine
10
6.663397
20
19.024574
30
0
11
6.663397
21
6.16973
31
0
39
0
210
0
220
0
230
1
0
LINE
5
C2
100
AcDbEntity
8
1
62
256
6
ByLayer
370
18
48
1
60
0
100
AcDbLine
10
60.804256
20
-0.530059
30
0
11
60.793789
21
-0.530059
31
0
39
0
210
0
220
0
230
1
0
LINE
5
C3
100
AcDbEntity
8
1
62
256
6
ByLayer
370
18
48
1
60
0
100
AcDbLine
10
69.356506
20
-14
30
0
11
59
21
-14
31
0
39
0
210
0
220
0
230
1
0
LINE
5
C4
100
AcDbEntity
8
1
62
256
6
ByLayer
370
18
48
1
60
0
100
AcDbLine
10
59.373628
20
-0.262881
30
0
11
59.36316
21
-0.262881
31
0
39
0
210
0
220
0
230
1
0
LINE
5
C5
100
AcDbEntity
8
1
62
256
6
ByLayer
370
18
48
1
60
0
100
AcDbLine
10
57.802492
20
14
30
0
11
63.3
21
14
31
0
39
0
210
0
220
0
230
1
0
LINE
5
C6
100
AcDbEntity
8
1
62
256
6
ByLayer
370
18
48
1
60
0
100
AcDbLine
10
0
20
-19.7
30
0
11
0
21
19.7
31
0
39
0
210
0
220
0
230
1
0
LINE
5
C7
100
AcDbEntity
8
1
62
256
6
ByLayer
370
18
48
1
60
0
100
AcDbLine
10
52
20
13.5
30
0
11
52
21
12.760939
31
0
39
0
210
0
220
0
230
1
0
LINE
5
C8
100
AcDbEntity
8
1
62
256
6
ByLayer
370
18
48
1
60
0
100
AcDbLine
10
9.076795
20
19.122283
30
0
11
9.076795
21
5.85989
31
0
39
0
210
0
220
0
230
1
0
LINE
5
C9
100
AcDbEntity
8
1
62
256
6
ByLayer
370
18
48
1
60
0
100
AcDbLine
10
59
20
2.442646
30
0
11
59
21
7.793773
31
0
39
0
210
0
220
0
230
1
0
LINE
5
CA
100
AcDbEntity
8
1
62
256
6
ByLayer
370
18
48
1
60
0
100
AcDbLine
10
58
20
-14
30
0
11
58
21
8.702041
31
0
39
0
210
0
220
0
230
1
0
LINE
5
CB
100
AcDbEntity
8
SK1
62
256
6
ByLayer
370
18
48
1
60
0
100
AcDbLine
10
-0.2
20
-14.083485
30
0
11
-0.2
21
-5.703176
31
0
39
0
210
0
220
0
230
1
0
LINE
5
CC
100
AcDbEntity
8
1
62
256
6
ByLayer
370
18
48
1
60
0
100
AcDbLine
10
59
20
-11.186534
30
0
11
59
21
-2.442646
31
0
39
0
210
0
220
0
230
1
0
LINE
5
CD
100
AcDbEntity
8
1
62
256
6
ByLayer
370
18
48
1
60
0
100
AcDbLine
10
6.923205
20
5.85989
30
0
11
9.076795
21
5.85989
31
0
39
0
210
0
220
0
230
1
0
LINE
5
CE
100
AcDbEntity
8
1
62
256
6
ByLayer
370
18
48
1
60
0
100
AcDbLine
10
6.923205
20
-19.122283
30
0
11
9.076795
21
-19.122283
31
0
39
0
210
0
220
0
230
1
0
LINE
5
CF
100
AcDbEntity
8
1
62
256
6
ByLayer
370
18
48
1
60
0
100
AcDbLine
10
75.740503
20
6.630286
30
0
11
82.672979
21
7.851311
31
0
39
0
210
0
220
0
230
1
0
LINE
5
D0
100
AcDbEntity
8
1
62
256
6
ByLayer
370
18
48
1
60
0
100
AcDbLine
10
82.535145
20
17.488236
30
0
11
73.803895
21
15.95039
31
0
39
0
210
0
220
0
230
1
0
LINE
5
D1
100
AcDbEntity
8
1
62
256
6
ByLayer
370
18
48
1
60
0
100
AcDbLine
10
73.475937
20
15.559978
30
0
11
73.475937
21
8.75019
31
0
39
0
210
0
220
0
230
1
0
LINE
5
D2
100
AcDbEntity
8
1
62
256
6
ByLayer
370
18
48
1
60
0
100
AcDbLine
10
83.000937
20
8.241723
30
0
11
83.000937
21
17.097824
31
0
39
0
210
0
220
0
230
1
0
LINE
5
D3
100
AcDbEntity
8
1
62
256
6
ByLayer
370
18
48
1
60
0
100
AcDbLine
10
59.866351
20
13.01601
30
0
11
59.688777
21
12.857004
31
0
39
0
210
0
220
0
230
1
0
LINE
5
D4
100
AcDbEntity
8
1
62
256
6
ByLayer
370
18
48
1
60
0
100
AcDbLine
10
59.562337
20
12.93961
30
0
11
59.636617
21
13.166101
31
0
39
0
210
0
220
0
230
1
0
LINE
5
D5
100
AcDbEntity
8
1
62
256
6
ByLayer
370
18
48
1
60
0
100
AcDbLine
10
60.125467
20
-12.537209
30
0
11
59.895229
21
-12.475516
31
0
39
0
210
0
220
0
230
1
0
LINE
5
D6
100
AcDbEntity
8
1
62
256
6
ByLayer
370
18
48
1
60
0
100
AcDbLine
10
59.895229
20
-12.324484
30
0
11
60.125467
21
-12.262791
31
0
39
0
210
0
220
0
230
1
0
LINE
5
D7
100
AcDbEntity
8
1
62
256
6
ByLayer
370
18
48
1
60
0
100
AcDbLine
10
82.752944
20
-16.907835
30
0
11
83.000937
21
-17.097909
31
0
39
0
210
0
220
0
230
1
0
LINE
5
D8
100
AcDbEntity
8
1
62
256
6
ByLayer
370
18
48
1
60
0
100
AcDbLine
10
82.198353
20
-7.798884
30
0
11
82.672979
21
-7.882202
31
0
39
0
210
0
220
0
230
1
0
LINE
5
D9
100
AcDbEntity
8
1
62
256
6
ByLayer
370
18
48
1
60
0
100
AcDbLine
10
82.198346
20
-7.918013
30
0
11
82.390607
21
-7.951763
31
0
39
0
210
0
220
0
230
1
0
LINE
5
DA
100
AcDbEntity
8
1
62
256
6
ByLayer
370
18
48
1
60
0
100
AcDbLine
10
83.000937
20
-8.271313
30
0
11
83.000937
21
-17.097909
31
0
39
0
210
0
220
0
230
1
0
LINE
5
DB
100
AcDbEntity
8
1
62
256
6
ByLayer
370
18
48
1
60
0
100
AcDbLine
10
73.72393
20
-15.375112
30
0
11
73.475937
21
-15.565187
31
0
39
0
210
0
220
0
230
1
0
LINE
5
DC
100
AcDbEntity
8
1
62
256
6
ByLayer
370
18
48
1
60
0
100
AcDbLine
10
82.752944
20
-8.081238
30
0
11
83.000937
21
-8.271313
31
0
39
0
210
0
220
0
230
1
0
LINE
5
DD
100
AcDbEntity
8
1
62
256
6
ByLayer
370
18
48
1
60
0
100
AcDbLine
10
74.086267
20
-15.137751
30
0
11
73.846959
21
-15.521082
31
0
39
0
210
0
220
0
230
1
0
LINE
5
DE
100
AcDbEntity
8
1
62
256
6
ByLayer
370
18
48
1
60
0
100
AcDbLine
10
82.578209
20
-17.053804
30
0
11
82.338901
21
-16.586455
31
0
39
0
210
0
220
0
230
1
0
LINE
5
DF
100
AcDbEntity
8
1
62
256
6
ByLayer
370
18
48
1
60
0
100
AcDbLine
10
73.475937
20
-15.565187
30
0
11
73.475937
21
-15.045935
31
0
39
0
210
0
220
0
230
1
0
LINE
5
E0
100
AcDbEntity
8
1
62
256
6
ByLayer
370
18
48
1
60
0
100
AcDbLine
10
73.846959
20
-15.521082
30
0
11
73.803895
21
-15.954298
31
0
39
0
210
0
220
0
230
1
0
LINE
5
E1
100
AcDbEntity
8
1
62
256
6
ByLayer
370
18
48
1
60
0
100
AcDbLine
10
82.752944
20
-8.081238
30
0
11
82.513636
21
-8.097733
31
0
39
0
210
0
220
0
230
1
0
LINE
5
E2
100
AcDbEntity
8
1
62
256
6
ByLayer
370
18
48
1
60
0
100
AcDbLine
10
82.513636
20
-8.097733
30
0
11
82.513636
21
-16.440486
31
0
39
0
210
0
220
0
230
1
0
LINE
5
E3
100
AcDbEntity
8
1
62
256
6
ByLayer
370
18
48
1
60
0
100
AcDbLine
10
82.338901
20
-16.586455
30
0
11
74.086267
21
-15.137751
31
0
39
0
210
0
220
0
230
1
0
LINE
5
E4
100
AcDbEntity
8
1
62
256
6
ByLayer
370
18
48
1
60
0
100
AcDbLine
10
82.629915
20
-7.935269
30
0
11
82.672979
21
-7.882202
31
0
39
0
210
0
220
0
230
1
0
LINE
5
E5
100
AcDbEntity
8
1
62
256
6
ByLayer
370
18
48
1
60
0
100
AcDbLine
10
82.513636
20
-16.440486
30
0
11
82.752944
21
-16.907835
31
0
39
0
210
0
220
0
230
1
0
LINE
5
E6
100
AcDbEntity
8
1
62
256
6
ByLayer
370
18
48
1
60
0
100
AcDbLine
10
82.578209
20
-17.053804
30
0
11
82.535145
21
-17.48702
31
0
39
0
210
0
220
0
230
1
0
LINE
5
E7
100
AcDbEntity
8
1
62
256
6
ByLayer
370
18
48
1
60
0
100
AcDbLine
10
73.72393
20
-15.375112
30
0
11
73.963238
21
-14.991782
31
0
39
0
210
0
220
0
230
1
0
LINE
5
E8
100
AcDbEntity
8
1
62
256
6
ByLayer
370
18
48
1
60
0
100
AcDbLine
10
82.535145
20
-17.48702
30
0
11
73.803895
21
-15.954298
31
0
39
0
210
0
220
0
230
1
0
LINE
5
E9
100
AcDbEntity
8
1
62
256
6
ByLayer
370
18
48
1
60
0
100
AcDbLine
10
82.390607
20
-7.951763
30
0
11
82.629915
21
-7.935269
31
0
39
0
210
0
220
0
230
1
0
LINE
5
EA
100
AcDbEntity
8
1
62
256
6
ByLayer
370
18
48
1
60
0
100
AcDbLine
10
73.963238
20
-14.991782
30
0
11
73.963238
21
-14.797422
31
0
39
0
210
0
220
0
230
1
0
LINE
5
EB
100
AcDbEntity
8
1
62
256
6
ByLayer
370
18
48
1
60
0
100
AcDbLine
10
73.692278
20
-14.956986
30
0
11
73.684361
21
-14.962304
31
0
39
0
210
0
220
0
230
1
0
LINE
5
EC
100
AcDbEntity
8
1
62
256
6
ByLayer
370
18
48
1
60
0
100
AcDbLine
10
73.692278
20
-14.761712
30
0
11
73.692278
21
-14.956986
31
0
39
0
210
0
220
0
230
1
0
LINE
5
ED
100
AcDbEntity
8
1
62
256
6
ByLayer
370
18
48
1
60
0
100
AcDbLine
10
73.692278
20
-14.761712
30
0
11
73.817375
21
-14.771908
31
0
39
0
210
0
220
0
230
1
0
LINE
5
EE
100
AcDbEntity
8
1
62
256
6
ByLayer
370
18
48
1
60
0
100
AcDbLine
10
82.198437
20
-7.756317
30
0
11
82.198437
21
-15.695567
31
0
39
0
210
0
220
0
230
1
0
LINE
5
EF
100
AcDbEntity
8
1
62
256
6
ByLayer
370
18
48
1
60
0
100
AcDbLine
10
69.909824
20
-15.122865
30
0
11
71.830149
21
-14.944776
31
0
39
0
210
0
220
0
230
1
0
LINE
5
F0
100
AcDbEntity
8
1
62
256
6
ByLayer
370
18
48
1
60
0
100
AcDbLine
10
73.285896
20
-14.354292
30
0
11
73.285896
21
-15.012694
31
0
39
0
210
0
220
0
230
1
0
LINE
5
F1
100
AcDbEntity
8
1
62
256
6
ByLayer
370
18
48
1
60
0
100
AcDbLine
10
71.830149
20
-14.17987
30
0
11
71.830149
21
-14.944776
31
0
39
0
210
0
220
0
230
1
0
LINE
5
F2
100
AcDbEntity
8
1
62
256
6
ByLayer
370
18
48
1
60
0
100
AcDbLine
10
81.656762
20
-16.038749
30
0
11
81.656762
21
-16.148069
31
0
39
0
210
0
220
0
230
1
0
LINE
5
F3
100
AcDbEntity
8
1
62
256
6
ByLayer
370
18
48
1
60
0
100
AcDbLine
10
73.285896
20
-15.012694
30
0
11
73.527352
21
-15.055081
31
0
39
0
210
0
220
0
230
1
0
LINE
5
F4
100
AcDbEntity
8
1
62
256
6
ByLayer
370
18
48
1
60
0
100
AcDbLine
10
81.656762
20
-16.148069
30
0
11
73.817375
21
-14.771908
31
0
39
0
210
0
220
0
230
1
0
LINE
5
F5
100
AcDbEntity
8
1
62
256
6
ByLayer
370
18
48
1
60
0
100
AcDbLine
10
82.198437
20
-15.695567
30
0
11
81.656762
21
-16.148069
31
0
39
0
210
0
220
0
230
1
0
LINE
5
F6
100
AcDbEntity
8
1
62
256
6
ByLayer
370
18
48
1
60
0
100
AcDbLine
10
81.968809
20
-15.681788
30
0
11
82.198437
21
-15.695567
31
0
39
0
210
0
220
0
230
1
0
LINE
5
F7
100
AcDbEntity
8
1
62
256
6
ByLayer
370
18
48
1
60
0
100
AcDbLine
10
82.198437
20
-5.342272
30
0
11
82.198437
21
-7.756317
31
0
39
0
210
0
220
0
230
1
0
LINE
5
F8
100
AcDbEntity
8
1
62
256
6
ByLayer
370
18
48
1
60
0
100
AcDbLine
10
79.579448
20
11.275424
30
0
11
79.579448
21
11.206643
31
0
39
0
210
0
220
0
230
1
0
LINE
5
F9
100
AcDbEntity
8
1
62
256
6
ByLayer
370
18
48
1
60
0
100
AcDbLine
10
77.606681
20
10.54007
30
0
11
77.606681
21
10.470767
31
0
39
0
210
0
220
0
230
1
0
LINE
5
FA
100
AcDbEntity
8
1
62
256
6
ByLayer
370
18
48
1
60
0
100
AcDbLine
10
79.44592
20
12.745165
30
0
11
79.44592
21
12.676383
31
0
39
0
210
0
220
0
230
1
0
LINE
5
FB
100
AcDbEntity
8
1
62
256
6
ByLayer
370
18
48
1
60
0
100
AcDbLine
10
78.104909
20
13.364524
30
0
11
78.104909
21
13.295743
31
0
39
0
210
0
220
0
230
1
0
LINE
5
FC
100
AcDbEntity
8
1
62
256
6
ByLayer
370
18
48
1
60
0
100
AcDbLine
10
78.108814
20
13.384645
30
0
11
78.108814
21
13.315341
31
0
39
0
210
0
220
0
230
1
0
LINE
5
FD
100
AcDbEntity
8
1
62
256
6
ByLayer
370
18
48
1
60
0
100
AcDbLine
10
77.379342
20
13.119433
30
0
11
77.379342
21
13.05013
31
0
39
0
210
0
220
0
230
1
0
LINE
5
FE
100
AcDbEntity
8
1
62
256
6
ByLayer
370
18
48
1
60
0
100
AcDbLine
10
78.36806
20
10.405967
30
0
11
78.36806
21
10.381629
31
0
39
0
210
0
220
0
230
1
0
LINE
5
FF
100
AcDbEntity
8
1
62
256
6
ByLayer
370
18
48
1
60
0
100
AcDbLine
10
79.594487
20
11.262769
30
0
11
79.594487
21
11.193466
31
0
39
0
210
0
220
0
230
1
0
LINE
5
100
100
AcDbEntity
8
1
62
256
6
ByLayer
370
18
48
1
60
0
100
AcDbLine
10
76.76623
20
11.77092
30
0
11
76.76623
21
11.702139
31
0
39
0
210
0
220
0
230
1
0
LINE
5
101
100
AcDbEntity
8
1
62
256
6
ByLayer
370
18
48
1
60
0
100
AcDbLine
10
79.464864
20
12.752108
30
0
11
79.464864
21
12.682804
31
0
39
0
210
0
220
0
230
1
0
LINE
5
102
100
AcDbEntity
8
1
62
256
6
ByLayer
370
18
48
1
60
0
100
AcDbLine
10
76.747586
20
11.764197
30
0
11
76.747586
21
11.694894
31
0
39
0
210
0
220
0
230
1
0
LINE
5
103
100
AcDbEntity
8
1
62
256
6
ByLayer
370
18
48
1
60
0
100
AcDbLine
10
79.464864
20
12.682804
30
0
11
79.44592
21
12.676383
31
0
39
0
210
0
220
0
230
1
0
LINE
5
104
100
AcDbEntity
8
1
62
256
6
ByLayer
370
18
48
1
60
0
100
AcDbLine
10
77.394945
20
13.106405
30
0
11
77.394945
21
13.037624
31
0
39
0
210
0
220
0
230
1
0
LINE
5
105
100
AcDbEntity
8
1
62
256
6
ByLayer
370
18
48
1
60
0
100
AcDbLine
10
77.609722
20
10.559298
30
0
11
77.609722
21
10.490517
31
0
39
0
210
0
220
0
230
1
0
LINE
5
106
100
AcDbEntity
8
1
62
256
6
ByLayer
370
18
48
1
60
0
100
AcDbLine
10
77.394945
20
13.037624
30
0
11
77.379342
21
13.05013
31
0
39
0
210
0
220
0
230
1
0
LINE
5
107
100
AcDbEntity
8
1
62
256
6
ByLayer
370
18
48
1
60
0
100
AcDbLine
10
79.594487
20
11.193466
30
0
11
79.579448
21
11.206643
31
0
39
0
210
0
220
0
230
1
0
LINE
5
108
100
AcDbEntity
8
1
62
256
6
ByLayer
370
18
48
1
60
0
100
AcDbLine
10
76.76623
20
11.702139
30
0
11
76.747586
21
11.694894
31
0
39
0
210
0
220
0
230
1
0
LINE
5
109
100
AcDbEntity
8
1
62
256
6
ByLayer
370
18
48
1
60
0
100
AcDbLine
10
69.938658
20
13.100142
30
0
11
64.000937
21
13.100142
31
0
39
0
210
0
220
0
230
1
0
LINE
5
10A
100
AcDbEntity
8
1
62
256
6
ByLayer
370
18
48
1
60
0
100
AcDbLine
10
64.000937
20
10.000142
30
0
11
64.000937
21
8.800142
31
0
39
0
210
0
220
0
230
1
0
LINE
5
10B
100
AcDbEntity
8
1
62
256
6
ByLayer
370
18
48
1
60
0
100
AcDbLine
10
70.680348
20
14.946153
30
0
11
71.830149
21
14.922941
31
0
39
0
210
0
220
0
230
1
0
LINE
5
10C
100
AcDbEntity
8
1
62
256
6
ByLayer
370
18
48
1
60
0
100
AcDbLine
10
80.275171
20
4.080941
30
0
11
80.990431
21
4.259276
31
0
39
0
210
0
220
0
230
1
0
LINE
5
10D
100
AcDbEntity
8
1
62
256
6
ByLayer
370
18
48
1
60
0
100
AcDbLine
10
76.300864
20
4.872111
30
0
11
82.198437
21
4.872111
31
0
39
0
210
0
220
0
230
1
0
LINE
5
10E
100
AcDbEntity
8
1
62
256
6
ByLayer
370
18
48
1
60
0
100
AcDbLine
10
64.000937
20
8.800142
30
0
11
66.265672
21
8.800142
31
0
39
0
210
0
220
0
230
1
0
LINE
5
10F
100
AcDbEntity
8
1
62
256
6
ByLayer
370
18
48
1
60
0
100
AcDbLine
10
72.700937
20
8.811897
30
0
11
72.700937
21
14.937215
31
0
39
0
210
0
220
0
230
1
0
LINE
5
110
100
AcDbEntity
8
1
62
256
6
ByLayer
370
18
48
1
60
0
100
AcDbLine
10
67.094408
20
9.508705
30
0
11
70.048525
21
9.508705
31
0
39
0
210
0
220
0
230
1
0
LINE
5
111
100
AcDbEntity
8
1
62
256
6
ByLayer
370
18
48
1
60
0
100
AcDbLine
10
76.300917
20
1.859322
30
0
11
77.239399
21
1.859322
31
0
39
0
210
0
220
0
230
1
0
LINE
5
112
100
AcDbEntity
8
1
62
256
6
ByLayer
370
18
48
1
60
0
100
AcDbLine
10
67.094408
20
10.000142
30
0
11
64.000937
21
10.000142
31
0
39
0
210
0
220
0
230
1
0
LINE
5
113
100
AcDbEntity
8
1
62
256
6
ByLayer
370
18
48
1
60
0
100
AcDbLine
10
64.000937
20
8.800142
30
0
11
64.000937
21
8.750146
31
0
39
0
210
0
220
0
230
1
0
LINE
5
114
100
AcDbEntity
8
1
62
256
6
ByLayer
370
18
48
1
60
0
100
AcDbLine
10
64.000937
20
14.620688
30
0
11
64.000937
21
13.100142
31
0
39
0
210
0
220
0
230
1
0
LINE
5
115
100
AcDbEntity
8
1
62
256
6
ByLayer
370
18
48
1
60
0
100
AcDbLine
10
80.990431
20
4.259276
30
0
11
82.198437
21
4.560465
31
0
39
0
210
0
220
0
230
1
0
LINE
5
116
100
AcDbEntity
8
1
62
256
6
ByLayer
370
18
48
1
60
0
100
AcDbLine
10
66.265672
20
8.800142
30
0
11
66.265672
21
8.499948
31
0
39
0
210
0
220
0
230
1
0
LINE
5
117
100
AcDbEntity
8
1
62
256
6
ByLayer
370
18
48
1
60
0
100
AcDbLine
10
64.000937
20
10.000142
30
0
11
64.000937
21
13.100142
31
0
39
0
210
0
220
0
230
1
0
LINE
5
118
100
AcDbEntity
8
1
62
256
6
ByLayer
370
18
48
1
60
0
100
AcDbLine
10
67.094408
20
10.000142
30
0
11
67.094408
21
9.508705
31
0
39
0
210
0
220
0
230
1
0
LINE
5
119
100
AcDbEntity
8
1
62
256
6
ByLayer
370
18
48
1
60
0
100
AcDbLine
10
82.198437
20
4.560465
30
0
11
82.198437
21
4.872111
31
0
39
0
210
0
220
0
230
1
0
LINE
5
11A
100
AcDbEntity
8
1
62
256
6
ByLayer
370
18
48
1
60
0
100
AcDbLine
10
82.198437
20
5.311198
30
0
11
82.198437
21
4.872111
31
0
39
0
210
0
220
0
230
1
0
LINE
5
11B
100
AcDbEntity
8
1
62
256
6
ByLayer
370
18
48
1
60
0
100
AcDbLine
10
76.300825
20
4.259276
30
0
11
80.990431
21
4.259276
31
0
39
0
210
0
220
0
230
1
0
LINE
5
11C
100
AcDbEntity
8
1
62
256
6
ByLayer
370
18
48
1
60
0
100
AcDbLine
10
69.938658
20
13.100142
30
0
11
70.048525
21
9.508705
31
0
39
0
210
0
220
0
230
1
0
LINE
5
11D
100
AcDbEntity
8
1
62
256
6
ByLayer
370
18
48
1
60
0
100
AcDbLine
10
76.301083
20
5.311198
30
0
11
82.198437
21
5.311198
31
0
39
0
210
0
220
0
230
1
0
LINE
5
11E
100
AcDbEntity
8
1
62
256
6
ByLayer
370
18
48
1
60
0
100
AcDbLine
10
80.631612
20
3.413503
30
0
11
81.082605
21
3.413503
31
0
39
0
210
0
220
0
230
1
0
LINE
5
11F
100
AcDbEntity
8
1
62
256
6
ByLayer
370
18
48
1
60
0
100
AcDbLine
10
80.786484
20
1.088608
30
0
11
81.052557
21
1.088608
31
0
39
0
210
0
220
0
230
1
0
LINE
5
120
100
AcDbEntity
8
1
62
256
6
ByLayer
370
18
48
1
60
0
100
AcDbLine
10
75.743023
20
6.605773
30
0
11
76.300937
21
6.556569
31
0
39
0
210
0
220
0
230
1
0
LINE
5
121
100
AcDbEntity
8
1
62
256
6
ByLayer
370
18
48
1
60
0
100
AcDbLine
10
81.007409
20
-4.313078
30
0
11
82.198437
21
-4.610035
31
0
39
0
210
0
220
0
230
1
0
LINE
5
122
100
AcDbEntity
8
1
62
256
6
ByLayer
370
18
48
1
60
0
100
AcDbLine
10
68.881637
20
8.750154
30
0
11
75.51764
21
8.750154
31
0
39
0
210
0
220
0
230
1
0
LINE
5
123
100
AcDbEntity
8
1
62
256
6
ByLayer
370
18
48
1
60
0
100
AcDbLine
10
81.162252
20
-8.199846
30
0
11
81.733125
21
-8.199846
31
0
39
0
210
0
220
0
230
1
0
LINE
5
124
100
AcDbEntity
8
1
62
256
6
ByLayer
370
18
48
1
60
0
100
AcDbLine
10
68.414915
20
5.450154
30
0
11
75.864484
21
5.450154
31
0
39
0
210
0
220
0
230
1
0
LINE
5
125
100
AcDbEntity
8
1
62
256
6
ByLayer
370
18
48
1
60
0
100
AcDbLine
10
68.443032
20
-14.318857
30
0
11
68.443032
21
-13.999829
31
0
39
0
210
0
220
0
230
1
0
LINE
5
126
100
AcDbEntity
8
1
62
256
6
ByLayer
370
18
48
1
60
0
100
AcDbLine
10
63.800937
20
8.750154
30
0
11
65.600937
21
8.750154
31
0
39
0
210
0
220
0
230
1
0
LINE
5
127
100
AcDbEntity
8
1
62
256
6
ByLayer
370
18
48
1
60
0
100
AcDbLine
10
63.800937
20
-14.061835
30
0
11
63.800937
21
-14.843713
31
0
39
0
210
0
220
0
230
1
0
LINE
5
128
100
AcDbEntity
8
1
62
256
6
ByLayer
370
18
48
1
60
0
100
AcDbLine
10
68.443032
20
-14.318857
30
0
11
68.240753
21
-14.295553
31
0
39
0
210
0
220
0
230
1
0
LINE
5
129
100
AcDbEntity
8
1
62
256
6
ByLayer
370
18
48
1
60
0
100
AcDbLine
10
69.582399
20
-14.220116
30
0
11
69.743925
21
-14.245877
31
0
39
0
210
0
220
0
230
1
0
LINE
5
12A
100
AcDbEntity
8
1
62
256
6
ByLayer
370
18
48
1
60
0
100
AcDbLine
10
75.51764
20
8.750154
30
0
11
75.864484
21
5.450154
31
0
39
0
210
0
220
0
230
1
0
LINE
5
12B
100
AcDbEntity
8
1
62
256
6
ByLayer
370
18
48
1
60
0
100
AcDbLine
10
68.881637
20
8.750154
30
0
11
68.846253
21
8.499973
31
0
39
0
210
0
220
0
230
1
0
LINE
5
12C
100
AcDbEntity
8
1
62
256
6
ByLayer
370
18
48
1
60
0
100
AcDbLine
10
68.494673
20
6.014094
30
0
11
68.414915
21
5.450154
31
0
39
0
210
0
220
0
230
1
0
LINE
5
12D
100
AcDbEntity
8
1
62
256
6
ByLayer
370
18
48
1
60
0
100
AcDbLine
10
69.371707
20
-14.068204
30
0
11
69.582399
21
-14.220116
31
0
39
0
210
0
220
0
230
1
0
LINE
5
12E
100
AcDbEntity
8
1
62
256
6
ByLayer
370
18
48
1
60
0
100
AcDbLine
10
76.300937
20
6.556569
30
0
11
76.300937
21
1.750037
31
0
39
0
210
0
220
0
230
1
0
LINE
5
12F
100
AcDbEntity
8
1
62
256
6
ByLayer
370
18
48
1
60
0
100
AcDbLine
10
68.414915
20
4.511361
30
0
11
68.414915
21
5.450154
31
0
39
0
210
0
220
0
230
1
0
LINE
5
130
100
AcDbEntity
8
1
62
256
6
ByLayer
370
18
48
1
60
0
100
AcDbLine
10
68.240753
20
-14.295553
30
0
11
63.800937
21
-14.061835
31
0
39
0
210
0
220
0
230
1
0
LINE
5
131
100
AcDbEntity
8
1
62
256
6
ByLayer
370
18
48
1
60
0
100
AcDbLine
10
63.800937
20
-14.061835
30
0
11
63.800937
21
-13.999815
31
0
39
0
210
0
220
0
230
1
0
LINE
5
132
100
AcDbEntity
8
1
62
256
6
ByLayer
370
18
48
1
60
0
100
AcDbLine
10
63.800937
20
8.499935
30
0
11
63.800937
21
8.750154
31
0
39
0
210
0
220
0
230
1
0
LINE
5
133
100
AcDbEntity
8
1
62
256
6
ByLayer
370
18
48
1
60
0
100
AcDbLine
10
68.240753
20
-14.295553
30
0
11
68.240753
21
-13.999726
31
0
39
0
210
0
220
0
230
1
0
LINE
5
134
100
AcDbEntity
8
1
62
256
6
ByLayer
370
18
48
1
60
0
100
AcDbLine
10
82.198437
20
-5.342272
30
0
11
82.198437
21
-4.610035
31
0
39
0
210
0
220
0
230
1
0
LINE
5
135
100
AcDbEntity
8
1
62
256
6
ByLayer
370
18
48
1
60
0
100
AcDbLine
10
68.431443
20
-2.593434
30
0
11
75.864484
21
-3.24664
31
0
39
0
210
0
220
0
230
1
0
LINE
5
136
100
AcDbEntity
8
1
62
256
6
ByLayer
370
18
48
1
60
0
100
AcDbLine
10
65.600937
20
8.499998
30
0
11
65.600937
21
8.750154
31
0
39
0
210
0
220
0
230
1
0
LINE
5
137
100
AcDbEntity
8
1
62
256
6
ByLayer
370
18
48
1
60
0
100
AcDbLine
10
75.864484
20
5.450154
30
0
11
75.864484
21
-3.24664
31
0
39
0
210
0
220
0
230
1
0
LINE
5
138
100
AcDbEntity
8
1
62
256
6
ByLayer
370
18
48
1
60
0
100
AcDbLine
10
73.285896
20
15.025453
30
0
11
73.475934
21
15.058925
31
0
39
0
210
0
220
0
230
1
0
LINE
5
139
100
AcDbEntity
8
1
62
256
6
ByLayer
370
18
48
1
60
0
100
AcDbLine
10
82.198437
20
7.767717
30
0
11
82.198437
21
5.311198
31
0
39
0
210
0
220
0
230
1
0
MTEXT
5
224
100
AcDbEntity
8
SK6
62
256
6
ByLayer
370
18
48
1
60
0
100
AcDbMText
10
90.780583
20
22.841321
30
0
210
0
220
0
230
1
1
\W0.7172;BR20-45CC09F-C4
40
3
41
0
44
1.084337
50
0
71
7
72
5
7
iso_b_vert
0
DIMENSION
5
231
100
AcDbEntity
8
2
62
256
6
ByLayer
370
13
48
1
60
0
100
AcDbDimension
2
DimnDraft3D1
10
0
20
43.5
30
0
11
38.058363
21
43.5
31
0
70
32
71
5
72
1
41
1
210
0
220
0
230
1
3
Standard
100
AcDbAlignedDimension
13
83.000937
23
19.494259
33
0
14
0
24
21.7
34
0
50
0
100
AcDbRotatedDimension
1001
ACAD
1000
DSTYLE
1002
{
1070
   279
1070
     0
1070
   172
1070
     1
1070
   173
1070
     1
1070
   340
1005
225
1070
   271
1070
     1
1070
    77
1070
     1
1070
    73
1070
     0
1070
   171
1070
     4
1070
   274
1070
     4
1070
   177
1070
     7
1070
   176
1070
     7
1070
   178
1070
     7
1070
    41
1041
3.175
1070
   147
1041
1.5
1070
    42
1041
2.0
1070
    44
1041
2.0
1070
   140
1041
3.0
1070
   343
1005
0
1070
   344
1005
0
1002
}
0
DIMENSION
5
23B
100
AcDbEntity
8
2
62
256
6
ByLayer
370
13
48
1
60
0
100
AcDbDimension
2
DimnDraft3D2
10
30.500937
20
28.5
30
0
11
44.166726
21
28.5
31
0
70
32
71
5
72
1
41
1
210
0
220
0
230
1
3
Standard
100
AcDbAlignedDimension
13
83.000937
23
19.494259
33
0
14
30.500937
24
19.494259
34
0
50
0
100
AcDbRotatedDimension
1001
ACAD
1000
DSTYLE
1002
{
1070
   279
1070
     0
1070
   172
1070
     1
1070
   173
1070
     1
1070
   340
1005
225
1070
   271
1070
     1
1070
    77
1070
     1
1070
    73
1070
     0
1070
   171
1070
     4
1070
   274
1070
     4
1070
   177
1070
     7
1070
   176
1070
     7
1070
   178
1070
     7
1070
    41
1041
3.175
1070
   147
1041
1.5
1070
    42
1041
2.0
1070
    44
1041
2.0
1070
   140
1041
3.0
1070
   343
1005
0
1070
   344
1005
0
1002
}
0
DIMENSION
5
245
100
AcDbEntity
8
2
62
256
6
ByLayer
370
13
48
1
60
0
100
AcDbDimension
2
DimnDraft3D3
10
106.5
20
-17.493023
30
0
11
106.5
21
-11.877014
31
0
70
32
71
5
72
1
41
1
210
0
220
0
230
1
3
Standard
100
AcDbAlignedDimension
13
85.000937
23
17.494259
33
0
14
84.604062
24
-17.493023
34
0
50
90
100
AcDbRotatedDimension
1001
ACAD
1000
DSTYLE
1002
{
1070
    74
1070
     0
1070
   279
1070
     0
1070
   172
1070
     1
1070
   173
1070
     1
1070
   340
1005
225
1070
   271
1070
     1
1070
    77
1070
     1
1070
    73
1070
     0
1070
   171
1070
     4
1070
   274
1070
     4
1070
   177
1070
     7
1070
   176
1070
     7
1070
   178
1070
     7
1070
    41
1041
3.175
1070
   147
1041
1.5
1070
    42
1041
2.0
1070
    44
1041
2.0
1070
   140
1041
3.0
1070
   343
1005
0
1070
   344
1005
0
1002
}
0
DIMENSION
5
24F
100
AcDbEntity
8
2
62
256
6
ByLayer
370
13
48
1
60
0
100
AcDbDimension
2
DimnDraft3D4
10
84.000937
20
17.494259
30
0
11
90.255049
21
10.240147
31
0
70
34
71
5
72
1
41
1
210
0
220
0
230
1
3
Standard
100
AcDb2LineAngularDimension
13
83.000937
23
8.241723
33
0
14
83.000937
24
17.097824
34
0
15
83.000937
25
17.494259
35
0
16
92.376369
26
8.118827
36
0
40
0
0
DIMENSION
5
25B
100
AcDbEntity
8
SK2
62
256
6
ByLayer
370
13
48
1
60
0
100
AcDbDimension
2
DimnDraft3D5
10
-36.609972
20
-20
30
0
11
-36.109972
21
0.256579
31
0
70
33
71
5
72
1
41
1
210
0
220
0
230
1
3
Standard
100
AcDbAlignedDimension
13
-1.7
23
20
33
0
14
-1.7
24
-20
34
0
1001
ACAD
1000
DSTYLE
1002
{
1070
   279
1070
     0
1070
    74
1070
     0
1070
   173
1070
     1
1070
   340
1005
225
1070
   271
1070
     0
1070
    77
1070
     1
1070
    73
1070
     0
1070
   171
1070
     4
1070
   274
1070
     4
1070
   177
1070
     7
1070
   176
1070
     7
1070
   178
1070
     7
1070
    41
1041
3.175
1070
   147
1041
1.5
1070
    42
1041
2.0
1070
    44
1041
2.0
1070
   140
1041
3.0
1070
   343
1005
0
1070
   344
1005
0
1002
}
0
ENDSEC
0
SECTION
2
OBJECTS
0
DICTIONARY
5
2cc
330
0
100
AcDbDictionary
280
0
281
1
3
ACAD_GROUP
350
2cd
3
ACAD_GROUP
350
2ce
3
ACAD_MLINESTYLE
350
2cf
0
DICTIONARY
5
2cd
330
0
100
AcDbDictionary
280
0
281
1
0
DICTIONARY
5
2ce
330
0
100
AcDbDictionary
280
0
281
1
3
<200939244NDI000_00>
350
266
3
<200939244NDI000_00>4
350
267
3
<200939429NDI000_00>
350
268
3
<200943471MOD000_00>
350
264
3
391_68A_1_03213C06B_A1
350
265
0
DICTIONARY
5
2cf
330
0
100
AcDbDictionary
280
0
281
1
3
Standard
350
18
0
GROUP
5
266
330
2ce
100
AcDbGroup
300

70
0
71
1
340
78
340
7A
340
7B
340
7C
0
GROUP
5
267
330
2ce
100
AcDbGroup
300

70
0
71
1
340
7D
340
7E
340
7F
340
80
0
GROUP
5
268
330
2ce
100
AcDbGroup
300

70
0
71
1
340
81
340
82
340
83
340
84
340
85
340
86
340
87
340
88
340
89
340
8A
340
8B
340
8C
340
8D
340
8E
340
8F
340
90
340
91
340
92
340
93
340
94
340
95
340
96
340
97
340
98
340
99
340
9A
340
9B
340
9C
340
9D
340
9E
340
9F
340
A0
340
A1
340
A2
340
A3
340
A4
340
A5
340
A6
340
A7
340
A8
340
A9
340
AB
340
AC
340
AD
340
AE
340
AF
340
B0
340
B1
340
B2
340
B3
340
B4
340
B5
340
B6
340
B7
340
B8
340
B9
340
BA
340
BB
340
BC
340
BD
340
BE
340
BF
340
C0
340
C1
340
C2
340
C3
340
C4
340
C5
340
C6
340
C7
340
C8
340
C9
340
CA
340
CB
340
CC
340
CD
340
CE
340
CF
340
D0
340
D1
340
D2
340
D3
340
D4
340
D5
340
D6
340
D7
340
D8
340
D9
340
DA
340
DB
340
DC
340
DD
340
DE
340
DF
340
E0
340
E1
340
E2
340
E3
340
E4
340
E5
340
E6
340
E7
340
E8
340
E9
340
EA
340
EB
340
EC
340
ED
340
EE
340
EF
340
F0
340
F1
340
F2
340
F3
340
F4
340
F5
340
F6
340
F7
340
F8
340
F9
340
FA
340
FB
340
FC
340
FD
340
FE
340
FF
340
100
340
101
340
102
340
103
340
104
340
105
340
106
340
107
340
108
340
109
340
10A
340
10B
340
10C
340
10D
340
10E
340
10F
340
110
340
111
340
112
340
113
340
114
340
115
340
116
340
117
340
118
340
119
340
11A
340
11B
340
11C
340
11D
340
11E
340
11F
340
120
340
121
340
122
340
123
340
124
340
125
340
126
340
127
340
128
340
129
340
12A
340
12B
340
12C
340
12D
340
12E
340
12F
340
130
340
131
340
132
340
133
340
134
340
135
340
136
340
137
340
138
340
139
340
13A
340
13B
340
13C
340
13D
340
13E
340
13F
340
140
340
141
340
142
340
143
340
144
340
145
340
146
340
147
340
148
340
149
340
14A
340
14B
340
14C
340
14D
340
14E
340
14F
340
150
340
151
340
152
340
153
340
154
340
155
340
156
340
157
340
158
340
159
340
15A
340
15B
340
15C
340
15D
340
15E
340
15F
340
160
340
161
340
162
340
163
340
164
340
165
340
166
340
167
340
168
340
169
340
16A
340
16B
340
16C
340
16D
340
16E
340
16F
340
170
340
171
340
172
340
173
340
174
340
175
340
176
340
177
340
178
340
179
340
17A
340
17B
340
17C
340
17D
340
17E
340
17F
340
180
340
181
340
182
340
183
340
184
340
185
340
186
340
187
340
188
340
189
340
18A
340
18B
340
18C
340
18D
340
18E
340
18F
340
190
340
191
340
192
340
193
340
194
340
195
340
196
340
197
340
198
340
199
340
19A
340
19B
340
19C
340
19D
340
19E
340
19F
340
1A0
340
1A1
340
1A2
340
1A3
340
1A4
340
1A5
340
1A6
340
1A7
340
1A8
340
1A9
340
1AA
340
1AB
340
1AC
340
1AD
340
1AE
340
1AF
340
1B0
340
1B1
340
1B2
340
1B3
340
1B4
340
1B5
340
1B6
340
1B7
340
1B8
340
1B9
340
1BA
340
1BB
340
1BC
340
1BD
340
1BE
340
1BF
340
1C0
340
1C1
340
1C2
340
1C3
340
1C4
340
1C5
340
1C6
340
1C7
340
1C8
340
1C9
340
1CA
340
1CB
340
1CC
340
1CD
340
1CE
340
1CF
340
1D0
340
1D1
340
1D2
340
1D3
340
1D4
340
1D5
340
1D6
340
1D7
340
1D8
340
1D9
340
1DA
340
1DB
340
1DC
340
1DD
340
1DE
340
1DF
340
1E0
340
1E1
340
1E2
340
1E3
340
1E4
340
1E5
340
1E6
340
1E7
340
1E8
340
1E9
340
1EA
340
1EB
340
1EC
340
1ED
340
1EE
340
1EF
340
1F0
340
1F1
340
1F2
340
1F3
340
1F4
340
1F5
340
1F6
340
1F7
340
1F8
340
1F9
340
1FA
340
1FB
340
1FC
340
1FD
340
1FE
340
1FF
340
200
340
201
340
202
340
203
340
204
340
205
340
206
340
207
340
208
340
209
340
20A
340
20B
340
20C
340
20D
340
20E
340
20F
340
210
340
211
340
212
340
213
340
214
340
215
340
216
340
217
340
218
340
219
340
21A
340
21B
340
21C
340
21D
340
21E
340
21F
340
220
340
221
340
222
340
223
0
GROUP
5
264
330
2ce
100
AcDbGroup
300

70
0
71
1
340
6C
340
6E
340
70
340
72
340
73
340
75
340
77
340
78
340
7A
340
7B
340
7C
340
7D
340
7E
340
7F
340
80
340
81
340
82
340
83
340
84
340
85
340
86
340
87
340
88
340
89
340
8A
340
8B
340
8C
340
8D
340
8E
340
8F
340
90
340
91
340
92
340
93
340
94
340
95
340
96
340
97
340
98
340
99
340
9A
340
9B
340
9C
340
9D
340
9E
340
9F
340
A0
340
A1
340
A2
340
A3
340
A4
340
A5
340
A6
340
A7
340
A8
340
A9
340
AB
340
AC
340
AD
340
AE
340
AF
340
B0
340
B1
340
B2
340
B3
340
B4
340
B5
340
B6
340
B7
340
B8
340
B9
340
BA
340
BB
340
BC
340
BD
340
BE
340
BF
340
C0
340
C1
340
C2
340
C3
340
C4
340
C5
340
C6
340
C7
340
C8
340
C9
340
CA
340
CB
340
CC
340
CD
340
CE
340
CF
340
D0
340
D1
340
D2
340
D3
340
D4
340
D5
340
D6
340
D7
340
D8
340
D9
340
DA
340
DB
340
DC
340
DD
340
DE
340
DF
340
E0
340
E1
340
E2
340
E3
340
E4
340
E5
340
E6
340
E7
340
E8
340
E9
340
EA
340
EB
340
EC
340
ED
340
EE
340
EF
340
F0
340
F1
340
F2
340
F3
340
F4
340
F5
340
F6
340
F7
340
F8
340
F9
340
FA
340
FB
340
FC
340
FD
340
FE
340
FF
340
100
340
101
340
102
340
103
340
104
340
105
340
106
340
107
340
108
340
109
340
10A
340
10B
340
10C
340
10D
340
10E
340
10F
340
110
340
111
340
112
340
113
340
114
340
115
340
116
340
117
340
118
340
119
340
11A
340
11B
340
11C
340
11D
340
11E
340
11F
340
120
340
121
340
122
340
123
340
124
340
125
340
126
340
127
340
128
340
129
340
12A
340
12B
340
12C
340
12D
340
12E
340
12F
340
130
340
131
340
132
340
133
340
134
340
135
340
136
340
137
340
138
340
139
340
13A
340
13B
340
13C
340
13D
340
13E
340
13F
340
140
340
141
340
142
340
143
340
144
340
145
340
146
340
147
340
148
340
149
340
14A
340
14B
340
14C
340
14D
340
14E
340
14F
340
150
340
151
340
152
340
153
340
154
340
155
340
156
340
157
340
158
340
159
340
15A
340
15B
340
15C
340
15D
340
15E
340
15F
340
160
340
161
340
162
340
163
340
164
340
165
340
166
340
167
340
168
340
169
340
16A
340
16B
340
16C
340
16D
340
16E
340
16F
340
170
340
171
340
172
340
173
340
174
340
175
340
176
340
177
340
178
340
179
340
17A
340
17B
340
17C
340
17D
340
17E
340
17F
340
180
340
181
340
182
340
183
340
184
340
185
340
186
340
187
340
188
340
189
340
18A
340
18B
340
18C
340
18D
340
18E
340
18F
340
190
340
191
340
192
340
193
340
194
340
195
340
196
340
197
340
198
340
199
340
19A
340
19B
340
19C
340
19D
340
19E
340
19F
340
1A0
340
1A1
340
1A2
340
1A3
340
1A4
340
1A5
340
1A6
340
1A7
340
1A8
340
1A9
340
1AA
340
1AB
340
1AC
340
1AD
340
1AE
340
1AF
340
1B0
340
1B1
340
1B2
340
1B3
340
1B4
340
1B5
340
1B6
340
1B7
340
1B8
340
1B9
340
1BA
340
1BB
340
1BC
340
1BD
340
1BE
340
1BF
340
1C0
340
1C1
340
1C2
340
1C3
340
1C4
340
1C5
340
1C6
340
1C7
340
1C8
340
1C9
340
1CA
340
1CB
340
1CC
340
1CD
340
1CE
340
1CF
340
1D0
340
1D1
340
1D2
340
1D3
340
1D4
340
1D5
340
1D6
340
1D7
340
1D8
340
1D9
340
1DA
340
1DB
340
1DC
340
1DD
340
1DE
340
1DF
340
1E0
340
1E1
340
1E2
340
1E3
340
1E4
340
1E5
340
1E6
340
1E7
340
1E8
340
1E9
340
1EA
340
1EB
340
1EC
340
1ED
340
1EE
340
1EF
340
1F0
340
1F1
340
1F2
340
1F3
340
1F4
340
1F5
340
1F6
340
1F7
340
1F8
340
1F9
340
1FA
340
1FB
340
1FC
340
1FD
340
1FE
340
1FF
340
200
340
201
340
202
340
203
340
204
340
205
340
206
340
207
340
208
340
209
340
20A
340
20B
340
20C
340
20D
340
20E
340
20F
340
210
340
211
340
212
340
213
340
214
340
215
340
216
340
217
340
218
340
219
340
21A
340
21B
340
21C
340
21D
340
21E
340
21F
340
220
340
221
340
222
340
223
340
6E
340
77
340
224
340
245
340
24F
340
78
340
7A
340
7B
340
7C
340
7D
340
7E
340
7F
340
80
340
81
340
82
340
83
340
84
340
85
340
86
340
87
340
88
340
89
340
8A
340
8B
340
8C
340
8D
340
8E
340
8F
340
90
340
91
340
92
340
93
340
94
340
95
340
96
340
97
340
98
340
99
340
9A
340
9B
340
9C
340
9D
340
9E
340
9F
340
A0
340
A1
340
A2
340
A3
340
A4
340
A5
340
A6
340
A7
340
A8
340
A9
340
AB
340
AC
340
AD
340
AE
340
AF
340
B0
340
B1
340
B2
340
B3
340
B4
340
B5
340
B6
340
B7
340
B8
340
B9
340
BA
340
BB
340
BC
340
BD
340
BE
340
BF
340
C0
340
C1
340
C2
340
C3
340
C4
340
C5
340
C6
340
C7
340
C8
340
C9
340
CA
340
CB
340
CC
340
CD
340
CE
340
CF
340
D0
340
D1
340
D2
340
D3
340
D4
340
D5
340
D6
340
D7
340
D8
340
D9
340
DA
340
DB
340
DC
340
DD
340
DE
340
DF
340
E0
340
E1
340
E2
340
E3
340
E4
340
E5
340
E6
340
E7
340
E8
340
E9
340
EA
340
EB
340
EC
340
ED
340
EE
340
EF
340
F0
340
F1
340
F2
340
F3
340
F4
340
F5
340
F6
340
F7
340
F8
340
F9
340
FA
340
FB
340
FC
340
FD
340
FE
340
FF
340
100
340
101
340
102
340
103
340
104
340
105
340
106
340
107
340
108
340
109
340
10A
340
10B
340
10C
340
10D
340
10E
340
10F
340
110
340
111
340
112
340
113
340
114
340
115
340
116
340
117
340
118
340
119
340
11A
340
11B
340
11C
340
11D
340
11E
340
11F
340
120
340
121
340
122
340
123
340
124
340
125
340
126
340
127
340
128
340
129
340
12A
340
12B
340
12C
340
12D
340
12E
340
12F
340
130
340
131
340
132
340
133
340
134
340
135
340
136
340
137
340
138
340
139
340
13A
340
13B
340
13C
340
13D
340
13E
340
13F
340
140
340
141
340
142
340
143
340
144
340
145
340
146
340
147
340
148
340
149
340
14A
340
14B
340
14C
340
14D
340
14E
340
14F
340
150
340
151
340
152
340
153
340
154
340
155
340
156
340
157
340
158
340
159
340
15A
340
15B
340
15C
340
15D
340
15E
340
15F
340
160
340
161
340
162
340
163
340
164
340
165
340
166
340
167
340
168
340
169
340
16A
340
16B
340
16C
340
16D
340
16E
340
16F
340
170
340
171
340
172
340
173
340
174
340
175
340
176
340
177
340
178
340
179
340
17A
340
17B
340
17C
340
17D
340
17E
340
17F
340
180
340
181
340
182
340
183
340
184
340
185
340
186
340
187
340
188
340
189
340
18A
340
18B
340
18C
340
18D
340
18E
340
18F
340
190
340
191
340
192
340
193
340
194
340
195
340
196
340
197
340
198
340
199
340
19A
340
19B
340
19C
340
19D
340
19E
340
19F
340
1A0
340
1A1
340
1A2
340
1A3
340
1A4
340
1A5
340
1A6
340
1A7
340
1A8
340
1A9
340
1AA
340
1AB
340
1AC
340
1AD
340
1AE
340
1AF
340
1B0
340
1B1
340
1B2
340
1B3
340
1B4
340
1B5
340
1B6
340
1B7
340
1B8
340
1B9
340
1BA
340
1BB
340
1BC
340
1BD
340
1BE
340
1BF
340
1C0
340
1C1
340
1C2
340
1C3
340
1C4
340
1C5
340
1C6
340
1C7
340
1C8
340
1C9
340
1CA
340
1CB
340
1CC
340
1CD
340
1CE
340
1CF
340
1D0
340
1D1
340
1D2
340
1D3
340
1D4
340
1D5
340
1D6
340
1D7
340
1D8
340
1D9
340
1DA
340
1DB
340
1DC
340
1DD
340
1DE
340
1DF
340
1E0
340
1E1
340
1E2
340
1E3
340
1E4
340
1E5
340
1E6
340
1E7
340
1E8
340
1E9
340
1EA
340
1EB
340
1EC
340
1ED
340
1EE
340
1EF
340
1F0
340
1F1
340
1F2
340
1F3
340
1F4
340
1F5
340
1F6
340
1F7
340
1F8
340
1F9
340
1FA
340
1FB
340
1FC
340
1FD
340
1FE
340
1FF
340
200
340
201
340
202
340
203
340
204
340
205
340
206
340
207
340
208
340
209
340
20A
340
20B
340
20C
340
20D
340
20E
340
20F
340
210
340
211
340
212
340
213
340
214
340
215
340
216
340
217
340
218
340
219
340
21A
340
21B
340
21C
340
21D
340
21E
340
21F
340
220
340
221
340
222
340
223
340
224
340
231
340
23B
340
245
340
24F
340
25B
0
GROUP
5
265
330
2ce
100
AcDbGroup
300

70
0
71
1
340
6E
340
77
340
224
340
245
340
24F
0
MLINESTYLE
5
18
330
2cf
100
AcDbMlineStyle
2
Standard
70
0
3

62
256
51
90
52
90
71
2
49
-0.5
62
256
6
ByLayer
49
0.5
62
256
6
ByLayer
0
RASTERVARIABLES
5
2b9
330

100
AcDbRasterVariables
90
0
70
1
71
1
72
1
0
ENDSEC
0
EOF
