0
SECTION
2
HEADER
9
$ACADVER
1
AC1015
9
$DWGCODEPAGE
3
ANSI_1252
9
$HANDSEED
5
2d0
9
$ANGBASE
50
0
9
$ANGDIR
70
0
9
$ATTMODE
70
1
9
$AUNITS
70
0
9
$AUPREC
70
0
9
$CECOLOR
62
256
9
$CELTSCALE
40
1
9
$CELTYPE
6
ByLayer
9
$CELWEIGHT
370
18
9
$CLAYER
8
0
9
$CMLJUST
70
0
9
$CMLSCALE
40
1
9
$CMLSTYLE
2
Standard
9
$DIMSTYLE
2
Standard
9
$TEXTSIZE
40
0.2
9
$TEXTSTYLE
7
Standard
9
$LUNITS
70
2
9
$LUPREC
70
4
9
$EXTNAMES
290
1
9
$INSUNITS
70
4
9
$LTSCALE
40
1
9
$LWDISPLAY
290
1
9
$PDMODE
70
0
9
$PDSIZE
40
0
9
$PLINEGEN
70
0
0
ENDSEC
0
SECTION
2
CLASSES
0
CLASS
1
RASTERVARIABLES
2
AcDbRasterVariables
3
ISM
90
0
280
0
281
0
0
ENDSEC
0
SECTION
2
TABLES
0
TABLE
2
VPORT
5
2c6
100
AcDbSymbolTable
0
VPORT
5
1
100
AcDbSymbolTableRecord
100
AcDbViewportTableRecord
2
*Active
70
0
10
0
20
0
11
1
21
1
12
-1
22
1
13
0
23
0
14
0.5
24
0.5
15
10
25
10
16
0
26
0
36
1
17
0
27
0
37
0
0
ENDTAB
0
TABLE
2
LTYPE
5
2c7
100
AcDbSymbolTable
0
LTYPE
5
14
100
AcDbSymbolTableRecord
100
AcDbLinetypeTableRecord
70
0
2
ByBlock
3

72
65
73
0
40
0
0
LTYPE
5
15
100
AcDbSymbolTableRecord
100
AcDbLinetypeTableRecord
70
0
2
ByLayer
3

72
65
73
0
40
0
0
LTYPE
5
16
100
AcDbSymbolTableRecord
100
AcDbLinetypeTableRecord
70
0
2
CONTINUOUS
3
Solid line
72
65
73
0
40
0
0
LTYPE
5
6A
100
AcDbSymbolTableRecord
100
AcDbLinetypeTableRecord
70
0
2
CENTER
3
____ _ ____ _ ____ _ ____
72
65
73
4
40
47.5
49
22
74
0
49
-8.5
74
0
49
8.5
74
0
49
-8.5
74
0
0
LTYPE
5
6B
100
AcDbSymbolTableRecord
100
AcDbLinetypeTableRecord
70
0
2
DASHED
3
__ __ __ __ __ __ __ __ __
72
65
73
2
40
25.72
49
12.86
74
0
49
-12.86
74
0
0
ENDTAB
0
TABLE
2
LAYER
5
2c8
100
AcDbSymbolTable
0
LAYER
5
10
100
AcDbSymbolTableRecord
100
AcDbLayerTableRecord
2
0
70
0
62
7
6
CONTINUOUS
290
1
370
-3
390
0
0
LAYER
5
6D
100
AcDbSymbolTableRecord
100
AcDbLayerTableRecord
2
80
70
0
62
-6
6
CONTINUOUS
290
1
370
-3
390
0
0
LAYER
5
6F
100
AcDbSymbolTableRecord
100
AcDbLayerTableRecord
2
81
70
0
62
-3
6
CONTINUOUS
290
1
370
-3
390
0
0
LAYER
5
7C
100
AcDbSymbolTableRecord
100
AcDbLayerTableRecord
2
4
70
0
62
-2
6
CENTER
290
1
370
-3
390
0
0
LAYER
5
81
100
AcDbSymbolTableRecord
100
AcDbLayerTableRecord
2
2
70
0
62
7
6
CONTINUOUS
290
1
370
-3
390
0
0
LAYER
5
84
100
AcDbSymbolTableRecord
100
AcDbLayerTableRecord
2
1
70
0
62
4
6
CONTINUOUS
290
1
370
-3
390
0
0
LAYER
5
2b0
100
AcDbSymbolTableRecord
100
AcDbLayerTableRecord
2
SK1
70
0
62
4
6
CONTINUOUS
290
1
370
-3
390
0
0
LAYER
5
2b1
100
AcDbSymbolTableRecord
100
AcDbLayerTableRecord
2
SK4
70
0
62
2
6
CENTER
290
1
370
-3
390
0
0
LAYER
5
2b2
100
AcDbSymbolTableRecord
100
AcDbLayerTableRecord
2
SK6
70
0
62
5
6
CONTINUOUS
290
1
370
-3
390
0
0
LAYER
5
2b3
100
AcDbSymbolTableRecord
100
AcDbLayerTableRecord
2
SK2
70
0
62
7
6
CONTINUOUS
290
1
370
-3
390
0
0
ENDTAB
0
TABLE
2
STYLE
5
2c9
100
AcDbSymbolTable
0
STYLE
5
11
100
AcDbSymbolTableRecord
100
AcDbTextStyleTableRecord
2
Standard
3
txt
70
0
71
0
40
0
41
1
42
0
50
0
0
STYLE
5
21D
100
AcDbSymbolTableRecord
100
AcDbTextStyleTableRecord
2
iso_b_vert
3
simplex.shx
70
0
71
0
40
0
41
1
42
0
50
0
0
STYLE
5
21E
100
AcDbSymbolTableRecord
100
AcDbTextStyleTableRecord
2
DWGDirectTextStyle
3
simplex
70
0
71
0
40
0
41
1
42
0
50
0
0
ENDTAB
0
TABLE
2
DIMSTYLE
5
2ca
100
AcDbSymbolTable
100
AcDbDimStyleTable
0
DIMSTYLE
105
27
100
AcDbSymbolTableRecord
100
AcDbDimStyleTableRecord
2
Standard
70
0
3
<>
41
0.18
42
0.0625
44
0.18
140
0.18
147
0.09
73
0
74
0
77
1
271
2
275
0
278
52
280
0
340
11
0
ENDTAB
0
TABLE
2
VIEW
5
2cb
100
AcDbSymbolTable
0
ENDTAB
0
TABLE
2
UCS
5
2cc
100
AcDbSymbolTable
0
ENDTAB
0
TABLE
2
APPID
5
2cd
100
AcDbSymbolTable
0
APPID
5
12
100
AcDbSymbolTableRecord
100
AcDbRegAppTableRecord
2
ACAD
70
0
0
ENDTAB
0
TABLE
2
BLOCK_RECORD
5
2ce
100
AcDbSymbolTable
0
BLOCK_RECORD
5
1F
100
AcDbSymbolTableRecord
100
AcDbBlockTableRecord
2
*Model_Space
340
0
70
0
0
BLOCK_RECORD
5
1B
100
AcDbSymbolTableRecord
100
AcDbBlockTableRecord
2
*Paper_Space
340
0
70
0
0
BLOCK_RECORD
5
23
100
AcDbSymbolTableRecord
100
AcDbBlockTableRecord
2
*Paper_Space0
340
0
70
0
0
BLOCK_RECORD
5
220
100
AcDbSymbolTableRecord
100
AcDbBlockTableRecord
2
DimnDraft3D1
340
0
70
0
0
BLOCK_RECORD
5
22A
100
AcDbSymbolTableRecord
100
AcDbBlockTableRecord
2
DimnDraft3D2
340
0
70
0
0
BLOCK_RECORD
5
234
100
AcDbSymbolTableRecord
100
AcDbBlockTableRecord
2
DimnDraft3D3
340
0
70
0
0
BLOCK_RECORD
5
23E
100
AcDbSymbolTableRecord
100
AcDbBlockTableRecord
2
DimnDraft3D4
340
0
70
0
0
BLOCK_RECORD
5
248
100
AcDbSymbolTableRecord
100
AcDbBlockTableRecord
2
DimnDraft3D5
340
0
70
0
0
ENDTAB
0
ENDSEC
0
SECTION
2
BLOCKS
0
BLOCK
5
20
100
AcDbEntity
8
0
100
AcDbBlockBegin
2
*Model_Space
70
0
10
0
20
0
30
0
3
*Model_Space
0
ENDBLK
5
21
100
AcDbEntity
8
0
100
AcDbBlockEnd
0
BLOCK
5
1C
100
AcDbEntity
8
0
100
AcDbBlockBegin
2
*Paper_Space
70
0
10
0
20
0
30
0
3
*Paper_Space
0
ENDBLK
5
1D
100
AcDbEntity
8
0
100
AcDbBlockEnd
0
BLOCK
5
24
100
AcDbEntity
8
0
100
AcDbBlockBegin
2
*Paper_Space0
70
0
10
0
20
0
30
0
3
*Paper_Space0
0
ENDBLK
5
25
100
AcDbEntity
8
0
100
AcDbBlockEnd
0
BLOCK
5
227
100
AcDbEntity
8
0
100
AcDbBlockBegin
2
DimnDraft3D1
70
0
10
0
20
0
30
0
3
DimnDraft3D1
0
MTEXT
5
221
100
AcDbEntity
8
2
62
256
6
ByLayer
370
18
48
1
60
0
100
AcDbMText
10
35.307895
20
44.25
30
0
210
0
220
0
230
1
1
\W0.6961;76.0
40
3
41
0
44
1.084337
50
0
71
7
72
5
7
iso_b_vert
0
LINE
5
222
100
AcDbEntity
8
2
62
256
6
ByLayer
370
13
48
1
60
0
100
AcDbLine
10
0
20
17.7
30
0
11
0
21
45.5
31
0
39
0
210
0
220
0
230
1
0
LINE
5
223
100
AcDbEntity
8
2
62
256
6
ByLayer
370
13
48
1
60
0
100
AcDbLine
10
76
20
13.486285
30
0
11
76
21
45.5
31
0
39
0
210
0
220
0
230
1
0
LINE
5
224
100
AcDbEntity
8
2
62
256
6
ByLayer
370
13
48
1
60
0
100
AcDbLine
10
0
20
43.5
30
0
11
76
21
43.5
31
0
39
0
210
0
220
0
230
1
0
SOLID
5
225
100
AcDbEntity
8
2
62
256
6
ByLayer
370
13
48
1
60
0
100
AcDbTrace
10
0
20
43.5
30
0
11
3.174998
21
43.917997
31
0
12
3.175002
22
43.082003
32
0
13
0
23
43.5
33
0
39
0
210
0
220
0
230
1
0
SOLID
5
226
100
AcDbEntity
8
2
62
256
6
ByLayer
370
13
48
1
60
0
100
AcDbTrace
10
76
20
43.5
30
0
11
72.825002
21
43.082003
31
0
12
72.824998
22
43.917997
32
0
13
76
23
43.5
33
0
39
0
210
0
220
0
230
1
0
ENDBLK
5
228
100
AcDbEntity
8
0
100
AcDbBlockEnd
0
BLOCK
5
231
100
AcDbEntity
8
0
100
AcDbBlockBegin
2
DimnDraft3D2
70
0
10
0
20
0
30
0
3
DimnDraft3D2
0
MTEXT
5
22B
100
AcDbEntity
8
2
62
256
6
ByLayer
370
18
48
1
60
0
100
AcDbMText
10
40.790789
20
29.25
30
0
210
0
220
0
230
1
1
\W0.7395;LU = 2.0 X Dc
40
3
41
0
44
1.084337
50
0
71
7
72
5
7
iso_b_vert
0
LINE
5
22C
100
AcDbEntity
8
2
62
256
6
ByLayer
370
13
48
1
60
0
100
AcDbLine
10
76
20
13.486285
30
0
11
76
21
30.5
31
0
39
0
210
0
220
0
230
1
0
LINE
5
22D
100
AcDbEntity
8
2
62
256
6
ByLayer
370
13
48
1
60
0
100
AcDbLine
10
30
20
13.486285
30
0
11
30
21
30.5
31
0
39
0
210
0
220
0
230
1
0
LINE
5
22E
100
AcDbEntity
8
2
62
256
6
ByLayer
370
13
48
1
60
0
100
AcDbLine
10
76
20
28.5
30
0
11
30
21
28.5
31
0
39
0
210
0
220
0
230
1
0
SOLID
5
22F
100
AcDbEntity
8
2
62
256
6
ByLayer
370
13
48
1
60
0
100
AcDbTrace
10
76
20
28.5
30
0
11
72.825002
21
28.082003
31
0
12
72.824998
22
28.917997
32
0
13
76
23
28.5
33
0
39
0
210
0
220
0
230
1
0
SOLID
5
230
100
AcDbEntity
8
2
62
256
6
ByLayer
370
13
48
1
60
0
100
AcDbTrace
10
30
20
28.5
30
0
11
33.174998
21
28.917997
31
0
12
33.175002
22
28.082003
32
0
13
30
23
28.5
33
0
39
0
210
0
220
0
230
1
0
ENDBLK
5
232
100
AcDbEntity
8
0
100
AcDbBlockEnd
0
BLOCK
5
23B
100
AcDbEntity
8
0
100
AcDbBlockBegin
2
DimnDraft3D3
70
0
10
0
20
0
30
0
3
DimnDraft3D3
0
MTEXT
5
235
100
AcDbEntity
8
2
62
256
6
ByLayer
370
18
48
1
60
0
100
AcDbMText
10
105.75
20
-40.850215
30
0
210
0
220
0
230
1
1
\W0.7221;Dc=23.0-29.0
40
3
41
0
44
1.084337
50
90
71
7
72
5
7
iso_b_vert
0
LINE
5
236
100
AcDbEntity
8
2
62
256
6
ByLayer
370
13
48
1
60
0
100
AcDbLine
10
78
20
11.486285
30
0
11
108.5
21
11.486285
31
0
39
0
210
0
220
0
230
1
0
LINE
5
237
100
AcDbEntity
8
2
62
256
6
ByLayer
370
13
48
1
60
0
100
AcDbLine
10
77.603125
20
-11.485742
30
0
11
108.5
21
-11.485742
31
0
39
0
210
0
220
0
230
1
0
LINE
5
238
100
AcDbEntity
8
2
62
256
6
ByLayer
370
13
48
1
60
0
100
AcDbLine
10
106.5
20
11.486285
30
0
11
106.5
21
-41.600215
31
0
39
0
210
0
220
0
230
1
0
SOLID
5
239
100
AcDbEntity
8
2
62
256
6
ByLayer
370
13
48
1
60
0
100
AcDbTrace
10
106.5
20
11.486285
30
0
11
106.917997
21
8.311286
31
0
12
106.082003
22
8.311283
32
0
13
106.5
23
11.486285
33
0
39
0
210
0
220
0
230
1
0
SOLID
5
23A
100
AcDbEntity
8
2
62
256
6
ByLayer
370
13
48
1
60
0
100
AcDbTrace
10
106.5
20
-11.485742
30
0
11
106.082003
21
-8.310743
31
0
12
106.917997
22
-8.31074
32
0
13
106.5
23
-11.485742
33
0
39
0
210
0
220
0
230
1
0
ENDBLK
5
23C
100
AcDbEntity
8
0
100
AcDbBlockEnd
0
BLOCK
5
245
100
AcDbEntity
8
0
100
AcDbBlockBegin
2
DimnDraft3D4
70
0
10
0
20
0
30
0
3
DimnDraft3D4
0
MTEXT
5
23F
100
AcDbEntity
8
2
62
256
6
ByLayer
370
18
48
1
60
0
100
AcDbMText
10
84.360697
20
0.359497
30
0
210
0
220
0
230
1
1
\W0.5899;90%%d
40
3
41
0
44
1.084337
50
45
71
7
72
5
7
iso_b_vert
0
LINE
5
240
100
AcDbEntity
8
2
62
256
6
ByLayer
370
13
48
1
60
0
100
AcDbLine
10
76
20
3.449515
30
0
11
76
21
-5.043448
31
0
39
0
210
0
220
0
230
1
0
LINE
5
241
100
AcDbEntity
8
2
62
256
6
ByLayer
370
13
48
1
60
0
100
AcDbLine
10
80
20
11.486285
30
0
11
92.529733
21
11.486285
31
0
39
0
210
0
220
0
230
1
0
ARC
5
242
100
AcDbEntity
8
2
62
256
6
ByLayer
370
13
48
1
60
0
100
AcDbCircle
39
0
10
76
20
11.486285
30
0
40
14.5297327967617
210
0
220
0
230
1
100
AcDbArc
50
270
51
0
0
SOLID
5
243
100
AcDbEntity
8
2
62
256
6
ByLayer
370
13
48
1
60
0
100
AcDbTrace
10
76
20
-3.043448
30
0
11
79.147566
21
-2.453392
31
0
12
79.193036
22
-3.288148
32
0
13
76
23
-3.043448
33
0
39
0
210
0
220
0
230
1
0
SOLID
5
244
100
AcDbEntity
8
2
62
256
6
ByLayer
370
13
48
1
60
0
100
AcDbTrace
10
90.529733
20
11.486285
30
0
11
90.774433
21
8.293252
31
0
12
89.939677
22
8.338716
32
0
13
90.529733
23
11.486285
33
0
39
0
210
0
220
0
230
1
0
ENDBLK
5
246
100
AcDbEntity
8
0
100
AcDbBlockEnd
0
BLOCK
5
251
100
AcDbEntity
8
0
100
AcDbBlockBegin
2
DimnDraft3D5
70
0
10
0
20
0
30
0
3
DimnDraft3D5
0
MTEXT
5
249
100
AcDbEntity
8
SK2
62
256
6
ByLayer
370
18
48
1
60
0
100
AcDbMText
10
-29.25
20
1.164474
30
0
210
0
220
0
230
1
1
\W0.6337;32
40
3
41
0
44
1.084337
50
90
71
7
72
5
7
iso_b_vert
0
MTEXT
5
24B
100
AcDbEntity
8
SK2
62
256
6
ByLayer
370
18
48
1
60
0
100
AcDbMText
10
-29.25
20
-3.248684
30
0
210
0
220
0
230
1
1
\W1.1719;%%c
40
3
41
0
44
1.084337
50
90
71
7
72
5
7
iso_b_vert
0
LINE
5
24C
100
AcDbEntity
8
SK2
62
256
6
ByLayer
370
13
48
1
60
0
100
AcDbLine
10
-1.7
20
16
30
0
11
-30.5
21
16
31
0
39
0
210
0
220
0
230
1
0
LINE
5
24D
100
AcDbEntity
8
SK2
62
256
6
ByLayer
370
13
48
1
60
0
100
AcDbLine
10
-1.7
20
-16
30
0
11
-30.5
21
-16
31
0
39
0
210
0
220
0
230
1
0
LINE
5
24E
100
AcDbEntity
8
SK2
62
256
6
ByLayer
370
13
48
1
60
0
100
AcDbLine
10
-28.5
20
16
30
0
11
-28.5
21
-16
31
0
39
0
210
0
220
0
230
1
0
SOLID
5
24F
100
AcDbEntity
8
SK2
62
256
6
ByLayer
370
13
48
1
60
0
100
AcDbTrace
10
-28.5
20
16
30
0
11
-28.082003
21
12.825002
31
0
12
-28.917997
22
12.824998
32
0
13
-28.5
23
16
33
0
39
0
210
0
220
0
230
1
0
SOLID
5
250
100
AcDbEntity
8
SK2
62
256
6
ByLayer
370
13
48
1
60
0
100
AcDbTrace
10
-28.5
20
-16
30
0
11
-28.917997
21
-12.825002
31
0
12
-28.082003
22
-12.824998
32
0
13
-28.5
23
-16
33
0
39
0
210
0
220
0
230
1
0
ENDBLK
5
252
100
AcDbEntity
8
0
100
AcDbBlockEnd
0
ENDSEC
0
SECTION
2
ENTITIES
0
ARC
5
12F
100
AcDbEntity
8
SK1
62
256
6
ByLayer
370
18
48
1
60
0
100
AcDbCircle
39
0
10
0.6
20
-11.8
30
0
40
1
210
0
220
0
230
-1
100
AcDbArc
50
113.578178
51
126.869898
0
ARC
5
130
100
AcDbEntity
8
SK1
62
256
6
ByLayer
370
18
48
1
60
0
100
AcDbCircle
39
0
10
-0.6
20
11.8
30
0
40
1
210
0
220
0
230
1
100
AcDbArc
50
293.578178
51
306.869898
0
ARC
5
131
100
AcDbEntity
8
1
62
256
6
ByLayer
370
18
48
1
60
0
100
AcDbCircle
39
0
10
-74.840437
20
0.80027
30
0
40
2.34043735454473
210
0
220
0
230
-1
100
AcDbArc
50
19.980384
51
22.201968
0
ARC
5
134
100
AcDbEntity
8
1
62
256
6
ByLayer
370
18
48
1
60
0
100
AcDbCircle
39
0
10
57.1
20
-7.7
30
0
40
0.605662432702594
210
0
220
0
230
1
100
AcDbArc
50
10.686529
51
355.686529
0
ARC
5
135
100
AcDbEntity
8
1
62
256
6
ByLayer
370
18
48
1
60
0
100
AcDbCircle
39
0
10
-57.1
20
-7.7
30
0
40
0.45
210
0
220
0
230
-1
100
AcDbArc
50
184.313471
51
169.313471
0
ARC
5
136
100
AcDbEntity
8
1
62
256
6
ByLayer
370
18
48
1
60
0
100
AcDbCircle
39
0
10
-57.1
20
7.7
30
0
40
0.45
210
0
220
0
230
-1
100
AcDbArc
50
40.65762
51
25.65762
0
ARC
5
137
100
AcDbEntity
8
1
62
256
6
ByLayer
370
18
48
1
60
0
100
AcDbCircle
39
0
10
57.1
20
7.7
30
0
40
0.605662432702594
210
0
220
0
230
1
100
AcDbArc
50
154.34238
51
139.34238
0
CIRCLE
5
132
100
AcDbEntity
8
1
62
256
6
ByLayer
370
18
48
1
60
0
100
AcDbCircle
10
57.1
20
-7.7
30
0
40
0.749999999999999
39
0
210
0
220
0
230
1
0
CIRCLE
5
133
100
AcDbEntity
8
1
62
256
6
ByLayer
370
18
48
1
60
0
100
AcDbCircle
10
-57.1
20
7.7
30
0
40
0.749999999999999
39
0
210
0
220
0
230
-1
0
ELLIPSE
5
138
100
AcDbEntity
8
1
62
256
6
ByLayer
370
18
48
1
60
0
100
AcDbEllipse
10
72.825
20
-7.079482
30
0
11
1.08203519760188
21
0
31
0
210
0
220
0
230
1
40
0.993572
41
-1.69476840647374
42
-0.0505608455206251
0
ELLIPSE
5
139
100
AcDbEntity
8
1
62
256
6
ByLayer
370
18
48
1
60
0
100
AcDbEllipse
10
71.668671
20
-1.4
30
0
11
-3.33266383898969E-16
21
-1.81427761314886
31
0
210
0
220
0
230
1
40
0.104528
41
1.23543159653952
42
1.90625964427505
0
ELLIPSE
5
13A
100
AcDbEntity
8
1
62
256
6
ByLayer
370
18
48
1
60
0
100
AcDbEllipse
10
66.295786
20
0
30
0
11
-6.12303176904595E-16
21
9.99999999989232
31
0
210
0
220
0
230
-1
40
0.141431
41
-2.69753919444175
42
-1.95370780843553
0
ELLIPSE
5
13B
100
AcDbEntity
8
1
62
256
6
ByLayer
370
18
48
1
60
0
100
AcDbEllipse
10
72.983576
20
8.652333
30
0
11
0.23802970875211
21
-0.0419468825602509
31
0
210
0
220
0
230
-1
40
0.503975
41
2.94662916084896
42
0.195121873856945
0
ELLIPSE
5
13C
100
AcDbEntity
8
1
62
256
6
ByLayer
370
18
48
1
60
0
100
AcDbEllipse
10
72.825
20
7.755933
30
0
11
-1.725
21
2.1124459603436E-16
31
0
210
0
220
0
230
1
40
0.999657
41
0
42
-3.14159256478638
0
ELLIPSE
5
13D
100
AcDbEntity
8
1
62
256
6
ByLayer
370
18
48
1
60
0
100
AcDbEllipse
10
72.125448
20
8.340108
30
0
11
0.155383058845512
21
0.18507162508691
31
0
210
0
220
0
230
-1
40
0.504167
41
-2.64664364210319
42
0.194814516868838
0
ELLIPSE
5
13E
100
AcDbEntity
8
1
62
256
6
ByLayer
370
18
48
1
60
0
100
AcDbEllipse
10
73.411897
20
8.452512
30
0
11
0.185170804335146
21
-0.155287236553337
31
0
210
0
220
0
230
-1
40
0.504107
41
1.57102444754138
42
2.8026747093013
0
ELLIPSE
5
13F
100
AcDbEntity
8
1
62
256
6
ByLayer
370
18
48
1
60
0
100
AcDbEllipse
10
72.512719
20
8.611008
30
0
11
0.227129907040891
21
0.0826209029818007
31
0
210
0
220
0
230
-1
40
0.504005
41
0.338997220603835
42
1.57064748235571
0
ELLIPSE
5
140
100
AcDbEntity
8
1
62
256
6
ByLayer
370
18
48
1
60
0
100
AcDbEllipse
10
72.825
20
7.753315
30
0
11
0.7912
21
0
31
0
210
0
220
0
230
1
40
0.999657
41
2.96705972839037
42
-2.35761205885791
0
ELLIPSE
5
141
100
AcDbEntity
8
1
62
256
6
ByLayer
370
18
48
1
60
0
100
AcDbEllipse
10
73.724179
20
7.59482
30
0
11
0.0419802774838432
21
0.237944790058391
31
0
210
0
220
0
230
-1
40
0.5043
41
-2.80252586491509
42
-1.9650802771272
0
ELLIPSE
5
142
100
AcDbEntity
8
1
62
256
6
ByLayer
370
18
48
1
60
0
100
AcDbEllipse
10
72.825
20
7.753315
30
0
11
0.7912
21
0
31
0
210
0
220
0
230
1
40
0.999657
41
-2.17863972382795
42
-1.31365443305925
0
ELLIPSE
5
143
100
AcDbEntity
8
1
62
256
6
ByLayer
370
18
48
1
60
0
100
AcDbEllipse
10
72.825
20
7.779492
30
0
11
1.03505
21
0
31
0
210
0
220
0
230
1
40
0.999657
41
0.349065850398874
42
1.39626340159544
0
ELLIPSE
5
144
100
AcDbEntity
8
1
62
256
6
ByLayer
370
18
48
1
60
0
100
AcDbEllipse
10
72.825
20
7.753315
30
0
11
0.7912
21
0
31
0
210
0
220
0
230
1
40
0.999657
41
1.91986217719369
42
2.84779415130785
0
ELLIPSE
5
145
100
AcDbEntity
8
1
62
256
6
ByLayer
370
18
48
1
60
0
100
AcDbEllipse
10
72.825
20
7.753315
30
0
11
0.7912
21
0
31
0
210
0
220
0
230
1
40
0.999657
41
-1.09780130970147
42
-0.174532925199449
0
ELLIPSE
5
146
100
AcDbEntity
8
1
62
256
6
ByLayer
370
18
48
1
60
0
100
AcDbEllipse
10
72.512719
20
8.611008
30
0
11
0.227129907043861
21
0.0826209029818589
31
0
210
0
220
0
230
-1
40
0.504005
41
1.57064748234719
42
2.80229774408704
0
ELLIPSE
5
147
100
AcDbEntity
8
1
62
256
6
ByLayer
370
18
48
1
60
0
100
AcDbEllipse
10
71.966873
20
7.441089
30
0
11
0.0826833256989748
21
-0.227039667835349
31
0
210
0
220
0
230
-1
40
0.50427
41
2.24450416666081
42
-2.94640099435822
0
ELLIPSE
5
148
100
AcDbEntity
8
1
62
256
6
ByLayer
370
18
48
1
60
0
100
AcDbEllipse
10
72.825
20
7.779492
30
0
11
1.03505
21
0
31
0
210
0
220
0
230
1
40
0.999657
41
-0.698131700797721
42
0.349065850398873
0
ELLIPSE
5
149
100
AcDbEntity
8
1
62
256
6
ByLayer
370
18
48
1
60
0
100
AcDbEllipse
10
72.825
20
7.779492
30
0
11
1.03505
21
0
31
0
210
0
220
0
230
1
40
0.999657
41
-2.79252680319094
42
-1.74532925199433
0
ELLIPSE
5
14A
100
AcDbEntity
8
1
62
256
6
ByLayer
370
18
48
1
60
0
100
AcDbEllipse
10
72.825
20
7.779492
30
0
11
1.03505
21
0
31
0
210
0
220
0
230
1
40
0.999657
41
1.39626340159544
42
2.44346095279205
0
ELLIPSE
5
14B
100
AcDbEntity
8
1
62
256
6
ByLayer
370
18
48
1
60
0
100
AcDbEllipse
10
72.825
20
7.779492
30
0
11
1.03505
21
0
31
0
210
0
220
0
230
1
40
0.999657
41
-1.74532925199433
42
-0.698131700797721
0
ELLIPSE
5
14C
100
AcDbEntity
8
1
62
256
6
ByLayer
370
18
48
1
60
0
100
AcDbEllipse
10
72.825
20
7.778899
30
0
11
-1.725
21
2.1124459603436E-16
31
0
210
0
220
0
230
1
40
0.999657
41
0
42
6.28318530717959
0
ELLIPSE
5
14D
100
AcDbEntity
8
1
62
256
6
ByLayer
370
18
48
1
60
0
100
AcDbEllipse
10
72.825
20
7.779492
30
0
11
1.03505
21
0
31
0
210
0
220
0
230
1
40
0.999657
41
2.44346095279205
42
-2.79252680319094
0
ELLIPSE
5
14E
100
AcDbEntity
8
1
62
256
6
ByLayer
370
18
48
1
60
0
100
AcDbEllipse
10
72.825
20
7.753315
30
0
11
-0.791199999999999
21
9.68908547144264E-17
31
0
210
0
220
0
230
1
40
0.999657
41
-2.26892802759262
42
-1.22173047639603
0
ELLIPSE
5
14F
100
AcDbEntity
8
1
62
256
6
ByLayer
370
18
48
1
60
0
100
AcDbEllipse
10
72.825
20
7.753315
30
0
11
0.7912
21
0
31
0
210
0
220
0
230
1
40
0.999657
41
-0.137929668745132
42
0.87266462599715
0
ELLIPSE
5
150
100
AcDbEntity
8
1
62
256
6
ByLayer
370
18
48
1
60
0
100
AcDbEllipse
10
73.524552
20
7.166523
30
0
11
0.155383058845486
21
0.185071625086946
31
0
210
0
220
0
230
-1
40
0.504167
41
-0.195270849728861
42
0.494949636652898
0
ELLIPSE
5
151
100
AcDbEntity
8
1
62
256
6
ByLayer
370
18
48
1
60
0
100
AcDbEllipse
10
73.683127
20
8.065541
30
0
11
0.0826833256989859
21
-0.227039667835337
31
0
210
0
220
0
230
-1
40
0.50427
41
2.94669894622356
42
-0.897088891336539
0
ELLIPSE
5
152
100
AcDbEntity
8
1
62
256
6
ByLayer
370
18
48
1
60
0
100
AcDbEllipse
10
72.825
20
7.779492
30
0
11
-1.3
21
1.59198825996909E-16
31
0
210
0
220
0
230
1
40
0.999657
41
0
42
6.28318530717959
0
ELLIPSE
5
153
100
AcDbEntity
8
1
62
256
6
ByLayer
370
18
48
1
60
0
100
AcDbEllipse
10
73.411897
20
8.452512
30
0
11
0.18517080434019
21
-0.155287236555281
31
0
210
0
220
0
230
-1
40
0.504107
41
0.339374185817535
42
1.57102444755631
0
ELLIPSE
5
154
100
AcDbEntity
8
1
62
256
6
ByLayer
370
18
48
1
60
0
100
AcDbEllipse
10
67.358104
20
-21.522624
30
0
11
12
21
0
31
0
210
0
220
0
230
1
40
0.993572
41
1.39626340159547
42
1.40825691568021
0
ELLIPSE
5
155
100
AcDbEntity
8
1
62
256
6
ByLayer
370
18
48
1
60
0
100
AcDbEllipse
10
40.418129
20
-8.399727
30
0
11
34.3460444088168
21
-1.7884920352115
31
0
210
0
220
0
230
-1
40
0.005917
41
0.670778100822844
42
0.92792420276543
0
ELLIPSE
5
156
100
AcDbEntity
8
1
62
256
6
ByLayer
370
18
48
1
60
0
100
AcDbEllipse
10
65.454585
20
-9.116462
30
0
11
0.499990784642405
21
-0.0267188062608086
31
0
210
0
220
0
230
-1
40
0.113615
41
-0.730383010393349
42
1.13680222769082
0
ELLIPSE
5
157
100
AcDbEntity
8
1
62
256
6
ByLayer
370
18
48
1
60
0
100
AcDbEllipse
10
72.677159
20
-6.904424
30
0
11
1.25
21
0
31
0
210
0
220
0
230
1
40
0.993572
41
-0.185844935885647
42
0
0
ELLIPSE
5
158
100
AcDbEntity
8
1
62
256
6
ByLayer
370
18
48
1
60
0
100
AcDbEllipse
10
72.677159
20
-6.904424
30
0
11
1.25
21
0
31
0
210
0
220
0
230
1
40
0.993572
41
0
42
-1.55960435524859
0
ELLIPSE
5
159
100
AcDbEntity
8
1
62
256
6
ByLayer
370
18
48
1
60
0
100
AcDbEllipse
10
72.677159
20
-6.904424
30
0
11
1.5
21
0
31
0
210
0
220
0
230
1
40
0.993572
41
0
42
-3.14159265358978
0
ELLIPSE
5
15A
100
AcDbEntity
8
1
62
256
6
ByLayer
370
18
48
1
60
0
100
AcDbEllipse
10
75.040927
20
-1.699727
30
0
11
0.0438022706143288
21
-3.59999699717365
31
0
210
0
220
0
230
-1
40
0.106154
41
-1.07737052685466
42
0.635475443536291
0
ELLIPSE
5
15B
100
AcDbEntity
8
1
62
256
6
ByLayer
370
18
48
1
60
0
100
AcDbEllipse
10
72.677159
20
-7.188452
30
0
11
1.25
21
0
31
0
210
0
220
0
230
1
40
0.993572
41
2.05096944578114
42
3.02702289450301
0
ELLIPSE
5
15C
100
AcDbEntity
8
1
62
256
6
ByLayer
370
18
48
1
60
0
100
AcDbEllipse
10
67.358104
20
-21.861131
30
0
11
8.99503563886042
21
9.4598150561287
31
0
210
0
220
0
230
-1
40
0.839644
41
-0.795076972304651
42
-0.684897438748557
0
ELLIPSE
5
15D
100
AcDbEntity
8
1
62
256
6
ByLayer
370
18
48
1
60
0
100
AcDbEllipse
10
70.244235
20
5.450119
30
0
11
1.26412544328357
21
0
31
0
210
0
220
0
230
1
40
0.999657
41
2.06019699515772
42
2.50604432846768
0
ELLIPSE
5
15E
100
AcDbEntity
8
1
62
256
6
ByLayer
370
18
48
1
60
0
100
AcDbEllipse
10
70.244235
20
5.473783
30
0
11
0.906586971654806
21
-0.917214566469574
31
0
210
0
220
0
230
-1
40
0.960487
41
2.94211604463161
42
-2.97135955680345
0
ELLIPSE
5
15F
100
AcDbEntity
8
1
62
256
6
ByLayer
370
18
48
1
60
0
100
AcDbEllipse
10
68.799984
20
8.20027
30
0
11
0.0528597008175141
21
-1.79967319418432
31
0
210
0
220
0
230
-1
40
0.648861
41
1.58985225916943
42
2.5635475517443
0
ELLIPSE
5
160
100
AcDbEntity
8
1
62
256
6
ByLayer
370
18
48
1
60
0
100
AcDbEllipse
10
68.790672
20
8.456331
30
0
11
0.167875627846739
21
0.640937747140897
31
0
210
0
220
0
230
-1
40
0.62155
41
0
42
6.28318530717959
0
ELLIPSE
5
161
100
AcDbEntity
8
1
62
256
6
ByLayer
370
18
48
1
60
0
100
AcDbEllipse
10
68.308934
20
6.535607
30
0
11
0.0293665004641442
21
-0.999818441203078
31
0
210
0
220
0
230
-1
40
0.648861
41
1.24789072098501
42
1.58985225918549
0
ELLIPSE
5
162
100
AcDbEntity
8
1
62
256
6
ByLayer
370
18
48
1
60
0
100
AcDbEllipse
10
70.244235
20
5.503782
30
0
11
1.26412544328357
21
0
31
0
210
0
220
0
230
1
40
0.999657
41
2.060174341999
42
2.20028949999994
0
ELLIPSE
5
163
100
AcDbEntity
8
1
62
256
6
ByLayer
370
18
48
1
60
0
100
AcDbEllipse
10
67.358104
20
21.691264
30
0
11
8.60598424080754
21
-8.70686914618415
31
0
210
0
220
0
230
-1
40
0.960487
41
0.62519334306508
42
0.736386405115788
0
ELLIPSE
5
164
100
AcDbEntity
8
1
62
256
6
ByLayer
370
18
48
1
60
0
100
AcDbEllipse
10
68.750047
20
6.981281
30
0
11
0.171120856853101
21
0.63926274725162
31
0
210
0
220
0
230
-1
40
0.626777
41
0
42
6.28318530717959
0
ELLIPSE
5
165
100
AcDbEntity
8
1
62
256
6
ByLayer
370
18
48
1
60
0
100
AcDbEllipse
10
63.905552
20
6.535607
30
0
11
-6.12303176898453E-17
21
0.999999999979201
31
0
210
0
220
0
230
-1
40
0.176327
41
1.5707963267949
42
1.70682336594539
0
ELLIPSE
5
166
100
AcDbEntity
8
1
62
256
6
ByLayer
370
18
48
1
60
0
100
AcDbEllipse
10
40.243615
20
8.20027
30
0
11
34.3460459545021
21
1.7993865578441
31
0
210
0
220
0
230
-1
40
0.001368
41
-0.914469416666306
42
-0.630423809411563
0
ELLIPSE
5
167
100
AcDbEntity
8
1
62
256
6
ByLayer
370
18
48
1
60
0
100
AcDbEllipse
10
70.244235
20
5.447502
30
0
11
-1.16412544328357
21
1.42559541449135E-16
31
0
210
0
220
0
230
1
40
0.999657
41
-1.03506623806607
42
-0.703447939869999
0
ELLIPSE
5
168
100
AcDbEntity
8
1
62
256
6
ByLayer
370
18
48
1
60
0
100
AcDbEllipse
10
63.641062
20
6.20027
30
0
11
-6.12303176910153E-17
21
0.999999999998308
31
0
210
0
220
0
230
-1
40
0.176327
41
-1.36970975138625
42
0
0
ELLIPSE
5
169
100
AcDbEntity
8
1
62
256
6
ByLayer
370
18
48
1
60
0
100
AcDbEllipse
10
72.825
20
-7.628465
30
0
11
1.36794919243112
21
0
31
0
210
0
220
0
230
1
40
0.993572
41
2.72297536934574
42
2.90440238276015
0
ELLIPSE
5
16A
100
AcDbEntity
8
1
62
256
6
ByLayer
370
18
48
1
60
0
100
AcDbEllipse
10
72.825
20
-7.628465
30
0
11
1.36794919243112
21
0
31
0
210
0
220
0
230
1
40
0.993572
41
0.000196691210195174
42
0.15217094165513
0
ELLIPSE
5
16B
100
AcDbEntity
8
1
62
256
6
ByLayer
370
18
48
1
60
0
100
AcDbEllipse
10
72.825
20
-7.098496
30
0
11
1.25
21
0
31
0
210
0
220
0
230
1
40
0.993572
41
0.79030717507769
42
-2.59191161632844
0
ELLIPSE
5
16C
100
AcDbEntity
8
1
62
256
6
ByLayer
370
18
48
1
60
0
100
AcDbEllipse
10
72.825
20
-7.064535
30
0
11
-0.95
21
1.16337603613126E-16
31
0
210
0
220
0
230
1
40
0.993572
41
0
42
6.28318530717959
0
ELLIPSE
5
16D
100
AcDbEntity
8
1
62
256
6
ByLayer
370
18
48
1
60
0
100
AcDbEllipse
10
71.675233
20
-1.4
30
0
11
-4.82442861701737E-16
21
3
31
0
210
0
220
0
230
1
40
0.104528
41
3.14159109116452
42
-2.12425957566424E-15
0
ELLIPSE
5
16E
100
AcDbEntity
8
1
62
256
6
ByLayer
370
18
48
1
60
0
100
AcDbEllipse
10
74.807977
20
-1.4
30
0
11
-5.5107285922007E-16
21
-3
31
0
210
0
220
0
230
1
40
0.104528
41
0
42
-3.14159109116425
0
ELLIPSE
5
16F
100
AcDbEntity
8
1
62
256
6
ByLayer
370
18
48
1
60
0
100
AcDbEllipse
10
71.675233
20
-1.4
30
0
11
-2.97506431382738E-16
21
1.85
31
0
210
0
220
0
230
1
40
0.104528
41
-2.2281745298001
42
-0.91351640544274
0
ELLIPSE
5
170
100
AcDbEntity
8
1
62
256
6
ByLayer
370
18
48
1
60
0
100
AcDbEllipse
10
75.15606
20
-1.4
30
0
11
-4.26157861169868E-16
21
2.65
31
0
210
0
220
0
230
1
40
0.104528
41
-2.81633991943755
42
-0.360105623148944
0
ELLIPSE
5
171
100
AcDbEntity
8
1
62
256
6
ByLayer
370
18
48
1
60
0
100
AcDbEllipse
10
72.825
20
-7.532295
30
0
11
-1.4
21
1.71444889535133E-16
31
0
210
0
220
0
230
1
40
0.993572
41
2.87946576371838
42
-2.8633655477524
0
ELLIPSE
5
172
100
AcDbEntity
8
1
62
256
6
ByLayer
370
18
48
1
60
0
100
AcDbEllipse
10
72.825
20
-7.532295
30
0
11
-1.4
21
1.71444889535133E-16
31
0
210
0
220
0
230
1
40
0.993572
41
-0.50196761110319
42
-0.237583002419508
0
ELLIPSE
5
173
100
AcDbEntity
8
1
62
256
6
ByLayer
370
18
48
1
60
0
100
AcDbEllipse
10
75.603125
20
-5.485721
30
0
11
0.396875000000001
21
0
31
0
210
0
220
0
230
1
40
0.993572
41
0
42
1.39626340159544
0
ELLIPSE
5
174
100
AcDbEntity
8
1
62
256
6
ByLayer
370
18
48
1
60
0
100
AcDbEllipse
10
70.046875
20
-9.848434
30
0
11
0.104494264349959
21
0
31
0
210
0
220
0
230
1
40
0.993572
41
3.14159265358979
42
-1.7453292519943
0
ELLIPSE
5
175
100
AcDbEntity
8
1
62
256
6
ByLayer
370
18
48
1
60
0
100
AcDbEllipse
10
75.603125
20
-10.821853
30
0
11
0.104494264349958
21
0
31
0
210
0
220
0
230
1
40
0.993572
41
-1.74532925199402
42
0
0
ELLIPSE
5
176
100
AcDbEntity
8
1
62
256
6
ByLayer
370
18
48
1
60
0
100
AcDbEllipse
10
75.603125
20
-11.091418
30
0
11
0.396875
21
0
31
0
210
0
220
0
230
1
40
0.993572
41
-1.74532925199435
42
0
0
ELLIPSE
5
177
100
AcDbEntity
8
1
62
256
6
ByLayer
370
18
48
1
60
0
100
AcDbEllipse
10
72.825
20
-7.558918
30
0
11
1.4
21
0
31
0
210
0
220
0
230
1
40
0.993572
41
2.65022759995716
42
2.89409380089294
0
ELLIPSE
5
178
100
AcDbEntity
8
1
62
256
6
ByLayer
370
18
48
1
60
0
100
AcDbEllipse
10
72.825
20
-7.558918
30
0
11
1.4
21
0
31
0
210
0
220
0
230
1
40
0.993572
41
0
42
0.251916138794246
0
ELLIPSE
5
179
100
AcDbEntity
8
1
62
256
6
ByLayer
370
18
48
1
60
0
100
AcDbEllipse
10
70.046875
20
-10.117999
30
0
11
0.396875000000001
21
0
31
0
210
0
220
0
230
1
40
0.993572
41
3.14159265358979
42
-1.74532925199435
0
ELLIPSE
5
17A
100
AcDbEntity
8
1
62
256
6
ByLayer
370
18
48
1
60
0
100
AcDbEllipse
10
75.603125
20
-5.216156
30
0
11
0.10449426434996
21
0
31
0
210
0
220
0
230
1
40
0.993572
41
0
42
1.39626340159522
0
ELLIPSE
5
17B
100
AcDbEntity
8
1
62
256
6
ByLayer
370
18
48
1
60
0
100
AcDbEllipse
10
340.01366
20
0
30
0
11
286.362532823606
21
2.89409159583841E-13
31
0
210
0
220
0
230
-1
40
0.034921
41
-3.04449402471351
42
-2.85976949073182
0
ELLIPSE
5
17C
100
AcDbEntity
8
1
62
256
6
ByLayer
370
18
48
1
60
0
100
AcDbEllipse
10
-0.928203
20
0
30
0
11
7.49393430382929
21
15.7933993222048
31
0
210
0
220
0
230
-1
40
0.341999
41
0.161466571197684
42
1.0875792012003
0
ELLIPSE
5
17D
100
AcDbEntity
8
1
62
256
6
ByLayer
370
18
48
1
60
0
100
AcDbEllipse
10
340.01366
20
0
30
0
11
286.362532849254
21
2.89409159609762E-13
31
0
210
0
220
0
230
-1
40
0.034921
41
2.85976949074443
42
3.04449402471529
0
ELLIPSE
5
17E
100
AcDbEntity
8
1
62
256
6
ByLayer
370
18
48
1
60
0
100
AcDbEllipse
10
66.289547
20
0
30
0
11
-6.12303176526931E-16
21
9.99999999372439
31
0
210
0
220
0
230
-1
40
0.139651
41
-1.13103521415409
42
-1.08774626981869
0
ELLIPSE
5
17F
100
AcDbEntity
8
1
62
256
6
ByLayer
370
18
48
1
60
0
100
AcDbEllipse
10
219.679029
20
0
30
0
11
161.953796840887
21
-7.08184473008684
31
0
210
0
220
0
230
-1
40
0.043594
41
2.83771929677673
42
3.04916750567081
0
ELLIPSE
5
180
100
AcDbEntity
8
1
62
256
6
ByLayer
370
18
48
1
60
0
100
AcDbEllipse
10
66.289547
20
0
30
0
11
-6.12303176910348E-16
21
9.99999999998628
31
0
210
0
220
0
230
-1
40
0.139651
41
-2.72658416919968
42
-1.8526194896495
0
ELLIPSE
5
181
100
AcDbEntity
8
1
62
256
6
ByLayer
370
18
48
1
60
0
100
AcDbEllipse
10
-0.928203
20
0
30
0
11
7.49393430382844
21
-15.7933993222038
31
0
210
0
220
0
230
-1
40
0.341999
41
-1.08757920120035
42
-0.161466571197684
0
ELLIPSE
5
182
100
AcDbEntity
8
1
62
256
6
ByLayer
370
18
48
1
60
0
100
AcDbEllipse
10
12.928203
20
0
30
0
11
7.49393430382859
21
-15.793399322204
31
0
210
0
220
0
230
-1
40
0.341999
41
2.05401345238945
42
2.98012608239211
0
ELLIPSE
5
183
100
AcDbEntity
8
1
62
256
6
ByLayer
370
18
48
1
60
0
100
AcDbEllipse
10
61.6945
20
-1E-06
30
0
11
9.2301652541296
21
3.84760228716655
31
0
210
0
220
0
230
-1
40
1
41
1.55073589362351
42
1.58936089685937
0
ELLIPSE
5
184
100
AcDbEntity
8
1
62
256
6
ByLayer
370
18
48
1
60
0
100
AcDbEllipse
10
12.928203
20
0
30
0
11
7.4939343038175
21
15.7933993221901
31
0
210
0
220
0
230
-1
40
0.341999
41
-2.980126082392
42
-2.05401345238878
0
ELLIPSE
5
185
100
AcDbEntity
8
1
62
256
6
ByLayer
370
18
48
1
60
0
100
AcDbEllipse
10
70.046875
20
10.110165
30
0
11
-0.396875000000001
21
4.86015646673257E-17
31
0
210
0
220
0
230
1
40
0.999657
41
-1.39626340159544
42
3.58191639958073E-14
0
ELLIPSE
5
186
100
AcDbEntity
8
1
62
256
6
ByLayer
370
18
48
1
60
0
100
AcDbEllipse
10
72.825
20
7.76204
30
0
11
-1.875
21
2.29613691341696E-16
31
0
210
0
220
0
230
1
40
0.999657
41
0
42
6.28318530717959
0
ELLIPSE
5
187
100
AcDbEntity
8
1
62
256
6
ByLayer
370
18
48
1
60
0
100
AcDbEllipse
10
75.603125
20
11.089546
30
0
11
-0.396875
21
4.86015646673256E-17
31
0
210
0
220
0
230
1
40
0.999657
41
3.14159265358976
42
-1.39626340159544
0
ELLIPSE
5
188
100
AcDbEntity
8
1
62
256
6
ByLayer
370
18
48
1
60
0
100
AcDbEllipse
10
72.825
20
7.77984
30
0
11
1.92255023212159
21
0
31
0
210
0
220
0
230
1
40
0.999657
41
0
42
6.28318530717959
0
ELLIPSE
5
189
100
AcDbEntity
8
1
62
256
6
ByLayer
370
18
48
1
60
0
100
AcDbEllipse
10
75.603125
20
5.449515
30
0
11
-0.396875000000001
21
4.86015646673257E-17
31
0
210
0
220
0
230
1
40
0.999657
41
1.74532925199428
42
3.14159265358979
0
ELLIPSE
5
18A
100
AcDbEntity
8
1
62
256
6
ByLayer
370
18
48
1
60
0
100
AcDbEllipse
10
75.35606
20
1.4
30
0
11
-2.78538516072112E-16
21
1.73205080756888
31
0
210
0
220
0
230
1
40
0.104528
41
-0.44058274446342
42
0.606614806733162
0
ELLIPSE
5
18B
100
AcDbEntity
8
1
62
256
6
ByLayer
370
18
48
1
60
0
100
AcDbEllipse
10
75.35606
20
1.4
30
0
11
-2.78538516072112E-16
21
1.73205080756888
31
0
210
0
220
0
230
1
40
0.104528
41
-2.86031210139298
42
-2.53497784685663
0
ELLIPSE
5
18C
100
AcDbEntity
8
1
62
256
6
ByLayer
370
18
48
1
60
0
100
AcDbEllipse
10
75.007977
20
1.4
30
0
11
-5.5107285922007E-16
21
-3
31
0
210
0
220
0
230
1
40
0.104528
41
-2.21079766463992
42
-1.62675595741784
0
ELLIPSE
5
18D
100
AcDbEntity
8
1
62
256
6
ByLayer
370
18
48
1
60
0
100
AcDbEllipse
10
75.35606
20
1.4
30
0
11
-4.26157861169868E-16
21
2.65
31
0
210
0
220
0
230
1
40
0.104528
41
0.775384597827164
42
1.53898781456073
0
ELLIPSE
5
18E
100
AcDbEntity
8
1
62
256
6
ByLayer
370
18
48
1
60
0
100
AcDbEllipse
10
75.35606
20
1.4
30
0
11
-4.26157861169868E-16
21
2.65
31
0
210
0
220
0
230
1
40
0.104528
41
-2.86464098166934
42
-0.159336376935821
0
ELLIPSE
5
18F
100
AcDbEntity
8
1
62
256
6
ByLayer
370
18
48
1
60
0
100
AcDbEllipse
10
75.35606
20
1.4
30
0
11
-2.78538516072112E-16
21
1.73205080756888
31
0
210
0
220
0
230
1
40
0.104528
41
-1.48778029566005
42
-0.44058274446342
0
ELLIPSE
5
190
100
AcDbEntity
8
1
62
256
6
ByLayer
370
18
48
1
60
0
100
AcDbEllipse
10
75.35606
20
1.4
30
0
11
-2.78538516072112E-16
21
1.73205080756888
31
0
210
0
220
0
230
1
40
0.104528
41
0.606614806733162
42
1.65381235792974
0
ELLIPSE
5
191
100
AcDbEntity
8
1
62
256
6
ByLayer
370
18
48
1
60
0
100
AcDbEllipse
10
75.35606
20
1.4
30
0
11
-2.78538516072112E-16
21
1.73205080756888
31
0
210
0
220
0
230
1
40
0.104528
41
-2.53497784685663
42
-1.48778029566005
0
ELLIPSE
5
192
100
AcDbEntity
8
1
62
256
6
ByLayer
370
18
48
1
60
0
100
AcDbEllipse
10
71.345014
20
-1.4
30
0
11
-3.22377622643741E-16
21
-1.755
31
0
210
0
220
0
230
1
40
0.104528
41
0
42
0.799928329467588
0
ELLIPSE
5
193
100
AcDbEntity
8
1
62
256
6
ByLayer
370
18
48
1
60
0
100
AcDbEllipse
10
71.148136
20
-1.4
30
0
11
-6.49070797433388E-16
21
-3.53349354757925
31
0
210
0
220
0
230
1
40
0.104528
41
0.383470408571589
42
2.01130643502292
0
ELLIPSE
5
194
100
AcDbEntity
8
1
62
256
6
ByLayer
370
18
48
1
60
0
100
AcDbEllipse
10
71.474314
20
-1.4
30
0
11
-6.55776702471883E-16
21
-3.57
31
0
210
0
220
0
230
1
40
0.104528
41
0.440706314518012
42
3.1203848922984
0
POINT
5
6C
100
AcDbEntity
8
80
62
256
6
ByLayer
370
13
48
1
60
0
100
AcDbPoint
10
0
20
0
30
0
39
0
210
0
220
0
230
1
50
360
0
POINT
5
6E
100
AcDbEntity
8
81
62
256
6
ByLayer
370
18
48
1
60
0
100
AcDbPoint
10
76
20
11.486285
30
0
39
0
210
0
220
0
230
1
50
360
0
SPLINE
5
195
100
AcDbEntity
8
SK1
62
256
6
ByLayer
370
18
48
1
60
0
100
AcDbSpline
70
4
71
2
72
6
73
3
40
0
40
0
40
0
40
1
40
1
40
1
41
1
10
-18.0003154452711
20
-10.6105781038671
30
0
41
1
10
-10.2501577226355
20
-10.8052890415268
30
0
41
1
10
-2.5
20
-10.9999999791865
30
0
0
SPLINE
5
196
100
AcDbEntity
8
SK1
62
256
6
ByLayer
370
18
48
1
60
0
100
AcDbSpline
70
4
71
2
72
6
73
3
40
0
40
0
40
0
40
1
40
1
40
1
41
1
10
-2.5
20
-10.9999999791865
30
0
41
1
10
-2.09996938540178
20
-11.0100501405959
30
0
41
1
10
-1.69993877080357
20
-11.0201003020053
30
0
0
SPLINE
5
197
100
AcDbEntity
8
SK1
62
256
6
ByLayer
370
18
48
1
60
0
100
AcDbSpline
70
4
71
3
72
65
73
61
40
0
40
0
40
0
40
0
40
0.0385802687881515
40
0.077161822956478
40
0.115741507542561
40
0.144681606805133
40
0.173624067464443
40
0.202565604936481
40
0.231504445197291
40
0.254897537675559
40
0.278297957660248
40
0.301697146444028
40
0.32509037227216
40
0.348477429200904
40
0.363797933096877
40
0.379119913062429
40
0.394438008273123
40
0.403742210745375
40
0.413057499559444
40
0.422369521992291
40
0.431671010820326
40
0.440963626688589
40
0.446755388282648
40
0.452558682565464
40
0.4583505223815
40
0.464126627429741
40
0.468638285860722
40
0.473145070498533
40
0.476192237350541
40
0.479247578810218
40
0.482286625300233
40
0.485600569144588
40
0.488914275395058
40
0.492215155522657
40
0.495519353648396
40
0.499153072008384
40
0.502801507877514
40
0.506444684321219
40
0.512034508195028
40
0.517639516822088
40
0.523264016037476
40
0.528895105779331
40
0.534506871525261
40
0.545491335515694
40
0.556485394061695
40
0.567491877980914
40
0.578502670037617
40
0.589501182550461
40
0.608126106028806
40
0.626754769639897
40
0.645382289314837
40
0.674868929763775
40
0.704359813040786
40
0.733853671202451
40
0.763344368821507
40
0.802639790714408
40
0.841936508283538
40
0.881232741620488
40
0.940616226016774
40
1
40
1
40
1
40
1
41
1
10
-1.69996579738209
20
-2.34399541728098
30
0
41
1
10
-1.69992573099713
20
-2.3302819154012
30
0
41
1
10
-1.69975112461217
20
-2.30282782686052
30
0
41
1
10
-1.69922057383455
20
-2.26156687189718
30
0
41
1
10
-1.6984473150492
20
-2.22367001968987
30
0
41
1
10
-1.69749965251179
20
-2.18916127379355
30
0
41
1
10
-1.69643099697973
20
-2.15805828643633
30
0
41
1
10
-1.69511755887307
20
-2.12691475840382
30
0
41
1
10
-1.69362641427983
20
-2.0977256651266
30
0
41
1
10
-1.69200846231297
20
-2.0705011104063
30
0
41
1
10
-1.69028023485284
20
-2.04524833499101
30
0
41
1
10
-1.68826414392458
20
-2.01997970436433
30
0
41
1
10
-1.68590604325312
20
-1.9947084252772
30
0
41
1
10
-1.68346957793931
20
-1.97235085527167
30
0
41
1
10
-1.68105807325991
20
-1.95291529206589
30
0
41
1
10
-1.67874847668135
20
-1.93640424251492
30
0
41
1
10
-1.67645959612974
20
-1.92208992222768
30
0
41
1
10
-1.67430666818139
20
-1.90996482050692
30
0
41
1
10
-1.6723720078312
20
-1.90001863967176
30
0
41
1
10
-1.67021764372776
20
-1.89012766339579
30
0
41
1
10
-1.66779580803865
20
-1.88032637726902
30
0
41
1
10
-1.6653990904099
20
-1.87186588803631
30
0
41
1
10
-1.66312706939086
20
-1.86472065577576
30
0
41
1
10
-1.66104116521665
20
-1.85887487272594
30
0
41
1
10
-1.65870406353397
20
-1.85319332909936
30
0
41
1
10
-1.65626147013294
20
-1.84814762115922
30
0
41
1
10
-1.65374422702645
20
-1.8437665461343
30
0
41
1
10
-1.65144502734463
20
-1.84048375183937
30
0
41
1
10
-1.64921921143985
20
-1.83792648982378
30
0
41
1
10
-1.64715735840889
20
-1.83601741809869
30
0
41
1
10
-1.64489839499413
20
-1.83443312303759
30
0
41
1
10
-1.64245828984503
20
-1.83333174252829
30
0
41
1
10
-1.63990011478464
20
-1.83278575205016
30
0
41
1
10
-1.63736711544252
20
-1.83285790229725
30
0
41
1
10
-1.63483461519089
20
-1.83346706238733
30
0
41
1
10
-1.63234022928093
20
-1.834592963098
30
0
41
1
10
-1.62990999350661
20
-1.83616562185993
30
0
41
1
10
-1.62721026359083
20
-1.83840036063645
30
0
41
1
10
-1.62429880643481
20
-1.84136721953236
30
0
41
1
10
-1.62124264949137
20
-1.84513344184952
30
0
41
1
10
-1.61839672278429
20
-1.84922453962972
30
0
41
1
10
-1.61572916498331
20
-1.8535498737682
30
0
41
1
10
-1.6123925098547
20
-1.85946202291679
30
0
41
1
10
-1.60849133690731
20
-1.86707182883537
30
0
41
1
10
-1.60417786742033
20
-1.87652503562275
30
0
41
1
10
-1.60015182840449
20
-1.886256641682
30
0
41
1
10
-1.5963609604987
20
-1.89619328434181
30
0
41
1
10
-1.5919028191775
20
-1.90859071752988
30
0
41
1
10
-1.5868679147184
20
-1.92351294857798
30
0
41
1
10
-1.58139014101563
20
-1.94105028909345
30
0
41
1
10
-1.57517529137439
20
-1.96221772024803
30
0
41
1
10
-1.56832017527484
20
-1.98706575805521
30
0
41
1
10
-1.56094703031981
20
-2.01565377518783
30
0
41
1
10
-1.55394199409444
20
-2.04444584852521
30
0
41
1
10
-1.54648019188776
20
-2.07658975403803
30
0
41
1
10
-1.53859734995596
20
-2.1120885782753
30
0
41
1
10
-1.53036903069701
20
-2.15096763176513
30
0
41
1
10
-1.52109580634419
20
-2.19660936090068
30
0
41
1
10
-1.51091064543195
20
-2.24904655389565
30
0
41
1
10
-1.50357915173015
20
-2.28853614529452
30
0
41
1
10
-1.50000000000001
20
-2.30830715862381
30
0
0
SPLINE
5
198
100
AcDbEntity
8
SK1
62
256
6
ByLayer
370
18
48
1
60
0
100
AcDbSpline
70
4
71
3
72
180
73
176
40
0
40
0
40
0
40
0
40
0.0034728056733933
40
0.0069456119999348
40
0.0104190394899507
40
0.0138924675883114
40
0.0186620464828766
40
0.0234318890109261
40
0.0282018336875939
40
0.0329717031784984
40
0.0377413046883311
40
0.0425193375566374
40
0.0472976008017914
40
0.0520759519937893
40
0.0568542363210133
40
0.0616322868719146
40
0.0664015582458711
40
0.0711710316475851
40
0.0759405812566749
40
0.0807100714174999
40
0.0854793568480845
40
0.0902551571980854
40
0.0950311389013807
40
0.0998071881773814
40
0.104583183347313
40
0.109358994992344
40
0.114128073243028
40
0.118897314787329
40
0.123666616369776
40
0.128435868518588
40
0.133204955663684
40
0.137979342749702
40
0.142753879504408
40
0.147528470959114
40
0.152303016813246
40
0.157077411531282
40
0.163038620129025
40
0.169000009966599
40
0.17496140610704
40
0.180922623299861
40
0.186883770109843
40
0.192845085121948
40
0.198806405274786
40
0.204767559095053
40
0.21072865611332
40
0.216689910840293
40
0.222651170301613
40
0.228612273775976
40
0.234627532110036
40
0.240642943054904
40
0.246658357545242
40
0.252673620714153
40
0.259032557334967
40
0.265391746502687
40
0.271751025870959
40
0.278110226413495
40
0.284469172574858
40
0.290828039097092
40
0.297187143953036
40
0.303546333501029
40
0.309905448275265
40
0.31626432311638
40
0.322655966352512
40
0.329047839648735
40
0.335439793272923
40
0.341831673446654
40
0.348223322451227
40
0.354582082025667
40
0.360941058764885
40
0.367300110611944
40
0.373659092484518
40
0.380017856364501
40
0.386376582479502
40
0.392735518775396
40
0.399094528008393
40
0.405453469737121
40
0.411812200408844
40
0.418199495322417
40
0.424586997754906
40
0.430974570972057
40
0.437362076439513
40
0.443749373898625
40
0.450108049070359
40
0.456466924584058
40
0.46282586791635
40
0.469184745378197
40
0.475543422183914
40
0.481902085544662
40
0.488260946722614
40
0.49461987508814
40
0.50097873861418
40
0.507337403944354
40
0.513722718512114
40
0.520108232238721
40
0.526493812378998
40
0.532879326136627
40
0.539264640730407
40
0.545623293177031
40
0.551982141759428
40
0.558341055465156
40
0.564699903542642
40
0.57105855556578
40
0.577417214581624
40
0.58377607104229
40
0.590134993193586
40
0.596493849397626
40
0.602852508198227
40
0.60923754731167
40
0.615622788918841
40
0.622008096580234
40
0.628393335424699
40
0.63477837222096
40
0.641137056824581
40
0.647495944742013
40
0.653854898816288
40
0.660213783646448
40
0.666572465660661
40
0.672931176377151
40
0.679290095834513
40
0.685649083197116
40
0.692007999450901
40
0.698366707480432
40
0.704753085888933
40
0.711139682873765
40
0.71752634956911
40
0.723912940549079
40
0.730299313921071
40
0.736658095539113
40
0.743017101328815
40
0.749376178206031
40
0.75573517706172
40
0.762093952863933
40
0.768452787734413
40
0.774811857900127
40
0.781171002593555
40
0.787530065313983
40
0.7938888939398
40
0.800278659577154
40
0.806668678135233
40
0.813058775389849
40
0.81944878325392
40
0.825838539921755
40
0.831799570721828
40
0.837760745123339
40
0.843721915881638
40
0.849682941713575
40
0.855648689993388
40
0.861614590588454
40
0.867580487389044
40
0.873546230494439
40
0.879507346252555
40
0.88546862347776
40
0.891429895536413
40
0.89739100424904
40
0.903357453183869
40
0.909324075460075
40
0.915290692022986
40
0.921257133166731
40
0.926026105200817
40
0.930795222321384
40
0.935564383574745
40
0.940333492641349
40
0.945102457920294
40
0.949871491172364
40
0.954640682593774
40
0.959409921444767
40
0.964179102784444
40
0.968948127580588
40
0.973717236579411
40
0.978486519806286
40
0.983255854830703
40
0.988025126097922
40
0.992794225065701
40
0.997616532950611
40
1
40
1
40
1
40
1
41
1
10
-1.69996579738208
20
-2.34399541728098
30
0
41
1
10
-1.69996606385997
20
-2.36209705200412
30
0
41
1
10
-1.69996659261773
20
-2.39825201847879
30
0
41
1
10
-1.69996737354659
20
-2.45234306638612
30
0
41
1
10
-1.69996814124558
20
-2.5062918144361
30
0
41
1
10
-1.69996899004495
20
-2.56679047012487
30
0
41
1
10
-1.69996991462727
20
-2.63376610240542
30
0
41
1
10
-1.69997090763717
20
-2.70713632324939
30
0
41
1
10
-1.69997187660661
20
-2.7802281881877
30
0
41
1
10
-1.69997282111808
20
-2.85303766910703
30
0
41
1
10
-1.69997374113737
20
-2.92560588146491
30
0
41
1
10
-1.69997463683209
20
-2.99793299419662
30
0
41
1
10
-1.69997550896339
20
-3.07001914021332
30
0
41
1
10
-1.6999763570137
20
-3.14182035096276
30
0
41
1
10
-1.69997718117229
20
-3.21333344767404
30
0
41
1
10
-1.69997798112766
20
-3.28451365300087
30
0
41
1
10
-1.69997875705935
20
-3.35536239886945
30
0
41
1
10
-1.69997950940167
20
-3.42588111250485
30
0
41
1
10
-1.69998023907576
20
-3.4961122687841
30
0
41
1
10
-1.69998094649061
20
-3.56605333628375
30
0
41
1
10
-1.69998163237816
20
-3.63573526692704
30
0
41
1
10
-1.69998229718263
20
-3.70515838691713
30
0
41
1
10
-1.6999829413009
20
-3.77432291845439
30
0
41
1
10
-1.69998356479583
20
-3.84319655999687
30
0
41
1
10
-1.69998416804108
20
-3.91177718136772
30
0
41
1
10
-1.69998475111159
20
-3.98003207017422
30
0
41
1
10
-1.69998531452738
20
-4.047962608024
30
0
41
1
10
-1.69998585892911
20
-4.11557002930561
30
0
41
1
10
-1.69998638505785
20
-4.18288561807932
30
0
41
1
10
-1.69998689338658
20
-4.24990749374736
30
0
41
1
10
-1.69998738467117
20
-4.31665982492749
30
0
41
1
10
-1.69998785909949
20
-4.38314293795903
30
0
41
1
10
-1.69998831686987
20
-4.44935717745392
30
0
41
1
10
-1.6999887583892
20
-4.51527748485309
30
0
41
1
10
-1.69998918414125
20
-4.58090229245543
30
0
41
1
10
-1.69998962861934
20
-4.65164432540942
30
0
41
1
10
-1.69999008788224
20
-4.72741281754912
30
0
41
1
10
-1.69999055765277
20
-4.80810668670569
30
0
41
1
10
-1.69999100585888
20
-4.88833916471781
30
0
41
1
10
-1.69999143306402
20
-4.9681086134524
30
0
41
1
10
-1.69999184001571
20
-5.0474157446855
30
0
41
1
10
-1.69999222769628
20
-5.12626105371557
30
0
41
1
10
-1.69999259687362
20
-5.20464344629953
30
0
41
1
10
-1.69999294842672
20
-5.28256155502512
30
0
41
1
10
-1.69999328298977
20
-5.36001529179981
30
0
41
1
10
-1.69999360096801
20
-5.43700478319074
30
0
41
1
10
-1.69999390301493
20
-5.51352944588725
30
0
41
1
10
-1.69999419052371
20
-5.58981871780708
30
0
41
1
10
-1.6999944641204
20
-5.66586820730894
30
0
41
1
10
-1.69999472442464
20
-5.74167280372927
30
0
41
1
10
-1.69999497112616
20
-5.81700217107457
30
0
41
1
10
-1.69999520932363
20
-5.89328031382194
30
0
41
1
10
-1.69999543853501
20
-5.97047564857211
30
0
41
1
10
-1.69999565833936
20
-6.04855574654723
30
0
41
1
10
-1.69999586525822
20
-6.12610332046583
30
0
41
1
10
-1.69999605993218
20
-6.20311563960787
30
0
41
1
10
-1.69999624304949
20
-6.27959163104628
30
0
41
1
10
-1.69999641520608
20
-6.35553122885098
30
0
41
1
10
-1.69999657675165
20
-6.43093445419645
30
0
41
1
10
-1.69999672811778
20
-6.50580097788581
30
0
41
1
10
-1.69999686972215
20
-6.58012835328077
30
0
41
1
10
-1.69999700216506
20
-6.65404254535038
30
0
41
1
10
-1.69999712596735
20
-6.72754098562112
30
0
41
1
10
-1.69999724157568
20
-6.80062049803545
30
0
41
1
10
-1.69999734907271
20
-6.87315384162137
30
0
41
1
10
-1.6999974488049
20
-6.94513820130374
30
0
41
1
10
-1.69999754094687
20
-7.01644947326023
30
0
41
1
10
-1.69999762588257
20
-7.08709159640613
30
0
41
1
10
-1.69999770394542
20
-7.15706839148516
30
0
41
1
10
-1.69999777556859
20
-7.22649970913117
30
0
41
1
10
-1.69999784103256
20
-7.2953826798828
30
0
41
1
10
-1.69999790064015
20
-7.36371575416855
30
0
41
1
10
-1.69999795461458
20
-7.43149805114606
30
0
41
1
10
-1.69999800305794
20
-7.49872916391823
30
0
41
1
10
-1.69999804615046
20
-7.56540826841484
30
0
41
1
10
-1.69999808405247
20
-7.63153294978352
30
0
41
1
10
-1.69999811696972
20
-7.6972003924711
30
0
41
1
10
-1.69999814506998
20
-7.7624073304521
30
0
41
1
10
-1.69999816842886
20
-7.82714985673413
30
0
41
1
10
-1.69999818706603
20
-7.89132890904173
30
0
41
1
10
-1.69999820105338
20
-7.95494153944507
30
0
41
1
10
-1.69999821044419
20
-8.01789154798135
30
0
41
1
10
-1.6999982153373
20
-8.08018194931599
30
0
41
1
10
-1.69999821574823
20
-8.14181569173228
30
0
41
1
10
-1.69999821166792
20
-8.20288392339811
30
0
41
1
10
-1.69999820308339
20
-8.2633836105786
30
0
41
1
10
-1.69999818997528
20
-8.32331285438
30
0
41
1
10
-1.69999817234481
20
-8.38267009418906
30
0
41
1
10
-1.69999815010908
20
-8.44145421796501
30
0
41
1
10
-1.69999812316517
20
-8.49966381214041
30
0
41
1
10
-1.69999809141174
20
-8.55729617615583
30
0
41
1
10
-1.69999805471036
20
-8.61442948540863
30
0
41
1
10
-1.69999801288776
20
-8.67105983823261
30
0
41
1
10
-1.69999796570791
20
-8.72718258942161
30
0
41
1
10
-1.6999979130787
20
-8.78271646217357
30
0
41
1
10
-1.6999978548349
20
-8.83765804328842
30
0
41
1
10
-1.69999779090087
20
-8.89192895177696
30
0
41
1
10
-1.69999772114834
20
-8.94553134015799
30
0
41
1
10
-1.69999764530268
20
-8.99846743911474
30
0
41
1
10
-1.69999756295156
20
-9.05080930659003
30
0
41
1
10
-1.69999747378994
20
-9.10255350192732
30
0
41
1
10
-1.6999973774883
20
-9.15369765217808
30
0
41
1
10
-1.69999727379722
20
-9.20423925240991
30
0
41
1
10
-1.69999716243118
20
-9.25417616598669
30
0
41
1
10
-1.69999704302814
20
-9.30350627533211
30
0
41
1
10
-1.69999691523377
20
-9.35222633539483
30
0
41
1
10
-1.69999677855639
20
-9.40040058965419
30
0
41
1
10
-1.69999663242421
20
-9.44802430608601
30
0
41
1
10
-1.69999647620186
20
-9.49509188131445
30
0
41
1
10
-1.69999630972378
20
-9.54153433289088
30
0
41
1
10
-1.69999613257157
20
-9.58734752824076
30
0
41
1
10
-1.69999594457627
20
-9.63246566869607
30
0
41
1
10
-1.69999574543968
20
-9.67689005810888
30
0
41
1
10
-1.69999553461083
20
-9.72062216242091
30
0
41
1
10
-1.69999531112521
20
-9.76371967188922
30
0
41
1
10
-1.6999950743295
20
-9.80617843488046
30
0
41
1
10
-1.69999482352029
20
-9.8479952995323
30
0
41
1
10
-1.69999455813682
20
-9.88916667500278
30
0
41
1
10
-1.69999427766756
20
-9.92968920596095
30
0
41
1
10
-1.69999398146936
20
-9.9695597469118
30
0
41
1
10
-1.69999366890421
20
-10.0087741510418
30
0
41
1
10
-1.69999333898324
20
-10.0473850270537
30
0
41
1
10
-1.69999299056399
20
-10.0853860931369
30
0
41
1
10
-1.6999926224353
20
-10.122770112488
30
0
41
1
10
-1.69999223452066
20
-10.1594776677695
30
0
41
1
10
-1.69999182611293
20
-10.1955035957751
30
0
41
1
10
-1.69999139711484
20
-10.2307921786631
30
0
41
1
10
-1.69999094704671
20
-10.265343896006
30
0
41
1
10
-1.69999047494999
20
-10.299159185247
30
0
41
1
10
-1.69998997895199
20
-10.3322829325395
30
0
41
1
10
-1.6999894579273
20
-10.3647097082756
30
0
41
1
10
-1.6999889105463
20
-10.3964349125406
30
0
41
1
10
-1.69998833614724
20
-10.4274536024289
30
0
41
1
10
-1.69998773413346
20
-10.4577610036559
30
0
41
1
10
-1.69998710325955
20
-10.4873523602914
30
0
41
1
10
-1.69998644241066
20
-10.5162220833589
30
0
41
1
10
-1.69998574951459
20
-10.5444110752433
30
0
41
1
10
-1.69998502258342
20
-10.5719100704634
30
0
41
1
10
-1.69998425976462
20
-10.598708843653
30
0
41
1
10
-1.69998346143671
20
-10.6247570372973
30
0
41
1
10
-1.69998262656978
20
-10.6500479488108
30
0
41
1
10
-1.69998177376613
20
-10.67402669165
30
0
41
1
10
-1.6999809047558
20
-10.6967470238097
30
0
41
1
10
-1.69998002058493
20
-10.7182615862428
30
0
41
1
10
-1.69997909944205
20
-10.7390962672395
30
0
41
1
10
-1.6999781392678
20
-10.7592506375067
30
0
41
1
10
-1.69997713920183
20
-10.7787179865194
30
0
41
1
10
-1.69997609873516
20
-10.7974918327272
30
0
41
1
10
-1.69997501661842
20
-10.8155613065488
30
0
41
1
10
-1.6999738921534
20
-10.8329159992131
30
0
41
1
10
-1.69997272332177
20
-10.8495508846042
30
0
41
1
10
-1.69997150799713
20
-10.8654596878775
30
0
41
1
10
-1.69997024477184
20
-10.8806394653617
30
0
41
1
10
-1.69996893162953
20
-10.8950870583551
30
0
41
1
10
-1.69996756789344
20
-10.9087949960881
30
0
41
1
10
-1.69996615220406
20
-10.9217557300432
30
0
41
1
10
-1.69996468269013
20
-10.9339574000801
30
0
41
1
10
-1.69996325950266
20
-10.9446274858779
30
0
41
1
10
-1.69996189299264
20
-10.9539289315345
30
0
41
1
10
-1.69996059387734
20
-10.9620125968328
30
0
41
1
10
-1.69995925610127
20
-10.9695925419767
30
0
41
1
10
-1.69995787902363
20
-10.9766642051552
30
0
41
1
10
-1.69995646214278
20
-10.9832231089534
30
0
41
1
10
-1.69995500440867
20
-10.9892650982956
30
0
41
1
10
-1.6999535042534
20
-10.9947854342279
30
0
41
1
10
-1.69995196063877
20
-10.9997788824533
30
0
41
1
10
-1.69995037247588
20
-11.0042402101516
30
0
41
1
10
-1.69994873842533
20
-11.0081642296108
30
0
41
1
10
-1.69994705804331
20
-11.011545834719
30
0
41
1
10
-1.69994533086313
20
-11.0143795484222
30
0
41
1
10
-1.69994355553164
20
-11.0166596537952
30
0
41
1
10
-1.69994173095134
20
-11.0183804367566
30
0
41
1
10
-1.69993984902268
20
-11.0195403834335
30
0
41
1
10
-1.69993823615118
20
-11.0200274191725
30
0
41
1
10
-1.69993779044438
20
-11.0201003798049
30
0
41
1
10
-1.69993657994476
20
-11.0201004558265
30
0
0
SPLINE
5
199
100
AcDbEntity
8
SK1
62
256
6
ByLayer
370
18
48
1
60
0
100
AcDbSpline
70
4
71
3
72
84
73
80
40
0
40
0
40
0
40
0
40
0.0155931578223318
40
0.0311869675377442
40
0.04678073117575
40
0.0623738261625935
40
0.0779675291687816
40
0.0935619987473321
40
0.109156410916284
40
0.124750035632754
40
0.137225454772625
40
0.149701590031166
40
0.162177917179629
40
0.174653963099665
40
0.187129307306209
40
0.199807704347395
40
0.212487001932498
40
0.225166537917841
40
0.23784571756363
40
0.25052401568102
40
0.26315342033909
40
0.275783888132449
40
0.288414640774121
40
0.301044975811197
40
0.313674269116009
40
0.326304560169348
40
0.338936097969189
40
0.351567981299053
40
0.364199385311814
40
0.376829564145654
40
0.38961677203785
40
0.402405440071374
40
0.41519453838409
40
0.427983098518043
40
0.440770215903553
40
0.452991870097939
40
0.46521442199733
40
0.477436954674634
40
0.489658582655151
40
0.501880287494326
40
0.514102901004263
40
0.526325512707522
40
0.538547215082862
40
0.550768786057719
40
0.562991237899284
40
0.575213707040131
40
0.587435301606611
40
0.59994710362224
40
0.612459786896567
40
0.624972507065614
40
0.637484359395742
40
0.649414319070273
40
0.661345281299715
40
0.673276632730128
40
0.685207698781744
40
0.697137745540316
40
0.709066998050482
40
0.720997107109834
40
0.732927555866224
40
0.744857767192601
40
0.756787105481327
40
0.768839862382662
40
0.780893364371211
40
0.79294716507566
40
0.805000762115536
40
0.817053598742318
40
0.829223660352078
40
0.84139436700393
40
0.853565331583177
40
0.865736119256189
40
0.877906248822819
40
0.893118279040282
40
0.908331036459643
40
0.923543845825425
40
0.938755946882261
40
0.954066619030835
40
0.969377923066342
40
0.984689269725668
40
1
40
1
40
1
40
1
41
1
10
-1.69996579751816
20
2.3439945435084
30
0
41
1
10
-1.70394455867316
20
2.32082586228064
30
0
41
1
10
-1.71184363811775
20
2.27440226541443
30
0
41
1
10
-1.72352137367037
20
2.2045104023079
30
0
41
1
10
-1.73501350237754
20
2.13436331791891
30
0
41
1
10
-1.74631081748457
20
2.0639620848916
30
0
41
1
10
-1.75740156950264
20
1.99330622433574
30
0
41
1
10
-1.76827328726002
20
1.92239554046928
30
0
41
1
10
-1.77891409748346
20
1.8512338867137
30
0
41
1
10
-1.78861880957596
20
1.78458406460287
30
0
41
1
10
-1.79743168779176
20
1.72250182573458
30
0
41
1
10
-1.80539670562145
20
1.66503582617606
30
0
41
1
10
-1.81318419655495
20
1.6074131927732
30
0
41
1
10
-1.82078656046536
20
1.54963756065975
30
0
41
1
10
-1.82823625327324
20
1.49139653187214
30
0
41
1
10
-1.83552323905003
20
1.43268766496202
30
0
41
1
10
-1.84263638886999
20
1.37350906045607
30
0
41
1
10
-1.84952760369325
20
1.31417857934213
30
0
41
1
10
-1.85618805990411
20
1.25470168506661
30
0
41
1
10
-1.86260033892822
20
1.19515820564293
30
0
41
1
10
-1.86875836855714
20
1.13555023327772
30
0
41
1
10
-1.87465610111931
20
1.07588055000848
30
0
41
1
10
-1.88029216257544
20
1.01607674870174
30
0
41
1
10
-1.88565753312091
20
0.956146422449453
30
0
41
1
10
-1.89074292674562
20
0.896092916210319
30
0
41
1
10
-1.89554090724092
20
0.835918859686853
30
0
41
1
10
-1.90004499749328
20
0.775627937944269
30
0
41
1
10
-1.9042464155318
20
0.715228282439747
30
0
41
1
10
-1.90813683360271
20
0.654730100613816
30
0
41
1
10
-1.91172231036713
20
0.593889384460107
30
0
41
1
10
-1.91499119864985
20
0.532708940843756
30
0
41
1
10
-1.91793427171021
20
0.471193123414934
30
0
41
1
10
-1.92053153889642
20
0.409602466173462
30
0
41
1
10
-1.92277689202129
20
0.347950237249135
30
0
41
1
10
-1.92463565064401
20
0.287155432071337
30
0
41
1
10
-1.92612223258716
20
0.227227536481296
30
0
41
1
10
-1.92725388789201
20
0.1681750052707
30
0
41
1
10
-1.92804971491176
20
0.109097584235577
30
0
41
1
10
-1.9285059336517
20
0.0500052199018667
30
0
41
1
10
-1.92862209927718
20
-0.0090947273585502
30
0
41
1
10
-1.92840085108601
20
-0.0681948929367122
30
0
41
1
10
-1.92784138051031
20
-0.127284923061983
30
0
41
1
10
-1.92694288848378
20
-0.186354309582306
30
0
41
1
10
-1.92570756838772
20
-0.245395759702353
30
0
41
1
10
-1.92414105041306
20
-0.304402470074028
30
0
41
1
10
-1.92224563815902
20
-0.363364925523689
30
0
41
1
10
-1.92000652016112
20
-0.422739773543985
30
0
41
1
10
-1.91741851080837
20
-0.482518815081394
30
0
41
1
10
-1.91448001200348
20
-0.542693994484116
30
0
41
1
10
-1.91121713650367
20
-0.602790478829181
30
0
41
1
10
-1.90769181081923
20
-0.661869282366233
30
0
41
1
10
-1.9039263489616
20
-0.7199297042777
30
0
41
1
10
-1.89994369795195
20
-0.776973119753073
30
0
41
1
10
-1.89569068663062
20
-0.833922693050329
30
0
41
1
10
-1.89117438153419
20
-0.890770243016541
30
0
41
1
10
-1.88640193195146
20
-0.947509245946218
30
0
41
1
10
-1.88137939362369
20
-1.00413694616124
30
0
41
1
10
-1.87611352624726
20
-1.06065144234032
30
0
41
1
10
-1.87061183320466
20
-1.11705001043377
30
0
41
1
10
-1.86488183364246
20
-1.17332652068168
30
0
41
1
10
-1.85891065541956
20
-1.22967105033244
30
0
41
1
10
-1.85270176922682
20
-1.28608043147069
30
0
41
1
10
-1.84625888710312
20
-1.34255198481413
30
0
41
1
10
-1.83961106814279
20
-1.39888989858999
30
0
41
1
10
-1.8327658614559
20
-1.45508963663105
30
0
41
1
10
-1.82570820037441
20
-1.51133068685285
30
0
41
1
10
-1.81844205490119
20
-1.56761069023929
30
0
41
1
10
-1.8109710415564
20
-1.62392752943251
30
0
41
1
10
-1.80332584120534
20
-1.68009829845048
30
0
41
1
10
-1.79551352688305
20
-1.73611971309029
30
0
41
1
10
-1.78687691336626
20
-1.79664516366693
30
0
41
1
10
-1.77737419619803
20
-1.86162821066946
30
0
41
1
10
-1.76696312600622
20
-1.93101567533475
30
0
41
1
10
-1.75633371289204
20
-2.00016411094881
30
0
41
1
10
-1.74547344284784
20
-2.06921967677218
30
0
41
1
10
-1.73439241066158
20
-2.13818078457283
30
0
41
1
10
-1.72310017280998
20
-2.20704599601104
30
0
41
1
10
-1.71162938796562
20
-2.27566512699111
30
0
41
1
10
-1.70387242247442
20
-2.32124636308918
30
0
41
1
10
-1.69996579738209
20
-2.34399541728098
30
0
0
SPLINE
5
19A
100
AcDbEntity
8
SK1
62
256
6
ByLayer
370
18
48
1
60
0
100
AcDbSpline
70
4
71
3
72
22
73
18
40
0
40
0
40
0
40
0
40
0.066542064105131
40
0.133086618671589
40
0.199631883028446
40
0.266176207982731
40
0.332718079502757
40
0.399261959984528
40
0.465808723347938
40
0.532356285389385
40
0.598902739091697
40
0.665446359846553
40
0.732354976922669
40
0.799267058836767
40
0.866180075130574
40
0.93309173604146
40
1
40
1
40
1
40
1
41
1
10
-1.30710678118655
20
3.27410008506509
30
0
41
1
10
-1.3115735202587
20
3.25327946008581
30
0
41
1
10
-1.32049071075495
20
3.21155815994636
30
0
41
1
10
-1.33382010988667
20
3.14873812918737
30
0
41
1
10
-1.34709459570483
20
3.08567885519523
30
0
41
1
10
-1.36030832609397
20
3.02238135802805
30
0
41
1
10
-1.37345495498211
20
2.95884464794235
30
0
41
1
10
-1.38652875506816
20
2.89506722447668
30
0
41
1
10
-1.39952290677895
20
2.83104728338881
30
0
41
1
10
-1.41242986834555
20
2.7667850289214
30
0
41
1
10
-1.42524198642264
20
2.70228172296635
30
0
41
1
10
-1.43797501315001
20
2.63741877072822
30
0
41
1
10
-1.45062140357901
20
2.572193009073
30
0
41
1
10
-1.46317244693828
20
2.5066011217148
30
0
41
1
10
-1.47559602953388
20
2.440761819911
30
0
41
1
10
-1.487883957154
20
2.37467706685023
30
0
41
1
10
-1.49597734019862
20
2.33045674320931
30
0
41
1
10
-1.49999999999999
20
2.3083060243678
30
0
0
SPLINE
5
19B
100
AcDbEntity
8
SK1
62
256
6
ByLayer
370
18
48
1
60
0
100
AcDbSpline
70
4
71
3
72
67
73
63
40
0
40
0
40
0
40
0
40
0.0612349262955409
40
0.122469517908287
40
0.16329615790708
40
0.204123354777336
40
0.244948961795635
40
0.269526766777978
40
0.294108878374848
40
0.318689800355516
40
0.343266727703433
40
0.367840183917966
40
0.38175268854927
40
0.395671692929365
40
0.409588820170201
40
0.423499828006218
40
0.437405623034811
40
0.445635713773631
40
0.453866962007185
40
0.462095013124389
40
0.468403935684039
40
0.47472162889424
40
0.4810307384618
40
0.487327936850832
40
0.492624660816176
40
0.497915945567378
40
0.501500070272641
40
0.505092910261955
40
0.508663625302591
40
0.512002903996213
40
0.515340499414441
40
0.5186755754078
40
0.522013691450631
40
0.525258275537411
40
0.528515897556705
40
0.531768172299159
40
0.53641063504849
40
0.541067144189122
40
0.545733227150391
40
0.550388779617734
40
0.558368732836311
40
0.566358971707167
40
0.574361748643116
40
0.582368546556244
40
0.590362408193828
40
0.604023560930244
40
0.617689422222169
40
0.631353636212819
40
0.652505772576713
40
0.67366464868243
40
0.694830418455781
40
0.715997830831323
40
0.737157129160713
40
0.763560388530381
40
0.789966379119751
40
0.816373388618155
40
0.842778037543207
40
0.878863816147721
40
0.914951516319554
40
0.95103795936049
40
0.975518969454555
40
1
40
1
40
1
40
1
41
1
10
-1.50000000000001
20
2.30830602436801
30
0
41
1
10
-1.5036899428907
20
2.28791855998353
30
0
41
1
10
-1.5112552037708
20
2.24720015814687
30
0
41
1
10
-1.52180036697675
20
2.19303497788935
30
0
41
1
10
-1.53144135901319
20
2.14578266408693
30
0
41
1
10
-1.54004165805325
20
2.10541094920713
30
0
41
1
10
-1.5478593436564
20
2.07055272536281
30
0
41
1
10
-1.55474627269112
20
2.04114939158818
30
0
41
1
10
-1.5605878758087
20
2.01715411031985
30
0
41
1
10
-1.56668342937465
20
1.99329833117016
30
0
41
1
10
-1.57308051422184
20
1.96962175718712
30
0
41
1
10
-1.57885775080743
20
1.94956095325962
30
0
41
1
10
-1.58387450280626
20
1.93303271031314
30
0
41
1
10
-1.58803200245937
20
1.91997669267617
30
0
41
1
10
-1.59239884104472
20
1.90707466550969
30
0
41
1
10
-1.59701875879352
20
1.89437475213646
30
0
41
1
10
-1.60126470653437
20
1.88361700066255
30
0
41
1
10
-1.6050421030953
20
1.87473341859694
30
0
41
1
10
-1.60827320192266
20
1.86766123320774
30
0
41
1
10
-1.61143273918755
20
1.86132034833113
30
0
41
1
10
-1.61448556923195
20
1.85568461695342
30
0
41
1
10
-1.6174198852312
20
1.8507548127881
30
0
41
1
10
-1.6205626240618
20
1.84609365632488
30
0
41
1
10
-1.6237690249979
20
1.84201266740538
30
0
41
1
10
-1.62702753566348
20
1.83854322933137
30
0
41
1
10
-1.62999670061116
20
1.83606883374886
30
0
41
1
10
-1.63280149796563
20
1.83435625775419
30
0
41
1
10
-1.63535816109881
20
1.83329822432815
30
0
41
1
10
-1.63797889040472
20
1.83277741738242
30
0
41
1
10
-1.64061034353616
20
1.8328854188581
30
0
41
1
10
-1.64318403795888
20
1.8335890798975
30
0
41
1
10
-1.64567798759488
20
1.83491762076714
30
0
41
1
10
-1.64801324138069
20
1.83673630018396
30
0
41
1
10
-1.65016200737924
20
1.83894969762381
30
0
41
1
10
-1.65212842483733
20
1.84143698078778
30
0
41
1
10
-1.65419821329478
20
1.84453465354087
30
0
41
1
10
-1.6563185430016
20
1.84826928072825
30
0
41
1
10
-1.65843771970144
20
1.85265012503793
30
0
41
1
10
-1.66035256361377
20
1.85719623218583
30
0
41
1
10
-1.66251734161413
20
1.86295817593636
30
0
41
1
10
-1.66485275092173
20
1.86997059356552
30
0
41
1
10
-1.66725258362878
20
1.87826869243622
30
0
41
1
10
-1.66938913694007
20
1.88667899082278
30
0
41
1
10
-1.671310159916
20
1.8951593675039
30
0
41
1
10
-1.67348821944612
20
1.90569142192357
30
0
41
1
10
-1.67583254168412
20
1.91829214194086
30
0
41
1
10
-1.67821813718417
20
1.93297554571565
30
0
41
1
10
-1.68072804524146
20
1.95038342013484
30
0
41
1
10
-1.68328456646689
20
1.97051584019044
30
0
41
1
10
-1.68577986609211
20
1.99336788817264
30
0
41
1
10
-1.68792863318038
20
2.01623087852446
30
0
41
1
10
-1.68978878011373
20
2.03908848270159
30
0
41
1
10
-1.69155905278018
20
2.06381934107439
30
0
41
1
10
-1.693224048235
20
2.09041703967098
30
0
41
1
10
-1.69473033235954
20
2.11887337988264
30
0
41
1
10
-1.69599659884897
20
2.14729869165445
30
0
41
1
10
-1.69718249758278
20
2.17916000320834
30
0
41
1
10
-1.69822965092187
20
2.21444139906522
30
0
41
1
10
-1.69906769785793
20
2.25312046231981
30
0
41
1
10
-1.69956966224736
20
2.28759210223394
30
0
41
1
10
-1.69984895063556
20
2.31787862577455
30
0
41
1
10
-1.69993891617033
20
2.3352928183692
30
0
41
1
10
-1.69996579751816
20
2.3439945435084
30
0
0
SPLINE
5
19C
100
AcDbEntity
8
SK1
62
256
6
ByLayer
370
18
48
1
60
0
100
AcDbSpline
70
4
71
3
72
81
73
77
40
0
40
0
40
0
40
0
40
0.0075681843185937
40
0.0151467366394614
40
0.0227277369379811
40
0.0303053450417768
40
0.0378760643963729
40
0.0454390204800843
40
0.0511028767733373
40
0.0567707259786344
40
0.0624375506020738
40
0.0681000087070699
40
0.0739341645598102
40
0.0797756190908921
40
0.0856154963874634
40
0.0914474986684472
40
0.0968206447622859
40
0.102211182947066
40
0.107609587007127
40
0.113006815493699
40
0.118394636468954
40
0.12376596537705
40
0.129133095671128
40
0.134514197071837
40
0.139904415294675
40
0.145296970071509
40
0.1506834711168
40
0.156054211141329
40
0.161898431795518
40
0.167748638723386
40
0.173600229844816
40
0.179446339887217
40
0.185448398344236
40
0.191454165307418
40
0.197460865205177
40
0.203464196595644
40
0.212335370383556
40
0.22121403921132
40
0.230098033992612
40
0.238981952530215
40
0.24785753322872
40
0.259197363611469
40
0.270541931517712
40
0.281888145676431
40
0.293230221827357
40
0.305797614758877
40
0.318367934373963
40
0.330939169014296
40
0.343507809981545
40
0.36025560255635
40
0.377005458039932
40
0.393754014816905
40
0.410833492963543
40
0.427914202214353
40
0.444994073982179
40
0.464367185925603
40
0.483742135936754
40
0.503117555978952
40
0.522491308931786
40
0.548384509808813
40
0.574279168855859
40
0.600172801754514
40
0.626744113103451
40
0.653317788725162
40
0.679892729103612
40
0.706467297211537
40
0.733039357165928
40
0.759606252700562
40
0.786174699588973
40
0.81274385504585
40
0.839312661255579
40
0.865879858174406
40
0.899408978741284
40
0.932939756751813
40
0.966470680580503
40
1
40
1
40
1
40
1
41
1
10
-0.400000000000026
20
-4.48934893107536
30
0
41
1
10
-0.403410816772151
20
-4.49238489662505
30
0
41
1
10
-0.410341210667108
20
-4.49837601959021
30
0
41
1
10
-0.421043079064066
20
-4.50712504983491
30
0
41
1
10
-0.432081965292876
20
-4.51559322913531
30
0
41
1
10
-0.443466210868249
20
-4.5237421034339
30
0
41
1
10
-0.455207336204158
20
-4.53152881686559
30
0
41
1
10
-0.466305000225434
20
-4.53829691883292
30
0
41
1
10
-0.476669799203457
20
-4.54412185596819
30
0
41
1
10
-0.486219233589909
20
-4.54908648795448
30
0
41
1
10
-0.49599429481288
20
-4.55374953212587
30
0
41
1
10
-0.506093390157283
20
-4.55812628979064
30
0
41
1
10
-0.516528381047562
20
-4.56217303093134
30
0
41
1
10
-0.527299555563575
20
-4.56584597492552
30
0
41
1
10
-0.538285075820548
20
-4.5690705087066
30
0
41
1
10
-0.54916880806358
20
-4.57174133575848
30
0
41
1
10
-0.559928103624942
20
-4.57385594712367
30
0
41
1
10
-0.570529891722861
20
-4.57544562455383
30
0
41
1
10
-0.581238977655096
20
-4.57656403680858
30
0
41
1
10
-0.592006511658689
20
-4.57719839626973
30
0
41
1
10
-0.602783244809701
20
-4.57733743354829
30
0
41
1
10
-0.613532102545552
20
-4.57696761987643
30
0
41
1
10
-0.624229691878988
20
-4.5760770804318
30
0
41
1
10
-0.634859898314239
20
-4.57469629318036
30
0
41
1
10
-0.645398525850699
20
-4.57284760268108
30
0
41
1
10
-0.655807378511745
20
-4.57055563009834
30
0
41
1
10
-0.666048705753686
20
-4.56784544710143
30
0
41
1
10
-0.676394661284208
20
-4.56464237959564
30
0
41
1
10
-0.686817529568221
20
-4.5609286467812
30
0
41
1
10
-0.697301788758516
20
-4.55670693264716
30
0
41
1
10
-0.70754785608771
20
-4.55211294535392
30
0
41
1
10
-0.717638691928543
20
-4.54713630767204
30
0
41
1
10
-0.727568962620823
20
-4.5417962644378
30
0
41
1
10
-0.737338783107963
20
-4.53611162332991
30
0
41
1
10
-0.746864922778841
20
-4.53015662564531
30
0
41
1
10
-0.757630846281736
20
-4.52297008454646
30
0
41
1
10
-0.769508869553529
20
-4.51443465068679
30
0
41
1
10
-0.782355726950722
20
-4.5044403490354
30
0
41
1
10
-0.794760735497201
20
-4.49406576925556
30
0
41
1
10
-0.806744764307777
20
-4.48336244541129
30
0
41
1
10
-0.819409680529278
20
-4.47135744037046
30
0
41
1
10
-0.832665060926423
20
-4.45799598936178
30
0
41
1
10
-0.846411277376759
20
-4.44322326511155
30
0
41
1
10
-0.859652677689961
20
-4.42812848196068
30
0
41
1
10
-0.872890773204122
20
-4.41220054396461
30
0
41
1
10
-0.88611497125805
20
-4.39544231492754
30
0
41
1
10
-0.899301787486452
20
-4.37784819697276
30
0
41
1
10
-0.912041502290052
20
-4.36001078708328
30
0
41
1
10
-0.925736067429341
20
-4.33995708313336
30
0
41
1
10
-0.940261704046428
20
-4.31762711211081
30
0
41
1
10
-0.955486849338446
20
-4.29296328045059
30
0
41
1
10
-0.970244627628798
20
-4.26786077293066
30
0
41
1
10
-0.984575526792422
20
-4.24234399226643
30
0
41
1
10
-0.998502833393307
20
-4.21642827545157
30
0
41
1
10
-1.01257338244868
20
-4.18913036220501
30
0
41
1
10
-1.02675747152854
20
-4.16043710464193
30
0
41
1
10
-1.04101799283176
20
-4.13033327457286
30
0
41
1
10
-1.05480570350859
20
-4.10001504186452
30
0
41
1
10
-1.06965276094424
20
-4.06607636112014
30
0
41
1
10
-1.08541853912514
20
-4.028450979228
30
0
41
1
10
-1.10195436954563
20
-3.98707162898563
30
0
41
1
10
-1.11800593271288
20
-3.94504292188428
30
0
41
1
10
-1.13360947445961
20
-3.90237595723287
30
0
41
1
10
-1.14878207077226
20
-3.85907541625454
30
0
41
1
10
-1.16342155691895
20
-3.81551986654371
30
0
41
1
10
-1.1775595507162
20
-3.77172374427201
30
0
41
1
10
-1.1912282511429
20
-3.72770162891234
30
0
41
1
10
-1.20445852141968
20
-3.68346211389873
30
0
41
1
10
-1.21726716056088
20
-3.63900981887172
30
0
41
1
10
-1.22967422073406
20
-3.59434860616798
30
0
41
1
10
-1.24169762496463
20
-3.54948621896901
30
0
41
1
10
-1.25437471196534
20
-3.50049314860476
30
0
41
1
10
-1.26760939710281
20
-3.44731042158434
30
0
41
1
10
-1.28129905440901
20
-3.38987573861653
30
0
41
1
10
-1.29448093206228
20
-3.3321512223491
30
0
41
1
10
-1.30295221255304
20
-3.29348163771673
30
0
41
1
10
-1.30710678118656
20
-3.2741000776645
30
0
0
SPLINE
5
19D
100
AcDbEntity
8
SK1
62
256
6
ByLayer
370
18
48
1
60
0
100
AcDbSpline
70
4
71
3
72
22
73
18
40
0
40
0
40
0
40
0
40
0.066529824972742
40
0.133062991652621
40
0.199597490681809
40
0.266131069659647
40
0.332661240448219
40
0.399188510607344
40
0.465718614030467
40
0.532249826124921
40
0.598780239636389
40
0.665307769880783
40
0.732244439014813
40
0.799183606429778
40
0.86612373111859
40
0.933063133657676
40
1
40
1
40
1
40
1
41
1
10
-1.50000000000001
20
-2.30830715862382
30
0
41
1
10
-1.49600012810481
20
-2.33033257761122
30
0
41
1
10
-1.48795283374968
20
-2.3743032047755
30
0
41
1
10
-1.47573563468565
20
-2.44001615975135
30
0
41
1
10
-1.46338418620169
20
-2.5054864103854
30
0
41
1
10
-1.45090655498992
20
-2.57071202787035
30
0
41
1
10
-1.43831185907357
20
-2.63569217497257
30
0
41
1
10
-1.42560798795298
20
-2.70042861400235
30
0
41
1
10
-1.4128018081216
20
-2.76492294688904
30
0
41
1
10
-1.39990062567841
20
-2.82917633669234
30
0
41
1
10
-1.38691210059812
20
-2.89318752294061
30
0
41
1
10
-1.37381686112356
20
-2.95708766852499
30
0
41
1
10
-1.36062119771143
20
-3.02087686348666
30
0
41
1
10
-1.34733041194562
20
-3.08455487293396
30
0
41
1
10
-1.33397803656588
20
-3.1479918204303
30
0
41
1
10
-1.32057001676003
20
-3.21118666367274
30
0
41
1
10
-1.31160002497343
20
-3.25315594311198
30
0
41
1
10
-1.30710678118675
20
-3.27410007766361
30
0
0
SPLINE
5
19E
100
AcDbEntity
8
SK1
62
256
6
ByLayer
370
18
48
1
60
0
100
AcDbSpline
70
4
71
3
72
57
73
53
40
0
40
0
40
0
40
0
40
0.0073932962681551
40
0.0147989816697232
40
0.0221974385950167
40
0.0295808595557788
40
0.0352585571079405
40
0.0409528607306442
40
0.0466400067741995
40
0.0523079131539834
40
0.0582639641943679
40
0.0642366871840209
40
0.0701886875390531
40
0.0761458671943962
40
0.0821235948005769
40
0.088085578216966
40
0.0941260463743234
40
0.100187658488618
40
0.106257815927674
40
0.112309974519464
40
0.120868501087468
40
0.129447649404614
40
0.138046779295172
40
0.146649913690023
40
0.155228610508581
40
0.168345460031993
40
0.181476412338267
40
0.194621089888706
40
0.207768617747079
40
0.220899385692899
40
0.237712801480513
40
0.254532167923753
40
0.271354168135401
40
0.288171176593966
40
0.315140486875594
40
0.342119022477721
40
0.369105474647445
40
0.396092961266678
40
0.423069781621146
40
0.456737506554949
40
0.490409840225163
40
0.524083791007605
40
0.557753721377029
40
0.602629707399844
40
0.647508781512573
40
0.692385875950514
40
0.739841677237884
40
0.787299596774102
40
0.834756001440092
40
0.892555719377348
40
0.950357947479045
40
1
40
1
40
1
40
1
41
1
10
-0.400000000000013
20
-10.7720903270618
30
0
41
1
10
-0.398527489288419
20
-10.772240204823
30
0
41
1
10
-0.395505492388386
20
-10.7725708067871
30
0
41
1
10
-0.390759577329385
20
-10.7731520238076
30
0
41
1
10
-0.385770974425094
20
-10.7738378623626
30
0
41
1
10
-0.380934084865274
20
-10.7745776082771
30
0
41
1
10
-0.376299633364784
20
-10.7753544458112
30
0
41
1
10
-0.371923114490731
20
-10.7761466321735
30
0
41
1
10
-0.367395028116978
20
-10.777029118299
30
0
41
1
10
-0.36265487802145
20
-10.7780218850625
30
0
41
1
10
-0.357712068273282
20
-10.7791371694753
30
0
41
1
10
-0.352614818924455
20
-10.7803707773123
30
0
41
1
10
-0.347500793950906
20
-10.7816940107532
30
0
41
1
10
-0.34244276565739
20
-10.7830944775069
30
0
41
1
10
-0.337502036619386
20
-10.784546479627
30
0
41
1
10
-0.33270805980272
20
-10.7860365405837
30
0
41
1
10
-0.32810706660943
20
-10.7875467372152
30
0
41
1
10
-0.323706557969301
20
-10.7890635955846
30
0
41
1
10
-0.319533197445264
20
-10.7905688436704
30
0
41
1
10
-0.315044306544334
20
-10.7922580000764
30
0
41
1
10
-0.310330899790788
20
-10.7941154242782
30
0
41
1
10
-0.305482941479964
20
-10.7961226947891
30
0
41
1
10
-0.300979765270612
20
-10.7980767012967
30
0
41
1
10
-0.296788639393137
20
-10.7999749705509
30
0
41
1
10
-0.292178139298642
20
-10.802144157159
30
0
41
1
10
-0.287259909863071
20
-10.8045564678968
30
0
41
1
10
-0.28217095651141
20
-10.8071778267981
30
0
41
1
10
-0.277496567006227
20
-10.8097005514205
30
0
41
1
10
-0.273183631329299
20
-10.8121308132999
30
0
41
1
10
-0.268795398612956
20
-10.8146973963945
30
0
41
1
10
-0.264372171371957
20
-10.8173827903312
30
0
41
1
10
-0.259984110223871
20
-10.8201634761412
30
0
41
1
10
-0.255931552726224
20
-10.8228366173206
30
0
41
1
10
-0.251415789689179
20
-10.825928010902
30
0
41
1
10
-0.246590996640543
20
-10.8293737591541
30
0
41
1
10
-0.241636860892765
20
-10.833097999546
30
0
41
1
10
-0.237181819842456
20
-10.8366203673604
30
0
41
1
10
-0.233162507174893
20
-10.8399546016402
30
0
41
1
10
-0.229208362138377
20
-10.8433776922697
30
0
41
1
10
-0.225364205093236
20
-10.8468529882701
30
0
41
1
10
-0.221706034679634
20
-10.8503352852803
30
0
41
1
10
-0.21845543470112
20
-10.8535912399927
30
0
41
1
10
-0.215244615417239
20
-10.8569708364862
30
0
41
1
10
-0.212165319848983
20
-10.8604000280047
30
0
41
1
10
-0.209321157265242
20
-10.863796955204
30
0
41
1
10
-0.206888602612153
20
-10.8669263503722
30
0
41
1
10
-0.204842613806043
20
-10.8697832633815
30
0
41
1
10
-0.20317651401192
20
-10.872358286103
30
0
41
1
10
-0.201797268227106
20
-10.8747751901808
30
0
41
1
10
-0.20076076732149
20
-10.8769633374605
30
0
41
1
10
-0.200162599851441
20
-10.8787572770276
30
0
41
1
10
-0.200017048554057
20
-10.8796796089619
30
0
41
1
10
-0.200003988616734
20
-10.8800527551157
30
0
0
SPLINE
5
19F
100
AcDbEntity
8
SK1
62
256
6
ByLayer
370
18
48
1
60
0
100
AcDbSpline
70
4
71
3
72
76
73
72
40
0
40
0
40
0
40
0
40
0.0335608688014308
40
0.0729174508445306
40
0.112271628262245
40
0.143979926993386
40
0.175691105864644
40
0.207402722945774
40
0.239112897857544
40
0.270820354483813
40
0.299083571925349
40
0.32734896518495
40
0.355613787852334
40
0.383876227150816
40
0.406560721112833
40
0.429248784288935
40
0.451937105996378
40
0.474623372999187
40
0.497306360265857
40
0.516148174172019
40
0.534990988115853
40
0.553832325492661
40
0.572678888369084
40
0.591527106906344
40
0.610372667261343
40
0.624515043677829
40
0.638660785802644
40
0.652805322899995
40
0.666946055680641
40
0.67883339980498
40
0.690728738107022
40
0.70262415805109
40
0.714514486792599
40
0.726397626666353
40
0.736335909297687
40
0.746276678539212
40
0.756213566295157
40
0.763776408839209
40
0.771344068831776
40
0.778910333783855
40
0.786471272724086
40
0.794045529894211
40
0.801623348397487
40
0.809196188897827
40
0.815015214645765
40
0.820839797978848
40
0.826663486971243
40
0.832481291964604
40
0.83892037407473
40
0.845380165311562
40
0.851849735736642
40
0.858318396739191
40
0.864776085937286
40
0.871213762256537
40
0.877639542186436
40
0.884080994570155
40
0.890532914656059
40
0.896987739695832
40
0.90343590472717
40
0.909866171441228
40
0.917198166181722
40
0.924537687839494
40
0.931879050433394
40
0.939213558002994
40
0.946741540903963
40
0.954274054641222
40
0.961807745816896
40
0.969337335236201
40
0.979556566396212
40
0.989779450232879
40
1
40
1
40
1
40
1
41
1
10
-1.23806317234439
20
-10.8251483415871
30
0
41
1
10
-1.23387763424055
20
-10.8251477694306
30
0
41
1
10
-1.22462577829549
20
-10.8250496353703
30
0
41
1
10
-1.2098652212302
20
-10.8245720452339
30
0
41
1
10
-1.19476151207394
20
-10.8237628715577
30
0
41
1
10
-1.18018781876952
20
-10.822728510828
30
0
41
1
10
-1.16624263311913
20
-10.821542591391
30
0
41
1
10
-1.15181019992896
20
-10.820132068842
30
0
41
1
10
-1.1368604902936
20
-10.8185008667353
30
0
41
1
10
-1.12192392314951
20
-10.8167197760623
30
0
41
1
10
-1.10704033624741
20
-10.8148187150542
30
0
41
1
10
-1.09223752821102
20
-10.8128265251986
30
0
41
1
10
-1.07689631768477
20
-10.8106730414806
30
0
41
1
10
-1.06202452356734
20
-10.8085144366874
30
0
41
1
10
-1.04772060212881
20
-10.8063877158735
30
0
41
1
10
-1.0340714668781
20
-10.8043263622422
30
0
41
1
10
-1.01995643140682
20
-10.8021728935766
30
0
41
1
10
-1.00534066147894
20
-10.7999310917326
30
0
41
1
10
-0.991044710791496
20
-10.7977358650374
30
0
41
1
10
-0.977137423295616
20
-10.7956063773798
30
0
41
1
10
-0.963679683265431
20
-10.7935603144852
30
0
41
1
10
-0.94975084324664
20
-10.7914655443881
30
0
41
1
10
-0.935317582581028
20
-10.7893256126599
30
0
41
1
10
-0.920327965504661
20
-10.7871460366997
30
0
41
1
10
-0.906027103873269
20
-10.7851170809471
30
0
41
1
10
-0.892544542329541
20
-10.7832520926125
30
0
41
1
10
-0.880002136309925
20
-10.7815616438843
30
0
41
1
10
-0.867020056760789
20
-10.7798642740281
30
0
41
1
10
-0.854279110946183
20
-10.7782551607557
30
0
41
1
10
-0.84183743448394
20
-10.7767380505175
30
0
41
1
10
-0.829743248137701
20
-10.7753171465378
30
0
41
1
10
-0.817223291719742
20
-10.7739080578964
30
0
41
1
10
-0.804250176833645
20
-10.7725171886405
30
0
41
1
10
-0.791529154229743
20
-10.7712251006493
30
0
41
1
10
-0.779121417520517
20
-10.7700330503834
30
0
41
1
10
-0.767083074099261
20
-10.7689421544223
30
0
41
1
10
-0.755623758435628
20
-10.7679698696633
30
0
41
1
10
-0.744835755989127
20
-10.7671124462051
30
0
41
1
10
-0.734807044931219
20
-10.7663641528475
30
0
41
1
10
-0.724510212685091
20
-10.7656482437334
30
0
41
1
10
-0.713935844303495
20
-10.7649689668595
30
0
41
1
10
-0.703077566299797
20
-10.7643312835763
30
0
41
1
10
-0.691935217460358
20
-10.7637408446768
30
0
41
1
10
-0.681401282606587
20
-10.7632451867426
30
0
41
1
10
-0.671551306188262
20
-10.76283586712
30
0
41
1
10
-0.662450914141556
20
-10.7625017854863
30
0
41
1
10
-0.65321538196035
20
-10.7622083442075
30
0
41
1
10
-0.643528685691003
20
-10.7619490956851
30
0
41
1
10
-0.633376804244595
20
-10.7617344014045
30
0
41
1
10
-0.622767528038724
20
-10.7615724024795
30
0
41
1
10
-0.612071171090851
20
-10.7614704461338
30
0
41
1
10
-0.601337303483489
20
-10.7614297366475
30
0
41
1
10
-0.590615718652335
20
-10.7614512479293
30
0
41
1
10
-0.579947450319187
20
-10.761536359597
30
0
41
1
10
-0.569355564984019
20
-10.7616858811568
30
0
41
1
10
-0.558852889055276
20
-10.7618951481569
30
0
41
1
10
-0.548457096878591
20
-10.7621609676591
30
0
41
1
10
-0.538202396138051
20
-10.7624796700153
30
0
41
1
10
-0.528122598471149
20
-10.7628475612757
30
0
41
1
10
-0.517775929549452
20
-10.7632813408901
30
0
41
1
10
-0.507199885727962
20
-10.76378508285
30
0
41
1
10
-0.496423302390868
20
-10.7643599593829
30
0
41
1
10
-0.485906683247121
20
-10.7649793001413
30
0
41
1
10
-0.475563837112975
20
-10.7656436672105
30
0
41
1
10
-0.465398256451564
20
-10.7663494968327
30
0
41
1
10
-0.45540843410766
20
-10.7670936071504
30
0
41
1
10
-0.445677044643151
20
-10.7678657667165
30
0
41
1
10
-0.435068308264721
20
-10.7687568049813
30
0
41
1
10
-0.423678537288952
20
-10.7697725929867
30
0
41
1
10
-0.411613847906746
20
-10.7709177466538
30
0
41
1
10
-0.403826874517426
20
-10.7716966169638
30
0
41
1
10
-0.400000000000013
20
-10.7720903270618
30
0
0
SPLINE
5
1A0
100
AcDbEntity
8
SK1
62
256
6
ByLayer
370
18
48
1
60
0
100
AcDbSpline
70
4
71
3
72
57
73
53
40
0
40
0
40
0
40
0
40
0.0073271757848892
40
0.0146666113013114
40
0.0219988851797601
40
0.0293162769949137
40
0.0349405598119987
40
0.0405812792354507
40
0.0462148975809423
40
0.0518294665355005
40
0.057724529430192
40
0.0636360740779738
40
0.0695271003801854
40
0.0754234756956735
40
0.0813402113170617
40
0.0872413291134807
40
0.0932124229033069
40
0.0992044213477674
40
0.105204858469855
40
0.111187496805311
40
0.119642753865994
40
0.128118391644072
40
0.136613768381155
40
0.145113095585877
40
0.153588273455759
40
0.1665399711436
40
0.179505597281915
40
0.192484775031097
40
0.205466764717121
40
0.21843220281131
40
0.235034062188465
40
0.251641800325371
40
0.268252140652574
40
0.284857549626185
40
0.311486443521506
40
0.338124447086268
40
0.364770269998623
40
0.391417116062778
40
0.418053428982847
40
0.451296170123599
40
0.484543460089864
40
0.517792346661853
40
0.551037265271122
40
0.595346788394453
40
0.63965935887996
40
0.683969976369284
40
0.730826333106608
40
0.777684779267489
40
0.824541731912405
40
0.883134883659912
40
0.941730708915171
40
1
40
1
40
1
40
1
41
1
10
-0.400000000000026
20
4.48934914533076
30
0
41
1
10
-0.398528784698615
20
4.48803421840552
30
0
41
1
10
-0.395509376831832
20
4.48548717177535
30
0
41
1
10
-0.39076736596909
20
4.48189750614115
30
0
41
1
10
-0.385782558220671
20
4.47861358640736
30
0
41
1
10
-0.380949612443279
20
4.47591559673351
30
0
41
1
10
-0.37631932720193
20
4.47376991604459
30
0
41
1
10
-0.371947235696065
20
4.47212084170426
30
0
41
1
10
-0.367423316294971
20
4.47081869232844
30
0
41
1
10
-0.362688386767958
20
4.46989855657415
30
0
41
1
10
-0.357751840999375
20
4.4694526448488
30
0
41
1
10
-0.352661781477643
20
4.46953051275956
30
0
41
1
10
-0.347554209430042
20
4.47016221919031
30
0
41
1
10
-0.342501772132847
20
4.47138375603187
30
0
41
1
10
-0.337565878842849
20
4.47312913523212
30
0
41
1
10
-0.332778233167904
20
4.47536016143726
30
0
41
1
10
-0.328184907310294
20
4.47803788535838
30
0
41
1
10
-0.323793126755546
20
4.48108950232285
30
0
41
1
10
-0.319627641781439
20
4.48444145525327
30
0
41
1
10
-0.315147938221331
20
4.48853432997706
30
0
41
1
10
-0.310444611625027
20
4.49342778431391
30
0
41
1
10
-0.305607149252308
20
4.49916110268776
30
0
41
1
10
-0.301113182228059
20
4.50514502245946
30
0
41
1
10
-0.296930177397299
20
4.51131338345124
30
0
41
1
10
-0.292329261060684
20
4.51872512472917
30
0
41
1
10
-0.287421523641139
20
4.52742220981644
30
0
41
1
10
-0.28234324861371
20
4.53744742506847
30
0
41
1
10
-0.277677909513856
20
4.54762441681819
30
0
41
1
10
-0.273372652965678
20
4.55790841193401
30
0
41
1
10
-0.268991621280265
20
4.56923271232904
30
0
41
1
10
-0.264575008416563
20
4.58159770302106
30
0
41
1
10
-0.260192708506724
20
4.59501097200736
30
0
41
1
10
-0.256144740508929
20
4.60847719647231
30
0
41
1
10
-0.251633352863873
20
4.62469574630111
30
0
41
1
10
-0.246812172237689
20
4.64367546754132
30
0
41
1
10
-0.241860242101746
20
4.66541694617954
30
0
41
1
10
-0.237405659647434
20
4.68717811341835
30
0
41
1
10
-0.233385286868019
20
4.70893800697757
30
0
41
1
10
-0.229428614172189
20
4.73248007727447
30
0
41
1
10
-0.225580299199127
20
4.75779158443444
30
0
41
1
10
-0.221916083494309
20
4.78485956946309
30
0
41
1
10
-0.218658039318392
20
4.81187975376457
30
0
41
1
10
-0.215437591491529
20
4.84183697240493
30
0
41
1
10
-0.212346199711801
20
4.87470402757237
30
0
41
1
10
-0.209487145932147
20
4.91044698627628
30
0
41
1
10
-0.207037896141355
20
4.94676014542332
30
0
41
1
10
-0.204973502123288
20
4.9836333782816
30
0
41
1
10
-0.203287267930471
20
5.02105626626356
30
0
41
1
10
-0.201870950737422
20
5.06146090064599
30
0
41
1
10
-0.200794613539139
20
5.10480634377136
30
0
41
1
10
-0.2001403742001
20
5.15095995491485
30
0
41
1
10
-0.199996202910282
20
5.1815635566501
30
0
41
1
10
-0.200000006389663
20
5.1967884357316
30
0
0
SPLINE
5
1A1
100
AcDbEntity
8
SK1
62
256
6
ByLayer
370
18
48
1
60
0
100
AcDbSpline
70
4
71
3
72
81
73
77
40
0
40
0
40
0
40
0
40
0.0327280846335196
40
0.0654576581514965
40
0.0981871005735009
40
0.130915006431523
40
0.163645035779371
40
0.196376963918589
40
0.229108606025773
40
0.261838245306693
40
0.288209396055118
40
0.314582940615535
40
0.340956852042033
40
0.367329567269219
40
0.393700022386462
40
0.417244780569908
40
0.440791353523949
40
0.464337450405222
40
0.487881559346103
40
0.506779056973603
40
0.525679536918511
40
0.544580230839387
40
0.563479205943545
40
0.582375441255455
40
0.598071686627557
40
0.613768768239246
40
0.629464614228757
40
0.645164844751067
40
0.660866461074821
40
0.676565849204635
40
0.688347298193243
40
0.700131573353089
40
0.711914832184679
40
0.723694894916887
40
0.733601344343435
40
0.743514548441237
40
0.75342781001838
40
0.763336758404524
40
0.773239636213628
40
0.781452979319777
40
0.78966837632394
40
0.797880570486965
40
0.804130608267955
40
0.810384617079967
40
0.81663747928464
40
0.822885952464332
40
0.82916209033164
40
0.835441184533195
40
0.841716147642896
40
0.846538047415132
40
0.851364557998019
40
0.856190328274699
40
0.86101121754477
40
0.866347725388128
40
0.871701394995795
40
0.877063177718854
40
0.882424217496421
40
0.887776169859852
40
0.893111529252665
40
0.898436882838903
40
0.903775204004339
40
0.909122191598865
40
0.914471589039216
40
0.919815478766415
40
0.925144554407262
40
0.931228209318171
40
0.937318110006343
40
0.943409540610312
40
0.949495283815789
40
0.955741510556008
40
0.961991493876993
40
0.96824245434378
40
0.974490014318854
40
0.982991957855168
40
0.991496952359784
40
1
40
1
40
1
40
1
41
1
10
-1.30710678118655
20
3.27410008506506
30
0
41
1
10
-1.30305135634103
20
3.29301846338197
30
0
41
1
10
-1.29478622765048
20
3.33076613888626
30
0
41
1
10
-1.28193630949704
20
3.38712109010923
30
0
41
1
10
-1.26860381063519
20
3.44320026566257
30
0
41
1
10
-1.25476864227559
20
3.49899781420363
30
0
41
1
10
-1.24040932619562
20
3.5545076826704
30
0
41
1
10
-1.22549264806575
20
3.60972097503842
30
0
41
1
10
-1.20998461881448
20
3.66462465955787
30
0
41
1
10
-1.19489530771168
20
3.71567163090171
30
0
41
1
10
-1.18033396408026
20
3.76292256893369
30
0
41
1
10
-1.1663997332895
20
3.80643487577289
30
0
41
1
10
-1.15197781384505
20
3.84971240973396
30
0
41
1
10
-1.13703826559067
20
3.89274152379893
30
0
41
1
10
-1.12210359127807
20
3.93398250858419
30
0
41
1
10
-1.10721283153346
20
3.97345688222167
30
0
41
1
10
-1.09239279675664
20
4.01118271922783
30
0
41
1
10
-1.07703227415018
20
4.04866182539707
30
0
41
1
10
-1.0621402660634
20
4.08342804593414
30
0
41
1
10
-1.04781554668877
20
4.11552686786234
30
0
41
1
10
-1.03414520366063
20
4.14500089185834
30
0
41
1
10
-1.02000669379487
20
4.17426386415135
30
0
41
1
10
-1.00536487625629
20
4.2032949106609
30
0
41
1
10
-0.99104165116826
20
4.23045046475108
30
0
41
1
10
-0.977106150514854
20
4.25576037405976
30
0
41
1
10
-0.96361951924373
20
4.2792528057922
30
0
41
1
10
-0.949658991546207
20
4.30252006021592
30
0
41
1
10
-0.935190987934562
20
4.32554078727935
30
0
41
1
10
-0.920163066893427
20
4.34828251618293
30
0
41
1
10
-0.905823310882461
20
4.36884153573995
30
0
41
1
10
-0.892302039586996
20
4.38727593862597
30
0
41
1
10
-0.879721776380544
20
4.40364678240724
30
0
41
1
10
-0.866698434627548
20
4.41976357868302
30
0
41
1
10
-0.85391342022017
20
4.43475476611407
30
0
41
1
10
-0.841425098154497
20
4.44864822786977
30
0
41
1
10
-0.829281699181396
20
4.46146698615848
30
0
41
1
10
-0.816708228764553
20
4.47399664746437
30
0
41
1
10
-0.803676877591738
20
4.48619255657127
30
0
41
1
10
-0.790927210905077
20
4.49734095936294
30
0
41
1
10
-0.778524820240744
20
4.50747403614278
30
0
41
1
10
-0.766530115353148
20
4.51662431544534
30
0
41
1
10
-0.755113363187077
20
4.52470036440853
30
0
41
1
10
-0.744366360302878
20
4.53176367460646
30
0
41
1
10
-0.734376604561071
20
4.53788659322332
30
0
41
1
10
-0.72412056957685
20
4.54370763413974
30
0
41
1
10
-0.713579597115851
20
4.54920267816583
30
0
41
1
10
-0.702746526971396
20
4.55433609832293
30
0
41
1
10
-0.691620443347362
20
4.55906803493924
30
0
41
1
10
-0.681102053563899
20
4.56302071244908
30
0
41
1
10
-0.671266773039493
20
4.56627196347363
30
0
41
1
10
-0.662180084236885
20
4.56891704431086
30
0
41
1
10
-0.65295875989685
20
4.57123332987835
30
0
41
1
10
-0.643286802579261
20
4.57327378572987
30
0
41
1
10
-0.633150297808298
20
4.5749596257475
30
0
41
1
10
-0.622557105283807
20
4.57622820093368
30
0
41
1
10
-0.611877489399106
20
4.57702235378313
30
0
41
1
10
-0.601160962479664
20
4.57733360815563
30
0
41
1
10
-0.590457257289289
20
4.57715514907869
30
0
41
1
10
-0.579807445977351
20
4.57647720062233
30
0
41
1
10
-0.569234547770675
20
4.57529369696144
30
0
41
1
10
-0.558751283412027
20
4.57363797376199
30
0
41
1
10
-0.548375135796945
20
4.57153254410181
30
0
41
1
10
-0.53814016096478
20
4.56900350262739
30
0
41
1
10
-0.528080020936941
20
4.56607713564925
30
0
41
1
10
-0.517749259431465
20
4.56261581430044
30
0
41
1
10
-0.507185584736892
20
4.55858043782387
30
0
41
1
10
-0.49641814667877
20
4.55395286920443
30
0
41
1
10
-0.485910867437072
20
4.5489431694086
30
0
41
1
10
-0.475577602114999
20
4.54354068704373
30
0
41
1
10
-0.465421782641059
20
4.53776711529199
30
0
41
1
10
-0.455441864530959
20
4.53164234535552
30
0
41
1
10
-0.445720367012527
20
4.5252449862842
30
0
41
1
10
-0.435111177155729
20
4.51780345681342
30
0
41
1
10
-0.423711727117014
20
4.50923850453276
30
0
41
1
10
-0.411629453943428
20
4.49947580374828
30
0
41
1
10
-0.403831876102299
20
4.49276090685036
30
0
41
1
10
-0.400000000000026
20
4.48934914533074
30
0
0
SPLINE
5
1A2
100
AcDbEntity
8
SK1
62
256
6
ByLayer
370
18
48
1
60
0
100
AcDbSpline
70
4
71
2
72
6
73
3
40
0
40
0
40
0
40
1
40
1
40
1
41
1
10
-2.5
20
11.0000000216178
30
0
41
1
10
-10.2501577226355
20
10.805289083207
30
0
41
1
10
-18.0003154452711
20
10.6105781447963
30
0
0
SPLINE
5
1A3
100
AcDbEntity
8
SK1
62
256
6
ByLayer
370
18
48
1
60
0
100
AcDbSpline
70
4
71
2
72
6
73
3
40
0
40
0
40
0
40
1
40
1
40
1
41
1
10
-1.69993839754319
20
11.0201003538918
30
0
41
1
10
-2.0999691987716
20
11.0100501877548
30
0
41
1
10
-2.5
20
11.0000000216178
30
0
0
SPLINE
5
1A4
100
AcDbEntity
8
SK1
62
256
6
ByLayer
370
18
48
1
60
0
100
AcDbSpline
70
4
71
3
72
180
73
176
40
0
40
0
40
0
40
0
40
0.0042352453572472
40
0.0084706306994786
40
0.0127060235295438
40
0.016941279097807
40
0.0211723967907296
40
0.0254036395417889
40
0.0296348882256341
40
0.0338660140089561
40
0.0386425173767189
40
0.0434192559417041
40
0.0481960845285501
40
0.0529728450594346
40
0.0577493668511236
40
0.0625186195955681
40
0.0672880783520576
40
0.0720576150187399
40
0.0768270912419865
40
0.0815963586366064
40
0.0863711973256763
40
0.0911462204671361
40
0.0959213124093916
40
0.100696349385891
40
0.105471199678993
40
0.11024026493468
40
0.115009496014811
40
0.119778788226945
40
0.124548030384594
40
0.129317104931427
40
0.134090857745109
40
0.138864762313902
40
0.143638722453242
40
0.148412636452424
40
0.153186397175717
40
0.159147594003015
40
0.165108974355486
40
0.171070361045127
40
0.177031566514286
40
0.183040819556202
40
0.189050246850362
40
0.195059679738849
40
0.201068940409614
40
0.207030026902928
40
0.212991272673303
40
0.21895252318344
40
0.22491361614024
40
0.230874661058573
40
0.236835855770751
40
0.242797054075484
40
0.24875810389288
40
0.254719112578215
40
0.260680263411613
40
0.266641417811089
40
0.272602431359373
40
0.278991739437306
40
0.285381294376749
40
0.291770936599535
40
0.298160500979637
40
0.30454981697585
40
0.310908623882253
40
0.317267661278876
40
0.32362677936463
40
0.329985824051196
40
0.336344637071966
40
0.342703395598937
40
0.349062374555724
40
0.355421430726313
40
0.361780416744284
40
0.368139181193743
40
0.37452534451915
40
0.380911723364437
40
0.38729817668081
40
0.393684560492237
40
0.400070727982934
40
0.406429423027701
40
0.412788324481173
40
0.41914729631037
40
0.425506200725232
40
0.431864898253825
40
0.438223570059075
40
0.444582443561265
40
0.450941386105643
40
0.457300263019753
40
0.463658937686704
40
0.470043933631227
40
0.476429130930652
40
0.482814396302114
40
0.489199595389828
40
0.495584592834254
40
0.501943244186252
40
0.508302092315026
40
0.514661006160331
40
0.521019854504418
40
0.527378506037008
40
0.533737153560955
40
0.54009599720646
40
0.546454906685755
40
0.552813751183689
40
0.559172399422598
40
0.565557829670503
40
0.571943459499745
40
0.578329155314674
40
0.584714784095132
40
0.591100213463385
40
0.597458876376343
40
0.603817737940282
40
0.610176664573583
40
0.616535523937797
40
0.622894185005766
40
0.629252863119379
40
0.63561174313071
40
0.64197068954303
40
0.648329567827514
40
0.654688244492758
40
0.661075841634928
40
0.667463648413096
40
0.673851522958488
40
0.680239325703979
40
0.686626919463792
40
0.692985653553288
40
0.699344600356203
40
0.705703615278974
40
0.712062556769299
40
0.718421286402925
40
0.724780059161618
40
0.731139052647484
40
0.737498116955194
40
0.743857105185166
40
0.750215873535536
40
0.756608115940174
40
0.763000593144069
40
0.769393144492953
40
0.775785613838496
40
0.782177849652015
40
0.788536738952494
40
0.7948958719873
40
0.801255080780944
40
0.807614203360258
40
0.81397308389128
40
0.820332049660185
40
0.826691274717888
40
0.833050580056875
40
0.83940979339562
40
0.845768749335322
40
0.851785572244544
40
0.857802550022025
40
0.863819523895427
40
0.869836341480766
40
0.875797459670631
40
0.881758737650217
40
0.887720010613829
40
0.893681121963544
40
0.899642294792991
40
0.905603638657512
40
0.911564977092704
40
0.917526142518308
40
0.922295118600686
40
0.927064237952025
40
0.931833400860414
40
0.936602512215301
40
0.941371481590776
40
0.946146105465433
40
0.950920885785809
40
0.955695713170166
40
0.960470483806923
40
0.96524509955957
40
0.970014215838309
40
0.974783503647171
40
0.979552842583766
40
0.984322118870471
40
0.989091225485119
40
0.99386739348899
40
0.998643753150372
40
1
40
1
40
1
40
1
41
1
10
-1.69996579751816
20
2.3439945435084
30
0
41
1
10
-1.69996612242068
20
2.3660703945272
30
0
41
1
10
-1.69996676599268
20
2.41015090286334
30
0
41
1
10
-1.69996771261636
20
2.47605686717243
30
0
41
1
10
-1.69996864052676
20
2.5417459584132
30
0
41
1
10
-1.69996954940724
20
2.6071952954691
30
0
41
1
10
-1.69997043939312
20
2.6724046465795
30
0
41
1
10
-1.69997131030937
20
2.73737370489709
30
0
41
1
10
-1.69997216212822
20
2.80212216922942
30
0
41
1
10
-1.69997303028922
20
2.86942085466674
30
0
41
1
10
-1.69997391156758
20
2.93923580280961
30
0
41
1
10
-1.69997480315029
20
3.01153043139536
30
0
41
1
10
-1.69997567040541
20
3.08354106564826
30
0
41
1
10
-1.69997651356834
20
3.15526441556151
30
0
41
1
10
-1.69997733254162
20
3.22666305065809
30
0
41
1
10
-1.69997812744667
20
3.29773824427545
30
0
41
1
10
-1.6999788985374
20
3.36849127064663
30
0
41
1
10
-1.69997964666556
20
3.4389572284027
30
0
41
1
10
-1.69998037219959
20
3.50913351494434
30
0
41
1
10
-1.69998107578815
20
3.57904655059393
30
0
41
1
10
-1.69998175789922
20
3.64869676031914
30
0
41
1
10
-1.69998241898372
20
3.71808443127403
30
0
41
1
10
-1.69998305912482
20
3.78718168475423
30
0
41
1
10
-1.69998367869055
20
3.85598631154
30
0
41
1
10
-1.69998427780191
20
3.92446996780317
30
0
41
1
10
-1.69998485690166
20
3.99263396752795
30
0
41
1
10
-1.69998541657051
20
4.06047952914795
30
0
41
1
10
-1.69998595754723
20
4.12803353747203
30
0
41
1
10
-1.6999864803225
20
4.19529409241293
30
0
41
1
10
-1.69998698561063
20
4.26228258324794
30
0
41
1
10
-1.69998747375966
20
4.32899931621843
30
0
41
1
10
-1.69998794504289
20
4.39544459624518
30
0
41
1
10
-1.69998839976831
20
4.46159619892808
30
0
41
1
10
-1.69998883836408
20
4.52745253815139
30
0
41
1
10
-1.69998929626502
20
4.59844908618541
30
0
41
1
10
-1.69998976943331
20
4.67449525845762
30
0
41
1
10
-1.69999025363783
20
4.75549004498703
30
0
41
1
10
-1.69999071580161
20
4.83602373376709
30
0
41
1
10
-1.69999115777847
20
4.91630999481677
30
0
41
1
10
-1.69999158001055
20
4.9963451381406
30
0
41
1
10
-1.69999198317158
20
5.07612540813765
30
0
41
1
10
-1.69999236700321
20
5.15543555906557
30
0
41
1
10
-1.69999273140481
20
5.23406388203623
30
0
41
1
10
-1.69999307738624
20
5.31201470849937
30
0
41
1
10
-1.69999340560463
20
5.38929241409033
30
0
41
1
10
-1.69999371752819
20
5.4661055150772
30
0
41
1
10
-1.69999401362569
20
5.54245277883016
30
0
41
1
10
-1.69999429459244
20
5.61833480560373
30
0
41
1
10
-1.69999456125915
20
5.69375172381316
30
0
41
1
10
-1.69999481420633
20
5.76870232754076
30
0
41
1
10
-1.69999505416259
20
5.84318520391693
30
0
41
1
10
-1.69999528150545
20
5.91720010726441
30
0
41
1
10
-1.69999549650078
20
5.99074718942914
30
0
41
1
10
-1.69999569976161
20
6.06382579298078
30
0
41
1
10
-1.69999589636036
20
6.13817409809277
30
0
41
1
10
-1.69999608606989
20
6.21375257776918
30
0
41
1
10
-1.69999626855952
20
6.29051954225389
30
0
41
1
10
-1.69999643990347
20
6.36674643718131
30
0
41
1
10
-1.69999660056061
20
6.44243038443333
30
0
41
1
10
-1.69999675072973
20
6.51745035546202
30
0
41
1
10
-1.69999689094843
20
6.5918103885103
30
0
41
1
10
-1.69999702174804
20
6.66551441560417
30
0
41
1
10
-1.69999714379065
20
6.73867960258818
30
0
41
1
10
-1.69999725750823
20
6.81130314134095
30
0
41
1
10
-1.69999736338343
20
6.88338352705535
30
0
41
1
10
-1.69999746170884
20
6.95492056168268
30
0
41
1
10
-1.69999755265234
20
7.02591440148312
30
0
41
1
10
-1.69999763657096
20
7.09636431314721
30
0
41
1
10
-1.69999771377134
20
7.16626786424129
30
0
41
1
10
-1.69999778466466
20
7.2357238532074
30
0
41
1
10
-1.69999784957292
20
7.30472917275314
30
0
41
1
10
-1.69999790868012
20
7.37328027614902
30
0
41
1
10
-1.69999796205885
20
7.44127703693803
30
0
41
1
10
-1.69999800988865
20
7.50871671459502
30
0
41
1
10
-1.69999805227544
20
7.57550177388589
30
0
41
1
10
-1.69999808945128
20
7.64163541431597
30
0
41
1
10
-1.69999812159106
20
7.70712048916739
30
0
41
1
10
-1.69999814885882
20
7.7720500386602
30
0
41
1
10
-1.69999817137188
20
7.83642105426832
30
0
41
1
10
-1.69999818925552
20
7.90023152885286
30
0
41
1
10
-1.69999820259691
20
7.96348071065425
30
0
41
1
10
-1.69999821138997
20
8.02616834508153
30
0
41
1
10
-1.69999821566707
20
8.08829305987291
30
0
41
1
10
-1.69999821544876
20
8.14985224446487
30
0
41
1
10
-1.69999821075625
20
8.21092877488276
30
0
41
1
10
-1.69999820157779
20
8.27151875115829
30
0
41
1
10
-1.69999818782175
20
8.33161785482458
30
0
41
1
10
-1.69999816944727
20
8.39114093902203
30
0
41
1
10
-1.69999814639611
20
8.45008499212932
30
0
41
1
10
-1.6999981186505
20
8.50836757758103
30
0
41
1
10
-1.69999808617055
20
8.56599119699136
30
0
41
1
10
-1.69999804880202
20
8.62295802206794
30
0
41
1
10
-1.69999800632601
20
8.67934492463908
30
0
41
1
10
-1.69999795857657
20
8.73514854859721
30
0
41
1
10
-1.69999790535334
20
8.79036646418814
30
0
41
1
10
-1.69999784658098
20
8.84499695885436
30
0
41
1
10
-1.69999778209748
20
8.89903886288666
30
0
41
1
10
-1.69999771161678
20
8.95249025299632
30
0
41
1
10
-1.69999763488056
20
9.00534814625774
30
0
41
1
10
-1.69999755152986
20
9.05768406885757
30
0
41
1
10
-1.6999974611894
20
9.10949325573566
30
0
41
1
10
-1.69999736346369
20
9.16077033676829
30
0
41
1
10
-1.6999972582193
20
9.21144021124627
30
0
41
1
10
-1.69999714516921
20
9.26149926308435
30
0
41
1
10
-1.69999702420737
20
9.31087541208629
30
0
41
1
10
-1.69999689506991
20
9.35957053168207
30
0
41
1
10
-1.69999675728063
20
9.40758628911836
30
0
41
1
10
-1.69999661016139
20
9.45498759231316
30
0
41
1
10
-1.69999645323204
20
9.50177052180173
30
0
41
1
10
-1.69999628593179
20
9.54793206040911
30
0
41
1
10
-1.69999610799175
20
9.59346936496276
30
0
41
1
10
-1.69999591908909
20
9.63838007468818
30
0
41
1
10
-1.69999571861339
20
9.68266148962772
30
0
41
1
10
-1.69999550601455
20
9.7263099427576
30
0
41
1
10
-1.69999528045768
20
9.7693879690811
30
0
41
1
10
-1.69999504107306
20
9.81188945160707
30
0
41
1
10
-1.69999478702117
20
9.85380749439755
30
0
41
1
10
-1.69999451820638
20
9.89507425282333
30
0
41
1
10
-1.69999423409129
20
9.93568521941329
30
0
41
1
10
-1.69999393461467
20
9.97557617241029
30
0
41
1
10
-1.69999361930771
20
10.0147483685141
30
0
41
1
10
-1.69999328730147
20
10.0532028243903
30
0
41
1
10
-1.69999293718236
20
10.0909942658102
30
0
41
1
10
-1.69999256806462
20
10.1281177947965
30
0
41
1
10
-1.69999217885872
20
10.1645692906338
30
0
41
1
10
-1.69999176920418
20
10.2003447371122
30
0
41
1
10
-1.69999133869334
20
10.235440479533
30
0
41
1
10
-1.6999908861981
20
10.2698524851402
30
0
41
1
10
-1.6999904107571
20
10.3035759121763
30
0
41
1
10
-1.69998991061206
20
10.3366648011913
30
0
41
1
10
-1.69998938419918
20
10.3691105152724
30
0
41
1
10
-1.69998883012916
20
10.4009036191399
30
0
41
1
10
-1.69998824864038
20
10.4319824824015
30
0
41
1
10
-1.69998763887751
20
10.4623413339119
30
0
41
1
10
-1.6999870012762
20
10.4919232665826
30
0
41
1
10
-1.69998633474121
20
10.5207288254414
30
0
41
1
10
-1.69998563769048
20
10.5487578765268
30
0
41
1
10
-1.69998490775715
20
10.5760544081915
30
0
41
1
10
-1.6999841436795
20
10.6026118364451
30
0
41
1
10
-1.6999833439149
20
10.6284239471495
30
0
41
1
10
-1.69998250801884
20
10.6534856380379
30
0
41
1
10
-1.69998163508393
20
10.6777917861197
30
0
41
1
10
-1.69998072309391
20
10.7013357662292
30
0
41
1
10
-1.69997977034933
20
10.7241106002297
30
0
41
1
10
-1.69997879290239
20
10.7457155046249
30
0
41
1
10
-1.69997779168171
20
10.766191707731
30
0
41
1
10
-1.69997676842339
20
10.7855801282915
30
0
41
1
10
-1.69997570354649
20
10.8042559040246
30
0
41
1
10
-1.69997459968839
20
10.8221574330327
30
0
41
1
10
-1.69997345584007
20
10.8392869942767
30
0
41
1
10
-1.699972270053
20
10.8556458849688
30
0
41
1
10
-1.69997103719778
20
10.871280076025
30
0
41
1
10
-1.69996975498735
20
10.8861824063186
30
0
41
1
10
-1.69996842310213
20
10.9003459416392
30
0
41
1
10
-1.69996704109636
20
10.9137638114812
30
0
41
1
10
-1.69996560655206
20
10.9264285863535
30
0
41
1
10
-1.69996421702352
20
10.9375393772494
30
0
41
1
10
-1.69996288237661
20
10.9472575378816
30
0
41
1
10
-1.69996161284907
20
10.9557322539913
30
0
41
1
10
-1.69996030529125
20
10.9637066765373
30
0
41
1
10
-1.69995895906196
20
10.9711762451104
30
0
41
1
10
-1.69995757301354
20
10.9781391703646
30
0
41
1
10
-1.69995614638407
20
10.9845906775241
30
0
41
1
10
-1.69995467779522
20
10.9905255624594
30
0
41
1
10
-1.69995316656029
20
10.9959362044957
30
0
41
1
10
-1.69995161149513
20
11.0008175057901
30
0
41
1
10
-1.69995001179579
20
11.0051627934334
30
0
41
1
10
-1.6999483668597
20
11.008967641953
30
0
41
1
10
-1.69994667631386
20
11.0122272408325
30
0
41
1
10
-1.69994493833782
20
11.0149375653012
30
0
41
1
10
-1.69994315196715
20
11.017092982899
30
0
41
1
10
-1.6999413153198
20
11.0186887576837
30
0
41
1
10
-1.69993942700851
20
11.019718109571
30
0
41
1
10
-1.69993794848434
20
11.0200652372054
30
0
41
1
10
-1.6999378200153
20
11.020100973915
30
0
41
1
10
-1.69993649740843
20
11.0201003516381
30
0
0
SPLINE
5
1A5
100
AcDbEntity
8
SK1
62
256
6
ByLayer
370
18
48
1
60
0
100
AcDbSpline
70
4
71
1
72
4
73
2
40
0
40
0
40
1
40
1
41
1
10
-0.200000005442477
20
-5.19680794508643
30
0
41
1
10
-0.200000000000024
20
-5.19704273475741
30
0
0
SPLINE
5
1A6
100
AcDbEntity
8
SK1
62
256
6
ByLayer
370
18
48
1
60
0
100
AcDbSpline
70
4
71
3
72
56
73
52
40
0
40
0
40
0
40
0
40
0.006761977803773
40
0.0135269305323183
40
0.0202862674469568
40
0.0267830416041125
40
0.0332985254108644
40
0.0398040673120295
40
0.0462872414211212
40
0.0521410840405516
40
0.0580083003715619
40
0.0638565508237443
40
0.0687945473933698
40
0.0737553583851286
40
0.0787182750302334
40
0.0836591559812431
40
0.0901806402150962
40
0.0967222718444798
40
0.103252676238906
40
0.111520841104774
40
0.119815655037805
40
0.128136809107207
40
0.136463473585915
40
0.144758445906575
40
0.158463924577422
40
0.172188079311001
40
0.185938389559093
40
0.199707080911171
40
0.213473697136566
40
0.227207536549772
40
0.249071547844972
40
0.270947041726457
40
0.292833206360783
40
0.314721310082174
40
0.336595903415434
40
0.363455754779285
40
0.390320433482466
40
0.417186978949584
40
0.444049376325915
40
0.479749964521235
40
0.515453542930182
40
0.551155312678759
40
0.596135057302628
40
0.641121165529632
40
0.686111498544725
40
0.731101527369666
40
0.776084560725257
40
0.832135438644148
40
0.888190841404337
40
0.944247259296514
40
1
40
1
40
1
40
1
41
1
10
-0.399999999985102
20
-4.48934893106662
30
0
41
1
10
-0.398641680617972
20
-4.48813637790511
30
0
41
1
10
-0.395861537254683
20
-4.48578185653582
30
0
41
1
10
-0.391510700516363
20
-4.48244674564057
30
0
41
1
10
-0.387016209409357
20
-4.47940010626899
30
0
41
1
10
-0.382372731759284
20
-4.47666901489298
30
0
41
1
10
-0.377578401011622
20
-4.47429566096089
30
0
41
1
10
-0.372572668628812
20
-4.47230817610865
30
0
41
1
10
-0.36753459784706
20
-4.47082570142115
30
0
41
1
10
-0.362497488924908
20
-4.46987644248746
30
0
41
1
10
-0.35751645354501
20
-4.46944405219786
30
0
41
1
10
-0.352724276219822
20
-4.46952891394603
30
0
41
1
10
-0.348183107254819
20
-4.47009223094407
30
0
41
1
10
-0.343930802337096
20
-4.47101923764999
30
0
41
1
10
-0.339746804842
20
-4.47231613210516
30
0
41
1
10
-0.335239001469037
20
-4.47414320826429
30
0
41
1
10
-0.330488622479824
20
-4.47661683026292
30
0
41
1
10
-0.325580466908244
20
-4.47977183707953
30
0
41
1
10
-0.320534768346225
20
-4.48363002004143
30
0
41
1
10
-0.315430354752953
20
-4.48821813413891
30
0
41
1
10
-0.310333459648395
20
-4.49354128290212
30
0
41
1
10
-0.305601663144882
20
-4.49917611521868
30
0
41
1
10
-0.30120483248202
20
-4.50503873302744
30
0
41
1
10
-0.296213872250199
20
-4.51237718561701
30
0
41
1
10
-0.290783264696331
20
-4.52126023360704
30
0
41
1
10
-0.285101566978918
20
-4.53175597678224
30
0
41
1
10
-0.27992926511922
20
-4.54246332161268
30
0
41
1
10
-0.275199302773555
20
-4.55332495198965
30
0
41
1
10
-0.270848137754887
20
-4.56428513725729
30
0
41
1
10
-0.265998907145592
20
-4.57747756686728
30
0
41
1
10
-0.260797515538789
20
-4.59292702735731
30
0
41
1
10
-0.255450429152017
20
-4.61066322694172
30
0
41
1
10
-0.250612362073943
20
-4.62846853610875
30
0
41
1
10
-0.246216796430138
20
-4.64631264519422
30
0
41
1
10
-0.241880192109204
20
-4.66552979939609
30
0
41
1
10
-0.237632797227068
20
-4.68611097547273
30
0
41
1
10
-0.233542095048236
20
-4.70805087053365
30
0
41
1
10
-0.229836311614706
20
-4.72997993636993
30
0
41
1
10
-0.226099125604657
20
-4.75429121130544
30
0
41
1
10
-0.222411481273267
20
-4.78096855586471
30
0
41
1
10
-0.218866154541808
20
-4.80999082897739
30
0
41
1
10
-0.21547001636923
20
-4.84146043459899
30
0
41
1
10
-0.212283643205528
20
-4.87535264368692
30
0
41
1
10
-0.209383915042131
20
-4.91163838776331
30
0
41
1
10
-0.206959716865966
20
-4.94781062932738
30
0
41
1
10
-0.204963585762503
20
-4.98386290621755
30
0
41
1
10
-0.203213269007964
20
-5.02273968189297
30
0
41
1
10
-0.201772108075429
20
-5.06440534681943
30
0
41
1
10
-0.200721882683504
20
-5.10881838352363
30
0
41
1
10
-0.200127205999952
20
-5.15296269263563
30
0
41
1
10
-0.199996323373367
20
-5.18224021730161
30
0
41
1
10
-0.200000005442477
20
-5.19680794508643
30
0
0
SPLINE
5
1A7
100
AcDbEntity
8
SK1
62
256
6
ByLayer
370
18
48
1
60
0
100
AcDbSpline
70
4
71
3
72
54
73
50
40
0
40
0
40
0
40
0
40
0.0100145198681333
40
0.0200255438856703
40
0.026623933682398
40
0.0332412927551338
40
0.0398485125021426
40
0.0464330322424895
40
0.0523397205383355
40
0.0582597496352186
40
0.0641607805511718
40
0.0707945712363089
40
0.0774571626042099
40
0.0840949747093734
40
0.0906627303797025
40
0.0972508515109159
40
0.103827552818743
40
0.11219134640825
40
0.120582570736459
40
0.129000955711548
40
0.137425045194892
40
0.145816501919456
40
0.159678719977209
40
0.173560019513044
40
0.187468111601938
40
0.201395054210068
40
0.215319900139765
40
0.229211204172222
40
0.25121226989176
40
0.273224878848373
40
0.295248200262366
40
0.317273459353914
40
0.339285140919699
40
0.366285627062472
40
0.393290961617004
40
0.420298168101023
40
0.447301207301069
40
0.483188722551737
40
0.519079244187067
40
0.554967947164691
40
0.600358094304271
40
0.645754702770763
40
0.691155609150867
40
0.736556213565282
40
0.781949712645892
40
0.838511175100991
40
0.89507722248702
40
0.951644300929252
40
1
40
1
40
1
40
1
41
1
10
-0.399999999987723
20
10.7720903551645
30
0
41
1
10
-0.398007464135245
20
10.77229193478
30
0
41
1
10
-0.393881897763346
20
10.772754327602
30
0
41
1
10
-0.388039443234334
20
10.7735134227531
30
0
41
1
10
-0.382645051174228
20
10.774309014873
30
0
41
1
10
-0.377829209268886
20
10.7750884374212
30
0
41
1
10
-0.372799415073767
20
10.7759792220378
30
0
41
1
10
-0.36774562449258
20
10.7769552640778
30
0
41
1
10
-0.362702565348116
20
10.7780123914308
30
0
41
1
10
-0.357725706431298
20
10.7791340734224
30
0
41
1
10
-0.352465564319599
20
10.7804045440389
30
0
41
1
10
-0.346974461160065
20
10.7818346513121
30
0
41
1
10
-0.341351558262514
20
10.7834051733395
30
0
41
1
10
-0.335906368363041
20
10.7850290012985
30
0
41
1
10
-0.330719277938862
20
10.7866781535406
30
0
41
1
10
-0.325806416778406
20
10.7883286207937
30
0
41
1
10
-0.320745348003339
20
10.7901189046776
30
0
41
1
10
-0.315617182170567
20
10.792031522789
30
0
41
1
10
-0.310490744202667
20
10.7940487738739
30
0
41
1
10
-0.305732315871578
20
10.7960180800998
30
0
41
1
10
-0.301311788268641
20
10.7979332721613
30
0
41
1
10
-0.296295793298888
20
10.8001973321744
30
0
41
1
10
-0.290839858270201
20
10.8027743239005
30
0
41
1
10
-0.285133681600548
20
10.8056193798904
30
0
41
1
10
-0.279940797663059
20
10.8083488804258
30
0
41
1
10
-0.275193481254211
20
10.8109704939252
30
0
41
1
10
-0.27082760053681
20
10.8134912838429
30
0
41
1
10
-0.265973999214926
20
10.8163968387709
30
0
41
1
10
-0.260776180128486
20
10.8196365749611
30
0
41
1
10
-0.255438373908982
20
10.8231441440541
30
0
41
1
10
-0.250607768865015
20
10.8264811108901
30
0
41
1
10
-0.246218265803373
20
10.8296599718986
30
0
41
1
10
-0.24188883241039
20
10.8329258489697
30
0
41
1
10
-0.237649287765997
20
10.8362548291275
30
0
41
1
10
-0.233566410403529
20
10.8396144352824
30
0
41
1
10
-0.229866904541124
20
10.8427980744725
30
0
41
1
10
-0.226135288131755
20
10.8461479265742
30
0
41
1
10
-0.22245233388518
20
10.8496097958407
30
0
41
1
10
-0.218910502669019
20
10.8531233586239
30
0
41
1
10
-0.215511614102833
20
10.8566800765541
30
0
41
1
10
-0.212318379601176
20
10.8602192682296
30
0
41
1
10
-0.209409668858884
20
10.8636730567215
30
0
41
1
10
-0.206978341274081
20
10.8667906083575
30
0
41
1
10
-0.204976617520742
20
10.8695867251097
30
0
41
1
10
-0.203221573282297
20
10.8722811631323
30
0
41
1
10
-0.201776554362569
20
10.8747975445933
30
0
41
1
10
-0.200723743621051
20
10.8770510034512
30
0
41
1
10
-0.200155025675234
20
10.8787904465816
30
0
41
1
10
-0.200016551665237
20
10.8796881594196
30
0
41
1
10
-0.200004036223494
20
10.8800516520633
30
0
0
SPLINE
5
1A8
100
AcDbEntity
8
SK1
62
256
6
ByLayer
370
18
48
1
60
0
100
AcDbSpline
70
4
71
3
72
76
73
72
40
0
40
0
40
0
40
0
40
0.0365456129496873
40
0.0761482946033748
40
0.115748509572477
40
0.147434421309867
40
0.179123241059675
40
0.210812498587716
40
0.242500295609007
40
0.274185349497602
40
0.297708129051159
40
0.321232129076491
40
0.344755869274488
40
0.368278294498952
40
0.391745035890283
40
0.415213793829413
40
0.438681984402933
40
0.462147952044002
40
0.482836527446638
40
0.503526115237712
40
0.524214214223873
40
0.544501624249077
40
0.564790605150551
40
0.585077088969276
40
0.600301411392321
40
0.615528875783015
40
0.630755229518019
40
0.645978037077887
40
0.65969759194476
40
0.673422144418163
40
0.687144706652291
40
0.700861546496111
40
0.711597762323137
40
0.722344062175914
40
0.733090449421749
40
0.743830390627036
40
0.754561268638144
40
0.761815641675961
40
0.76907408032672
40
0.776331391363453
40
0.783584225840372
40
0.790648697715135
40
0.797719792074421
40
0.804789209672955
40
0.811851392812948
40
0.818329718921967
40
0.824827020836758
40
0.831331601351675
40
0.83783335706299
40
0.84432413103529
40
0.850798093158016
40
0.857277406894909
40
0.863776630087371
40
0.870287192696244
40
0.876799154117446
40
0.883301610513573
40
0.889783086519841
40
0.896812307379279
40
0.903851026747788
40
0.910891642407426
40
0.917923452484562
40
0.924747997992575
40
0.931577816145322
40
0.938408869601199
40
0.945235100859182
40
0.954350241568855
40
0.963474765173619
40
0.972607612799953
40
0.981744558096462
40
0.990878543707051
40
1
40
1
40
1
40
1
41
1
10
-1.23806607120081
20
10.8251483838145
30
0
41
1
10
-1.23350861653494
20
10.8251476996415
30
0
41
1
10
-1.22383233379411
20
10.8250361793598
30
0
41
1
10
-1.20856795228987
20
10.8245153895803
30
0
41
1
10
-1.19334814293571
20
10.8236739499276
30
0
41
1
10
-1.17869328079155
20
10.8226103380361
30
0
41
1
10
-1.1647068481759
20
10.8214006688362
30
0
41
1
10
-1.15023068857104
20
10.8199671190086
30
0
41
1
10
-1.13523432699697
20
10.8183136455445
30
0
41
1
10
-1.12102209952378
20
10.8166046407209
30
0
41
1
10
-1.10772363756814
20
10.814903112779
30
0
41
1
10
-1.09545846784884
20
10.8132633558896
30
0
41
1
10
-1.08282685703667
20
10.8115112198576
30
0
41
1
10
-1.06981717646241
20
10.8096504992771
30
0
41
1
10
-1.05641033922085
20
10.8076836021909
30
0
41
1
10
-1.0425738431189
20
10.805614061726
30
0
41
1
10
-1.02826223149092
20
10.8034438116005
30
0
41
1
10
-1.01402665025748
20
10.8012657878228
30
0
41
1
10
-0.999904434412562
20
10.7990960587071
30
0
41
1
10
-0.985925375622253
20
10.7969501458354
30
0
41
1
10
-0.971540570978907
20
10.7947531426814
30
0
41
1
10
-0.956726556737783
20
10.7925101351974
30
0
41
1
10
-0.941442501121998
20
10.7902278871753
30
0
41
1
10
-0.926859714455245
20
10.7880913491495
30
0
41
1
10
-0.913110417839864
20
10.7861176702907
30
0
41
1
10
-0.900318998784466
20
10.7843208358846
30
0
41
1
10
-0.887077734441607
20
10.7825084006797
30
0
41
1
10
-0.873803628390643
20
10.7807450335931
30
0
41
1
10
-0.860520960259169
20
10.7790357579146
30
0
41
1
10
-0.847241071790728
20
10.7773869218867
30
0
41
1
10
-0.833454317200747
20
10.7757448255787
30
0
41
1
10
-0.820159138411718
20
10.7742343197138
30
0
41
1
10
-0.807455542448987
20
10.7728569545479
30
0
41
1
10
-0.795434249806717
20
10.7716137188379
30
0
41
1
10
-0.782989937215521
20
10.7703945761134
30
0
41
1
10
-0.770101517120264
20
10.7692069835285
30
0
41
1
10
-0.758187294848963
20
10.7681819978668
30
0
41
1
10
-0.747391563370024
20
10.7673117134852
30
0
41
1
10
-0.737842893667652
20
10.7665861170389
30
0
41
1
10
-0.728049582449883
20
10.7658890948631
30
0
41
1
10
-0.718094957865713
20
10.7652303754339
30
0
41
1
10
-0.707978851815238
20
10.7646129679285
30
0
41
1
10
-0.697706534434974
20
10.7640400692191
30
0
41
1
10
-0.687194793853505
20
10.7635110667584
30
0
41
1
10
-0.676749865076775
20
10.7630438804731
30
0
41
1
10
-0.666387778040696
20
10.7626396068859
30
0
41
1
10
-0.656136645013052
20
10.7622965441553
30
0
41
1
10
-0.645717369987542
20
10.7620053599826
30
0
41
1
10
-0.635167609154256
20
10.7617695893927
30
0
41
1
10
-0.624525463306048
20
10.7615927091691
30
0
41
1
10
-0.613814901912915
20
10.7614778817908
30
0
41
1
10
-0.603051939095129
20
10.7614293959673
30
0
41
1
10
-0.592260009760999
20
10.7614456739692
30
0
41
1
10
-0.581476427693595
20
10.7615248393771
30
0
41
1
10
-0.570750562487811
20
10.7616653314967
30
0
41
1
10
-0.560131387561519
20
10.7618653772076
30
0
41
1
10
-0.549356791593855
20
10.762131549568
30
0
41
1
10
-0.538459768636453
20
10.762467394459
30
0
41
1
10
-0.527462863648766
20
10.7628717729002
30
0
41
1
10
-0.516679803849751
20
10.7633310033924
30
0
41
1
10
-0.506232843800948
20
10.763835160524
30
0
41
1
10
-0.496121814316902
20
10.7643782025425
30
0
41
1
10
-0.486334921923911
20
10.7649542019046
30
0
41
1
10
-0.476773566013339
20
10.7655645282211
30
0
41
1
10
-0.466395474439734
20
10.7662769526631
30
0
41
1
10
-0.455283232664487
20
10.7670992434047
30
0
41
1
10
-0.443526343320363
20
10.7680377291289
30
0
41
1
10
-0.4321265528311
20
10.7690117831752
30
0
41
1
10
-0.421072412055724
20
10.7700152381809
30
0
41
1
10
-0.410355646327625
20
10.7710426142126
30
0
41
1
10
-0.403415582063274
20
10.7717390631668
30
0
41
1
10
-0.400000000000013
20
10.7720903551641
30
0
0
SPLINE
5
1A9
100
AcDbEntity
8
SK1
62
256
6
ByLayer
370
18
48
1
60
0
100
AcDbSpline
70
4
71
1
72
4
73
2
40
0
40
0
40
1
40
1
41
1
10
-1.49999999999999
20
10.8251483838183
30
0
41
1
10
-1.2380472093398
20
10.8251483838183
30
0
0
SPLINE
5
1AA
100
AcDbEntity
8
SK1
62
256
6
ByLayer
370
18
48
1
60
0
100
AcDbSpline
70
4
71
3
72
58
73
54
40
0
40
0
40
0
40
0
40
0.0115476554189552
40
0.0310901255599042
40
0.0486692581042438
40
0.0627026229484809
40
0.0751654748339867
40
0.0860563103485252
40
0.0953745617025338
40
0.103121072924658
40
0.108378238605354
40
0.112550751916084
40
0.115648928770893
40
0.117283510019496
40
0.118362796707608
40
0.118729603374637
40
0.118885076529125
40
0.119032287396306
40
0.119619075418187
40
0.139028429138708
40
0.159492751987071
40
0.180074228401826
40
0.207470566373491
40
0.235401681382066
40
0.264880524822324
40
0.291404482411536
40
0.3190928172069
40
0.347944562264581
40
0.377723575057538
40
0.407433597055537
40
0.436921484725884
40
0.466144181951935
40
0.495827053666593
40
0.525145335316361
40
0.554060020496655
40
0.572234644196208
40
0.590222576307909
40
0.608516842518931
40
0.628353656470564
40
0.649770095898382
40
0.672737037825986
40
0.694523822365313
40
0.717485134271881
40
0.741582722382451
40
0.766771902289731
40
0.793001268465883
40
0.820212530760763
40
0.848340497538854
40
0.877313224230817
40
0.907052340831911
40
0.93747356497967
40
0.968487398978826
40
1
40
1
40
1
40
1
41
1
10
-1.69993481969334
20
11.0199644220599
30
0
41
1
10
-1.69993163722858
20
11.0198437321643
30
0
41
1
10
-1.69992256952215
20
11.0195127647231
30
0
41
1
10
-1.6999064723486
20
11.018972472421
30
0
41
1
10
-1.69988650665289
20
11.0183662468788
30
0
41
1
10
-1.69986647140861
20
11.0178060017865
30
0
41
1
10
-1.69984685778059
20
11.0172937152053
30
0
41
1
10
-1.69982697954314
20
11.0168052290619
30
0
41
1
10
-1.69980704375797
20
11.0163414981183
30
0
41
1
10
-1.69978805602406
20
11.0159211706377
30
0
41
1
10
-1.69977032627552
20
11.0155450004637
30
0
41
1
10
-1.69975438499964
20
11.0152184282915
30
0
41
1
10
-1.69973986461439
20
11.0149299581723
30
0
41
1
10
-1.69972662170056
20
11.0146743001593
30
0
41
1
10
-1.69971674872282
20
11.0144873165271
30
0
41
1
10
-1.69970870540557
20
11.0143378445809
30
0
41
1
10
-1.69970469288511
20
11.0142639079067
30
0
41
1
10
-1.69969910479642
20
11.0141614491591
30
0
41
1
10
-1.69957202606289
20
11.0118583244451
30
0
41
1
10
-1.69923610551817
20
11.0072205571368
30
0
41
1
10
-1.69849767315881
20
11.0003245167381
30
0
41
1
10
-1.69738613694603
20
10.9925480796163
30
0
41
1
10
-1.69579808814743
20
10.983981032448
30
0
41
1
10
-1.69357023079115
20
10.974504872693
30
0
41
1
10
-1.69090451745256
20
10.9652460570733
30
0
41
1
10
-1.68780505028117
20
10.9561537717316
30
0
41
1
10
-1.68431105596103
20
10.9472825522306
30
0
41
1
10
-1.68023583058874
20
10.9382509965473
30
0
41
1
10
-1.67560405061777
20
10.9292298117784
30
0
41
1
10
-1.67048000871551
20
10.9203944328394
30
0
41
1
10
-1.6649474733262
20
10.9118851306186
30
0
41
1
10
-1.65899410966937
20
10.9036688233856
30
0
41
1
10
-1.65264413033588
20
10.8957798659565
30
0
41
1
10
-1.64592565913498
20
10.8882500313573
30
0
41
1
10
-1.63976604001153
20
10.8820065508584
30
0
41
1
10
-1.6343103602213
20
10.8769073857344
30
0
41
1
10
-1.62961444060464
20
10.872784466236
30
0
41
1
10
-1.62464499082169
20
10.8686889187134
30
0
41
1
10
-1.61923225552413
20
10.8645185323359
30
0
41
1
10
-1.61323887369377
20
10.8602309321217
30
0
41
1
10
-1.60689930459881
20
10.8560521291035
30
0
41
1
10
-1.60025236680847
20
10.8520289680222
30
0
41
1
10
-1.59334200283405
20
10.8482017728463
30
0
41
1
10
-1.58593354159866
20
10.8444822759416
30
0
41
1
10
-1.57803215270062
20
10.8409262842104
30
0
41
1
10
-1.5696493250739
20
10.8375911163195
30
0
41
1
10
-1.56080342434042
20
10.834534611309
30
0
41
1
10
-1.55152008655451
20
10.8318140066167
30
0
41
1
10
-1.5418325048895
20
10.8294846937942
30
0
41
1
10
-1.53178104531256
20
10.8275988821431
30
0
41
1
10
-1.52141425504385
20
10.826204302013
30
0
41
1
10
-1.51078316501606
20
10.8253427037342
30
0
41
1
10
-1.50361744823536
20
10.8251485171847
30
0
41
1
10
-1.49999999999999
20
10.8251483838118
30
0
0
SPLINE
5
1AB
100
AcDbEntity
8
SK1
62
256
6
ByLayer
370
18
48
1
60
0
100
AcDbSpline
70
4
71
2
72
6
73
3
40
0
40
0
40
0
40
1
40
1
40
1
41
1
10
-19
20
9.99961658101914
30
0
41
1
10
-18.5001472916301
20
10.3054626291052
30
0
41
1
10
-18.0002949072371
20
10.6113090758985
30
0
0
SPLINE
5
1AC
100
AcDbEntity
8
SK1
62
256
6
ByLayer
370
18
48
1
60
0
100
AcDbSpline
70
4
71
3
72
59
73
55
40
0
40
0
40
0
40
0
40
0.0321058315139704
40
0.0637022096166683
40
0.0946931250182141
40
0.124987028118336
40
0.154497722300224
40
0.183145078795795
40
0.210855562075951
40
0.237562564167764
40
0.263206554834372
40
0.28773506166836
40
0.311102499545194
40
0.333269872460501
40
0.35533954354187
40
0.376002738719012
40
0.39523411492531
40
0.413017120885761
40
0.43025544897404
40
0.45802874870871
40
0.486205867960258
40
0.514754423480581
40
0.543639451620919
40
0.573421895102421
40
0.603473722611785
40
0.633750814361009
40
0.664075374142865
40
0.693423902387465
40
0.721584389407089
40
0.74855611055252
40
0.778235259268899
40
0.806369602174693
40
0.818057390493608
40
0.829725557243273
40
0.841371541210599
40
0.85299281243998
40
0.864586875202239
40
0.876245367990435
40
0.88702692581368
40
0.898403852667286
40
0.899526666800376
40
0.900006667596328
40
0.901329492355452
40
0.903193162607014
40
0.90656030596946
40
0.910956941563045
40
0.91639299352001
40
0.924294676534413
40
0.933703585670431
40
0.944620944801844
40
0.957046527665069
40
0.970979147290757
40
0.988043367303014
40
1
40
1
40
1
40
1
41
1
10
-1.49999999999999
20
-10.825148341587
30
0
41
1
10
-1.50362516555079
20
-10.8251484761826
30
0
41
1
10
-1.51080597112543
20
-10.8253434858904
30
0
41
1
10
-1.52145908758311
20
-10.8262087036889
30
0
41
1
10
-1.53184652064324
20
-10.8276090220466
30
0
41
1
10
-1.54191694370671
20
-10.8295023877419
30
0
41
1
10
-1.55162154928082
20
-10.8318407243205
30
0
41
1
10
-1.5609197826383
20
-10.8345714494739
30
0
41
1
10
-1.56977832582606
20
-10.8376387857386
30
0
41
1
10
-1.57817148174133
20
-10.8409851107502
30
0
41
1
10
-1.58608088056421
20
-10.8445522127184
30
0
41
1
10
-1.59349508236738
20
-10.848282424807
30
0
41
1
10
-1.60040899826486
20
-10.8521196151317
30
0
41
1
10
-1.60693268965046
20
-10.8560764129123
30
0
41
1
10
-1.61304907140601
20
-10.8601068240601
30
0
41
1
10
-1.61874580766426
20
-10.8641635585777
30
0
41
1
10
-1.62391797420346
20
-10.868116534123
30
0
41
1
10
-1.62866423863011
20
-10.8719854251926
30
0
41
1
10
-1.63402261467132
20
-10.8766242774831
30
0
41
1
10
-1.6400591339932
20
-10.8822665230709
30
0
41
1
10
-1.64671221735304
20
-10.8891033368188
30
0
41
1
10
-1.65311275884274
20
-10.8963459041453
30
0
41
1
10
-1.65926709288709
20
-10.9040325978254
30
0
41
1
10
-1.6651317968348
20
-10.9121532544692
30
0
41
1
10
-1.67066329995259
20
-10.9206924793767
30
0
41
1
10
-1.67578229265463
20
-10.929556087341
30
0
41
1
10
-1.68040386127086
20
-10.9385999232952
30
0
41
1
10
-1.68446481620429
20
-10.9476473144594
30
0
41
1
10
-1.6879424757448
20
-10.9565288774197
30
0
41
1
10
-1.69101377368721
20
-10.9655980368543
30
0
41
1
10
-1.69364611457938
20
-10.9748019317012
30
0
41
1
10
-1.69543213193906
20
-10.9824431591518
30
0
41
1
10
-1.69656332243175
20
-10.9881435063677
30
0
41
1
10
-1.69725553231189
20
-10.992033010747
30
0
41
1
10
-1.69786965852806
20
-10.9959279290898
30
0
41
1
10
-1.69840583022882
20
-10.9998261061241
30
0
41
1
10
-1.69886536185073
20
-11.0037347264132
30
0
41
1
10
-1.69923897246307
20
-11.0075600310549
30
0
41
1
10
-1.69953127067538
20
-11.0112954289915
30
0
41
1
10
-1.69967483734999
20
-11.0136570514499
30
0
41
1
10
-1.69974546193646
20
-11.015041071732
30
0
41
1
10
-1.69975693037139
20
-11.0152709428318
30
0
41
1
10
-1.69976676365575
20
-11.0154720757634
30
0
41
1
10
-1.69977978541359
20
-11.0157446515339
30
0
41
1
10
-1.6997937902675
20
-11.0160473759328
30
0
41
1
10
-1.69980880822524
20
-11.0163835500196
30
0
41
1
10
-1.69982512767733
20
-11.0167633444162
30
0
41
1
10
-1.69984223061462
20
-11.0171804278763
30
0
41
1
10
-1.6998598206418
20
-11.0176331414303
30
0
41
1
10
-1.69987701689446
20
-11.0181026566932
30
0
41
1
10
-1.69989367693072
20
-11.0185880781377
30
0
41
1
10
-1.69991028901208
20
-11.0191081446099
30
0
41
1
10
-1.69992420927319
20
-11.0195831804587
30
0
41
1
10
-1.69993245436449
20
-11.0198868385502
30
0
41
1
10
-1.69993562747777
20
-11.0200085306332
30
0
0
SPLINE
5
1AD
100
AcDbEntity
8
SK1
62
256
6
ByLayer
370
18
48
1
60
0
100
AcDbSpline
70
4
71
1
72
4
73
2
40
0
40
0
40
1
40
1
41
1
10
-1.23802920586218
20
-10.8251483415938
30
0
41
1
10
-1.49999999999999
20
-10.8251483415938
30
0
0
SPLINE
5
1AE
100
AcDbEntity
8
SK1
62
256
6
ByLayer
370
18
48
1
60
0
100
AcDbSpline
70
4
71
1
72
4
73
2
40
0
40
0
40
1
40
1
41
1
10
-0.200000006389663
20
5.1967884357316
30
0
41
1
10
-0.200000000000027
20
5.19704283599542
30
0
0
SPLINE
5
1AF
100
AcDbEntity
8
SK1
62
256
6
ByLayer
370
18
48
1
60
0
100
AcDbSpline
70
4
71
2
72
6
73
3
40
0
40
0
40
0
40
1
40
1
40
1
41
1
10
-18.0002916508393
20
-10.6098973116691
30
0
41
1
10
-18.5001458312575
20
-10.3041895565537
30
0
41
1
10
-19
20
-9.99848199241104
30
0
0
SPLINE
5
1B0
100
AcDbEntity
8
1
62
256
6
ByLayer
370
18
48
1
60
0
100
AcDbSpline
70
4
71
3
72
10
73
6
40
0
40
0
40
0
40
0
40
0.2792168584431
40
0.703194882497279
40
1
40
1
40
1
40
1
41
1
10
72.6912011891562
20
-8.14631087936647
30
0
41
1
10
72.5969918601388
20
-8.14842816414108
30
0
41
1
10
72.3677194658348
20
-8.13008447621405
30
0
41
1
10
72.0531964827946
20
-8.01228670789806
30
0
41
1
10
71.86857911851
20
-7.87320942895121
30
0
41
1
10
71.7975848573988
20
-7.80590133831322
30
0
0
SPLINE
5
1B1
100
AcDbEntity
8
1
62
256
6
ByLayer
370
18
48
1
60
0
100
AcDbSpline
70
4
71
3
72
11
73
7
40
0
40
0
40
0
40
0
40
0.0393155496258022
40
0.472093332339842
40
0.905732250252726
40
1
40
1
40
1
40
1
41
1
10
73.7045739923732
20
-6.21603347857643
30
0
41
1
10
73.7119253765731
20
-6.22630680768538
30
0
41
1
10
73.7980228783881
20
-6.35068308818848
30
0
41
1
10
73.9177034519145
20
-6.62127247557623
30
0
41
1
10
73.937190845195
20
-6.93567784413295
30
0
41
1
10
73.9114118941347
20
-7.10375309020566
30
0
41
1
10
73.9056524353114
20
-7.13381585877721
30
0
0
SPLINE
5
1B2
100
AcDbEntity
8
1
62
256
6
ByLayer
370
18
48
1
60
0
100
AcDbSpline
70
4
71
3
72
10
73
6
40
0
40
0
40
0
40
0
40
0.2792168584431
40
0.703194882497279
40
1
40
1
40
1
40
1
41
1
10
72.6912011891562
20
-8.14631087936647
30
0
41
1
10
72.5969918601388
20
-8.14842816414108
30
0
41
1
10
72.3677194658348
20
-8.13008447621405
30
0
41
1
10
72.0531964827946
20
-8.01228670789806
30
0
41
1
10
71.86857911851
20
-7.87320942895121
30
0
41
1
10
71.7975848573988
20
-7.80590133831322
30
0
0
SPLINE
5
1B3
100
AcDbEntity
8
1
62
256
6
ByLayer
370
18
48
1
60
0
100
AcDbSpline
70
4
71
3
72
11
73
7
40
0
40
0
40
0
40
0
40
0.0393155496258022
40
0.472093332339842
40
0.905732250252726
40
1
40
1
40
1
40
1
41
1
10
73.7045739923732
20
-6.21603347857643
30
0
41
1
10
73.7119253765731
20
-6.22630680768538
30
0
41
1
10
73.7980228783881
20
-6.35068308818848
30
0
41
1
10
73.9177034519145
20
-6.62127247557623
30
0
41
1
10
73.937190845195
20
-6.93567784413295
30
0
41
1
10
73.9114118941347
20
-7.10375309020566
30
0
41
1
10
73.9056524353114
20
-7.13381585877721
30
0
0
SPLINE
5
1B4
100
AcDbEntity
8
1
62
256
6
ByLayer
370
18
48
1
60
0
100
AcDbSpline
70
4
71
1
72
4
73
2
40
0
40
0
40
1
40
1
41
1
10
64.9839004999304
20
-3.73622683538935
30
0
41
1
10
64.9940454099464
20
-3.73400206449361
30
0
0
SPLINE
5
1B5
100
AcDbEntity
8
1
62
256
6
ByLayer
370
18
48
1
60
0
100
AcDbSpline
70
4
71
2
72
6
73
3
40
0
40
0
40
0
40
1
40
1
40
1
41
1
10
64.9481286416873
20
-1.39313926684008
30
0
41
1
10
64.9482546302644
20
-2.58547221631329
30
0
41
1
10
64.9940454099459
20
-3.73400206449372
30
0
0
SPLINE
5
1B6
100
AcDbEntity
8
1
62
256
6
ByLayer
370
18
48
1
60
0
100
AcDbSpline
70
4
71
2
72
6
73
3
40
0
40
0
40
0
40
1
40
1
40
1
41
1
10
64.9481286416873
20
-1.39313926684008
30
0
41
1
10
64.9482546302644
20
-2.58547221631329
30
0
41
1
10
64.9940454099459
20
-3.73400206449372
30
0
0
SPLINE
5
1B7
100
AcDbEntity
8
1
62
256
6
ByLayer
370
18
48
1
60
0
100
AcDbSpline
70
4
71
2
72
6
73
3
40
0
40
0
40
0
40
1
40
1
40
1
41
1
10
64.9481286416873
20
-1.39313926684008
30
0
41
1
10
64.9482546302644
20
-2.58547221631329
30
0
41
1
10
64.9940454099459
20
-3.73400206449372
30
0
0
SPLINE
5
1B8
100
AcDbEntity
8
1
62
256
6
ByLayer
370
18
48
1
60
0
100
AcDbSpline
70
4
71
3
72
12
73
8
40
0
40
0
40
0
40
0
40
0.0810804317093406
40
0.376801997910404
40
0.648307724015807
40
0.846806021251473
40
1
40
1
40
1
40
1
41
1
10
75.2393932776305
20
1.17566944478227
30
0
41
1
10
75.236344685669
20
1.19082648623464
30
0
41
1
10
75.2205024610493
20
1.25985065511736
30
0
41
1
10
75.1825215419999
20
1.34727141309298
30
0
41
1
10
75.1078130940523
20
1.47578889622133
30
0
41
1
10
74.961954294413
20
1.5803175202301
30
0
41
1
10
74.8582197131013
20
1.59755648395037
30
0
41
1
10
74.8079770733933
20
1.60000000000002
30
0
0
SPLINE
5
1B9
100
AcDbEntity
8
1
62
256
6
ByLayer
370
18
48
1
60
0
100
AcDbSpline
70
4
71
3
72
13
73
9
40
0
40
0
40
0
40
0
40
0.029923670239136
40
0.248046895285141
40
0.439074488872199
40
0.659977273836594
40
0.973166191370544
40
1
40
1
40
1
40
1
41
1
10
74.8060714023382
20
-4.39531383364101
30
0
41
1
10
74.813894893661
20
-4.39709772556415
30
0
41
1
10
74.8781079765698
20
-4.40906115321809
30
0
41
1
10
74.9965437866019
20
-4.35826773309714
30
0
41
1
10
75.1062720192486
20
-4.2695003095962
30
0
41
1
10
75.1751067152532
20
-4.16166313635074
30
0
41
1
10
75.2073183774213
20
-4.09587417647981
30
0
41
1
10
75.2205311344014
20
-4.04442640533244
30
0
41
1
10
75.2215291453994
20
-4.04034908070861
30
0
0
SPLINE
5
1BA
100
AcDbEntity
8
1
62
256
6
ByLayer
370
18
48
1
60
0
100
AcDbSpline
70
4
71
3
72
9
73
5
40
0
40
0
40
0
40
0
40
0.674676701919594
40
1
40
1
40
1
40
1
41
1
10
75.4704395913067
20
3.84111287872571
30
0
41
1
10
75.4600269752692
20
3.90557275241383
30
0
41
1
10
75.4386200139793
20
3.99574793633047
30
0
41
1
10
75.4127865016416
20
4.07008920483219
30
0
41
1
10
75.4031271333398
20
4.09399838960348
30
0
0
SPLINE
5
1BB
100
AcDbEntity
8
1
62
256
6
ByLayer
370
18
48
1
60
0
100
AcDbSpline
70
4
71
3
72
8
73
4
40
0
40
0
40
0
40
0
40
1
40
1
40
1
40
1
41
1
10
75.4299764882425
20
-1.21723318331033
30
0
41
1
10
75.4451112020479
20
-1.16871702471417
30
0
41
1
10
75.4582069437378
20
-1.11634359888728
30
0
41
1
10
75.467377710955
20
-1.06225148878281
30
0
0
SPLINE
5
1BC
100
AcDbEntity
8
1
62
256
6
ByLayer
370
18
48
1
60
0
100
AcDbSpline
70
4
71
3
72
9
73
5
40
0
40
0
40
0
40
0
40
0.731438625524889
40
1
40
1
40
1
40
1
41
1
10
71.4649329394115
20
-7.21992748513406
30
0
41
1
10
71.4840358783906
20
-7.14763989294414
30
0
41
1
10
71.5205852988292
20
-7.05053464616554
30
0
41
1
10
71.5662330557305
20
-6.9577318130996
30
0
41
1
10
71.579154751209
20
-6.93317091437348
30
0
0
SPLINE
5
1BD
100
AcDbEntity
8
1
62
256
6
ByLayer
370
18
48
1
60
0
100
AcDbSpline
70
4
71
3
72
8
73
4
40
0
40
0
40
0
40
0
40
1
40
1
40
1
40
1
41
1
10
74.2147343652615
20
-7.45168035110777
30
0
41
1
10
74.2156619492027
20
-7.4893941471035
30
0
41
1
10
74.2146725109594
20
-7.52740947278625
30
0
41
1
10
74.2118879105808
20
-7.56580905135076
30
0
0
SPLINE
5
1BE
100
AcDbEntity
8
1
62
256
6
ByLayer
370
18
48
1
60
0
100
AcDbSpline
70
4
71
3
72
28
73
24
40
0
40
0
40
0
40
0
40
0.0150369069020645
40
0.0150369069020645
40
0.0981186418858685
40
0.0981186418858685
40
0.181219540011662
40
0.181219540011662
40
0.295253230613826
40
0.295253230613826
40
0.367364426758563
40
0.367364426758563
40
0.444270175317911
40
0.444270175317911
40
0.540606423808344
40
0.540606423808344
40
0.657731681451335
40
0.657731681451335
40
0.774746419981656
40
0.774746419981656
40
0.891711459268043
40
0.891711459268043
40
1
40
1
40
1
40
1
41
1
10
72.7459598387134
20
8.6946933843189
30
0
41
1
10
72.745675012973
20
8.69612731025904
30
0
41
1
10
72.7454328616758
20
8.69756919500765
30
0
41
1
10
72.7441605999707
20
8.70691277470922
30
0
41
1
10
72.7444687407213
20
8.71510330245695
30
0
41
1
10
72.7482087036253
20
8.73077999571683
30
0
41
1
10
72.7516922824132
20
8.73844806830289
30
0
41
1
10
72.762781180313
20
8.75476659945286
30
0
41
1
10
72.771575361829
20
8.76305364813049
30
0
41
1
10
72.7875472397883
20
8.77421217486153
30
0
41
1
10
72.7942480125378
20
8.77805106191693
30
0
41
1
10
72.8086013543094
20
8.78501839645054
30
0
41
1
10
72.8163324489692
20
8.78810614968529
30
0
41
1
10
72.8340955840901
20
8.79407318714743
30
0
41
1
10
72.8442655990948
20
8.79672187559567
30
0
41
1
10
72.8670441358298
20
8.80136315944083
30
0
41
1
10
72.8797638014159
20
8.80310377222878
30
0
41
1
10
72.9052851490175
20
8.8052539398646
30
0
41
1
10
72.9181305347892
20
8.80566656782463
30
0
41
1
10
72.9437836498028
20
8.80534021077739
30
0
41
1
10
72.9566221353181
20
8.8046004209607
30
0
41
1
10
72.9812274088231
20
8.80216006738749
30
0
41
1
10
72.9930239243533
20
8.80053227840864
30
0
41
1
10
73.004734546293
20
8.79846808738898
30
0
0
SPLINE
5
1BF
100
AcDbEntity
8
1
62
256
6
ByLayer
370
18
48
1
60
0
100
AcDbSpline
70
4
71
3
72
26
73
22
40
0
40
0
40
0
40
0
40
0.0742301486966583
40
0.0742301486966583
40
0.125696238145302
40
0.125696238145302
40
0.200645519550791
40
0.200645519550791
40
0.293529030649963
40
0.293529030649963
40
0.396382571938766
40
0.396382571938766
40
0.499190126833867
40
0.499190126833867
40
0.558129055849234
40
0.558129055849234
40
0.765978231675305
40
0.765978231675305
40
0.910227308046978
40
0.910227308046978
40
1
40
1
40
1
40
1
41
1
10
72.0053227923898
20
8.15332932524461
30
0
41
1
10
72.0133202978637
20
8.14517911037456
30
0
41
1
10
72.0200399889635
20
8.13542271511244
30
0
41
1
10
72.0294936813646
20
8.11772363631604
30
0
41
1
10
72.0328610418519
20
8.11005367805291
30
0
41
1
10
72.0400195565628
20
8.090668576589
30
0
41
1
10
72.043339200008
20
8.07862389868791
30
0
41
1
10
72.049052189817
20
8.05111331735714
30
0
41
1
10
72.0510596642927
20
8.03539971228645
30
0
41
1
10
72.0532449526458
20
8.00200232536224
30
0
41
1
10
72.0532094412558
20
7.98415947839226
30
0
41
1
10
72.0510526057369
20
7.9485865544371
30
0
41
1
10
72.0489232866671
20
7.93074308980169
30
0
41
1
10
72.0440375563722
20
7.90304423136558
30
0
41
1
10
72.041928675566
20
7.89299379723616
30
0
41
1
10
72.0310431900823
20
7.84843281338232
30
0
41
1
10
72.0185982078402
20
7.81453375099034
30
0
41
1
10
71.9904636351287
20
7.76360857112957
30
0
41
1
10
71.976628218321
20
7.74405327450256
30
0
41
1
10
71.9500337339234
20
7.71858519309041
30
0
41
1
10
71.9385735992718
20
7.71013048133676
30
0
41
1
10
71.9261626485137
20
7.70454368079055
30
0
0
SPLINE
5
1C0
100
AcDbEntity
8
1
62
256
6
ByLayer
370
18
48
1
60
0
100
AcDbSpline
70
4
71
3
72
8
73
4
40
0
40
0
40
0
40
0
40
1
40
1
40
1
40
1
41
1
10
73.3540452083693
20
7.02456506953365
30
0
41
1
10
73.3485663359084
20
7.02830747786436
30
0
41
1
10
73.3430857870363
20
7.03205115900647
30
0
41
1
10
73.3376034567509
20
7.03579619312063
30
0
0
SPLINE
5
1C1
100
AcDbEntity
8
1
62
256
6
ByLayer
370
18
48
1
60
0
100
AcDbSpline
70
4
71
3
72
30
73
26
40
0
40
0
40
0
40
0
40
0.0212218158488082
40
0.0212218158488082
40
0.126059559531397
40
0.126059559531397
40
0.201107055764808
40
0.201107055764808
40
0.29411228301634
40
0.29411228301634
40
0.397100605357013
40
0.397100605357013
40
0.500042881042623
40
0.500042881042623
40
0.583971495243438
40
0.583971495243438
40
0.666565148490907
40
0.666565148490907
40
0.76785998442282
40
0.76785998442282
40
0.838720561298806
40
0.838720561298806
40
0.909748878403671
40
0.909748878403671
40
1
40
1
40
1
40
1
41
1
10
73.7238373514863
20
7.85041267928716
30
0
41
1
10
73.7208795556648
20
7.8489887437479
30
0
41
1
10
73.7179778266064
20
7.84740343648866
30
0
41
1
10
73.7013226668806
20
7.83730246528296
30
0
41
1
10
73.6888790324515
20
7.82566331536788
30
0
41
1
10
73.670085756374
20
7.80334241847038
30
0
41
1
10
73.6628840466099
20
7.79315230328405
30
0
41
1
10
73.6481801161873
20
7.76924054220478
30
0
41
1
10
73.6409537680301
20
7.75515455126509
30
0
41
1
10
73.6275361844
20
7.72450742887798
30
0
41
1
10
73.621489705576
20
7.70772411444699
30
0
41
1
10
73.6113787411405
20
7.67355323741663
30
0
41
1
10
73.6072830750336
20
7.65605637400506
30
0
41
1
10
73.6016473783869
20
7.62410570252194
30
0
41
1
10
73.599764876624
20
7.60962038628742
30
0
41
1
10
73.5973977465454
20
7.58095878135111
30
0
41
1
10
73.5968862303341
20
7.56672445105278
30
0
41
1
10
73.5973588191726
20
7.53539435215941
30
0
41
1
10
73.5987030187359
20
7.5182639600514
30
0
41
1
10
73.6031598668875
20
7.49000215014638
30
0
41
1
10
73.6056322704576
20
7.4785522065855
30
0
41
1
10
73.6120720690803
20
7.45643770276428
30
0
41
1
10
73.6160619569012
20
7.4457005441904
30
0
41
1
10
73.6271787154718
20
7.42296062016732
30
0
41
1
10
73.634992565643
20
7.41110854945276
30
0
41
1
10
73.6446772076102
20
7.4016270348331
30
0
0
SPLINE
5
1C2
100
AcDbEntity
8
1
62
256
6
ByLayer
370
18
48
1
60
0
100
AcDbSpline
70
4
71
3
72
26
73
22
40
0
40
0
40
0
40
0
40
0.0086569148800992
40
0.0086569148800992
40
0.125591395712001
40
0.125591395712001
40
0.242553460374253
40
0.242553460374253
40
0.359581429954875
40
0.359581429954875
40
0.476756419376218
40
0.476756419376218
40
0.594287938353996
40
0.594287938353996
40
0.734087980384739
40
0.734087980384739
40
0.816818773651424
40
0.816818773651424
40
0.904422913955495
40
0.904422913955495
40
1
40
1
40
1
40
1
41
1
10
72.0321056991514
20
8.44458144772346
30
0
41
1
10
72.0314941016401
20
8.44385282395893
30
0
41
1
10
72.030884670894
20
8.44312235367545
30
0
41
1
10
72.0220812848494
20
8.43250608981094
30
0
41
1
10
72.01427381164
20
8.42228062393792
30
0
41
1
10
71.9995464866468
20
8.40123584760227
30
0
41
1
10
71.9926117167843
20
8.39039550674943
30
0
41
1
10
71.9797698469668
20
8.36815809601978
30
0
41
1
10
71.9738463865667
20
8.35673338935044
30
0
41
1
10
71.9632641375269
20
8.33336709202575
30
0
41
1
10
71.9585856826332
20
8.32138286675928
30
0
41
1
10
71.9509028304683
20
8.29698195791599
30
0
41
1
10
71.9478754574845
20
8.28448582882606
30
0
41
1
10
71.9439098780892
20
8.25710318677517
30
0
41
1
10
71.9434272980806
20
8.24188263784407
30
0
41
1
10
71.9470156459316
20
8.21896221874761
30
0
41
1
10
71.9493675106692
20
8.21058937118983
30
0
41
1
10
71.9565563918744
20
8.19500261898963
30
0
41
1
10
71.9616514603729
20
8.18771355939862
30
0
41
1
10
71.9744694907786
20
8.17557230216715
30
0
41
1
10
71.9825698431934
20
8.17081405096047
30
0
41
1
10
71.9911227662835
20
8.16780089535473
30
0
0
SPLINE
5
1C3
100
AcDbEntity
8
1
62
256
6
ByLayer
370
18
48
1
60
0
100
AcDbSpline
70
4
71
3
72
8
73
4
40
0
40
0
40
0
40
0
40
1
40
1
40
1
40
1
41
1
10
71.9911227662835
20
8.16780089535473
30
0
41
1
10
71.9958546302469
20
8.16297841449739
30
0
41
1
10
72.0005879420538
20
8.15815458578891
30
0
41
1
10
72.0053227923898
20
8.15332932524461
30
0
0
SPLINE
5
1C4
100
AcDbEntity
8
1
62
256
6
ByLayer
370
18
48
1
60
0
100
AcDbSpline
70
4
71
3
72
26
73
22
40
0
40
0
40
0
40
0
40
0.0086569148768296
40
0.0086569148768296
40
0.125591395709168
40
0.125591395709168
40
0.242553460371786
40
0.242553460371786
40
0.359581429952915
40
0.359581429952915
40
0.476756419374692
40
0.476756419374692
40
0.594287938352892
40
0.594287938352892
40
0.734087980384769
40
0.734087980384769
40
0.816818773651442
40
0.816818773651442
40
0.904422913955513
40
0.904422913955513
40
1
40
1
40
1
40
1
41
1
10
72.6452654537069
20
6.76051615250111
30
0
41
1
10
72.6443284319574
20
6.76068131809956
30
0
41
1
10
72.6433918974953
20
6.76084924992523
30
0
41
1
10
72.6298221989003
20
6.76332383472294
30
0
41
1
10
72.6172693430769
20
6.76613173268902
30
0
41
1
10
72.5924673975645
20
6.77275726356544
30
0
41
1
10
72.5801933653106
20
6.77658139869755
30
0
41
1
10
72.556081153678
20
6.78529838667851
30
0
41
1
10
72.5442126920813
20
6.79020183938553
30
0
41
1
10
72.5211205996586
20
6.80119427635998
30
0
41
1
10
72.5098545451453
20
6.80730313012998
30
0
41
1
10
72.4883383374037
20
6.8208960293768
30
0
41
1
10
72.4780196792034
20
6.82842567708593
30
0
41
1
10
72.457470520463
20
6.84659043151368
30
0
41
1
10
72.4473787393063
20
6.85776189877106
30
0
41
1
10
72.4355210266465
20
6.87726463980647
30
0
41
1
10
72.4319950907931
20
6.88503538274693
30
0
41
1
10
72.4276079813361
20
6.90124250479732
30
0
41
1
10
72.426898703429
20
6.90989529114535
30
0
41
1
10
72.4290729052791
20
6.92698769144891
30
0
41
1
10
72.4323088277971
20
6.93558977172074
30
0
41
1
10
72.4370104030828
20
6.94315448122939
30
0
0
SPLINE
5
1C5
100
AcDbEntity
8
1
62
256
6
ByLayer
370
18
48
1
60
0
100
AcDbSpline
70
4
71
3
72
30
73
26
40
0
40
0
40
0
40
0
40
0.0212218158488461
40
0.0212218158488461
40
0.126059559531424
40
0.126059559531424
40
0.20110705576486
40
0.20110705576486
40
0.294112283016382
40
0.294112283016382
40
0.39710060535702
40
0.39710060535702
40
0.500042881042601
40
0.500042881042601
40
0.583971495243444
40
0.583971495243444
40
0.66656514849092
40
0.66656514849092
40
0.767859984422813
40
0.767859984422813
40
0.838720561298822
40
0.838720561298822
40
0.909748878403655
40
0.909748878403655
40
1
40
1
40
1
40
1
41
1
10
73.3376034567509
20
7.03579619312063
30
0
41
1
10
73.3349310309945
20
7.03762175362203
30
0
41
1
10
73.332146250871
20
7.03931842893076
30
0
41
1
10
73.3152952674783
20
7.04855560950085
30
0
41
1
10
73.2991629367837
20
7.05340914717277
30
0
41
1
10
73.2706871980249
20
7.05836967684718
30
0
41
1
10
73.2583563334821
20
7.05945283430168
30
0
41
1
10
73.2304838512327
20
7.0601141530725
30
0
41
1
10
73.214759514814
20
7.05927420540661
30
0
41
1
10
73.1816584668841
20
7.05547542406333
30
0
41
1
10
73.1641584070001
20
7.05228205156379
30
0
41
1
10
73.1295837459793
20
7.04390159165825
30
0
41
1
10
73.112399120285
20
7.03868670027873
30
0
41
1
10
73.0819016936892
20
7.02759034852221
30
0
41
1
10
73.0683974443562
20
7.02198553300582
30
0
41
1
10
73.0423282726539
20
7.00973600861948
30
0
41
1
10
73.0296999602764
20
7.00308536226407
30
0
41
1
10
73.0026737757208
20
6.98708073554923
30
0
41
1
10
72.9884189663111
20
6.97740173323086
30
0
41
1
10
72.9659841455548
20
6.95951595382337
30
0
41
1
10
72.9572174024024
20
6.95169880362045
30
0
41
1
10
72.9410932696623
20
6.93517363672606
30
0
41
1
10
72.9336835939902
20
6.92641021700581
30
0
41
1
10
72.919289196267
20
6.90556199037007
30
0
41
1
10
72.9127702015435
20
6.892962590693
30
0
41
1
10
72.9092303862115
20
6.87993457447556
30
0
0
SPLINE
5
1C6
100
AcDbEntity
8
1
62
256
6
ByLayer
370
18
48
1
60
0
100
AcDbSpline
70
4
71
3
72
8
73
4
40
0
40
0
40
0
40
0
40
1
40
1
40
1
40
1
41
1
10
72.7407696137885
20
8.67502178560216
30
0
41
1
10
72.7425002400596
20
8.68158094135282
30
0
41
1
10
72.7442303039858
20
8.68813810186049
30
0
41
1
10
72.7459598387134
20
8.6946933843189
30
0
0
SPLINE
5
1C7
100
AcDbEntity
8
1
62
256
6
ByLayer
370
18
48
1
60
0
100
AcDbSpline
70
4
71
3
72
8
73
4
40
0
40
0
40
0
40
0
40
1
40
1
40
1
40
1
41
1
10
73.7420348052865
20
7.85917365713095
30
0
41
1
10
73.7359708815149
20
7.85625411261702
30
0
41
1
10
73.7299051023197
20
7.85333380250745
30
0
41
1
10
73.7238373514863
20
7.85041267928716
30
0
0
SPLINE
5
1C8
100
AcDbEntity
8
1
62
256
6
ByLayer
370
18
48
1
60
0
100
AcDbSpline
70
4
71
3
72
30
73
26
40
0
40
0
40
0
40
0
40
0.0212218158488046
40
0.0212218158488046
40
0.126059559531401
40
0.126059559531401
40
0.201107055764819
40
0.201107055764819
40
0.294112283016334
40
0.294112283016334
40
0.397100605357002
40
0.397100605357002
40
0.500042881042619
40
0.500042881042619
40
0.583971495243453
40
0.583971495243453
40
0.666565148490903
40
0.666565148490903
40
0.767859984422806
40
0.767859984422806
40
0.838720561298803
40
0.838720561298803
40
0.909748878403665
40
0.909748878403665
40
1
40
1
40
1
40
1
41
1
10
73.2112338947354
20
8.59209466620536
30
0
41
1
10
73.2109485246703
20
8.58879892960778
30
0
41
1
10
73.2108315757354
20
8.58547138502246
30
0
41
1
10
73.2110273994023
20
8.56587086808537
30
0
41
1
10
73.2147160956678
20
8.54917878437254
30
0
41
1
10
73.2243985583491
20
8.52159955942363
30
0
41
1
10
73.2295277131278
20
8.51021326410012
30
0
41
1
10
73.2426962649544
20
8.48541535553983
30
0
41
1
10
73.2511942532161
20
8.47206329477103
30
0
41
1
10
73.2708777175158
20
8.44503254061141
30
0
41
1
10
73.2823312985759
20
8.43136994835186
30
0
41
1
10
73.3067949951611
20
8.4054827854967
30
0
41
1
10
73.3198839547486
20
8.39317642323221
30
0
41
1
10
73.3447456846978
20
8.37232210350567
30
0
41
1
10
73.3563674322678
20
8.36345781661294
30
0
41
1
10
73.3800694738915
20
8.34710970762643
30
0
41
1
10
73.3921862700577
20
8.33957339280465
30
0
41
1
10
73.4196850434519
20
8.32438703347322
30
0
41
1
10
73.4352840524247
20
8.31703545527051
30
0
41
1
10
73.4621757213328
20
8.30686651802768
30
0
41
1
10
73.4734148680553
20
8.30333022897793
30
0
41
1
10
73.4959787994179
20
8.29795529827118
30
0
41
1
10
73.507378362911
20
8.29610019885303
30
0
41
1
10
73.5328895192048
20
8.29450016474124
30
0
41
1
10
73.5472223640995
20
8.29543011280452
30
0
41
1
10
73.5604468213987
20
8.29917064039637
30
0
0
SPLINE
5
1C9
100
AcDbEntity
8
1
62
256
6
ByLayer
370
18
48
1
60
0
100
AcDbSpline
70
4
71
3
72
26
73
22
40
0
40
0
40
0
40
0
40
0.0086569148768297
40
0.0086569148768297
40
0.125591395709166
40
0.125591395709166
40
0.242553460371782
40
0.242553460371782
40
0.359581429952907
40
0.359581429952907
40
0.476756419374684
40
0.476756419374684
40
0.594287938352882
40
0.594287938352882
40
0.734087980384798
40
0.734087980384798
40
0.816818773651437
40
0.816818773651437
40
0.904422913955507
40
0.904422913955507
40
1
40
1
40
1
40
1
41
1
10
73.004734546293
20
8.79846808738898
30
0
41
1
10
73.0056715680426
20
8.79830292179054
30
0
41
1
10
73.0066081025047
20
8.79813494400804
30
0
41
1
10
73.0201778010997
20
8.79565902655168
30
0
41
1
10
73.032730656923
20
8.79284157499472
30
0
41
1
10
73.0575326024355
20
8.78617934627613
30
0
41
1
10
73.0698066346894
20
8.78232804184029
30
0
41
1
10
73.0939188463219
20
8.7735362077504
30
0
41
1
10
73.1057873079187
20
8.76858501202696
30
0
41
1
10
73.1288794003414
20
8.75747097267117
30
0
41
1
10
73.1401454548547
20
8.75128808557145
30
0
41
1
10
73.1616616625963
20
8.73751112359338
30
0
41
1
10
73.1719803207966
20
8.7298708880387
30
0
41
1
10
73.192529479537
20
8.71140782340569
30
0
41
1
10
73.2026212606937
20
8.70003470831364
30
0
41
1
10
73.2144789733535
20
8.6801230604795
30
0
41
1
10
73.2180049092069
20
8.67217739342658
30
0
41
1
10
73.2223920186638
20
8.65557122915357
30
0
41
1
10
73.2231012965709
20
8.64668641934475
30
0
41
1
10
73.2209270947209
20
8.6290903057108
30
0
41
1
10
73.2176911722028
20
8.62020740176115
30
0
41
1
10
73.2129895969172
20
8.61237165642399
30
0
0
SPLINE
5
1CA
100
AcDbEntity
8
1
62
256
6
ByLayer
370
18
48
1
60
0
100
AcDbSpline
70
4
71
3
72
8
73
4
40
0
40
0
40
0
40
0
40
1
40
1
40
1
40
1
41
1
10
71.9079651947135
20
7.69635248052242
30
0
41
1
10
71.914029118485
20
7.6990818975039
30
0
41
1
10
71.9200948976802
20
7.7018122773444
30
0
41
1
10
71.9261626485137
20
7.70454368079055
30
0
0
SPLINE
5
1CB
100
AcDbEntity
8
1
62
256
6
ByLayer
370
18
48
1
60
0
100
AcDbSpline
70
4
71
3
72
8
73
4
40
0
40
0
40
0
40
0
40
1
40
1
40
1
40
1
41
1
10
72.3123965432491
20
8.51916016695708
30
0
41
1
10
72.3069142129637
20
8.52309492084538
30
0
41
1
10
72.3014336640916
20
8.52702853225657
30
0
41
1
10
72.2959547916307
20
8.53096106811972
30
0
0
SPLINE
5
1CC
100
AcDbEntity
8
1
62
256
6
ByLayer
370
18
48
1
60
0
100
AcDbSpline
70
4
71
3
72
28
73
24
40
0
40
0
40
0
40
0
40
0.0150369069020673
40
0.0150369069020673
40
0.0981186418859259
40
0.0981186418859259
40
0.181219540011703
40
0.181219540011703
40
0.295253230613854
40
0.295253230613854
40
0.367364426758613
40
0.367364426758613
40
0.444270175317917
40
0.444270175317917
40
0.540606423808373
40
0.540606423808373
40
0.657731681451406
40
0.657731681451406
40
0.774746419981673
40
0.774746419981673
40
0.891711459268081
40
0.891711459268081
40
1
40
1
40
1
40
1
41
1
10
73.5798370724299
20
8.30465555779091
30
0
41
1
10
73.5809181523542
20
8.30562992369732
30
0
41
1
10
73.5820274088194
20
8.30657135659487
30
0
41
1
10
73.5893643019456
20
8.31241471956099
30
0
41
1
10
73.5965091026876
20
8.31630376404786
30
0
41
1
10
73.6117625738414
20
8.32101835076946
30
0
41
1
10
73.6200523979199
20
8.32189137533271
30
0
41
1
10
73.6395340482551
20
8.32056604041475
30
0
41
1
10
73.6510106631189
20
8.31715374979149
30
0
41
1
10
73.6685287165194
20
8.30898348140261
30
0
41
1
10
73.6751583189463
20
8.30512871008989
30
0
41
1
10
73.6882854709155
20
8.29623561100232
30
0
41
1
10
73.694787449435
20
8.29110871152676
30
0
41
1
10
73.7087615822979
20
8.27875850778798
30
0
41
1
10
73.7161052485255
20
8.27129913263047
30
0
41
1
10
73.7314469978178
20
8.25393920092762
30
0
41
1
10
73.7392846142853
20
8.24381512851318
30
0
41
1
10
73.7538587062223
20
8.22282411596092
30
0
41
1
10
73.7606196330327
20
8.21192091305568
30
0
41
1
10
73.7731336701699
20
8.18956629156366
30
0
41
1
10
73.7789014370204
20
8.1780878580613
30
0
41
1
10
73.7890768124144
20
8.15557376860971
30
0
41
1
10
73.7935617908243
20
8.14454907590971
30
0
41
1
10
73.7976288471427
20
8.13337875961184
30
0
0
SPLINE
5
1CD
100
AcDbEntity
8
1
62
256
6
ByLayer
370
18
48
1
60
0
100
AcDbSpline
70
4
71
3
72
26
73
22
40
0
40
0
40
0
40
0
40
0.0271387234018559
40
0.0271387234018559
40
0.133143415962566
40
0.133143415962566
40
0.291286691905317
40
0.291286691905317
40
0.500757280309941
40
0.500757280309941
40
0.626885076481607
40
0.626885076481607
40
0.697530097276023
40
0.697530097276023
40
0.768209951104217
40
0.768209951104217
40
0.838963700896203
40
0.838963700896203
40
0.909884938037449
40
0.909884938037449
40
1
40
1
40
1
40
1
41
1
10
72.7407696137884
20
8.67502178560193
30
0
41
1
10
72.7396870521169
20
8.6709188254606
30
0
41
1
10
72.7383252820673
20
8.66686067301703
30
0
41
1
10
72.7306018775331
20
8.64750614135386
30
0
41
1
10
72.72103639201
20
8.63300459798876
30
0
41
1
10
72.6933096869251
20
8.60018101144334
30
0
41
1
10
72.6727256896497
20
8.5827674976274
30
0
41
1
10
72.6212818097235
20
8.54778472672086
30
0
41
1
10
72.5882980345456
20
8.53137273092636
30
0
41
1
10
72.5338159629601
20
8.51154967376323
30
0
41
1
10
72.5126315108583
20
8.50547243740323
30
0
41
1
10
72.4794390741759
20
8.49857252455973
30
0
41
1
10
72.4674291371647
20
8.49660430136004
30
0
41
1
10
72.4434743449829
20
8.4938275235852
30
0
41
1
10
72.4314878619146
20
8.49301387161677
30
0
41
1
10
72.4077498366476
20
8.49272653923526
30
0
41
1
10
72.3959455789883
20
8.49325203175658
30
0
41
1
10
72.3728300980694
20
8.49592885381759
30
0
41
1
10
72.3614427225236
20
8.49809032970865
30
0
41
1
10
72.3368228568088
20
8.50532671828813
30
0
41
1
10
72.3236100774036
20
8.5111120387308
30
0
41
1
10
72.3123965432491
20
8.51916016695708
30
0
0
SPLINE
5
1CE
100
AcDbEntity
8
1
62
256
6
ByLayer
370
18
48
1
60
0
100
AcDbSpline
70
4
71
3
72
8
73
4
40
0
40
0
40
0
40
0
40
1
40
1
40
1
40
1
41
1
10
72.0895531786013
20
7.25578571968128
30
0
41
1
10
72.0830877019942
20
7.25414668436201
30
0
41
1
10
72.0766243262611
20
7.25250831769733
30
0
41
1
10
72.0701629275701
20
7.25087057986252
30
0
0
SPLINE
5
1CF
100
AcDbEntity
8
1
62
256
6
ByLayer
370
18
48
1
60
0
100
AcDbSpline
70
4
71
3
72
8
73
4
40
0
40
0
40
0
40
0
40
1
40
1
40
1
40
1
41
1
10
73.2129895969172
20
8.61237165642399
30
0
41
1
10
73.2124045456065
20
8.60561463981315
30
0
41
1
10
73.2118193152834
20
8.5988556834269
30
0
41
1
10
73.2112338947354
20
8.59209466620541
30
0
0
SPLINE
5
1D0
100
AcDbEntity
8
1
62
256
6
ByLayer
370
18
48
1
60
0
100
AcDbSpline
70
4
71
3
72
28
73
24
40
0
40
0
40
0
40
0
40
0.0150369069020505
40
0.0150369069020505
40
0.098118641885913
40
0.098118641885913
40
0.181219540011707
40
0.181219540011707
40
0.295253230613843
40
0.295253230613843
40
0.367364426758592
40
0.367364426758592
40
0.444270175317949
40
0.444270175317949
40
0.540606423808386
40
0.540606423808386
40
0.657731681451416
40
0.657731681451416
40
0.774746419981684
40
0.774746419981684
40
0.891711459268081
40
0.891711459268081
40
1
40
1
40
1
40
1
41
1
10
73.6588772337165
20
7.3877252422987
30
0
41
1
10
73.6602431393811
20
7.38728732453683
30
0
41
1
10
73.6615945471436
20
7.38680857910663
30
0
41
1
10
73.6702037019749
20
7.3834486418142
30
0
41
1
10
73.6770403619662
20
7.37926825232438
30
0
41
1
10
73.6885538702161
20
7.36853421195525
30
0
41
1
10
73.6933601155067
20
7.36184880831536
30
0
41
1
10
73.7017528679421
20
7.34443569422416
30
0
41
1
10
73.7044353012899
20
7.33285147458037
30
0
41
1
10
73.705981476731
20
7.313678240272
30
0
41
1
10
73.7059103064085
20
7.30603825396162
30
0
41
1
10
73.704684116606
20
7.29027648569166
30
0
41
1
10
73.7034550004658
20
7.28210634090368
30
0
41
1
10
73.6996659982078
20
7.26387776433052
30
0
41
1
10
73.6968396494307
20
7.25381120844895
30
0
41
1
10
73.689402861988
20
7.23188890883972
30
0
41
1
10
73.6845208128694
20
7.22005902356062
30
0
41
1
10
73.6735735572048
20
7.19697477365628
30
0
41
1
10
73.6674890982435
20
7.18568114569098
30
0
41
1
10
73.654350020367
20
7.16368726797782
30
0
41
1
10
73.6472793017023
20
7.15296083627561
30
0
41
1
10
73.6328494035913
20
7.13290225493017
30
0
41
1
10
73.6255378664711
20
7.12350891744615
30
0
41
1
10
73.6178943008497
20
7.11440279216794
30
0
0
SPLINE
5
1D1
100
AcDbEntity
8
1
62
256
6
ByLayer
370
18
48
1
60
0
100
AcDbSpline
70
4
71
3
72
28
73
24
40
0
40
0
40
0
40
0
40
0.0150369069020683
40
0.0150369069020683
40
0.0981186418859238
40
0.0981186418859238
40
0.181219540011704
40
0.181219540011704
40
0.295253230613846
40
0.295253230613846
40
0.367364426758599
40
0.367364426758599
40
0.444270175317902
40
0.444270175317902
40
0.54060642380835
40
0.54060642380835
40
0.657731681451379
40
0.657731681451379
40
0.774746419981636
40
0.774746419981636
40
0.89171145926804
40
0.89171145926804
40
1
40
1
40
1
40
1
41
1
10
72.0701629275701
20
7.25087057986252
30
0
41
1
10
72.0690818476458
20
7.24993949849983
30
0
41
1
10
72.0679725911806
20
7.24904147844387
30
0
41
1
10
72.0606356980544
20
7.24347867436381
30
0
41
1
10
72.0534908973124
20
7.23983181741909
30
0
41
1
10
72.0382374261586
20
7.23557336303577
30
0
41
1
10
72.0299476020801
20
7.2349196272383
30
0
41
1
10
72.0104659517449
20
7.23670646610975
30
0
41
1
10
71.998989336881
20
7.24034899604732
30
0
41
1
10
71.9814712834806
20
7.24883038605918
30
0
41
1
10
71.9748416810537
20
7.25279250148748
30
0
41
1
10
71.9617145290845
20
7.26188293127763
30
0
41
1
10
71.9552125505649
20
7.26709884659755
30
0
41
1
10
71.9412384177021
20
7.27962637959206
30
0
41
1
10
71.9338947514745
20
7.28716877019775
30
0
41
1
10
71.9185530021821
20
7.30468653377824
30
0
41
1
10
71.9107153857147
20
7.31488020603933
30
0
41
1
10
71.8961412937777
20
7.33598507915895
30
0
41
1
10
71.8893803669672
20
7.34693268786418
30
0
41
1
10
71.8768663298301
20
7.36935608281942
30
0
41
1
10
71.8710985629796
20
7.38085894028859
30
0
41
1
10
71.8609231875856
20
7.4034033388063
30
0
41
1
10
71.8564382091757
20
7.41443516398039
30
0
41
1
10
71.8523711528572
20
7.42560548027825
30
0
0
SPLINE
5
1D2
100
AcDbEntity
8
1
62
256
6
ByLayer
370
18
48
1
60
0
100
AcDbSpline
70
4
71
3
72
8
73
4
40
0
40
0
40
0
40
0
40
1
40
1
40
1
40
1
41
1
10
72.9092303862115
20
6.87993457447556
30
0
41
1
10
72.9074997599404
20
6.87356513849903
30
0
41
1
10
72.9057696960142
20
6.86719790826044
30
0
41
1
10
72.9040401612866
20
6.86083275333448
30
0
0
SPLINE
5
1D3
100
AcDbEntity
8
1
62
256
6
ByLayer
370
18
48
1
60
0
100
AcDbSpline
70
4
71
3
72
30
73
26
40
0
40
0
40
0
40
0
40
0.0212218158488029
40
0.0212218158488029
40
0.126059559531401
40
0.126059559531401
40
0.201107055764819
40
0.201107055764819
40
0.294112283016335
40
0.294112283016335
40
0.397100605357002
40
0.397100605357002
40
0.500042881042618
40
0.500042881042618
40
0.583971495243453
40
0.583971495243453
40
0.666565148490904
40
0.666565148490904
40
0.767859984422805
40
0.767859984422805
40
0.838720561298802
40
0.838720561298802
40
0.909748878403665
40
0.909748878403665
40
1
40
1
40
1
40
1
41
1
10
72.4387661052646
20
6.9628616938723
30
0
41
1
10
72.4390514753297
20
6.96606494935611
30
0
41
1
10
72.4391684242646
20
6.96930136990665
30
0
41
1
10
72.4389726005977
20
6.98837715652115
30
0
41
1
10
72.4352839043322
20
7.00467044798239
30
0
41
1
10
72.4256014416509
20
7.03165407617723
30
0
41
1
10
72.4204722868722
20
7.04281432613533
30
0
41
1
10
72.4073037350455
20
7.06716257727527
30
0
41
1
10
72.3988057467839
20
7.08030260305412
30
0
41
1
10
72.3791222824841
20
7.1069685309821
30
0
41
1
10
72.367668701424
20
7.12048582258552
30
0
41
1
10
72.3432050048388
20
7.1461794939799
30
0
41
1
10
72.3301160452514
20
7.1584370757796
30
0
41
1
10
72.3052543153022
20
7.17929139550614
30
0
41
1
10
72.2936325677322
20
7.18818811004974
30
0
41
1
10
72.2699305261085
20
7.20466416216311
30
0
41
1
10
72.2578137299422
20
7.2122952152273
30
0
41
1
10
72.2303149565481
20
7.22775980025278
30
0
41
1
10
72.2147159475752
20
7.2353110016295
30
0
41
1
10
72.1878242786672
20
7.24589412538165
30
0
41
1
10
72.1765851319447
20
7.24962342304775
30
0
41
1
10
72.1540212005821
20
7.25542716619481
30
0
41
1
10
72.142621637089
20
7.25751954448384
30
0
41
1
10
72.1171104807951
20
7.25970290514681
30
0
41
1
10
72.1027776359005
20
7.259138195285
30
0
41
1
10
72.0895531786013
20
7.25578571968134
30
0
0
SPLINE
5
1D4
100
AcDbEntity
8
1
62
256
6
ByLayer
370
18
48
1
60
0
100
AcDbSpline
70
4
71
3
72
8
73
4
40
0
40
0
40
0
40
0
40
1
40
1
40
1
40
1
41
1
10
72.4370104030828
20
6.94315448122939
30
0
41
1
10
72.4375954543934
20
6.94972137030777
30
0
41
1
10
72.4381806847165
20
6.95629039642489
30
0
41
1
10
72.4387661052646
20
6.9628616938723
30
0
0
SPLINE
5
1D5
100
AcDbEntity
8
1
62
256
6
ByLayer
370
18
48
1
60
0
100
AcDbSpline
70
4
71
3
72
8
73
4
40
0
40
0
40
0
40
0
40
1
40
1
40
1
40
1
41
1
10
73.5604468213987
20
8.29917064039637
30
0
41
1
10
73.5669122980058
20
8.30099939548978
30
0
41
1
10
73.5733756737389
20
8.30282769242359
30
0
41
1
10
73.5798370724299
20
8.30465555779091
30
0
0
SPLINE
5
1D6
100
AcDbEntity
8
1
62
256
6
ByLayer
370
18
48
1
60
0
100
AcDbSpline
70
4
71
3
72
26
73
22
40
0
40
0
40
0
40
0
40
0.0086569148768497
40
0.0086569148768497
40
0.125591395709228
40
0.125591395709228
40
0.242553460371834
40
0.242553460371834
40
0.359581429952902
40
0.359581429952902
40
0.476756419374678
40
0.476756419374678
40
0.594287938352861
40
0.594287938352861
40
0.734087980384776
40
0.734087980384776
40
0.816818773651458
40
0.816818773651458
40
0.90442291395554
40
0.90442291395554
40
1
40
1
40
1
40
1
41
1
10
73.6178943008497
20
7.11440279216794
30
0
41
1
10
73.6172827033386
20
7.11367416840363
30
0
41
1
10
73.6166689331203
20
7.11294733812247
30
0
41
1
10
73.6077397186456
20
7.10243662066705
30
0
41
1
10
73.5990266079476
20
7.09297081447107
30
0
41
1
10
73.5808698941583
20
7.07480265092789
30
0
41
1
10
73.5714081759135
20
7.06608194493583
30
0
41
1
10
73.5517679288496
20
7.049547095251
30
0
41
1
10
73.5415650473481
20
7.04171201875113
30
0
41
1
10
73.52044333475
20
7.02718635090957
30
0
41
1
10
73.5094860030622
20
7.02046892342696
30
0
41
1
10
73.4868723390277
20
7.00859216013362
30
0
41
1
10
73.4751420060691
20
7.0033961791118
30
0
41
1
10
73.4490016790076
20
6.99461398355555
30
0
41
1
10
73.4341903515417
20
6.99141256126461
30
0
41
1
10
73.4111887137782
20
6.99079614364587
30
0
41
1
10
73.4026180078544
20
6.99158528044217
30
0
41
1
10
73.3862110127661
20
6.99579103461457
30
0
41
1
10
73.3782597687491
20
6.99944537972652
30
0
41
1
10
73.3643211535918
20
7.00974792035322
30
0
41
1
10
73.3583652992331
20
7.01678018536552
30
0
41
1
10
73.3540452083693
20
7.02456506953365
30
0
0
SPLINE
5
1D7
100
AcDbEntity
8
1
62
256
6
ByLayer
370
18
48
1
60
0
100
AcDbSpline
70
4
71
3
72
26
73
22
40
0
40
0
40
0
40
0
40
0.0086569148768446
40
0.0086569148768446
40
0.125591395709199
40
0.125591395709199
40
0.242553460371848
40
0.242553460371848
40
0.359581429952934
40
0.359581429952934
40
0.47675641937472
40
0.47675641937472
40
0.59428793835291
40
0.59428793835291
40
0.734087980384822
40
0.734087980384822
40
0.816818773651488
40
0.816818773651488
40
0.90442291395556
40
0.90442291395556
40
1
40
1
40
1
40
1
41
1
10
73.7976288471427
20
8.13337875961184
30
0
41
1
10
73.7979542713812
20
8.13248497024915
30
0
41
1
10
73.798277035625
20
8.13159018516393
30
0
41
1
10
73.8029175197453
20
8.11860421658145
30
0
41
1
10
73.8067572648706
20
8.1063257356239
30
0
41
1
10
73.8134024965938
20
8.08151369228324
30
0
41
1
10
73.8162148106029
20
8.0689552665072
30
0
41
1
10
73.8206867751715
20
8.04366600578697
30
0
41
1
10
73.8223523552668
20
8.03090360507184
30
0
41
1
10
73.8243227350914
20
8.00532469906517
30
0
41
1
10
73.824631457917
20
7.99246140114769
30
0
41
1
10
73.823534001624
20
7.96689970724191
30
0
41
1
10
73.8221223268657
20
7.95411878458816
30
0
41
1
10
73.8165311585445
20
7.92702267950159
30
0
41
1
10
73.8118116122354
20
7.9125489660359
30
0
41
1
10
73.8006676871317
20
7.89222535398238
30
0
41
1
10
73.7956229170613
20
7.88515628578199
30
0
41
1
10
73.7836030314299
20
7.87295539679275
30
0
41
1
10
73.7763610653201
20
7.86784094382625
30
0
41
1
10
73.7602482483127
20
7.86079922748422
30
0
41
1
10
73.7510564714359
20
7.85908900038572
30
0
41
1
10
73.7420348052865
20
7.85917365713095
30
0
0
SPLINE
5
1D8
100
AcDbEntity
8
1
62
256
6
ByLayer
370
18
48
1
60
0
100
AcDbSpline
70
4
71
3
72
8
73
4
40
0
40
0
40
0
40
0
40
1
40
1
40
1
40
1
41
1
10
73.6446772076102
20
7.4016270348331
30
0
41
1
10
73.6494120579462
20
7.39699149406289
30
0
41
1
10
73.6541453697531
20
7.39235759562354
30
0
41
1
10
73.6588772337165
20
7.3877252422987
30
0
0
SPLINE
5
1D9
100
AcDbEntity
8
1
62
256
6
ByLayer
370
18
48
1
60
0
100
AcDbSpline
70
4
71
3
72
26
73
22
40
0
40
0
40
0
40
0
40
0.0086569148767945
40
0.0086569148767945
40
0.125591395709153
40
0.125591395709153
40
0.242553460371812
40
0.242553460371812
40
0.359581429952903
40
0.359581429952903
40
0.476756419374691
40
0.476756419374691
40
0.594287938352888
40
0.594287938352888
40
0.734087980384809
40
0.734087980384809
40
0.81681877365148
40
0.81681877365148
40
0.904422913955554
40
0.904422913955554
40
1
40
1
40
1
40
1
41
1
10
71.8523711528572
20
7.42560548027825
30
0
41
1
10
71.8520457286188
20
7.42649926964094
30
0
41
1
10
71.851722964375
20
7.4273940087694
30
0
41
1
10
71.8470824802546
20
7.44037864469317
30
0
41
1
10
71.8432427351294
20
7.45264757205979
30
0
41
1
10
71.8365975034062
20
7.47742291755833
30
0
41
1
10
71.8337851893971
20
7.48995417403063
30
0
41
1
10
71.8293132248285
20
7.51516858864193
30
0
41
1
10
71.8276476447332
20
7.52788324634071
30
0
41
1
10
71.8256772649086
20
7.55334054996598
30
0
41
1
10
71.825368542083
20
7.56612981455368
30
0
41
1
10
71.826465998376
20
7.59150744572827
30
0
41
1
10
71.8278776731343
20
7.60417778053642
30
0
41
1
10
71.8334688414555
20
7.63097557541778
30
0
41
1
10
71.8381883877645
20
7.6452476410488
30
0
41
1
10
71.8493323128683
20
7.66516234630359
30
0
41
1
10
71.8543770829386
20
7.67205649039153
30
0
41
1
10
71.8663969685701
20
7.6838583371582
30
0
41
1
10
71.8736389346799
20
7.68874076666384
30
0
41
1
10
71.8897517516873
20
7.69527876967555
30
0
41
1
10
71.898943528564
20
7.69670817309617
30
0
41
1
10
71.9079651947135
20
7.69635248052242
30
0
0
SPLINE
5
1DA
100
AcDbEntity
8
1
62
256
6
ByLayer
370
18
48
1
60
0
100
AcDbSpline
70
4
71
3
72
28
73
24
40
0
40
0
40
0
40
0
40
0.0150369069044997
40
0.0150369069044997
40
0.0981186418893096
40
0.0981186418893096
40
0.181219540015345
40
0.181219540015345
40
0.295253230617595
40
0.295253230617595
40
0.367364426762439
40
0.367364426762439
40
0.444270175322332
40
0.444270175322332
40
0.54060642381413
40
0.54060642381413
40
0.657731681456551
40
0.657731681456551
40
0.77474641998619
40
0.77474641998619
40
0.891711459271932
40
0.891711459271932
40
1
40
1
40
1
40
1
41
1
10
72.2959547916307
20
8.53096106811972
30
0
41
1
10
72.2952648711764
20
8.53224760216699
30
0
41
1
10
72.2945371838733
20
8.53351282681979
30
0
41
1
10
72.2895939976275
20
8.54152075710715
30
0
41
1
10
72.2841692378979
20
8.54762539475354
30
0
41
1
10
72.2713706700235
20
8.55728461783485
30
0
41
1
10
72.2638419644094
20
8.56094592017627
30
0
41
1
10
72.2450028058472
20
8.56637526233669
30
0
41
1
10
72.2330114566163
20
8.56709958896602
30
0
41
1
10
72.2137012936726
20
8.56542090350376
30
0
41
1
10
72.2061342805988
20
8.56406852073786
30
0
41
1
10
72.1907223739873
20
8.56020590327051
30
0
41
1
10
72.1828431809463
20
8.55761392340423
30
0
41
1
10
72.1654559895144
20
8.5507916723484
30
0
41
1
10
72.1559888680949
20
8.54629547686369
30
0
41
1
10
72.1356058577608
20
8.53523262557025
30
0
41
1
10
72.1247651773838
20
8.52840091224647
30
0
41
1
10
72.103868722609
20
8.51366217086832
30
0
41
1
10
72.0937775398005
20
8.50572943131817
30
0
41
1
10
72.0743580747144
20
8.48900361834336
30
0
41
1
10
72.0650067673651
20
8.48019017200824
30
0
41
1
10
72.0477369455652
20
8.46251375299596
30
0
41
1
10
72.0397492647726
20
8.45368757300133
30
0
41
1
10
72.0321056991514
20
8.44458144772346
30
0
0
SPLINE
5
1DB
100
AcDbEntity
8
1
62
256
6
ByLayer
370
18
48
1
60
0
100
AcDbSpline
70
4
71
3
72
28
73
24
40
0
40
0
40
0
40
0
40
0.0150369069020648
40
0.0150369069020648
40
0.0981186418858677
40
0.0981186418858677
40
0.181219540011657
40
0.181219540011657
40
0.295253230613821
40
0.295253230613821
40
0.36736442675856
40
0.36736442675856
40
0.44427017531791
40
0.44427017531791
40
0.540606423808343
40
0.540606423808343
40
0.657731681451335
40
0.657731681451335
40
0.774746419981657
40
0.774746419981657
40
0.891711459268043
40
0.891711459268043
40
1
40
1
40
1
40
1
41
1
10
72.9040401612866
20
6.86083275333448
30
0
41
1
10
72.9043249870269
20
6.85944211193811
30
0
41
1
10
72.9045671383242
20
6.8580436400311
30
0
41
1
10
72.9058394000293
20
6.84898061921564
30
0
41
1
10
72.9055312592787
20
6.84103227900999
30
0
41
1
10
72.9017912963747
20
6.8258117180884
30
0
41
1
10
72.8983077175868
20
6.81836293426812
30
0
41
1
10
72.887218819687
20
6.80250590707163
30
0
41
1
10
72.8784246381709
20
6.79444909770831
30
0
41
1
10
72.8624527602117
20
6.78360169260031
30
0
41
1
10
72.8557519874622
20
6.77987014966044
30
0
41
1
10
72.8413986456905
20
6.77310014582935
30
0
41
1
10
72.8336675510307
20
6.77010140843907
30
0
41
1
10
72.8159044159099
20
6.76431170023255
30
0
41
1
10
72.8057344009052
20
6.76174602723256
30
0
41
1
10
72.7829558641701
20
6.75726257526503
30
0
41
1
10
72.770236198584
20
6.75559156232373
30
0
41
1
10
72.7447148509825
20
6.75355525525526
30
0
41
1
10
72.7318694652108
20
6.75318703309523
30
0
41
1
10
72.7062163501972
20
6.7535821636057
30
0
41
1
10
72.6933778646819
20
6.7543463773892
30
0
41
1
10
72.6687725911769
20
6.75681704002847
30
0
41
1
10
72.6569760756467
20
6.75845196148146
30
0
41
1
10
72.6452654537069
20
6.76051615250111
30
0
0
SPLINE
5
1DC
100
AcDbEntity
8
1
62
256
6
ByLayer
370
18
48
1
60
0
100
AcDbSpline
70
4
71
3
72
8
73
4
40
0
40
0
40
0
40
0
40
1
40
1
40
1
40
1
41
1
10
68.0834729178546
20
0.924752835157562
30
0
41
1
10
67.7810937927586
20
0.924752835157562
30
0
41
1
10
67.4787146676627
20
0.924752835157562
30
0
41
1
10
67.1763355425668
20
0.924752835157562
30
0
0
SPLINE
5
1DD
100
AcDbEntity
8
1
62
256
6
ByLayer
370
18
48
1
60
0
100
AcDbSpline
70
4
71
3
72
18
73
14
40
0
40
0
40
0
40
0
40
0.19132543543737
40
0.19132543543737
40
0.382650870874738
40
0.382650870874738
40
0.536214707212626
40
0.536214707212626
40
0.690626528447003
40
0.690626528447003
40
0.845885455798057
40
0.845885455798057
40
1
40
1
40
1
40
1
41
1
10
67.0335880368108
20
-0.118378400452571
30
0
41
1
10
66.9798658572252
20
-0.263274793391929
30
0
41
1
10
66.8893056116381
20
-0.375016926929959
30
0
41
1
10
66.6329740690441
20
-0.530964739669741
30
0
41
1
10
66.4817845064961
20
-0.570258676738092
30
0
41
1
10
66.166358566358
20
-0.570258676738092
30
0
41
1
10
66.0358904159359
20
-0.546313933837041
30
0
41
1
10
65.7942427110142
20
-0.451501840695812
30
0
41
1
10
65.7012779830886
20
-0.392821992163988
30
0
41
1
10
65.5704519573194
20
-0.252453362162157
30
0
41
1
10
65.5209249516228
20
-0.165653918487863
30
0
41
1
10
65.4536373962762
20
0.044772618232173
30
0
41
1
10
65.437271843411
20
0.174484224259629
30
0
41
1
10
65.437271843411
20
0.326748230399346
30
0
0
SPLINE
5
1DE
100
AcDbEntity
8
1
62
256
6
ByLayer
370
18
48
1
60
0
100
AcDbSpline
70
4
71
3
72
8
73
4
40
0
40
0
40
0
40
0
40
1
40
1
40
1
40
1
41
1
10
74.6598183670216
20
-4.59972718463678
30
0
41
1
10
74.758032990561
20
-6.93984871352444
30
0
41
1
10
74.9627455406693
20
-8.95805161008394
30
0
41
1
10
75.2032965064071
20
-9.98697024852572
30
0
0
SPLINE
5
1DF
100
AcDbEntity
8
1
62
256
6
ByLayer
370
18
48
1
60
0
100
AcDbSpline
70
4
71
3
72
8
73
4
40
0
40
0
40
0
40
0
40
1
40
1
40
1
40
1
41
1
10
65.437271843411
20
1.24217417053745
30
0
41
1
10
66.437271843411
20
1.24217417053745
30
0
41
1
10
67.437271843411
20
1.24217417053745
30
0
41
1
10
68.437271843411
20
1.24217417053745
30
0
0
SPLINE
5
1E0
100
AcDbEntity
8
1
62
256
6
ByLayer
370
18
48
1
60
0
100
AcDbSpline
70
4
71
3
72
8
73
4
40
0
40
0
40
0
40
0
40
1
40
1
40
1
40
1
41
1
10
71.1771588497721
20
-8.37767917486127
30
0
41
1
10
72.1771563617122
20
-8.45791584726078
30
0
41
1
10
73.1771563554387
20
-8.53812199123877
30
0
41
1
10
74.1771588497721
20
-8.61829733975463
30
0
0
SPLINE
5
1E1
100
AcDbEntity
8
1
62
256
6
ByLayer
370
18
48
1
60
0
100
AcDbSpline
70
4
71
3
72
8
73
4
40
0
40
0
40
0
40
0
40
1
40
1
40
1
40
1
41
1
10
65.437271843411
20
0.326748230399346
30
0
41
1
10
65.437271843411
20
0.631890210445363
30
0
41
1
10
65.437271843411
20
0.937032190491436
30
0
41
1
10
65.437271843411
20
1.24217417053745
30
0
0
SPLINE
5
1E2
100
AcDbEntity
8
1
62
256
6
ByLayer
370
18
48
1
60
0
100
AcDbSpline
70
4
71
3
72
10
73
6
40
0
40
0
40
0
40
0
40
0.5
40
0.5
40
1
40
1
40
1
40
1
41
1
10
69.4418821380131
20
-9.26850949201133
30
0
41
1
10
70.3717196095653
20
-9.45624208981019
30
0
41
1
10
71.2947673602777
20
-9.64514884868476
30
0
41
1
10
73.1121293357145
20
-10.0279313170844
30
0
41
1
10
74.0127086605224
20
-10.2207235893332
30
0
41
1
10
74.85832477958
20
-10.4230207673522
30
0
0
SPLINE
5
1E3
100
AcDbEntity
8
1
62
256
6
ByLayer
370
18
48
1
60
0
100
AcDbSpline
70
4
71
3
72
8
73
4
40
0
40
0
40
0
40
0
40
1
40
1
40
1
40
1
41
1
10
65.5892617364277
20
-8.98797778426376
30
0
41
1
10
66.3879796836119
20
-9.02203287553118
30
0
41
1
10
67.1869634233879
20
-9.05645834894176
30
0
41
1
10
67.9861354809257
20
-9.09118356404758
30
0
0
SPLINE
5
1E4
100
AcDbEntity
8
1
62
256
6
ByLayer
370
18
48
1
60
0
100
AcDbSpline
70
4
71
3
72
8
73
4
40
0
40
0
40
0
40
0
40
1
40
1
40
1
40
1
41
1
10
74.8583247795802
20
-10.423020767352
30
0
41
1
10
74.9370653009323
20
-10.3057984121857
30
0
41
1
10
75.0535491217045
20
-10.1592895726235
30
0
41
1
10
75.2032965064071
20
-9.98697024852572
30
0
0
SPLINE
5
1E5
100
AcDbEntity
8
1
62
256
6
ByLayer
370
18
48
1
60
0
100
AcDbSpline
70
4
71
3
72
22
73
18
40
0
40
0
40
0
40
0
40
0.125919801008144
40
0.125919801008144
40
0.22817382381263
40
0.22817382381263
40
0.362000949327651
40
0.362000949327651
40
0.497453699158087
40
0.497453699158087
40
0.624996799363386
40
0.624996799363386
40
0.753577031326437
40
0.753577031326437
40
0.881194351724583
40
0.881194351724583
40
1
40
1
40
1
40
1
41
1
10
67.1763355425668
20
0.924752835157562
30
0
41
1
10
67.1763355425668
20
0.751613924950334
30
0
41
1
10
67.1763355425668
20
0.578475014743105
30
0
41
1
10
67.1763355425667
20
0.264737485963394
30
0
41
1
10
67.1886148979006
20
0.164046772225845
30
0
41
1
10
67.241771565268
20
0.0222956592461401
30
0
41
1
10
67.2914544988215
20
-0.0391765585492863
30
0
41
1
10
67.430436269838
20
-0.120712530878905
30
0
41
1
10
67.5178551127893
20
-0.141095207820172
30
0
41
1
10
67.7219993952145
20
-0.141095207820229
30
0
41
1
10
67.8102572616765
20
-0.12206220705275
30
0
41
1
10
67.9612909520487
20
-0.0456206658031419
30
0
41
1
10
68.0136340843933
20
0.0087129272527022
30
0
41
1
10
68.0686842787305
20
0.150620094877411
30
0
41
1
10
68.0834729178546
20
0.272719066930392
30
0
41
1
10
68.0834729178546
20
0.604670972788654
30
0
41
1
10
68.0834729178546
20
0.76471190397308
30
0
41
1
10
68.0834729178546
20
0.924752835157562
30
0
0
SPLINE
5
1E6
100
AcDbEntity
8
1
62
256
6
ByLayer
370
18
48
1
60
0
100
AcDbSpline
70
4
71
3
72
18
73
14
40
0
40
0
40
0
40
0
40
0.144086644560489
40
0.144086644560489
40
0.287731062505122
40
0.287731062505122
40
0.456860780407675
40
0.456860780407675
40
0.627194363444238
40
0.627194363444238
40
0.79587141402398
40
0.79587141402398
40
1
40
1
40
1
40
1
41
1
10
65.8877706922214
20
-0.0723308179506716
30
0
41
1
10
65.9253762179313
20
-0.121448239286053
30
0
41
1
10
65.9814007766419
20
-0.16197011188774
30
0
41
1
10
66.1269943520159
20
-0.225724772261969
30
0
41
1
10
66.2116386891516
20
-0.241171953791024
30
0
41
1
10
66.4188528104102
20
-0.241171953791024
30
0
41
1
10
66.5163201933726
20
-0.218455146423423
30
0
41
1
10
66.6811410881344
20
-0.126032214781219
30
0
41
1
10
66.7388835087985
20
-0.0631213014502805
30
0
41
1
10
66.8060915595203
20
0.0993999848406588
30
0
41
1
10
66.8225366170103
20
0.216848000161406
30
0
41
1
10
66.8225366170103
20
0.554734927764343
30
0
41
1
10
66.8225366170103
20
0.739743881460981
30
0
41
1
10
66.8225366170103
20
0.924752835157562
30
0
0
SPLINE
5
1E7
100
AcDbEntity
8
1
62
256
6
ByLayer
370
18
48
1
60
0
100
AcDbSpline
70
4
71
3
72
10
73
6
40
0
40
0
40
0
40
0
40
0.5
40
0.5
40
1
40
1
40
1
40
1
41
1
10
65.5892617364277
20
-8.98797778426376
30
0
41
1
10
65.3950193510931
20
-8.26788826532044
30
0
41
1
10
65.2284195761174
20
-7.16482254838638
30
0
41
1
10
64.9993967947795
20
-4.50350149507278
30
0
41
1
10
64.9372718434109
20
-2.95961297966841
30
0
41
1
10
64.9372718434109
20
-1.39218327481399
30
0
0
SPLINE
5
1E8
100
AcDbEntity
8
1
62
256
6
ByLayer
370
18
48
1
60
0
100
AcDbSpline
70
4
71
3
72
8
73
4
40
0
40
0
40
0
40
0
40
1
40
1
40
1
40
1
41
1
10
67.9861354809253
20
-9.09118356404616
30
0
41
1
10
68.473836569456
20
-9.11237490206508
30
0
41
1
10
68.9720548693956
20
-9.17365216871258
30
0
41
1
10
69.4418821380131
20
-9.26850949201133
30
0
0
SPLINE
5
1E9
100
AcDbEntity
8
1
62
256
6
ByLayer
370
18
48
1
60
0
100
AcDbSpline
70
4
71
3
72
8
73
4
40
0
40
0
40
0
40
0
40
1
40
1
40
1
40
1
41
1
10
65.8056525034263
20
0.110631576523644
30
0
41
1
10
65.821769157302
20
0.0375694122872687
30
0
41
1
10
65.8493977068031
20
-0.0232133966152901
30
0
41
1
10
65.8877706922214
20
-0.0723308179506716
30
0
0
SPLINE
5
1EA
100
AcDbEntity
8
1
62
256
6
ByLayer
370
18
48
1
60
0
100
AcDbSpline
70
4
71
3
72
10
73
6
40
0
40
0
40
0
40
0
40
0.47948143281211
40
0.47948143281211
40
1
40
1
40
1
40
1
41
1
10
71.4380472189229
20
-4.59972718463598
30
0
41
1
10
71.4520526121596
20
-4.19398542285336
30
0
41
1
10
71.4628303531505
20
-3.7767387809663
30
0
41
1
10
71.4782011938684
20
-2.89780364710146
30
0
41
1
10
71.4822348029298
20
-2.4323568499268
30
0
41
1
10
71.4822348029298
20
-1.9684979710118
30
0
0
SPLINE
5
1EB
100
AcDbEntity
8
1
62
256
6
ByLayer
370
18
48
1
60
0
100
AcDbSpline
70
4
71
3
72
8
73
4
40
0
40
0
40
0
40
0
40
1
40
1
40
1
40
1
41
1
10
66.8225366170103
20
0.924752835157562
30
0
41
1
10
66.4787146676627
20
0.924752835157562
30
0
41
1
10
66.134892718315
20
0.924752835157562
30
0
41
1
10
65.7910707689674
20
0.924752835157562
30
0
0
SPLINE
5
1EC
100
AcDbEntity
8
1
62
256
6
ByLayer
370
18
48
1
60
0
100
AcDbSpline
70
4
71
3
72
26
73
22
40
0
40
0
40
0
40
0
40
0.147345663889216
40
0.147345663889216
40
0.253043125143419
40
0.253043125143419
40
0.359566864165547
40
0.359566864165547
40
0.453978325297375
40
0.453978325297375
40
0.541311772698162
40
0.541311772698162
40
0.627166406853901
40
0.627166406853901
40
0.715822507254341
40
0.715822507254341
40
0.812043367717444
40
0.812043367717444
40
0.922046566553963
40
0.922046566553963
40
1
40
1
40
1
40
1
41
1
10
74.1771588497721
20
-6.69419359060009
30
0
41
1
10
74.177158849772
20
-6.47875870620197
30
0
41
1
10
74.1364484291303
20
-6.25132858235457
30
0
41
1
10
73.9826850865896
20
-5.88370901333985
30
0
41
1
10
73.8911278386532
20
-5.73325339760123
30
0
41
1
10
73.6587604461837
20
-5.46967702275469
30
0
41
1
10
73.513717173227
20
-5.35310135987754
30
0
41
1
10
73.2097026711146
20
-5.19268304640838
30
0
41
1
10
73.049740755546
20
-5.1399229169125
30
0
41
1
10
72.7377278118687
20
-5.09460011193641
30
0
41
1
10
72.5817223693194
20
-5.09721889374475
30
0
41
1
10
72.2868801375787
20
-5.14962385848946
30
0
41
1
10
72.1439560620439
20
-5.19923293756949
30
0
41
1
10
71.8816691956313
20
-5.33672311135456
30
0
41
1
10
71.7599190756813
20
-5.42737450612657
30
0
41
1
10
71.544458836345
20
-5.64090748837998
30
0
41
1
10
71.4513055008682
20
-5.76824452643513
30
0
41
1
10
71.2978172234589
20
-6.05236891018984
30
0
41
1
10
71.2420185584909
20
-6.21391210803444
30
0
41
1
10
71.1878486082018
20
-6.48811696097857
30
0
41
1
10
71.177158849772
20
-6.60279827705278
30
0
41
1
10
71.177158849772
20
-6.71544027693119
30
0
0
SPLINE
5
1ED
100
AcDbEntity
8
1
62
256
6
ByLayer
370
18
48
1
60
0
100
AcDbSpline
70
4
71
3
72
10
73
6
40
0
40
0
40
0
40
0
40
0.660338983050847
40
0.660338983050847
40
1
40
1
40
1
40
1
41
1
10
65.7910707689674
20
0.924752835157562
30
0
41
1
10
65.7910707689674
20
0.725417966904843
30
0
41
1
10
65.7910707689674
20
0.526083098652066
30
0
41
1
10
65.7910707689674
20
0.224215613361707
30
0
41
1
10
65.7956755272176
20
0.152381384658725
30
0
41
1
10
65.8056525034263
20
0.110631576523644
30
0
0
SPLINE
5
1EE
100
AcDbEntity
8
1
62
256
6
ByLayer
370
18
48
1
60
0
100
AcDbSpline
70
4
71
3
72
8
73
4
40
0
40
0
40
0
40
0
40
1
40
1
40
1
40
1
41
1
10
74.1771588497721
20
-8.61829733975469
30
0
41
1
10
74.1771588497721
20
-8.06016951433554
30
0
41
1
10
74.177158849772
20
-7.41880159795011
30
0
41
1
10
74.177158849772
20
-6.69419359059947
30
0
0
SPLINE
5
1EF
100
AcDbEntity
8
1
62
256
6
ByLayer
370
18
48
1
60
0
100
AcDbSpline
70
4
71
3
72
8
73
4
40
0
40
0
40
0
40
0
40
1
40
1
40
1
40
1
41
1
10
71.1771588497721
20
-6.71544027693119
30
0
41
1
10
71.1771588497721
20
-7.33561039457521
30
0
41
1
10
71.177158849772
20
-7.88969002721859
30
0
41
1
10
71.177158849772
20
-8.37767917486133
30
0
0
SPLINE
5
1F0
100
AcDbEntity
8
1
62
256
6
ByLayer
370
18
48
1
60
0
100
AcDbSpline
70
4
71
3
72
18
73
14
40
0
40
0
40
0
40
0
40
0.252026352812657
40
0.252026352812657
40
0.40561296454716
40
0.40561296454716
40
0.559855857535999
40
0.559855857535999
40
0.714098750524839
40
0.714098750524839
40
0.857201879020039
40
0.857201879020039
40
1
40
1
40
1
40
1
41
1
10
68.437271843411
20
1.24217417053745
30
0
41
1
10
68.437271843411
20
0.941943932624895
30
0
41
1
10
68.437271843411
20
0.641713694712394
30
0
41
1
10
68.4372718434109
20
0.158521062325633
30
0
41
1
10
68.4065734550763
20
0.0111687983194884
30
0
41
1
10
68.285055749848
20
-0.210331828932226
30
0
41
1
10
68.1916847367341
20
-0.297043020560011
30
0
41
1
10
67.9399579523902
20
-0.422292444965251
30
0
41
1
10
67.8079548825514
20
-0.453604801066547
30
0
41
1
10
67.5416463637486
20
-0.453604801066547
30
0
41
1
10
67.4211551895353
20
-0.42597625156543
30
0
41
1
10
67.1942292068966
20
-0.314353200645883
30
0
41
1
10
67.1026594105637
20
-0.23073450175724
30
0
41
1
10
67.0335880368108
20
-0.118378400452571
30
0
0
SPLINE
5
1F1
100
AcDbEntity
8
1
62
256
6
ByLayer
370
18
48
1
60
0
100
AcDbSpline
70
4
71
3
72
8
73
4
40
0
40
0
40
0
40
0
40
1
40
1
40
1
40
1
41
1
10
71.4380472189492
20
-4.59972718463678
30
0
41
1
10
72.5119199128168
20
-4.59972718463678
30
0
41
1
10
73.5858472193068
20
-4.59972718463678
30
0
41
1
10
74.6598183670216
20
-4.59972718463678
30
0
0
SPLINE
5
1F2
100
AcDbEntity
8
1
62
256
6
ByLayer
370
18
48
1
60
0
100
AcDbSpline
70
4
71
3
72
14
73
10
40
0
40
0
40
0
40
0
40
0.341522681271276
40
0.341522681271276
40
0.635237648617552
40
0.635237648617552
40
0.862219800519997
40
0.862219800519997
40
1
40
1
40
1
40
1
41
1
10
74.274234313201
20
3.07118653803957
30
0
41
1
10
74.0300192419028
20
3.01029688204858
30
0
41
1
10
73.7944686705106
20
2.9090068743493
30
0
41
1
10
73.4000752174236
20
2.65763635354233
30
0
41
1
10
73.2303503420653
20
2.51279044528701
30
0
41
1
10
72.9744800421589
20
2.22305213992536
30
0
41
1
10
72.8758503665476
20
2.08251745625449
30
0
41
1
10
72.7491339110231
20
1.85561746885969
30
0
41
1
10
72.7077723479638
20
1.76856808440266
30
0
41
1
10
72.6735256231469
20
1.68465728448541
30
0
0
SPLINE
5
1F3
100
AcDbEntity
8
1
62
256
6
ByLayer
370
18
48
1
60
0
100
AcDbSpline
70
4
71
3
72
8
73
4
40
0
40
0
40
0
40
0
40
1
40
1
40
1
40
1
41
1
10
67.9861354809253
20
9.68147432846246
30
0
41
1
10
68.0300218262265
20
9.68369103715196
30
0
41
1
10
68.0738726476906
20
9.68613842874123
30
0
41
1
10
68.1176742343021
20
9.68881441808702
30
0
0
SPLINE
5
1F4
100
AcDbEntity
8
1
62
256
6
ByLayer
370
18
48
1
60
0
100
AcDbSpline
70
4
71
3
72
16
73
12
40
0
40
0
40
0
40
0
40
0.2531314904929
40
0.2531314904929
40
0.458688622843518
40
0.458688622843518
40
0.727659860663681
40
0.727659860663681
40
0.999853050220471
40
0.999853050220471
40
1
40
1
40
1
40
1
41
1
10
57.6846356077131
20
0.524330235101161
30
0
41
1
10
57.6846356077131
20
0.370147621651199
30
0
41
1
10
57.6846356077131
20
0.215965008201181
30
0
41
1
10
57.6846356077131
20
-0.0634226353198528
30
0
41
1
10
57.6969074827955
20
-0.153089119737558
30
0
41
1
10
57.7500254968894
20
-0.279305559714317
30
0
41
1
10
57.7996844366102
20
-0.334062329141602
30
0
41
1
10
57.9385699191957
20
-0.406665172538283
30
0
41
1
10
58.0259471334411
20
-0.424822307271711
30
0
41
1
10
58.1310817925811
20
-0.424822307271711
30
0
41
1
10
58.1311385177987
20
-0.424822301699976
30
0
41
1
10
58.1311952394858
20
-0.424822290556449
30
0
0
SPLINE
5
1F5
100
AcDbEntity
8
1
62
256
6
ByLayer
370
18
48
1
60
0
100
AcDbSpline
70
4
71
3
72
10
73
6
40
0
40
0
40
0
40
0
40
0.579721540568204
40
0.579721540568204
40
1
40
1
40
1
40
1
41
1
10
56.3968557162588
20
-0.363586659376722
30
0
41
1
10
56.4344383336984
20
-0.407326407873143
30
0
41
1
10
56.4904287637617
20
-0.44341170038274
30
0
41
1
10
56.616117138615
20
-0.492453929337728
30
0
41
1
10
56.6752122573838
20
-0.505343081320461
30
0
41
1
10
56.7400726829672
20
-0.510847381598239
30
0
0
SPLINE
5
1F6
100
AcDbEntity
8
1
62
256
6
ByLayer
370
18
48
1
60
0
100
AcDbSpline
70
4
71
3
72
8
73
4
40
0
40
0
40
0
40
0
40
1
40
1
40
1
40
1
41
1
10
55.9536111985154
20
0.806998359759461
30
0
41
1
10
56.9530020255345
20
0.806998359759461
30
0
41
1
10
57.9523928525536
20
0.806998359759461
30
0
41
1
10
58.9517836795727
20
0.806998359759461
30
0
0
SPLINE
5
1F7
100
AcDbEntity
8
1
62
256
6
ByLayer
370
18
48
1
60
0
100
AcDbSpline
70
4
71
3
72
10
73
6
40
0
40
0
40
0
40
0
40
0.339661016949152
40
0.339661016949152
40
1
40
1
40
1
40
1
41
1
10
56.321767450986
20
-0.200656096227419
30
0
41
1
10
56.3117965524816
20
-0.163477310005476
30
0
41
1
10
56.3071945993257
20
-0.0995079278293929
30
0
41
1
10
56.3071945993257
20
0.169309276471665
30
0
41
1
10
56.3071945993257
20
0.346819755786385
30
0
41
1
10
56.3071945993257
20
0.524330235101161
30
0
0
SPLINE
5
1F8
100
AcDbEntity
8
1
62
256
6
ByLayer
370
18
48
1
60
0
100
AcDbSpline
70
4
71
3
72
18
73
14
40
0
40
0
40
0
40
0
40
0.170851768293803
40
0.170851768293803
40
0.361022893350788
40
0.361022893350788
40
0.509911992296082
40
0.509911992296082
40
0.658905096499102
40
0.658905096499102
40
0.848295051844477
40
0.848295051844477
40
1
40
1
40
1
40
1
41
1
10
59.7281924673912
20
9.30000000000001
30
0
41
1
10
59.6449732056526
20
9.30000000000001
30
0
41
1
10
59.5434463921393
20
9.27803956389124
30
0
41
1
10
59.3110534315207
20
9.21923169539878
30
0
41
1
10
59.1737062816795
20
9.17980294670878
30
0
41
1
10
58.9161846193865
20
9.13207754638438
30
0
41
1
10
58.7955393847292
20
9.11930882128019
30
0
41
1
10
58.5576821165975
20
9.12277333537151
30
0
41
1
10
58.4380396232677
20
9.1388942945627
30
0
41
1
10
58.1842153119531
20
9.19067520277258
30
0
41
1
10
58.0496864268095
20
9.23009511467279
30
0
41
1
10
57.8345085573806
20
9.28259761046525
30
0
41
1
10
57.7459286353612
20
9.30000000000001
30
0
41
1
10
57.6718075326088
20
9.30000000000001
30
0
0
SPLINE
5
1F9
100
AcDbEntity
8
1
62
256
6
ByLayer
370
18
48
1
60
0
100
AcDbSpline
70
4
71
3
72
22
73
18
40
0
40
0
40
0
40
0
40
0.118841507409007
40
0.118841507409007
40
0.246497346569576
40
0.246497346569576
40
0.375084239643419
40
0.375084239643419
40
0.502588814896539
40
0.502588814896539
40
0.638000650630479
40
0.638000650630479
40
0.77180961599131
40
0.77180961599131
40
0.874071060096966
40
0.874071060096966
40
1
40
1
40
1
40
1
41
1
10
58.5982002787624
20
0.524330235101161
30
0
41
1
10
58.5982002787624
20
0.381811554583578
30
0
41
1
10
58.5982002787624
20
0.239292874065995
30
0
41
1
10
58.5982002787624
20
-0.0563149261891454
30
0
41
1
10
58.5834275000462
20
-0.165030025426972
30
0
41
1
10
58.5284039892315
20
-0.291416074357585
30
0
41
1
10
58.4761195652254
20
-0.339788800064298
30
0
41
1
10
58.3251510581801
20
-0.407873154729373
30
0
41
1
10
58.2369469560257
20
-0.424822307271711
30
0
41
1
10
58.0329270327816
20
-0.424822307271711
30
0
41
1
10
57.9455498185362
20
-0.406665172538283
30
0
41
1
10
57.8066643359507
20
-0.334062329141602
30
0
41
1
10
57.7570053962299
20
-0.279305559714317
30
0
41
1
10
57.703887382136
20
-0.153089119737558
30
0
41
1
10
57.6916155070536
20
-0.0634226353198528
30
0
41
1
10
57.6916155070536
20
0.215965008201181
30
0
41
1
10
57.6916155070536
20
0.370147621651199
30
0
41
1
10
57.6916155070536
20
0.524330235101161
30
0
0
SPLINE
5
1FA
100
AcDbEntity
8
1
62
256
6
ByLayer
370
18
48
1
60
0
100
AcDbSpline
70
4
71
3
72
18
73
14
40
0
40
0
40
0
40
0
40
0.252049219715162
40
0.252049219715162
40
0.405649766699044
40
0.405649766699044
40
0.55986935422359
40
0.55986935422359
40
0.714088941748129
40
0.714088941748129
40
0.857170447951442
40
0.857170447951442
40
1
40
1
40
1
40
1
41
1
10
58.9517836795727
20
0.806998359759461
30
0
41
1
10
58.9517836795727
20
0.539639147074922
30
0
41
1
10
58.9517836795727
20
0.272279934390383
30
0
41
1
10
58.9517836795727
20
-0.158009841443402
30
0
41
1
10
58.9211039918668
20
-0.289229086932721
30
0
41
1
10
58.7996750261571
20
-0.486454584773241
30
0
41
1
10
58.7063461779257
20
-0.563696008747968
30
0
41
1
10
58.4547727387374
20
-0.675232367413855
30
0
41
1
10
58.3228500816022
20
-0.703116457080341
30
0
41
1
10
58.0567037907536
20
-0.703116457080341
30
0
41
1
10
57.936286016508
20
-0.678512848551122
30
0
41
1
10
57.7094562173058
20
-0.579092533148071
30
0
41
1
10
57.6179842565595
20
-0.504647348277729
30
0
41
1
10
57.5489549592213
20
-0.404592673592106
30
0
0
SPLINE
5
1FB
100
AcDbEntity
8
1
62
256
6
ByLayer
370
18
48
1
60
0
100
AcDbSpline
70
4
71
3
72
18
73
14
40
0
40
0
40
0
40
0
40
0.204117720792331
40
0.204117720792331
40
0.372785793172719
40
0.372785793172719
40
0.543191941229708
40
0.543191941229708
40
0.712331668082156
40
0.712331668082156
40
0.85598458677875
40
0.85598458677875
40
1
40
1
40
1
40
1
41
1
10
57.3380321062433
20
0.524330235101161
30
0
41
1
10
57.3380321062433
20
0.359577182431224
30
0
41
1
10
57.3380321062433
20
0.194824129761287
30
0
41
1
10
57.3380321062433
20
-0.10606889010387
30
0
41
1
10
57.3215810573772
20
-0.210692480962848
30
0
41
1
10
57.2544299572448
20
-0.355385456533611
30
0
41
1
10
57.196753029921
20
-0.411393353221911
30
0
41
1
10
57.0320022213772
20
-0.493712411153638
30
0
41
1
10
56.934594212911
20
-0.513942044833243
30
0
41
1
10
56.7275063208963
20
-0.513942044833243
30
0
41
1
10
56.6429537764562
20
-0.500201811486647
30
0
41
1
10
56.4974086631022
20
-0.44341170038274
30
0
41
1
10
56.441418233039
20
-0.407326407873143
30
0
41
1
10
56.4038356155993
20
-0.363586659376722
30
0
0
SPLINE
5
1FC
100
AcDbEntity
8
1
62
256
6
ByLayer
370
18
48
1
60
0
100
AcDbSpline
70
4
71
3
72
8
73
4
40
0
40
0
40
0
40
0
40
1
40
1
40
1
40
1
41
1
10
56.3071945993257
20
0.524330235101161
30
0
41
1
10
56.6508071016316
20
0.524330235101161
30
0
41
1
10
56.9944196039375
20
0.524330235101161
30
0
41
1
10
57.3380321062433
20
0.524330235101161
30
0
0
SPLINE
5
1FD
100
AcDbEntity
8
1
62
256
6
ByLayer
370
18
48
1
60
0
100
AcDbSpline
70
4
71
3
72
10
73
6
40
0
40
0
40
0
40
0
40
0.660338983050848
40
0.660338983050848
40
1
40
1
40
1
40
1
41
1
10
56.3002146999852
20
0.524330235101161
30
0
41
1
10
56.3002146999852
20
0.346819755786385
30
0
41
1
10
56.3002146999852
20
0.169309276471665
30
0
41
1
10
56.3002146999852
20
-0.0995079278293929
30
0
41
1
10
56.3048166531411
20
-0.163477310005476
30
0
41
1
10
56.3147875516455
20
-0.200656096227419
30
0
0
SPLINE
5
1FE
100
AcDbEntity
8
1
62
256
6
ByLayer
370
18
48
1
60
0
100
AcDbSpline
70
4
71
3
72
16
73
12
40
0
40
0
40
0
40
0
40
0.462497527135841
40
0.462497527135841
40
0.645191851133691
40
0.645191851133691
40
0.830465145084813
40
0.830465145084813
40
0.946099677592189
40
0.946099677592189
40
1
40
1
40
1
40
1
41
1
10
7.33660254037846
20
15.1759383782004
30
0
41
1
10
7.31950254572615
20
15.1969435000064
30
0
41
1
10
7.29606569448345
20
15.2173733040723
30
0
41
1
10
7.24769339962623
20
15.2426068177431
30
0
41
1
10
7.23196248290219
20
15.2494611471717
30
0
41
1
10
7.19538082316865
20
15.2617345707429
30
0
41
1
10
7.1739816779432
20
15.2672766430868
30
0
41
1
10
7.13465169394874
20
15.2736248541653
30
0
41
1
10
7.11805699889248
20
15.2754510872996
30
0
41
1
10
7.09306930322398
20
15.2767486596485
30
0
41
1
10
7.08491758298595
20
15.2769622091386
30
0
41
1
10
7.07679491924313
20
15.2769622091386
30
0
0
SPLINE
5
1FF
100
AcDbEntity
8
1
62
256
6
ByLayer
370
18
48
1
60
0
100
AcDbSpline
70
4
71
3
72
8
73
4
40
0
40
0
40
0
40
0
40
1
40
1
40
1
40
1
41
1
10
57.6916155070536
20
0.524330235101161
30
0
41
1
10
57.9938104309566
20
0.524330235101161
30
0
41
1
10
58.2960053548595
20
0.524330235101161
30
0
41
1
10
58.5982002787624
20
0.524330235101161
30
0
0
SPLINE
5
200
100
AcDbEntity
8
1
62
256
6
ByLayer
370
18
48
1
60
0
100
AcDbSpline
70
4
71
3
72
22
73
18
40
0
40
0
40
0
40
0
40
0.0245639900498803
40
0.0245639900498803
40
0.0496318308550444
40
0.0496318308550444
40
0.0663627728407865
40
0.0663627728407865
40
0.0830188311623765
40
0.0830188311623765
40
0.109502469153823
40
0.109502469153823
40
0.161041561866765
40
0.161041561866765
40
0.340450877967334
40
0.340450877967334
40
1
40
1
40
1
40
1
41
1
10
-0.394976888875306
20
4.64126507959355
30
0
41
1
10
-0.38970266587873
20
4.63707055620745
30
0
41
1
10
-0.383949309888464
20
4.63330757597583
30
0
41
1
10
-0.37134145859352
20
4.62763518822402
30
0
41
1
10
-0.364243722574742
20
4.62572404052059
30
0
41
1
10
-0.352099082312265
20
4.62547750923432
30
0
41
1
10
-0.347037112029596
20
4.62618835449877
30
0
41
1
10
-0.337425328060135
20
4.62914446237852
30
0
41
1
10
-0.33276627516841
20
4.63140037203357
30
0
41
1
10
-0.321717412395515
20
4.63845052899637
30
0
41
1
10
-0.315694741777293
20
4.64402202563343
30
0
41
1
10
-0.300170082835336
20
4.66154175044693
30
0
41
1
10
-0.292195743622642
20
4.67485779786529
30
0
41
1
10
-0.26191913487574
20
4.73474950476736
30
0
41
1
10
-0.249811404729883
20
4.78489851705854
30
0
41
1
10
-0.203345284675095
20
5.01298472547018
30
0
41
1
10
-0.200000000000074
20
5.19061666338968
30
0
41
1
10
-0.200000000000046
20
5.36201916429008
30
0
0
SPLINE
5
201
100
AcDbEntity
8
1
62
256
6
ByLayer
370
18
48
1
60
0
100
AcDbSpline
70
4
71
3
72
8
73
4
40
0
40
0
40
0
40
0
40
1
40
1
40
1
40
1
41
1
10
53.9999999999999
20
-9.30000000000001
30
0
41
1
10
53.7258749127767
20
-9.30000000000001
30
0
41
1
10
53.5848113882066
20
-9.30000000000001
30
0
41
1
10
53.5845449999999
20
-9.30000000000001
30
0
0
SPLINE
5
202
100
AcDbEntity
8
1
62
256
6
ByLayer
370
18
48
1
60
0
100
AcDbSpline
70
4
71
3
72
16
73
12
40
0
40
0
40
0
40
0
40
0.112904383055306
40
0.112904383055306
40
0.251995806601954
40
0.251995806601954
40
0.471177478614496
40
0.471177478614496
40
0.892334804026131
40
0.892334804026131
40
1
40
1
40
1
40
1
41
1
10
4.92320508075687
20
-4.75546271781758
30
0
41
1
10
4.90636996355747
20
-4.75546271781758
30
0
41
1
10
4.88932551790361
20
-4.75851551862661
30
0
41
1
10
4.85400387216043
20
-4.77071315953361
30
0
41
1
10
4.83576156988676
20
-4.78117073972197
30
0
41
1
10
4.79405363685711
20
-4.81283214608436
30
0
41
1
10
4.77256184645842
20
-4.83715715133616
30
0
41
1
10
4.7195295905812
20
-4.91214630601439
30
0
41
1
10
4.69506482950476
20
-4.96811547083689
30
0
41
1
10
4.67177931116106
20
-5.03919021254677
30
0
41
1
10
4.66740846582624
20
-5.05386666454075
30
0
41
1
10
4.66339745962151
20
-5.06861858311169
30
0
0
SPLINE
5
203
100
AcDbEntity
8
1
62
256
6
ByLayer
370
18
48
1
60
0
100
AcDbSpline
70
4
71
3
72
18
73
14
40
0
40
0
40
0
40
0
40
0.143207462367073
40
0.143207462367073
40
0.286761111926865
40
0.286761111926865
40
0.428206333174509
40
0.428206333174509
40
0.626031371670003
40
0.626031371670003
40
0.892722730981925
40
0.892722730981925
40
1
40
1
40
1
40
1
41
1
10
53.8715120859618
20
9.30000000000001
30
0
41
1
10
53.8879154714532
20
9.30000000000001
30
0
41
1
10
53.8974960150744
20
9.29155884979542
30
0
41
1
10
53.900254978243
20
9.25766299806185
30
0
41
1
10
53.893416291146
20
9.2317185118934
30
0
41
1
10
53.865506149518
20
9.16760981020462
30
0
41
1
10
53.844403968078
20
9.12896428235644
30
0
41
1
10
53.7821568865513
20
9.02843342707553
30
0
41
1
10
53.7355253454424
20
8.96190124897396
30
0
41
1
10
53.6148249332755
20
8.80281643960626
30
0
41
1
10
53.5348306662417
20
8.70642958283094
30
0
41
1
10
53.4181432268853
20
8.57506969603281
30
0
41
1
10
53.3836633154926
20
8.53728269696029
30
0
41
1
10
53.3487652488217
20
8.5
30
0
0
SPLINE
5
204
100
AcDbEntity
8
1
62
256
6
ByLayer
370
18
48
1
60
0
100
AcDbSpline
70
4
71
3
72
16
73
12
40
0
40
0
40
0
40
0
40
0.112904383055305
40
0.112904383055305
40
0.251995806601954
40
0.251995806601954
40
0.471177478614526
40
0.471177478614526
40
0.8923348040261
40
0.8923348040261
40
1
40
1
40
1
40
1
41
1
10
4.92320508075687
20
15.2769622091386
30
0
41
1
10
4.90636996355747
20
15.2769622091386
30
0
41
1
10
4.88932551790361
20
15.2760126621562
30
0
41
1
10
4.85400387216043
20
15.2722082770661
30
0
41
1
10
4.83576156988676
20
15.2689414463835
30
0
41
1
10
4.79405363685709
20
15.2589992478797
30
0
41
1
10
4.77256184645842
20
15.2513160232934
30
0
41
1
10
4.7195295905812
20
15.2273927985289
30
0
41
1
10
4.69506482950476
20
15.2092528380284
30
0
41
1
10
4.67177931116106
20
15.1857432227236
30
0
41
1
10
4.66740846582624
20
15.1808653782146
30
0
41
1
10
4.66339745962151
20
15.1759383782004
30
0
0
SPLINE
5
205
100
AcDbEntity
8
1
62
256
6
ByLayer
370
18
48
1
60
0
100
AcDbSpline
70
4
71
3
72
8
73
4
40
0
40
0
40
0
40
0
40
1
40
1
40
1
40
1
41
1
10
55
20
-9.30000000000001
30
0
41
1
10
54.6544173403985
20
-9.30000000000001
30
0
41
1
10
54.3187312204042
20
-9.30000000000001
30
0
41
1
10
54
20
-9.30000000000001
30
0
0
SPLINE
5
206
100
AcDbEntity
8
1
62
256
6
ByLayer
370
18
48
1
60
0
100
AcDbSpline
70
4
71
3
72
8
73
4
40
0
40
0
40
0
40
0
40
1
40
1
40
1
40
1
41
1
10
55.9536111985154
20
-0.008201202843054
30
0
41
1
10
55.9536111985154
20
0.263531984691099
30
0
41
1
10
55.9536111985154
20
0.535265172225252
30
0
41
1
10
55.9536111985154
20
0.806998359759461
30
0
0
SPLINE
5
207
100
AcDbEntity
8
1
62
256
6
ByLayer
370
18
48
1
60
0
100
AcDbSpline
70
2053
71
3
72
46
73
42
40
0
40
0
40
0
40
0
40
0.0874626611866306
40
0.0874626611866306
40
0.137764314057985
40
0.137764314057985
40
0.178184895374126
40
0.178184895374126
40
0.211254429434099
40
0.211254429434099
40
0.244527637804294
40
0.244527637804294
40
0.274865210566743
40
0.274865210566743
40
0.306189317082625
40
0.306189317082625
40
0.351736991139388
40
0.351736991139388
40
0.415044365963712
40
0.415044365963712
40
0.5050695123569
40
0.5050695123569
40
0.597725707562676
40
0.597725707562676
40
0.649909284239298
40
0.649909284239298
40
0.689702488689337
40
0.689702488689337
40
0.714148334206136
40
0.714148334206136
40
0.734898250529895
40
0.734898250529895
40
0.755673008923119
40
0.755673008923119
40
0.782518484779073
40
0.782518484779073
40
0.825800053852329
40
0.825800053852329
40
0.904384281193096
40
0.904384281193096
40
1
40
1
40
1
40
1
41
1
10
56.1
20
-7.70005285038721
30
0
41
1
10
56.1
20
-7.54744129894181
30
0
41
1
10
56.1349396826124
20
-7.38453422057523
30
0
41
1
10
56.2655191087698
20
-7.13962494746437
30
0
41
1
10
56.3307438319444
20
-7.05072348149821
30
0
41
1
10
56.482349477723
20
-6.90809576279383
30
0
41
1
10
56.5638179028817
20
-6.8496293201124
30
0
41
1
10
56.7318398924373
20
-6.76641106666739
30
0
41
1
10
56.8166869515495
20
-6.73676529290628
30
0
41
1
10
56.9934274508491
20
-6.7016054507979
30
0
41
1
10
57.0879047735672
20
-6.69590050824024
30
0
41
1
10
57.2624773706434
20
-6.70974607432953
30
0
41
1
10
57.3452990470136
20
-6.7272181087003
30
0
41
1
10
57.5003079354377
20
-6.77984787616089
30
0
41
1
10
57.5739273360261
20
-6.81604532725879
30
0
41
1
10
57.7333357028799
20
-6.91807255896782
30
0
41
1
10
57.81250098593
20
-6.99134633261991
30
0
41
1
10
57.9620985298254
20
-7.17491705293202
30
0
41
1
10
58.0206529193912
20
-7.29165039485935
30
0
41
1
10
58.1057554890398
20
-7.56848536315158
30
0
41
1
10
58.1112006245219
20
-7.73166905745239
30
0
41
1
10
58.0543679761146
20
-8.03787345153768
30
0
41
1
10
57.9898830168458
20
-8.18486233380656
30
0
41
1
10
57.8317514539583
20
-8.38789867553822
30
0
41
1
10
57.7619598619762
20
-8.45687596493127
30
0
41
1
10
57.610583009549
20
-8.56354738238116
30
0
41
1
10
57.5343955862628
20
-8.60564842994171
30
0
41
1
10
57.3913197826162
20
-8.65839179920494
30
0
41
1
10
57.3308913724439
20
-8.67514120398386
30
0
41
1
10
57.2126230008832
20
-8.69516197845741
30
0
41
1
10
57.1545310527796
20
-8.70015851922216
30
0
41
1
10
57.0397302106429
20
-8.69983324878501
30
0
41
1
10
56.9816977155166
20
-8.69449866727518
30
0
41
1
10
56.8576703215549
20
-8.6727834643753
30
0
41
1
10
56.7921982262666
20
-8.65352172560108
30
0
41
1
10
56.639787734935
20
-8.59353291945303
30
0
41
1
10
56.5601868560221
20
-8.54608237772902
30
0
41
1
10
56.3702587167417
20
-8.40083714539719
30
0
41
1
10
56.2814935616405
20
-8.29002771805233
30
0
41
1
10
56.1410706819175
20
-8.02733672155085
30
0
41
1
10
56.1
20
-7.86689048134554
30
0
41
1
10
56.1
20
-7.7000528503872
30
0
0
SPLINE
5
208
100
AcDbEntity
8
1
62
256
6
ByLayer
370
18
48
1
60
0
100
AcDbSpline
70
4
71
3
72
16
73
12
40
0
40
0
40
0
40
0
40
0.0238853966701462
40
0.0238853966701462
40
0.234693858615641
40
0.234693858615641
40
0.445502320561146
40
0.445502320561146
40
0.655464593080559
40
0.655464593080559
40
1
40
1
40
1
40
1
41
1
10
58.1312256795631
20
-0.702014629441749
30
0
41
1
10
58.1466408558973
20
-0.702749513145989
30
0
41
1
10
58.1621690262423
20
-0.703116457080341
30
0
41
1
10
58.3158701822616
20
-0.703116457080341
30
0
41
1
10
58.447792839397
20
-0.675232367413855
30
0
41
1
10
58.6993662785852
20
-0.563696008747968
30
0
41
1
10
58.7926951268167
20
-0.486454584773241
30
0
41
1
10
58.9141240925264
20
-0.289229086932721
30
0
41
1
10
58.9448037802322
20
-0.158009841443402
30
0
41
1
10
58.9448037802322
20
0.272279934390383
30
0
41
1
10
58.9448037802322
20
0.539639147074922
30
0
41
1
10
58.9448037802322
20
0.806998359759461
30
0
0
SPLINE
5
209
100
AcDbEntity
8
1
62
256
6
ByLayer
370
18
48
1
60
0
100
AcDbSpline
70
4
71
3
72
8
73
4
40
0
40
0
40
0
40
0
40
1
40
1
40
1
40
1
41
1
10
55
20
6.45012562893379
30
0
41
1
10
54.6577697755541
20
6.48452106064309
30
0
41
1
10
54.3229012266111
20
6.53612909199097
30
0
41
1
10
54
20
6.60204102886729
30
0
0
SPLINE
5
20A
100
AcDbEntity
8
1
62
256
6
ByLayer
370
18
48
1
60
0
100
AcDbSpline
70
4
71
3
72
16
73
12
40
0
40
0
40
0
40
0
40
0.112904383055307
40
0.112904383055307
40
0.251995806601949
40
0.251995806601949
40
0.471177478614507
40
0.471177478614507
40
0.892334804026101
40
0.892334804026101
40
1
40
1
40
1
40
1
41
1
10
7.07679491924313
20
4.75546271781758
30
0
41
1
10
7.09363003644253
20
4.75546271781758
30
0
41
1
10
7.11067448209639
20
4.75851551862661
30
0
41
1
10
7.14599612783957
20
4.77071315953361
30
0
41
1
10
7.16423843011324
20
4.78117073972197
30
0
41
1
10
7.20594636314291
20
4.81283214608436
30
0
41
1
10
7.22743815354158
20
4.83715715133616
30
0
41
1
10
7.2804704094188
20
4.91214630601439
30
0
41
1
10
7.30493517049524
20
4.96811547083689
30
0
41
1
10
7.32822068883894
20
5.03919021254677
30
0
41
1
10
7.33259153417376
20
5.05386666454075
30
0
41
1
10
7.33660254037849
20
5.06861858311169
30
0
0
SPLINE
5
20B
100
AcDbEntity
8
1
62
256
6
ByLayer
370
18
48
1
60
0
100
AcDbSpline
70
4
71
3
72
8
73
4
40
0
40
0
40
0
40
0
40
1
40
1
40
1
40
1
41
1
10
56.3147875516455
20
-0.200656096227419
30
0
41
1
10
56.3308943876911
20
-0.265718972115906
30
0
41
1
10
56.3585061066264
20
-0.319846910880244
30
0
41
1
10
56.3968557162588
20
-0.363586659376722
30
0
0
SPLINE
5
20C
100
AcDbEntity
8
1
62
256
6
ByLayer
370
18
48
1
60
0
100
AcDbSpline
70
4
71
3
72
18
73
14
40
0
40
0
40
0
40
0
40
0.191282246468514
40
0.191282246468514
40
0.38256449293702
40
0.38256449293702
40
0.536093664444637
40
0.536093664444637
40
0.690494636503867
40
0.690494636503867
40
0.845847843419473
40
0.845847843419473
40
1
40
1
40
1
40
1
41
1
10
57.5489549592213
20
-0.404592673592106
30
0
41
1
10
57.495265505736
20
-0.533624931656618
30
0
41
1
10
57.4047604270037
20
-0.633132859486068
30
0
41
1
10
57.1485850346595
20
-0.772006560962268
30
0
41
1
10
56.9974875727081
20
-0.806998359759405
30
0
41
1
10
56.6822537815301
20
-0.806998359759405
30
0
41
1
10
56.5518651087801
20
-0.785675232367396
30
0
41
1
10
56.3103457796043
20
-0.701237158527704
30
0
41
1
10
56.217456512786
20
-0.648988518316003
30
0
41
1
10
56.086665767959
20
-0.523945833497862
30
0
41
1
10
56.0372133475139
20
-0.44669218151995
30
0
41
1
10
55.9699789408849
20
-0.259338298669661
30
0
41
1
10
55.9536111985154
20
-0.143794423182044
30
0
41
1
10
55.9536111985154
20
-0.008201202843054
30
0
0
SPLINE
5
20D
100
AcDbEntity
8
1
62
256
6
ByLayer
370
18
48
1
60
0
100
AcDbSpline
70
4
71
3
72
16
73
12
40
0
40
0
40
0
40
0
40
0.112904383055305
40
0.112904383055305
40
0.251995806601944
40
0.251995806601944
40
0.471177478614513
40
0.471177478614513
40
0.892334804026137
40
0.892334804026137
40
1
40
1
40
1
40
1
41
1
10
7.07679491924313
20
-15.2769622091386
30
0
41
1
10
7.09363003644253
20
-15.2769622091386
30
0
41
1
10
7.11067448209639
20
-15.2760126621562
30
0
41
1
10
7.14599612783957
20
-15.2722082770661
30
0
41
1
10
7.16423843011324
20
-15.2689414463835
30
0
41
1
10
7.20594636314291
20
-15.2589992478797
30
0
41
1
10
7.22743815354158
20
-15.2513160232933
30
0
41
1
10
7.2804704094188
20
-15.2273927985289
30
0
41
1
10
7.30493517049524
20
-15.2092528380283
30
0
41
1
10
7.32822068883897
20
-15.1857432227235
30
0
41
1
10
7.33259153417376
20
-15.1808653782146
30
0
41
1
10
7.33660254037849
20
-15.1759383782004
30
0
0
SPLINE
5
20E
100
AcDbEntity
8
1
62
256
6
ByLayer
370
18
48
1
60
0
100
AcDbSpline
70
4
71
3
72
16
73
12
40
0
40
0
40
0
40
0
40
0.462497527135808
40
0.462497527135808
40
0.645191851133652
40
0.645191851133652
40
0.830465145084779
40
0.830465145084779
40
0.946099677592158
40
0.946099677592158
40
1
40
1
40
1
40
1
41
1
10
4.66339745962156
20
5.06861858311169
30
0
41
1
10
4.68049745427385
20
5.00572719980329
30
0
41
1
10
4.70393430551655
20
4.94318132289493
30
0
41
1
10
4.75230660037377
20
4.864513415327
30
0
41
1
10
4.76803751709781
20
4.84296870144203
30
0
41
1
10
4.80461917683135
20
4.80415189945637
30
0
41
1
10
4.82601832205677
20
4.78648459402871
30
0
41
1
10
4.86534830605126
20
4.76617783194871
30
0
41
1
10
4.88194300110749
20
4.76031541807635
30
0
41
1
10
4.90693069677599
20
4.75614889828648
30
0
41
1
10
4.91508241701405
20
4.75546271781747
30
0
41
1
10
4.92320508075687
20
4.75546271781747
30
0
0
SPLINE
5
20F
100
AcDbEntity
8
1
62
256
6
ByLayer
370
18
48
1
60
0
100
AcDbSpline
70
4
71
3
72
8
73
4
40
0
40
0
40
0
40
0
40
1
40
1
40
1
40
1
41
1
10
53.5822440859605
20
9.30000000000001
30
0
41
1
10
53.5824832946138
20
9.30000000000001
30
0
41
1
10
53.6780982170565
20
9.30000000000001
30
0
41
1
10
53.8715120859618
20
9.30000000000001
30
0
0
SPLINE
5
210
100
AcDbEntity
8
1
62
256
6
ByLayer
370
18
48
1
60
0
100
AcDbSpline
70
4
71
3
72
8
73
4
40
0
40
0
40
0
40
0
40
1
40
1
40
1
40
1
41
1
10
56
20
6.40000000000003
30
0
41
1
10
55.6659542527694
20
6.40000000000003
30
0
41
1
10
55.3311936220101
20
6.41683941750455
30
0
41
1
10
55
20
6.45012562893379
30
0
0
SPLINE
5
211
100
AcDbEntity
8
1
62
256
6
ByLayer
370
18
48
1
60
0
100
AcDbSpline
70
4
71
3
72
10
73
6
40
0
40
0
40
0
40
0
40
0.543725446346165
40
0.543725446346165
40
1
40
1
40
1
40
1
41
1
10
55
20
0.96946124146848
30
0
41
1
10
54.8916910711074
20
0.631276442924445
30
0
41
1
10
54.835699404462
20
0.270322388816794
30
0
41
1
10
54.8540643185126
20
-0.383936381147862
30
0
41
1
10
54.9086892983095
20
-0.684351864326686
30
0
41
1
10
55.0000000000068
20
-0.969461241489682
30
0
0
SPLINE
5
212
100
AcDbEntity
8
1
62
256
6
ByLayer
370
18
48
1
60
0
100
AcDbSpline
70
4
71
3
72
8
73
4
40
0
40
0
40
0
40
0
40
1
40
1
40
1
40
1
41
1
10
56.4038356155993
20
-0.363586659376722
30
0
41
1
10
56.3654860059669
20
-0.319846910880244
30
0
41
1
10
56.3378742870316
20
-0.265718972115906
30
0
41
1
10
56.321767450986
20
-0.200656096227419
30
0
0
SPLINE
5
213
100
AcDbEntity
8
1
62
256
6
ByLayer
370
18
48
1
60
0
100
AcDbSpline
70
4
71
3
72
16
73
12
40
0
40
0
40
0
40
0
40
0.462497527135777
40
0.462497527135777
40
0.645191851133645
40
0.645191851133645
40
0.830465145084773
40
0.830465145084773
40
0.946099677592158
40
0.946099677592158
40
1
40
1
40
1
40
1
41
1
10
4.66339745962154
20
-15.1759383782004
30
0
41
1
10
4.68049745427382
20
-15.1969435000063
30
0
41
1
10
4.70393430551653
20
-15.2173733040723
30
0
41
1
10
4.75230660037377
20
-15.2426068177431
30
0
41
1
10
4.76803751709781
20
-15.2494611471717
30
0
41
1
10
4.80461917683135
20
-15.2617345707429
30
0
41
1
10
4.82601832205677
20
-15.2672766430868
30
0
41
1
10
4.86534830605126
20
-15.2736248541652
30
0
41
1
10
4.88194300110749
20
-15.2754510872996
30
0
41
1
10
4.90693069677599
20
-15.2767486596485
30
0
41
1
10
4.91508241701405
20
-15.2769622091386
30
0
41
1
10
4.92320508075687
20
-15.2769622091386
30
0
0
SPLINE
5
214
100
AcDbEntity
8
1
62
256
6
ByLayer
370
18
48
1
60
0
100
AcDbSpline
70
4
71
3
72
8
73
4
40
0
40
0
40
0
40
0
40
1
40
1
40
1
40
1
41
1
10
49.9819002998077
20
8.41360682169068
30
0
41
1
10
50.6535571539794
20
7.90748374178764
30
0
41
1
10
51.8227053607749
20
7.19090559866453
30
0
41
1
10
53.2679491924311
20
6.78044188203728
30
0
0
SPLINE
5
215
100
AcDbEntity
8
1
62
256
6
ByLayer
370
18
48
1
60
0
100
AcDbSpline
70
4
71
3
72
8
73
4
40
0
40
0
40
0
40
0
40
1
40
1
40
1
40
1
41
1
10
53.3487652488217
20
8.5
30
0
41
1
10
53.321817284513
20
8.47121064623747
30
0
41
1
10
53.2948784346991
20
8.44241291942598
30
0
41
1
10
53.2679491924311
20
8.41360682169068
30
0
0
SPLINE
5
216
100
AcDbEntity
8
1
62
256
6
ByLayer
370
18
48
1
60
0
100
AcDbSpline
70
4
71
3
72
8
73
4
40
0
40
0
40
0
40
0
40
1
40
1
40
1
40
1
41
1
10
53.9999999999999
20
6.60204102886729
30
0
41
1
10
53.7403565777298
20
6.65504052050329
30
0
41
1
10
53.4953386189917
20
6.71586100848265
30
0
41
1
10
53.2679491924311
20
6.78044188203728
30
0
0
SPLINE
5
217
100
AcDbEntity
8
1
62
256
6
ByLayer
370
18
48
1
60
0
100
AcDbSpline
70
4
71
3
72
16
73
12
40
0
40
0
40
0
40
0
40
0.46249752713578
40
0.46249752713578
40
0.645191851133623
40
0.645191851133623
40
0.830465145084772
40
0.830465145084772
40
0.946099677592128
40
0.946099677592128
40
1
40
1
40
1
40
1
41
1
10
7.33660254037846
20
-5.06861858311169
30
0
41
1
10
7.31950254572618
20
-5.00572719980329
30
0
41
1
10
7.29606569448345
20
-4.94318132289493
30
0
41
1
10
7.24769339962626
20
-4.864513415327
30
0
41
1
10
7.23196248290219
20
-4.84296870144203
30
0
41
1
10
7.19538082316865
20
-4.80415189945637
30
0
41
1
10
7.17398167794323
20
-4.78648459402871
30
0
41
1
10
7.13465169394874
20
-4.76617783194865
30
0
41
1
10
7.11805699889254
20
-4.76031541807629
30
0
41
1
10
7.09306930322401
20
-4.75614889828648
30
0
41
1
10
7.08491758298595
20
-4.75546271781747
30
0
41
1
10
7.07679491924313
20
-4.75546271781747
30
0
0
SPLINE
5
218
100
AcDbEntity
8
1
62
256
6
ByLayer
370
18
48
1
60
0
100
AcDbSpline
70
4
71
3
72
12
73
8
40
0
40
0
40
0
40
0
40
0.0332411770270303
40
0.0332411770270303
40
0.516620588513506
40
0.516620588513506
40
1
40
1
40
1
40
1
41
1
10
56.7797756320569
20
-0.806529116533511
30
0
41
1
10
56.7916550447111
20
-0.806841830725318
30
0
41
1
10
56.8036076518401
20
-0.806998359759405
30
0
41
1
10
56.9905076733676
20
-0.806998359759405
30
0
41
1
10
57.141605135319
20
-0.772006560962268
30
0
41
1
10
57.3977805276631
20
-0.633132859486068
30
0
41
1
10
57.4882856063955
20
-0.533624931656618
30
0
41
1
10
57.5419750598808
20
-0.404592673592106
30
0
0
SPLINE
5
219
100
AcDbEntity
8
1
62
256
6
ByLayer
370
18
48
1
60
0
100
AcDbSpline
70
4
71
3
72
10
73
6
40
0
40
0
40
0
40
0
40
0.535638664782256
40
0.535638664782256
40
1
40
1
40
1
40
1
41
1
10
75.5364848413339
20
1.54362288431855
30
0
41
1
10
75.4324535920863
20
1.79015916236358
30
0
41
1
10
75.3599681933052
20
2.04907669729738
30
0
41
1
10
75.3388890755233
20
2.52889296236589
30
0
41
1
10
75.3738505477913
20
2.75206073763741
30
0
41
1
10
75.4332709273242
20
2.96664566384601
30
0
0
SPLINE
5
21A
100
AcDbEntity
8
1
62
256
6
ByLayer
370
18
48
1
60
0
100
AcDbSpline
70
4
71
3
72
8
73
4
40
0
40
0
40
0
40
0
40
1
40
1
40
1
40
1
41
1
10
75.4332709273254
20
2.96664566384589
30
0
41
1
10
75.2976197145267
20
2.93789692631634
30
0
41
1
10
75.2218032729616
20
2.90772013855388
30
0
41
1
10
75.2074310152269
20
2.87793868429145
30
0
0
SPLINE
5
21B
100
AcDbEntity
8
1
62
256
6
ByLayer
370
18
48
1
60
0
100
AcDbSpline
70
4
71
3
72
10
73
6
40
0
40
0
40
0
40
0
40
0.535638664782256
40
0.535638664782256
40
1
40
1
40
1
40
1
41
1
10
75.4592736507807
20
-0.0230227795273663
30
0
41
1
10
75.3865007442562
20
0.248395919130644
30
0
41
1
10
75.3468435081621
20
0.533445490531392
30
0
41
1
10
75.3866003102558
20
1.06168866550161
30
0
41
1
10
75.449857232019
20
1.30738032446123
30
0
41
1
10
75.536484841335
20
1.54362288431901
30
0
0
LINE
5
70
100
AcDbEntity
8
SK1
62
256
6
ByLayer
370
18
48
1
60
0
100
AcDbLine
10
-2.5
20
-11
30
0
11
-2.5
21
11
31
0
39
0
210
0
220
0
230
1
0
LINE
5
72
100
AcDbEntity
8
SK1
62
256
6
ByLayer
370
18
48
1
60
0
100
AcDbLine
10
-1.5
20
10.825148
30
0
11
-1.5
21
2.308306
31
0
39
0
210
0
220
0
230
1
0
LINE
5
73
100
AcDbEntity
8
SK1
62
256
6
ByLayer
370
18
48
1
60
0
100
AcDbLine
10
-1.307107
20
3.2741
30
0
11
-1.307107
21
-3.2741
31
0
39
0
210
0
220
0
230
1
0
LINE
5
74
100
AcDbEntity
8
SK1
62
256
6
ByLayer
370
18
48
1
60
0
100
AcDbLine
10
-0.4
20
-4.489349
30
0
11
-0.4
21
-10.77209
31
0
39
0
210
0
220
0
230
1
0
LINE
5
75
100
AcDbEntity
8
SK1
62
256
6
ByLayer
370
18
48
1
60
0
100
AcDbLine
10
-0.4
20
10.77209
30
0
11
-0.4
21
4.489349
31
0
39
0
210
0
220
0
230
1
0
LINE
5
76
100
AcDbEntity
8
SK1
62
256
6
ByLayer
370
18
48
1
60
0
100
AcDbLine
10
-18.000315
20
10.610578
30
0
11
-18.000315
21
-10.610578
31
0
39
0
210
0
220
0
230
1
0
LINE
5
77
100
AcDbEntity
8
SK1
62
256
6
ByLayer
370
18
48
1
60
0
100
AcDbLine
10
-0.2
20
-5.197043
30
0
11
-0.2
21
-10.883485
31
0
39
0
210
0
220
0
230
1
0
LINE
5
78
100
AcDbEntity
8
SK1
62
256
6
ByLayer
370
18
48
1
60
0
100
AcDbLine
10
-0.2
20
5.197043
30
0
11
-0.2
21
10.883485
31
0
39
0
210
0
220
0
230
1
0
LINE
5
79
100
AcDbEntity
8
SK1
62
256
6
ByLayer
370
18
48
1
60
0
100
AcDbLine
10
-1.5
20
-10.825148
30
0
11
-1.5
21
-2.308307
31
0
39
0
210
0
220
0
230
1
0
LINE
5
7A
100
AcDbEntity
8
SK1
62
256
6
ByLayer
370
18
48
1
60
0
100
AcDbLine
10
-19
20
-9.9986
30
0
11
-19
21
9.999346
31
0
39
0
210
0
220
0
230
1
0
LINE
5
7B
100
AcDbEntity
8
4
62
256
6
ByLayer
370
13
48
0.05
60
0
100
AcDbLine
10
0
20
0
30
0
11
76
21
0
31
0
39
0
210
0
220
0
230
1
0
LINE
5
7D
100
AcDbEntity
8
80
62
256
6
ByLayer
370
13
48
1
60
0
100
AcDbLine
10
0
20
0
30
0
11
-4.28511
21
0
31
0
39
0
210
0
220
0
230
1
0
LINE
5
7E
100
AcDbEntity
8
SK4
62
256
6
ByLayer
370
13
48
0.05
60
0
100
AcDbLine
10
-24.5
20
0
30
0
11
78.586
21
0
31
0
39
0
210
0
220
0
230
1
0
LINE
5
80
100
AcDbEntity
8
2
62
256
6
ByLayer
370
13
48
0.05
60
0
100
AcDbLine
10
76
20
11.486285
30
0
11
30
21
11.486285
31
0
39
0
210
0
220
0
230
1
0
LINE
5
82
100
AcDbEntity
8
81
62
256
6
ByLayer
370
13
48
1
60
0
100
AcDbLine
10
76
20
11.486285
30
0
11
78
21
11.486285
31
0
39
0
210
0
220
0
230
1
0
LINE
5
83
100
AcDbEntity
8
1
62
256
6
ByLayer
370
18
48
1
60
1
100
AcDbLine
10
0
20
0
30
0
11
0
21
420
31
0
39
0
210
0
220
0
230
1
0
LINE
5
85
100
AcDbEntity
8
1
62
256
6
ByLayer
370
18
48
1
60
1
100
AcDbLine
10
594
20
420
30
0
11
0
21
420
31
0
39
0
210
0
220
0
230
1
0
LINE
5
86
100
AcDbEntity
8
1
62
256
6
ByLayer
370
18
48
1
60
1
100
AcDbLine
10
594
20
420
30
0
11
594
21
0
31
0
39
0
210
0
220
0
230
1
0
LINE
5
87
100
AcDbEntity
8
1
62
256
6
ByLayer
370
18
48
1
60
1
100
AcDbLine
10
0
20
0
30
0
11
594
21
0
31
0
39
0
210
0
220
0
230
1
0
LINE
5
88
100
AcDbEntity
8
1
62
256
6
ByLayer
370
13
48
1
60
0
100
AcDbLine
10
71.800178
20
0.339442
30
0
11
71.836551
21
0.35
31
0
39
0
210
0
220
0
230
1
0
LINE
5
89
100
AcDbEntity
8
1
62
256
6
ByLayer
370
13
48
1
60
0
100
AcDbLine
10
71.800178
20
-3.139442
30
0
11
71.836551
21
-3.15
31
0
39
0
210
0
220
0
230
1
0
LINE
5
8A
100
AcDbEntity
8
1
62
256
6
ByLayer
370
18
48
1
60
0
100
AcDbLine
10
69.772411
20
-9.752123
30
0
11
69.678394
21
-9.822333
31
0
39
0
210
0
220
0
230
1
0
LINE
5
8B
100
AcDbEntity
8
1
62
256
6
ByLayer
370
18
48
1
60
0
100
AcDbLine
10
64.948129
20
2.781073
30
0
11
64.937272
21
2.781073
31
0
39
0
210
0
220
0
230
1
0
LINE
5
8C
100
AcDbEntity
8
1
62
256
6
ByLayer
370
18
48
1
60
0
100
AcDbLine
10
65.02591
20
4.257244
30
0
11
65.016045
21
4.257244
31
0
39
0
210
0
220
0
230
1
0
LINE
5
8D
100
AcDbEntity
8
1
62
256
6
ByLayer
370
18
48
1
60
0
100
AcDbLine
10
65.02591
20
4.257244
30
0
11
65.297256
21
6.200273
31
0
39
0
210
0
220
0
230
1
0
LINE
5
8E
100
AcDbEntity
8
1
62
256
6
ByLayer
370
18
48
1
60
0
100
AcDbLine
10
74.807977
20
1.6
30
0
11
71.676604
21
1.6
31
0
39
0
210
0
220
0
230
1
0
LINE
5
8F
100
AcDbEntity
8
1
62
256
6
ByLayer
370
18
48
1
60
0
100
AcDbLine
10
71.676604
20
-4.4
30
0
11
74.807977
21
-4.4
31
0
39
0
210
0
220
0
230
1
0
LINE
5
90
100
AcDbEntity
8
1
62
256
6
ByLayer
370
18
48
1
60
0
100
AcDbLine
10
71.82668
20
-2.575267
30
0
11
71.847743
21
-1.997279
31
0
39
0
210
0
220
0
230
1
0
LINE
5
91
100
AcDbEntity
8
1
62
256
6
ByLayer
370
18
48
1
60
0
100
AcDbLine
10
71.847743
20
-0.802721
30
0
11
71.82668
21
-0.224733
31
0
39
0
210
0
220
0
230
1
0
LINE
5
92
100
AcDbEntity
8
1
62
256
6
ByLayer
370
18
48
1
60
0
100
AcDbLine
10
71.1
20
7.778899
30
0
11
71.1
21
7.755933
31
0
39
0
210
0
220
0
230
1
0
LINE
5
93
100
AcDbEntity
8
1
62
256
6
ByLayer
370
18
48
1
60
0
100
AcDbLine
10
74.55
20
7.755933
30
0
11
74.55
21
7.778899
31
0
39
0
210
0
220
0
230
1
0
LINE
5
94
100
AcDbEntity
8
1
62
256
6
ByLayer
370
18
48
1
60
0
100
AcDbLine
10
72.439141
20
6.947435
30
0
11
72.439141
21
6.971476
31
0
39
0
210
0
220
0
230
1
0
LINE
5
95
100
AcDbEntity
8
1
62
256
6
ByLayer
370
18
48
1
60
0
100
AcDbLine
10
72.052948
20
7.970402
30
0
11
72.052948
21
7.993075
31
0
39
0
210
0
220
0
230
1
0
LINE
5
96
100
AcDbEntity
8
1
62
256
6
ByLayer
370
18
48
1
60
0
100
AcDbLine
10
73.597052
20
7.558889
30
0
11
73.597052
21
7.536228
31
0
39
0
210
0
220
0
230
1
0
LINE
5
97
100
AcDbEntity
8
1
62
256
6
ByLayer
370
18
48
1
60
0
100
AcDbLine
10
73.210859
20
8.583237
30
0
11
73.210859
21
8.559196
31
0
39
0
210
0
220
0
230
1
0
LINE
5
98
100
AcDbEntity
8
1
62
256
6
ByLayer
370
18
48
1
60
0
100
AcDbLine
10
0.3
20
16
30
0
11
0
21
15.7
31
0
39
0
210
0
220
0
230
1
0
LINE
5
99
100
AcDbEntity
8
1
62
256
6
ByLayer
370
18
48
1
60
0
100
AcDbLine
10
0
20
-15.7
30
0
11
0.3
21
-16
31
0
39
0
210
0
220
0
230
1
0
LINE
5
9A
100
AcDbEntity
8
1
62
256
6
ByLayer
370
18
48
1
60
0
100
AcDbLine
10
0.3
20
-16
30
0
11
15
21
-16
31
0
39
0
210
0
220
0
230
1
0
LINE
5
9B
100
AcDbEntity
8
1
62
256
6
ByLayer
370
18
48
1
60
0
100
AcDbLine
10
15
20
16
30
0
11
0.3
21
16
31
0
39
0
210
0
220
0
230
1
0
LINE
5
9C
100
AcDbEntity
8
1
62
256
6
ByLayer
370
18
48
1
60
0
100
AcDbLine
10
15
20
-16
30
0
11
18
21
-13.5
31
0
39
0
210
0
220
0
230
1
0
LINE
5
9D
100
AcDbEntity
8
1
62
256
6
ByLayer
370
18
48
1
60
0
100
AcDbLine
10
18
20
13.5
30
0
11
15
21
16
31
0
39
0
210
0
220
0
230
1
0
LINE
5
9E
100
AcDbEntity
8
1
62
256
6
ByLayer
370
18
48
1
60
0
100
AcDbLine
10
18
20
-13.5
30
0
11
30
21
-10.5
31
0
39
0
210
0
220
0
230
1
0
LINE
5
9F
100
AcDbEntity
8
1
62
256
6
ByLayer
370
18
48
1
60
0
100
AcDbLine
10
30
20
10.5
30
0
11
18
21
13.5
31
0
39
0
210
0
220
0
230
1
0
LINE
5
A0
100
AcDbEntity
8
1
62
256
6
ByLayer
370
18
48
1
60
0
100
AcDbLine
10
30
20
-10.5
30
0
11
49
21
-9
31
0
39
0
210
0
220
0
230
1
0
LINE
5
A1
100
AcDbEntity
8
1
62
256
6
ByLayer
370
18
48
1
60
0
100
AcDbLine
10
49
20
9
30
0
11
30
21
10.5
31
0
39
0
210
0
220
0
230
1
0
LINE
5
A2
100
AcDbEntity
8
1
62
256
6
ByLayer
370
18
48
1
60
0
100
AcDbLine
10
56.81399
20
-0.513942
30
0
11
56.824139
21
-0.513942
31
0
39
0
210
0
220
0
230
1
0
LINE
5
A3
100
AcDbEntity
8
1
62
256
6
ByLayer
370
18
48
1
60
0
100
AcDbLine
10
58.129453
20
-0.424822
30
0
11
58.13956
21
-0.424822
31
0
39
0
210
0
220
0
230
1
0
LINE
5
A4
100
AcDbEntity
8
1
62
256
6
ByLayer
370
18
48
1
60
0
100
AcDbLine
10
53.267949
20
-9
30
0
11
53.567949
21
-9.3
31
0
39
0
210
0
220
0
230
1
0
LINE
5
A5
100
AcDbEntity
8
1
62
256
6
ByLayer
370
18
48
1
60
0
100
AcDbLine
10
49
20
-9
30
0
11
53.267949
21
-9
31
0
39
0
210
0
220
0
230
1
0
LINE
5
A6
100
AcDbEntity
8
1
62
256
6
ByLayer
370
18
48
1
60
0
100
AcDbLine
10
53.267949
20
9
30
0
11
49
21
9
31
0
39
0
210
0
220
0
230
1
0
LINE
5
A7
100
AcDbEntity
8
1
62
256
6
ByLayer
370
18
48
1
60
0
100
AcDbLine
10
53.567949
20
9.3
30
0
11
53.267949
21
9
31
0
39
0
210
0
220
0
230
1
0
LINE
5
A8
100
AcDbEntity
8
1
62
256
6
ByLayer
370
18
48
1
60
0
100
AcDbLine
10
71.575
20
-7.098496
30
0
11
71.575
21
-7.472067
31
0
39
0
210
0
220
0
230
1
0
LINE
5
A9
100
AcDbEntity
8
1
62
256
6
ByLayer
370
18
48
1
60
0
100
AcDbLine
10
72.312397
20
8.51916
30
0
11
72.312397
21
8.494997
31
0
39
0
210
0
220
0
230
1
0
LINE
5
AA
100
AcDbEntity
8
1
62
256
6
ByLayer
370
18
48
1
60
0
100
AcDbLine
10
72.295955
20
8.530961
30
0
11
72.295955
21
8.506513
31
0
39
0
210
0
220
0
230
1
0
LINE
5
AB
100
AcDbEntity
8
1
62
256
6
ByLayer
370
18
48
1
60
0
100
AcDbLine
10
71.926163
20
7.680381
30
0
11
71.907965
21
7.671905
31
0
39
0
210
0
220
0
230
1
0
LINE
5
AC
100
AcDbEntity
8
1
62
256
6
ByLayer
370
18
48
1
60
0
100
AcDbLine
10
71.907965
20
7.696352
30
0
11
71.907965
21
7.671905
31
0
39
0
210
0
220
0
230
1
0
LINE
5
AD
100
AcDbEntity
8
1
62
256
6
ByLayer
370
18
48
1
60
0
100
AcDbLine
10
72.438766
20
6.962862
30
0
11
72.438766
21
6.938699
31
0
39
0
210
0
220
0
230
1
0
LINE
5
AE
100
AcDbEntity
8
1
62
256
6
ByLayer
370
18
48
1
60
0
100
AcDbLine
10
72.90404
20
6.860833
30
0
11
72.90404
21
6.836385
31
0
39
0
210
0
220
0
230
1
0
LINE
5
AF
100
AcDbEntity
8
1
62
256
6
ByLayer
370
18
48
1
60
0
100
AcDbLine
10
73.658877
20
7.387725
30
0
11
73.658877
21
7.363277
31
0
39
0
210
0
220
0
230
1
0
LINE
5
B0
100
AcDbEntity
8
1
62
256
6
ByLayer
370
18
48
1
60
0
100
AcDbLine
10
73.560447
20
8.299171
30
0
11
73.560447
21
8.275008
31
0
39
0
210
0
220
0
230
1
0
LINE
5
B1
100
AcDbEntity
8
1
62
256
6
ByLayer
370
18
48
1
60
0
100
AcDbLine
10
72.74596
20
8.694693
30
0
11
72.74596
21
8.670245
31
0
39
0
210
0
220
0
230
1
0
LINE
5
B2
100
AcDbEntity
8
1
62
256
6
ByLayer
370
18
48
1
60
0
100
AcDbLine
10
73.658877
20
7.363277
30
0
11
73.644677
21
7.377464
31
0
39
0
210
0
220
0
230
1
0
LINE
5
B3
100
AcDbEntity
8
1
62
256
6
ByLayer
370
18
48
1
60
0
100
AcDbLine
10
73.579837
20
8.304656
30
0
11
73.579837
21
8.280208
31
0
39
0
210
0
220
0
230
1
0
LINE
5
B4
100
AcDbEntity
8
1
62
256
6
ByLayer
370
18
48
1
60
0
100
AcDbLine
10
71.926163
20
7.704544
30
0
11
71.926163
21
7.680381
31
0
39
0
210
0
220
0
230
1
0
LINE
5
B5
100
AcDbEntity
8
1
62
256
6
ByLayer
370
18
48
1
60
0
100
AcDbLine
10
72.74596
20
8.670245
30
0
11
72.74077
21
8.650859
31
0
39
0
210
0
220
0
230
1
0
LINE
5
B6
100
AcDbEntity
8
1
62
256
6
ByLayer
370
18
48
1
60
0
100
AcDbLine
10
72.74077
20
8.675022
30
0
11
72.74077
21
8.650859
31
0
39
0
210
0
220
0
230
1
0
LINE
5
B7
100
AcDbEntity
8
1
62
256
6
ByLayer
370
18
48
1
60
0
100
AcDbLine
10
72.312397
20
8.494997
30
0
11
72.295955
21
8.506513
31
0
39
0
210
0
220
0
230
1
0
LINE
5
B8
100
AcDbEntity
8
1
62
256
6
ByLayer
370
18
48
1
60
0
100
AcDbLine
10
73.579837
20
8.280208
30
0
11
73.560447
21
8.275008
31
0
39
0
210
0
220
0
230
1
0
LINE
5
B9
100
AcDbEntity
8
1
62
256
6
ByLayer
370
18
48
1
60
0
100
AcDbLine
10
73.644677
20
7.401627
30
0
11
73.644677
21
7.377464
31
0
39
0
210
0
220
0
230
1
0
LINE
5
BA
100
AcDbEntity
8
1
62
256
6
ByLayer
370
18
48
1
60
0
100
AcDbLine
10
69.781774
20
-9.608377
30
0
11
69.881852
21
-9.61459
31
0
39
0
210
0
220
0
230
1
0
LINE
5
BB
100
AcDbEntity
8
1
62
256
6
ByLayer
370
18
48
1
60
0
100
AcDbLine
10
65.016048
20
4.257265
30
0
11
64.937272
21
3.700273
31
0
39
0
210
0
220
0
230
1
0
LINE
5
BC
100
AcDbEntity
8
1
62
256
6
ByLayer
370
18
48
1
60
0
100
AcDbLine
10
65.589262
20
-8.987978
30
0
11
65.688194
21
-9.072895
31
0
39
0
210
0
220
0
230
1
0
LINE
5
BD
100
AcDbEntity
8
1
62
256
6
ByLayer
370
18
48
1
60
0
100
AcDbLine
10
65.297333
20
6.200273
30
0
11
71.219474
21
6.200273
31
0
39
0
210
0
220
0
230
1
0
LINE
5
BE
100
AcDbEntity
8
1
62
256
6
ByLayer
370
18
48
1
60
0
100
AcDbLine
10
65.688194
20
-9.072895
30
0
11
65.829063
21
-9.098467
31
0
39
0
210
0
220
0
230
1
0
LINE
5
BF
100
AcDbEntity
8
1
62
256
6
ByLayer
370
18
48
1
60
0
100
AcDbLine
10
75.4
20
-3.401194
30
0
11
75.398241
21
-3.400756
31
0
39
0
210
0
220
0
230
1
0
LINE
5
C0
100
AcDbEntity
8
1
62
256
6
ByLayer
370
18
48
1
60
0
100
AcDbLine
10
67.986135
20
-9.091184
30
0
11
67.986135
21
-9.845132
31
0
39
0
210
0
220
0
230
1
0
LINE
5
C1
100
AcDbEntity
8
1
62
256
6
ByLayer
370
18
48
1
60
0
100
AcDbLine
10
75.203297
20
-9.98697
30
0
11
75.4
21
-10.034838
31
0
39
0
210
0
220
0
230
1
0
LINE
5
C2
100
AcDbEntity
8
1
62
256
6
ByLayer
370
18
48
1
60
0
100
AcDbLine
10
74.858325
20
-10.423021
30
0
11
74.858325
21
-10.486436
31
0
39
0
210
0
220
0
230
1
0
LINE
5
C3
100
AcDbEntity
8
1
62
256
6
ByLayer
370
18
48
1
60
0
100
AcDbLine
10
75.4
20
-10.034838
30
0
11
74.858325
21
-10.486436
31
0
39
0
210
0
220
0
230
1
0
LINE
5
C4
100
AcDbEntity
8
1
62
256
6
ByLayer
370
18
48
1
60
0
100
AcDbLine
10
61
20
-9.634571
30
0
11
61
21
-9.299993
31
0
39
0
210
0
220
0
230
1
0
LINE
5
C5
100
AcDbEntity
8
1
62
256
6
ByLayer
370
18
48
1
60
0
100
AcDbLine
10
69.781774
20
-9.608377
30
0
11
69.781774
21
-9.744221
31
0
39
0
210
0
220
0
230
1
0
LINE
5
C6
100
AcDbEntity
8
1
62
256
6
ByLayer
370
18
48
1
60
0
100
AcDbLine
10
74.858325
20
-10.486436
30
0
11
69.881852
21
-9.61459
31
0
39
0
210
0
220
0
230
1
0
LINE
5
C7
100
AcDbEntity
8
1
62
256
6
ByLayer
370
18
48
1
60
0
100
AcDbLine
10
75.4
20
-5.004881
30
0
11
75.4
21
-10.034838
31
0
39
0
210
0
220
0
230
1
0
LINE
5
C8
100
AcDbEntity
8
1
62
256
6
ByLayer
370
18
48
1
60
0
100
AcDbLine
10
69.781774
20
-9.744221
30
0
11
69.772411
21
-9.752124
31
0
39
0
210
0
220
0
230
1
0
LINE
5
C9
100
AcDbEntity
8
1
62
256
6
ByLayer
370
18
48
1
60
0
100
AcDbLine
10
71.482235
20
3.700273
30
0
11
71.482235
21
-1.968498
31
0
39
0
210
0
220
0
230
1
0
LINE
5
CA
100
AcDbEntity
8
1
62
256
6
ByLayer
370
18
48
1
60
0
100
AcDbLine
10
71.219474
20
6.200273
30
0
11
71.482235
21
3.700273
31
0
39
0
210
0
220
0
230
1
0
LINE
5
CB
100
AcDbEntity
8
1
62
256
6
ByLayer
370
18
48
1
60
0
100
AcDbLine
10
74.659818
20
-4.599727
30
0
11
74.849348
21
-4.599727
31
0
39
0
210
0
220
0
230
1
0
LINE
5
CC
100
AcDbEntity
8
1
62
256
6
ByLayer
370
18
48
1
60
0
100
AcDbLine
10
64.937272
20
3.700273
30
0
11
71.482235
21
3.700273
31
0
39
0
210
0
220
0
230
1
0
LINE
5
CD
100
AcDbEntity
8
1
62
256
6
ByLayer
370
18
48
1
60
0
100
AcDbLine
10
64.937272
20
2.781005
30
0
11
64.937272
21
3.700273
31
0
39
0
210
0
220
0
230
1
0
LINE
5
CE
100
AcDbEntity
8
1
62
256
6
ByLayer
370
18
48
1
60
0
100
AcDbLine
10
71.409187
20
4.395369
30
0
11
72.3
21
4.316805
31
0
39
0
210
0
220
0
230
1
0
LINE
5
CF
100
AcDbEntity
8
1
62
256
6
ByLayer
370
18
48
1
60
0
100
AcDbLine
10
75.4
20
-3.401194
30
0
11
75.4
21
-5.004881
31
0
39
0
210
0
220
0
230
1
0
LINE
5
D0
100
AcDbEntity
8
1
62
256
6
ByLayer
370
18
48
1
60
0
100
AcDbLine
10
69.441882
20
-9.780897
30
0
11
69.678391
21
-9.822332
31
0
39
0
210
0
220
0
230
1
0
LINE
5
D1
100
AcDbEntity
8
1
62
256
6
ByLayer
370
18
48
1
60
0
100
AcDbLine
10
72.3
20
4.316805
30
0
11
72.3
21
1.600006
31
0
39
0
210
0
220
0
230
1
0
LINE
5
D2
100
AcDbEntity
8
1
62
256
6
ByLayer
370
18
48
1
60
0
100
AcDbLine
10
64.948214
20
-1.393147
30
0
11
71.482235
21
-1.968498
31
0
39
0
210
0
220
0
230
1
0
LINE
5
D3
100
AcDbEntity
8
1
62
256
6
ByLayer
370
18
48
1
60
0
100
AcDbLine
10
69.441882
20
-9.268509
30
0
11
69.441882
21
-9.780897
31
0
39
0
210
0
220
0
230
1
0
LINE
5
D4
100
AcDbEntity
8
1
62
256
6
ByLayer
370
18
48
1
60
0
100
AcDbLine
10
67.316122
20
-9.927039
30
0
11
67.986135
21
-9.845132
31
0
39
0
210
0
220
0
230
1
0
LINE
5
D5
100
AcDbEntity
8
1
62
256
6
ByLayer
370
18
48
1
60
0
100
AcDbLine
10
72.299919
20
1.684658
30
0
11
72.673526
21
1.684658
31
0
39
0
210
0
220
0
230
1
0
LINE
5
D6
100
AcDbEntity
8
1
62
256
6
ByLayer
370
18
48
1
60
0
100
AcDbLine
10
61.2
20
9.335503
30
0
11
61.2
21
8.20027
31
0
39
0
210
0
220
0
230
1
0
LINE
5
D7
100
AcDbEntity
8
1
62
256
6
ByLayer
370
18
48
1
60
0
100
AcDbLine
10
75.4
20
3.351871
30
0
11
74.274234
21
3.071187
31
0
39
0
210
0
220
0
230
1
0
LINE
5
D8
100
AcDbEntity
8
1
62
256
6
ByLayer
370
18
48
1
60
0
100
AcDbLine
10
64.081879
20
7.20027
30
0
11
61.2
21
7.20027
31
0
39
0
210
0
220
0
230
1
0
LINE
5
D9
100
AcDbEntity
8
1
62
256
6
ByLayer
370
18
48
1
60
0
100
AcDbLine
10
64.081879
20
6.535607
30
0
11
67.659749
21
6.535607
31
0
39
0
210
0
220
0
230
1
0
LINE
5
DA
100
AcDbEntity
8
1
62
256
6
ByLayer
370
18
48
1
60
0
100
AcDbLine
10
67.63145
20
8.20027
30
0
11
61.2
21
8.20027
31
0
39
0
210
0
220
0
230
1
0
LINE
5
DB
100
AcDbEntity
8
1
62
256
6
ByLayer
370
18
48
1
60
0
100
AcDbLine
10
69.5
20
9.801528
30
0
11
69.649998
21
9.827967
31
0
39
0
210
0
220
0
230
1
0
LINE
5
DC
100
AcDbEntity
8
1
62
256
6
ByLayer
370
18
48
1
60
0
100
AcDbLine
10
72.300031
20
3.751861
30
0
11
75.4
21
3.751861
31
0
39
0
210
0
220
0
230
1
0
LINE
5
DD
100
AcDbEntity
8
1
62
256
6
ByLayer
370
18
48
1
60
0
100
AcDbLine
10
67.63145
20
8.20027
30
0
11
67.659749
21
6.535607
31
0
39
0
210
0
220
0
230
1
0
LINE
5
DE
100
AcDbEntity
8
1
62
256
6
ByLayer
370
18
48
1
60
0
100
AcDbLine
10
61.2
20
7.20027
30
0
11
61.2
21
8.20027
31
0
39
0
210
0
220
0
230
1
0
LINE
5
DF
100
AcDbEntity
8
1
62
256
6
ByLayer
370
18
48
1
60
0
100
AcDbLine
10
75.4
20
5.010849
30
0
11
75.4
21
3.751861
31
0
39
0
210
0
220
0
230
1
0
LINE
5
E0
100
AcDbEntity
8
1
62
256
6
ByLayer
370
18
48
1
60
0
100
AcDbLine
10
72.300001
20
3.582055
30
0
11
75.4
21
3.582055
31
0
39
0
210
0
220
0
230
1
0
LINE
5
E1
100
AcDbEntity
8
1
62
256
6
ByLayer
370
18
48
1
60
0
100
AcDbLine
10
69.441882
20
9.793626
30
0
11
69.5
21
9.801528
31
0
39
0
210
0
220
0
230
1
0
LINE
5
E2
100
AcDbEntity
8
1
62
256
6
ByLayer
370
18
48
1
60
0
100
AcDbLine
10
75.4
20
3.751861
30
0
11
75.4
21
3.582055
31
0
39
0
210
0
220
0
230
1
0
LINE
5
E3
100
AcDbEntity
8
1
62
256
6
ByLayer
370
18
48
1
60
0
100
AcDbLine
10
61.2
20
7.20027
30
0
11
61.2
21
6.400004
31
0
39
0
210
0
220
0
230
1
0
LINE
5
E4
100
AcDbEntity
8
1
62
256
6
ByLayer
370
18
48
1
60
0
100
AcDbLine
10
64.081879
20
7.20027
30
0
11
64.081879
21
6.535607
31
0
39
0
210
0
220
0
230
1
0
LINE
5
E5
100
AcDbEntity
8
1
62
256
6
ByLayer
370
18
48
1
60
0
100
AcDbLine
10
75.4
20
3.582055
30
0
11
75.4
21
3.351871
31
0
39
0
210
0
220
0
230
1
0
LINE
5
E6
100
AcDbEntity
8
1
62
256
6
ByLayer
370
18
48
1
60
0
100
AcDbLine
10
69.5
20
6.525257
30
0
11
69.5
21
9.801528
31
0
39
0
210
0
220
0
230
1
0
LINE
5
E7
100
AcDbEntity
8
1
62
256
6
ByLayer
370
18
48
1
60
0
100
AcDbLine
10
75.58498
20
-10.924098
30
0
11
70.02873
21
-9.950679
31
0
39
0
210
0
220
0
230
1
0
LINE
5
E8
100
AcDbEntity
8
1
62
256
6
ByLayer
370
18
48
1
60
0
100
AcDbLine
10
75.62127
20
-5.113911
30
0
11
75.672042
21
-5.097388
31
0
39
0
210
0
220
0
230
1
0
LINE
5
E9
100
AcDbEntity
8
1
62
256
6
ByLayer
370
18
48
1
60
0
100
AcDbLine
10
76
20
-5.485721
30
0
11
76
21
-11.091418
31
0
39
0
210
0
220
0
230
1
0
LINE
5
EA
100
AcDbEntity
8
1
62
256
6
ByLayer
370
18
48
1
60
0
100
AcDbLine
10
75.534208
20
-11.479751
30
0
11
69.977958
21
-10.506332
31
0
39
0
210
0
220
0
230
1
0
LINE
5
EB
100
AcDbEntity
8
1
62
256
6
ByLayer
370
18
48
1
60
0
100
AcDbLine
10
69.942381
20
-9.848434
30
0
11
69.942381
21
-9.625169
31
0
39
0
210
0
220
0
230
1
0
LINE
5
EC
100
AcDbEntity
8
1
62
256
6
ByLayer
370
18
48
1
60
0
100
AcDbLine
10
70.02873
20
-9.950679
30
0
11
69.977958
21
-10.506332
31
0
39
0
210
0
220
0
230
1
0
LINE
5
ED
100
AcDbEntity
8
1
62
256
6
ByLayer
370
18
48
1
60
0
100
AcDbLine
10
69.942381
20
-9.848434
30
0
11
69.65
21
-10.117999
31
0
39
0
210
0
220
0
230
1
0
LINE
5
EE
100
AcDbEntity
8
1
62
256
6
ByLayer
370
18
48
1
60
0
100
AcDbLine
10
75.707619
20
-5.216156
30
0
11
75.707619
21
-10.821853
31
0
39
0
210
0
220
0
230
1
0
LINE
5
EF
100
AcDbEntity
8
1
62
256
6
ByLayer
370
18
48
1
60
0
100
AcDbLine
10
75.707619
20
-5.216156
30
0
11
76
21
-5.485721
31
0
39
0
210
0
220
0
230
1
0
LINE
5
F0
100
AcDbEntity
8
1
62
256
6
ByLayer
370
18
48
1
60
0
100
AcDbLine
10
75.399975
20
-5.075141
30
0
11
75.62127
21
-5.113911
31
0
39
0
210
0
220
0
230
1
0
LINE
5
F1
100
AcDbEntity
8
1
62
256
6
ByLayer
370
18
48
1
60
0
100
AcDbLine
10
75.58498
20
-10.924098
30
0
11
75.534208
21
-11.479751
31
0
39
0
210
0
220
0
230
1
0
LINE
5
F2
100
AcDbEntity
8
1
62
256
6
ByLayer
370
18
48
1
60
0
100
AcDbLine
10
69.65
20
-10.117999
30
0
11
69.65
21
-9.817306
31
0
39
0
210
0
220
0
230
1
0
LINE
5
F3
100
AcDbEntity
8
1
62
256
6
ByLayer
370
18
48
1
60
0
100
AcDbLine
10
75.399959
20
-5.049721
30
0
11
75.672042
21
-5.097388
31
0
39
0
210
0
220
0
230
1
0
LINE
5
F4
100
AcDbEntity
8
1
62
256
6
ByLayer
370
18
48
1
60
0
100
AcDbLine
10
75.707619
20
-10.821853
30
0
11
76
21
-11.091418
31
0
39
0
210
0
220
0
230
1
0
LINE
5
F5
100
AcDbEntity
8
1
62
256
6
ByLayer
370
18
48
1
60
0
100
AcDbLine
10
49.9819
20
8.413607
30
0
11
53.267949
21
8.413607
31
0
39
0
210
0
220
0
230
1
0
LINE
5
F6
100
AcDbEntity
8
1
62
256
6
ByLayer
370
18
48
1
60
0
100
AcDbLine
10
56.314788
20
-0.200656
30
0
11
56.321767
21
-0.200656
31
0
39
0
210
0
220
0
230
1
0
LINE
5
F7
100
AcDbEntity
8
1
62
256
6
ByLayer
370
18
48
1
60
0
100
AcDbLine
10
65.370095
20
-9.3
30
0
11
55
21
-9.3
31
0
39
0
210
0
220
0
230
1
0
LINE
5
F8
100
AcDbEntity
8
1
62
256
6
ByLayer
370
18
48
1
60
0
100
AcDbLine
10
57.684636
20
0.52433
30
0
11
57.691616
21
0.52433
31
0
39
0
210
0
220
0
230
1
0
LINE
5
F9
100
AcDbEntity
8
1
62
256
6
ByLayer
370
18
48
1
60
0
100
AcDbLine
10
4.663397
20
15.175938
30
0
11
4.663397
21
5.068619
31
0
39
0
210
0
220
0
230
1
0
LINE
5
FA
100
AcDbEntity
8
1
62
256
6
ByLayer
370
18
48
1
60
0
100
AcDbLine
10
65.30077
20
6.4
30
0
11
65.726477
21
6.4
31
0
39
0
210
0
220
0
230
1
0
LINE
5
FB
100
AcDbEntity
8
1
62
256
6
ByLayer
370
18
48
1
60
0
100
AcDbLine
10
53.348765
20
8.5
30
0
11
60.7
21
8.5
31
0
39
0
210
0
220
0
230
1
0
LINE
5
FC
100
AcDbEntity
8
1
62
256
6
ByLayer
370
18
48
1
60
0
100
AcDbLine
10
57.67184
20
9.3
30
0
11
59.72816
21
9.3
31
0
39
0
210
0
220
0
230
1
0
LINE
5
FD
100
AcDbEntity
8
1
62
256
6
ByLayer
370
18
48
1
60
0
100
AcDbLine
10
65.30077
20
6.4
30
0
11
65.052822
21
4.644824
31
0
39
0
210
0
220
0
230
1
0
LINE
5
FE
100
AcDbEntity
8
1
62
256
6
ByLayer
370
18
48
1
60
0
100
AcDbLine
10
53.267949
20
9
30
0
11
53.267949
21
8.413607
31
0
39
0
210
0
220
0
230
1
0
LINE
5
FF
100
AcDbEntity
8
1
62
256
6
ByLayer
370
18
48
1
60
0
100
AcDbLine
10
30
20
-10.5
30
0
11
30
21
10.5
31
0
39
0
210
0
220
0
230
1
0
LINE
5
100
100
AcDbEntity
8
1
62
256
6
ByLayer
370
18
48
1
60
0
100
AcDbLine
10
58.387984
20
6.4
30
0
11
65.30077
21
6.4
31
0
39
0
210
0
220
0
230
1
0
LINE
5
101
100
AcDbEntity
8
1
62
256
6
ByLayer
370
18
48
1
60
0
100
AcDbLine
10
60.7
20
8.5
30
0
11
60.7
21
9.3
31
0
39
0
210
0
220
0
230
1
0
LINE
5
102
100
AcDbEntity
8
1
62
256
6
ByLayer
370
18
48
1
60
0
100
AcDbLine
10
53.871512
20
9.3
30
0
11
57.671808
21
9.3
31
0
39
0
210
0
220
0
230
1
0
LINE
5
103
100
AcDbEntity
8
1
62
256
6
ByLayer
370
18
48
1
60
0
100
AcDbLine
10
7.076795
20
15.276962
30
0
11
7.076795
21
4.755463
31
0
39
0
210
0
220
0
230
1
0
LINE
5
104
100
AcDbEntity
8
1
62
256
6
ByLayer
370
18
48
1
60
0
100
AcDbLine
10
65.726477
20
6.4
30
0
11
65.726477
21
6.200265
31
0
39
0
210
0
220
0
230
1
0
LINE
5
105
100
AcDbEntity
8
1
62
256
6
ByLayer
370
18
48
1
60
0
100
AcDbLine
10
65.726477
20
-9.079691
30
0
11
65.726477
21
-9.151129
31
0
39
0
210
0
220
0
230
1
0
LINE
5
106
100
AcDbEntity
8
1
62
256
6
ByLayer
370
18
48
1
60
0
100
AcDbLine
10
7.336603
20
15.175938
30
0
11
7.336603
21
5.068619
31
0
39
0
210
0
220
0
230
1
0
LINE
5
107
100
AcDbEntity
8
1
62
256
6
ByLayer
370
18
48
1
60
0
100
AcDbLine
10
55
20
-9.3
30
0
11
55
21
-0.969461
31
0
39
0
210
0
220
0
230
1
0
LINE
5
108
100
AcDbEntity
8
1
62
256
6
ByLayer
370
18
48
1
60
0
100
AcDbLine
10
56.396856
20
-0.363587
30
0
11
56.403836
21
-0.363587
31
0
39
0
210
0
220
0
230
1
0
LINE
5
109
100
AcDbEntity
8
1
62
256
6
ByLayer
370
18
48
1
60
0
100
AcDbLine
10
55
20
0.969461
30
0
11
55
21
6.450126
31
0
39
0
210
0
220
0
230
1
0
LINE
5
10A
100
AcDbEntity
8
1
62
256
6
ByLayer
370
18
48
1
60
0
100
AcDbLine
10
58.387984
20
6.4
30
0
11
56
21
6.4
31
0
39
0
210
0
220
0
230
1
0
LINE
5
10B
100
AcDbEntity
8
1
62
256
6
ByLayer
370
18
48
1
60
0
100
AcDbLine
10
4.663397
20
-5.068619
30
0
11
4.663397
21
-15.175938
31
0
39
0
210
0
220
0
230
1
0
LINE
5
10C
100
AcDbEntity
8
1
62
256
6
ByLayer
370
18
48
1
60
0
100
AcDbLine
10
60.7
20
6.4
30
0
11
60.7
21
8.5
31
0
39
0
210
0
220
0
230
1
0
LINE
5
10D
100
AcDbEntity
8
1
62
256
6
ByLayer
370
18
48
1
60
0
100
AcDbLine
10
7.076795
20
-4.755463
30
0
11
4.923205
21
-4.755463
31
0
39
0
210
0
220
0
230
1
0
LINE
5
10E
100
AcDbEntity
8
1
62
256
6
ByLayer
370
18
48
1
60
0
100
AcDbLine
10
60.7
20
9.3
30
0
11
61.200036
21
9.3
31
0
39
0
210
0
220
0
230
1
0
LINE
5
10F
100
AcDbEntity
8
1
62
256
6
ByLayer
370
18
48
1
60
0
100
AcDbLine
10
0.3
20
-16
30
0
11
0.3
21
16
31
0
39
0
210
0
220
0
230
1
0
LINE
5
110
100
AcDbEntity
8
1
62
256
6
ByLayer
370
18
48
1
60
0
100
AcDbLine
10
4.923205
20
4.755463
30
0
11
7.076795
21
4.755463
31
0
39
0
210
0
220
0
230
1
0
LINE
5
111
100
AcDbEntity
8
1
62
256
6
ByLayer
370
18
48
1
60
0
100
AcDbLine
10
7.076795
20
-4.755463
30
0
11
7.076795
21
-15.276962
31
0
39
0
210
0
220
0
230
1
0
LINE
5
112
100
AcDbEntity
8
1
62
256
6
ByLayer
370
18
48
1
60
0
100
AcDbLine
10
4.923205
20
15.276962
30
0
11
4.923205
21
4.755463
31
0
39
0
210
0
220
0
230
1
0
LINE
5
113
100
AcDbEntity
8
1
62
256
6
ByLayer
370
18
48
1
60
0
100
AcDbLine
10
0
20
-15.7
30
0
11
0
21
15.7
31
0
39
0
210
0
220
0
230
1
0
LINE
5
114
100
AcDbEntity
8
1
62
256
6
ByLayer
370
18
48
1
60
0
100
AcDbLine
10
59.728192
20
9.3
30
0
11
60.7
21
9.3
31
0
39
0
210
0
220
0
230
1
0
LINE
5
115
100
AcDbEntity
8
1
62
256
6
ByLayer
370
18
48
1
60
0
100
AcDbLine
10
57.548955
20
-0.404593
30
0
11
57.541975
21
-0.404593
31
0
39
0
210
0
220
0
230
1
0
LINE
5
116
100
AcDbEntity
8
1
62
256
6
ByLayer
370
18
48
1
60
0
100
AcDbLine
10
4.923205
20
-15.276962
30
0
11
7.076795
21
-15.276962
31
0
39
0
210
0
220
0
230
1
0
LINE
5
117
100
AcDbEntity
8
1
62
256
6
ByLayer
370
18
48
1
60
0
100
AcDbLine
10
7.336603
20
-5.068619
30
0
11
7.336603
21
-15.175938
31
0
39
0
210
0
220
0
230
1
0
LINE
5
118
100
AcDbEntity
8
1
62
256
6
ByLayer
370
18
48
1
60
0
100
AcDbLine
10
54
20
-9.3
30
0
11
54
21
6.602041
31
0
39
0
210
0
220
0
230
1
0
LINE
5
119
100
AcDbEntity
8
1
62
256
6
ByLayer
370
18
48
1
60
0
100
AcDbLine
10
7.076795
20
15.276962
30
0
11
4.923205
21
15.276962
31
0
39
0
210
0
220
0
230
1
0
LINE
5
11A
100
AcDbEntity
8
1
62
256
6
ByLayer
370
18
48
1
60
0
100
AcDbLine
10
49
20
-9
30
0
11
49
21
9
31
0
39
0
210
0
220
0
230
1
0
LINE
5
11B
100
AcDbEntity
8
1
62
256
6
ByLayer
370
18
48
1
60
0
100
AcDbLine
10
15
20
-16
30
0
11
15
21
16
31
0
39
0
210
0
220
0
230
1
0
LINE
5
11C
100
AcDbEntity
8
1
62
256
6
ByLayer
370
18
48
1
60
0
100
AcDbLine
10
4.923205
20
-4.755463
30
0
11
4.923205
21
-15.276962
31
0
39
0
210
0
220
0
230
1
0
LINE
5
11D
100
AcDbEntity
8
1
62
256
6
ByLayer
370
18
48
1
60
0
100
AcDbLine
10
64.948129
20
2.781073
30
0
11
64.948129
21
-2.781073
31
0
39
0
210
0
220
0
230
1
0
LINE
5
11E
100
AcDbEntity
8
1
62
256
6
ByLayer
370
18
48
1
60
0
100
AcDbLine
10
18
20
-13.5
30
0
11
18
21
13.5
31
0
39
0
210
0
220
0
230
1
0
LINE
5
11F
100
AcDbEntity
8
1
62
256
6
ByLayer
370
18
48
1
60
0
100
AcDbLine
10
53.267949
20
-9
30
0
11
53.267949
21
6.780442
31
0
39
0
210
0
220
0
230
1
0
LINE
5
120
100
AcDbEntity
8
1
62
256
6
ByLayer
370
18
48
1
60
0
100
AcDbLine
10
56.300215
20
0.52433
30
0
11
56.307195
21
0.52433
31
0
39
0
210
0
220
0
230
1
0
LINE
5
121
100
AcDbEntity
8
1
62
256
6
ByLayer
370
18
48
1
60
0
100
AcDbLine
10
71.741863
20
4.366044
30
0
11
75.672042
21
5.058803
31
0
39
0
210
0
220
0
230
1
0
LINE
5
122
100
AcDbEntity
8
1
62
256
6
ByLayer
370
18
48
1
60
0
100
AcDbLine
10
76
20
5.449515
30
0
11
76
21
11.089546
31
0
39
0
210
0
220
0
230
1
0
LINE
5
123
100
AcDbEntity
8
1
62
256
6
ByLayer
370
18
48
1
60
0
100
AcDbLine
10
69.65
20
10.110165
30
0
11
69.65
21
6.200302
31
0
39
0
210
0
220
0
230
1
0
LINE
5
124
100
AcDbEntity
8
1
62
256
6
ByLayer
370
18
48
1
60
0
100
AcDbLine
10
75.534208
20
11.480257
30
0
11
69.977958
21
10.500876
31
0
39
0
210
0
220
0
230
1
0
LINE
5
125
100
AcDbEntity
8
1
62
256
6
ByLayer
370
18
48
1
60
0
100
AcDbLine
10
57.695158
20
-7.587689
30
0
11
57.542195
21
-7.616554
31
0
39
0
210
0
220
0
230
1
0
LINE
5
126
100
AcDbEntity
8
1
62
256
6
ByLayer
370
18
48
1
60
0
100
AcDbLine
10
57.703947
20
-7.745554
30
0
11
57.847876
21
-7.75641
31
0
39
0
210
0
220
0
230
1
0
LINE
5
127
100
AcDbEntity
8
1
62
256
6
ByLayer
370
18
48
1
60
0
100
AcDbLine
10
57.836992
20
-7.560923
30
0
11
57.695158
21
-7.587689
31
0
39
0
210
0
220
0
230
1
0
LINE
5
128
100
AcDbEntity
8
1
62
256
6
ByLayer
370
18
48
1
60
0
100
AcDbLine
10
57.548725
20
-7.733846
30
0
11
57.703947
21
-7.745554
31
0
39
0
210
0
220
0
230
1
0
LINE
5
129
100
AcDbEntity
8
1
62
256
6
ByLayer
370
18
48
1
60
0
100
AcDbLine
10
56.640535
20
8.094612
30
0
11
56.531038
21
8.188653
31
0
39
0
210
0
220
0
230
1
0
LINE
5
12A
100
AcDbEntity
8
1
62
256
6
ByLayer
370
18
48
1
60
0
100
AcDbLine
10
56.554057
20
7.962247
30
0
11
56.694371
21
7.894847
31
0
39
0
210
0
220
0
230
1
0
LINE
5
12B
100
AcDbEntity
8
1
62
256
6
ByLayer
370
18
48
1
60
0
100
AcDbLine
10
56.758623
20
7.993192
30
0
11
56.640535
21
8.094612
31
0
39
0
210
0
220
0
230
1
0
LINE
5
12C
100
AcDbEntity
8
1
62
256
6
ByLayer
370
18
48
1
60
0
100
AcDbLine
10
56.423952
20
8.024744
30
0
11
56.554057
21
7.962247
31
0
39
0
210
0
220
0
230
1
0
LINE
5
12D
100
AcDbEntity
8
1
62
256
6
ByLayer
370
18
48
1
60
0
100
AcDbLine
10
75.175632
20
1.543623
30
0
11
75.536485
21
1.543623
31
0
39
0
210
0
220
0
230
1
0
LINE
5
12E
100
AcDbEntity
8
1
62
256
6
ByLayer
370
18
48
1
60
0
100
AcDbLine
10
75.392703
20
-0.023023
30
0
11
75.459274
21
-0.023023
31
0
39
0
210
0
220
0
230
1
0
MTEXT
5
21C
100
AcDbEntity
8
SK6
62
256
6
ByLayer
370
18
48
1
60
0
100
AcDbMText
10
90.75
20
14.25
30
0
210
0
220
0
230
1
1
\W0.7041;BR20-29CC06F-C3
40
3
41
0
44
1.084337
50
0
71
7
72
5
7
iso_b_vert
0
DIMENSION
5
229
100
AcDbEntity
8
2
62
256
6
ByLayer
370
13
48
1
60
0
100
AcDbDimension
2
DimnDraft3D1
10
76
20
43.5
30
0
11
34.557895
21
43.5
31
0
70
32
71
5
72
1
41
1
210
0
220
0
230
1
3
Standard
100
AcDbAlignedDimension
13
0
23
17.7
33
0
14
76
24
13.486285
34
0
50
0
100
AcDbRotatedDimension
1001
ACAD
1000
DSTYLE
1002
{
1070
   279
1070
     0
1070
   172
1070
     1
1070
   173
1070
     1
1070
   340
1005
21D
1070
   271
1070
     1
1070
    77
1070
     1
1070
    73
1070
     0
1070
   171
1070
     4
1070
   274
1070
     4
1070
   177
1070
     7
1070
   176
1070
     7
1070
   178
1070
     7
1070
    41
1041
3.175
1070
   147
1041
1.5
1070
    42
1041
2.0
1070
    44
1041
2.0
1070
   140
1041
3.0
1070
   343
1005
0
1070
   344
1005
0
1002
}
0
DIMENSION
5
233
100
AcDbEntity
8
2
62
256
6
ByLayer
370
13
48
1
60
0
100
AcDbDimension
2
DimnDraft3D2
10
30
20
28.5
30
0
11
40.040789
21
28.5
31
0
70
32
71
5
72
1
41
1
210
0
220
0
230
1
3
Standard
100
AcDbAlignedDimension
13
76
23
13.486285
33
0
14
30
24
13.486285
34
0
50
0
100
AcDbRotatedDimension
1001
ACAD
1000
DSTYLE
1002
{
1070
   279
1070
     0
1070
   172
1070
     1
1070
   173
1070
     1
1070
   340
1005
21D
1070
   271
1070
     1
1070
    77
1070
     1
1070
    73
1070
     0
1070
   171
1070
     4
1070
   274
1070
     4
1070
   177
1070
     7
1070
   176
1070
     7
1070
   178
1070
     7
1070
    41
1041
3.175
1070
   147
1041
1.5
1070
    42
1041
2.0
1070
    44
1041
2.0
1070
   140
1041
3.0
1070
   343
1005
0
1070
   344
1005
0
1002
}
0
DIMENSION
5
23D
100
AcDbEntity
8
2
62
256
6
ByLayer
370
13
48
1
60
0
100
AcDbDimension
2
DimnDraft3D3
10
106.5
20
-11.485742
30
0
11
106.5
21
-41.600215
31
0
70
32
71
5
72
1
41
1
210
0
220
0
230
1
3
Standard
100
AcDbAlignedDimension
13
78
23
11.486285
33
0
14
77.603125
24
-11.485742
34
0
50
90
100
AcDbRotatedDimension
1001
ACAD
1000
DSTYLE
1002
{
1070
    74
1070
     0
1070
   279
1070
     0
1070
   172
1070
     1
1070
   173
1070
     1
1070
   340
1005
21D
1070
   271
1070
     1
1070
    77
1070
     1
1070
    73
1070
     0
1070
   171
1070
     4
1070
   274
1070
     4
1070
   177
1070
     7
1070
   176
1070
     7
1070
   178
1070
     7
1070
    41
1041
3.175
1070
   147
1041
1.5
1070
    42
1041
2.0
1070
    44
1041
2.0
1070
   140
1041
3.0
1070
   343
1005
0
1070
   344
1005
0
1002
}
0
DIMENSION
5
247
100
AcDbEntity
8
2
62
256
6
ByLayer
370
13
48
1
60
0
100
AcDbDimension
2
DimnDraft3D4
10
77
20
11.486285
30
0
11
84.152752
21
3.333533
31
0
70
34
71
5
72
1
41
1
210
0
220
0
230
1
3
Standard
100
AcDb2LineAngularDimension
13
76
23
5.449515
33
0
14
76
24
11.089546
34
0
15
76
25
11.486285
35
0
16
86.274073
26
1.212212
36
0
40
0
0
DIMENSION
5
253
100
AcDbEntity
8
SK2
62
256
6
ByLayer
370
13
48
1
60
0
100
AcDbDimension
2
DimnDraft3D5
10
-30.5
20
-16
30
0
11
-30
21
0.414474
31
0
70
33
71
5
72
1
41
1
210
0
220
0
230
1
3
Standard
100
AcDbAlignedDimension
13
-1.7
23
16
33
0
14
-1.7
24
-16
34
0
1001
ACAD
1000
DSTYLE
1002
{
1070
   279
1070
     0
1070
    74
1070
     0
1070
   173
1070
     1
1070
   340
1005
21D
1070
   271
1070
     0
1070
    77
1070
     1
1070
    73
1070
     0
1070
   171
1070
     4
1070
   274
1070
     4
1070
   177
1070
     7
1070
   176
1070
     7
1070
   178
1070
     7
1070
    41
1041
3.175
1070
   147
1041
1.5
1070
    42
1041
2.0
1070
    44
1041
2.0
1070
   140
1041
3.0
1070
   343
1005
0
1070
   344
1005
0
1002
}
0
ENDSEC
0
SECTION
2
OBJECTS
0
DICTIONARY
5
2c2
330
0
100
AcDbDictionary
280
0
281
1
3
ACAD_GROUP
350
2c3
3
ACAD_GROUP
350
2c4
3
ACAD_MLINESTYLE
350
2c5
0
DICTIONARY
5
2c3
330
0
100
AcDbDictionary
280
0
281
1
0
DICTIONARY
5
2c4
330
0
100
AcDbDictionary
280
0
281
1
3
<200939244NDI000_00>
350
25E
3
<200941298MOD000_00>
350
25C
3
391_68A_1_03213C06B_A1
350
25D
0
DICTIONARY
5
2c5
330
0
100
AcDbDictionary
280
0
281
1
3
Standard
350
18
0
GROUP
5
25E
330
2c4
100
AcDbGroup
300

70
0
71
1
340
83
340
85
340
86
340
87
340
88
340
89
340
8A
340
8B
340
8C
340
8D
340
8E
340
8F
340
90
340
91
340
92
340
93
340
94
340
95
340
96
340
97
340
98
340
99
340
9A
340
9B
340
9C
340
9D
340
9E
340
9F
340
A0
340
A1
340
A2
340
A3
340
A4
340
A5
340
A6
340
A7
340
A8
340
A9
340
AA
340
AB
340
AC
340
AD
340
AE
340
AF
340
B0
340
B1
340
B2
340
B3
340
B4
340
B5
340
B6
340
B7
340
B8
340
B9
340
BA
340
BB
340
BC
340
BD
340
BE
340
BF
340
C0
340
C1
340
C2
340
C3
340
C4
340
C5
340
C6
340
C7
340
C8
340
C9
340
CA
340
CB
340
CC
340
CD
340
CE
340
CF
340
D0
340
D1
340
D2
340
D3
340
D4
340
D5
340
D6
340
D7
340
D8
340
D9
340
DA
340
DB
340
DC
340
DD
340
DE
340
DF
340
E0
340
E1
340
E2
340
E3
340
E4
340
E5
340
E6
340
E7
340
E8
340
E9
340
EA
340
EB
340
EC
340
ED
340
EE
340
EF
340
F0
340
F1
340
F2
340
F3
340
F4
340
F5
340
F6
340
F7
340
F8
340
F9
340
FA
340
FB
340
FC
340
FD
340
FE
340
FF
340
100
340
101
340
102
340
103
340
104
340
105
340
106
340
107
340
108
340
109
340
10A
340
10B
340
10C
340
10D
340
10E
340
10F
340
110
340
111
340
112
340
113
340
114
340
115
340
116
340
117
340
118
340
119
340
11A
340
11B
340
11C
340
11D
340
11E
340
11F
340
120
340
121
340
122
340
123
340
124
340
125
340
126
340
127
340
128
340
129
340
12A
340
12B
340
12C
340
12D
340
12E
340
131
340
132
340
133
340
134
340
135
340
136
340
137
340
138
340
139
340
13A
340
13B
340
13C
340
13D
340
13E
340
13F
340
140
340
141
340
142
340
143
340
144
340
145
340
146
340
147
340
148
340
149
340
14A
340
14B
340
14C
340
14D
340
14E
340
14F
340
150
340
151
340
152
340
153
340
154
340
155
340
156
340
157
340
158
340
159
340
15A
340
15B
340
15C
340
15D
340
15E
340
15F
340
160
340
161
340
162
340
163
340
164
340
165
340
166
340
167
340
168
340
169
340
16A
340
16B
340
16C
340
16D
340
16E
340
16F
340
170
340
171
340
172
340
173
340
174
340
175
340
176
340
177
340
178
340
179
340
17A
340
17B
340
17C
340
17D
340
17E
340
17F
340
180
340
181
340
182
340
183
340
184
340
185
340
186
340
187
340
188
340
189
340
18A
340
18B
340
18C
340
18D
340
18E
340
18F
340
190
340
191
340
192
340
193
340
194
340
1B0
340
1B1
340
1B2
340
1B3
340
1B4
340
1B5
340
1B6
340
1B7
340
1B8
340
1B9
340
1BA
340
1BB
340
1BC
340
1BD
340
1BE
340
1BF
340
1C0
340
1C1
340
1C2
340
1C3
340
1C4
340
1C5
340
1C6
340
1C7
340
1C8
340
1C9
340
1CA
340
1CB
340
1CC
340
1CD
340
1CE
340
1CF
340
1D0
340
1D1
340
1D2
340
1D3
340
1D4
340
1D5
340
1D6
340
1D7
340
1D8
340
1D9
340
1DA
340
1DB
340
1DC
340
1DD
340
1DE
340
1DF
340
1E0
340
1E1
340
1E2
340
1E3
340
1E4
340
1E5
340
1E6
340
1E7
340
1E8
340
1E9
340
1EA
340
1EB
340
1EC
340
1ED
340
1EE
340
1EF
340
1F0
340
1F1
340
1F2
340
1F3
340
1F4
340
1F5
340
1F6
340
1F7
340
1F8
340
1F9
340
1FA
340
1FB
340
1FC
340
1FD
340
1FE
340
1FF
340
200
340
201
340
202
340
203
340
204
340
205
340
206
340
207
340
208
340
209
340
20A
340
20B
340
20C
340
20D
340
20E
340
20F
340
210
340
211
340
212
340
213
340
214
340
215
340
216
340
217
340
218
340
219
340
21A
340
21B
0
GROUP
5
25C
330
2c4
100
AcDbGroup
300

70
0
71
1
340
6C
340
6E
340
70
340
72
340
73
340
74
340
75
340
76
340
77
340
78
340
79
340
7A
340
7B
340
7D
340
7E
340
80
340
82
340
83
340
85
340
86
340
87
340
88
340
89
340
8A
340
8B
340
8C
340
8D
340
8E
340
8F
340
90
340
91
340
92
340
93
340
94
340
95
340
96
340
97
340
98
340
99
340
9A
340
9B
340
9C
340
9D
340
9E
340
9F
340
A0
340
A1
340
A2
340
A3
340
A4
340
A5
340
A6
340
A7
340
A8
340
A9
340
AA
340
AB
340
AC
340
AD
340
AE
340
AF
340
B0
340
B1
340
B2
340
B3
340
B4
340
B5
340
B6
340
B7
340
B8
340
B9
340
BA
340
BB
340
BC
340
BD
340
BE
340
BF
340
C0
340
C1
340
C2
340
C3
340
C4
340
C5
340
C6
340
C7
340
C8
340
C9
340
CA
340
CB
340
CC
340
CD
340
CE
340
CF
340
D0
340
D1
340
D2
340
D3
340
D4
340
D5
340
D6
340
D7
340
D8
340
D9
340
DA
340
DB
340
DC
340
DD
340
DE
340
DF
340
E0
340
E1
340
E2
340
E3
340
E4
340
E5
340
E6
340
E7
340
E8
340
E9
340
EA
340
EB
340
EC
340
ED
340
EE
340
EF
340
F0
340
F1
340
F2
340
F3
340
F4
340
F5
340
F6
340
F7
340
F8
340
F9
340
FA
340
FB
340
FC
340
FD
340
FE
340
FF
340
100
340
101
340
102
340
103
340
104
340
105
340
106
340
107
340
108
340
109
340
10A
340
10B
340
10C
340
10D
340
10E
340
10F
340
110
340
111
340
112
340
113
340
114
340
115
340
116
340
117
340
118
340
119
340
11A
340
11B
340
11C
340
11D
340
11E
340
11F
340
120
340
121
340
122
340
123
340
124
340
125
340
126
340
127
340
128
340
129
340
12A
340
12B
340
12C
340
12D
340
12E
340
12F
340
130
340
131
340
132
340
133
340
134
340
135
340
136
340
137
340
138
340
139
340
13A
340
13B
340
13C
340
13D
340
13E
340
13F
340
140
340
141
340
142
340
143
340
144
340
145
340
146
340
147
340
148
340
149
340
14A
340
14B
340
14C
340
14D
340
14E
340
14F
340
150
340
151
340
152
340
153
340
154
340
155
340
156
340
157
340
158
340
159
340
15A
340
15B
340
15C
340
15D
340
15E
340
15F
340
160
340
161
340
162
340
163
340
164
340
165
340
166
340
167
340
168
340
169
340
16A
340
16B
340
16C
340
16D
340
16E
340
16F
340
170
340
171
340
172
340
173
340
174
340
175
340
176
340
177
340
178
340
179
340
17A
340
17B
340
17C
340
17D
340
17E
340
17F
340
180
340
181
340
182
340
183
340
184
340
185
340
186
340
187
340
188
340
189
340
18A
340
18B
340
18C
340
18D
340
18E
340
18F
340
190
340
191
340
192
340
193
340
194
340
195
340
196
340
197
340
198
340
199
340
19A
340
19B
340
19C
340
19D
340
19E
340
19F
340
1A0
340
1A1
340
1A2
340
1A3
340
1A4
340
1A5
340
1A6
340
1A7
340
1A8
340
1A9
340
1AA
340
1AB
340
1AC
340
1AD
340
1AE
340
1AF
340
1B0
340
1B1
340
1B2
340
1B3
340
1B4
340
1B5
340
1B6
340
1B7
340
1B8
340
1B9
340
1BA
340
1BB
340
1BC
340
1BD
340
1BE
340
1BF
340
1C0
340
1C1
340
1C2
340
1C3
340
1C4
340
1C5
340
1C6
340
1C7
340
1C8
340
1C9
340
1CA
340
1CB
340
1CC
340
1CD
340
1CE
340
1CF
340
1D0
340
1D1
340
1D2
340
1D3
340
1D4
340
1D5
340
1D6
340
1D7
340
1D8
340
1D9
340
1DA
340
1DB
340
1DC
340
1DD
340
1DE
340
1DF
340
1E0
340
1E1
340
1E2
340
1E3
340
1E4
340
1E5
340
1E6
340
1E7
340
1E8
340
1E9
340
1EA
340
1EB
340
1EC
340
1ED
340
1EE
340
1EF
340
1F0
340
1F1
340
1F2
340
1F3
340
1F4
340
1F5
340
1F6
340
1F7
340
1F8
340
1F9
340
1FA
340
1FB
340
1FC
340
1FD
340
1FE
340
1FF
340
200
340
201
340
202
340
203
340
204
340
205
340
206
340
207
340
208
340
209
340
20A
340
20B
340
20C
340
20D
340
20E
340
20F
340
210
340
211
340
212
340
213
340
214
340
215
340
216
340
217
340
218
340
219
340
21A
340
21B
340
6E
340
82
340
21C
340
23D
340
247
340
83
340
85
340
86
340
87
340
88
340
89
340
8A
340
8B
340
8C
340
8D
340
8E
340
8F
340
90
340
91
340
92
340
93
340
94
340
95
340
96
340
97
340
98
340
99
340
9A
340
9B
340
9C
340
9D
340
9E
340
9F
340
A0
340
A1
340
A2
340
A3
340
A4
340
A5
340
A6
340
A7
340
A8
340
A9
340
AA
340
AB
340
AC
340
AD
340
AE
340
AF
340
B0
340
B1
340
B2
340
B3
340
B4
340
B5
340
B6
340
B7
340
B8
340
B9
340
BA
340
BB
340
BC
340
BD
340
BE
340
BF
340
C0
340
C1
340
C2
340
C3
340
C4
340
C5
340
C6
340
C7
340
C8
340
C9
340
CA
340
CB
340
CC
340
CD
340
CE
340
CF
340
D0
340
D1
340
D2
340
D3
340
D4
340
D5
340
D6
340
D7
340
D8
340
D9
340
DA
340
DB
340
DC
340
DD
340
DE
340
DF
340
E0
340
E1
340
E2
340
E3
340
E4
340
E5
340
E6
340
E7
340
E8
340
E9
340
EA
340
EB
340
EC
340
ED
340
EE
340
EF
340
F0
340
F1
340
F2
340
F3
340
F4
340
F5
340
F6
340
F7
340
F8
340
F9
340
FA
340
FB
340
FC
340
FD
340
FE
340
FF
340
100
340
101
340
102
340
103
340
104
340
105
340
106
340
107
340
108
340
109
340
10A
340
10B
340
10C
340
10D
340
10E
340
10F
340
110
340
111
340
112
340
113
340
114
340
115
340
116
340
117
340
118
340
119
340
11A
340
11B
340
11C
340
11D
340
11E
340
11F
340
120
340
121
340
122
340
123
340
124
340
125
340
126
340
127
340
128
340
129
340
12A
340
12B
340
12C
340
12D
340
12E
340
131
340
132
340
133
340
134
340
135
340
136
340
137
340
138
340
139
340
13A
340
13B
340
13C
340
13D
340
13E
340
13F
340
140
340
141
340
142
340
143
340
144
340
145
340
146
340
147
340
148
340
149
340
14A
340
14B
340
14C
340
14D
340
14E
340
14F
340
150
340
151
340
152
340
153
340
154
340
155
340
156
340
157
340
158
340
159
340
15A
340
15B
340
15C
340
15D
340
15E
340
15F
340
160
340
161
340
162
340
163
340
164
340
165
340
166
340
167
340
168
340
169
340
16A
340
16B
340
16C
340
16D
340
16E
340
16F
340
170
340
171
340
172
340
173
340
174
340
175
340
176
340
177
340
178
340
179
340
17A
340
17B
340
17C
340
17D
340
17E
340
17F
340
180
340
181
340
182
340
183
340
184
340
185
340
186
340
187
340
188
340
189
340
18A
340
18B
340
18C
340
18D
340
18E
340
18F
340
190
340
191
340
192
340
193
340
194
340
1B0
340
1B1
340
1B2
340
1B3
340
1B4
340
1B5
340
1B6
340
1B7
340
1B8
340
1B9
340
1BA
340
1BB
340
1BC
340
1BD
340
1BE
340
1BF
340
1C0
340
1C1
340
1C2
340
1C3
340
1C4
340
1C5
340
1C6
340
1C7
340
1C8
340
1C9
340
1CA
340
1CB
340
1CC
340
1CD
340
1CE
340
1CF
340
1D0
340
1D1
340
1D2
340
1D3
340
1D4
340
1D5
340
1D6
340
1D7
340
1D8
340
1D9
340
1DA
340
1DB
340
1DC
340
1DD
340
1DE
340
1DF
340
1E0
340
1E1
340
1E2
340
1E3
340
1E4
340
1E5
340
1E6
340
1E7
340
1E8
340
1E9
340
1EA
340
1EB
340
1EC
340
1ED
340
1EE
340
1EF
340
1F0
340
1F1
340
1F2
340
1F3
340
1F4
340
1F5
340
1F6
340
1F7
340
1F8
340
1F9
340
1FA
340
1FB
340
1FC
340
1FD
340
1FE
340
1FF
340
200
340
201
340
202
340
203
340
204
340
205
340
206
340
207
340
208
340
209
340
20A
340
20B
340
20C
340
20D
340
20E
340
20F
340
210
340
211
340
212
340
213
340
214
340
215
340
216
340
217
340
218
340
219
340
21A
340
21B
340
21C
340
229
340
233
340
23D
340
247
340
253
0
GROUP
5
25D
330
2c4
100
AcDbGroup
300

70
0
71
1
340
6E
340
82
340
21C
340
23D
340
247
0
MLINESTYLE
5
18
330
2c5
100
AcDbMlineStyle
2
Standard
70
0
3

62
256
51
90
52
90
71
2
49
-0.5
62
256
6
ByLayer
49
0.5
62
256
6
ByLayer
0
RASTERVARIABLES
5
2af
330

100
AcDbRasterVariables
90
0
70
1
71
1
72
1
0
ENDSEC
0
EOF
