0
SECTION
2
HEADER
9
$ACADVER
1
AC1015
9
$DWGCODEPAGE
3
ANSI_1252
9
$HANDSEED
5
1a1
9
$ANGBASE
50
0
9
$ANGDIR
70
0
9
$ATTMODE
70
1
9
$AUNITS
70
0
9
$AUPREC
70
0
9
$CECOLOR
62
256
9
$CELTSCALE
40
1
9
$CELTYPE
6
ByLayer
9
$CELWEIGHT
370
18
9
$CLAYER
8
0
9
$CMLJUST
70
0
9
$CMLSCALE
40
1
9
$CMLSTYLE
2
Standard
9
$DIMSTYLE
2
Standard
9
$TEXTSIZE
40
0.2
9
$TEXTSTYLE
7
Standard
9
$LUNITS
70
2
9
$LUPREC
70
4
9
$EXTNAMES
290
1
9
$INSUNITS
70
4
9
$LTSCALE
40
1
9
$LWDISPLAY
290
1
9
$PDMODE
70
0
9
$PDSIZE
40
0
9
$PLINEGEN
70
0
0
ENDSEC
0
SECTION
2
CLASSES
0
CLASS
1
RASTERVARIABLES
2
AcDbRasterVariables
3
ISM
90
0
280
0
281
0
0
ENDSEC
0
SECTION
2
TABLES
0
TABLE
2
VPORT
5
197
100
AcDbSymbolTable
0
VPORT
5
1
100
AcDbSymbolTableRecord
100
AcDbViewportTableRecord
2
*Active
70
0
10
0
20
0
11
1
21
1
12
-1
22
1
13
0
23
0
14
0.5
24
0.5
15
10
25
10
16
0
26
0
36
1
17
0
27
0
37
0
0
ENDTAB
0
TABLE
2
LTYPE
5
198
100
AcDbSymbolTable
0
LTYPE
5
14
100
AcDbSymbolTableRecord
100
AcDbLinetypeTableRecord
70
0
2
ByBlock
3

72
65
73
0
40
0
0
LTYPE
5
15
100
AcDbSymbolTableRecord
100
AcDbLinetypeTableRecord
70
0
2
ByLayer
3

72
65
73
0
40
0
0
LTYPE
5
16
100
AcDbSymbolTableRecord
100
AcDbLinetypeTableRecord
70
0
2
CONTINUOUS
3
Solid line
72
65
73
0
40
0
0
LTYPE
5
6A
100
AcDbSymbolTableRecord
100
AcDbLinetypeTableRecord
70
0
2
CENTER
3
____ _ ____ _ ____ _ ____
72
65
73
4
40
47.5
49
22
74
0
49
-8.5
74
0
49
8.5
74
0
49
-8.5
74
0
0
LTYPE
5
6B
100
AcDbSymbolTableRecord
100
AcDbLinetypeTableRecord
70
0
2
DASHED
3
__ __ __ __ __ __ __ __ __
72
65
73
2
40
25.72
49
12.86
74
0
49
-12.86
74
0
0
ENDTAB
0
TABLE
2
LAYER
5
199
100
AcDbSymbolTable
0
LAYER
5
10
100
AcDbSymbolTableRecord
100
AcDbLayerTableRecord
2
0
70
0
62
7
6
CONTINUOUS
290
1
370
-3
390
0
0
LAYER
5
6D
100
AcDbSymbolTableRecord
100
AcDbLayerTableRecord
2
80
70
0
62
-6
6
CONTINUOUS
290
1
370
-3
390
0
0
LAYER
5
6F
100
AcDbSymbolTableRecord
100
AcDbLayerTableRecord
2
81
70
0
62
-3
6
CONTINUOUS
290
1
370
-3
390
0
0
LAYER
5
74
100
AcDbSymbolTableRecord
100
AcDbLayerTableRecord
2
1
70
0
62
4
6
CONTINUOUS
290
1
370
-3
390
0
0
LAYER
5
C4
100
AcDbSymbolTableRecord
100
AcDbLayerTableRecord
2
4
70
0
62
-2
6
CENTER
290
1
370
-3
390
0
0
LAYER
5
112
100
AcDbSymbolTableRecord
100
AcDbLayerTableRecord
2
2
70
0
62
7
6
CONTINUOUS
290
1
370
-3
390
0
0
LAYER
5
181
100
AcDbSymbolTableRecord
100
AcDbLayerTableRecord
2
SK4
70
0
62
2
6
CENTER
290
1
370
-3
390
0
0
LAYER
5
182
100
AcDbSymbolTableRecord
100
AcDbLayerTableRecord
2
SK1
70
0
62
4
6
CONTINUOUS
290
1
370
-3
390
0
0
LAYER
5
183
100
AcDbSymbolTableRecord
100
AcDbLayerTableRecord
2
SK6
70
0
62
5
6
CONTINUOUS
290
1
370
-3
390
0
0
LAYER
5
184
100
AcDbSymbolTableRecord
100
AcDbLayerTableRecord
2
SK2
70
0
62
7
6
CONTINUOUS
290
1
370
-3
390
0
0
ENDTAB
0
TABLE
2
STYLE
5
19a
100
AcDbSymbolTable
0
STYLE
5
11
100
AcDbSymbolTableRecord
100
AcDbTextStyleTableRecord
2
Standard
3
txt
70
0
71
0
40
0
41
1
42
0
50
0
0
STYLE
5
102
100
AcDbSymbolTableRecord
100
AcDbTextStyleTableRecord
2
iso_b_vert
3
simplex.shx
70
0
71
0
40
0
41
1
42
0
50
0
0
STYLE
5
103
100
AcDbSymbolTableRecord
100
AcDbTextStyleTableRecord
2
DWGDirectTextStyle
3
simplex
70
0
71
0
40
0
41
1
42
0
50
0
0
ENDTAB
0
TABLE
2
DIMSTYLE
5
19b
100
AcDbSymbolTable
100
AcDbDimStyleTable
0
DIMSTYLE
105
27
100
AcDbSymbolTableRecord
100
AcDbDimStyleTableRecord
2
Standard
70
0
3
<>
41
0.18
42
0.0625
44
0.18
140
0.18
147
0.09
73
0
74
0
77
1
271
2
275
0
278
52
280
0
340
11
0
ENDTAB
0
TABLE
2
VIEW
5
19c
100
AcDbSymbolTable
0
ENDTAB
0
TABLE
2
UCS
5
19d
100
AcDbSymbolTable
0
ENDTAB
0
TABLE
2
APPID
5
19e
100
AcDbSymbolTable
0
APPID
5
12
100
AcDbSymbolTableRecord
100
AcDbRegAppTableRecord
2
ACAD
70
0
0
ENDTAB
0
TABLE
2
BLOCK_RECORD
5
19f
100
AcDbSymbolTable
0
BLOCK_RECORD
5
1F
100
AcDbSymbolTableRecord
100
AcDbBlockTableRecord
2
*Model_Space
340
0
70
0
0
BLOCK_RECORD
5
1B
100
AcDbSymbolTableRecord
100
AcDbBlockTableRecord
2
*Paper_Space
340
0
70
0
0
BLOCK_RECORD
5
23
100
AcDbSymbolTableRecord
100
AcDbBlockTableRecord
2
*Paper_Space0
340
0
70
0
0
BLOCK_RECORD
5
105
100
AcDbSymbolTableRecord
100
AcDbBlockTableRecord
2
DimnDraft3D1
340
0
70
0
0
BLOCK_RECORD
5
110
100
AcDbSymbolTableRecord
100
AcDbBlockTableRecord
2
DimnDraft3D2
340
0
70
0
0
BLOCK_RECORD
5
11B
100
AcDbSymbolTableRecord
100
AcDbBlockTableRecord
2
DimnDraft3D3
340
0
70
0
0
ENDTAB
0
ENDSEC
0
SECTION
2
BLOCKS
0
BLOCK
5
20
100
AcDbEntity
8
0
100
AcDbBlockBegin
2
*Model_Space
70
0
10
0
20
0
30
0
3
*Model_Space
0
ENDBLK
5
21
100
AcDbEntity
8
0
100
AcDbBlockEnd
0
BLOCK
5
1C
100
AcDbEntity
8
0
100
AcDbBlockBegin
2
*Paper_Space
70
0
10
0
20
0
30
0
3
*Paper_Space
0
ENDBLK
5
1D
100
AcDbEntity
8
0
100
AcDbBlockEnd
0
BLOCK
5
24
100
AcDbEntity
8
0
100
AcDbBlockBegin
2
*Paper_Space0
70
0
10
0
20
0
30
0
3
*Paper_Space0
0
ENDBLK
5
25
100
AcDbEntity
8
0
100
AcDbBlockEnd
0
BLOCK
5
10D
100
AcDbEntity
8
0
100
AcDbBlockBegin
2
DimnDraft3D1
70
0
10
0
20
0
30
0
3
DimnDraft3D1
0
MTEXT
5
106
100
AcDbEntity
8
SK2
62
256
6
ByLayer
370
18
48
1
60
0
100
AcDbMText
10
2.782895
20
-29.300487
30
0
210
0
220
0
230
1
1
\W0.6576;10.2
40
3
41
0
44
1.084337
50
0
71
7
72
5
7
iso_b_vert
0
LINE
5
108
100
AcDbEntity
8
SK2
62
256
6
ByLayer
370
13
48
1
60
0
100
AcDbLine
10
10.2
20
-13.485742
30
0
11
10.2
21
-32.050487
31
0
39
0
210
0
220
0
230
1
0
LINE
5
109
100
AcDbEntity
8
SK2
62
256
6
ByLayer
370
13
48
1
60
0
100
AcDbLine
10
0
20
-2
30
0
11
0
21
-32.050487
31
0
39
0
210
0
220
0
230
1
0
LINE
5
10A
100
AcDbEntity
8
SK2
62
256
6
ByLayer
370
13
48
1
60
0
100
AcDbLine
10
17.7
20
-30.050487
30
0
11
-7.5
21
-30.050487
31
0
39
0
210
0
220
0
230
1
0
SOLID
5
10B
100
AcDbEntity
8
SK2
62
256
6
ByLayer
370
13
48
1
60
0
100
AcDbTrace
10
10.2
20
-30.050487
30
0
11
13.374998
21
-29.632491
31
0
12
13.375002
22
-30.468484
32
0
13
10.2
23
-30.050487
33
0
39
0
210
0
220
0
230
1
0
SOLID
5
10C
100
AcDbEntity
8
SK2
62
256
6
ByLayer
370
13
48
1
60
0
100
AcDbTrace
10
0
20
-30.050487
30
0
11
-3.174998
21
-30.468484
31
0
12
-3.175002
22
-29.632491
32
0
13
0
23
-30.050487
33
0
39
0
210
0
220
0
230
1
0
ENDBLK
5
10E
100
AcDbEntity
8
0
100
AcDbBlockEnd
0
BLOCK
5
118
100
AcDbEntity
8
0
100
AcDbBlockBegin
2
DimnDraft3D2
70
0
10
0
20
0
30
0
3
DimnDraft3D2
0
MTEXT
5
111
100
AcDbEntity
8
2
62
256
6
ByLayer
370
18
48
1
60
0
100
AcDbMText
10
28.157199
20
18.911285
30
0
210
0
220
0
230
1
1
\W0.7221;Dc=23.0-29.0
40
3
41
0
44
1.084337
50
90
71
7
72
5
7
iso_b_vert
0
LINE
5
113
100
AcDbEntity
8
2
62
256
6
ByLayer
370
13
48
1
60
0
100
AcDbLine
10
12.2
20
-11.485742
30
0
11
30.907199
21
-11.485742
31
0
39
0
210
0
220
0
230
1
0
LINE
5
114
100
AcDbEntity
8
2
62
256
6
ByLayer
370
13
48
1
60
0
100
AcDbLine
10
11.803125
20
11.486285
30
0
11
30.907199
21
11.486285
31
0
39
0
210
0
220
0
230
1
0
LINE
5
115
100
AcDbEntity
8
2
62
256
6
ByLayer
370
13
48
1
60
0
100
AcDbLine
10
28.907199
20
-11.485742
30
0
11
28.907199
21
41.600758
31
0
39
0
210
0
220
0
230
1
0
SOLID
5
116
100
AcDbEntity
8
2
62
256
6
ByLayer
370
13
48
1
60
0
100
AcDbTrace
10
28.907199
20
-11.485742
30
0
11
28.489203
21
-8.310743
31
0
12
29.325196
22
-8.31074
32
0
13
28.907199
23
-11.485742
33
0
39
0
210
0
220
0
230
1
0
SOLID
5
117
100
AcDbEntity
8
2
62
256
6
ByLayer
370
13
48
1
60
0
100
AcDbTrace
10
28.907199
20
11.486285
30
0
11
29.325196
21
8.311286
31
0
12
28.489203
22
8.311283
32
0
13
28.907199
23
11.486285
33
0
39
0
210
0
220
0
230
1
0
ENDBLK
5
119
100
AcDbEntity
8
0
100
AcDbBlockEnd
0
BLOCK
5
122
100
AcDbEntity
8
0
100
AcDbBlockBegin
2
DimnDraft3D3
70
0
10
0
20
0
30
0
3
DimnDraft3D3
0
MTEXT
5
11C
100
AcDbEntity
8
2
62
256
6
ByLayer
370
18
48
1
60
0
100
AcDbMText
10
14.947382
20
-3.972269
30
0
210
0
220
0
230
1
1
\W0.5899;90%%d
40
3
41
0
44
1.084337
50
315
71
7
72
5
7
iso_b_vert
0
LINE
5
11D
100
AcDbEntity
8
2
62
256
6
ByLayer
370
13
48
1
60
0
100
AcDbLine
10
10.2
20
-3.485721
30
0
11
10.2
21
-1.566008
31
0
39
0
210
0
220
0
230
1
0
LINE
5
11E
100
AcDbEntity
8
2
62
256
6
ByLayer
370
13
48
1
60
0
100
AcDbLine
10
12.2
20
-11.485742
30
0
11
20.119734
21
-11.485742
31
0
39
0
210
0
220
0
230
1
0
ARC
5
11F
100
AcDbEntity
8
2
62
256
6
ByLayer
370
13
48
1
60
0
100
AcDbCircle
39
0
10
10.2
20
-11.485742
30
0
40
7.91973372329793
210
0
220
0
230
1
100
AcDbArc
50
0
51
90
0
SOLID
5
120
100
AcDbEntity
8
2
62
256
6
ByLayer
370
13
48
1
60
0
100
AcDbTrace
10
10.2
20
-3.566008
30
0
11
13.400757
21
-3.463593
31
0
12
13.318204
22
-4.2955
32
0
13
10.2
23
-3.566008
33
0
39
0
210
0
220
0
230
1
0
SOLID
5
121
100
AcDbEntity
8
2
62
256
6
ByLayer
370
13
48
1
60
0
100
AcDbTrace
10
18.119734
20
-11.485742
30
0
11
17.390242
21
-8.367541
31
0
12
18.222149
22
-8.284981
32
0
13
18.119734
23
-11.485742
33
0
39
0
210
0
220
0
230
1
0
ENDBLK
5
123
100
AcDbEntity
8
0
100
AcDbBlockEnd
0
ENDSEC
0
SECTION
2
ENTITIES
0
ARC
5
C5
100
AcDbEntity
8
1
62
256
6
ByLayer
370
18
48
1
60
0
100
AcDbCircle
39
0
10
-8.840437
20
-0.799727
30
0
40
2.34043735457714
210
0
220
0
230
-1
100
AcDbArc
50
337.384596
51
0
0
ELLIPSE
5
C6
100
AcDbEntity
8
1
62
256
6
ByLayer
370
18
48
0.05
60
0
100
AcDbEllipse
10
9.803125
20
11.089546
30
0
11
-0.396875
21
4.86015646673256E-17
31
0
210
0
220
0
230
1
40
0.999657
41
3.14159265358979
42
-1.39626340159547
0
ELLIPSE
5
C7
100
AcDbEntity
8
SK1
62
256
6
ByLayer
370
18
48
1
60
0
100
AcDbEllipse
10
-2.678446
20
3.300273
30
0
11
-2.1124459603436E-16
21
-1.15
31
0
210
0
220
0
230
1
40
0.984808
41
-3.08872565072315
42
-1.5707963267949
0
ELLIPSE
5
C8
100
AcDbEntity
8
SK1
62
256
6
ByLayer
370
18
48
1
60
0
100
AcDbEllipse
10
-2.8
20
3.300273
30
0
11
-1.16774060366861
21
0
31
0
210
0
220
0
230
-1
40
0.984808
41
0
42
3.14159265358979
0
ELLIPSE
5
C9
100
AcDbEntity
8
SK1
62
256
6
ByLayer
370
18
48
1
60
0
100
AcDbEllipse
10
-2.678446
20
-4.599727
30
0
11
-2.1124459603436E-16
21
-1.15
31
0
210
0
220
0
230
1
40
0.984808
41
-1.5707963267949
42
-0.0528670028666482
0
ELLIPSE
5
CA
100
AcDbEntity
8
1
62
256
6
ByLayer
370
18
48
1
60
0
100
AcDbEllipse
10
7.025
20
-7.532295
30
0
11
-1.4
21
1.71444889535133E-16
31
0
210
0
220
0
230
1
40
0.993572
41
-0.501967611103192
42
-0.237583002419508
0
ELLIPSE
5
CB
100
AcDbEntity
8
1
62
256
6
ByLayer
370
18
48
1
60
0
100
AcDbEllipse
10
7.025
20
-7.558918
30
0
11
1.4
21
0
31
0
210
0
220
0
230
1
40
0.993572
41
0
42
0.251916138794244
0
ELLIPSE
5
CC
100
AcDbEntity
8
1
62
256
6
ByLayer
370
18
48
1
60
0
100
AcDbEllipse
10
7.025
20
-7.628465
30
0
11
1.36794919243112
21
0
31
0
210
0
220
0
230
1
40
0.993572
41
0.000392400926780179
42
0.152170941655136
0
ELLIPSE
5
CD
100
AcDbEntity
8
1
62
256
6
ByLayer
370
18
48
1
60
0
100
AcDbEllipse
10
7.025
20
-7.532295
30
0
11
-1.4
21
1.71444889535133E-16
31
0
210
0
220
0
230
1
40
0.993572
41
2.87946576371838
42
2.96752849947653
0
ELLIPSE
5
CE
100
AcDbEntity
8
1
62
256
6
ByLayer
370
18
48
1
60
0
100
AcDbEllipse
10
7.025
20
-7.558918
30
0
11
1.4
21
0
31
0
210
0
220
0
230
1
40
0.993572
41
2.65022759995716
42
2.89409380089293
0
ELLIPSE
5
CF
100
AcDbEntity
8
1
62
256
6
ByLayer
370
18
48
1
60
0
100
AcDbEllipse
10
7.025
20
-7.628465
30
0
11
1.36794919243112
21
0
31
0
210
0
220
0
230
1
40
0.993572
41
2.72297536934575
42
2.90440238276015
0
ELLIPSE
5
D0
100
AcDbEntity
8
1
62
256
6
ByLayer
370
18
48
1
60
0
100
AcDbEllipse
10
-25.381871
20
-8.399727
30
0
11
34.346044405487
21
-1.7884920350248
31
0
210
0
220
0
230
-1
40
0.005917
41
0.670778100848264
42
0.927924202807441
0
ELLIPSE
5
D1
100
AcDbEntity
8
1
62
256
6
ByLayer
370
18
48
1
60
0
100
AcDbEllipse
10
7.025
20
-7.079482
30
0
11
1.08203519760188
21
0
31
0
210
0
220
0
230
1
40
0.993572
41
-1.69476840647375
42
-0.0505608455205648
0
ELLIPSE
5
D2
100
AcDbEntity
8
SK1
62
256
6
ByLayer
370
18
48
1
60
0
100
AcDbEllipse
10
-0.345415
20
-9.116462
30
0
11
0.499990784642385
21
-0.0267188062608044
31
0
210
0
220
0
230
-1
40
0.113615
41
-0.730383010393382
42
2.14941025539738
0
ELLIPSE
5
D3
100
AcDbEntity
8
1
62
256
6
ByLayer
370
18
48
1
60
0
100
AcDbEllipse
10
6.877159
20
-6.904424
30
0
11
1.5
21
0
31
0
210
0
220
0
230
1
40
0.993572
41
0
42
-3.14159265358979
0
ELLIPSE
5
D4
100
AcDbEntity
8
1
62
256
6
ByLayer
370
18
48
1
60
0
100
AcDbEllipse
10
9.803125
20
-11.091418
30
0
11
0.396875
21
0
31
0
210
0
220
0
230
1
40
0.993572
41
-1.74532925199433
42
4.50481671466138E-15
0
ELLIPSE
5
D5
100
AcDbEntity
8
1
62
256
6
ByLayer
370
18
48
1
60
0
100
AcDbEllipse
10
9.803125
20
-10.821853
30
0
11
0.104494264349958
21
0
31
0
210
0
220
0
230
1
40
0.993572
41
-1.7453292519943
42
3.42190864685858E-14
0
ELLIPSE
5
D6
100
AcDbEntity
8
1
62
256
6
ByLayer
370
18
48
1
60
0
100
AcDbEllipse
10
1.558104
20
-21.522624
30
0
11
12
21
0
31
0
210
0
220
0
230
1
40
0.993572
41
1.39626340159546
42
1.40825691568021
0
ELLIPSE
5
D7
100
AcDbEntity
8
1
62
256
6
ByLayer
370
18
48
1
60
0
100
AcDbEllipse
10
6.877159
20
-6.904424
30
0
11
1.25
21
0
31
0
210
0
220
0
230
1
40
0.993572
41
0
42
-1.55960435524859
0
ELLIPSE
5
D8
100
AcDbEntity
8
SK1
62
256
6
ByLayer
370
18
48
1
60
0
100
AcDbEllipse
10
-2.520311
20
-4.422781
30
0
11
0.340455042693231
21
-0.834981465650636
31
0
210
0
220
0
230
-1
40
0.875828
41
0
42
6.28318530717959
0
ELLIPSE
5
D9
100
AcDbEntity
8
1
62
256
6
ByLayer
370
18
48
1
60
0
100
AcDbEllipse
10
9.803125
20
-5.485721
30
0
11
0.396875000000001
21
0
31
0
210
0
220
0
230
1
40
0.993572
41
0
42
1.39626340159547
0
ELLIPSE
5
DA
100
AcDbEntity
8
1
62
256
6
ByLayer
370
18
48
1
60
0
100
AcDbEllipse
10
4.246875
20
-9.848434
30
0
11
0.104494264349959
21
0
31
0
210
0
220
0
230
1
40
0.993572
41
3.14159265358979
42
-1.74532925199436
0
ELLIPSE
5
DB
100
AcDbEntity
8
1
62
256
6
ByLayer
370
18
48
1
60
0
100
AcDbEllipse
10
7.025
20
-7.064535
30
0
11
-0.95
21
1.16337603613126E-16
31
0
210
0
220
0
230
1
40
0.993572
41
0
42
6.28318530717959
0
ELLIPSE
5
DC
100
AcDbEntity
8
SK1
62
256
6
ByLayer
370
18
48
1
60
0
100
AcDbEllipse
10
-2.8
20
-4.599727
30
0
11
-1.16774060366861
21
0
31
0
210
0
220
0
230
-1
40
0.984808
41
3.14159265358979
42
0
0
ELLIPSE
5
DD
100
AcDbEntity
8
1
62
256
6
ByLayer
370
18
48
1
60
0
100
AcDbEllipse
10
6.877159
20
-6.904424
30
0
11
1.25
21
0
31
0
210
0
220
0
230
1
40
0.993572
41
-0.185844935885652
42
0
0
ELLIPSE
5
DE
100
AcDbEntity
8
1
62
256
6
ByLayer
370
18
48
1
60
0
100
AcDbEllipse
10
4.246875
20
-10.117999
30
0
11
0.396875000000001
21
0
31
0
210
0
220
0
230
1
40
0.993572
41
-3.14159265358978
42
-1.74532925199433
0
ELLIPSE
5
DF
100
AcDbEntity
8
1
62
256
6
ByLayer
370
18
48
1
60
0
100
AcDbEllipse
10
9.803125
20
-5.216156
30
0
11
0.10449426434996
21
0
31
0
210
0
220
0
230
1
40
0.993572
41
0
42
1.39626340159543
0
ELLIPSE
5
E0
100
AcDbEntity
8
1
62
256
6
ByLayer
370
18
48
1
60
0
100
AcDbEllipse
10
7.025
20
-7.098496
30
0
11
1.25
21
0
31
0
210
0
220
0
230
1
40
0.993572
41
0.790307175077694
42
-2.59191161632844
0
ELLIPSE
5
E1
100
AcDbEntity
8
1
62
256
6
ByLayer
370
18
48
1
60
0
100
AcDbEllipse
10
1.558104
20
-21.861131
30
0
11
8.99503563948697
21
9.45981505404051
31
0
210
0
220
0
230
-1
40
0.839644
41
-0.795076972457671
42
-0.684897438895871
0
ELLIPSE
5
E2
100
AcDbEntity
8
1
62
256
6
ByLayer
370
18
48
1
60
0
100
AcDbEllipse
10
6.877159
20
-7.188452
30
0
11
1.25
21
0
31
0
210
0
220
0
230
1
40
0.993572
41
2.05096944578113
42
3.02702289450301
0
ELLIPSE
5
E3
100
AcDbEntity
8
1
62
256
6
ByLayer
370
18
48
1
60
0
100
AcDbEllipse
10
9.240927
20
-1.699727
30
0
11
0.0438022706143537
21
-3.59999699717307
31
0
210
0
220
0
230
-1
40
0.106154
41
-1.07737052685475
42
0.635475443536342
0
POINT
5
6C
100
AcDbEntity
8
80
62
256
6
ByLayer
370
13
48
1
60
0
100
AcDbPoint
10
0
20
0
30
0
39
0
210
0
220
0
230
1
50
360
0
POINT
5
6E
100
AcDbEntity
8
81
62
256
6
ByLayer
370
18
48
1
60
0
100
AcDbPoint
10
10.2
20
-11.485742
30
0
39
0
210
0
220
0
230
1
50
360
0
SPLINE
5
E4
100
AcDbEntity
8
1
62
256
6
ByLayer
370
18
48
1
60
0
100
AcDbSpline
70
4
71
3
72
8
73
4
40
0
40
0
40
0
40
0
40
1
40
1
40
1
40
1
41
1
10
0.0056525034263302
20
0.110631576523701
30
0
41
1
10
0.0217691573020005
20
0.0375694122873256
30
0
41
1
10
0.0493977068031455
20
-0.0232133966152333
30
0
41
1
10
0.0877706922214088
20
-0.0723308179506148
30
0
0
SPLINE
5
E5
100
AcDbEntity
8
1
62
256
6
ByLayer
370
18
48
1
60
0
100
AcDbSpline
70
4
71
3
72
18
73
14
40
0
40
0
40
0
40
0
40
0.144086644560489
40
0.144086644560489
40
0.287731062505122
40
0.287731062505122
40
0.456860780407675
40
0.456860780407675
40
0.627194363444238
40
0.627194363444238
40
0.79587141402398
40
0.79587141402398
40
1
40
1
40
1
40
1
41
1
10
0.0877706922214088
20
-0.0723308179506148
30
0
41
1
10
0.125376217931316
20
-0.121448239285968
30
0
41
1
10
0.181400776641976
20
-0.161970111887683
30
0
41
1
10
0.326994352015899
20
-0.225724772261941
30
0
41
1
10
0.41163868915157
20
-0.241171953790968
30
0
41
1
10
0.6188528104102
20
-0.241171953790968
30
0
41
1
10
0.716320193372593
20
-0.218455146423366
30
0
41
1
10
0.881141088134467
20
-0.126032214781191
30
0
41
1
10
0.938883508798537
20
-0.0631213014502237
30
0
41
1
10
1.00609155952035
20
0.0993999848406872
30
0
41
1
10
1.02253661701037
20
0.216848000161434
30
0
41
1
10
1.02253661701037
20
0.5547349277644
30
0
41
1
10
1.02253661701037
20
0.73974388146101
30
0
41
1
10
1.02253661701037
20
0.924752835157591
30
0
0
SPLINE
5
E6
100
AcDbEntity
8
1
62
256
6
ByLayer
370
18
48
1
60
0
100
AcDbSpline
70
4
71
3
72
10
73
6
40
0
40
0
40
0
40
0
40
0.660338983050847
40
0.660338983050847
40
1
40
1
40
1
40
1
41
1
10
-0.0089292310326129
20
0.924752835157619
30
0
41
1
10
-0.0089292310326129
20
0.725417966904871
30
0
41
1
10
-0.0089292310326129
20
0.526083098652123
30
0
41
1
10
-0.0089292310326129
20
0.224215613361764
30
0
41
1
10
-0.0043244727824174
20
0.152381384658753
30
0
41
1
10
0.0056525034263302
20
0.110631576523701
30
0
0
SPLINE
5
E7
100
AcDbEntity
8
1
62
256
6
ByLayer
370
18
48
1
60
0
100
AcDbSpline
70
4
71
3
72
8
73
4
40
0
40
0
40
0
40
0
40
1
40
1
40
1
40
1
41
1
10
2.28347291785458
20
0.924752835157591
30
0
41
1
10
1.98109379275864
20
0.924752835157591
30
0
41
1
10
1.67871466766271
20
0.924752835157591
30
0
41
1
10
1.37633554256677
20
0.924752835157591
30
0
0
SPLINE
5
E8
100
AcDbEntity
8
1
62
256
6
ByLayer
370
18
48
1
60
0
100
AcDbSpline
70
4
71
3
72
18
73
14
40
0
40
0
40
0
40
0
40
0.19132543543737
40
0.19132543543737
40
0.382650870874738
40
0.382650870874738
40
0.536214707212626
40
0.536214707212626
40
0.690626528447003
40
0.690626528447003
40
0.845885455798057
40
0.845885455798057
40
1
40
1
40
1
40
1
41
1
10
1.23358803681081
20
-0.118378400452542
30
0
41
1
10
1.17986585722525
20
-0.263274793391901
30
0
41
1
10
1.08930561163814
20
-0.375016926929902
30
0
41
1
10
0.832974069044124
20
-0.530964739669713
30
0
41
1
10
0.681784506496155
20
-0.570258676738035
30
0
41
1
10
0.366358566358014
20
-0.570258676738007
30
0
41
1
10
0.23589041593591
20
-0.546313933837013
30
0
41
1
10
-0.0057572889857226
20
-0.451501840695784
30
0
41
1
10
-0.0987220169113698
20
-0.39282199216396
30
0
41
1
10
-0.229548042680608
20
-0.252453362162129
30
0
41
1
10
-0.279075048377211
20
-0.165653918487806
30
0
41
1
10
-0.346362603723736
20
0.0447726182322583
30
0
41
1
10
-0.362728156589031
20
0.174484224259686
30
0
41
1
10
-0.362728156589017
20
0.326748230399375
30
0
0
SPLINE
5
E9
100
AcDbEntity
8
1
62
256
6
ByLayer
370
18
48
1
60
0
100
AcDbSpline
70
4
71
3
72
8
73
4
40
0
40
0
40
0
40
0
40
1
40
1
40
1
40
1
41
1
10
1.02253661701037
20
0.924752835157591
30
0
41
1
10
0.678714667662714
20
0.924752835157619
30
0
41
1
10
0.334892718315058
20
0.924752835157619
30
0
41
1
10
-0.0089292310326129
20
0.924752835157619
30
0
0
SPLINE
5
EA
100
AcDbEntity
8
1
62
256
6
ByLayer
370
18
48
1
60
0
100
AcDbSpline
70
4
71
3
72
8
73
4
40
0
40
0
40
0
40
0
40
1
40
1
40
1
40
1
41
1
10
-0.362728156589017
20
0.326748230399375
30
0
41
1
10
-0.362728156589017
20
0.63189021044542
30
0
41
1
10
-0.362728156589017
20
0.937032190491465
30
0
41
1
10
-0.362728156589017
20
1.24217417053751
30
0
0
SPLINE
5
EB
100
AcDbEntity
8
1
62
256
6
ByLayer
370
18
48
1
60
0
100
AcDbSpline
70
4
71
3
72
18
73
14
40
0
40
0
40
0
40
0
40
0.252026352812657
40
0.252026352812657
40
0.40561296454716
40
0.40561296454716
40
0.559855857535999
40
0.559855857535999
40
0.714098750524839
40
0.714098750524839
40
0.857201879020039
40
0.857201879020039
40
1
40
1
40
1
40
1
41
1
10
2.637271843411
20
1.24217417053748
30
0
41
1
10
2.63727184341098
20
0.941943932624952
30
0
41
1
10
2.63727184341098
20
0.64171369471245
30
0
41
1
10
2.63727184341097
20
0.158521062325661
30
0
41
1
10
2.60657345507637
20
0.0111687983195168
30
0
41
1
10
2.485055749848
20
-0.210331828932169
30
0
41
1
10
2.39168473673407
20
-0.297043020559983
30
0
41
1
10
2.13995795239025
20
-0.422292444965194
30
0
41
1
10
2.00795488255141
20
-0.453604801066518
30
0
41
1
10
1.74164636374865
20
-0.453604801066518
30
0
41
1
10
1.6211551895353
20
-0.425976251565345
30
0
41
1
10
1.39422920689667
20
-0.314353200645797
30
0
41
1
10
1.30265941056369
20
-0.230734501757212
30
0
41
1
10
1.23358803681081
20
-0.118378400452542
30
0
0
SPLINE
5
EC
100
AcDbEntity
8
1
62
256
6
ByLayer
370
18
48
1
60
0
100
AcDbSpline
70
4
71
3
72
22
73
18
40
0
40
0
40
0
40
0
40
0.125919801008144
40
0.125919801008144
40
0.22817382381263
40
0.22817382381263
40
0.362000949327651
40
0.362000949327651
40
0.497453699158087
40
0.497453699158087
40
0.624996799363386
40
0.624996799363386
40
0.753577031326437
40
0.753577031326437
40
0.881194351724583
40
0.881194351724583
40
1
40
1
40
1
40
1
41
1
10
1.37633554256677
20
0.924752835157591
30
0
41
1
10
1.37633554256677
20
0.751613924950391
30
0
41
1
10
1.37633554256677
20
0.578475014743162
30
0
41
1
10
1.37633554256677
20
0.264737485963423
30
0
41
1
10
1.38861489790061
20
0.164046772225902
30
0
41
1
10
1.441771565268
20
0.0222956592461969
30
0
41
1
10
1.49145449882157
20
-0.0391765585492294
30
0
41
1
10
1.63043626983798
20
-0.120712530878876
30
0
41
1
10
1.71785511278933
20
-0.141095207820143
30
0
41
1
10
1.9219993952145
20
-0.141095207820143
30
0
41
1
10
2.01025726167651
20
-0.122062207052693
30
0
41
1
10
2.16129095204877
20
-0.0456206658030567
30
0
41
1
10
2.21363408439332
20
0.0087129272527591
30
0
41
1
10
2.2686842787305
20
0.150620094877468
30
0
41
1
10
2.28347291785457
20
0.272719066930421
30
0
41
1
10
2.28347291785458
20
0.604670972788711
30
0
41
1
10
2.28347291785458
20
0.764711903973136
30
0
41
1
10
2.28347291785458
20
0.924752835157591
30
0
0
SPLINE
5
ED
100
AcDbEntity
8
1
62
256
6
ByLayer
370
18
48
1
60
0
100
AcDbSpline
70
4
71
3
72
8
73
4
40
0
40
0
40
0
40
0
40
1
40
1
40
1
40
1
41
1
10
-0.362728156589017
20
1.24217417053751
30
0
41
1
10
0.637271843410997
20
1.24217417053751
30
0
41
1
10
1.637271843411
20
1.24217417053748
30
0
41
1
10
2.637271843411
20
1.24217417053748
30
0
0
SPLINE
5
EE
100
AcDbEntity
8
1
62
256
6
ByLayer
370
18
48
1
60
0
100
AcDbSpline
70
4
71
3
72
10
73
6
40
0
40
0
40
0
40
0
40
0.47948143281211
40
0.47948143281211
40
1
40
1
40
1
40
1
41
1
10
5.63804721892303
20
-4.59972718463592
30
0
41
1
10
5.65205261215969
20
-4.19398542285333
30
0
41
1
10
5.66283035315051
20
-3.77673878096621
30
0
41
1
10
5.67820119386839
20
-2.89780364710143
30
0
41
1
10
5.68223480292985
20
-2.43235684992675
30
0
41
1
10
5.68223480292985
20
-1.96849797101177
30
0
0
SPLINE
5
EF
100
AcDbEntity
8
1
62
256
6
ByLayer
370
18
48
1
60
0
100
AcDbSpline
70
4
71
3
72
8
73
4
40
0
40
0
40
0
40
0
40
1
40
1
40
1
40
1
41
1
10
6.89120118915619
20
-8.14631087936644
30
0
41
1
10
6.81832668862554
20
-8.14794867969937
30
0
41
1
10
6.74735041607216
20
-8.14396129091932
30
0
41
1
10
6.67739522649763
20
-8.13399374239239
30
0
0
SPLINE
5
F0
100
AcDbEntity
8
1
62
256
6
ByLayer
370
18
48
1
60
0
100
AcDbSpline
70
4
71
3
72
9
73
5
40
0
40
0
40
0
40
0
40
0.620363024386452
40
1
40
1
40
1
40
1
41
1
10
5.66883453668454
20
-7.21292839672151
30
0
41
1
10
5.68484600473927
20
-7.15282154688686
30
0
41
1
10
5.71848257029189
20
-7.05743380680502
30
0
41
1
10
5.7615601869598
20
-6.96608893410624
30
0
41
1
10
5.77929485621875
20
-6.93210261625495
30
0
0
SPLINE
5
F1
100
AcDbEntity
8
1
62
256
6
ByLayer
370
18
48
1
60
0
100
AcDbSpline
70
4
71
3
72
10
73
6
40
0
40
0
40
0
40
0
40
0.5
40
0.5
40
1
40
1
40
1
40
1
41
1
10
3.64188213801314
20
-9.2685094920113
30
0
41
1
10
4.57171960956529
20
-9.45624208981016
30
0
41
1
10
5.49476736027772
20
-9.6451488486847
30
0
41
1
10
7.31212933571451
20
-10.0279313170843
30
0
41
1
10
8.21270866052245
20
-10.2207235893331
30
0
41
1
10
9.05832477957999
20
-10.4230207673522
30
0
0
SPLINE
5
F2
100
AcDbEntity
8
1
62
256
6
ByLayer
370
18
48
1
60
0
100
AcDbSpline
70
4
71
3
72
8
73
4
40
0
40
0
40
0
40
0
40
1
40
1
40
1
40
1
41
1
10
2.18613548092534
20
-9.09118356404613
30
0
41
1
10
2.67383656945607
20
-9.11237490206506
30
0
41
1
10
3.17205486939565
20
-9.17365216871255
30
0
41
1
10
3.64188213801314
20
-9.26850949201128
30
0
0
SPLINE
5
F3
100
AcDbEntity
8
1
62
256
6
ByLayer
370
18
48
1
60
0
100
AcDbSpline
70
4
71
3
72
8
73
4
40
0
40
0
40
0
40
0
40
1
40
1
40
1
40
1
41
1
10
5.63804721894929
20
-4.59972718463672
30
0
41
1
10
6.71191991281689
20
-4.59972718463672
30
0
41
1
10
7.7858472193068
20
-4.59972718463672
30
0
41
1
10
8.85981836702164
20
-4.59972718463672
30
0
0
SPLINE
5
F4
100
AcDbEntity
8
1
62
256
6
ByLayer
370
18
48
1
60
0
100
AcDbSpline
70
4
71
3
72
8
73
4
40
0
40
0
40
0
40
0
40
1
40
1
40
1
40
1
41
1
10
-0.210738263572227
20
-8.98797778426373
30
0
41
1
10
0.587979683611917
20
-9.02203287553112
30
0
41
1
10
1.38696342338791
20
-9.05645834894173
30
0
41
1
10
2.18613548092575
20
-9.09118356404753
30
0
0
SPLINE
5
F5
100
AcDbEntity
8
1
62
256
6
ByLayer
370
18
48
1
60
0
100
AcDbSpline
70
4
71
3
72
8
73
4
40
0
40
0
40
0
40
0
40
1
40
1
40
1
40
1
41
1
10
5.37715884977208
20
-8.37767917486124
30
0
41
1
10
6.37715636171224
20
-8.45791584726075
30
0
41
1
10
7.3771563554387
20
-8.53812199123871
30
0
41
1
10
8.37715884977208
20
-8.61829733975458
30
0
0
SPLINE
5
F6
100
AcDbEntity
8
1
62
256
6
ByLayer
370
18
48
1
60
0
100
AcDbSpline
70
4
71
3
72
8
73
4
40
0
40
0
40
0
40
0
40
1
40
1
40
1
40
1
41
1
10
6.89120118915619
20
-8.14631087936644
30
0
41
1
10
6.81832668862554
20
-8.14794867969937
30
0
41
1
10
6.74735041607216
20
-8.14396129091932
30
0
41
1
10
6.67739522649763
20
-8.13399374239239
30
0
0
SPLINE
5
F7
100
AcDbEntity
8
1
62
256
6
ByLayer
370
18
48
1
60
0
100
AcDbSpline
70
4
71
3
72
8
73
4
40
0
40
0
40
0
40
0
40
1
40
1
40
1
40
1
41
1
10
8.85981836702164
20
-4.59972718463672
30
0
41
1
10
8.95803299056106
20
-6.93984871352438
30
0
41
1
10
9.16274554066932
20
-8.95805161008389
30
0
41
1
10
9.40329650640717
20
-9.98697024852567
30
0
0
SPLINE
5
F8
100
AcDbEntity
8
1
62
256
6
ByLayer
370
18
48
1
60
0
100
AcDbSpline
70
4
71
3
72
11
73
7
40
0
40
0
40
0
40
0
40
0.0393155496258713
40
0.472093332339905
40
0.905732250252812
40
1
40
1
40
1
40
1
41
1
10
7.90457399237316
20
-6.21603347857632
30
0
41
1
10
7.91192537657311
20
-6.22630680768532
30
0
41
1
10
7.99802287838797
20
-6.35068308818845
30
0
41
1
10
8.11770345191449
20
-6.62127247557621
30
0
41
1
10
8.13719084519502
20
-6.9356778441329
30
0
41
1
10
8.11141189413474
20
-7.10375309020557
30
0
41
1
10
8.10565243531138
20
-7.1338158587771
30
0
0
SPLINE
5
F9
100
AcDbEntity
8
1
62
256
6
ByLayer
370
18
48
1
60
0
100
AcDbSpline
70
4
71
3
72
26
73
22
40
0
40
0
40
0
40
0
40
0.147345663889213
40
0.147345663889213
40
0.253043125143415
40
0.253043125143415
40
0.359566864165544
40
0.359566864165544
40
0.453978325297369
40
0.453978325297369
40
0.541311772698158
40
0.541311772698158
40
0.627166406853895
40
0.627166406853895
40
0.715822507254337
40
0.715822507254337
40
0.812043367717442
40
0.812043367717442
40
0.922046566553963
40
0.922046566553963
40
1
40
1
40
1
40
1
41
1
10
8.37715884977213
20
-6.69419359060007
30
0
41
1
10
8.37715884977201
20
-6.47875870620194
30
0
41
1
10
8.33644842913031
20
-6.25132858235452
30
0
41
1
10
8.1826850865896
20
-5.88370901333982
30
0
41
1
10
8.09112783865319
20
-5.7332533976012
30
0
41
1
10
7.85876044618381
20
-5.46967702275464
30
0
41
1
10
7.71371717322706
20
-5.35310135987748
30
0
41
1
10
7.4097026711146
20
-5.19268304640832
30
0
41
1
10
7.24974075554607
20
-5.13992291691247
30
0
41
1
10
6.93772781186875
20
-5.09460011193639
30
0
41
1
10
6.78172236931938
20
-5.09721889374467
30
0
41
1
10
6.48688013757873
20
-5.14962385848938
30
0
41
1
10
6.34395606204393
20
-5.19923293756943
30
0
41
1
10
6.08166919563136
20
-5.3367231113545
30
0
41
1
10
5.95991907568128
20
-5.42737450612654
30
0
41
1
10
5.74445883634502
20
-5.64090748837995
30
0
41
1
10
5.65130550086824
20
-5.7682445264351
30
0
41
1
10
5.49781722345896
20
-6.05236891018978
30
0
41
1
10
5.4420185584909
20
-6.21391210803441
30
0
41
1
10
5.38784860820182
20
-6.48811696097852
30
0
41
1
10
5.37715884977197
20
-6.6027982770527
30
0
41
1
10
5.37715884977197
20
-6.7154402769311
30
0
0
SPLINE
5
FA
100
AcDbEntity
8
1
62
256
6
ByLayer
370
18
48
1
60
0
100
AcDbSpline
70
4
71
3
72
8
73
4
40
0
40
0
40
0
40
0
40
1
40
1
40
1
40
1
41
1
10
8.37715884977208
20
-8.61829733975463
30
0
41
1
10
8.37715884977208
20
-8.06016951433551
30
0
41
1
10
8.37715884977206
20
-7.41880159795008
30
0
41
1
10
8.37715884977206
20
-6.69419359059944
30
0
0
SPLINE
5
FB
100
AcDbEntity
8
1
62
256
6
ByLayer
370
18
48
1
60
0
100
AcDbSpline
70
4
71
3
72
11
73
7
40
0
40
0
40
0
40
0
40
0.0393155496258713
40
0.472093332339905
40
0.905732250252812
40
1
40
1
40
1
40
1
41
1
10
7.90457399237316
20
-6.21603347857632
30
0
41
1
10
7.91192537657311
20
-6.22630680768532
30
0
41
1
10
7.99802287838797
20
-6.35068308818845
30
0
41
1
10
8.11770345191449
20
-6.62127247557621
30
0
41
1
10
8.13719084519502
20
-6.9356778441329
30
0
41
1
10
8.11141189413474
20
-7.10375309020557
30
0
41
1
10
8.10565243531138
20
-7.1338158587771
30
0
0
SPLINE
5
FC
100
AcDbEntity
8
1
62
256
6
ByLayer
370
18
48
1
60
0
100
AcDbSpline
70
4
71
3
72
8
73
4
40
0
40
0
40
0
40
0
40
1
40
1
40
1
40
1
41
1
10
9.05832477958029
20
-10.4230207673519
30
0
41
1
10
9.13706530093233
20
-10.3057984121857
30
0
41
1
10
9.25354912170452
20
-10.1592895726235
30
0
41
1
10
9.40329650640713
20
-9.98697024852569
30
0
0
SPLINE
5
FD
100
AcDbEntity
8
1
62
256
6
ByLayer
370
18
48
1
60
0
100
AcDbSpline
70
4
71
3
72
8
73
4
40
0
40
0
40
0
40
0
40
1
40
1
40
1
40
1
41
1
10
8.41899195638088
20
-7.48715535068152
30
0
41
1
10
8.41927509206054
20
-7.51534391997302
30
0
41
1
10
8.41850222590451
20
-7.54366707666435
30
0
41
1
10
8.41672789314297
20
-7.57215869810307
30
0
0
SPLINE
5
FE
100
AcDbEntity
8
1
62
256
6
ByLayer
370
18
48
1
60
0
100
AcDbSpline
70
4
71
3
72
8
73
4
40
0
40
0
40
0
40
0
40
1
40
1
40
1
40
1
41
1
10
5.3771588497721
20
-6.7154402769311
30
0
41
1
10
5.3771588497721
20
-7.33561039457513
30
0
41
1
10
5.37715884977207
20
-7.88969002721853
30
0
41
1
10
5.37715884977207
20
-8.37767917486127
30
0
0
SPLINE
5
FF
100
AcDbEntity
8
1
62
256
6
ByLayer
370
18
48
1
60
0
100
AcDbSpline
70
4
71
3
72
10
73
6
40
0
40
0
40
0
40
0
40
0.5
40
0.5
40
1
40
1
40
1
40
1
41
1
10
-0.210738263572227
20
-8.98797778426371
30
0
41
1
10
-0.404980648906917
20
-8.26788826532038
30
0
41
1
10
-0.571580423882611
20
-7.16482254838633
30
0
41
1
10
-0.800603205220443
20
-4.5035014950727
30
0
41
1
10
-0.86272815658906
20
-2.95961297966835
30
0
41
1
10
-0.86272815658906
20
-1.39218327481396
30
0
0
SPLINE
5
100
100
AcDbEntity
8
1
62
256
6
ByLayer
370
18
48
1
60
0
100
AcDbSpline
70
4
71
3
72
12
73
8
40
0
40
0
40
0
40
0
40
0.351823691497389
40
0.351823691497389
40
0.702496133948629
40
0.702496133948629
40
1
40
1
40
1
40
1
41
1
10
6.67996356147333
20
-1.69972718463674
30
0
41
1
10
6.77780293226837
20
-1.93459318078484
30
0
41
1
10
6.91675753008695
20
-2.1567978970235
30
0
41
1
10
7.2523883436754
20
-2.53754724666266
30
0
41
1
10
7.45342883138543
20
-2.70184983674102
30
0
41
1
10
7.85998148542094
20
-2.93581274554791
30
0
41
1
10
8.06440356462347
20
-3.01832686589026
30
0
41
1
10
8.27423431320099
20
-3.07064354736818
30
0
0
LINE
5
70
100
AcDbEntity
8
81
62
256
6
ByLayer
370
13
48
1
60
0
100
AcDbLine
10
10.2
20
-11.485742
30
0
11
12.2
21
-11.485742
31
0
39
0
210
0
220
0
230
1
0
LINE
5
71
100
AcDbEntity
8
SK4
62
256
6
ByLayer
370
13
48
0.05
60
0
100
AcDbLine
10
-9.78511
20
0
30
0
11
11.21489
21
0
31
0
39
0
210
0
220
0
230
1
0
LINE
5
73
100
AcDbEntity
8
1
62
256
6
ByLayer
370
18
48
1
60
1
100
AcDbLine
10
0
20
0
30
0
11
0
21
420
31
0
39
0
210
0
220
0
230
1
0
LINE
5
75
100
AcDbEntity
8
1
62
256
6
ByLayer
370
18
48
1
60
1
100
AcDbLine
10
594
20
420
30
0
11
0
21
420
31
0
39
0
210
0
220
0
230
1
0
LINE
5
76
100
AcDbEntity
8
1
62
256
6
ByLayer
370
18
48
1
60
1
100
AcDbLine
10
594
20
420
30
0
11
594
21
0
31
0
39
0
210
0
220
0
230
1
0
LINE
5
77
100
AcDbEntity
8
1
62
256
6
ByLayer
370
18
48
1
60
1
100
AcDbLine
10
0
20
0
30
0
11
594
21
0
31
0
39
0
210
0
220
0
230
1
0
LINE
5
78
100
AcDbEntity
8
1
62
256
6
ByLayer
370
18
48
0.05
60
0
100
AcDbLine
10
9.734208
20
11.480257
30
0
11
4.177958
21
10.500876
31
0
39
0
210
0
220
0
230
1
0
LINE
5
79
100
AcDbEntity
8
1
62
256
6
ByLayer
370
18
48
0.05
60
0
100
AcDbLine
10
10.2
20
5.449515
30
0
11
10.2
21
11.089546
31
0
39
0
210
0
220
0
230
1
0
LINE
5
7A
100
AcDbEntity
8
1
62
256
6
ByLayer
370
18
48
1
60
1
100
AcDbLine
10
0
20
0
30
0
11
0
21
420
31
0
39
0
210
0
220
0
230
1
0
LINE
5
7B
100
AcDbEntity
8
1
62
256
6
ByLayer
370
18
48
1
60
1
100
AcDbLine
10
594
20
420
30
0
11
0
21
420
31
0
39
0
210
0
220
0
230
1
0
LINE
5
7C
100
AcDbEntity
8
1
62
256
6
ByLayer
370
18
48
1
60
1
100
AcDbLine
10
594
20
420
30
0
11
594
21
0
31
0
39
0
210
0
220
0
230
1
0
LINE
5
7D
100
AcDbEntity
8
1
62
256
6
ByLayer
370
18
48
1
60
1
100
AcDbLine
10
0
20
0
30
0
11
594
21
0
31
0
39
0
210
0
220
0
230
1
0
LINE
5
7E
100
AcDbEntity
8
SK1
62
256
6
ByLayer
370
18
48
1
60
0
100
AcDbLine
10
-0.621383
20
5.406628
30
0
11
-0.621383
21
5.514776
31
0
39
0
210
0
220
0
230
1
0
LINE
5
80
100
AcDbEntity
8
SK1
62
256
6
ByLayer
370
18
48
1
60
0
100
AcDbLine
10
-8.025836
20
-1.599727
30
0
11
-8.025836
21
0.400273
31
0
39
0
210
0
220
0
230
1
0
LINE
5
81
100
AcDbEntity
8
1
62
256
6
ByLayer
370
18
48
1
60
0
100
AcDbLine
10
6.5
20
4.316805
30
0
11
6.5
21
-0.799727
31
0
39
0
210
0
220
0
230
1
0
LINE
5
82
100
AcDbEntity
8
SK1
62
256
6
ByLayer
370
18
48
1
60
0
100
AcDbLine
10
-4.8
20
6.200273
30
0
11
-3
21
6.200273
31
0
39
0
210
0
220
0
230
1
0
LINE
5
83
100
AcDbEntity
8
SK1
62
256
6
ByLayer
370
18
48
1
60
0
100
AcDbLine
10
-8.025836
20
0.400273
30
0
11
-8.725836
21
0.276844
31
0
39
0
210
0
220
0
230
1
0
LINE
5
84
100
AcDbEntity
8
SK1
62
256
6
ByLayer
370
18
48
1
60
0
100
AcDbLine
10
-8.725836
20
-1.476298
30
0
11
-8.725836
21
0.276844
31
0
39
0
210
0
220
0
230
1
0
LINE
5
85
100
AcDbEntity
8
SK1
62
256
6
ByLayer
370
18
48
1
60
0
100
AcDbLine
10
-3
20
5.612903
30
0
11
-3
21
6.200273
31
0
39
0
210
0
220
0
230
1
0
LINE
5
86
100
AcDbEntity
8
1
62
256
6
ByLayer
370
18
48
1
60
0
100
AcDbLine
10
-0.509151
20
6.200273
30
0
11
-0.862728
21
3.700273
31
0
39
0
210
0
220
0
230
1
0
LINE
5
87
100
AcDbEntity
8
SK1
62
256
6
ByLayer
370
18
48
1
60
0
100
AcDbLine
10
-0.798065
20
4.157361
30
0
11
-0.798065
21
5.612903
31
0
39
0
210
0
220
0
230
1
0
LINE
5
88
100
AcDbEntity
8
SK1
62
256
6
ByLayer
370
18
48
1
60
0
100
AcDbLine
10
-8.725836
20
-1.476298
30
0
11
-8.025836
21
-1.599727
31
0
39
0
210
0
220
0
230
1
0
LINE
5
89
100
AcDbEntity
8
SK1
62
256
6
ByLayer
370
18
48
1
60
0
100
AcDbLine
10
-0.798065
20
5.612903
30
0
11
-3
21
5.612903
31
0
39
0
210
0
220
0
230
1
0
LINE
5
8A
100
AcDbEntity
8
SK1
62
256
6
ByLayer
370
18
48
1
60
0
100
AcDbLine
10
-3.967741
20
3.300273
30
0
11
-3.810975
21
3.300273
31
0
39
0
210
0
220
0
230
1
0
LINE
5
8B
100
AcDbEntity
8
1
62
256
6
ByLayer
370
18
48
1
60
0
100
AcDbLine
10
-0.509151
20
6.200273
30
0
11
5.419474
21
6.200273
31
0
39
0
210
0
220
0
230
1
0
LINE
5
8C
100
AcDbEntity
8
1
62
256
6
ByLayer
370
18
48
1
60
0
100
AcDbLine
10
-0.862728
20
3.700273
30
0
11
5.682235
21
3.700273
31
0
39
0
210
0
220
0
230
1
0
LINE
5
8D
100
AcDbEntity
8
1
62
256
6
ByLayer
370
18
48
1
60
0
100
AcDbLine
10
5.419474
20
6.200273
30
0
11
5.682235
21
3.700273
31
0
39
0
210
0
220
0
230
1
0
LINE
5
8E
100
AcDbEntity
8
1
62
256
6
ByLayer
370
18
48
1
60
0
100
AcDbLine
10
5.609187
20
4.395369
30
0
11
6.5
21
4.316805
31
0
39
0
210
0
220
0
230
1
0
LINE
5
8F
100
AcDbEntity
8
1
62
256
6
ByLayer
370
18
48
1
60
0
100
AcDbLine
10
6.679964
20
-1.699727
30
0
11
5.682236
21
-1.699727
31
0
39
0
210
0
220
0
230
1
0
LINE
5
90
100
AcDbEntity
8
SK1
62
256
6
ByLayer
370
18
48
1
60
0
100
AcDbLine
10
-8.025836
20
-1.599727
30
0
11
-4.799983
21
-1.599727
31
0
39
0
210
0
220
0
230
1
0
LINE
5
91
100
AcDbEntity
8
1
62
256
6
ByLayer
370
18
48
1
60
0
100
AcDbLine
10
-0.862728
20
-1.392183
30
0
11
-0.862728
21
3.700273
31
0
39
0
210
0
220
0
230
1
0
LINE
5
92
100
AcDbEntity
8
SK1
62
256
6
ByLayer
370
18
48
1
60
0
100
AcDbLine
10
-0.621383
20
5.514776
30
0
11
-0.798065
21
5.612903
31
0
39
0
210
0
220
0
230
1
0
LINE
5
93
100
AcDbEntity
8
SK1
62
256
6
ByLayer
370
18
48
1
60
0
100
AcDbLine
10
-4.799983
20
0.400273
30
0
11
-8.025836
21
0.400273
31
0
39
0
210
0
220
0
230
1
0
LINE
5
94
100
AcDbEntity
8
1
62
256
6
ByLayer
370
18
48
1
60
0
100
AcDbLine
10
9.907619
20
-5.216156
30
0
11
10.2
21
-5.485721
31
0
39
0
210
0
220
0
230
1
0
LINE
5
95
100
AcDbEntity
8
SK1
62
256
6
ByLayer
370
18
48
1
60
0
100
AcDbLine
10
-0.210738
20
-8.987978
30
0
11
-0.111806
21
-9.072895
31
0
39
0
210
0
220
0
230
1
0
LINE
5
96
100
AcDbEntity
8
1
62
256
6
ByLayer
370
18
48
1
60
0
100
AcDbLine
10
4.142381
20
-9.848434
30
0
11
3.85
21
-10.117999
31
0
39
0
210
0
220
0
230
1
0
LINE
5
97
100
AcDbEntity
8
1
62
256
6
ByLayer
370
18
48
1
60
0
100
AcDbLine
10
8.859818
20
-4.599727
30
0
11
9.049348
21
-4.599727
31
0
39
0
210
0
220
0
230
1
0
LINE
5
98
100
AcDbEntity
8
SK1
62
256
6
ByLayer
370
18
48
1
60
0
100
AcDbLine
10
-3.967741
20
-4.599727
30
0
11
-3.810975
21
-4.599727
31
0
39
0
210
0
220
0
230
1
0
LINE
5
99
100
AcDbEntity
8
SK1
62
256
6
ByLayer
370
18
48
1
60
0
100
AcDbLine
10
-0.798065
20
-9.126767
30
0
11
-0.798065
21
-4.103764
31
0
39
0
210
0
220
0
230
1
0
LINE
5
9A
100
AcDbEntity
8
1
62
256
6
ByLayer
370
18
48
1
60
0
100
AcDbLine
10
5.775
20
-7.098496
30
0
11
5.775
21
-7.472067
31
0
39
0
210
0
220
0
230
1
0
LINE
5
9B
100
AcDbEntity
8
SK1
62
256
6
ByLayer
370
18
48
1
60
0
100
AcDbLine
10
-0.798065
20
-9.126767
30
0
11
-4.8
21
-8.915678
31
0
39
0
210
0
220
0
230
1
0
LINE
5
9C
100
AcDbEntity
8
1
62
256
6
ByLayer
370
18
48
1
60
0
100
AcDbLine
10
3.641882
20
-9.780897
30
0
11
3.878391
21
-9.822332
31
0
39
0
210
0
220
0
230
1
0
LINE
5
9D
100
AcDbEntity
8
1
62
256
6
ByLayer
370
18
48
1
60
0
100
AcDbLine
10
9.82127
20
-5.113911
30
0
11
9.872042
21
-5.097388
31
0
39
0
210
0
220
0
230
1
0
LINE
5
9E
100
AcDbEntity
8
1
62
256
6
ByLayer
370
18
48
1
60
0
100
AcDbLine
10
3.641882
20
-9.268509
30
0
11
3.641882
21
-9.780897
31
0
39
0
210
0
220
0
230
1
0
LINE
5
9F
100
AcDbEntity
8
1
62
256
6
ByLayer
370
18
48
1
60
0
100
AcDbLine
10
9.734208
20
-11.479751
30
0
11
4.177958
21
-10.506332
31
0
39
0
210
0
220
0
230
1
0
LINE
5
A0
100
AcDbEntity
8
1
62
256
6
ByLayer
370
18
48
1
60
0
100
AcDbLine
10
9.6
20
-3.401194
30
0
11
9.598241
21
-3.400756
31
0
39
0
210
0
220
0
230
1
0
LINE
5
A1
100
AcDbEntity
8
1
62
256
6
ByLayer
370
18
48
1
60
0
100
AcDbLine
10
9.058325
20
-10.423021
30
0
11
9.058325
21
-10.486436
31
0
39
0
210
0
220
0
230
1
0
LINE
5
A2
100
AcDbEntity
8
1
62
256
6
ByLayer
370
18
48
1
60
0
100
AcDbLine
10
9.6
20
-3.401194
30
0
11
9.6
21
-5.004881
31
0
39
0
210
0
220
0
230
1
0
LINE
5
A3
100
AcDbEntity
8
1
62
256
6
ByLayer
370
18
48
1
60
0
100
AcDbLine
10
9.599975
20
-5.075141
30
0
11
9.82127
21
-5.113911
31
0
39
0
210
0
220
0
230
1
0
LINE
5
A4
100
AcDbEntity
8
1
62
256
6
ByLayer
370
18
48
1
60
0
100
AcDbLine
10
3.981774
20
-9.608377
30
0
11
4.081852
21
-9.61459
31
0
39
0
210
0
220
0
230
1
0
LINE
5
A5
100
AcDbEntity
8
1
62
256
6
ByLayer
370
18
48
1
60
0
100
AcDbLine
10
9.599959
20
-5.049721
30
0
11
9.872042
21
-5.097388
31
0
39
0
210
0
220
0
230
1
0
LINE
5
A6
100
AcDbEntity
8
1
62
256
6
ByLayer
370
18
48
1
60
0
100
AcDbLine
10
9.6
20
-5.004881
30
0
11
9.6
21
-10.034838
31
0
39
0
210
0
220
0
230
1
0
LINE
5
A7
100
AcDbEntity
8
1
62
256
6
ByLayer
370
18
48
1
60
0
100
AcDbLine
10
3.981774
20
-9.608377
30
0
11
3.981774
21
-9.744221
31
0
39
0
210
0
220
0
230
1
0
LINE
5
A8
100
AcDbEntity
8
1
62
256
6
ByLayer
370
18
48
1
60
0
100
AcDbLine
10
8.274234
20
-3.070644
30
0
11
9.598241
21
-3.400756
31
0
39
0
210
0
220
0
230
1
0
LINE
5
A9
100
AcDbEntity
8
1
62
256
6
ByLayer
370
18
48
1
60
0
100
AcDbLine
10
9.6
20
-10.034838
30
0
11
9.058325
21
-10.486436
31
0
39
0
210
0
220
0
230
1
0
LINE
5
AA
100
AcDbEntity
8
1
62
256
6
ByLayer
370
18
48
1
60
0
100
AcDbLine
10
3.972411
20
-9.752123
30
0
11
3.878394
21
-9.822333
31
0
39
0
210
0
220
0
230
1
0
LINE
5
AB
100
AcDbEntity
8
1
62
256
6
ByLayer
370
18
48
1
60
0
100
AcDbLine
10
9.78498
20
-10.924098
30
0
11
4.22873
21
-9.950679
31
0
39
0
210
0
220
0
230
1
0
LINE
5
AC
100
AcDbEntity
8
1
62
256
6
ByLayer
370
18
48
1
60
0
100
AcDbLine
10
4.22873
20
-9.950679
30
0
11
4.177958
21
-10.506332
31
0
39
0
210
0
220
0
230
1
0
LINE
5
AD
100
AcDbEntity
8
1
62
256
6
ByLayer
370
18
48
1
60
0
100
AcDbLine
10
3.85
20
-10.117999
30
0
11
3.85
21
-9.817306
31
0
39
0
210
0
220
0
230
1
0
LINE
5
AE
100
AcDbEntity
8
1
62
256
6
ByLayer
370
18
48
1
60
0
100
AcDbLine
10
3.981774
20
-9.744221
30
0
11
3.972411
21
-9.752124
31
0
39
0
210
0
220
0
230
1
0
LINE
5
AF
100
AcDbEntity
8
1
62
256
6
ByLayer
370
18
48
1
60
0
100
AcDbLine
10
-4.8
20
-9.634571
30
0
11
-4.8
21
-8.915678
31
0
39
0
210
0
220
0
230
1
0
LINE
5
B0
100
AcDbEntity
8
1
62
256
6
ByLayer
370
18
48
1
60
0
100
AcDbLine
10
9.78498
20
-10.924098
30
0
11
9.734208
21
-11.479751
31
0
39
0
210
0
220
0
230
1
0
LINE
5
B1
100
AcDbEntity
8
1
62
256
6
ByLayer
370
18
48
1
60
0
100
AcDbLine
10
9.058325
20
-10.486436
30
0
11
4.081852
21
-9.61459
31
0
39
0
210
0
220
0
230
1
0
LINE
5
B2
100
AcDbEntity
8
1
62
256
6
ByLayer
370
18
48
1
60
0
100
AcDbLine
10
4.142381
20
-9.848434
30
0
11
4.142381
21
-9.625169
31
0
39
0
210
0
220
0
230
1
0
LINE
5
B3
100
AcDbEntity
8
1
62
256
6
ByLayer
370
18
48
1
60
0
100
AcDbLine
10
9.907619
20
-5.216156
30
0
11
9.907619
21
-10.821853
31
0
39
0
210
0
220
0
230
1
0
LINE
5
B4
100
AcDbEntity
8
1
62
256
6
ByLayer
370
18
48
1
60
0
100
AcDbLine
10
10.2
20
-5.485721
30
0
11
10.2
21
-11.091418
31
0
39
0
210
0
220
0
230
1
0
LINE
5
B5
100
AcDbEntity
8
SK1
62
256
6
ByLayer
370
18
48
1
60
0
100
AcDbLine
10
-0.621383
20
-9.149411
30
0
11
-0.621383
21
-6.504587
31
0
39
0
210
0
220
0
230
1
0
LINE
5
B6
100
AcDbEntity
8
1
62
256
6
ByLayer
370
18
48
1
60
0
100
AcDbLine
10
2.186135
20
-9.091184
30
0
11
2.186135
21
-9.845132
31
0
39
0
210
0
220
0
230
1
0
LINE
5
B7
100
AcDbEntity
8
SK1
62
256
6
ByLayer
370
18
48
1
60
0
100
AcDbLine
10
-0.111806
20
-9.072895
30
0
11
0.029063
21
-9.098467
31
0
39
0
210
0
220
0
230
1
0
LINE
5
B8
100
AcDbEntity
8
1
62
256
6
ByLayer
370
18
48
1
60
0
100
AcDbLine
10
1.516122
20
-9.927039
30
0
11
2.186135
21
-9.845132
31
0
39
0
210
0
220
0
230
1
0
LINE
5
B9
100
AcDbEntity
8
1
62
256
6
ByLayer
370
18
48
1
60
0
100
AcDbLine
10
9.403297
20
-9.98697
30
0
11
9.6
21
-10.034838
31
0
39
0
210
0
220
0
230
1
0
LINE
5
BA
100
AcDbEntity
8
1
62
256
6
ByLayer
370
18
48
1
60
0
100
AcDbLine
10
9.907619
20
-10.821853
30
0
11
10.2
21
-11.091418
31
0
39
0
210
0
220
0
230
1
0
LINE
5
BB
100
AcDbEntity
8
SK1
62
256
6
ByLayer
370
18
48
1
60
0
100
AcDbLine
10
-0.621383
20
-9.149411
30
0
11
-0.798065
21
-9.126767
31
0
39
0
210
0
220
0
230
1
0
LINE
5
BC
100
AcDbEntity
8
1
62
256
6
ByLayer
370
18
48
1
60
0
100
AcDbLine
10
-0.862728
20
-1.392183
30
0
11
5.682235
21
-1.968498
31
0
39
0
210
0
220
0
230
1
0
LINE
5
BD
100
AcDbEntity
8
1
62
256
6
ByLayer
370
18
48
1
60
0
100
AcDbLine
10
5.682235
20
3.700273
30
0
11
5.682235
21
-1.968498
31
0
39
0
210
0
220
0
230
1
0
LINE
5
BE
100
AcDbEntity
8
SK1
62
256
6
ByLayer
370
18
48
1
60
0
100
AcDbLine
10
-4.8
20
-8.915678
30
0
11
-4.8
21
6.200273
31
0
39
0
210
0
220
0
230
1
0
LINE
5
BF
100
AcDbEntity
8
SK1
62
256
6
ByLayer
370
18
48
1
60
0
100
AcDbLine
10
-3.967741
20
-4.599727
30
0
11
-3.967741
21
3.300273
31
0
39
0
210
0
220
0
230
1
0
LINE
5
C0
100
AcDbEntity
8
SK1
62
256
6
ByLayer
370
18
48
1
60
0
100
AcDbLine
10
-1.632259
20
3.300273
30
0
11
-1.632259
21
-4.599727
31
0
39
0
210
0
220
0
230
1
0
LINE
5
C1
100
AcDbEntity
8
SK1
62
256
6
ByLayer
370
18
48
1
60
0
100
AcDbLine
10
-3.810975
20
3.300273
30
0
11
-3.810975
21
-4.599727
31
0
39
0
210
0
220
0
230
1
0
LINE
5
C2
100
AcDbEntity
8
80
62
256
6
ByLayer
370
13
48
1
60
0
100
AcDbLine
10
0
20
0
30
0
11
-4
21
0
31
0
39
0
210
0
220
0
230
1
0
LINE
5
C3
100
AcDbEntity
8
4
62
256
6
ByLayer
370
13
48
0.05
60
0
100
AcDbLine
10
0
20
0
30
0
11
10.2
21
0
31
0
39
0
210
0
220
0
230
1
0
MTEXT
5
101
100
AcDbEntity
8
SK6
62
256
6
ByLayer
370
18
48
1
60
0
100
AcDbMText
10
13.034321
20
-22.406053
30
0
210
0
220
0
230
1
1
\W0.7053;BR20-AB-CC06F-10
40
3
41
0
44
1.084337
50
0
71
7
72
5
7
iso_b_vert
0
DIMENSION
5
10F
100
AcDbEntity
8
SK2
62
256
6
ByLayer
370
13
48
1
60
0
100
AcDbDimension
2
DimnDraft3D1
10
0
20
-30.050487
30
0
11
2.032895
21
-30.050487
31
0
70
32
71
5
72
1
41
1
210
0
220
0
230
1
3
Standard
100
AcDbAlignedDimension
13
10.2
23
-13.485742
33
0
14
0
24
-2
34
0
50
0
100
AcDbRotatedDimension
1001
ACAD
1000
DSTYLE
1002
{
1070
   279
1070
     0
1070
   172
1070
     1
1070
   173
1070
     1
1070
   340
1005
102
1070
   271
1070
     1
1070
    77
1070
     1
1070
    73
1070
     0
1070
   171
1070
     4
1070
   274
1070
     4
1070
   177
1070
     7
1070
   176
1070
     7
1070
   178
1070
     7
1070
    41
1041
3.175
1070
   147
1041
1.5
1070
    42
1041
2.0
1070
    44
1041
2.0
1070
   140
1041
3.0
1070
   343
1005
0
1070
   344
1005
0
1002
}
0
DIMENSION
5
11A
100
AcDbEntity
8
2
62
256
6
ByLayer
370
13
48
1
60
0
100
AcDbDimension
2
DimnDraft3D2
10
28.907199
20
11.486285
30
0
11
28.907199
21
18.161285
31
0
70
32
71
5
72
1
41
1
210
0
220
0
230
1
3
Standard
100
AcDbAlignedDimension
13
12.2
23
-11.485742
33
0
14
11.803125
24
11.486285
34
0
50
90
100
AcDbRotatedDimension
1001
ACAD
1000
DSTYLE
1002
{
1070
    74
1070
     0
1070
   279
1070
     0
1070
   172
1070
     1
1070
   173
1070
     1
1070
   340
1005
102
1070
   271
1070
     1
1070
    77
1070
     1
1070
    73
1070
     0
1070
   171
1070
     4
1070
   274
1070
     4
1070
   177
1070
     7
1070
   176
1070
     7
1070
   178
1070
     7
1070
    41
1041
3.175
1070
   147
1041
1.5
1070
    42
1041
2.0
1070
    44
1041
2.0
1070
   140
1041
3.0
1070
   343
1005
0
1070
   344
1005
0
1002
}
0
DIMENSION
5
124
100
AcDbEntity
8
2
62
256
6
ByLayer
370
13
48
1
60
0
100
AcDbDimension
2
DimnDraft3D3
10
11.2
20
-11.485742
30
0
11
17.921418
21
-3.764324
31
0
70
34
71
5
72
1
41
1
210
0
220
0
230
1
3
Standard
100
AcDb2LineAngularDimension
13
10.2
23
-5.485721
33
0
14
10.2
24
-11.091418
34
0
15
10.2
25
-11.485742
35
0
16
15.800097
26
-5.885644
36
0
40
0
0
ENDSEC
0
SECTION
2
OBJECTS
0
DICTIONARY
5
193
330
0
100
AcDbDictionary
280
0
281
1
3
ACAD_GROUP
350
194
3
ACAD_GROUP
350
195
3
ACAD_MLINESTYLE
350
196
0
DICTIONARY
5
194
330
0
100
AcDbDictionary
280
0
281
1
0
DICTIONARY
5
195
330
0
100
AcDbDictionary
280
0
281
1
3
<200939244NDI000_00>
350
12E
3
<200939244NDI000_00>3
350
12F
3
<200941284MOD000_00>
350
12D
0
DICTIONARY
5
196
330
0
100
AcDbDictionary
280
0
281
1
3
Standard
350
18
0
GROUP
5
12E
330
195
100
AcDbGroup
300

70
0
71
1
340
73
340
75
340
76
340
77
0
GROUP
5
12F
330
195
100
AcDbGroup
300

70
0
71
1
340
7A
340
7B
340
7C
340
7D
0
GROUP
5
12D
330
195
100
AcDbGroup
300

70
0
71
1
340
6C
340
6E
340
70
340
71
340
73
340
75
340
76
340
77
340
78
340
79
340
7A
340
7B
340
7C
340
7D
340
7E
340
80
340
81
340
82
340
83
340
84
340
85
340
86
340
87
340
88
340
89
340
8A
340
8B
340
8C
340
8D
340
8E
340
8F
340
90
340
91
340
92
340
93
340
94
340
95
340
96
340
97
340
98
340
99
340
9A
340
9B
340
9C
340
9D
340
9E
340
9F
340
A0
340
A1
340
A2
340
A3
340
A4
340
A5
340
A6
340
A7
340
A8
340
A9
340
AA
340
AB
340
AC
340
AD
340
AE
340
AF
340
B0
340
B1
340
B2
340
B3
340
B4
340
B5
340
B6
340
B7
340
B8
340
B9
340
BA
340
BB
340
BC
340
BD
340
BE
340
BF
340
C0
340
C1
340
C2
340
C3
340
C5
340
C6
340
C7
340
C8
340
C9
340
CA
340
CB
340
CC
340
CD
340
CE
340
CF
340
D0
340
D1
340
D2
340
D3
340
D4
340
D5
340
D6
340
D7
340
D8
340
D9
340
DA
340
DB
340
DC
340
DD
340
DE
340
DF
340
E0
340
E1
340
E2
340
E3
340
E4
340
E5
340
E6
340
E7
340
E8
340
E9
340
EA
340
EB
340
EC
340
ED
340
EE
340
EF
340
F0
340
F1
340
F2
340
F3
340
F4
340
F5
340
F6
340
F7
340
F8
340
F9
340
FA
340
FB
340
FC
340
FD
340
FE
340
FF
340
100
340
73
340
75
340
76
340
77
340
7A
340
7B
340
7C
340
7D
340
101
340
10F
340
11A
340
124
0
MLINESTYLE
5
18
330
196
100
AcDbMlineStyle
2
Standard
70
0
3

62
256
51
90
52
90
71
2
49
-0.5
62
256
6
ByLayer
49
0.5
62
256
6
ByLayer
0
RASTERVARIABLES
5
180
330

100
AcDbRasterVariables
90
0
70
1
71
1
72
1
0
ENDSEC
0
EOF
