0
SECTION
2
HEADER
9
$ACADVER
1
AC1015
9
$DWGCODEPAGE
3
ANSI_1252
9
$HANDSEED
5
4ac
9
$ANGBASE
50
0
9
$ANGDIR
70
0
9
$ATTMODE
70
1
9
$AUNITS
70
0
9
$AUPREC
70
0
9
$CECOLOR
62
256
9
$CELTSCALE
40
1
9
$CELTYPE
6
ByLayer
9
$CELWEIGHT
370
18
9
$CLAYER
8
0
9
$CMLJUST
70
0
9
$CMLSCALE
40
1
9
$CMLSTYLE
2
Standard
9
$DIMSTYLE
2
Standard
9
$TEXTSIZE
40
0.2
9
$TEXTSTYLE
7
Standard
9
$LUNITS
70
2
9
$LUPREC
70
4
9
$EXTNAMES
290
1
9
$INSUNITS
70
4
9
$LTSCALE
40
1
9
$LWDISPLAY
290
1
9
$PDMODE
70
0
9
$PDSIZE
40
0
9
$PLINEGEN
70
0
0
ENDSEC
0
SECTION
2
CLASSES
0
CLASS
1
RASTERVARIABLES
2
AcDbRasterVariables
3
ISM
90
0
280
0
281
0
0
ENDSEC
0
SECTION
2
TABLES
0
TABLE
2
VPORT
5
4a2
100
AcDbSymbolTable
0
VPORT
5
1
100
AcDbSymbolTableRecord
100
AcDbViewportTableRecord
2
*Active
70
0
10
0
20
0
11
1
21
1
12
-1
22
1
13
0
23
0
14
0.5
24
0.5
15
10
25
10
16
0
26
0
36
1
17
0
27
0
37
0
0
ENDTAB
0
TABLE
2
LTYPE
5
4a3
100
AcDbSymbolTable
0
LTYPE
5
14
100
AcDbSymbolTableRecord
100
AcDbLinetypeTableRecord
70
0
2
ByBlock
3

72
65
73
0
40
0
0
LTYPE
5
15
100
AcDbSymbolTableRecord
100
AcDbLinetypeTableRecord
70
0
2
ByLayer
3

72
65
73
0
40
0
0
LTYPE
5
16
100
AcDbSymbolTableRecord
100
AcDbLinetypeTableRecord
70
0
2
CONTINUOUS
3
Solid line
72
65
73
0
40
0
0
LTYPE
5
6A
100
AcDbSymbolTableRecord
100
AcDbLinetypeTableRecord
70
0
2
CENTER
3
____ _ ____ _ ____ _ ____
72
65
73
4
40
47.5
49
22
74
0
49
-8.5
74
0
49
8.5
74
0
49
-8.5
74
0
0
LTYPE
5
6B
100
AcDbSymbolTableRecord
100
AcDbLinetypeTableRecord
70
0
2
DASHED
3
__ __ __ __ __ __ __ __ __
72
65
73
2
40
25.72
49
12.86
74
0
49
-12.86
74
0
0
ENDTAB
0
TABLE
2
LAYER
5
4a4
100
AcDbSymbolTable
0
LAYER
5
10
100
AcDbSymbolTableRecord
100
AcDbLayerTableRecord
2
0
70
0
62
7
6
CONTINUOUS
290
1
370
-3
390
0
0
LAYER
5
6D
100
AcDbSymbolTableRecord
100
AcDbLayerTableRecord
2
80
70
0
62
-6
6
CONTINUOUS
290
1
370
-3
390
0
0
LAYER
5
6F
100
AcDbSymbolTableRecord
100
AcDbLayerTableRecord
2
81
70
0
62
-3
6
CONTINUOUS
290
1
370
-3
390
0
0
LAYER
5
78
100
AcDbSymbolTableRecord
100
AcDbLayerTableRecord
2
1
70
0
62
4
6
CONTINUOUS
290
1
370
-3
390
0
0
LAYER
5
80
100
AcDbSymbolTableRecord
100
AcDbLayerTableRecord
2
4
70
0
62
-2
6
CENTER
290
1
370
-3
390
0
0
LAYER
5
3F6
100
AcDbSymbolTableRecord
100
AcDbLayerTableRecord
2
2
70
0
62
7
6
CONTINUOUS
290
1
370
-3
390
0
0
LAYER
5
48c
100
AcDbSymbolTableRecord
100
AcDbLayerTableRecord
2
SK1
70
0
62
4
6
CONTINUOUS
290
1
370
-3
390
0
0
LAYER
5
48d
100
AcDbSymbolTableRecord
100
AcDbLayerTableRecord
2
SK4
70
0
62
2
6
CENTER
290
1
370
-3
390
0
0
LAYER
5
48e
100
AcDbSymbolTableRecord
100
AcDbLayerTableRecord
2
SK6
70
0
62
5
6
CONTINUOUS
290
1
370
-3
390
0
0
LAYER
5
48f
100
AcDbSymbolTableRecord
100
AcDbLayerTableRecord
2
SK2
70
0
62
7
6
CONTINUOUS
290
1
370
-3
390
0
0
ENDTAB
0
TABLE
2
STYLE
5
4a5
100
AcDbSymbolTable
0
STYLE
5
11
100
AcDbSymbolTableRecord
100
AcDbTextStyleTableRecord
2
Standard
3
txt
70
0
71
0
40
0
41
1
42
0
50
0
0
STYLE
5
3F2
100
AcDbSymbolTableRecord
100
AcDbTextStyleTableRecord
2
iso_b_vert
3
simplex.shx
70
0
71
0
40
0
41
1
42
0
50
0
0
STYLE
5
3F3
100
AcDbSymbolTableRecord
100
AcDbTextStyleTableRecord
2
DWGDirectTextStyle
3
simplex
70
0
71
0
40
0
41
1
42
0
50
0
0
ENDTAB
0
TABLE
2
DIMSTYLE
5
4a6
100
AcDbSymbolTable
100
AcDbDimStyleTable
0
DIMSTYLE
105
27
100
AcDbSymbolTableRecord
100
AcDbDimStyleTableRecord
2
Standard
70
0
3
<>
41
0.18
42
0.0625
44
0.18
140
0.18
147
0.09
73
0
74
0
77
1
271
2
275
0
278
52
280
0
340
11
0
ENDTAB
0
TABLE
2
VIEW
5
4a7
100
AcDbSymbolTable
0
ENDTAB
0
TABLE
2
UCS
5
4a8
100
AcDbSymbolTable
0
ENDTAB
0
TABLE
2
APPID
5
4a9
100
AcDbSymbolTable
0
APPID
5
12
100
AcDbSymbolTableRecord
100
AcDbRegAppTableRecord
2
ACAD
70
0
0
ENDTAB
0
TABLE
2
BLOCK_RECORD
5
4aa
100
AcDbSymbolTable
0
BLOCK_RECORD
5
1F
100
AcDbSymbolTableRecord
100
AcDbBlockTableRecord
2
*Model_Space
340
0
70
0
0
BLOCK_RECORD
5
1B
100
AcDbSymbolTableRecord
100
AcDbBlockTableRecord
2
*Paper_Space
340
0
70
0
0
BLOCK_RECORD
5
23
100
AcDbSymbolTableRecord
100
AcDbBlockTableRecord
2
*Paper_Space0
340
0
70
0
0
BLOCK_RECORD
5
3F7
100
AcDbSymbolTableRecord
100
AcDbBlockTableRecord
2
DimnDraft3D1
340
0
70
0
0
BLOCK_RECORD
5
403
100
AcDbSymbolTableRecord
100
AcDbBlockTableRecord
2
DimnDraft3D2
340
0
70
0
0
BLOCK_RECORD
5
40D
100
AcDbSymbolTableRecord
100
AcDbBlockTableRecord
2
DimnDraft3D3
340
0
70
0
0
BLOCK_RECORD
5
417
100
AcDbSymbolTableRecord
100
AcDbBlockTableRecord
2
DimnDraft3D4
340
0
70
0
0
BLOCK_RECORD
5
421
100
AcDbSymbolTableRecord
100
AcDbBlockTableRecord
2
DimnDraft3D5
340
0
70
0
0
ENDTAB
0
ENDSEC
0
SECTION
2
BLOCKS
0
BLOCK
5
20
100
AcDbEntity
8
0
100
AcDbBlockBegin
2
*Model_Space
70
0
10
0
20
0
30
0
3
*Model_Space
0
ENDBLK
5
21
100
AcDbEntity
8
0
100
AcDbBlockEnd
0
BLOCK
5
1C
100
AcDbEntity
8
0
100
AcDbBlockBegin
2
*Paper_Space
70
0
10
0
20
0
30
0
3
*Paper_Space
0
ENDBLK
5
1D
100
AcDbEntity
8
0
100
AcDbBlockEnd
0
BLOCK
5
24
100
AcDbEntity
8
0
100
AcDbBlockBegin
2
*Paper_Space0
70
0
10
0
20
0
30
0
3
*Paper_Space0
0
ENDBLK
5
25
100
AcDbEntity
8
0
100
AcDbBlockEnd
0
BLOCK
5
400
100
AcDbEntity
8
0
100
AcDbBlockBegin
2
DimnDraft3D1
70
0
10
0
20
0
30
0
3
DimnDraft3D1
0
MTEXT
5
3F8
100
AcDbEntity
8
SK2
62
256
6
ByLayer
370
18
48
1
60
0
100
AcDbMText
10
-74.25
20
-2.139474
30
0
210
0
220
0
230
1
1
\W0.8132;%%c 80
40
3
41
0
44
1.084337
50
90
71
7
72
5
7
iso_b_vert
0
MTEXT
5
3FA
100
AcDbEntity
8
SK2
62
256
6
ByLayer
370
18
48
1
60
0
100
AcDbMText
10
-74.25
20
-4.507895
30
0
210
0
220
0
230
1
1
\W0.3160; 
40
3
41
0
44
1.084337
50
90
71
7
72
5
7
iso_b_vert
0
LINE
5
3FB
100
AcDbEntity
8
SK2
62
256
6
ByLayer
370
13
48
1
60
0
100
AcDbLine
10
-1.7
20
40
30
0
11
-75.5
21
40
31
0
39
0
210
0
220
0
230
1
0
LINE
5
3FC
100
AcDbEntity
8
SK2
62
256
6
ByLayer
370
13
48
1
60
0
100
AcDbLine
10
-1.7
20
-40
30
0
11
-75.5
21
-40
31
0
39
0
210
0
220
0
230
1
0
LINE
5
3FD
100
AcDbEntity
8
SK2
62
256
6
ByLayer
370
13
48
1
60
0
100
AcDbLine
10
-73.5
20
40
30
0
11
-73.5
21
-40
31
0
39
0
210
0
220
0
230
1
0
SOLID
5
3FE
100
AcDbEntity
8
SK2
62
256
6
ByLayer
370
13
48
1
60
0
100
AcDbTrace
10
-73.5
20
40
30
0
11
-73.082003
21
36.825002
31
0
12
-73.917997
22
36.824998
32
0
13
-73.5
23
40
33
0
39
0
210
0
220
0
230
1
0
SOLID
5
3FF
100
AcDbEntity
8
SK2
62
256
6
ByLayer
370
13
48
1
60
0
100
AcDbTrace
10
-73.5
20
-40
30
0
11
-73.917997
21
-36.825002
31
0
12
-73.082003
22
-36.824998
32
0
13
-73.5
23
-40
33
0
39
0
210
0
220
0
230
1
0
ENDBLK
5
401
100
AcDbEntity
8
0
100
AcDbBlockEnd
0
BLOCK
5
40A
100
AcDbEntity
8
0
100
AcDbBlockBegin
2
DimnDraft3D2
70
0
10
0
20
0
30
0
3
DimnDraft3D2
0
MTEXT
5
404
100
AcDbEntity
8
2
62
256
6
ByLayer
370
18
48
1
60
0
100
AcDbMText
10
150.75
20
0.315789
30
0
210
0
220
0
230
1
1
\W0.3160; 
40
3
41
0
44
1.084337
50
90
71
7
72
5
7
iso_b_vert
0
LINE
5
405
100
AcDbEntity
8
2
62
256
6
ByLayer
370
13
48
1
60
0
100
AcDbLine
10
117
20
94.5
30
0
11
153.5
21
94.5
31
0
39
0
210
0
220
0
230
1
0
LINE
5
406
100
AcDbEntity
8
2
62
256
6
ByLayer
370
13
48
1
60
0
100
AcDbLine
10
116.196755
20
-94.5
30
0
11
153.5
21
-94.5
31
0
39
0
210
0
220
0
230
1
0
LINE
5
407
100
AcDbEntity
8
2
62
256
6
ByLayer
370
13
48
1
60
0
100
AcDbLine
10
151.5
20
94.5
30
0
11
151.5
21
-94.5
31
0
39
0
210
0
220
0
230
1
0
SOLID
5
408
100
AcDbEntity
8
2
62
256
6
ByLayer
370
13
48
1
60
0
100
AcDbTrace
10
151.5
20
94.5
30
0
11
151.917997
21
91.325002
31
0
12
151.082003
22
91.324998
32
0
13
151.5
23
94.5
33
0
39
0
210
0
220
0
230
1
0
SOLID
5
409
100
AcDbEntity
8
2
62
256
6
ByLayer
370
13
48
1
60
0
100
AcDbTrace
10
151.5
20
-94.5
30
0
11
151.082003
21
-91.325002
31
0
12
151.917997
22
-91.324998
32
0
13
151.5
23
-94.5
33
0
39
0
210
0
220
0
230
1
0
ENDBLK
5
40B
100
AcDbEntity
8
0
100
AcDbBlockEnd
0
BLOCK
5
414
100
AcDbEntity
8
0
100
AcDbBlockBegin
2
DimnDraft3D3
70
0
10
0
20
0
30
0
3
DimnDraft3D3
0
MTEXT
5
40E
100
AcDbEntity
8
2
62
256
6
ByLayer
370
18
48
1
60
0
100
AcDbMText
10
130.221605
20
77.954216
30
0
210
0
220
0
230
1
1
\W0.6258;84%%d
40
3
41
0
44
1.084337
50
48.0000000000001
71
7
72
5
7
iso_b_vert
0
LINE
5
40F
100
AcDbEntity
8
2
62
256
6
ByLayer
370
13
48
1
60
0
100
AcDbLine
10
116.408153
20
81.147029
30
0
11
117.631463
21
69.508007
31
0
39
0
210
0
220
0
230
1
0
LINE
5
410
100
AcDbEntity
8
2
62
256
6
ByLayer
370
13
48
1
60
0
100
AcDbLine
10
117
20
94.5
30
0
11
140.134355
21
94.5
31
0
39
0
210
0
220
0
230
1
0
ARC
5
411
100
AcDbEntity
8
2
62
256
6
ByLayer
370
13
48
1
60
0
100
AcDbCircle
39
0
10
115.004699
20
94.5
30
0
40
23.1296555307457
210
0
220
0
230
1
100
AcDbArc
50
276
51
0
0
SOLID
5
412
100
AcDbEntity
8
2
62
256
6
ByLayer
370
13
48
1
60
0
100
AcDbTrace
10
117.422406
20
71.497051
30
0
11
120.508882
21
72.35087
31
0
12
120.6247
22
71.522938
32
0
13
117.422406
23
71.497051
33
0
39
0
210
0
220
0
230
1
0
SOLID
5
413
100
AcDbEntity
8
2
62
256
6
ByLayer
370
13
48
1
60
0
100
AcDbTrace
10
138.134355
20
94.5
30
0
11
138.44334
21
91.312546
31
0
12
137.607837
22
91.341181
32
0
13
138.134355
23
94.5
33
0
39
0
210
0
220
0
230
1
0
ENDBLK
5
415
100
AcDbEntity
8
0
100
AcDbBlockEnd
0
BLOCK
5
41E
100
AcDbEntity
8
0
100
AcDbBlockBegin
2
DimnDraft3D4
70
0
10
0
20
0
30
0
3
DimnDraft3D4
0
MTEXT
5
418
100
AcDbEntity
8
2
62
256
6
ByLayer
370
18
48
1
60
0
100
AcDbMText
10
56.146053
20
119.25
30
0
210
0
220
0
230
1
1
\W0.5711;115
40
3
41
0
44
1.084337
50
0
71
7
72
5
7
iso_b_vert
0
LINE
5
419
100
AcDbEntity
8
2
62
256
6
ByLayer
370
13
48
1
60
0
100
AcDbLine
10
0
20
41.6925
30
0
11
0
21
120.5
31
0
39
0
210
0
220
0
230
1
0
LINE
5
41A
100
AcDbEntity
8
2
62
256
6
ByLayer
370
13
48
1
60
0
100
AcDbLine
10
115
20
96.5
30
0
11
115
21
120.5
31
0
39
0
210
0
220
0
230
1
0
LINE
5
41B
100
AcDbEntity
8
2
62
256
6
ByLayer
370
13
48
1
60
0
100
AcDbLine
10
0
20
118.5
30
0
11
115
21
118.5
31
0
39
0
210
0
220
0
230
1
0
SOLID
5
41C
100
AcDbEntity
8
2
62
256
6
ByLayer
370
13
48
1
60
0
100
AcDbTrace
10
0
20
118.5
30
0
11
3.174998
21
118.917997
31
0
12
3.175002
22
118.082003
32
0
13
0
23
118.5
33
0
39
0
210
0
220
0
230
1
0
SOLID
5
41D
100
AcDbEntity
8
2
62
256
6
ByLayer
370
13
48
1
60
0
100
AcDbTrace
10
115
20
118.5
30
0
11
111.825002
21
118.082003
31
0
12
111.824998
22
118.917997
32
0
13
115
23
118.5
33
0
39
0
210
0
220
0
230
1
0
ENDBLK
5
41F
100
AcDbEntity
8
0
100
AcDbBlockEnd
0
BLOCK
5
428
100
AcDbEntity
8
0
100
AcDbBlockBegin
2
DimnDraft3D5
70
0
10
0
20
0
30
0
3
DimnDraft3D5
0
MTEXT
5
422
100
AcDbEntity
8
SK2
62
256
6
ByLayer
370
18
48
1
60
0
100
AcDbMText
10
31.771053
20
134.25
30
0
210
0
220
0
230
1
1
\W0.6255;163
40
3
41
0
44
1.084337
50
0
71
7
72
5
7
iso_b_vert
0
LINE
5
423
100
AcDbEntity
8
SK2
62
256
6
ByLayer
370
13
48
1
60
0
100
AcDbLine
10
-48
20
27.499074
30
0
11
-48
21
135.5
31
0
39
0
210
0
220
0
230
1
0
LINE
5
424
100
AcDbEntity
8
SK2
62
256
6
ByLayer
370
13
48
1
60
0
100
AcDbLine
10
115
20
96.5
30
0
11
115
21
135.5
31
0
39
0
210
0
220
0
230
1
0
LINE
5
425
100
AcDbEntity
8
SK2
62
256
6
ByLayer
370
13
48
1
60
0
100
AcDbLine
10
-48
20
133.5
30
0
11
115
21
133.5
31
0
39
0
210
0
220
0
230
1
0
SOLID
5
426
100
AcDbEntity
8
SK2
62
256
6
ByLayer
370
13
48
1
60
0
100
AcDbTrace
10
-48
20
133.5
30
0
11
-44.825002
21
133.917997
31
0
12
-44.824998
22
133.082003
32
0
13
-48
23
133.5
33
0
39
0
210
0
220
0
230
1
0
SOLID
5
427
100
AcDbEntity
8
SK2
62
256
6
ByLayer
370
13
48
1
60
0
100
AcDbTrace
10
115
20
133.5
30
0
11
111.825002
21
133.082003
31
0
12
111.824998
22
133.917997
32
0
13
115
23
133.5
33
0
39
0
210
0
220
0
230
1
0
ENDBLK
5
429
100
AcDbEntity
8
0
100
AcDbBlockEnd
0
ENDSEC
0
SECTION
2
ENTITIES
0
ARC
5
21F
100
AcDbEntity
8
SK1
62
256
6
ByLayer
370
18
48
1
60
0
100
AcDbCircle
39
0
10
-0.6
20
29.6
30
0
40
1.00000000013804
210
0
220
0
230
1
100
AcDbArc
50
293.578178
51
306.869898
0
ARC
5
220
100
AcDbEntity
8
SK1
62
256
6
ByLayer
370
18
48
1
60
0
100
AcDbCircle
39
0
10
-0.6
20
-29.6
30
0
40
0.99999999997421
210
0
220
0
230
1
100
AcDbArc
50
53.130102
51
66.421822
0
ARC
5
221
100
AcDbEntity
8
SK1
62
256
6
ByLayer
370
18
48
1
60
0
100
AcDbCircle
39
0
10
-1.977316
20
27.527296
30
0
40
0.222694617214769
210
0
220
0
230
1
100
AcDbArc
50
180.556957
51
186.678043
0
ARC
5
222
100
AcDbEntity
8
SK1
62
256
6
ByLayer
370
18
48
1
60
0
100
AcDbCircle
39
0
10
-2.000136
20
27.524624
30
0
40
0.199718393027132
210
0
220
0
230
1
100
AcDbArc
50
186.678043
51
193.50174
0
ARC
5
223
100
AcDbEntity
8
SK1
62
256
6
ByLayer
370
18
48
1
60
0
100
AcDbCircle
39
0
10
-2.003963
20
27.523705
30
0
40
0.195783165430874
210
0
220
0
230
1
100
AcDbArc
50
193.50174
51
200.340207
0
ARC
5
224
100
AcDbEntity
8
SK1
62
256
6
ByLayer
370
18
48
1
60
0
100
AcDbCircle
39
0
10
-1.999944
20
27.525195
30
0
40
0.200069557356393
210
0
220
0
230
1
100
AcDbArc
50
200.340207
51
207.0325
0
ARC
5
225
100
AcDbEntity
8
SK1
62
256
6
ByLayer
370
18
48
1
60
0
100
AcDbCircle
39
0
10
-1.999402
20
27.525471
30
0
40
0.20067787221344
210
0
220
0
230
1
100
AcDbArc
50
207.0325
51
213.752916
0
ARC
5
226
100
AcDbEntity
8
SK1
62
256
6
ByLayer
370
18
48
1
60
0
100
AcDbCircle
39
0
10
-2.000569
20
27.524691
30
0
40
0.199273567637455
210
0
220
0
230
1
100
AcDbArc
50
213.752916
51
220.520582
0
ARC
5
227
100
AcDbEntity
8
SK1
62
256
6
ByLayer
370
18
48
1
60
0
100
AcDbCircle
39
0
10
-1.999813
20
27.525338
30
0
40
0.200269053603838
210
0
220
0
230
1
100
AcDbArc
50
220.520582
51
227.245005
0
ARC
5
228
100
AcDbEntity
8
SK1
62
256
6
ByLayer
370
18
48
1
60
0
100
AcDbCircle
39
0
10
-2.000129
20
27.524996
30
0
40
0.199803609397718
210
0
220
0
230
1
100
AcDbArc
50
227.245005
51
233.985057
0
ARC
5
229
100
AcDbEntity
8
SK1
62
256
6
ByLayer
370
18
48
1
60
0
100
AcDbCircle
39
0
10
-2.000245
20
27.524836
30
0
40
0.19960555345007
210
0
220
0
230
1
100
AcDbArc
50
233.985057
51
240.738139
0
ARC
5
22A
100
AcDbEntity
8
SK1
62
256
6
ByLayer
370
18
48
1
60
0
100
AcDbCircle
39
0
10
-1.999544
20
27.526087
30
0
40
0.201039423692374
210
0
220
0
230
1
100
AcDbArc
50
240.738139
51
247.443166
0
ARC
5
22B
100
AcDbEntity
8
SK1
62
256
6
ByLayer
370
18
48
1
60
0
100
AcDbCircle
39
0
10
-2.00198
20
27.520224
30
0
40
0.194690646729771
210
0
220
0
230
1
100
AcDbArc
50
247.443166
51
259.012855
0
ARC
5
22C
100
AcDbEntity
8
SK1
62
256
6
ByLayer
370
18
48
1
60
0
100
AcDbCircle
39
0
10
-1.997903
20
27.541223
30
0
40
0.216081713347334
210
0
220
0
230
1
100
AcDbArc
50
259.012855
51
269.443859
0
ARC
5
22D
100
AcDbEntity
8
SK1
62
256
6
ByLayer
370
18
48
1
60
0
100
AcDbCircle
39
0
10
-2.919776
20
6.278171
30
0
40
2.72116937762209
210
0
220
0
230
1
100
AcDbArc
50
355.819548
51
1.83385
0
ARC
5
22E
100
AcDbEntity
8
SK1
62
256
6
ByLayer
370
18
48
1
60
0
100
AcDbCircle
39
0
10
-1.788813
20
6.195507
30
0
40
1.58719001425477
210
0
220
0
230
1
100
AcDbArc
50
345.526577
51
355.819548
0
ARC
5
22F
100
AcDbEntity
8
SK1
62
256
6
ByLayer
370
18
48
1
60
0
100
AcDbCircle
39
0
10
-0.594795
20
5.887303
30
0
40
0.354035747583464
210
0
220
0
230
1
100
AcDbArc
50
323.339766
51
345.526577
0
ARC
5
230
100
AcDbEntity
8
SK1
62
256
6
ByLayer
370
18
48
1
60
0
100
AcDbCircle
39
0
10
-0.35763
20
5.710782
30
0
40
0.0583887464035217
210
0
220
0
230
1
100
AcDbArc
50
223.476402
51
323.339766
0
ARC
5
231
100
AcDbEntity
8
SK1
62
256
6
ByLayer
370
18
48
1
60
0
100
AcDbCircle
39
0
10
-0.487996
20
-27.537832
30
0
40
0.28908631051367
210
0
220
0
230
1
100
AcDbArc
50
4.977819
51
11.195315
0
ARC
5
232
100
AcDbEntity
8
SK1
62
256
6
ByLayer
370
18
48
1
60
0
100
AcDbCircle
39
0
10
-0.418425
20
-27.524063
30
0
40
0.218165876548265
210
0
220
0
230
1
100
AcDbArc
50
11.195315
51
19.427869
0
ARC
5
233
100
AcDbEntity
8
SK1
62
256
6
ByLayer
370
18
48
1
60
0
100
AcDbCircle
39
0
10
-0.370735
20
-27.507242
30
0
40
0.16759606117564
210
0
220
0
230
1
100
AcDbArc
50
19.427869
51
59.644092
0
ARC
5
234
100
AcDbEntity
8
SK1
62
256
6
ByLayer
370
18
48
1
60
0
100
AcDbCircle
39
0
10
-0.430007
20
-27.608447
30
0
40
0.284880743694133
210
0
220
0
230
1
100
AcDbArc
50
59.644092
51
83.953754
0
ARC
5
235
100
AcDbEntity
8
SK1
62
256
6
ByLayer
370
18
48
1
60
0
100
AcDbCircle
39
0
10
-0.579386
20
-5.498305
30
0
40
0.24873104383338
210
0
220
0
230
1
100
AcDbArc
50
235.231095
51
316.153954
0
ARC
5
236
100
AcDbEntity
8
SK1
62
256
6
ByLayer
370
18
48
1
60
0
100
AcDbCircle
39
0
10
-0.251918
20
-5.026595
30
0
40
0.82296526885055
210
0
220
0
230
1
100
AcDbArc
50
206.320688
51
235.231095
0
ARC
5
237
100
AcDbEntity
8
SK1
62
256
6
ByLayer
370
18
48
1
60
0
100
AcDbCircle
39
0
10
1.481957
20
-4.168882
30
0
40
2.75738977058865
210
0
220
0
230
1
100
AcDbArc
50
194.293438
51
206.320688
0
ARC
5
238
100
AcDbEntity
8
SK1
62
256
6
ByLayer
370
18
48
1
60
0
100
AcDbCircle
39
0
10
4.870813
20
-3.305486
30
0
40
6.25450219380672
210
0
220
0
230
1
100
AcDbArc
50
188.975312
51
194.293438
0
ARC
5
239
100
AcDbEntity
8
SK1
62
256
6
ByLayer
370
18
48
1
60
0
100
AcDbCircle
39
0
10
37.903728
20
-26.6753
30
0
40
40.1125619359266
210
0
220
0
230
1
100
AcDbArc
50
179.399506
51
181.206781
0
ARC
5
23A
100
AcDbEntity
8
SK1
62
256
6
ByLayer
370
18
48
1
60
0
100
AcDbCircle
39
0
10
-122.934531
20
-24.989557
30
0
40
120.734531057125
210
0
220
0
230
1
100
AcDbArc
50
359.399506
51
359.999995
0
ARC
5
23B
100
AcDbEntity
8
SK1
62
256
6
ByLayer
370
18
48
1
60
0
100
AcDbCircle
39
0
10
-0.57981
20
5.490213
30
0
40
0.254703509679246
210
0
220
0
230
1
100
AcDbArc
50
45.092852
51
124.390632
0
ARC
5
23C
100
AcDbEntity
8
SK1
62
256
6
ByLayer
370
18
48
1
60
0
100
AcDbCircle
39
0
10
-0.267084
20
5.033326
30
0
40
0.808366873477802
210
0
220
0
230
1
100
AcDbArc
50
124.390632
51
153.658537
0
ARC
5
23D
100
AcDbEntity
8
SK1
62
256
6
ByLayer
370
18
48
1
60
0
100
AcDbCircle
39
0
10
1.406485
20
4.20469
30
0
40
2.67584450063033
210
0
220
0
230
1
100
AcDbArc
50
153.658537
51
166.048783
0
ARC
5
23E
100
AcDbEntity
8
SK1
62
256
6
ByLayer
370
18
48
1
60
0
100
AcDbCircle
39
0
10
5.666248
20
3.146463
30
0
40
7.06508325708044
210
0
220
0
230
1
100
AcDbArc
50
166.048783
51
170.757213
0
ARC
5
23F
100
AcDbEntity
8
SK1
62
256
6
ByLayer
370
18
48
1
60
0
100
AcDbCircle
39
0
10
-0.487973
20
27.537824
30
0
40
0.289063584008275
210
0
220
0
230
1
100
AcDbArc
50
348.804444
51
355.022205
0
ARC
5
240
100
AcDbEntity
8
SK1
62
256
6
ByLayer
370
18
48
1
60
0
100
AcDbCircle
39
0
10
-0.41841
20
27.524056
30
0
40
0.218150811965225
210
0
220
0
230
1
100
AcDbArc
50
340.571618
51
348.804444
0
ARC
5
241
100
AcDbEntity
8
SK1
62
256
6
ByLayer
370
18
48
1
60
0
100
AcDbCircle
39
0
10
-0.396305
20
27.516259
30
0
40
0.194710996909961
210
0
220
0
230
1
100
AcDbArc
50
333.308396
51
340.571618
0
ARC
5
242
100
AcDbEntity
8
SK1
62
256
6
ByLayer
370
18
48
1
60
0
100
AcDbCircle
39
0
10
-0.374364
20
27.505228
30
0
40
0.170153317368484
210
0
220
0
230
1
100
AcDbArc
50
325.000335
51
333.308396
0
ARC
5
243
100
AcDbEntity
8
SK1
62
256
6
ByLayer
370
18
48
1
60
0
100
AcDbCircle
39
0
10
-0.369913
20
27.502111
30
0
40
0.164719350373895
210
0
220
0
230
1
100
AcDbArc
50
316.662919
51
325.000335
0
ARC
5
244
100
AcDbEntity
8
SK1
62
256
6
ByLayer
370
18
48
1
60
0
100
AcDbCircle
39
0
10
-0.372702
20
27.504743
30
0
40
0.168553946490018
210
0
220
0
230
1
100
AcDbArc
50
308.514533
51
316.662919
0
ARC
5
245
100
AcDbEntity
8
SK1
62
256
6
ByLayer
370
18
48
1
60
0
100
AcDbCircle
39
0
10
-0.378736
20
27.512325
30
0
40
0.178244208272269
210
0
220
0
230
1
100
AcDbArc
50
300.412993
51
308.514533
0
ARC
5
246
100
AcDbEntity
8
SK1
62
256
6
ByLayer
370
18
48
1
60
0
100
AcDbCircle
39
0
10
-0.395582
20
27.541022
30
0
40
0.21152029636621
210
0
220
0
230
1
100
AcDbArc
50
293.582679
51
300.412993
0
ARC
5
247
100
AcDbEntity
8
SK1
62
256
6
ByLayer
370
18
48
1
60
0
100
AcDbCircle
39
0
10
-0.410348
20
27.57485
30
0
40
0.248430716030441
210
0
220
0
230
1
100
AcDbArc
50
282.97246
51
293.582679
0
ARC
5
248
100
AcDbEntity
8
SK1
62
256
6
ByLayer
370
18
48
1
60
0
100
AcDbCircle
39
0
10
-0.440153
20
27.704231
30
0
40
0.381200028051734
210
0
220
0
230
1
100
AcDbArc
50
276.046324
51
282.97246
0
ARC
5
249
100
AcDbEntity
8
SK1
62
256
6
ByLayer
370
18
48
1
60
0
100
AcDbCircle
39
0
10
-0.672568
20
27.245983
30
0
40
1.55177155640825
210
0
220
0
230
1
100
AcDbArc
50
169.825432
51
185.059825
0
ARC
5
24A
100
AcDbEntity
8
SK1
62
256
6
ByLayer
370
18
48
1
60
0
100
AcDbCircle
39
0
10
-6.896075
20
26.694948
30
0
40
4.69608243292288
210
0
220
0
230
1
100
AcDbArc
50
359.999202
51
5.059825
0
ARC
5
24B
100
AcDbEntity
8
SK1
62
256
6
ByLayer
370
18
48
1
60
0
100
AcDbCircle
39
0
10
-1.980601
20
-27.527264
30
0
40
0.219409378757958
210
0
220
0
230
1
100
AcDbArc
50
171.202061
51
179.443043
0
ARC
5
24C
100
AcDbEntity
8
SK1
62
256
6
ByLayer
370
18
48
1
60
0
100
AcDbCircle
39
0
10
-2.004109
20
-27.523625
30
0
40
0.195620992267255
210
0
220
0
230
1
100
AcDbArc
50
161.963042
51
171.202061
0
ARC
5
24D
100
AcDbEntity
8
SK1
62
256
6
ByLayer
370
18
48
1
60
0
100
AcDbCircle
39
0
10
-2.002281
20
-27.524221
30
0
40
0.197544126921856
210
0
220
0
230
1
100
AcDbArc
50
155.159972
51
161.963042
0
ARC
5
24E
100
AcDbEntity
8
SK1
62
256
6
ByLayer
370
18
48
1
60
0
100
AcDbCircle
39
0
10
-1.998537
20
-27.525954
30
0
40
0.201669864270139
210
0
220
0
230
1
100
AcDbArc
50
148.495761
51
155.159972
0
ARC
5
24F
100
AcDbEntity
8
SK1
62
256
6
ByLayer
370
18
48
1
60
0
100
AcDbCircle
39
0
10
-2.000723
20
-27.524614
30
0
40
0.199105545756216
210
0
220
0
230
1
100
AcDbArc
50
141.727627
51
148.495761
0
ARC
5
250
100
AcDbEntity
8
SK1
62
256
6
ByLayer
370
18
48
1
60
0
100
AcDbCircle
39
0
10
-1.999882
20
-27.525277
30
0
40
0.200176755530271
210
0
220
0
230
1
100
AcDbArc
50
134.995627
51
141.727627
0
ARC
5
251
100
AcDbEntity
8
SK1
62
256
6
ByLayer
370
18
48
1
60
0
100
AcDbCircle
39
0
10
-1.999879
20
-27.52528
30
0
40
0.200180951151293
210
0
220
0
230
1
100
AcDbArc
50
128.263768
51
134.995627
0
ARC
5
252
100
AcDbEntity
8
SK1
62
256
6
ByLayer
370
18
48
1
60
0
100
AcDbCircle
39
0
10
-2.000531
20
-27.524454
30
0
40
0.199127985235973
210
0
220
0
230
1
100
AcDbArc
50
121.496394
51
128.263768
0
ARC
5
253
100
AcDbEntity
8
SK1
62
256
6
ByLayer
370
18
48
1
60
0
100
AcDbCircle
39
0
10
-1.999186
20
-27.52665
30
0
40
0.201703452616796
210
0
220
0
230
1
100
AcDbArc
50
114.833305
51
121.496394
0
ARC
5
254
100
AcDbEntity
8
SK1
62
256
6
ByLayer
370
18
48
1
60
0
100
AcDbCircle
39
0
10
-2.000911
20
-27.522921
30
0
40
0.19759509124674
210
0
220
0
230
1
100
AcDbArc
50
108.031999
51
114.833305
0
ARC
5
255
100
AcDbEntity
8
SK1
62
256
6
ByLayer
370
18
48
1
60
0
100
AcDbCircle
39
0
10
-2.001538
20
-27.520996
30
0
40
0.195569991402136
210
0
220
0
230
1
100
AcDbArc
50
103.469922
51
108.031999
0
ARC
5
256
100
AcDbEntity
8
SK1
62
256
6
ByLayer
370
18
48
1
60
0
100
AcDbCircle
39
0
10
-2.000286
20
-27.526223
30
0
40
0.200945467403315
210
0
220
0
230
1
100
AcDbArc
50
99.029761
51
103.469922
0
ARC
5
257
100
AcDbEntity
8
SK1
62
256
6
ByLayer
370
18
48
1
60
0
100
AcDbCircle
39
0
10
-1.999321
20
-27.532296
30
0
40
0.207094852066852
210
0
220
0
230
1
100
AcDbArc
50
94.608793
51
99.029761
0
ARC
5
258
100
AcDbEntity
8
SK1
62
256
6
ByLayer
370
18
48
1
60
0
100
AcDbCircle
39
0
10
-1.997807
20
-27.551075
30
0
40
0.225934119266205
210
0
220
0
230
1
100
AcDbArc
50
90.556141
51
94.608793
0
ARC
5
259
100
AcDbEntity
8
SK1
62
256
6
ByLayer
370
18
48
1
60
0
100
AcDbCircle
39
0
10
25.583094
20
-0.646042
30
0
40
27.3379051052415
210
0
220
0
230
1
100
AcDbArc
50
169.616468
51
175.968088
0
ARC
5
25A
100
AcDbEntity
8
SK1
62
256
6
ByLayer
370
18
48
1
60
0
100
AcDbCircle
39
0
10
17.232453
20
-0.057434
30
0
40
18.9665448770185
210
0
220
0
230
1
100
AcDbArc
50
175.968088
51
185.113079
0
ARC
5
25B
100
AcDbEntity
8
SK1
62
256
6
ByLayer
370
18
48
1
60
0
100
AcDbCircle
39
0
10
23.292745
20
0.484827
30
0
40
25.0510489717126
210
0
220
0
230
1
100
AcDbArc
50
185.113079
51
188.039004
0
ARC
5
25C
100
AcDbEntity
8
SK1
62
256
6
ByLayer
370
18
48
1
60
0
100
AcDbCircle
39
0
10
29.160546
20
1.313566
30
0
40
30.9770845495708
210
0
220
0
230
1
100
AcDbArc
50
188.039004
51
190.405366
0
ARC
5
25D
100
AcDbEntity
8
SK1
62
256
6
ByLayer
370
18
48
1
60
0
100
AcDbCircle
39
0
10
-2.896747
20
-6.274403
30
0
40
2.69827649441072
210
0
220
0
230
1
100
AcDbArc
50
358.070537
51
4.136096
0
ARC
5
25E
100
AcDbEntity
8
SK1
62
256
6
ByLayer
370
18
48
1
60
0
100
AcDbCircle
39
0
10
-1.751564
20
-6.19159
30
0
40
1.55010311558755
210
0
220
0
230
1
100
AcDbArc
50
4.136096
51
14.674523
0
ARC
5
25F
100
AcDbEntity
8
SK1
62
256
6
ByLayer
370
18
48
1
60
0
100
AcDbCircle
39
0
10
-0.59868
20
-5.889684
30
0
40
0.358345244088589
210
0
220
0
230
1
100
AcDbArc
50
14.674523
51
36.548386
0
ARC
5
260
100
AcDbEntity
8
SK1
62
256
6
ByLayer
370
18
48
1
60
0
100
AcDbCircle
39
0
10
-0.357801
20
-5.711128
30
0
40
0.0585038608586475
210
0
220
0
230
1
100
AcDbArc
50
36.548386
51
136.161458
0
ARC
5
261
100
AcDbEntity
8
1
62
256
6
ByLayer
370
18
48
1
60
0
100
AcDbCircle
39
0
10
110.3
20
4.972052
30
0
40
0.5
210
0
220
0
230
1
100
AcDbArc
50
0
51
90
0
ARC
5
262
100
AcDbEntity
8
1
62
256
6
ByLayer
370
18
48
1
60
0
100
AcDbCircle
39
0
10
110.3
20
-10.027948
30
0
40
0.5
210
0
220
0
230
1
100
AcDbArc
50
270
51
0
0
ARC
5
263
100
AcDbEntity
8
1
62
256
6
ByLayer
370
18
48
1
60
0
100
AcDbCircle
39
0
10
110.3
20
52.7
30
0
40
0.5
210
0
220
0
230
1
100
AcDbArc
50
0
51
90
0
ARC
5
264
100
AcDbEntity
8
1
62
256
6
ByLayer
370
18
48
1
60
0
100
AcDbCircle
39
0
10
110.3
20
37.7
30
0
40
0.5
210
0
220
0
230
1
100
AcDbArc
50
270
51
0
0
ARC
5
265
100
AcDbEntity
8
1
62
256
6
ByLayer
370
18
48
1
60
0
100
AcDbCircle
39
0
10
110.3
20
-48.938183
30
0
40
0.5
210
0
220
0
230
1
100
AcDbArc
50
270
51
0
0
ARC
5
266
100
AcDbEntity
8
1
62
256
6
ByLayer
370
18
48
1
60
0
100
AcDbCircle
39
0
10
80.504699
20
81.325831
30
0
40
0.95
210
0
220
0
230
1
100
AcDbArc
50
15
51
345
0
ARC
5
267
100
AcDbEntity
8
1
62
256
6
ByLayer
370
18
48
1
60
0
100
AcDbCircle
39
0
10
80.504699
20
81.325831
30
0
40
1.26132486540519
210
0
220
0
230
1
100
AcDbArc
50
15
51
345
0
ARC
5
268
100
AcDbEntity
8
1
62
256
6
ByLayer
370
18
48
1
60
0
100
AcDbCircle
39
0
10
-112.004699
20
58.325831
30
0
40
10.0000000000026
210
0
220
0
230
-1
100
AcDbArc
50
0
51
70
0
CIRCLE
5
269
100
AcDbEntity
8
1
62
256
6
ByLayer
370
18
48
1
60
0
100
AcDbCircle
10
-80.504699
20
81.325831
30
0
40
1.525
39
0
210
0
220
0
230
-1
0
ELLIPSE
5
26A
100
AcDbEntity
8
1
62
256
6
ByLayer
370
18
48
0.05
60
0
100
AcDbEllipse
10
114.909704
20
-84.527714
30
0
11
1.04528463267681
21
9.94521895368271
31
0
210
0
220
0
230
-1
40
0.996195
41
3.1324920246716
42
3.14159265358979
0
ELLIPSE
5
26B
100
AcDbEntity
8
1
62
256
6
ByLayer
370
18
48
0.05
60
0
100
AcDbEllipse
10
114.861091
20
-84.523294
30
0
11
1.04528463267682
21
9.94521895368273
31
0
210
0
220
0
230
-1
40
0.996195
41
3.10668606854991
42
3.1226920315848
0
ELLIPSE
5
26C
100
AcDbEntity
8
1
62
256
6
ByLayer
370
18
48
0.05
60
0
100
AcDbEllipse
10
114.432165
20
-89.504856
30
0
11
0.522642316338388
21
4.97260947684117
31
0
210
0
220
0
230
-1
40
0.996195
41
3.12269203158479
42
3.1324920246716
0
ELLIPSE
5
26D
100
AcDbEntity
8
1
62
256
6
ByLayer
370
18
48
0.05
60
0
100
AcDbEllipse
10
114.19715
20
-94.000021
30
0
11
0.0522642316338408
21
0.497260947684137
31
0
210
0
220
0
230
-1
40
0.996195
41
2.87979326579069
42
3.10668606854988
0
ELLIPSE
5
26E
100
AcDbEntity
8
1
62
256
6
ByLayer
370
18
48
0.05
60
0
100
AcDbEllipse
10
114.119423
20
-93.506228
30
0
11
0.104528463267681
21
0.99452189536827
31
0
210
0
220
0
230
-1
40
0.996195
41
1.83259571459404
42
2.87979326579063
0
ELLIPSE
5
26F
100
AcDbEntity
8
1
62
256
6
ByLayer
370
18
48
0.05
60
0
100
AcDbEllipse
10
114.584385
20
-93.68522
30
0
11
0.0522642316338408
21
0.497260947684137
31
0
210
0
220
0
230
-1
40
0.996195
41
1.60570291183479
42
1.83259571459401
0
ELLIPSE
5
270
100
AcDbEntity
8
1
62
256
6
ByLayer
370
18
48
0.05
60
0
100
AcDbEllipse
10
105.212769
20
-92.366852
30
0
11
1.04528463267682
21
9.94521895368273
31
0
210
0
220
0
230
-1
40
0.996195
41
1.58969694879989
42
1.60570291183478
0
ELLIPSE
5
271
100
AcDbEntity
8
1
62
256
6
ByLayer
370
18
48
0.05
60
0
100
AcDbEllipse
10
105.206968
20
-92.415507
30
0
11
1.04528463267681
21
9.94521895368271
31
0
210
0
220
0
230
-1
40
0.996195
41
1.5707963267949
42
1.57989695571309
0
ELLIPSE
5
272
100
AcDbEntity
8
1
62
256
6
ByLayer
370
18
48
0.05
60
0
100
AcDbEllipse
10
110.155694
20
-92.981392
30
0
11
0.522642316338388
21
4.97260947684117
31
0
210
0
220
0
230
-1
40
0.996195
41
1.57989695571309
42
1.5896969487999
0
ELLIPSE
5
273
100
AcDbEntity
8
1
62
256
6
ByLayer
370
18
48
1
60
0
100
AcDbEllipse
10
76.704699
20
-35.406436
30
0
11
-3
21
3.67381906146713E-16
31
0
210
0
220
0
230
1
40
0.892586
41
0.803756977977551
42
2.2832508993194
0
ELLIPSE
5
274
100
AcDbEntity
8
1
62
256
6
ByLayer
370
18
48
1
60
0
100
AcDbEllipse
10
76.704699
20
-35.57822
30
0
11
-2.619
21
3.20724404066081E-16
31
0
210
0
220
0
230
1
40
0.892586
41
0.765959641664174
42
2.31505945689612
0
ELLIPSE
5
275
100
AcDbEntity
8
1
62
256
6
ByLayer
370
18
48
1
60
0
100
AcDbEllipse
10
115.505591
20
-47.073278
30
0
11
-0.392791286215939
21
0.0755976552072095
31
0
210
0
220
0
230
1
40
0.83313
41
-1.32453692635965
42
-0.554053321732264
0
ELLIPSE
5
276
100
AcDbEntity
8
1
62
256
6
ByLayer
370
18
48
1
60
0
100
AcDbEllipse
10
114.381109
20
-46.755237
30
0
11
1.09418325184413
21
0.112973498590612
31
0
210
0
220
0
230
1
40
0.536392
41
-0.160442341652137
42
0.665060663864407
0
ELLIPSE
5
277
100
AcDbEntity
8
1
62
256
6
ByLayer
370
18
48
1
60
0
100
AcDbEllipse
10
115.093031
20
-46.39172
30
0
11
-0.74603403534827
21
-0.0770273854026953
31
0
210
0
220
0
230
1
40
0.536392
41
2.98115031193765
42
-1.7761542992997
0
ELLIPSE
5
278
100
AcDbEntity
8
1
62
256
6
ByLayer
370
18
48
1
60
0
100
AcDbEllipse
10
115.236191
20
-43.490572
30
0
11
-0.994712047131027
21
-0.102703180536927
31
0
210
0
220
0
230
1
40
0.536392
41
-3.0402356074428
42
-1.99303805624612
0
ELLIPSE
5
279
100
AcDbEntity
8
1
62
256
6
ByLayer
370
18
48
1
60
0
100
AcDbEllipse
10
114.093996
20
-48.387939
30
0
11
-9.94712047131031
21
-1.02703180536927
31
0
210
0
220
0
230
1
40
0.536392
41
-1.76614525348695
42
-1.75013929045206
0
ELLIPSE
5
27A
100
AcDbEntity
8
1
62
256
6
ByLayer
370
18
48
1
60
0
100
AcDbEllipse
10
115.728208
20
-43.412491
30
0
11
-0.497356023565515
21
-0.0513515902684637
31
0
210
0
220
0
230
1
40
0.536392
41
3.0160568969775
42
-3.04023560744293
0
ELLIPSE
5
27B
100
AcDbEntity
8
1
62
256
6
ByLayer
370
18
48
1
60
0
100
AcDbEllipse
10
115.414886
20
-43.226181
30
0
11
-0.497356023565515
21
-0.0513515902684637
31
0
210
0
220
0
230
1
40
0.536392
41
-1.99303805624606
42
-1.76614525348697
0
ELLIPSE
5
27C
100
AcDbEntity
8
1
62
256
6
ByLayer
370
18
48
1
60
0
100
AcDbEllipse
10
109.35458
20
87.634062
30
0
11
0.33449108245658
21
-3.18247006517847
31
0
210
0
220
0
230
1
40
0.996195
41
-1.40233808471401
42
-0.168458242080872
0
ELLIPSE
5
27D
100
AcDbEntity
8
1
62
256
6
ByLayer
370
18
48
1
60
0
100
AcDbEllipse
10
113.557404
20
82.907685
30
0
11
-1.03066457613038
21
9.80611840735802
31
0
210
0
220
0
230
1
40
0.996195
41
1.5896969487999
42
1.60570291183478
0
ELLIPSE
5
27E
100
AcDbEntity
8
1
62
256
6
ByLayer
370
18
48
1
60
0
100
AcDbEllipse
10
106.073593
20
87.845551
30
0
11
0.0104528463267679
21
-0.0994521895368262
31
0
210
0
220
0
230
1
40
0.996195
41
-1.5707963267949
42
1.40233808471411
0
ELLIPSE
5
27F
100
AcDbEntity
8
1
62
256
6
ByLayer
370
18
48
1
60
0
100
AcDbEllipse
10
112.811838
20
84.625677
30
0
11
0.0209056926535362
21
-0.198904379073654
31
0
210
0
220
0
230
1
40
0.087156
41
0.886715094999556
42
1.57079632679483
0
ELLIPSE
5
280
100
AcDbEntity
8
1
62
256
6
ByLayer
370
18
48
1
60
0
100
AcDbEllipse
10
114.432165
20
89.504856
30
0
11
0.522642316338387
21
-4.97260947684117
31
0
210
0
220
0
230
1
40
0.996195
41
3.1226920315848
42
3.13249202467161
0
ELLIPSE
5
281
100
AcDbEntity
8
1
62
256
6
ByLayer
370
18
48
1
60
0
100
AcDbEllipse
10
112.808268
20
84.826403
30
0
11
-0.0209056926535377
21
0.198904379073654
31
0
210
0
220
0
230
1
40
0.996195
41
3.14159265358979
42
-1.57079632679497
0
ELLIPSE
5
282
100
AcDbEntity
8
1
62
256
6
ByLayer
370
18
48
1
60
0
100
AcDbEllipse
10
109.13545
20
84.438951
30
0
11
-0.0128650708014692
21
-0.199585795970738
31
0
210
0
220
0
230
1
40
0.085922
41
1.58546385301625
42
2.26954508481446
0
ELLIPSE
5
283
100
AcDbEntity
8
1
62
256
6
ByLayer
370
18
48
1
60
0
100
AcDbEllipse
10
106.155681
20
87.83732
30
0
11
-0.199601851976567
21
0.0126135121011043
31
0
210
0
220
0
230
1
40
0.014613
41
-2.34091484549272
42
-1.65683361369319
0
ELLIPSE
5
284
100
AcDbEntity
8
1
62
256
6
ByLayer
370
18
48
1
60
0
100
AcDbEllipse
10
109.14648
20
84.340983
30
0
11
-0.0104528463267688
21
0.0994521895368268
31
0
210
0
220
0
230
1
40
0.996195
41
3.14159265358865
42
-0.168458242080713
0
ELLIPSE
5
285
100
AcDbEntity
8
1
62
256
6
ByLayer
370
18
48
1
60
0
100
AcDbEllipse
10
114.909704
20
84.527714
30
0
11
1.0452846326768
21
-9.94521895368271
31
0
210
0
220
0
230
1
40
0.996195
41
3.1324920246716
42
3.14159265358979
0
ELLIPSE
5
286
100
AcDbEntity
8
1
62
256
6
ByLayer
370
18
48
1
60
0
100
AcDbEllipse
10
112.804367
20
84.825994
30
0
11
0.034117279959338
21
-0.324604235719799
31
0
210
0
220
0
230
1
40
0.996195
41
0
42
1.5707963267949
0
ELLIPSE
5
287
100
AcDbEntity
8
1
62
256
6
ByLayer
370
18
48
1
60
0
100
AcDbEllipse
10
114.861091
20
84.523294
30
0
11
1.04528463267682
21
-9.94521895368273
31
0
210
0
220
0
230
1
40
0.996195
41
3.10668606854991
42
3.1226920315848
0
ELLIPSE
5
288
100
AcDbEntity
8
1
62
256
6
ByLayer
370
18
48
1
60
0
100
AcDbEllipse
10
114.141936
20
91.827449
30
0
11
-1.03066457613036
21
9.80611840735783
31
0
210
0
220
0
230
1
40
0.996195
41
3.14159265358979
42
-3.1324920246716
0
ELLIPSE
5
289
100
AcDbEntity
8
1
62
256
6
ByLayer
370
18
48
1
60
0
100
AcDbEllipse
10
114.19715
20
94.000021
30
0
11
0.0522642316338408
21
-0.497260947684137
31
0
210
0
220
0
230
1
40
0.996195
41
2.87979326579069
42
3.10668606855003
0
ELLIPSE
5
28A
100
AcDbEntity
8
1
62
256
6
ByLayer
370
18
48
1
60
0
100
AcDbEllipse
10
108.438569
20
90.909543
30
0
11
0.0209056926535362
21
-0.198904379073654
31
0
210
0
220
0
230
1
40
0.087156
41
1.5707963267949
42
2.25487755859018
0
ELLIPSE
5
28B
100
AcDbEntity
8
1
62
256
6
ByLayer
370
18
48
1
60
0
100
AcDbEllipse
10
105.206968
20
92.415507
30
0
11
1.0452846326768
21
-9.94521895368271
31
0
210
0
220
0
230
1
40
0.996195
41
1.5707963267949
42
1.57989695571309
0
ELLIPSE
5
28C
100
AcDbEntity
8
1
62
256
6
ByLayer
370
18
48
1
60
0
100
AcDbEllipse
10
110.155694
20
92.981392
30
0
11
0.522642316338387
21
-4.97260947684117
31
0
210
0
220
0
230
1
40
0.996195
41
1.57989695571309
42
1.5896969487999
0
ELLIPSE
5
28D
100
AcDbEntity
8
1
62
256
6
ByLayer
370
18
48
1
60
0
100
AcDbEllipse
10
114.119423
20
93.506228
30
0
11
0.10452846326768
21
-0.99452189536827
31
0
210
0
220
0
230
1
40
0.996195
41
1.83259571459402
42
2.87979326579063
0
ELLIPSE
5
28E
100
AcDbEntity
8
1
62
256
6
ByLayer
370
18
48
1
60
0
100
AcDbEllipse
10
105.212769
20
92.366852
30
0
11
1.04528463267682
21
-9.94521895368273
31
0
210
0
220
0
230
1
40
0.996195
41
1.58969694879989
42
1.60570291183478
0
ELLIPSE
5
28F
100
AcDbEntity
8
1
62
256
6
ByLayer
370
18
48
1
60
0
100
AcDbEllipse
10
109.142579
20
84.340573
30
0
11
0.0236644336325698
21
-0.225152046182971
31
0
210
0
220
0
230
1
40
0.996195
41
0
42
2.97313441150857
0
ELLIPSE
5
290
100
AcDbEntity
8
1
62
256
6
ByLayer
370
18
48
1
60
0
100
AcDbEllipse
10
104.338008
20
85.769681
30
0
11
-0.508022259791923
21
4.83350893051648
31
0
210
0
220
0
230
1
40
0.996195
41
3.12269203158481
42
3.1324920246716
0
ELLIPSE
5
291
100
AcDbEntity
8
1
62
256
6
ByLayer
370
18
48
1
60
0
100
AcDbEllipse
10
114.909175
20
84.527658
30
0
11
-1.03066457613036
21
9.80611840735783
31
0
210
0
220
0
230
1
40
0.996195
41
-0.00910062891818545
42
0
0
ELLIPSE
5
292
100
AcDbEntity
8
1
62
256
6
ByLayer
370
18
48
1
60
0
100
AcDbEllipse
10
114.431635
20
89.5048
30
0
11
-0.508022259791923
21
4.83350893051648
31
0
210
0
220
0
230
1
40
0.996195
41
-0.0189006220049871
42
-0.00910062891818498
0
ELLIPSE
5
293
100
AcDbEntity
8
1
62
256
6
ByLayer
370
18
48
1
60
0
100
AcDbEllipse
10
114.860562
20
84.523239
30
0
11
-1.03066457613038
21
9.80611840735802
31
0
210
0
220
0
230
1
40
0.996195
41
-0.0349065850398841
42
-0.0189006220049966
0
ELLIPSE
5
294
100
AcDbEntity
8
1
62
256
6
ByLayer
370
18
48
1
60
0
100
AcDbEllipse
10
114.196621
20
93.999965
30
0
11
-0.0376441750873423
21
0.35816040135942
31
0
210
0
220
0
230
1
40
0.996195
41
-0.261799387799338
42
-0.0349065850400834
0
ELLIPSE
5
295
100
AcDbEntity
8
1
62
256
6
ByLayer
370
18
48
1
60
0
100
AcDbEllipse
10
108.614479
20
82.293145
30
0
11
-0.508022259791923
21
4.83350893051648
31
0
210
0
220
0
230
1
40
0.996195
41
1.57989695571309
42
1.58969694879989
0
ELLIPSE
5
296
100
AcDbEntity
8
1
62
256
6
ByLayer
370
18
48
1
60
0
100
AcDbEllipse
10
114.583856
20
93.685164
30
0
11
-0.0376441750873423
21
0.35816040135942
31
0
210
0
220
0
230
1
40
0.996195
41
-1.53588974175498
42
-1.30899693899573
0
ELLIPSE
5
297
100
AcDbEntity
8
1
62
256
6
ByLayer
370
18
48
1
60
0
100
AcDbEllipse
10
105.21224
20
92.366796
30
0
11
-1.03066457613038
21
9.80611840735802
31
0
210
0
220
0
230
1
40
0.996195
41
-1.5518957047899
42
-1.53588974175501
0
ELLIPSE
5
298
100
AcDbEntity
8
1
62
256
6
ByLayer
370
18
48
1
60
0
100
AcDbEllipse
10
110.155164
20
92.981337
30
0
11
-0.508022259791923
21
4.83350893051648
31
0
210
0
220
0
230
1
40
0.996195
41
-1.5616956978767
42
-1.5518957047899
0
ELLIPSE
5
299
100
AcDbEntity
8
1
62
256
6
ByLayer
370
18
48
1
60
0
100
AcDbEllipse
10
105.206439
20
92.415451
30
0
11
-1.03066457613036
21
9.80611840735783
31
0
210
0
220
0
230
1
40
0.996195
41
-1.5707963267949
42
-1.5616956978767
0
ELLIPSE
5
29A
100
AcDbEntity
8
1
62
256
6
ByLayer
370
18
48
1
60
0
100
AcDbEllipse
10
106.560109
20
84.169696
30
0
11
-0.0209056926535377
21
0.198904379073654
31
0
210
0
220
0
230
1
40
0.996195
41
1.5707963267949
42
3.14159265358951
0
ELLIPSE
5
29B
100
AcDbEntity
8
1
62
256
6
ByLayer
370
18
48
1
60
0
100
AcDbEllipse
10
115.414886
20
82.414042
30
0
11
0.0522642316338408
21
-0.497260947684137
31
0
210
0
220
0
230
1
40
0.996195
41
0.0349065850397681
42
0.261799387799104
0
ELLIPSE
5
29C
100
AcDbEntity
8
1
62
256
6
ByLayer
370
18
48
1
60
0
100
AcDbEllipse
10
109.35458
20
87.634062
30
0
11
-0.334491082456602
21
3.18247006517846
31
0
210
0
220
0
230
1
40
0.996195
41
0.168458242080873
42
1.40233808471402
0
ELLIPSE
5
29D
100
AcDbEntity
8
1
62
256
6
ByLayer
370
18
48
1
60
0
100
AcDbEllipse
10
103.909081
20
90.751243
30
0
11
-1.03066457613038
21
9.80611840735802
31
0
210
0
220
0
230
1
40
0.996195
41
3.10668606854991
42
3.1226920315848
0
ELLIPSE
5
29E
100
AcDbEntity
8
1
62
256
6
ByLayer
370
18
48
1
60
0
100
AcDbEllipse
10
109.35458
20
87.634062
30
0
11
-0.334491082456602
21
3.18247006517846
31
0
210
0
220
0
230
1
40
0.996195
41
-1.40233808471402
42
-0.168458242080891
0
ELLIPSE
5
29F
100
AcDbEntity
8
1
62
256
6
ByLayer
370
18
48
1
60
0
100
AcDbEllipse
10
113.563205
20
82.85903
30
0
11
-1.03066457613036
21
9.80611840735783
31
0
210
0
220
0
230
1
40
0.996195
41
1.5707963267949
42
1.57989695571309
0
ELLIPSE
5
2A0
100
AcDbEntity
8
1
62
256
6
ByLayer
370
18
48
1
60
0
100
AcDbEllipse
10
109.558781
20
90.926731
30
0
11
0.0236644336325698
21
-0.225152046182971
31
0
210
0
220
0
230
1
40
0.996195
41
3.14159265358954
42
-0.16845824208096
0
ELLIPSE
5
2A1
100
AcDbEntity
8
1
62
256
6
ByLayer
370
18
48
1
60
0
100
AcDbEllipse
10
112.145151
20
91.098019
30
0
11
0.034117279959338
21
-0.324604235719799
31
0
210
0
220
0
230
1
40
0.996195
41
1.5707963267949
42
-3.14159265358962
0
ELLIPSE
5
2A2
100
AcDbEntity
8
1
62
256
6
ByLayer
370
18
48
1
60
0
100
AcDbEllipse
10
109.35068
20
87.633652
30
0
11
-0.3212794951508
21
3.05677020853232
31
0
210
0
220
0
230
1
40
0.996195
41
-1.40233808471402
42
-0.168458242080861
0
ELLIPSE
5
2A3
100
AcDbEntity
8
1
62
256
6
ByLayer
370
18
48
1
60
0
100
AcDbEllipse
10
112.515998
20
88.522675
30
0
11
0.0236644336325697
21
-0.22515204618297
31
0
210
0
220
0
230
1
40
0.996195
41
-1.40233808471409
42
1.5707963267949
0
ELLIPSE
5
2A4
100
AcDbEntity
8
1
62
256
6
ByLayer
370
18
48
1
60
0
100
AcDbEllipse
10
113.563734
20
82.859085
30
0
11
1.0452846326768
21
-9.94521895368271
31
0
210
0
220
0
230
1
40
0.996195
41
-1.5707963267949
42
-1.5616956978767
0
ELLIPSE
5
2A5
100
AcDbEntity
8
1
62
256
6
ByLayer
370
18
48
1
60
0
100
AcDbEllipse
10
108.462457
20
90.811503
30
0
11
0.0236644336325698
21
-0.225152046182971
31
0
210
0
220
0
230
1
40
0.996195
41
0.168458242081219
42
3.14159265358979
0
ELLIPSE
5
2A6
100
AcDbEntity
8
1
62
256
6
ByLayer
370
18
48
1
60
0
100
AcDbEllipse
10
105.896992
20
90.441311
30
0
11
0.034117279959338
21
-0.324604235719799
31
0
210
0
220
0
230
1
40
0.996195
41
3.14159265358979
42
-1.5707963267949
0
ELLIPSE
5
2A7
100
AcDbEntity
8
1
62
256
6
ByLayer
370
18
48
1
60
0
100
AcDbEllipse
10
109.35068
20
87.633652
30
0
11
-0.3212794951508
21
3.05677020853232
31
0
210
0
220
0
230
1
40
0.996195
41
0.168458242080861
42
1.40233808471402
0
ELLIPSE
5
2A8
100
AcDbEntity
8
1
62
256
6
ByLayer
370
18
48
1
60
0
100
AcDbEllipse
10
104.628237
20
83.447088
30
0
11
1.0452846326768
21
-9.94521895368271
31
0
210
0
220
0
230
1
40
0.996195
41
-3.14159265358979
42
-3.1324920246716
0
ELLIPSE
5
2A9
100
AcDbEntity
8
1
62
256
6
ByLayer
370
18
48
1
60
0
100
AcDbEllipse
10
106.185361
20
86.744629
30
0
11
0.0236644336325697
21
-0.22515204618297
31
0
210
0
220
0
230
1
40
0.996195
41
1.73925456887577
42
-1.57079632679496
0
ELLIPSE
5
2AA
100
AcDbEntity
8
1
62
256
6
ByLayer
370
18
48
1
60
0
100
AcDbEllipse
10
104.060535
20
88.414753
30
0
11
0.522642316338387
21
-4.97260947684117
31
0
210
0
220
0
230
1
40
0.996195
41
-3.1324920246716
42
-3.12269203158481
0
ELLIPSE
5
2AB
100
AcDbEntity
8
1
62
256
6
ByLayer
370
18
48
1
60
0
100
AcDbEllipse
10
106.291721
20
82.094766
30
0
11
1.0452846326768
21
-9.94521895368271
31
0
210
0
220
0
230
1
40
0.996195
41
1.56169569787671
42
1.5707963267949
0
ELLIPSE
5
2AC
100
AcDbEntity
8
1
62
256
6
ByLayer
370
18
48
1
60
0
100
AcDbEllipse
10
106.069693
20
87.845141
30
0
11
0.0236644336325697
21
-0.22515204618297
31
0
210
0
220
0
230
1
40
0.996195
41
-1.5707963267949
42
1.40233808471389
0
ELLIPSE
5
2AD
100
AcDbEntity
8
1
62
256
6
ByLayer
370
18
48
1
60
0
100
AcDbEllipse
10
103.534511
20
92.393709
30
0
11
0.10452846326768
21
-0.99452189536827
31
0
210
0
220
0
230
1
40
0.996195
41
-2.87979326579057
42
-1.83259571459407
0
ELLIPSE
5
2AE
100
AcDbEntity
8
1
62
256
6
ByLayer
370
18
48
1
60
0
100
AcDbEllipse
10
111.24996
20
82.570145
30
0
11
0.522642316338387
21
-4.97260947684117
31
0
210
0
220
0
230
1
40
0.996195
41
1.55189570478991
42
1.5616956978767
0
ELLIPSE
5
2AF
100
AcDbEntity
8
1
62
256
6
ByLayer
370
18
48
1
60
0
100
AcDbEllipse
10
103.355817
20
92.860551
30
0
11
0.0522642316338408
21
-0.497260947684137
31
0
210
0
220
0
230
1
40
0.996195
41
-3.10668606854991
42
-2.8797932657906
0
ELLIPSE
5
2B0
100
AcDbEntity
8
1
62
256
6
ByLayer
370
18
48
1
60
0
100
AcDbEllipse
10
104.676706
20
83.452872
30
0
11
1.04528463267682
21
-9.94521895368273
31
0
210
0
220
0
230
1
40
0.996195
41
-3.12269203158481
42
-3.10668606854992
0
ELLIPSE
5
2B1
100
AcDbEntity
8
1
62
256
6
ByLayer
370
18
48
1
60
0
100
AcDbEllipse
10
106.28728
20
82.143564
30
0
11
1.04528463267682
21
-9.94521895368273
31
0
210
0
220
0
230
1
40
0.996195
41
1.53588974175501
42
1.5518957047899
0
ELLIPSE
5
2B2
100
AcDbEntity
8
1
62
256
6
ByLayer
370
18
48
1
60
0
100
AcDbEllipse
10
115.728208
20
82.802474
30
0
11
0.0522642316338408
21
-0.497260947684137
31
0
210
0
220
0
230
1
40
0.996195
41
1.30899693899581
42
1.53588974175503
0
ELLIPSE
5
2B3
100
AcDbEntity
8
1
62
256
6
ByLayer
370
18
48
1
60
0
100
AcDbEllipse
10
112.478451
20
93.179771
30
0
11
-1.03066457613036
21
9.80611840735783
31
0
210
0
220
0
230
1
40
0.996195
41
1.56169569787671
42
1.5707963267949
0
ELLIPSE
5
2B4
100
AcDbEntity
8
1
62
256
6
ByLayer
370
18
48
1
60
0
100
AcDbEllipse
10
114.142465
20
91.827504
30
0
11
1.0452846326768
21
-9.94521895368271
31
0
210
0
220
0
230
1
40
0.996195
41
0
42
0.00910062891818447
0
ELLIPSE
5
2B5
100
AcDbEntity
8
1
62
256
6
ByLayer
370
18
48
1
60
0
100
AcDbEllipse
10
114.710167
20
86.859839
30
0
11
0.522642316338387
21
-4.97260947684117
31
0
210
0
220
0
230
1
40
0.996195
41
0.00910062891819766
42
0.0189006220050045
0
ELLIPSE
5
2B6
100
AcDbEntity
8
1
62
256
6
ByLayer
370
18
48
1
60
0
100
AcDbEllipse
10
115.236191
20
82.880884
30
0
11
0.10452846326768
21
-0.99452189536827
31
0
210
0
220
0
230
1
40
0.996195
41
0.261799387799108
42
1.30899693899574
0
ELLIPSE
5
2B7
100
AcDbEntity
8
1
62
256
6
ByLayer
370
18
48
1
60
0
100
AcDbEllipse
10
106.291192
20
82.09471
30
0
11
-1.03066457613036
21
9.80611840735783
31
0
210
0
220
0
230
1
40
0.996195
41
-1.57989695571309
42
-1.5707963267949
0
ELLIPSE
5
2B8
100
AcDbEntity
8
1
62
256
6
ByLayer
370
18
48
1
60
0
100
AcDbEllipse
10
111.249431
20
82.570089
30
0
11
-0.508022259791923
21
4.83350893051648
31
0
210
0
220
0
230
1
40
0.996195
41
-1.58969694879989
42
-1.57989695571309
0
ELLIPSE
5
2B9
100
AcDbEntity
8
1
62
256
6
ByLayer
370
18
48
1
60
0
100
AcDbEllipse
10
109.35458
20
87.634062
30
0
11
0.33449108245658
21
-3.18247006517847
31
0
210
0
220
0
230
1
40
0.996195
41
0.168458242080891
42
1.40233808471401
0
ELLIPSE
5
2BA
100
AcDbEntity
8
1
62
256
6
ByLayer
370
18
48
1
60
0
100
AcDbEllipse
10
110.242803
20
84.456211
30
0
11
-0.0104528463267687
21
0.0994521895368261
31
0
210
0
220
0
230
1
40
0.996195
41
0.168458242080713
42
3.14159265358979
0
ELLIPSE
5
2BB
100
AcDbEntity
8
1
62
256
6
ByLayer
370
18
48
1
60
0
100
AcDbEllipse
10
106.28675
20
82.143508
30
0
11
-1.03066457613038
21
9.80611840735802
31
0
210
0
220
0
230
1
40
0.996195
41
-1.60570291183478
42
-1.58969694879989
0
ELLIPSE
5
2BC
100
AcDbEntity
8
1
62
256
6
ByLayer
370
18
48
1
60
0
100
AcDbEllipse
10
108.615009
20
82.2932
30
0
11
0.522642316338387
21
-4.97260947684117
31
0
210
0
220
0
230
1
40
0.996195
41
-1.5616956978767
42
-1.55189570478991
0
ELLIPSE
5
2BD
100
AcDbEntity
8
1
62
256
6
ByLayer
370
18
48
1
60
0
100
AcDbEllipse
10
115.727678
20
82.802419
30
0
11
-0.0376441750873423
21
0.35816040135942
31
0
210
0
220
0
230
1
40
0.996195
41
-1.83259571459403
42
-1.60570291183481
0
ELLIPSE
5
2BE
100
AcDbEntity
8
1
62
256
6
ByLayer
370
18
48
1
60
0
100
AcDbEllipse
10
115.235662
20
82.880828
30
0
11
-0.0899084067211886
21
0.855421349043576
31
0
210
0
220
0
230
1
40
0.996195
41
-2.87979326579066
42
-1.83259571459406
0
ELLIPSE
5
2BF
100
AcDbEntity
8
1
62
256
6
ByLayer
370
18
48
1
60
0
100
AcDbEllipse
10
115.414356
20
82.413986
30
0
11
-0.0376441750873423
21
0.35816040135942
31
0
210
0
220
0
230
1
40
0.996195
41
-3.10668606855003
42
-2.87979326579062
0
ELLIPSE
5
2C0
100
AcDbEntity
8
1
62
256
6
ByLayer
370
18
48
1
60
0
100
AcDbEllipse
10
114.093467
20
91.821665
30
0
11
-1.03066457613038
21
9.80611840735802
31
0
210
0
220
0
230
1
40
0.996195
41
-3.1226920315848
42
-3.10668606854991
0
ELLIPSE
5
2C1
100
AcDbEntity
8
1
62
256
6
ByLayer
370
18
48
1
60
0
100
AcDbEllipse
10
104.573023
20
81.274516
30
0
11
-0.0376441750873423
21
0.35816040135942
31
0
210
0
220
0
230
1
40
0.996195
41
2.87979326579058
42
3.10668606855003
0
ELLIPSE
5
2C2
100
AcDbEntity
8
1
62
256
6
ByLayer
370
18
48
1
60
0
100
AcDbEllipse
10
114.709638
20
86.859784
30
0
11
-0.508022259791923
21
4.83350893051648
31
0
210
0
220
0
230
1
40
0.996195
41
-3.13249202467161
42
-3.12269203158479
0
ELLIPSE
5
2C3
100
AcDbEntity
8
1
62
256
6
ByLayer
370
18
48
1
60
0
100
AcDbEllipse
10
109.35068
20
87.633652
30
0
11
-0.3212794951508
21
3.05677020853232
31
0
210
0
220
0
230
1
40
0.996195
41
-2.97313441150891
42
-1.73925456887578
0
ELLIPSE
5
2C4
100
AcDbEntity
8
1
62
256
6
ByLayer
370
18
48
1
60
0
100
AcDbEllipse
10
104.186317
20
81.589373
30
0
11
0.0522642316338408
21
-0.497260947684137
31
0
210
0
220
0
230
1
40
0.996195
41
-1.53588974175503
42
-1.30899693899581
0
ELLIPSE
5
2C5
100
AcDbEntity
8
1
62
256
6
ByLayer
370
18
48
1
60
0
100
AcDbEllipse
10
104.65128
20
81.768364
30
0
11
0.10452846326768
21
-0.99452189536827
31
0
210
0
220
0
230
1
40
0.996195
41
-1.30899693899578
42
-0.261799387799108
0
ELLIPSE
5
2C6
100
AcDbEntity
8
1
62
256
6
ByLayer
370
18
48
1
60
0
100
AcDbEllipse
10
105.900893
20
90.441721
30
0
11
0.0209056926535362
21
-0.198904379073654
31
0
210
0
220
0
230
1
40
0.996195
41
3.14159265358979
42
-1.5707963267949
0
ELLIPSE
5
2C7
100
AcDbEntity
8
1
62
256
6
ByLayer
370
18
48
1
60
0
100
AcDbEllipse
10
106.556209
20
84.169286
30
0
11
0.034117279959338
21
-0.324604235719799
31
0
210
0
220
0
230
1
40
0.996195
41
-1.5707963267949
42
0
0
ELLIPSE
5
2C8
100
AcDbEntity
8
1
62
256
6
ByLayer
370
18
48
1
60
0
100
AcDbEllipse
10
114.118893
20
93.506172
30
0
11
-0.0899084067211886
21
0.855421349043576
31
0
210
0
220
0
230
1
40
0.996195
41
-1.3089969389957
42
-0.261799387799198
0
ELLIPSE
5
2C9
100
AcDbEntity
8
1
62
256
6
ByLayer
370
18
48
1
60
0
100
AcDbEllipse
10
104.65075
20
81.768309
30
0
11
-0.0899084067211886
21
0.855421349043576
31
0
210
0
220
0
230
1
40
0.996195
41
1.83259571459408
42
2.87979326579066
0
ELLIPSE
5
2CA
100
AcDbEntity
8
1
62
256
6
ByLayer
370
18
48
1
60
0
100
AcDbEllipse
10
112.149051
20
91.098429
30
0
11
0.0209056926535362
21
-0.198904379073654
31
0
210
0
220
0
230
1
40
0.996195
41
1.5707963267949
42
-3.14159265358951
0
ELLIPSE
5
2CB
100
AcDbEntity
8
1
62
256
6
ByLayer
370
18
48
1
60
0
100
AcDbEllipse
10
112.518808
20
87.42716
30
0
11
0.199601851976567
21
-0.0126135121011045
31
0
210
0
220
0
230
1
40
0.014613
41
1.48475903989703
42
2.16884027169499
0
ELLIPSE
5
2CC
100
AcDbEntity
8
1
62
256
6
ByLayer
370
18
48
1
60
0
100
AcDbEllipse
10
112.478981
20
93.179826
30
0
11
1.0452846326768
21
-9.94521895368271
31
0
210
0
220
0
230
1
40
0.996195
41
-1.57989695571309
42
-1.5707963267949
0
ELLIPSE
5
2CD
100
AcDbEntity
8
1
62
256
6
ByLayer
370
18
48
1
60
0
100
AcDbEllipse
10
107.520742
20
92.704448
30
0
11
0.522642316338387
21
-4.97260947684117
31
0
210
0
220
0
230
1
40
0.996195
41
-1.58969694879989
42
-1.57989695571309
0
ELLIPSE
5
2CE
100
AcDbEntity
8
1
62
256
6
ByLayer
370
18
48
1
60
0
100
AcDbEllipse
10
112.483422
20
93.131028
30
0
11
1.04528463267682
21
-9.94521895368273
31
0
210
0
220
0
230
1
40
0.996195
41
-1.60570291183478
42
-1.58969694879989
0
ELLIPSE
5
2CF
100
AcDbEntity
8
1
62
256
6
ByLayer
370
18
48
1
60
0
100
AcDbEllipse
10
103.042494
20
92.472118
30
0
11
0.0522642316338408
21
-0.497260947684137
31
0
210
0
220
0
230
1
40
0.996195
41
-1.83259571459401
42
-1.60570291183476
0
ELLIPSE
5
2D0
100
AcDbEntity
8
1
62
256
6
ByLayer
370
18
48
1
60
0
100
AcDbEllipse
10
113.557933
20
82.907741
30
0
11
1.04528463267682
21
-9.94521895368273
31
0
210
0
220
0
230
1
40
0.996195
41
-1.5518957047899
42
-1.53588974175501
0
ELLIPSE
5
2D1
100
AcDbEntity
8
1
62
256
6
ByLayer
370
18
48
1
60
0
100
AcDbEllipse
10
108.466357
20
90.811913
30
0
11
0.0104528463267681
21
-0.0994521895368268
31
0
210
0
220
0
230
1
40
0.996195
41
0.168458242080126
42
-3.14159265358922
0
ELLIPSE
5
2D2
100
AcDbEntity
8
1
62
256
6
ByLayer
370
18
48
1
60
0
100
AcDbEllipse
10
106.563679
20
83.968969
30
0
11
0.0209056926535362
21
-0.198904379073654
31
0
210
0
220
0
230
1
40
0.087156
41
0.886715094999611
42
1.57079632679483
0
ELLIPSE
5
2D3
100
AcDbEntity
8
1
62
256
6
ByLayer
370
18
48
1
60
0
100
AcDbEllipse
10
109.562681
20
90.927141
30
0
11
0.0104528463267681
21
-0.0994521895368268
31
0
210
0
220
0
230
1
40
0.996195
41
-3.14159265358922
42
-0.168458242081721
0
ELLIPSE
5
2D4
100
AcDbEntity
8
1
62
256
6
ByLayer
370
18
48
1
60
0
100
AcDbEllipse
10
108.475938
20
90.713792
30
0
11
-0.0540801584411752
21
0.192549568846511
31
0
210
0
220
0
230
1
40
0.085922
41
-2.26954508481204
42
-1.58546385301632
0
ELLIPSE
5
2D5
100
AcDbEntity
8
1
62
256
6
ByLayer
370
18
48
1
60
0
100
AcDbEllipse
10
103.860998
20
90.746879
30
0
11
1.0452846326768
21
-9.94521895368271
31
0
210
0
220
0
230
1
40
0.996195
41
-0.00910062891819589
42
0
0
ELLIPSE
5
2D6
100
AcDbEntity
8
1
62
256
6
ByLayer
370
18
48
1
60
0
100
AcDbEllipse
10
112.631667
20
87.422164
30
0
11
0.0236644336325698
21
-0.225152046182971
31
0
210
0
220
0
230
1
40
0.996195
41
1.57079632679477
42
-1.7392545688757
0
ELLIPSE
5
2D7
100
AcDbEntity
8
1
62
256
6
ByLayer
370
18
48
1
60
0
100
AcDbEllipse
10
104.338538
20
85.769737
30
0
11
0.522642316338387
21
-4.97260947684117
31
0
210
0
220
0
230
1
40
0.996195
41
-0.0189006220050045
42
-0.00910062891819766
0
ELLIPSE
5
2D8
100
AcDbEntity
8
1
62
256
6
ByLayer
370
18
48
1
60
0
100
AcDbEllipse
10
103.909611
20
90.751298
30
0
11
1.04528463267682
21
-9.94521895368273
31
0
210
0
220
0
230
1
40
0.996195
41
-0.0349065850398841
42
-0.0189006220049866
0
ELLIPSE
5
2D9
100
AcDbEntity
8
1
62
256
6
ByLayer
370
18
48
1
60
0
100
AcDbEllipse
10
112.635567
20
87.422573
30
0
11
-0.0104528463267688
21
0.0994521895368268
31
0
210
0
220
0
230
1
40
0.996195
41
-1.57079632679504
42
1.40233808471397
0
ELLIPSE
5
2DA
100
AcDbEntity
8
1
62
256
6
ByLayer
370
18
48
1
60
0
100
AcDbEllipse
10
109.139597
20
84.239709
30
0
11
-0.0209056926535377
21
0.198904379073654
31
0
210
0
220
0
230
1
40
0.087156
41
-2.25487755859018
42
-1.5707963267949
0
ELLIPSE
5
2DB
100
AcDbEntity
8
1
62
256
6
ByLayer
370
18
48
1
60
0
100
AcDbEllipse
10
109.534893
20
91.024771
30
0
11
-0.0209056926535377
21
0.198904379073654
31
0
210
0
220
0
230
1
40
0.087156
41
-1.57079632679497
42
-0.886715094999611
0
ELLIPSE
5
2DC
100
AcDbEntity
8
1
62
256
6
ByLayer
370
18
48
1
60
0
100
AcDbEllipse
10
110.198552
20
84.550688
30
0
11
0.054080158441175
21
-0.192549568846511
31
0
210
0
220
0
230
1
40
0.085922
41
1.5561288005734
42
2.24021003236977
0
ELLIPSE
5
2DD
100
AcDbEntity
8
1
62
256
6
ByLayer
370
18
48
1
60
0
100
AcDbEllipse
10
112.519899
20
88.523085
30
0
11
0.0104528463267679
21
-0.0994521895368262
31
0
210
0
220
0
230
1
40
0.996195
41
-1.40233808471397
42
1.57079632679504
0
ELLIPSE
5
2DE
100
AcDbEntity
8
1
62
256
6
ByLayer
370
18
48
1
60
0
100
AcDbEllipse
10
112.406645
20
88.494323
30
0
11
-0.192617575984814
21
-0.0538374351333206
31
0
210
0
220
0
230
1
40
0.014613
41
0.972752381902126
42
1.6568336136934
0
ELLIPSE
5
2DF
100
AcDbEntity
8
1
62
256
6
ByLayer
370
18
48
1
60
0
100
AcDbEllipse
10
105.862652
20
90.638803
30
0
11
-0.0209056926535377
21
0.198904379073654
31
0
210
0
220
0
230
1
40
0.087156
41
-1.57079632679497
42
-0.886715094999611
0
ELLIPSE
5
2E0
100
AcDbEntity
8
1
62
256
6
ByLayer
370
18
48
1
60
0
100
AcDbEllipse
10
104.185788
20
81.589317
30
0
11
-0.0376441750873423
21
0.35816040135942
31
0
210
0
220
0
230
1
40
0.996195
41
1.60570291183481
42
1.83259571459407
0
ELLIPSE
5
2E1
100
AcDbEntity
8
1
62
256
6
ByLayer
370
18
48
1
60
0
100
AcDbEllipse
10
107.520213
20
92.704392
30
0
11
-0.508022259791923
21
4.83350893051648
31
0
210
0
220
0
230
1
40
0.996195
41
1.5518957047899
42
1.5616956978767
0
ELLIPSE
5
2E2
100
AcDbEntity
8
1
62
256
6
ByLayer
370
18
48
1
60
0
100
AcDbEllipse
10
112.11081
20
91.295511
30
0
11
0.0209056926535362
21
-0.198904379073654
31
0
210
0
220
0
230
1
40
0.087156
41
1.5707963267949
42
2.25487755858778
0
ELLIPSE
5
2E3
100
AcDbEntity
8
1
62
256
6
ByLayer
370
18
48
1
60
0
100
AcDbEllipse
10
112.482893
20
93.130973
30
0
11
-1.03066457613038
21
9.80611840735802
31
0
210
0
220
0
230
1
40
0.996195
41
1.53588974175501
42
1.5518957047899
0
ELLIPSE
5
2E4
100
AcDbEntity
8
1
62
256
6
ByLayer
370
18
48
1
60
0
100
AcDbEllipse
10
110.23592
20
84.354937
30
0
11
0.0209056926535362
21
-0.198904379073654
31
0
210
0
220
0
230
1
40
0.087156
41
0.886715095002183
42
1.57079632679497
0
ELLIPSE
5
2E5
100
AcDbEntity
8
1
62
256
6
ByLayer
370
18
48
1
60
0
100
AcDbEllipse
10
103.041965
20
92.472063
30
0
11
-0.0376441750873423
21
0.35816040135942
31
0
210
0
220
0
230
1
40
0.996195
41
1.3089969389958
42
1.53588974175498
0
ELLIPSE
5
2E6
100
AcDbEntity
8
1
62
256
6
ByLayer
370
18
48
1
60
0
100
AcDbEllipse
10
103.533981
20
92.393653
30
0
11
-0.0899084067211886
21
0.855421349043576
31
0
210
0
220
0
230
1
40
0.996195
41
0.261799387799198
42
1.30899693899577
0
ELLIPSE
5
2E7
100
AcDbEntity
8
1
62
256
6
ByLayer
370
18
48
1
60
0
100
AcDbEllipse
10
103.355287
20
92.860495
30
0
11
-0.0376441750873423
21
0.35816040135942
31
0
210
0
220
0
230
1
40
0.996195
41
0.0349065850400834
42
0.26179938779905
0
ELLIPSE
5
2E8
100
AcDbEntity
8
1
62
256
6
ByLayer
370
18
48
1
60
0
100
AcDbEllipse
10
104.676177
20
83.452817
30
0
11
-1.03066457613038
21
9.80611840735802
31
0
210
0
220
0
230
1
40
0.996195
41
0.0189006220049952
42
0.0349065850398798
0
ELLIPSE
5
2E9
100
AcDbEntity
8
1
62
256
6
ByLayer
370
18
48
1
60
0
100
AcDbEllipse
10
104.060006
20
88.414698
30
0
11
-0.508022259791923
21
4.83350893051648
31
0
210
0
220
0
230
1
40
0.996195
41
0.00910062891819672
42
0.0189006220050106
0
ELLIPSE
5
2EA
100
AcDbEntity
8
1
62
256
6
ByLayer
370
18
48
1
60
0
100
AcDbEllipse
10
104.627708
20
83.447032
30
0
11
-1.03066457613036
21
9.80611840735783
31
0
210
0
220
0
230
1
40
0.996195
41
0
42
0.00910062891819702
0
ELLIPSE
5
2EB
100
AcDbEntity
8
1
62
256
6
ByLayer
370
18
48
1
60
0
100
AcDbEllipse
10
114.093996
20
91.82172
30
0
11
1.04528463267682
21
-9.94521895368273
31
0
210
0
220
0
230
1
40
0.996195
41
0.0189006220050038
42
0.0349065850398898
0
ELLIPSE
5
2EC
100
AcDbEntity
8
1
62
256
6
ByLayer
370
18
48
1
60
0
100
AcDbEllipse
10
106.189262
20
86.745039
30
0
11
-0.0104528463267687
21
0.0994521895368261
31
0
210
0
220
0
230
1
40
0.996195
41
-1.40233808471397
42
1.57079632679504
0
ELLIPSE
5
2ED
100
AcDbEntity
8
1
62
256
6
ByLayer
370
18
48
1
60
0
100
AcDbEllipse
10
104.573552
20
81.274572
30
0
11
0.0522642316338408
21
-0.497260947684137
31
0
210
0
220
0
230
1
40
0.996195
41
-0.261799387799104
42
-0.0349065850399972
0
ELLIPSE
5
2EE
100
AcDbEntity
8
1
62
256
6
ByLayer
370
18
48
1
60
0
100
AcDbEllipse
10
109.539039
20
90.825529
30
0
11
-0.0128650708014692
21
-0.199585795970738
31
0
210
0
220
0
230
1
40
0.085922
41
0.901382621222391
42
1.58546385301632
0
ELLIPSE
5
2EF
100
AcDbEntity
8
1
62
256
6
ByLayer
370
18
48
1
60
0
100
AcDbEllipse
10
110.238903
20
84.455801
30
0
11
0.0236644336325697
21
-0.22515204618297
31
0
210
0
220
0
230
1
40
0.996195
41
-2.97313441150882
42
0
0
ELLIPSE
5
2F0
100
AcDbEntity
8
1
62
256
6
ByLayer
370
18
48
1
60
0
100
AcDbEllipse
10
109.35068
20
87.633652
30
0
11
-0.282116967194939
21
2.6841636446117
31
0
210
0
220
0
230
1
40
0.996195
41
0
42
6.28318530717959
0
ELLIPSE
5
2F1
100
AcDbEntity
8
1
62
256
6
ByLayer
370
18
48
1
60
0
100
AcDbEllipse
10
109.395184
20
87.63833
30
0
11
-0.278364087565489
21
2.64845738006431
31
0
210
0
220
0
230
1
40
0.996195
41
-0.926046936998005
42
0
0
ELLIPSE
5
2F2
100
AcDbEntity
8
1
62
256
6
ByLayer
370
18
48
1
60
0
100
AcDbEllipse
10
109.395184
20
87.63833
30
0
11
-0.278364087565489
21
2.64845738006431
31
0
210
0
220
0
230
1
40
0.996195
41
0
42
-2.2155727204214
0
ELLIPSE
5
2F3
100
AcDbEntity
8
1
62
256
6
ByLayer
370
18
48
1
60
0
100
AcDbEllipse
10
109.42158
20
87.641104
30
0
11
-0.264604505792642
21
2.5175437043398
31
0
210
0
220
0
230
1
40
0.996195
41
0
42
6.28318530717959
0
ELLIPSE
5
2F4
100
AcDbEntity
8
1
62
256
6
ByLayer
370
18
48
1
60
0
100
AcDbEllipse
10
109.35068
20
87.633652
30
0
11
-0.3212794951508
21
3.05677020853232
31
0
210
0
220
0
230
1
40
0.996195
41
1.73925456887577
42
2.97313441150891
0
ELLIPSE
5
2F5
100
AcDbEntity
8
1
62
256
6
ByLayer
370
18
48
1
60
0
100
AcDbEllipse
10
114.584385
20
93.68522
30
0
11
0.0522642316338408
21
-0.497260947684137
31
0
210
0
220
0
230
1
40
0.996195
41
1.60570291183476
42
1.83259571459398
0
ELLIPSE
5
2F6
100
AcDbEntity
8
1
62
256
6
ByLayer
370
18
48
1
60
0
100
AcDbEllipse
10
103.860469
20
90.746823
30
0
11
-1.03066457613036
21
9.80611840735783
31
0
210
0
220
0
230
1
40
0.996195
41
3.1324920246716
42
3.14159265358979
0
ELLIPSE
5
2F7
100
AcDbEntity
8
1
62
256
6
ByLayer
370
18
48
1
60
0
100
AcDbEllipse
10
106.267845
20
86.770157
30
0
11
-0.192617575984814
21
-0.0538374351333206
31
0
210
0
220
0
230
1
40
0.014613
41
1.65683361369333
42
2.34091484548673
0
ELLIPSE
5
2F8
100
AcDbEntity
8
1
62
256
6
ByLayer
370
18
48
1
60
0
100
AcDbEllipse
10
112.478981
20
-43.769448
30
0
11
9.9523882903973
21
-0.974662668395035
31
0
210
0
220
0
230
1
40
0.457294
41
3.08122983131003
42
3.09033046022823
0
ELLIPSE
5
2F9
100
AcDbEntity
8
1
62
256
6
ByLayer
370
18
48
1
60
0
100
AcDbEllipse
10
107.520742
20
-43.166156
30
0
11
4.97619414519846
21
-0.487331334197499
31
0
210
0
220
0
230
1
40
0.457294
41
3.09033046022823
42
3.10013045331503
0
ELLIPSE
5
2FA
100
AcDbEntity
8
1
62
256
6
ByLayer
370
18
48
1
60
0
100
AcDbEllipse
10
112.483422
20
-43.747392
30
0
11
9.95238829039732
21
-0.974662668395037
31
0
210
0
220
0
230
1
40
0.457294
41
3.10013045331503
42
3.11613641634992
0
ELLIPSE
5
2FB
100
AcDbEntity
8
1
62
256
6
ByLayer
370
18
48
1
60
0
100
AcDbEllipse
10
103.042494
20
-42.711712
30
0
11
0.497619414519866
21
-0.0487331334197519
31
0
210
0
220
0
230
1
40
0.457294
41
3.11613641634992
42
-2.94015608807048
0
ELLIPSE
5
2FC
100
AcDbEntity
8
1
62
256
6
ByLayer
370
18
48
1
60
0
100
AcDbEllipse
10
104.628237
20
-38.692014
30
0
11
9.9523882903973
21
-0.974662668395035
31
0
210
0
220
0
230
1
40
0.457294
41
-1.64025977799284
42
-1.63115914907466
0
ELLIPSE
5
2FD
100
AcDbEntity
8
1
62
256
6
ByLayer
370
18
48
1
60
0
100
AcDbEllipse
10
104.060535
20
-40.928283
30
0
11
4.97619414519846
21
-0.487331334197499
31
0
210
0
220
0
230
1
40
0.457294
41
-1.65005977107963
42
-1.64025977799285
0
ELLIPSE
5
2FE
100
AcDbEntity
8
1
62
256
6
ByLayer
370
18
48
1
60
0
100
AcDbEllipse
10
103.534511
20
-42.713931
30
0
11
0.995238829039728
21
-0.0974662668395034
31
0
210
0
220
0
230
1
40
0.457294
41
-2.94015608807035
42
-1.8929585368738
0
ELLIPSE
5
2FF
100
AcDbEntity
8
1
62
256
6
ByLayer
370
18
48
1
60
0
100
AcDbEllipse
10
103.355817
20
-42.914352
30
0
11
0.497619414519866
21
-0.0487331334197519
31
0
210
0
220
0
230
1
40
0.457294
41
-1.89295853687364
42
-1.6660657341144
0
ELLIPSE
5
300
100
AcDbEntity
8
1
62
256
6
ByLayer
370
18
48
1
60
0
100
AcDbEllipse
10
104.676706
20
-38.698433
30
0
11
9.95238829039732
21
-0.974662668395037
31
0
210
0
220
0
230
1
40
0.457294
41
-1.66606573411453
42
-1.65005977107965
0
ELLIPSE
5
301
100
AcDbEntity
8
1
62
256
6
ByLayer
370
18
48
1
60
0
100
AcDbEllipse
10
103.889195
20
-39.055765
30
0
11
0.389555694365289
21
-0.0908094763093455
31
0
210
0
220
0
230
1
40
0.887696
41
-1.45401159809237
42
-0.547894364248701
0
ELLIPSE
5
302
100
AcDbEntity
8
1
62
256
6
ByLayer
370
18
48
1
60
0
100
AcDbEllipse
10
104.957621
20
-39.411354
30
0
11
-0.781415841832393
21
0.0765260385048817
31
0
210
0
220
0
230
1
40
0.457294
41
-0.0603628222797924
42
1.51043350451513
0
ELLIPSE
5
303
100
AcDbEntity
8
1
62
256
6
ByLayer
370
18
48
1
60
0
100
AcDbEllipse
10
104.232412
20
-39.757398
30
0
11
0.746429121779796
21
-0.0730997001296275
31
0
210
0
220
0
230
1
40
0.457294
41
3.08122983131005
42
-1.63115914907458
0
ELLIPSE
5
304
100
AcDbEntity
8
1
62
256
6
ByLayer
370
18
48
1
60
0
100
AcDbEllipse
10
104.944335
20
-39.547017
30
0
11
-1.0947627119437
21
0.107212893523449
31
0
210
0
220
0
230
1
40
0.457294
41
-0.0603628222797718
42
1.51043350451513
0
ELLIPSE
5
305
100
AcDbEntity
8
1
62
256
6
ByLayer
370
18
48
1
60
0
100
AcDbEllipse
10
114.584385
20
-44.164957
30
0
11
0.497619414519866
21
-0.0487331334197519
31
0
210
0
220
0
230
1
40
0.457294
41
-0.322162210078859
42
-0.0952694073196239
0
ELLIPSE
5
306
100
AcDbEntity
8
1
62
256
6
ByLayer
370
18
48
1
60
0
100
AcDbEllipse
10
113.400185
20
-40.761024
30
0
11
0.0499696332748626
21
0.396866521327229
31
0
210
0
220
0
230
1
40
0.053649
41
-2.66590145049361
42
-1.75978421664896
0
ELLIPSE
5
307
100
AcDbEntity
8
1
62
256
6
ByLayer
370
18
48
1
60
0
100
AcDbEllipse
10
113.480495
20
-40.621808
30
0
11
-1.0947627119437
21
0.107212893523449
31
0
210
0
220
0
230
1
40
0.457294
41
1.51043350451513
42
3.08122983131004
0
ELLIPSE
5
308
100
AcDbEntity
8
1
62
256
6
ByLayer
370
18
48
1
60
0
100
AcDbEllipse
10
113.493781
20
-40.486145
30
0
11
-0.781415841832393
21
0.0765260385048817
31
0
210
0
220
0
230
1
40
0.457294
41
1.51043350451513
42
3.08122983130998
0
ELLIPSE
5
309
100
AcDbEntity
8
1
62
256
6
ByLayer
370
18
48
1
60
0
100
AcDbEllipse
10
114.056531
20
-40.994357
30
0
11
0.746429121779796
21
-0.0730997001296275
31
0
210
0
220
0
230
1
40
0.457294
41
-1.63115914907466
42
-0.0603628222797008
0
ELLIPSE
5
30A
100
AcDbEntity
8
1
62
256
6
ByLayer
370
18
48
1
60
0
100
AcDbEllipse
10
114.604977
20
-40.404994
30
0
11
-0.389555694365289
21
0.0908094763093456
31
0
210
0
220
0
230
1
40
0.887696
41
0.78146382165383
42
1.68758105549756
0
ELLIPSE
5
30B
100
AcDbEntity
8
1
62
256
6
ByLayer
370
18
48
1
60
0
100
AcDbEllipse
10
114.381109
20
-36.758344
30
0
11
-1.0947627119437
21
0.107212893523449
31
0
210
0
220
0
230
1
40
0.457294
41
3.08122983131004
42
-2.41059273975251
0
ELLIPSE
5
30C
100
AcDbEntity
8
1
62
256
6
ByLayer
370
18
48
1
60
0
100
AcDbEllipse
10
114.909704
20
-39.986558
30
0
11
9.9523882903973
21
-0.974662668395035
31
0
210
0
220
0
230
1
40
0.457294
41
-1.63115914907466
42
-1.62205852015646
0
ELLIPSE
5
30D
100
AcDbEntity
8
1
62
256
6
ByLayer
370
18
48
1
60
0
100
AcDbEllipse
10
114.432165
20
-42.234179
30
0
11
4.97619414519846
21
-0.487331334197499
31
0
210
0
220
0
230
1
40
0.457294
41
-1.62205852015648
42
-1.61225852706966
0
ELLIPSE
5
30E
100
AcDbEntity
8
1
62
256
6
ByLayer
370
18
48
1
60
0
100
AcDbEllipse
10
114.861091
20
-39.980753
30
0
11
9.95238829039732
21
-0.974662668395037
31
0
210
0
220
0
230
1
40
0.457294
41
-1.61225852706966
42
-1.59625256403478
0
ELLIPSE
5
30F
100
AcDbEntity
8
1
62
256
6
ByLayer
370
18
48
1
60
0
100
AcDbEllipse
10
105.206968
20
-42.853826
30
0
11
9.9523882903973
21
-0.974662668395035
31
0
210
0
220
0
230
1
40
0.457294
41
-0.0694634511979498
42
-0.060362822279757
0
ELLIPSE
5
310
100
AcDbEntity
8
1
62
256
6
ByLayer
370
18
48
1
60
0
100
AcDbEllipse
10
110.155694
20
-43.497924
30
0
11
4.97619414519846
21
-0.487331334197499
31
0
210
0
220
0
230
1
40
0.457294
41
-0.0792634442847563
42
-0.0694634511979524
0
ELLIPSE
5
311
100
AcDbEntity
8
1
62
256
6
ByLayer
370
18
48
1
60
0
100
AcDbEllipse
10
114.119423
20
-44.046682
30
0
11
0.995238829039728
21
-0.0974662668395034
31
0
210
0
220
0
230
1
40
0.457294
41
-1.36935976127545
42
-0.322162210078897
0
ELLIPSE
5
312
100
AcDbEntity
8
1
62
256
6
ByLayer
370
18
48
1
60
0
100
AcDbEllipse
10
105.212769
20
-42.831941
30
0
11
9.95238829039732
21
-0.974662668395037
31
0
210
0
220
0
230
1
40
0.457294
41
-0.0952694073196358
42
-0.0792634442847531
0
ELLIPSE
5
313
100
AcDbEntity
8
1
62
256
6
ByLayer
370
18
48
1
60
0
100
AcDbEllipse
10
115.505591
20
-36.54153
30
0
11
-0.389555694365289
21
0.0908094763093456
31
0
210
0
220
0
230
1
40
0.887696
41
0.802375077167899
42
1.68758105549756
0
ELLIPSE
5
314
100
AcDbEntity
8
1
62
256
6
ByLayer
370
18
48
1
60
0
100
AcDbEllipse
10
114.19715
20
-44.279389
30
0
11
0.497619414519866
21
-0.0487331334197519
31
0
210
0
220
0
230
1
40
0.457294
41
-1.59625256403495
42
-1.36935976127568
0
ELLIPSE
5
315
100
AcDbEntity
8
1
62
256
6
ByLayer
370
18
48
1
60
0
100
AcDbEllipse
10
115.093031
20
-36.547963
30
0
11
0.746429121779796
21
-0.0730997001296275
31
0
210
0
220
0
230
1
40
0.457294
41
-0.0603628222797422
42
1.34545146706511
0
ELLIPSE
5
316
100
AcDbEntity
8
1
62
256
6
ByLayer
370
18
48
1
60
0
100
AcDbEllipse
10
104.864025
20
-39.686232
30
0
11
0.0499696332748626
21
0.396866521327229
31
0
210
0
220
0
230
1
40
0.053649
41
-2.66590145049361
42
-1.75978421664788
0
ELLIPSE
5
317
100
AcDbEntity
8
1
62
256
6
ByLayer
370
18
48
1
60
0
100
AcDbEllipse
10
106.291721
20
-38.200435
30
0
11
9.9523882903973
21
-0.974662668395035
31
0
210
0
220
0
230
1
40
0.457294
41
-0.060362822279757
42
-0.0512621933615609
0
ELLIPSE
5
318
100
AcDbEntity
8
1
62
256
6
ByLayer
370
18
48
1
60
0
100
AcDbEllipse
10
111.24996
20
-38.803727
30
0
11
4.97619414519846
21
-0.487331334197499
31
0
210
0
220
0
230
1
40
0.457294
41
-0.0512621933615658
42
-0.0414622002747633
0
ELLIPSE
5
319
100
AcDbEntity
8
1
62
256
6
ByLayer
370
18
48
1
60
0
100
AcDbEllipse
10
106.28728
20
-38.222491
30
0
11
9.95238829039732
21
-0.974662668395037
31
0
210
0
220
0
230
1
40
0.457294
41
-0.0414622002747585
42
-0.025456237239869
0
ELLIPSE
5
31A
100
AcDbEntity
8
1
62
256
6
ByLayer
370
18
48
1
60
0
100
AcDbEllipse
10
115.728208
20
-39.258171
30
0
11
0.497619414519866
21
-0.0487331334197519
31
0
210
0
220
0
230
1
40
0.457294
41
-0.0254562372398158
42
0.100117764541602
0
ELLIPSE
5
31B
100
AcDbEntity
8
1
62
256
6
ByLayer
370
18
48
1
60
0
100
AcDbEllipse
10
80.504699
20
-28.978587
30
0
11
0.95
21
0
31
0
210
0
220
0
230
1
40
0.450878
41
0.697818679084301
42
2.44378340198913
0
ELLIPSE
5
31C
100
AcDbEntity
8
1
62
256
6
ByLayer
370
18
48
1
60
0
100
AcDbEllipse
10
80.504699
20
-28.978587
30
0
11
-1.26132486540519
21
1.54462644440935E-16
31
0
210
0
220
0
230
1
40
0.450878
41
-2.4678923083749
42
-0.673601145432041
0
ELLIPSE
5
31D
100
AcDbEntity
8
1
62
256
6
ByLayer
370
18
48
1
60
0
100
AcDbEllipse
10
104.940276
20
-38.860642
30
0
11
0.796191063231783
21
-0.0779730134716028
31
0
210
0
220
0
230
1
40
0.457294
41
-3.14157698609504
42
-1.63115914907463
0
ELLIPSE
5
31E
100
AcDbEntity
8
1
62
256
6
ByLayer
370
18
48
1
60
0
100
AcDbEllipse
10
105.748913
20
-30.602812
30
0
11
0.873272206414566
21
8.43972926878997
31
0
210
0
220
0
230
-1
40
0.094059
41
-3.13950923453926
42
-3.13570834478113
0
ELLIPSE
5
31F
100
AcDbEntity
8
1
62
256
6
ByLayer
370
18
48
1
60
0
100
AcDbEllipse
10
114.523853
20
-36.028587
30
0
11
0.796191063231783
21
-0.0779730134716028
31
0
210
0
220
0
230
1
40
0.457294
41
-0.0603628222796812
42
1.53123190364929E-05
0
ELLIPSE
5
320
100
AcDbEntity
8
1
62
256
6
ByLayer
370
18
48
1
60
0
100
AcDbEllipse
10
114.41655
20
-31.707073
30
0
11
0.871956853390091
21
8.42697970101745
31
0
210
0
220
0
230
-1
40
0.09413
41
3.13987384151179
42
-3.13950770183418
0
ELLIPSE
5
321
100
AcDbEntity
8
1
62
256
6
ByLayer
370
18
48
1
60
0
100
AcDbEllipse
10
115.333779
20
-27.764531
30
0
11
0.00365871402103729
21
8.19468529163903
31
0
210
0
220
0
230
-1
40
0.010191
41
3.09401566740601
42
3.09781520019541
0
ELLIPSE
5
322
100
AcDbEntity
8
1
62
256
6
ByLayer
370
18
48
1
60
0
100
AcDbEllipse
10
104.954584
20
-38.714541
30
0
11
0.792131741861968
21
-0.117625122152083
31
0
210
0
220
0
230
-1
40
0.420088
41
1.61402535552911
42
-3.10595982139884
0
ELLIPSE
5
323
100
AcDbEntity
8
1
62
256
6
ByLayer
370
18
48
1
60
0
100
AcDbEllipse
10
113.623537
20
-39.806052
30
0
11
0.799484603470502
21
-0.0429733901985181
31
0
210
0
220
0
230
-1
40
0.415607
41
0.0824247644933719
42
1.64562489474384
0
ELLIPSE
5
324
100
AcDbEntity
8
1
62
256
6
ByLayer
370
18
48
1
60
0
100
AcDbEllipse
10
114.419154
20
-31.688098
30
0
11
0.00365850165350735
21
8.19468465827431
31
0
210
0
220
0
230
-1
40
0.010191
41
3.09781519491766
42
3.10161472758375
0
ELLIPSE
5
325
100
AcDbEntity
8
1
62
256
6
ByLayer
370
18
48
1
60
0
100
AcDbEllipse
10
113.609229
20
-39.952154
30
0
11
0.796191063231783
21
-0.0779730134716028
31
0
210
0
220
0
230
1
40
0.457294
41
-1.63115914907477
42
-0.0603628222797792
0
ELLIPSE
5
326
100
AcDbEntity
8
1
62
256
6
ByLayer
370
18
48
1
60
0
100
AcDbEllipse
10
85.27481
20
32.282037
30
0
11
0.0557793381716979
21
-0.443761402507054
31
0
210
0
220
0
230
-1
40
0.055626
41
-1.54292442669206
42
-0.416631458471577
0
ELLIPSE
5
327
100
AcDbEntity
8
1
62
256
6
ByLayer
370
18
48
1
60
0
100
AcDbEllipse
10
-6.763884
20
0
30
0
11
18.7348357595584
21
-39.4834983054935
31
0
210
0
220
0
230
-1
40
0.341999
41
-1.08794676716943
42
-0.161099005228968
0
ELLIPSE
5
328
100
AcDbEntity
8
1
62
256
6
ByLayer
370
18
48
1
60
0
100
AcDbEllipse
10
79.04261
20
-6E-05
30
0
11
62.6991548933328
21
73.2235657021859
31
0
210
0
220
0
230
-1
40
0.235694
41
1.70303628233263
42
1.71053088467162
0
ELLIPSE
5
329
100
AcDbEntity
8
1
62
256
6
ByLayer
370
18
48
1
60
0
100
AcDbEllipse
10
90.334962
20
0
30
0
11
9.30764847090343
21
-74.697789369294
31
0
210
0
220
0
230
-1
40
0.061743
41
1.26103552620262
42
1.61283111187761
0
ELLIPSE
5
32A
100
AcDbEntity
8
1
62
256
6
ByLayer
370
18
48
1
60
0
100
AcDbEllipse
10
199.354641
20
0
30
0
11
236.749715056461
21
-67.8984935148338
31
0
210
0
220
0
230
-1
40
0.131544
41
2.03517785990138
42
2.10562718315447
0
ELLIPSE
5
32B
100
AcDbEntity
8
1
62
256
6
ByLayer
370
18
48
1
60
0
100
AcDbEllipse
10
1257.823131
20
-297.886085
30
0
11
1245.27161093464
21
-352.290282811352
31
0
210
0
220
0
230
-1
40
0.069402
41
2.81375746035589
42
2.84143117974362
0
ELLIPSE
5
32C
100
AcDbEntity
8
1
62
256
6
ByLayer
370
18
48
1
60
0
100
AcDbEllipse
10
-2035.810036
20
0
30
0
11
2139.12790484238
21
-33.7132949054809
31
0
210
0
220
0
230
-1
40
0.031162
41
-0.174538701499671
42
-0.129361586840516
0
ELLIPSE
5
32D
100
AcDbEntity
8
1
62
256
6
ByLayer
370
18
48
1
60
0
100
AcDbEllipse
10
30.763884
20
0
30
0
11
18.7348357595694
21
39.4834983055073
31
0
210
0
220
0
230
-1
40
0.341999
41
-2.98049364836087
42
-2.05364588642063
0
ELLIPSE
5
32E
100
AcDbEntity
8
1
62
256
6
ByLayer
370
18
48
1
60
0
100
AcDbEllipse
10
30.763884
20
0
30
0
11
18.7348357595663
21
-39.483498305503
31
0
210
0
220
0
230
-1
40
0.341999
41
2.05364588642055
42
2.98049364836085
0
ELLIPSE
5
32F
100
AcDbEntity
8
1
62
256
6
ByLayer
370
18
48
1
60
0
100
AcDbEllipse
10
1257.823099
20
279.575071
30
0
11
1245.19447359906
21
331.445806432835
31
0
210
0
220
0
230
-1
40
0.084791
41
2.85595485038137
42
2.88362857015017
0
ELLIPSE
5
330
100
AcDbEntity
8
1
62
256
6
ByLayer
370
18
48
1
60
0
100
AcDbEllipse
10
-6.763884
20
0
30
0
11
18.734835759569
21
39.4834983055066
31
0
210
0
220
0
230
-1
40
0.341999
41
0.161099005228924
42
1.08794676716918
0
ELLIPSE
5
331
100
AcDbEntity
8
1
62
256
6
ByLayer
370
18
48
1
60
0
100
AcDbEllipse
10
199.354641
20
0
30
0
11
236.692832636325
21
64.2967161691306
31
0
210
0
220
0
230
-1
40
0.160658
41
2.11650048684421
42
2.18694981017391
0
ELLIPSE
5
332
100
AcDbEntity
8
1
62
256
6
ByLayer
370
18
48
1
60
0
100
AcDbEllipse
10
82.390233
20
46.83842
30
0
11
1.27016826123967
21
-2.17486166586493
31
0
210
0
220
0
230
-1
40
0.242318
41
0
42
6.28318530717959
0
ELLIPSE
5
333
100
AcDbEntity
8
1
62
256
6
ByLayer
370
18
48
1
60
0
100
AcDbEllipse
10
114.538161
20
-47.52794
30
0
11
0.800097069610327
21
0.0370675840719983
31
0
210
0
220
0
230
-1
40
0.504755
41
-0.56319417779862
42
0.128057993813266
0
ELLIPSE
5
334
100
AcDbEntity
8
1
62
256
6
ByLayer
370
18
48
1
60
0
100
AcDbEllipse
10
114.523853
20
-47.389362
30
0
11
-0.795769637704822
21
-0.0821625444295417
31
0
210
0
220
0
230
1
40
0.536392
41
-3.14156806553774
42
-2.65025306431724
0
ELLIPSE
5
335
100
AcDbEntity
8
1
62
256
6
ByLayer
370
18
48
1
60
0
100
AcDbEllipse
10
108.471034
20
86.916777
30
0
11
0.192922535707739
21
-0.267100713763634
31
0
210
0
220
0
230
-1
40
0.507214
41
-1.57305112800203
42
-0.319332365949707
0
ELLIPSE
5
336
100
AcDbEntity
8
1
62
256
6
ByLayer
370
18
48
1
60
0
100
AcDbEllipse
10
109.471762
20
87.646378
30
0
11
-0.112305380934804
21
1.06851432438367
31
0
210
0
220
0
230
1
40
0.996195
41
-1.8989947813133
42
-1.22592464552866
0
ELLIPSE
5
337
100
AcDbEntity
8
1
62
256
6
ByLayer
370
18
48
1
60
0
100
AcDbEllipse
10
109.354746
20
87.63408
30
0
11
-0.14735377466846
21
1.40197751590065
31
0
210
0
220
0
230
1
40
0.996195
41
-2.61799387799152
42
-1.57079632679493
0
ELLIPSE
5
338
100
AcDbEntity
8
1
62
256
6
ByLayer
370
18
48
1
60
0
100
AcDbEllipse
10
109.354746
20
87.63408
30
0
11
-0.14735377466846
21
1.40197751590065
31
0
210
0
220
0
230
1
40
0.996195
41
2.61799387799149
42
-2.61799387799152
0
ELLIPSE
5
339
100
AcDbEntity
8
1
62
256
6
ByLayer
370
18
48
1
60
0
100
AcDbEllipse
10
109.354746
20
87.63408
30
0
11
-0.14735377466846
21
1.40197751590065
31
0
210
0
220
0
230
1
40
0.996195
41
1.57079632679486
42
2.61799387799149
0
ELLIPSE
5
33A
100
AcDbEntity
8
1
62
256
6
ByLayer
370
18
48
1
60
0
100
AcDbEllipse
10
109.354746
20
87.63408
30
0
11
-0.14735377466846
21
1.40197751590065
31
0
210
0
220
0
230
1
40
0.996195
41
0.523598775598299
42
1.57079632679486
0
ELLIPSE
5
33B
100
AcDbEntity
8
1
62
256
6
ByLayer
370
18
48
1
60
0
100
AcDbEllipse
10
109.354746
20
87.63408
30
0
11
-0.14735377466846
21
1.40197751590065
31
0
210
0
220
0
230
1
40
0.996195
41
-0.52359877559838
42
0.523598775598299
0
ELLIPSE
5
33C
100
AcDbEntity
8
1
62
256
6
ByLayer
370
18
48
1
60
0
100
AcDbEllipse
10
109.354746
20
87.63408
30
0
11
-0.14735377466846
21
1.40197751590065
31
0
210
0
220
0
230
1
40
0.996195
41
-1.57079632679493
42
-0.52359877559838
0
ELLIPSE
5
33D
100
AcDbEntity
8
1
62
256
6
ByLayer
370
18
48
1
60
0
100
AcDbEllipse
10
109.360631
20
87.634698
30
0
11
0.250868311842435
21
-2.38685254888385
31
0
210
0
220
0
230
1
40
0.996195
41
0
42
6.28318530717959
0
ELLIPSE
5
33E
100
AcDbEntity
8
1
62
256
6
ByLayer
370
18
48
1
60
0
100
AcDbEllipse
10
109.471762
20
87.646378
30
0
11
0.112305380934797
21
-1.06851432438367
31
0
210
0
220
0
230
1
40
0.996195
41
0
42
0.781013460241079
0
ELLIPSE
5
33F
100
AcDbEntity
8
1
62
256
6
ByLayer
370
18
48
1
60
0
100
AcDbEllipse
10
109.354746
20
87.63408
30
0
11
0.156792694901521
21
-1.49178284305241
31
0
210
0
220
0
230
1
40
0.996195
41
0
42
6.28318530717959
0
ELLIPSE
5
340
100
AcDbEntity
8
1
62
256
6
ByLayer
370
18
48
1
60
0
100
AcDbEllipse
10
108.968905
20
86.511911
30
0
11
0.300051635635561
21
-0.13460240324717
31
0
210
0
220
0
230
-1
40
0.509152
41
0.706725092708375
42
-2.93304503394649
0
ELLIPSE
5
341
100
AcDbEntity
8
1
62
256
6
ByLayer
370
18
48
1
60
0
100
AcDbEllipse
10
109.471762
20
87.646378
30
0
11
-0.112305380934804
21
1.06851432438367
31
0
210
0
220
0
230
1
40
0.996195
41
1.04719755119654
42
2.09439510239317
0
ELLIPSE
5
342
100
AcDbEntity
8
1
62
256
6
ByLayer
370
18
48
1
60
0
100
AcDbEllipse
10
108.241167
20
87.517038
30
0
11
0.0344734871856535
21
-0.32799332109247
31
0
210
0
220
0
230
-1
40
0.506253
41
0.210870490724097
42
2.68976060475059
0
ELLIPSE
5
343
100
AcDbEntity
8
1
62
256
6
ByLayer
370
18
48
1
60
0
100
AcDbEllipse
10
109.974619
20
88.780846
30
0
11
0.300051635635573
21
-0.134602403247204
31
0
210
0
220
0
230
-1
40
0.509152
41
2.92850617208792
42
-2.43486654220579
0
ELLIPSE
5
344
100
AcDbEntity
8
1
62
256
6
ByLayer
370
18
48
1
60
0
100
AcDbEllipse
10
109.341938
20
88.881575
30
0
11
0.32674520749335
21
0.0343423051539333
31
0
210
0
220
0
230
-1
40
0.510128
41
0.317077564748927
42
1.5707963267949
0
ELLIPSE
5
345
100
AcDbEntity
8
1
62
256
6
ByLayer
370
18
48
1
60
0
100
AcDbEllipse
10
108.341209
20
88.151973
30
0
11
0.133173354423668
21
0.301374772926129
31
0
210
0
220
0
230
-1
40
0.507214
41
0.319332365943151
42
1.57305112795895
0
ELLIPSE
5
346
100
AcDbEntity
8
1
62
256
6
ByLayer
370
18
48
1
60
0
100
AcDbEllipse
10
109.471762
20
87.646378
30
0
11
-0.112305380934804
21
1.06851432438367
31
0
210
0
220
0
230
1
40
0.996195
41
0.128314548408003
42
1.04719755119658
0
ELLIPSE
5
347
100
AcDbEntity
8
1
62
256
6
ByLayer
370
18
48
1
60
0
100
AcDbEllipse
10
109.471762
20
87.646378
30
0
11
-0.112305380934804
21
1.06851432438367
31
0
210
0
220
0
230
1
40
0.996195
41
-0.782387088380263
42
-1.0621841808156E-13
0
ELLIPSE
5
348
100
AcDbEntity
8
1
62
256
6
ByLayer
370
18
48
1
60
0
100
AcDbEllipse
10
108.744024
20
88.651505
30
0
11
0.26550937424594
21
0.194045260686852
31
0
210
0
220
0
230
-1
40
0.509152
41
2.9330450339459
42
-0.612689599862023
0
ELLIPSE
5
349
100
AcDbEntity
8
1
62
256
6
ByLayer
370
18
48
1
60
0
100
AcDbEllipse
10
108.341209
20
88.151973
30
0
11
0.133173354416179
21
0.301374772924712
31
0
210
0
220
0
230
-1
40
0.507214
41
1.57305112799978
42
2.82676989002984
0
ELLIPSE
5
34A
100
AcDbEntity
8
1
62
256
6
ByLayer
370
18
48
1
60
0
100
AcDbEllipse
10
109.432757
20
87.642279
30
0
11
0.250868311842435
21
-2.38685254888385
31
0
210
0
220
0
230
1
40
0.996195
41
3.55980384440582E-05
42
3.14153014702201
0
ELLIPSE
5
34B
100
AcDbEntity
8
1
62
256
6
ByLayer
370
18
48
1
60
0
100
AcDbEllipse
10
108.471034
20
86.916777
30
0
11
0.192922535711208
21
-0.267100713757997
31
0
210
0
220
0
230
-1
40
0.507214
41
-2.82676989002234
42
-1.57305112796254
0
ELLIPSE
5
34C
100
AcDbEntity
8
1
62
256
6
ByLayer
370
18
48
1
60
0
100
AcDbEllipse
10
109.601586
20
86.411182
30
0
11
0.326745207485073
21
0.0343423051615087
31
0
210
0
220
0
230
-1
40
0.510128
41
-1.5707963267949
42
-0.31707756475359
0
ELLIPSE
5
34D
100
AcDbEntity
8
1
62
256
6
ByLayer
370
18
48
1
60
0
100
AcDbEllipse
10
110.1995
20
86.641251
30
0
11
0.265509374245879
21
0.194045260686883
31
0
210
0
220
0
230
-1
40
0.509152
41
2.52890196913102
42
-2.92850617208807
0
ELLIPSE
5
34E
100
AcDbEntity
8
1
62
256
6
ByLayer
370
18
48
1
60
0
100
AcDbEllipse
10
109.471762
20
87.646378
30
0
11
-0.112305380934804
21
1.06851432438367
31
0
210
0
220
0
230
1
40
0.996195
41
2.09439510239321
42
3.14159265358979
0
ELLIPSE
5
34F
100
AcDbEntity
8
1
62
256
6
ByLayer
370
18
48
1
60
0
100
AcDbEllipse
10
112.004699
20
-46.652512
30
0
11
9.68054152852425
21
15.3813352929678
31
0
210
0
220
0
230
-1
40
0.163017
41
2.17330803143993
42
2.48036804435716
0
ELLIPSE
5
350
100
AcDbEntity
8
1
62
256
6
ByLayer
370
18
48
1
60
0
100
AcDbEllipse
10
110.989735
20
-63.848032
30
0
11
2.21534130533452
21
3.63806194602502
31
0
210
0
220
0
230
-1
40
0.181818
41
-2.30533832785346
42
-1.17552293862097
0
ELLIPSE
5
351
100
AcDbEntity
8
1
62
256
6
ByLayer
370
18
48
1
60
0
100
AcDbEllipse
10
110.583295
20
-59.911534
30
0
11
2.23810210604479
21
0.231082156208068
31
0
210
0
220
0
230
1
40
0.536392
41
-0.72845682593843
42
-0.159730211717195
0
ELLIPSE
5
352
100
AcDbEntity
8
1
62
256
6
ByLayer
370
18
48
1
60
0
100
AcDbEllipse
10
112.004699
20
-50.323548
30
0
11
9.5857151966189
21
9.5857151966189
31
0
210
0
220
0
230
-1
40
0.297163
41
2.51577418127499
42
-2.85274066238447
0
ELLIPSE
5
353
100
AcDbEntity
8
1
62
256
6
ByLayer
370
18
48
1
60
0
100
AcDbEllipse
10
114.562785
20
82.397534
30
0
11
0.000312393467310389
21
0.804406189989017
31
0
210
0
220
0
230
-1
40
0.086204
41
2.81963092477659
42
3.11257357726162
0
ELLIPSE
5
354
100
AcDbEntity
8
1
62
256
6
ByLayer
370
18
48
1
60
0
100
AcDbEllipse
10
105.011353
20
82.346103
30
0
11
0.00234239982170641
21
-2.10008585590657
31
0
210
0
220
0
230
-1
40
0.996112
41
-0.691392889525788
42
1.46759190742384
0
ELLIPSE
5
355
100
AcDbEntity
8
1
62
256
6
ByLayer
370
18
48
1
60
0
100
AcDbEllipse
10
104.509777
20
78.787094
30
0
11
8.80763553817884
21
-86.8874407573298
31
0
210
0
220
0
230
-1
40
0.009125
41
1.62838155706766
42
1.71844595033244
0
ELLIPSE
5
356
100
AcDbEntity
8
1
62
256
6
ByLayer
370
18
48
1
60
0
100
AcDbEllipse
10
114.483525
20
82.389203
30
0
11
-0.0836227706141506
21
0.795617516294616
31
0
210
0
220
0
230
1
40
0.087156
41
-2.82872488098926
42
-2.37776827270379
0
ELLIPSE
5
357
100
AcDbEntity
8
1
62
256
6
ByLayer
370
18
48
1
60
0
100
AcDbEllipse
10
105.610826
20
82.660487
30
0
11
-0.219509772862141
21
2.08849598027333
31
0
210
0
220
0
230
1
40
0.996195
41
1.33039084231467
42
1.57079632679523
0
ELLIPSE
5
358
100
AcDbEntity
8
1
62
256
6
ByLayer
370
18
48
1
60
0
100
AcDbEllipse
10
105.64996
20
82.413224
30
0
11
0.203830503371982
21
-1.93931769596816
31
0
210
0
220
0
230
1
40
0.996195
41
-0.677688085537958
42
0.0754474595861062
0
ELLIPSE
5
359
100
AcDbEntity
8
1
62
256
6
ByLayer
370
18
48
1
60
0
100
AcDbEllipse
10
104.985419
20
82.594755
30
0
11
0.00234239992351735
21
-2.10008585591143
31
0
210
0
220
0
230
-1
40
0.996112
41
1.4675919074727
42
2.13035110408091
0
ELLIPSE
5
35A
100
AcDbEntity
8
1
62
256
6
ByLayer
370
18
48
1
60
0
100
AcDbEllipse
10
105.636958
20
82.411857
30
0
11
-0.219509772862147
21
2.08849598027338
31
0
210
0
220
0
230
1
40
0.996195
41
2.29352210439172
42
2.99025627438406
0
ELLIPSE
5
35B
100
AcDbEntity
8
1
62
256
6
ByLayer
370
18
48
1
60
0
100
AcDbEllipse
10
105.636958
20
82.411857
30
0
11
-0.219509772862147
21
2.08849598027338
31
0
210
0
220
0
230
1
40
0.996195
41
1.57079632679527
42
1.81271118592135
0
ELLIPSE
5
35C
100
AcDbEntity
8
1
62
256
6
ByLayer
370
18
48
1
60
0
100
AcDbEllipse
10
110.583295
20
-26.516119
30
0
11
2.63738289695527
21
-0.258285607124683
31
0
210
0
220
0
230
1
40
0.457294
41
1.51043350451521
42
3.08122983131003
0
ELLIPSE
5
35D
100
AcDbEntity
8
1
62
256
6
ByLayer
370
18
48
1
60
0
100
AcDbEllipse
10
87.161405
20
-30.293612
30
0
11
1.86527466807509
21
-0.767854274612164
31
0
210
0
220
0
230
-1
40
0.939801
41
-1.09418038739543
42
1.78561287839522
0
ELLIPSE
5
35E
100
AcDbEntity
8
1
62
256
6
ByLayer
370
18
48
1
60
0
100
AcDbEllipse
10
112.004699
20
-10.527764
30
0
11
9.78023279554566
21
-16.0612684398723
31
0
210
0
220
0
230
-1
40
0.129813
41
1.7098255528902
42
2.0168855657145
0
ELLIPSE
5
35F
100
AcDbEntity
8
1
62
256
6
ByLayer
370
18
48
1
60
0
100
AcDbEllipse
10
104.122762
20
-39.559241
30
0
11
0.779115384925339
21
-0.181616516054785
31
0
210
0
220
0
230
-1
40
0.887692
41
3.02481205421642
42
-1.98043190901963
0
ELLIPSE
5
360
100
AcDbEntity
8
1
62
256
6
ByLayer
370
18
48
1
60
0
100
AcDbEllipse
10
110.989735
20
-22.365914
30
0
11
2.24495354531267
21
-3.74149131687321
31
0
210
0
220
0
230
-1
40
0.147716
41
-2.8368823080923
42
-1.70706691885448
0
ELLIPSE
5
361
100
AcDbEntity
8
1
62
256
6
ByLayer
370
18
48
1
60
0
100
AcDbEllipse
10
110.583295
20
-26.516119
30
0
11
-2.23928736533937
21
0.21929910038887
31
0
210
0
220
0
230
1
40
0.457294
41
0
42
6.28318530717959
0
ELLIPSE
5
362
100
AcDbEntity
8
1
62
256
6
ByLayer
370
18
48
1
60
0
100
AcDbEllipse
10
111.113069
20
-21.106534
30
0
11
0.496570204326747
21
4.6302935665804
31
0
210
0
220
0
230
-1
40
0.569004
41
-1.52662610660874
42
-1.08564516905173
0
ELLIPSE
5
363
100
AcDbEntity
8
1
62
256
6
ByLayer
370
18
48
1
60
0
100
AcDbEllipse
10
96.993889
20
-47.000701
30
0
11
5.88601724550013
21
-1.31786675237484
31
0
210
0
220
0
230
-1
40
0.883215
41
3.00639766535381
42
-1.67828267956913
0
ELLIPSE
5
364
100
AcDbEntity
8
1
62
256
6
ByLayer
370
18
48
1
60
0
100
AcDbEllipse
10
112.004699
20
-6.61629
30
0
11
9.72775878209951
21
-9.72775878209951
31
0
210
0
220
0
230
-1
40
0.238234
41
1.99304807030357
42
2.90771853382242
0
ELLIPSE
5
365
100
AcDbEntity
8
1
62
256
6
ByLayer
370
18
48
1
60
0
100
AcDbEllipse
10
76.704699
20
-39.482948
30
0
11
3.04110891017471
21
-0.680897822056347
31
0
210
0
220
0
230
-1
40
0.883215
41
0
42
6.28318530717959
0
ELLIPSE
5
366
100
AcDbEntity
8
1
62
256
6
ByLayer
370
18
48
1
60
0
100
AcDbEllipse
10
103.203551
20
-42.511839
30
0
11
0.779115384898399
21
-0.181616515970408
31
0
210
0
220
0
230
-1
40
0.887692
41
-3.11068992011907
42
-2.3627084589982
0
ELLIPSE
5
367
100
AcDbEntity
8
1
62
256
6
ByLayer
370
18
48
1
60
0
100
AcDbEllipse
10
80.504699
20
-28.099167
30
0
11
1.525
21
0
31
0
210
0
220
0
230
1
40
0.450878
41
0
42
6.28318530717959
0
POINT
5
6C
100
AcDbEntity
8
80
62
256
6
ByLayer
370
13
48
1
60
0
100
AcDbPoint
10
0
20
0
30
0
39
0
210
0
220
0
230
1
50
360
0
POINT
5
6E
100
AcDbEntity
8
81
62
256
6
ByLayer
370
13
48
1
60
0
100
AcDbPoint
10
115
20
94.5
30
0
39
0
210
0
220
0
230
1
50
360
0
SPLINE
5
368
100
AcDbEntity
8
1
62
256
6
ByLayer
370
18
48
1
60
0
100
AcDbSpline
70
4
71
1
72
4
73
2
40
0
40
0
40
1
40
1
41
1
10
115.207420391402
20
-33.3544992985012
30
0
41
1
10
115.038587064449
20
-33.2034525142356
30
0
0
SPLINE
5
369
100
AcDbEntity
8
1
62
256
6
ByLayer
370
18
48
1
60
0
100
AcDbSpline
70
4
71
1
72
4
73
2
40
0
40
0
40
1
40
1
41
1
10
-0.20000000183029
20
-27.4008145429947
30
0
41
1
10
-0.200000000696775
20
-27.3756937522555
30
0
0
SPLINE
5
36A
100
AcDbEntity
8
1
62
256
6
ByLayer
370
18
48
1
60
0
100
AcDbSpline
70
4
71
3
72
8
73
4
40
0
40
0
40
0
40
0
40
1
40
1
40
1
40
1
41
1
10
116.050609144996
20
-44.7698307427743
30
0
41
1
10
116.075284008154
20
-44.5814423906389
30
0
41
1
10
116.099225161599
20
-44.3946274289378
30
0
41
1
10
116.122836535268
20
-44.207646882101
30
0
0
SPLINE
5
36B
100
AcDbEntity
8
1
62
256
6
ByLayer
370
18
48
1
60
0
100
AcDbSpline
70
4
71
3
72
22
73
18
40
0
40
0
40
0
40
0
40
0.247648061031917
40
0.247648061031917
40
0.499630853098265
40
0.499630853098265
40
0.554937524731892
40
0.554937524731892
40
0.599939125431275
40
0.599939125431275
40
0.645356331404692
40
0.645356331404692
40
0.695796263471267
40
0.695796263471267
40
0.780049574066829
40
0.780049574066829
40
1
40
1
40
1
40
1
41
1
10
116.122836535281
20
-44.2076468821307
30
0
41
1
10
116.124074733933
20
-44.1978414779948
30
0
41
1
10
116.125302140611
20
-44.1879036315651
30
0
41
1
10
116.127657539526
20
-44.1675801200737
30
0
41
1
10
116.128873492767
20
-44.1568095266574
30
0
41
1
10
116.129821808775
20
-44.144162337859
30
0
41
1
10
116.129969513117
20
-44.1418493044225
30
0
41
1
10
116.130132994466
20
-44.1379674305501
30
0
41
1
10
116.130167891312
20
-44.1363110767751
30
0
41
1
10
116.130124058172
20
-44.1335167703812
30
0
41
1
10
116.130042169741
20
-44.1323551368363
30
0
41
1
10
116.129762866839
20
-44.1306184862488
30
0
41
1
10
116.129552107485
20
-44.1300819948938
30
0
41
1
10
116.128907980384
20
-44.1294085954485
30
0
41
1
10
116.12841255805
20
-44.1297150614147
30
0
41
1
10
116.126541969597
20
-44.1319627031155
30
0
41
1
10
116.124982400227
20
-44.1356125366245
30
0
41
1
10
116.123395971994
20
-44.1396529241231
30
0
0
SPLINE
5
36C
100
AcDbEntity
8
1
62
256
6
ByLayer
370
18
48
1
60
0
100
AcDbSpline
70
4
71
3
72
22
73
18
40
0
40
0
40
0
40
0
40
0.104611531529239
40
0.104611531529239
40
0.208411675036454
40
0.208411675036454
40
0.402775886004024
40
0.402775886004024
40
0.500031490391502
40
0.500031490391502
40
0.699792640385671
40
0.699792640385671
40
0.84618436010691
40
0.84618436010691
40
0.950335564350886
40
0.950335564350886
40
1
40
1
40
1
40
1
41
1
10
116.123395971994
20
-44.1396529241238
30
0
41
1
10
116.117901980768
20
-44.1536452705856
30
0
41
1
10
116.111353400077
20
-44.1628135966137
30
0
41
1
10
116.09540471689
20
-44.1695378036261
30
0
41
1
10
116.085824199223
20
-44.167549012031
30
0
41
1
10
116.053852409254
20
-44.1532575246746
30
0
41
1
10
116.02688021356
20
-44.1343473178965
30
0
41
1
10
115.978460235131
20
-44.1037119654976
30
0
41
1
10
115.960801893448
20
-44.0928166287682
30
0
41
1
10
115.903375578105
20
-44.0586693551556
30
0
41
1
10
115.858990172915
20
-44.0344105547324
30
0
41
1
10
115.77716796397
20
-43.9873103356446
30
0
41
1
10
115.740226285403
20
-43.9653064901683
30
0
41
1
10
115.680507537414
20
-43.9191990120413
30
0
41
1
10
115.656428686298
20
-43.8968338523613
30
0
41
1
10
115.626501678091
20
-43.8598599657643
30
0
41
1
10
115.617548923211
20
-43.8471635525765
30
0
41
1
10
115.609510497143
20
-43.8340824237255
30
0
0
SPLINE
5
36D
100
AcDbEntity
8
1
62
256
6
ByLayer
370
18
48
1
60
0
100
AcDbSpline
70
4
71
3
72
10
73
6
40
0
40
0
40
0
40
0
40
0.295368028639108
40
0.295368028639108
40
1
40
1
40
1
40
1
41
1
10
115.321304410285
20
-44.8584527366036
30
0
41
1
10
115.327762499234
20
-44.827917098233
30
0
41
1
10
115.334221807959
20
-44.7973863494062
30
0
41
1
10
115.356068303174
20
-44.694031723728
30
0
41
1
10
115.371439342211
20
-44.6212256593444
30
0
41
1
10
115.386786591495
20
-44.5484399334615
30
0
0
SPLINE
5
36E
100
AcDbEntity
8
1
62
256
6
ByLayer
370
18
48
1
60
0
100
AcDbSpline
70
4
71
3
72
8
73
4
40
0
40
0
40
0
40
0
40
1
40
1
40
1
40
1
41
1
10
115.421990962564
20
-44.3960370047414
30
0
41
1
10
115.465367935623
20
-44.2187694438339
30
0
41
1
10
115.50330257857
20
-44.0402753975872
30
0
41
1
10
115.541687560321
20
-43.8620796462645
30
0
0
SPLINE
5
36F
100
AcDbEntity
8
1
62
256
6
ByLayer
370
18
48
1
60
0
100
AcDbSpline
70
4
71
3
72
22
73
18
40
0
40
0
40
0
40
0
40
0.247648061031954
40
0.247648061031954
40
0.499630853098311
40
0.499630853098311
40
0.554937524731873
40
0.554937524731873
40
0.599939125431463
40
0.599939125431463
40
0.645356331404798
40
0.645356331404798
40
0.695796263471344
40
0.695796263471344
40
0.780049574066738
40
0.780049574066738
40
1
40
1
40
1
40
1
41
1
10
115.541687560226
20
-43.8620796462301
30
0
41
1
10
115.543700498285
20
-43.8527349235491
30
0
41
1
10
115.546031754847
20
-43.8434534567567
30
0
41
1
10
115.552221167424
20
-43.8254097557106
30
0
41
1
10
115.555913948669
20
-43.8161119526523
30
0
41
1
10
115.563946905396
20
-43.8076774869523
30
0
41
1
10
115.565610535869
20
-43.8062658650736
30
0
41
1
10
115.56900614622
20
-43.8043059043987
30
0
41
1
10
115.570703946287
20
-43.8036383588199
30
0
41
1
10
115.574272427095
20
-43.8029920340965
30
0
41
1
10
115.576191228648
20
-43.8030200660893
30
0
41
1
10
115.580101161399
20
-43.8037744507564
30
0
41
1
10
115.582133706731
20
-43.8045718903428
30
0
41
1
10
115.587160953599
20
-43.807270846542
30
0
41
1
10
115.590013886311
20
-43.8095683369237
30
0
41
1
10
115.599322418501
20
-43.8184633926028
30
0
41
1
10
115.604684569051
20
-43.8262290720022
30
0
41
1
10
115.609510497144
20
-43.8340824237248
30
0
0
SPLINE
5
370
100
AcDbEntity
8
1
62
256
6
ByLayer
370
18
48
1
60
0
100
AcDbSpline
70
4
71
3
72
8
73
4
40
0
40
0
40
0
40
0
40
1
40
1
40
1
40
1
41
1
10
115.386786591497
20
-44.5484399334911
30
0
41
1
10
115.397553390918
20
-44.4973774077663
30
0
41
1
10
115.409608267216
20
-44.4466410475779
30
0
41
1
10
115.421990962568
20
-44.3960370047447
30
0
0
SPLINE
5
371
100
AcDbEntity
8
1
62
256
6
ByLayer
370
18
48
1
60
0
100
AcDbSpline
70
4
71
3
72
8
73
4
40
0
40
0
40
0
40
0
40
1
40
1
40
1
40
1
41
1
10
116.02936916744
20
-44.9305372856982
30
0
41
1
10
116.036457099118
20
-44.8772872035773
30
0
41
1
10
116.043565285275
20
-44.82360940477
30
0
41
1
10
116.050609144996
20
-44.7698307427753
30
0
0
SPLINE
5
372
100
AcDbEntity
8
1
62
256
6
ByLayer
370
18
48
1
60
0
100
AcDbSpline
70
4
71
1
72
4
73
2
40
0
40
0
40
1
40
1
41
1
10
105.561366437278
20
81.0112439034087
30
0
41
1
10
104.715465954108
20
80.9355016783122
30
0
0
SPLINE
5
373
100
AcDbEntity
8
1
62
256
6
ByLayer
370
18
48
1
60
0
100
AcDbSpline
70
4
71
1
72
4
73
2
40
0
40
0
40
1
40
1
41
1
10
114.943787715674
20
93.6157752512203
30
0
41
1
10
115.045862665159
20
92.7693815658961
30
0
0
SPLINE
5
374
100
AcDbEntity
8
1
62
256
6
ByLayer
370
18
48
1
60
0
100
AcDbSpline
70
4
71
3
72
45
73
41
40
0
40
0
40
0
40
0
40
0.0011565097570682
40
0.0196321945810439
40
0.0288700369930317
40
0.0381078794050195
40
0.0565835642289952
40
0.130486303524898
40
0.204389042820801
40
0.278291782116703
40
0.310624230558661
40
0.340935900972996
40
0.342956679000618
40
0.347575600206612
40
0.352194521412606
40
0.370670206236582
40
0.37990804864857
40
0.389145891060557
40
0.407621575884533
40
0.426097260708509
40
0.46304863035646
40
0.500000000004411
40
0.536951369652363
40
0.555427054476337
40
0.573902739300314
40
0.592378424124291
40
0.610854108948266
40
0.629329793772241
40
0.647805478596217
40
0.65242439980221
40
0.657043321008205
40
0.689375769450163
40
0.72170821789212
40
0.795610957188022
40
0.869513696483925
40
0.943416435779828
40
0.961892120603803
40
0.980367805427779
40
0.998843490251756
40
1
40
1
40
1
40
1
41
1
10
114.943783568112
20
93.6157747325739
30
0
41
1
10
114.943725998277
20
93.6162356817271
30
0
41
1
10
114.942746277596
20
93.6240546612732
30
0
41
1
10
114.941238487291
20
93.6354092973626
30
0
41
1
10
114.939017507846
20
93.6497252301849
30
0
41
1
10
114.936602534451
20
93.6639597328505
30
0
41
1
10
114.929161506252
20
93.7030298566426
30
0
41
1
10
114.91241751602
20
93.7678924107822
30
0
41
1
10
114.879804471053
20
93.854079854765
30
0
41
1
10
114.844552395766
20
93.9225136640115
30
0
41
1
10
114.813218494954
20
93.9726446233994
30
0
41
1
10
114.797110763742
20
93.9957917710105
30
0
41
1
10
114.787537427625
20
94.0088141218391
30
0
41
1
10
114.784597490771
20
94.0127689449329
30
0
41
1
10
114.777281918125
20
94.0224586664788
30
0
41
1
10
114.768517740478
20
94.03362861406
30
0
41
1
10
114.75819700966
20
94.0461962512886
30
0
41
1
10
114.747676593514
20
94.0586274611065
30
0
41
1
10
114.734157913093
20
94.0739023920272
30
0
41
1
10
114.711769281519
20
94.0977435801333
30
0
41
1
10
114.682410847124
20
94.1263562605469
30
0
41
1
10
114.64514448761
20
94.1585774225935
30
0
41
1
10
114.612525650851
20
94.1834900398413
30
0
41
1
10
114.585612355682
20
94.2022006040625
30
0
41
1
10
114.565048245558
20
94.2156096327142
30
0
41
1
10
114.54413497082
20
94.2283806371258
30
0
41
1
10
114.522902505605
20
94.240499487572
30
0
41
1
10
114.501380824044
20
94.251952054327
30
0
41
1
10
114.485045131216
20
94.2600311693307
30
0
41
1
10
114.474083023056
20
94.2652002012676
30
0
41
1
10
114.457598336972
20
94.2728235681431
30
0
41
1
10
114.429856793991
20
94.2846616114625
30
0
41
1
10
114.37367808323
20
94.3053086917721
30
0
41
1
10
114.299670767234
20
94.3256967838403
30
0
41
1
10
114.20891402602
20
94.3398022194409
30
0
41
1
10
114.142234409592
20
94.3427584886623
30
0
41
1
10
114.099018312111
20
94.3418679268599
30
0
41
1
10
114.077478233744
20
94.3408401214846
30
0
41
1
10
114.062461095425
20
94.3396783038831
30
0
41
1
10
114.054639037301
20
94.3390146884622
30
0
41
1
10
114.054177945592
20
94.3389753827424
30
0
0
SPLINE
5
375
100
AcDbEntity
8
1
62
256
6
ByLayer
370
18
48
1
60
0
100
AcDbSpline
70
4
71
1
72
4
73
2
40
0
40
0
40
1
40
1
41
1
10
113.208277105417
20
94.2632373382488
30
0
41
1
10
114.054177588587
20
94.3389795633453
30
0
0
SPLINE
5
376
100
AcDbEntity
8
1
62
256
6
ByLayer
370
18
48
1
60
0
100
AcDbSpline
70
4
71
3
72
46
73
42
40
0
40
0
40
0
40
0
40
0.0002356819181392
40
0.0012435088516895
40
0.0022513357852398
40
0.002692260068668
40
0.0093061243200916
40
0.0163609128549434
40
0.0324861437917476
40
0.0486113747285519
40
0.0647366056653561
40
0.0687679133995571
40
0.0707835672666576
40
0.0727992211337582
40
0.0768305288679592
40
0.0788461827350597
40
0.0808618366021603
40
0.0848931443363613
40
0.0889244520705624
40
0.0969870675389645
40
0.129237529412573
40
0.161487991286181
40
0.19373845315979
40
0.209863684096594
40
0.217926299564996
40
0.219941953432097
40
0.221957607299197
40
0.222965434232747
40
0.223973261166298
40
0.225988915033398
40
0.226492828500173
40
0.226996741966948
40
0.227232951404499
40
0.234555443968575
40
0.242114145970202
40
0.258239376907006
40
0.290489838780615
40
0.354990762527832
40
0.483992610022266
40
0.741996305011133
40
1
40
1
40
1
40
1
41
1
10
112.760541759227
20
91.6923135874234
30
0
41
1
10
112.760574809107
20
91.6920331176101
30
0
41
1
10
112.760747456165
20
91.6905493380311
30
0
41
1
10
112.761044652275
20
91.6878242944456
30
0
41
1
10
112.761355612473
20
91.6848172697926
30
0
41
1
10
112.762377466009
20
91.6749512479756
30
0
41
1
10
112.764176162887
20
91.6577120223499
30
0
41
1
10
112.767996377087
20
91.6213651121582
30
0
41
1
10
112.773036152268
20
91.5734148543153
30
0
41
1
10
112.779238952491
20
91.5143991523548
30
0
41
1
10
112.783891052659
20
91.4701373758845
30
0
41
1
10
112.786734002761
20
91.4430885124859
30
0
41
1
10
112.787767802798
20
91.4332525621593
30
0
41
1
10
112.788801602835
20
91.4234166118325
30
0
41
1
10
112.789835402872
20
91.4135806615058
30
0
41
1
10
112.79086920291
20
91.403744711179
30
0
41
1
10
112.791903002947
20
91.3939087608524
30
0
41
1
10
112.793195252993
20
91.3816138229439
30
0
41
1
10
112.795262853068
20
91.3619419222904
30
0
41
1
10
112.800948753272
20
91.3078441954933
30
0
41
1
10
112.810252953607
20
91.2193206425527
30
0
41
1
10
112.822658554054
20
91.1012892386318
30
0
41
1
10
112.832996554426
20
91.0029297353644
30
0
41
1
10
112.840233154686
20
90.9340780830773
30
0
41
1
10
112.843593004807
20
90.9021112445154
30
0
41
1
10
112.845143704863
20
90.8873573190253
30
0
41
1
10
112.845789829886
20
90.8812098500711
30
0
41
1
10
112.846306729905
20
90.8762918749077
30
0
41
1
10
112.846823629923
20
90.8713738997443
30
0
41
1
10
112.84727591744
20
90.8670706714764
30
0
41
1
10
112.847663592454
20
90.8633821901038
30
0
41
1
10
112.847823104569
20
90.8618645337058
30
0
41
1
10
112.848856904606
20
90.852028583379
30
0
41
1
10
112.850795279675
20
90.8335861765164
30
0
41
1
10
112.854770967709
20
90.7957600316075
30
0
41
1
10
112.861942955467
20
90.7275231262158
30
0
41
1
10
112.876416155988
20
90.5898198216414
30
0
41
1
10
112.90536255703
20
90.3144132124928
30
0
41
1
10
112.963255359113
20
89.7635999941955
30
0
41
1
10
113.045959362089
20
88.9767239680565
30
0
41
1
10
113.11212256447
20
88.3472231471452
30
0
41
1
10
113.145204165661
20
88.0324727366897
30
0
0
SPLINE
5
377
100
AcDbEntity
8
1
62
256
6
ByLayer
370
18
48
1
60
0
100
AcDbSpline
70
4
71
3
72
21
73
17
40
0
40
0
40
0
40
0
40
0.0592792738439997
40
0.12223937758058
40
0.185199481317159
40
0.248159585053742
40
0.311119688790325
40
0.374079792526904
40
0.500000000000065
40
0.625920207473227
40
0.751840414946389
40
0.814800518682969
40
0.87776062241955
40
0.909240674287841
40
0.940720726156131
40
1
40
1
40
1
40
1
41
1
10
112.596249317971
20
91.8258743443756
30
0
41
1
10
112.600761016819
20
91.8262908077932
30
0
41
1
10
112.609709921334
20
91.8268938025856
30
0
41
1
10
112.622744866972
20
91.8264965186124
30
0
41
1
10
112.637027613629
20
91.8247372235509
30
0
41
1
10
112.651673714901
20
91.8215243250518
30
0
41
1
10
112.666057793243
20
91.8167583347679
30
0
41
1
10
112.684694887283
20
91.8083595448793
30
0
41
1
10
112.7066150231
20
91.7940782763178
30
0
41
1
10
112.728781815975
20
91.771811566085
30
0
41
1
10
112.742721361525
20
91.7504054346485
30
0
41
1
10
112.750955468472
20
91.7321201170398
30
0
41
1
10
112.754858574225
20
91.7207372760333
30
0
41
1
10
112.757218587896
20
91.7119756853418
30
0
41
1
10
112.759064274792
20
91.7034480972522
30
0
41
1
10
112.760009495331
20
91.6968305163094
30
0
41
1
10
112.760541759227
20
91.6923135874234
30
0
0
SPLINE
5
378
100
AcDbEntity
8
1
62
256
6
ByLayer
370
18
48
1
60
0
100
AcDbSpline
70
4
71
3
72
42
73
38
40
0
40
0
40
0
40
0
40
0.25800369498887
40
0.51600738997774
40
0.645009237472175
40
0.709510161219392
40
0.741760623093001
40
0.749823238561403
40
0.757885854029805
40
0.765444556031432
40
0.769223907032246
40
0.77300325803306
40
0.773507171499834
40
0.77401108496661
40
0.77602673883371
40
0.778042392700811
40
0.782073700435012
40
0.790136315903414
40
0.806261546840219
40
0.838512008713827
40
0.870762470587436
40
0.903012932461045
40
0.911075547929447
40
0.915106855663648
40
0.919138163397849
40
0.92316947113205
40
0.927200778866251
40
0.931232086600452
40
0.935263394334654
40
0.951388625271458
40
0.967513856208262
40
0.983639087145067
40
0.990693875679918
40
0.99774866421477
40
0.998756491148321
40
0.999764318081871
40
1
40
1
40
1
40
1
41
1
10
108.950335758819
20
91.4426710114766
30
0
41
1
10
109.263888448937
20
91.475626727187
30
0
41
1
10
109.890993829173
20
91.5415381586076
30
0
41
1
10
110.674875554469
20
91.6239274478836
30
0
41
1
10
111.223592762175
20
91.6815999503767
30
0
41
1
10
111.497951366029
20
91.7104362016232
30
0
41
1
10
111.625332146389
20
91.7238244611306
30
0
41
1
10
111.684123275786
20
91.7300036578263
30
0
41
1
10
111.712906432887
20
91.7330288895419
30
0
41
1
10
111.736484125405
20
91.7355070048834
30
0
41
1
10
111.754856353342
20
91.7374380038508
30
0
41
1
10
111.764654874908
20
91.7384678699667
30
0
41
1
10
111.770472747088
20
91.739079352973
30
0
41
1
10
111.774147192676
20
91.7394655527665
30
0
41
1
10
111.779658861057
20
91.7400448524568
30
0
41
1
10
111.789457382623
20
91.7410747185727
30
0
41
1
10
111.806604795363
20
91.7428769842757
30
0
41
1
10
111.840899620845
20
91.7464815156815
30
0
41
1
10
111.909489271808
20
91.7536905784931
30
0
41
1
10
112.00747448747
20
91.7639892396526
30
0
41
1
10
112.125056746265
20
91.776347633044
30
0
41
1
10
112.21324344036
20
91.7856164280875
30
0
41
1
10
112.267135308974
20
91.7912806917252
30
0
41
1
10
112.286732352107
20
91.7933404239571
30
0
41
1
10
112.301430134456
20
91.794885223131
30
0
41
1
10
112.316127916805
20
91.796430022305
30
0
41
1
10
112.330825699155
20
91.7979748214789
30
0
41
1
10
112.345523481504
20
91.7995196206529
30
0
41
1
10
112.374919046203
20
91.8026092190007
30
0
41
1
10
112.41901239325
20
91.8072436165224
30
0
41
1
10
112.477803522648
20
91.8134228132182
30
0
41
1
10
112.525571315283
20
91.8184434105334
30
0
41
1
10
112.562315771156
20
91.8223054084682
30
0
41
1
10
112.580713950142
20
91.8242538106606
30
0
41
1
10
112.59177065254
20
91.825434785616
30
0
41
1
10
112.594487568333
20
91.825709521298
30
0
41
1
10
112.595969172907
20
91.825848484899
30
0
41
1
10
112.596249317971
20
91.8258743443756
30
0
0
SPLINE
5
379
100
AcDbEntity
8
1
62
256
6
ByLayer
370
18
48
1
60
0
100
AcDbSpline
70
4
71
3
72
41
73
37
40
0
40
0
40
0
40
0
40
0.0078125
40
0.01171875
40
0.013671875
40
0.015625
40
0.03125
40
0.0625
40
0.09375
40
0.125
40
0.1328125
40
0.140625
40
0.15625
40
0.1875
40
0.25
40
0.3125
40
0.375
40
0.4375
40
0.46875
40
0.4765625
40
0.484375
40
0.5
40
0.5625
40
0.625
40
0.6875
40
0.71875
40
0.734375
40
0.7421875
40
0.75
40
0.78125
40
0.8125
40
0.875
40
0.90625
40
0.921875
40
0.9375
40
1
40
1
40
1
40
1
41
1
10
113.145204165661
20
88.0324727366897
30
0
41
1
10
113.151517042224
20
88.0331362467531
30
0
41
1
10
113.161456149109
20
88.0341808889815
30
0
41
1
10
113.171847840066
20
88.0352730997126
30
0
41
1
10
113.177353349843
20
88.0358517521074
30
0
41
1
10
113.191307936388
20
88.0373184382547
30
0
41
1
10
113.226123226677
20
88.0409776727161
30
0
41
1
10
113.281879195703
20
88.046837861202
30
0
41
1
10
113.348770686329
20
88.05386844017
30
0
41
1
10
113.398945040468
20
88.0591419772918
30
0
41
1
10
113.432373458626
20
88.0626554456185
30
0
41
1
10
113.454612437572
20
88.0649928564937
30
0
41
1
10
113.493407506299
20
88.0690703825243
30
0
41
1
10
113.573468332285
20
88.0774851144143
30
0
41
1
10
113.692793724822
20
88.0900267185447
30
0
41
1
10
113.842227713853
20
88.1057328636846
30
0
41
1
10
113.995343690925
20
88.1218260013617
30
0
41
1
10
114.123948345539
20
88.1353428952365
30
0
41
1
10
114.207073124727
20
88.1440796615846
30
0
41
1
10
114.245182426773
20
88.1480851106327
30
0
41
1
10
114.270746852709
20
88.1507720400707
30
0
41
1
10
114.341604506023
20
88.158219479535
30
0
41
1
10
114.457284248893
20
88.170377910445
30
0
41
1
10
114.611615521297
20
88.1865987808087
30
0
41
1
10
114.740219186412
20
88.2001155706829
30
0
41
1
10
114.830258156493
20
88.2095790477774
30
0
41
1
10
114.875252112029
20
88.2143081030656
30
0
41
1
10
114.901004467656
20
88.21701478471
30
0
41
1
10
114.939509885362
20
88.2210618671916
30
0
41
1
10
114.997169214786
20
88.2271221069167
30
0
41
1
10
115.099476116981
20
88.2378749956343
30
0
41
1
10
115.200764282984
20
88.2485208108635
30
0
41
1
10
115.287414446782
20
88.2576281100652
30
0
41
1
10
115.33624619548
20
88.2627605336687
30
0
41
1
10
115.40866634136
20
88.2703721977192
30
0
41
1
10
115.469231113059
20
88.2767378117328
30
0
41
1
10
115.517618535379
20
88.2818235347521
30
0
0
SPLINE
5
37A
100
AcDbEntity
8
1
62
256
6
ByLayer
370
18
48
1
60
0
100
AcDbSpline
70
4
71
3
72
20
73
16
40
0
40
0
40
0
40
0
40
0.332431012821214
40
0.664862025642428
40
0.831077532053035
40
0.914185285258338
40
0.95573916186099
40
0.976516100162316
40
0.986255289991062
40
0.995690130137661
40
0.995994479819809
40
0.996643759141725
40
0.997293038463642
40
0.999890155751307
40
1
40
1
40
1
40
1
41
1
10
115.517618535379
20
88.2818235347521
30
0
41
1
10
115.465353460079
20
88.7790925093828
30
0
41
1
10
115.360823309479
20
89.7736304586442
30
0
41
1
10
115.230166039088
20
91.016803485443
30
0
41
1
10
115.138688612667
20
91.8870227154915
30
0
41
1
10
115.092976988749
20
92.3221352816262
30
0
41
1
10
115.070079019078
20
92.539686972028
30
0
41
1
10
115.058791720171
20
92.6474980822144
30
0
41
1
10
115.052512546947
20
92.7072591952125
30
0
41
1
10
115.049441808171
20
92.7363951492719
30
0
41
1
10
115.047800916377
20
92.751933984538
30
0
41
1
10
115.047547683775
20
92.754331573087
30
0
41
1
10
115.0469247094
20
92.7601577831581
30
0
41
1
10
115.046355935065
20
92.7651736526392
30
0
41
1
10
115.045879425146
20
92.7692171814218
30
0
41
1
10
115.045860061279
20
92.7693812583362
30
0
0
SPLINE
5
37B
100
AcDbEntity
8
1
62
256
6
ByLayer
370
18
48
1
60
0
100
AcDbSpline
70
4
71
3
72
21
73
17
40
0
40
0
40
0
40
0
40
0.0001096836879366
40
0.0027068013926432
40
0.0033560808188202
40
0.0040053602449965
40
0.0088749559413211
40
0.0137445516376465
40
0.0234837430302965
40
0.0338722138491233
40
0.0442606846679497
40
0.0858145679432563
40
0.168922334493869
40
0.335137867595096
40
0.667568933797548
40
1
40
1
40
1
40
1
41
1
10
113.208277347301
20
94.2632347155341
30
0
41
1
10
113.208113693844
20
94.263219638452
30
0
41
1
10
113.204075080345
20
94.2628468736389
30
0
41
1
10
113.199069891131
20
94.2623625491144
30
0
41
1
10
113.193263644545
20
94.2617629435762
30
0
41
1
10
113.184071600552
20
94.2608015948216
30
0
41
1
10
113.168590449525
20
94.2591806682722
30
0
41
1
10
113.139563841419
20
94.2561360637266
30
0
41
1
10
113.102313959304
20
94.2522197042254
30
0
41
1
10
113.056841216072
20
94.2474274465893
30
0
41
1
10
112.963961047558
20
94.2376357590804
30
0
41
1
10
112.762711232764
20
94.2165137197902
30
0
41
1
10
112.32925867384
20
94.170935391964
30
0
41
1
10
111.462348042333
20
94.0798331650601
30
0
41
1
10
110.223906803568
20
93.9496622449125
30
0
41
1
10
109.233153371463
20
93.8455298630943
30
0
41
1
10
108.73777665541
20
93.7934636721851
30
0
0
SPLINE
5
37C
100
AcDbEntity
8
1
62
256
6
ByLayer
370
18
48
1
60
0
100
AcDbSpline
70
4
71
3
72
20
73
16
40
0
40
0
40
0
40
0
40
0.332431012821212
40
0.664862025642423
40
0.831077532053029
40
0.914185285258332
40
0.955739161860983
40
0.976516100162309
40
0.986255289991055
40
0.995690130137653
40
0.995994479819801
40
0.996643759141718
40
0.997293038463634
40
0.9998901557513
40
1
40
1
40
1
40
1
41
1
10
103.252025007316
20
86.9926577069054
30
0
41
1
10
103.304290082616
20
86.4953887322747
30
0
41
1
10
103.408820233216
20
85.5008507830133
30
0
41
1
10
103.539477503607
20
84.2576777562145
30
0
41
1
10
103.630954930029
20
83.387458526166
30
0
41
1
10
103.676666553946
20
82.9523459600314
30
0
41
1
10
103.699564523617
20
82.7347942696297
30
0
41
1
10
103.710851822524
20
82.6269831594433
30
0
41
1
10
103.717130995749
20
82.5672220464451
30
0
41
1
10
103.720201734525
20
82.5380860923857
30
0
41
1
10
103.721842626319
20
82.5225472571195
30
0
41
1
10
103.72209585892
20
82.5201496685705
30
0
41
1
10
103.722718833296
20
82.5143234584996
30
0
41
1
10
103.72328760763
20
82.5093075890184
30
0
41
1
10
103.723764117549
20
82.5052640602357
30
0
41
1
10
103.723783481416
20
82.5050999833213
30
0
0
SPLINE
5
37D
100
AcDbEntity
8
1
62
256
6
ByLayer
370
18
48
1
60
0
100
AcDbSpline
70
4
71
1
72
4
73
2
40
0
40
0
40
1
40
1
41
1
10
115.345510835911
20
82.0527644164539
30
0
41
1
10
114.50234833037
20
81.950978978996
30
0
0
SPLINE
5
37E
100
AcDbEntity
8
1
62
256
6
ByLayer
370
18
48
1
60
0
100
AcDbSpline
70
4
71
3
72
45
73
41
40
0
40
0
40
0
40
0
40
0.0011565097569727
40
0.0196321945809492
40
0.0288700369929375
40
0.0381078794049258
40
0.0565835642289024
40
0.130486303524809
40
0.204389042820715
40
0.278291782116621
40
0.31062423055858
40
0.340935900972917
40
0.342956679000539
40
0.347575600206534
40
0.352194521412528
40
0.370670206236504
40
0.379908048648492
40
0.389145891060481
40
0.407621575884457
40
0.426097260708434
40
0.463048630356387
40
0.500000000004341
40
0.536951369652294
40
0.55542705447627
40
0.573902739300247
40
0.592378424124224
40
0.6108541089482
40
0.629329793772177
40
0.647805478596153
40
0.652424399802147
40
0.657043321008142
40
0.689375769450101
40
0.72170821789206
40
0.795610957187966
40
0.869513696483872
40
0.943416435779779
40
0.961892120603755
40
0.980367805427732
40
0.998843490251708
40
1
40
1
40
1
40
1
41
1
10
115.345510315907
20
82.0527685799248
30
0
41
1
10
115.345969503779
20
82.0528259994868
30
0
41
1
10
115.353758604573
20
82.0538031829853
30
0
41
1
10
115.36506978365
20
82.0553076066167
30
0
41
1
10
115.379330672219
20
82.0575255368817
30
0
41
1
10
115.393510279939
20
82.0599382505081
30
0
41
1
10
115.432429086857
20
82.067376112265
30
0
41
1
10
115.497036950752
20
82.0841312517056
30
0
41
1
10
115.582877754455
20
82.1167978372146
30
0
41
1
10
115.651028910339
20
82.1521273867563
30
0
41
1
10
115.700948445204
20
82.183538629733
30
0
41
1
10
115.723996671166
20
82.1996881996349
30
0
41
1
10
115.736962964388
20
82.2092869842205
30
0
41
1
10
115.740900737255
20
82.212234771318
30
0
41
1
10
115.75054859488
20
82.2195699979476
30
0
41
1
10
115.76167002088
20
82.2283580689825
30
0
41
1
10
115.774182700498
20
82.2387074013691
30
0
41
1
10
115.7865593022
20
82.2492572733556
30
0
41
1
10
115.801766664051
20
82.262814358548
30
0
41
1
10
115.825501368567
20
82.2852677473952
30
0
41
1
10
115.853984281144
20
82.3147131996403
30
0
41
1
10
115.886055976192
20
82.3520932647908
30
0
41
1
10
115.910850012747
20
82.384814234929
30
0
41
1
10
115.929469602898
20
82.4118132608157
30
0
41
1
10
115.942812422591
20
82.4324435801861
30
0
41
1
10
115.955519315987
20
82.453424874579
30
0
41
1
10
115.967576229711
20
82.4747270690614
30
0
41
1
10
115.978969110389
20
82.4963200887006
30
0
41
1
10
115.987005206082
20
82.512710416098
30
0
41
1
10
115.992146309523
20
82.523709387058
30
0
41
1
10
115.999728235273
20
82.5402496256896
30
0
41
1
10
116.01150022743
20
82.5680854418497
30
0
41
1
10
116.032025927934
20
82.6244576992151
30
0
41
1
10
116.052279471808
20
82.6987253841164
30
0
41
1
10
116.06626046629
20
82.7898100589834
30
0
41
1
10
116.069152876859
20
82.8567364820126
30
0
41
1
10
116.068231373276
20
82.9001147633965
30
0
41
1
10
116.067190319037
20
82.9217361414964
30
0
41
1
10
116.066020921955
20
82.9368103126568
30
0
41
1
10
116.06535357613
20
82.9446621241196
30
0
41
1
10
116.065314051209
20
82.9451249698662
30
0
0
SPLINE
5
37F
100
AcDbEntity
8
1
62
256
6
ByLayer
370
18
48
1
60
0
100
AcDbSpline
70
4
71
1
72
4
73
2
40
0
40
0
40
1
40
1
41
1
10
115.989187375984
20
83.7942465744858
30
0
41
1
10
116.065318215969
20
82.9451253248908
30
0
0
SPLINE
5
380
100
AcDbEntity
8
1
62
256
6
ByLayer
370
18
48
1
60
0
100
AcDbSpline
70
4
71
1
72
4
73
2
40
0
40
0
40
1
40
1
41
1
10
103.825855827021
20
81.6587059904374
30
0
41
1
10
103.723780877536
20
82.5050996757615
30
0
0
SPLINE
5
381
100
AcDbEntity
8
1
62
256
6
ByLayer
370
18
48
1
60
0
100
AcDbSpline
70
4
71
3
72
21
73
17
40
0
40
0
40
0
40
0
40
0.0592792738439288
40
0.122239377580537
40
0.185199481317143
40
0.248159585053753
40
0.311119688790363
40
0.374079792526969
40
0.500000000000185
40
0.625920207473401
40
0.751840414946618
40
0.814800518683226
40
0.877760622419834
40
0.909240674288138
40
0.940720726156442
40
1
40
1
40
1
40
1
41
1
10
113.529871255115
20
84.3726323781611
30
0
41
1
10
113.530289744784
20
84.368103491122
30
0
41
1
10
113.530897588836
20
84.3591206708321
30
0
41
1
10
113.530512116061
20
84.3460373347276
30
0
41
1
10
113.528770690691
20
84.3317026148037
30
0
41
1
10
113.525581360202
20
84.3170043348197
30
0
41
1
10
113.520844510817
20
84.3025702879223
30
0
41
1
10
113.512491754335
20
84.2838702134721
30
0
41
1
10
113.498281016091
20
84.2618794929912
30
0
41
1
10
113.476114753414
20
84.2396475236956
30
0
41
1
10
113.454799344913
20
84.2256728608681
30
0
41
1
10
113.436588612033
20
84.2174224813513
30
0
41
1
10
113.425251231731
20
84.2135138144761
30
0
41
1
10
113.416524122306
20
84.2111519276772
30
0
41
1
10
113.408029736833
20
84.2093061039574
30
0
41
1
10
113.401437535703
20
84.2083625971893
30
0
41
1
10
113.396937840687
20
84.2078319249459
30
0
0
SPLINE
5
382
100
AcDbEntity
8
1
62
256
6
ByLayer
370
18
48
1
60
0
100
AcDbSpline
70
4
71
3
72
42
73
38
40
0
40
0
40
0
40
0
40
0.258003694988868
40
0.516007389977737
40
0.645009237472171
40
0.709510161219388
40
0.741760623092996
40
0.749823238561398
40
0.757885854029801
40
0.765444556031428
40
0.769223907032242
40
0.773003258033055
40
0.77350717149983
40
0.774011084966605
40
0.776026738833706
40
0.778042392700806
40
0.782073700435007
40
0.790136315903409
40
0.806261546840214
40
0.838512008713822
40
0.870762470587431
40
0.903012932461039
40
0.911075547929441
40
0.915106855663643
40
0.919138163397843
40
0.923169471132044
40
0.927200778866246
40
0.931232086600447
40
0.935263394334648
40
0.951388625271452
40
0.967513856208256
40
0.983639087145061
40
0.990693875679912
40
0.997748664214764
40
0.998756491148315
40
0.999764318081865
40
1
40
1
40
1
40
1
41
1
10
113.145204165661
20
88.0324727366897
30
0
41
1
10
113.178285766851
20
87.717722326234
30
0
41
1
10
113.244448969232
20
87.0882215053227
30
0
41
1
10
113.327152972209
20
86.3013454791837
30
0
41
1
10
113.385045774292
20
85.7505322608864
30
0
41
1
10
113.413992175334
20
85.4751256517377
30
0
41
1
10
113.427431575817
20
85.3472582974902
30
0
41
1
10
113.433634376041
20
85.2882425955297
30
0
41
1
10
113.43667116365
20
85.2593494914449
30
0
41
1
10
113.439158744989
20
85.2356817359712
30
0
41
1
10
113.441097120059
20
85.2172393291086
30
0
41
1
10
113.442130920096
20
85.2074033787818
30
0
41
1
10
113.442744738868
20
85.2015632832754
30
0
41
1
10
113.443132413882
20
85.1978748019028
30
0
41
1
10
113.443713926403
20
85.192342079844
30
0
41
1
10
113.44474772644
20
85.1825061295173
30
0
41
1
10
113.446556876506
20
85.1652932164455
30
0
41
1
10
113.450175176636
20
85.1308673903019
30
0
41
1
10
113.457411776896
20
85.0620157380148
30
0
41
1
10
113.467749777268
20
84.9636562347474
30
0
41
1
10
113.480155377715
20
84.8456248308265
30
0
41
1
10
113.48945957805
20
84.7571012778859
30
0
41
1
10
113.495145478254
20
84.7030035510888
30
0
41
1
10
113.497213078329
20
84.6833316504353
30
0
41
1
10
113.498763778384
20
84.6685777249452
30
0
41
1
10
113.50031447844
20
84.6538237994552
30
0
41
1
10
113.501865178496
20
84.639069873965
30
0
41
1
10
113.503415878552
20
84.6243159484749
30
0
41
1
10
113.506517278663
20
84.5948080974947
30
0
41
1
10
113.511169378831
20
84.5505463210244
30
0
41
1
10
113.517372179054
20
84.491530619064
30
0
41
1
10
113.522411954235
20
84.4435803612212
30
0
41
1
10
113.526288704375
20
84.4066955474958
30
0
41
1
10
113.528244438466
20
84.3882270788214
30
0
41
1
10
113.529429782249
20
84.3771281266602
30
0
41
1
10
113.529705649007
20
84.3744008412694
30
0
41
1
10
113.529845269822
20
84.3729135904924
30
0
41
1
10
113.529871255115
20
84.3726323781611
30
0
0
SPLINE
5
383
100
AcDbEntity
8
1
62
256
6
ByLayer
370
18
48
1
60
0
100
AcDbSpline
70
4
71
3
72
41
73
37
40
0
40
0
40
0
40
0
40
0.0078125
40
0.01171875
40
0.013671875
40
0.015625
40
0.03125
40
0.0625
40
0.09375
40
0.125
40
0.1328125
40
0.140625
40
0.15625
40
0.1875
40
0.25
40
0.3125
40
0.375
40
0.4375
40
0.46875
40
0.4765625
40
0.484375
40
0.5
40
0.5625
40
0.625
40
0.6875
40
0.71875
40
0.734375
40
0.7421875
40
0.75
40
0.78125
40
0.8125
40
0.875
40
0.90625
40
0.921875
40
0.9375
40
1
40
1
40
1
40
1
41
1
10
109.751023787449
20
83.8246332929557
30
0
41
1
10
109.751689832013
20
83.81829630223
30
0
41
1
10
109.752886552655
20
83.8085028175548
30
0
41
1
10
109.754397226761
20
83.7985850379978
30
0
41
1
10
109.755270354008
20
83.7934208247357
30
0
41
1
10
109.757459802364
20
83.7803020124649
30
0
41
1
10
109.762934903207
20
83.7475875741457
30
0
41
1
10
109.771693993628
20
83.6951847071992
30
0
41
1
10
109.782205228004
20
83.6323194528107
30
0
41
1
10
109.790087492103
20
83.5851625634971
30
0
41
1
10
109.795345554395
20
83.5537526272453
30
0
41
1
10
109.798838763701
20
83.5328504986423
30
0
41
1
10
109.804870886992
20
83.4963110866396
30
0
41
1
10
109.81700389921
20
83.4205142262599
30
0
41
1
10
109.834224607346
20
83.3064744261818
30
0
41
1
10
109.854421865359
20
83.161962977156
30
0
41
1
10
109.87381341167
20
83.0122750214186
30
0
41
1
10
109.889036658089
20
82.8852305106452
30
0
41
1
10
109.898376564377
20
82.8024945607735
30
0
41
1
10
109.902565164616
20
82.7644477759619
30
0
41
1
10
109.90534743825
20
82.7388911743009
30
0
41
1
10
109.913066012178
20
82.668063719954
30
0
41
1
10
109.925663884383
20
82.5524293075315
30
0
41
1
10
109.942472017652
20
82.3981597428563
30
0
41
1
10
109.956477651539
20
82.2696068539742
30
0
41
1
10
109.966284870793
20
82.1796052796714
30
0
41
1
10
109.971183382872
20
82.134627139203
30
0
41
1
10
109.973990823823
20
82.1088885096832
30
0
41
1
10
109.978186290547
20
82.0704007976141
30
0
41
1
10
109.984337830148
20
82.0126057068834
30
0
41
1
10
109.994831407076
20
81.9095356137703
30
0
41
1
10
110.004595768761
20
81.8067173726038
30
0
41
1
10
110.012388222437
20
81.718063048639
30
0
41
1
10
110.016623226343
20
81.6679079150454
30
0
41
1
10
110.022713663669
20
81.5932891927162
30
0
41
1
10
110.027800739859
20
81.5308778976085
30
0
41
1
10
110.031866887285
20
81.4810175694724
30
0
0
SPLINE
5
384
100
AcDbEntity
8
1
62
256
6
ByLayer
370
18
48
1
60
0
100
AcDbSpline
70
4
71
3
72
20
73
16
40
0
40
0
40
0
40
0
40
0.332431012821216
40
0.664862025642432
40
0.83107753205304
40
0.914185285258344
40
0.955739161860996
40
0.976516100162321
40
0.986255289991068
40
0.995690130137666
40
0.995994479819815
40
0.996643759141731
40
0.997293038463648
40
0.999890155751313
40
1
40
1
40
1
40
1
41
1
10
110.031866887285
20
81.4810175694724
30
0
41
1
10
110.527243603338
20
81.5330837603816
30
0
41
1
10
111.517997035443
20
81.6372161421999
30
0
41
1
10
112.756439417895
20
81.7673761809023
30
0
41
1
10
113.623347190187
20
81.8585056114193
30
0
41
1
10
114.056804037933
20
81.9040431338258
30
0
41
1
10
114.273527852816
20
81.926854213905
30
0
41
1
10
114.380928744141
20
81.9380982285966
30
0
41
1
10
114.440462449625
20
81.9443534927925
30
0
41
1
10
114.469487525904
20
81.9474126100323
30
0
41
1
10
114.484967225111
20
81.9490473157673
30
0
41
1
10
114.487355689132
20
81.9492995940635
30
0
41
1
10
114.493159720301
20
81.9499202778899
30
0
41
1
10
114.49815646992
20
81.950487201495
30
0
41
1
10
114.502184571018
20
81.9509622866888
30
0
41
1
10
114.502348021891
20
81.9509815928488
30
0
0
SPLINE
5
385
100
AcDbEntity
8
1
62
256
6
ByLayer
370
18
48
1
60
0
100
AcDbSpline
70
4
71
3
72
21
73
17
40
0
40
0
40
0
40
0
40
0.0001096836879326
40
0.0027068013926392
40
0.0033560808188162
40
0.0040053602449926
40
0.0088749559413171
40
0.0137445516376426
40
0.0234837430302926
40
0.0338722138491194
40
0.0442606846679459
40
0.0858145679432526
40
0.168922334493866
40
0.335137867595093
40
0.667568933797546
40
1
40
1
40
1
40
1
41
1
10
115.989184763223
20
83.794246333777
30
0
41
1
10
115.989169612533
20
83.79441061068
30
0
41
1
10
115.988795033827
20
83.7984646100373
30
0
41
1
10
115.98830854445
20
83.803488885173
30
0
41
1
10
115.987706568154
20
83.809317302231
30
0
41
1
10
115.986741511199
20
83.8185444545547
30
0
41
1
10
115.985114346153
20
83.834084736143
30
0
41
1
10
115.982058064841
20
83.8632222162491
30
0
41
1
10
115.978126754828
20
83.9006143878449
30
0
41
1
10
115.973316288683
20
83.9462608397783
30
0
41
1
10
115.96348742167
20
84.0394958189005
30
0
41
1
10
115.942284472095
20
84.2415143513795
30
0
41
1
10
115.896532198034
20
84.6766226450119
30
0
41
1
10
115.805081871708
20
85.5468447233952
30
0
41
1
10
115.674413761279
20
86.79001661086
30
0
41
1
10
115.569883610679
20
87.7845545601215
30
0
41
1
10
115.517618535379
20
88.2818235347521
30
0
0
SPLINE
5
386
100
AcDbEntity
8
1
62
256
6
ByLayer
370
18
48
1
60
0
100
AcDbSpline
70
4
71
3
72
45
73
41
40
0
40
0
40
0
40
0
40
0.0011565097570429
40
0.0196321945810181
40
0.0288700369930057
40
0.0381078794049933
40
0.0565835642289685
40
0.130486303524869
40
0.20438904282077
40
0.278291782116671
40
0.310624230558627
40
0.340935900972962
40
0.342956679000584
40
0.347575600206578
40
0.352194521412572
40
0.370670206236547
40
0.379908048648534
40
0.389145891060522
40
0.407621575884497
40
0.426097260708472
40
0.463048630356423
40
0.500000000004373
40
0.536951369652323
40
0.555427054476299
40
0.573902739300274
40
0.592378424124249
40
0.610854108948224
40
0.629329793772199
40
0.647805478596175
40
0.652424399802168
40
0.657043321008162
40
0.689375769450119
40
0.721708217892076
40
0.795610957187976
40
0.869513696483877
40
0.943416435779778
40
0.961892120603753
40
0.980367805427728
40
0.998843490251704
40
1
40
1
40
1
40
1
41
1
10
103.825859974583
20
81.6587065090837
30
0
41
1
10
103.825917544419
20
81.6582455599305
30
0
41
1
10
103.826897265099
20
81.6504265803844
30
0
41
1
10
103.828405055404
20
81.6390719442951
30
0
41
1
10
103.830626034849
20
81.6247560114728
30
0
41
1
10
103.833041008245
20
81.6105215088071
30
0
41
1
10
103.840482036444
20
81.5714513850151
30
0
41
1
10
103.857226026675
20
81.5065888308754
30
0
41
1
10
103.889839071642
20
81.4204013868925
30
0
41
1
10
103.92509114693
20
81.3519675776462
30
0
41
1
10
103.956425047741
20
81.3018366182582
30
0
41
1
10
103.972532778954
20
81.278689470647
30
0
41
1
10
103.98210611507
20
81.2656671198185
30
0
41
1
10
103.985046051924
20
81.2617122967247
30
0
41
1
10
103.99236162457
20
81.2520225751789
30
0
41
1
10
104.001125802217
20
81.2408526275975
30
0
41
1
10
104.011446533035
20
81.228284990369
30
0
41
1
10
104.021966949181
20
81.2158537805511
30
0
41
1
10
104.035485629602
20
81.2005788496303
30
0
41
1
10
104.057874261177
20
81.1767376615243
30
0
41
1
10
104.087232695572
20
81.1481249811106
30
0
41
1
10
104.124499055085
20
81.1159038190641
30
0
41
1
10
104.157117891844
20
81.0909912018162
30
0
41
1
10
104.184031187014
20
81.0722806375951
30
0
41
1
10
104.204595297138
20
81.0588716089435
30
0
41
1
10
104.225508571875
20
81.0461006045317
30
0
41
1
10
104.246741037091
20
81.0339817540855
30
0
41
1
10
104.268262718651
20
81.0225291873305
30
0
41
1
10
104.28459841148
20
81.014450072327
30
0
41
1
10
104.295560519639
20
81.00928104039
30
0
41
1
10
104.312045205724
20
81.0016576735145
30
0
41
1
10
104.339786748704
20
80.9898196301951
30
0
41
1
10
104.395965459465
20
80.9691725498855
30
0
41
1
10
104.469972775461
20
80.9487844578173
30
0
41
1
10
104.560729516675
20
80.9346790222166
30
0
41
1
10
104.627409133103
20
80.9317227529954
30
0
41
1
10
104.670625230584
20
80.9326133147978
30
0
41
1
10
104.692165308951
20
80.933641120173
30
0
41
1
10
104.70718244727
20
80.9348029377744
30
0
41
1
10
104.715004505394
20
80.9354665531955
30
0
41
1
10
104.715465597104
20
80.9355058589151
30
0
0
SPLINE
5
387
100
AcDbEntity
8
1
62
256
6
ByLayer
370
18
48
1
60
0
100
AcDbSpline
70
4
71
3
72
46
73
42
40
0
40
0
40
0
40
0
40
0.0002356819181454
40
0.0012435088516957
40
0.0022513357852459
40
0.0026922600686742
40
0.0093061243200977
40
0.0163609128549495
40
0.0324861437917536
40
0.0486113747285577
40
0.0647366056653619
40
0.0687679133995629
40
0.0707835672666634
40
0.0727992211337639
40
0.0768305288679649
40
0.0788461827350654
40
0.080861836602166
40
0.084893144336367
40
0.088924452070568
40
0.0969870675389701
40
0.129237529412578
40
0.161487991286186
40
0.193738453159795
40
0.209863684096599
40
0.217926299565001
40
0.219941953432101
40
0.221957607299202
40
0.222965434232752
40
0.223973261166302
40
0.225988915033403
40
0.226492828500178
40
0.226996741966953
40
0.227232951404504
40
0.23455544396858
40
0.242114145970207
40
0.258239376907011
40
0.290489838780619
40
0.354990762527836
40
0.483992610022269
40
0.741996305011134
40
1
40
1
40
1
40
1
41
1
10
113.396937840687
20
84.2078319249458
30
0
41
1
10
113.396658440976
20
84.2077989738968
30
0
41
1
10
113.395180320861
20
84.2076268578979
30
0
41
1
10
113.392465655436
20
84.2073307113897
30
0
41
1
10
113.389470069384
20
84.2070209728829
30
0
41
1
10
113.379641578784
20
84.2060031217429
30
0
41
1
10
113.362467943138
20
84.204211369144
30
0
41
1
10
113.326259343913
20
84.2004056920124
30
0
41
1
10
113.278491551278
20
84.1953850946971
30
0
41
1
10
113.219700421881
20
84.1892058980014
30
0
41
1
10
113.175607074833
20
84.1845715004797
30
0
41
1
10
113.148661140526
20
84.1817393686608
30
0
41
1
10
113.138862618959
20
84.1807095025449
30
0
41
1
10
113.129064097393
20
84.179679636429
30
0
41
1
10
113.119265575827
20
84.178649770313
30
0
41
1
10
113.109467054261
20
84.1776199041971
30
0
41
1
10
113.099668532695
20
84.176590038081
30
0
41
1
10
113.087420380737
20
84.1753027054361
30
0
41
1
10
113.067823337605
20
84.1732429732043
30
0
41
1
10
113.013931468991
20
84.1675787095666
30
0
41
1
10
112.925744774895
20
84.158309914523
30
0
41
1
10
112.808162516101
20
84.1459515211316
30
0
41
1
10
112.710177300439
20
84.1356528599722
30
0
41
1
10
112.641587649475
20
84.1284437971605
30
0
41
1
10
112.609742454385
20
84.1250967322836
30
0
41
1
10
112.595044672036
20
84.1235519331098
30
0
41
1
10
112.588920596057
20
84.1229082667872
30
0
41
1
10
112.584021335274
20
84.1223933337293
30
0
41
1
10
112.579122074491
20
84.1218784006713
30
0
41
1
10
112.574835221306
20
84.1214278342457
30
0
41
1
10
112.571160775718
20
84.1210416344521
30
0
41
1
10
112.569648894461
20
84.1208827293287
30
0
41
1
10
112.559850372895
20
84.1198528632128
30
0
41
1
10
112.541478144958
20
84.1179218642454
30
0
41
1
10
112.503795939951
20
84.1139613049049
30
0
41
1
10
112.435818696585
20
84.1068166087256
30
0
41
1
10
112.298639394659
20
84.0923984831023
30
0
41
1
10
112.024280790805
20
84.0635622318557
30
0
41
1
10
111.475563583099
20
84.0058897293626
30
0
41
1
10
110.691681857804
20
83.9235004400867
30
0
41
1
10
110.064576477567
20
83.857589008666
30
0
41
1
10
109.751023787449
20
83.8246332929557
30
0
0
SPLINE
5
388
100
AcDbEntity
8
1
62
256
6
ByLayer
370
18
48
1
60
0
100
AcDbSpline
70
4
71
3
72
46
73
42
40
0
40
0
40
0
40
0
40
0.0002356819181342
40
0.0012435088516845
40
0.0022513357852347
40
0.002692260068663
40
0.0093061243200866
40
0.0163609128549385
40
0.0324861437917428
40
0.0486113747285471
40
0.0647366056653513
40
0.0687679133995524
40
0.070783567266653
40
0.0727992211337535
40
0.0768305288679546
40
0.0788461827350551
40
0.0808618366021556
40
0.0848931443363567
40
0.0889244520705578
40
0.0969870675389599
40
0.129237529412568
40
0.161487991286177
40
0.193738453159786
40
0.20986368409659
40
0.217926299564992
40
0.219941953432093
40
0.221957607299193
40
0.222965434232743
40
0.223973261166294
40
0.225988915033394
40
0.226492828500169
40
0.226996741966944
40
0.227232951404495
40
0.234555443968572
40
0.242114145970199
40
0.258239376907003
40
0.290489838780611
40
0.354990762527829
40
0.483992610022263
40
0.741996305011131
40
1
40
1
40
1
40
1
41
1
10
105.940817787041
20
83.5749907170089
30
0
41
1
10
105.940784737162
20
83.5752711868222
30
0
41
1
10
105.940612090103
20
83.5767549664012
30
0
41
1
10
105.940314893994
20
83.5794800099867
30
0
41
1
10
105.940003933795
20
83.5824870346397
30
0
41
1
10
105.938982080259
20
83.5923530564567
30
0
41
1
10
105.937183383382
20
83.6095922820824
30
0
41
1
10
105.933363169182
20
83.6459391922741
30
0
41
1
10
105.928323394001
20
83.693889450117
30
0
41
1
10
105.922120593777
20
83.7529051520775
30
0
41
1
10
105.91746849361
20
83.7971669285478
30
0
41
1
10
105.914625543508
20
83.8242157919462
30
0
41
1
10
105.91359174347
20
83.834051742273
30
0
41
1
10
105.912557943433
20
83.8438876925998
30
0
41
1
10
105.911524143396
20
83.8537236429265
30
0
41
1
10
105.910490343359
20
83.8635595932532
30
0
41
1
10
105.909456543321
20
83.8733955435799
30
0
41
1
10
105.908164293275
20
83.8856904814884
30
0
41
1
10
105.906096693201
20
83.9053623821419
30
0
41
1
10
105.900410792996
20
83.9594601089389
30
0
41
1
10
105.891106592661
20
84.0479836618796
30
0
41
1
10
105.878700992215
20
84.1660150658004
30
0
41
1
10
105.868362991843
20
84.2643745690677
30
0
41
1
10
105.861126391582
20
84.3332262213549
30
0
41
1
10
105.857766541461
20
84.3651930599168
30
0
41
1
10
105.856215841406
20
84.3799469854069
30
0
41
1
10
105.855569716382
20
84.3860944543612
30
0
41
1
10
105.855052816364
20
84.3910124295245
30
0
41
1
10
105.854535916345
20
84.3959304046879
30
0
41
1
10
105.854083628829
20
84.4002336329559
30
0
41
1
10
105.853695953815
20
84.4039221143283
30
0
41
1
10
105.8535364417
20
84.4054397707265
30
0
41
1
10
105.852502641663
20
84.4152757210531
30
0
41
1
10
105.850564266593
20
84.4337181279159
30
0
41
1
10
105.846588578559
20
84.4715442728248
30
0
41
1
10
105.839416590801
20
84.5397811782165
30
0
41
1
10
105.82494339028
20
84.6774844827908
30
0
41
1
10
105.795996989239
20
84.9528910919395
30
0
41
1
10
105.738104187155
20
85.5037043102368
30
0
41
1
10
105.655400184179
20
86.2905803363758
30
0
41
1
10
105.589236981798
20
86.9200811572871
30
0
41
1
10
105.556155380607
20
87.2348315677426
30
0
0
SPLINE
5
389
100
AcDbEntity
8
1
62
256
6
ByLayer
370
18
48
1
60
0
100
AcDbSpline
70
4
71
3
72
21
73
17
40
0
40
0
40
0
40
0
40
0.059279273844152
40
0.12223937758072
40
0.185199481317286
40
0.248159585053855
40
0.311119688790425
40
0.374079792526991
40
0.500000000000126
40
0.625920207473262
40
0.751840414946397
40
0.814800518682965
40
0.877760622419533
40
0.909240674287817
40
0.9407207261561
40
1
40
1
40
1
40
1
41
1
10
106.105110228298
20
83.4414299600567
30
0
41
1
10
106.10059852945
20
83.4410134966391
30
0
41
1
10
106.091649624935
20
83.4404105018467
30
0
41
1
10
106.078614679296
20
83.4408077858199
30
0
41
1
10
106.06433193264
20
83.4425670808814
30
0
41
1
10
106.049685831368
20
83.4457799793805
30
0
41
1
10
106.035301753026
20
83.4505459696644
30
0
41
1
10
106.016664658986
20
83.458944759553
30
0
41
1
10
105.994744523168
20
83.4732260281144
30
0
41
1
10
105.972577730293
20
83.4954927383473
30
0
41
1
10
105.958638184743
20
83.5168988697837
30
0
41
1
10
105.950404077797
20
83.5351841873925
30
0
41
1
10
105.946500972043
20
83.546567028399
30
0
41
1
10
105.944140958373
20
83.5553286190903
30
0
41
1
10
105.942295271476
20
83.5638562071799
30
0
41
1
10
105.941350050937
20
83.5704737881229
30
0
41
1
10
105.940817787041
20
83.5749907170089
30
0
0
SPLINE
5
38A
100
AcDbEntity
8
1
62
256
6
ByLayer
370
18
48
1
60
0
100
AcDbSpline
70
4
71
1
72
4
73
2
40
0
40
0
40
1
40
1
41
1
10
103.424132706785
20
93.2217168252037
30
0
41
1
10
104.267295212325
20
93.3235022626616
30
0
0
SPLINE
5
38B
100
AcDbEntity
8
1
62
256
6
ByLayer
370
18
48
1
60
0
100
AcDbSpline
70
4
71
3
72
45
73
41
40
0
40
0
40
0
40
0
40
0.0011565097571289
40
0.0196321945811021
40
0.0288700369930887
40
0.0381078794050753
40
0.0565835642290485
40
0.130486303524941
40
0.204389042820834
40
0.278291782116727
40
0.31062423055868
40
0.340935900973011
40
0.342956679000633
40
0.347575600206626
40
0.35219452141262
40
0.370670206236593
40
0.379908048648579
40
0.389145891060566
40
0.407621575884539
40
0.426097260708512
40
0.463048630356459
40
0.500000000004405
40
0.536951369652352
40
0.555427054476324
40
0.573902739300298
40
0.592378424124272
40
0.610854108948244
40
0.629329793772218
40
0.647805478596191
40
0.652424399802183
40
0.657043321008177
40
0.689375769450131
40
0.721708217892084
40
0.795610957187976
40
0.869513696483869
40
0.943416435779762
40
0.961892120603735
40
0.980367805427708
40
0.998843490251683
40
1
40
1
40
1
40
1
41
1
10
103.424133226788
20
93.2217126617329
30
0
41
1
10
103.423674038917
20
93.2216552421709
30
0
41
1
10
103.415884938122
20
93.2206780586722
30
0
41
1
10
103.404573759045
20
93.219173635041
30
0
41
1
10
103.390312870476
20
93.216955704776
30
0
41
1
10
103.376133262756
20
93.2145429911494
30
0
41
1
10
103.337214455838
20
93.2071051293925
30
0
41
1
10
103.272606591944
20
93.190349989952
30
0
41
1
10
103.18676578824
20
93.157683404443
30
0
41
1
10
103.118614632356
20
93.1223538549013
30
0
41
1
10
103.068695097491
20
93.0909426119247
30
0
41
1
10
103.04564687153
20
93.0747930420226
30
0
41
1
10
103.032680578307
20
93.065194257437
30
0
41
1
10
103.028742805441
20
93.0622464703397
30
0
41
1
10
103.019094947816
20
93.05491124371
30
0
41
1
10
103.007973521816
20
93.046123172675
30
0
41
1
10
102.995460842198
20
93.0357738402885
30
0
41
1
10
102.983084240496
20
93.0252239683019
30
0
41
1
10
102.967876878644
20
93.0116668831096
30
0
41
1
10
102.944142174128
20
92.9892134942623
30
0
41
1
10
102.915659261551
20
92.9597680420172
30
0
41
1
10
102.883587566503
20
92.9223879768667
30
0
41
1
10
102.858793529949
20
92.8896670067286
30
0
41
1
10
102.840173939797
20
92.8626679808418
30
0
41
1
10
102.826831120105
20
92.8420376614714
30
0
41
1
10
102.814124226709
20
92.8210563670787
30
0
41
1
10
102.802067312984
20
92.7997541725962
30
0
41
1
10
102.790674432306
20
92.778161152957
30
0
41
1
10
102.782638336614
20
92.7617708255597
30
0
41
1
10
102.777497233172
20
92.7507718545996
30
0
41
1
10
102.769915307422
20
92.7342316159679
30
0
41
1
10
102.758143315265
20
92.706395799808
30
0
41
1
10
102.737617614761
20
92.6500235424426
30
0
41
1
10
102.717364070887
20
92.5757558575411
30
0
41
1
10
102.703383076406
20
92.4846711826741
30
0
41
1
10
102.700490665836
20
92.417744759645
30
0
41
1
10
102.70141216942
20
92.3743664782611
30
0
41
1
10
102.702453223658
20
92.3527451001612
30
0
41
1
10
102.703622620741
20
92.3376709290008
30
0
41
1
10
102.704289966565
20
92.3298191175379
30
0
41
1
10
102.704329491486
20
92.3293562717913
30
0
0
SPLINE
5
38C
100
AcDbEntity
8
1
62
256
6
ByLayer
370
18
48
1
60
0
100
AcDbSpline
70
4
71
1
72
4
73
2
40
0
40
0
40
1
40
1
41
1
10
102.780456166711
20
91.4802346671718
30
0
41
1
10
102.704325326727
20
92.3293559167669
30
0
0
SPLINE
5
38D
100
AcDbEntity
8
1
62
256
6
ByLayer
370
18
48
1
60
0
100
AcDbSpline
70
4
71
3
72
46
73
42
40
0
40
0
40
0
40
0
40
0.0002356819181356
40
0.0012435088516858
40
0.0022513357852361
40
0.0026922600686643
40
0.009306124320088
40
0.0163609128549398
40
0.0324861437917441
40
0.0486113747285484
40
0.0647366056653526
40
0.0687679133995537
40
0.0707835672666542
40
0.0727992211337548
40
0.0768305288679558
40
0.0788461827350564
40
0.0808618366021569
40
0.084893144336358
40
0.088924452070559
40
0.0969870675389612
40
0.12923752941257
40
0.161487991286178
40
0.193738453159787
40
0.209863684096591
40
0.217926299564993
40
0.219941953432094
40
0.221957607299194
40
0.222965434232745
40
0.223973261166295
40
0.225988915033395
40
0.22649282850017
40
0.226996741966946
40
0.227232951404496
40
0.234555443968573
40
0.2421141459702
40
0.258239376907004
40
0.290489838780612
40
0.354990762527829
40
0.483992610022264
40
0.741996305011132
40
1
40
1
40
1
40
1
41
1
10
105.304421705582
20
91.0594723794864
30
0
41
1
10
105.304701105292
20
91.0595053305353
30
0
41
1
10
105.306179225408
20
91.0596774465344
30
0
41
1
10
105.308893890832
20
91.0599735930426
30
0
41
1
10
105.311889476884
20
91.0602833315494
30
0
41
1
10
105.321717967485
20
91.0613011826894
30
0
41
1
10
105.33889160313
20
91.0630929352883
30
0
41
1
10
105.375100202355
20
91.0668986124199
30
0
41
1
10
105.422867994991
20
91.0719192097351
30
0
41
1
10
105.481659124388
20
91.0780984064307
30
0
41
1
10
105.525752471436
20
91.0827328039526
30
0
41
1
10
105.552698405743
20
91.0855649357715
30
0
41
1
10
105.562496927309
20
91.0865948018874
30
0
41
1
10
105.572295448875
20
91.0876246680033
30
0
41
1
10
105.582093970441
20
91.0886545341193
30
0
41
1
10
105.591892492007
20
91.0896844002352
30
0
41
1
10
105.601691013574
20
91.0907142663511
30
0
41
1
10
105.613939165531
20
91.0920015989961
30
0
41
1
10
105.633536208664
20
91.094061331228
30
0
41
1
10
105.687428077278
20
91.0997255948657
30
0
41
1
10
105.775614771373
20
91.1089943899092
30
0
41
1
10
105.893197030168
20
91.1213527833006
30
0
41
1
10
105.99118224583
20
91.1316514444601
30
0
41
1
10
106.059771896793
20
91.1388605072717
30
0
41
1
10
106.091617091883
20
91.1422075721486
30
0
41
1
10
106.106314874232
20
91.1437523713225
30
0
41
1
10
106.112438950211
20
91.144396037645
30
0
41
1
10
106.117338210994
20
91.144910970703
30
0
41
1
10
106.122237471777
20
91.145425903761
30
0
41
1
10
106.126524324963
20
91.1458764701866
30
0
41
1
10
106.13019877055
20
91.1462626699802
30
0
41
1
10
106.131710651807
20
91.1464215751035
30
0
41
1
10
106.141509173373
20
91.1474514412195
30
0
41
1
10
106.15988140131
20
91.1493824401869
30
0
41
1
10
106.197563606318
20
91.1533429995272
30
0
41
1
10
106.265540849683
20
91.1604876957067
30
0
41
1
10
106.40272015161
20
91.17490582133
30
0
41
1
10
106.677078755463
20
91.2037420725765
30
0
41
1
10
107.22579596317
20
91.2614145750697
30
0
41
1
10
108.009677688465
20
91.3438038643455
30
0
41
1
10
108.636783068701
20
91.4097152957662
30
0
41
1
10
108.950335758819
20
91.4426710114766
30
0
0
SPLINE
5
38E
100
AcDbEntity
8
1
62
256
6
ByLayer
370
18
48
1
60
0
100
AcDbSpline
70
4
71
3
72
21
73
17
40
0
40
0
40
0
40
0
40
0.0592792738438681
40
0.122239377580414
40
0.185199481316957
40
0.248159585053505
40
0.311119688790052
40
0.374079792526596
40
0.499999999999687
40
0.625920207472778
40
0.751840414945869
40
0.814800518682415
40
0.87776062241896
40
0.909240674287233
40
0.940720726155506
40
1
40
1
40
1
40
1
41
1
10
105.171488291153
20
90.8946719262711
30
0
41
1
10
105.171069801484
20
90.8992008133102
30
0
41
1
10
105.170461957433
20
90.9081836336001
30
0
41
1
10
105.170847430208
20
90.9212669697046
30
0
41
1
10
105.172588855577
20
90.9356016896286
30
0
41
1
10
105.175778186067
20
90.9502999696125
30
0
41
1
10
105.180515035452
20
90.9647340165099
30
0
41
1
10
105.188867791933
20
90.9834340909601
30
0
41
1
10
105.203078530177
20
91.005424811441
30
0
41
1
10
105.225244792854
20
91.0276567807366
30
0
41
1
10
105.246560201356
20
91.041631443564
30
0
41
1
10
105.264770934236
20
91.049881823081
30
0
41
1
10
105.276108314538
20
91.0537904899562
30
0
41
1
10
105.284835423962
20
91.0561523767551
30
0
41
1
10
105.293329809435
20
91.0579982004749
30
0
41
1
10
105.299922010565
20
91.0589417072431
30
0
41
1
10
105.304421705582
20
91.0594723794864
30
0
0
SPLINE
5
38F
100
AcDbEntity
8
1
62
256
6
ByLayer
370
18
48
1
60
0
100
AcDbSpline
70
4
71
3
72
42
73
38
40
0
40
0
40
0
40
0
40
0.258003694988868
40
0.516007389977737
40
0.645009237472171
40
0.709510161219388
40
0.741760623092996
40
0.749823238561398
40
0.757885854029801
40
0.765444556031428
40
0.769223907032242
40
0.773003258033055
40
0.77350717149983
40
0.774011084966605
40
0.776026738833706
40
0.778042392700806
40
0.782073700435007
40
0.790136315903409
40
0.806261546840214
40
0.838512008713822
40
0.870762470587431
40
0.903012932461039
40
0.911075547929441
40
0.915106855663643
40
0.919138163397843
40
0.923169471132044
40
0.927200778866246
40
0.931232086600447
40
0.935263394334648
40
0.951388625271452
40
0.967513856208256
40
0.983639087145061
40
0.990693875679912
40
0.997748664214764
40
0.998756491148315
40
0.999764318081865
40
1
40
1
40
1
40
1
41
1
10
105.556155380607
20
87.2348315677426
30
0
41
1
10
105.523073779417
20
87.5495819781983
30
0
41
1
10
105.456910577036
20
88.1790827991094
30
0
41
1
10
105.37420657406
20
88.9659588252485
30
0
41
1
10
105.316313771976
20
89.5167720435459
30
0
41
1
10
105.287367370935
20
89.7921786526945
30
0
41
1
10
105.273927970451
20
89.9200460069421
30
0
41
1
10
105.267725170228
20
89.9790617089025
30
0
41
1
10
105.264688382619
20
90.0079548129874
30
0
41
1
10
105.262200801279
20
90.031622568461
30
0
41
1
10
105.260262426209
20
90.0500649753237
30
0
41
1
10
105.259228626172
20
90.0599009256504
30
0
41
1
10
105.2586148074
20
90.0657410211569
30
0
41
1
10
105.258227132386
20
90.0694295025294
30
0
41
1
10
105.257645619865
20
90.0749622245883
30
0
41
1
10
105.256611819828
20
90.0847981749149
30
0
41
1
10
105.254802669763
20
90.1020110879867
30
0
41
1
10
105.251184369632
20
90.1364369141303
30
0
41
1
10
105.243947769372
20
90.2052885664175
30
0
41
1
10
105.233609769
20
90.3036480696849
30
0
41
1
10
105.221204168554
20
90.4216794736058
30
0
41
1
10
105.211899968219
20
90.5102030265464
30
0
41
1
10
105.206214068014
20
90.5643007533434
30
0
41
1
10
105.20414646794
20
90.5839726539969
30
0
41
1
10
105.202595767884
20
90.598726579487
30
0
41
1
10
105.201045067828
20
90.6134805049771
30
0
41
1
10
105.199494367772
20
90.6282344304673
30
0
41
1
10
105.197943667717
20
90.6429883559573
30
0
41
1
10
105.194842267605
20
90.6724962069376
30
0
41
1
10
105.190190167438
20
90.7167579834079
30
0
41
1
10
105.183987367214
20
90.7757736853683
30
0
41
1
10
105.178947592033
20
90.8237239432111
30
0
41
1
10
105.175070841894
20
90.8606087569365
30
0
41
1
10
105.173115107803
20
90.8790772256108
30
0
41
1
10
105.171929764019
20
90.8901761777721
30
0
41
1
10
105.171653897261
20
90.8929034631628
30
0
41
1
10
105.171514276446
20
90.8943907139399
30
0
41
1
10
105.171488291153
20
90.8946719262711
30
0
0
SPLINE
5
390
100
AcDbEntity
8
1
62
256
6
ByLayer
370
18
48
1
60
0
100
AcDbSpline
70
4
71
3
72
41
73
37
40
0
40
0
40
0
40
0
40
0.0078125
40
0.01171875
40
0.013671875
40
0.015625
40
0.03125
40
0.0625
40
0.09375
40
0.125
40
0.1328125
40
0.140625
40
0.15625
40
0.1875
40
0.25
40
0.3125
40
0.375
40
0.4375
40
0.46875
40
0.4765625
40
0.484375
40
0.5
40
0.5625
40
0.625
40
0.6875
40
0.71875
40
0.734375
40
0.7421875
40
0.75
40
0.78125
40
0.8125
40
0.875
40
0.90625
40
0.921875
40
0.9375
40
1
40
1
40
1
40
1
41
1
10
108.950335758819
20
91.4426710114766
30
0
41
1
10
108.949669714255
20
91.4490080022023
30
0
41
1
10
108.948804103721
20
91.4588362879521
30
0
41
1
10
108.948219743657
20
91.4688514270381
30
0
41
1
10
108.948000090668
20
91.4740843232124
30
0
41
1
10
108.947414139883
20
91.4873716698692
30
0
41
1
10
108.945967882451
20
91.520509556694
30
0
41
1
10
108.943640397061
20
91.5735884125688
30
0
41
1
10
108.940851514413
20
91.6372653188301
30
0
41
1
10
108.938757063539
20
91.6850305318267
30
0
41
1
10
108.9373697316
20
91.716847298232
30
0
41
1
10
108.936440809001
20
91.7380189442284
30
0
41
1
10
108.934744144995
20
91.7750140313638
30
0
41
1
10
108.930852968386
20
91.8516771435724
30
0
41
1
10
108.923987155077
20
91.9668052869525
30
0
41
1
10
108.913697434834
20
92.112358060159
30
0
41
1
10
108.90154335336
20
92.2628067041034
30
0
41
1
10
108.890019896276
20
92.3902400784054
30
0
41
1
10
108.881953931974
20
92.4731099249753
30
0
41
1
10
108.878140629888
20
92.5111961552122
30
0
41
1
10
108.875548587905
20
92.5367727510255
30
0
41
1
10
108.868372636684
20
92.6076572373171
30
0
41
1
10
108.856653468952
20
92.7233840053013
30
0
41
1
10
108.841019858149
20
92.877777017262
30
0
41
1
10
108.827991786845
20
93.0064326521119
30
0
41
1
10
108.818872315338
20
93.0965065116158
30
0
41
1
10
108.814312301941
20
93.1415202297294
30
0
41
1
10
108.811707031589
20
93.1672801082352
30
0
41
1
10
108.807808772007
20
93.2057990580337
30
0
41
1
10
108.801809610673
20
93.2636101643656
30
0
41
1
10
108.790644400437
20
93.3666096659736
30
0
41
1
10
108.778818273024
20
93.4692112068299
30
0
41
1
10
108.768008172497
20
93.5575483633301
30
0
41
1
10
108.761722792778
20
93.6074879937419
30
0
41
1
10
108.75216603471
20
93.6817423910803
30
0
41
1
10
108.744165908188
20
93.7438475122605
30
0
41
1
10
108.73777665541
20
93.7934636721851
30
0
0
SPLINE
5
391
100
AcDbEntity
8
1
62
256
6
ByLayer
370
18
48
1
60
0
100
AcDbSpline
70
4
71
3
72
20
73
16
40
0
40
0
40
0
40
0
40
0.332431012821216
40
0.664862025642432
40
0.83107753205304
40
0.914185285258344
40
0.955739161860996
40
0.976516100162322
40
0.986255289991068
40
0.995690130137667
40
0.995994479819815
40
0.996643759141731
40
0.997293038463648
40
0.999890155751314
40
1
40
1
40
1
40
1
41
1
10
108.73777665541
20
93.7934636721851
30
0
41
1
10
108.242399939357
20
93.741397481276
30
0
41
1
10
107.251646507252
20
93.6372650994578
30
0
41
1
10
106.013204124801
20
93.5071050607553
30
0
41
1
10
105.146296352508
20
93.4159756302382
30
0
41
1
10
104.712839504763
20
93.3704381078319
30
0
41
1
10
104.496115689879
20
93.3476270277525
30
0
41
1
10
104.388714798555
20
93.3363830130611
30
0
41
1
10
104.32918109307
20
93.3301277488652
30
0
41
1
10
104.300156016792
20
93.3270686316253
30
0
41
1
10
104.284676317584
20
93.3254339258903
30
0
41
1
10
104.282287853563
20
93.325181647594
30
0
41
1
10
104.276483822395
20
93.3245609637677
30
0
41
1
10
104.271487072775
20
93.3239940401627
30
0
41
1
10
104.267458971677
20
93.3235189549688
30
0
41
1
10
104.267295520804
20
93.3234996488087
30
0
0
SPLINE
5
392
100
AcDbEntity
8
1
62
256
6
ByLayer
370
18
48
1
60
0
100
AcDbSpline
70
4
71
3
72
21
73
17
40
0
40
0
40
0
40
0
40
0.000109683687932
40
0.0027068013926386
40
0.0033560808188156
40
0.004005360244992
40
0.0088749559413165
40
0.013744551637642
40
0.023483743030292
40
0.0338722138491188
40
0.0442606846679454
40
0.0858145679432521
40
0.168922334493866
40
0.335137867595092
40
0.667568933797546
40
1
40
1
40
1
40
1
41
1
10
102.780458779472
20
91.4802349078806
30
0
41
1
10
102.780473930162
20
91.4800706309777
30
0
41
1
10
102.780848508868
20
91.4760166316203
30
0
41
1
10
102.781334998245
20
91.4709923564845
30
0
41
1
10
102.781936974541
20
91.4651639394266
30
0
41
1
10
102.782902031497
20
91.4559367871028
30
0
41
1
10
102.784529196542
20
91.4403965055146
30
0
41
1
10
102.787585477854
20
91.4112590254085
30
0
41
1
10
102.791516787867
20
91.3738668538126
30
0
41
1
10
102.796327254012
20
91.3282204018793
30
0
41
1
10
102.806156121026
20
91.2349854227572
30
0
41
1
10
102.827359070601
20
91.0329668902782
30
0
41
1
10
102.873111344661
20
90.5978585966457
30
0
41
1
10
102.964561670987
20
89.7276365182624
30
0
41
1
10
103.095229781417
20
88.4844646307976
30
0
41
1
10
103.199759932016
20
87.4899266815362
30
0
41
1
10
103.252025007316
20
86.9926577069054
30
0
0
SPLINE
5
393
100
AcDbEntity
8
1
62
256
6
ByLayer
370
18
48
1
60
0
100
AcDbSpline
70
4
71
3
72
41
73
37
40
0
40
0
40
0
40
0
40
0.0625
40
0.078125
40
0.09375
40
0.125
40
0.1875
40
0.21875
40
0.25
40
0.2578125
40
0.265625
40
0.28125
40
0.3125
40
0.375
40
0.4375
40
0.5
40
0.515625
40
0.5234375
40
0.53125
40
0.5625
40
0.625
40
0.6875
40
0.75
40
0.8125
40
0.84375
40
0.859375
40
0.8671875
40
0.875
40
0.90625
40
0.9375
40
0.96875
40
0.984375
40
0.986328125
40
0.98828125
40
0.9921875
40
1
40
1
40
1
40
1
41
1
10
103.252025007316
20
86.9926577069054
30
0
41
1
10
103.302735534988
20
86.9979875981362
30
0
41
1
10
103.366213357019
20
87.0046593860773
30
0
41
1
10
103.44209982364
20
87.0126353751184
30
0
41
1
10
103.492981948152
20
87.017983301904
30
0
41
1
10
103.582649758801
20
87.0274077685701
30
0
41
1
10
103.685999690532
20
87.0382702841096
30
0
41
1
10
103.788978226035
20
87.0490937643324
30
0
41
1
10
103.846485177192
20
87.0551379884562
30
0
41
1
10
103.884693387756
20
87.0591538332084
30
0
41
1
10
103.910243572784
20
87.0618392658666
30
0
41
1
10
103.954899029638
20
87.0665327435097
30
0
41
1
10
104.044250251973
20
87.0759239354032
30
0
41
1
10
104.171876354503
20
87.0893379793097
30
0
41
1
10
104.325033104443
20
87.1054354023878
30
0
41
1
10
104.439834142839
20
87.1175014777361
30
0
41
1
10
104.510149173445
20
87.1248918852557
30
0
41
1
10
104.53552336773
20
87.1275588205415
30
0
41
1
10
104.573257371624
20
87.1315248241643
30
0
41
1
10
104.655108208825
20
87.1401276938142
30
0
41
1
10
104.780013074105
20
87.1532557241603
30
0
41
1
10
104.925891586339
20
87.1685881736305
30
0
41
1
10
105.065418037602
20
87.1832529945897
30
0
41
1
10
105.174388535311
20
87.1947062554179
30
0
41
1
10
105.246207525688
20
87.2022547354791
30
0
41
1
10
105.28066713513
20
87.205876586377
30
0
41
1
10
105.300341827368
20
87.2079444798588
30
0
41
1
10
105.329899515175
20
87.2110511180319
30
0
41
1
10
105.374286056088
20
87.2157163314707
30
0
41
1
10
105.433455194987
20
87.2219352585661
30
0
41
1
10
105.482779558981
20
87.2271194581236
30
0
41
1
10
105.513566005858
20
87.2303552440792
30
0
41
1
10
105.525917094833
20
87.2316533958406
30
0
41
1
10
105.530769130352
20
87.2321633653233
30
0
41
1
10
105.540234507266
20
87.2331582165253
30
0
41
1
10
105.549842504045
20
87.2341680576792
30
0
41
1
10
105.556155380607
20
87.2348315677426
30
0
0
SPLINE
5
394
100
AcDbEntity
8
1
62
256
6
ByLayer
370
18
48
1
60
0
100
AcDbSpline
70
4
71
3
72
21
73
17
40
0
40
0
40
0
40
0
40
0.0001096836879253
40
0.002706801392632
40
0.003356080818809
40
0.0040053602449854
40
0.00887495594131
40
0.0137445516376354
40
0.0234837430302855
40
0.0338722138491124
40
0.044260684667939
40
0.085814567943246
40
0.16892233449386
40
0.335137867595088
40
0.667568933797544
40
1
40
1
40
1
40
1
41
1
10
105.561366195394
20
81.0112465261236
30
0
41
1
10
105.561529848851
20
81.0112616032055
30
0
41
1
10
105.565568462351
20
81.0116343680188
30
0
41
1
10
105.570573651565
20
81.0121186925433
30
0
41
1
10
105.57637989815
20
81.0127182980815
30
0
41
1
10
105.585571942144
20
81.013679646836
30
0
41
1
10
105.601053093171
20
81.0153005733855
30
0
41
1
10
105.630079701276
20
81.018345177931
30
0
41
1
10
105.667329583391
20
81.0222615374322
30
0
41
1
10
105.712802326624
20
81.0270537950684
30
0
41
1
10
105.805682495137
20
81.0368454825773
30
0
41
1
10
106.006932309932
20
81.0579675218675
30
0
41
1
10
106.440384868855
20
81.1035458496935
30
0
41
1
10
107.307295500362
20
81.1946480765974
30
0
41
1
10
108.545736739128
20
81.3248189967451
30
0
41
1
10
109.536490171233
20
81.4289513785634
30
0
41
1
10
110.031866887285
20
81.4810175694724
30
0
0
SPLINE
5
395
100
AcDbEntity
8
1
62
256
6
ByLayer
370
18
48
1
60
0
100
AcDbSpline
70
4
71
3
72
42
73
38
40
0
40
0
40
0
40
0
40
0.258003694988873
40
0.516007389977745
40
0.645009237472182
40
0.7095101612194
40
0.741760623093009
40
0.749823238561411
40
0.757885854029813
40
0.765444556031441
40
0.769223907032255
40
0.773003258033068
40
0.773507171499843
40
0.774011084966618
40
0.776026738833719
40
0.778042392700819
40
0.78207370043502
40
0.790136315903422
40
0.806261546840227
40
0.838512008713836
40
0.870762470587445
40
0.903012932461054
40
0.911075547929457
40
0.915106855663658
40
0.919138163397859
40
0.92316947113206
40
0.927200778866261
40
0.931232086600462
40
0.935263394334663
40
0.951388625271468
40
0.967513856208272
40
0.983639087145077
40
0.990693875679929
40
0.997748664214781
40
0.998756491148331
40
0.999764318081882
40
1
40
1
40
1
40
1
41
1
10
109.751023787449
20
83.8246332929557
30
0
41
1
10
109.437471097331
20
83.7916775772453
30
0
41
1
10
108.810365717095
20
83.7257661458245
30
0
41
1
10
108.0264839918
20
83.6433768565487
30
0
41
1
10
107.477766784093
20
83.5857043540556
30
0
41
1
10
107.20340818024
20
83.5568681028089
30
0
41
1
10
107.076027399879
20
83.5434798433016
30
0
41
1
10
107.017236270482
20
83.537300646606
30
0
41
1
10
106.988453113382
20
83.5342754148903
30
0
41
1
10
106.964875420863
20
83.5317972995489
30
0
41
1
10
106.946503192926
20
83.5298663005815
30
0
41
1
10
106.93670467136
20
83.5288364344656
30
0
41
1
10
106.93088679918
20
83.5282249514592
30
0
41
1
10
106.927212353593
20
83.5278387516657
30
0
41
1
10
106.921700685212
20
83.5272594519755
30
0
41
1
10
106.911902163646
20
83.5262295858595
30
0
41
1
10
106.894754750905
20
83.5244273201566
30
0
41
1
10
106.860459925423
20
83.5208227887508
30
0
41
1
10
106.79187027446
20
83.5136137259392
30
0
41
1
10
106.693885058798
20
83.5033150647796
30
0
41
1
10
106.576302800004
20
83.4909566713883
30
0
41
1
10
106.488116105908
20
83.4816878763447
30
0
41
1
10
106.434224237294
20
83.476023612707
30
0
41
1
10
106.414627194162
20
83.4739638804751
30
0
41
1
10
106.399929411812
20
83.4724190813013
30
0
41
1
10
106.385231629463
20
83.4708742821273
30
0
41
1
10
106.370533847114
20
83.4693294829533
30
0
41
1
10
106.355836064764
20
83.4677846837794
30
0
41
1
10
106.326440500066
20
83.4646950854316
30
0
41
1
10
106.282347153018
20
83.4600606879098
30
0
41
1
10
106.223556023621
20
83.4538814912141
30
0
41
1
10
106.175788230986
20
83.4488608938989
30
0
41
1
10
106.139043775112
20
83.4449988959641
30
0
41
1
10
106.120645596126
20
83.4430504937717
30
0
41
1
10
106.109588893728
20
83.4418695188162
30
0
41
1
10
106.106871977935
20
83.4415947831343
30
0
41
1
10
106.105390373362
20
83.4414558195332
30
0
41
1
10
106.105110228298
20
83.4414299600567
30
0
0
SPLINE
5
396
100
AcDbEntity
8
1
62
256
6
ByLayer
370
18
48
1
60
0
100
AcDbSpline
70
4
71
3
72
10
73
6
40
0
40
0
40
0
40
0
40
0.295368028639119
40
0.295368028639119
40
1
40
1
40
1
40
1
41
1
10
103.133634024807
20
-40.7895141221002
30
0
41
1
10
103.123745959015
20
-40.8210892298853
30
0
41
1
10
103.113868835619
20
-40.8526682776596
30
0
41
1
10
103.08046639001
20
-40.9595898581273
30
0
41
1
10
103.05699270739
20
-41.0349458513244
30
0
41
1
10
103.033580720747
20
-41.1103167077509
30
0
0
SPLINE
5
397
100
AcDbEntity
8
1
62
256
6
ByLayer
370
18
48
1
60
0
100
AcDbSpline
70
4
71
3
72
8
73
4
40
0
40
0
40
0
40
0
40
1
40
1
40
1
40
1
41
1
10
103.033580720756
20
-41.1103167077241
30
0
41
1
10
103.017156138111
20
-41.1631928211166
30
0
41
1
10
103.000766862328
20
-41.2163803461076
30
0
41
1
10
102.984458193684
20
-41.2696480852076
30
0
0
SPLINE
5
398
100
AcDbEntity
8
1
62
256
6
ByLayer
370
18
48
1
60
0
100
AcDbSpline
70
4
71
3
72
8
73
4
40
0
40
0
40
0
40
0
40
1
40
1
40
1
40
1
41
1
10
102.984458193683
20
-41.2696480852088
30
0
41
1
10
102.927328412144
20
-41.4562466583006
30
0
41
1
10
102.870657067744
20
-41.6418561393664
30
0
41
1
10
102.814334556691
20
-41.8276356085007
30
0
0
SPLINE
5
399
100
AcDbEntity
8
1
62
256
6
ByLayer
370
18
48
1
60
0
100
AcDbSpline
70
4
71
3
72
22
73
18
40
0
40
0
40
0
40
0
40
0.247648061032175
40
0.247648061032175
40
0.499630853098531
40
0.499630853098531
40
0.554937524732357
40
0.554937524732357
40
0.599939125431709
40
0.599939125431709
40
0.64535633140513
40
0.64535633140513
40
0.695796263471616
40
0.695796263471616
40
0.78004957406728
40
0.78004957406728
40
1
40
1
40
1
40
1
41
1
10
102.814334556674
20
-41.8276356084777
30
0
41
1
10
102.81138096074
20
-41.8373780271722
30
0
41
1
10
102.808446772036
20
-41.8472270514095
30
0
41
1
10
102.802756301774
20
-41.867249577918
30
0
41
1
10
102.799817901408
20
-41.8778243601962
30
0
41
1
10
102.797251712502
20
-41.8899415633309
30
0
41
1
10
102.796829411571
20
-41.8921419487912
30
0
41
1
10
102.796271211792
20
-41.8957865858845
30
0
41
1
10
102.796095164116
20
-41.8973218484879
30
0
41
1
10
102.795978060137
20
-41.8998562118468
30
0
41
1
10
102.796040759434
20
-41.9008754013171
30
0
41
1
10
102.796405545417
20
-41.9023174630004
30
0
41
1
10
102.796733133326
20
-41.9026983291361
30
0
41
1
10
102.797795430786
20
-41.9029831489513
30
0
41
1
10
102.798664309353
20
-41.9024523696383
30
0
41
1
10
102.802000248813
20
-41.8994684468384
30
0
41
1
10
102.804869867312
20
-41.8953865001896
30
0
41
1
10
102.807785049212
20
-41.8909583800191
30
0
0
SPLINE
5
39A
100
AcDbEntity
8
1
62
256
6
ByLayer
370
18
48
1
60
0
100
AcDbSpline
70
4
71
3
72
22
73
18
40
0
40
0
40
0
40
0
40
0.104611531529262
40
0.104611531529262
40
0.208411675036502
40
0.208411675036502
40
0.402775886004141
40
0.402775886004141
40
0.500031490391636
40
0.500031490391636
40
0.699792640385805
40
0.699792640385805
40
0.846184360107008
40
0.846184360107008
40
0.95033556435093
40
0.95033556435093
40
1
40
1
40
1
40
1
41
1
10
102.807785049212
20
-41.8909583800185
30
0
41
1
10
102.817880673742
20
-41.8756232688139
30
0
41
1
10
102.82856756285
20
-41.8649685339281
30
0
41
1
10
102.851012036327
20
-41.8555731621312
30
0
41
1
10
102.863064132536
20
-41.8563660660911
30
0
41
1
10
102.900369980857
20
-41.8681812522456
30
0
41
1
10
102.928985520525
20
-41.8865830051129
30
0
41
1
10
102.978660518307
20
-41.9183316112767
30
0
41
1
10
102.996516622826
20
-41.9299095935842
30
0
41
1
10
103.053942938169
20
-41.9670498106623
30
0
41
1
10
103.097566970337
20
-41.9946272289108
30
0
41
1
10
103.175907492641
20
-42.049379239608
30
0
41
1
10
103.210649338876
20
-42.0752984132648
30
0
41
1
10
103.264281810955
20
-42.1284765853445
30
0
41
1
10
103.285030088719
20
-42.1539312287391
30
0
41
1
10
103.308998637055
20
-42.1950417320143
30
0
41
1
10
103.31584536929
20
-42.2090279203063
30
0
41
1
10
103.321670524063
20
-42.2233115525206
30
0
0
SPLINE
5
39B
100
AcDbEntity
8
1
62
256
6
ByLayer
370
18
48
1
60
0
100
AcDbSpline
70
4
71
3
72
22
73
18
40
0
40
0
40
0
40
0
40
0.247648061031778
40
0.247648061031778
40
0.499630853098013
40
0.499630853098013
40
0.554937524731603
40
0.554937524731603
40
0.599939125430901
40
0.599939125430901
40
0.645356331404459
40
0.645356331404459
40
0.695796263470821
40
0.695796263470821
40
0.780049574066667
40
0.780049574066667
40
1
40
1
40
1
40
1
41
1
10
114.976727724759
20
-43.3590077290628
30
0
41
1
10
114.977400553638
20
-43.3692067524548
30
0
41
1
10
114.977995244839
20
-43.3795000994689
30
0
41
1
10
114.978764645619
20
-43.4003359911004
30
0
41
1
10
114.979055599193
20
-43.411317382713
30
0
41
1
10
114.978156734398
20
-43.4236445193392
30
0
41
1
10
114.977926560839
20
-43.4258690956388
30
0
41
1
10
114.977331473925
20
-43.4295090882572
30
0
41
1
10
114.976991397447
20
-43.431023697924
30
0
41
1
10
114.976169751697
20
-43.4334693521275
30
0
41
1
10
114.975674741519
20
-43.4344183201595
30
0
41
1
10
114.974562980946
20
-43.435674469235
30
0
41
1
10
114.97392490816
20
-43.4359337486202
30
0
41
1
10
114.972233440442
20
-43.4358718406851
30
0
41
1
10
114.971153727798
20
-43.4350957134201
30
0
41
1
10
114.967394556625
20
-43.431218442209
30
0
41
1
10
114.96478069069
20
-43.4264460676917
30
0
41
1
10
114.962255569064
20
-43.4213329565798
30
0
0
SPLINE
5
39C
100
AcDbEntity
8
1
62
256
6
ByLayer
370
18
48
1
60
0
100
AcDbSpline
70
4
71
3
72
10
73
6
40
0
40
0
40
0
40
0
40
0.295368028639117
40
0.295368028639117
40
1
40
1
40
1
40
1
41
1
10
103.798290756833
20
-41.2193779425905
30
0
41
1
10
103.786257159783
20
-41.2495654374638
30
0
41
1
10
103.774222077039
20
-41.2797488345129
30
0
41
1
10
103.733496142541
20
-41.3819339807259
30
0
41
1
10
103.704819228001
20
-41.4539248065455
30
0
41
1
10
103.676163296696
20
-41.5259041648069
30
0
0
SPLINE
5
39D
100
AcDbEntity
8
1
62
256
6
ByLayer
370
18
48
1
60
0
100
AcDbSpline
70
4
71
3
72
8
73
4
40
0
40
0
40
0
40
0
40
1
40
1
40
1
40
1
41
1
10
103.676163296699
20
-41.5259041647765
30
0
41
1
10
103.65605984631
20
-41.5764009866232
30
0
41
1
10
103.634723880387
20
-41.626389261505
30
0
41
1
10
103.613076376112
20
-41.6762041321231
30
0
0
SPLINE
5
39E
100
AcDbEntity
8
1
62
256
6
ByLayer
370
18
48
1
60
0
100
AcDbSpline
70
4
71
3
72
8
73
4
40
0
40
0
40
0
40
0
40
1
40
1
40
1
40
1
41
1
10
103.613076376115
20
-41.6762041321269
30
0
41
1
10
103.537244484675
20
-41.85070719783
30
0
41
1
10
103.466579650773
20
-42.0272664510572
30
0
41
1
10
103.395483531639
20
-42.2034911540895
30
0
0
SPLINE
5
39F
100
AcDbEntity
8
1
62
256
6
ByLayer
370
18
48
1
60
0
100
AcDbSpline
70
4
71
3
72
22
73
18
40
0
40
0
40
0
40
0
40
0.247648061031886
40
0.247648061031886
40
0.49963085309833
40
0.49963085309833
40
0.554937524731913
40
0.554937524731913
40
0.599939125431341
40
0.599939125431341
40
0.645356331404662
40
0.645356331404662
40
0.695796263471188
40
0.695796263471188
40
0.780049574066685
40
0.780049574066685
40
1
40
1
40
1
40
1
41
1
10
103.395483531729
20
-42.2034911541364
30
0
41
1
10
103.391755196389
20
-42.2127325135243
30
0
41
1
10
103.387717157799
20
-42.2218676276997
30
0
41
1
10
103.378192673876
20
-42.2394105227215
30
0
41
1
10
103.372777445506
20
-42.2483834273733
30
0
41
1
10
103.36312661588
20
-42.2559186702573
30
0
41
1
10
103.361188388818
20
-42.2571386371543
30
0
41
1
10
103.357398060039
20
-42.2586929090205
30
0
41
1
10
103.355559109141
20
-42.2591526962734
30
0
41
1
10
103.351829691214
20
-42.2593508114612
30
0
41
1
10
103.349891700527
20
-42.2590760634764
30
0
41
1
10
103.346067250857
20
-42.2578087554116
30
0
41
1
10
103.344151534081
20
-42.2567387741008
30
0
41
1
10
103.339542457571
20
-42.2533556577251
30
0
41
1
10
103.337062981091
20
-42.2506593445004
30
0
41
1
10
103.329219799908
20
-42.2404453745536
30
0
41
1
10
103.325167698488
20
-42.2318868359645
30
0
41
1
10
103.321670524062
20
-42.2233115525213
30
0
0
SPLINE
5
3A0
100
AcDbEntity
8
1
62
256
6
ByLayer
370
18
48
1
60
0
100
AcDbSpline
70
4
71
3
72
10
73
6
40
0
40
0
40
0
40
0
40
0.295368028639083
40
0.295368028639083
40
1
40
1
40
1
40
1
41
1
10
114.079758134386
20
-42.5139218932008
30
0
41
1
10
114.084909267451
20
-42.5462731247856
30
0
41
1
10
114.090064014082
20
-42.5786209005963
30
0
41
1
10
114.107501544216
20
-42.6881294334935
30
0
41
1
10
114.119779096633
20
-42.7652768537468
30
0
41
1
10
114.132045819839
20
-42.8424088009232
30
0
0
SPLINE
5
3A1
100
AcDbEntity
8
1
62
256
6
ByLayer
370
18
48
1
60
0
100
AcDbSpline
70
4
71
3
72
8
73
4
40
0
40
0
40
0
40
0
40
1
40
1
40
1
40
1
41
1
10
114.132045819843
20
-42.8424088008928
30
0
41
1
10
114.140651488901
20
-42.8965204002362
30
0
41
1
10
114.150575214531
20
-42.9504445962381
30
0
41
1
10
114.16084941976
20
-43.0042787429394
30
0
0
SPLINE
5
3A2
100
AcDbEntity
8
1
62
256
6
ByLayer
370
18
48
1
60
0
100
AcDbSpline
70
4
71
3
72
8
73
4
40
0
40
0
40
0
40
0
40
1
40
1
40
1
40
1
41
1
10
114.160849419756
20
-43.0042787429423
30
0
41
1
10
114.196840285294
20
-43.1928614597566
30
0
41
1
10
114.227396587549
20
-43.3821655094876
30
0
41
1
10
114.25848555636
20
-43.5712563806051
30
0
0
SPLINE
5
3A3
100
AcDbEntity
8
1
62
256
6
ByLayer
370
18
48
1
60
0
100
AcDbSpline
70
4
71
3
72
22
73
18
40
0
40
0
40
0
40
0
40
0.247648061031995
40
0.247648061031995
40
0.499630853098505
40
0.499630853098505
40
0.554937524732065
40
0.554937524732065
40
0.599939125431496
40
0.599939125431496
40
0.645356331404903
40
0.645356331404903
40
0.695796263471452
40
0.695796263471452
40
0.780049574067045
40
0.780049574067045
40
1
40
1
40
1
40
1
41
1
10
114.258485556259
20
-43.5712563806278
30
0
41
1
10
114.260115885771
20
-43.5811724517969
30
0
41
1
10
114.26207482533
20
-43.5910626480534
30
0
41
1
10
114.267582684586
20
-43.610498271828
30
0
41
1
10
114.27093475053
20
-43.6205750702529
30
0
41
1
10
114.278791795032
20
-43.6303147370493
30
0
41
1
10
114.280435154969
20
-43.6319856630956
30
0
41
1
10
114.283834657123
20
-43.6344452096467
30
0
41
1
10
114.285549763167
20
-43.6353524897277
30
0
41
1
10
114.289192577159
20
-43.6364788457865
30
0
41
1
10
114.29117022025
20
-43.6366971169238
30
0
41
1
10
114.295235937103
20
-43.6364232630972
30
0
41
1
10
114.297370365158
20
-43.6358632372527
30
0
41
1
10
114.302688149994
20
-43.6337300162306
30
0
41
1
10
114.305746670218
20
-43.6317309945373
30
0
41
1
10
114.315803777137
20
-43.6237708575139
30
0
41
1
10
114.321744466642
20
-43.6164705154999
30
0
41
1
10
114.327144377855
20
-43.609015467911
30
0
0
SPLINE
5
3A4
100
AcDbEntity
8
1
62
256
6
ByLayer
370
18
48
1
60
0
100
AcDbSpline
70
4
71
3
72
22
73
18
40
0
40
0
40
0
40
0
40
0.104611531529227
40
0.104611531529227
40
0.208411675036485
40
0.208411675036485
40
0.402775886004086
40
0.402775886004086
40
0.500031490391593
40
0.500031490391593
40
0.699792640385743
40
0.699792640385743
40
0.846184360106957
40
0.846184360106957
40
0.950335564350915
40
0.950335564350915
40
1
40
1
40
1
40
1
41
1
10
114.327144377854
20
-43.6090154679102
30
0
41
1
10
114.345844917984
20
-43.5831977440429
30
0
41
1
10
114.369199762698
20
-43.559744059148
30
0
41
1
10
114.420814740143
20
-43.5214732035762
30
0
41
1
10
114.449343990976
20
-43.5059804860836
30
0
41
1
10
114.530948814948
20
-43.4688888827561
30
0
41
1
10
114.585255552362
20
-43.451826824733
30
0
41
1
10
114.660466913403
20
-43.4285855595772
30
0
41
1
10
114.684906423308
20
-43.4212756221581
30
0
41
1
10
114.755879621285
20
-43.4003022426651
30
0
41
1
10
114.799532520618
20
-43.3873177845375
30
0
41
1
10
114.86460791136
20
-43.3733605906896
30
0
41
1
10
114.889372721016
20
-43.3700769720656
30
0
41
1
10
114.924795639172
20
-43.3780105612385
30
0
41
1
10
114.937710091245
20
-43.385814807356
30
0
41
1
10
114.953409422384
20
-43.4052635419963
30
0
41
1
10
114.958049537993
20
-43.4128161770374
30
0
41
1
10
114.962255569064
20
-43.421332956579
30
0
0
SPLINE
5
3A5
100
AcDbEntity
8
1
62
256
6
ByLayer
370
18
48
1
60
0
100
AcDbSpline
70
4
71
3
72
10
73
6
40
0
40
0
40
0
40
0
40
0.295368028639104
40
0.295368028639104
40
1
40
1
40
1
40
1
41
1
10
114.901207561313
20
-42.271174334173
30
0
41
1
10
114.903707031742
20
-42.3043091619368
30
0
41
1
10
114.906194755856
20
-42.3374450729444
30
0
41
1
10
114.91458118418
20
-42.4496283083846
30
0
41
1
10
114.920428060923
20
-42.5286760657393
30
0
41
1
10
114.926213791564
20
-42.6077232192248
30
0
0
SPLINE
5
3A6
100
AcDbEntity
8
1
62
256
6
ByLayer
370
18
48
1
60
0
100
AcDbSpline
70
4
71
3
72
8
73
4
40
0
40
0
40
0
40
0
40
1
40
1
40
1
40
1
41
1
10
114.926213791561
20
-42.6077232191965
30
0
41
1
10
114.930272747024
20
-42.6631784236246
30
0
41
1
10
114.934082857031
20
-42.7189092619111
30
0
41
1
10
114.937758793923
20
-42.7746932712331
30
0
0
SPLINE
5
3A7
100
AcDbEntity
8
1
62
256
6
ByLayer
370
18
48
1
60
0
100
AcDbSpline
70
4
71
3
72
8
73
4
40
0
40
0
40
0
40
0
40
1
40
1
40
1
40
1
41
1
10
114.937758793924
20
-42.7746932712347
30
0
41
1
10
114.950635717001
20
-42.9701064184175
30
0
41
1
10
114.963897461963
20
-43.1645212046461
30
0
41
1
10
114.976727724727
20
-43.3590077290794
30
0
0
SPLINE
5
3A8
100
AcDbEntity
8
1
62
256
6
ByLayer
370
18
48
1
60
0
100
AcDbSpline
70
4
71
3
72
10
73
6
40
0
40
0
40
0
40
0
40
0.295368028639091
40
0.295368028639091
40
1
40
1
40
1
40
1
41
1
10
115.985961142311
20
-37.6177840533883
30
0
41
1
10
115.990273700002
20
-37.6431410754012
30
0
41
1
10
115.994575049379
20
-37.6684968727338
30
0
41
1
10
116.009098055705
20
-37.7543553345713
30
0
41
1
10
116.019265862822
20
-37.8148671075675
30
0
41
1
10
116.029369167444
20
-37.8753926750019
30
0
0
SPLINE
5
3A9
100
AcDbEntity
8
1
62
256
6
ByLayer
370
18
48
1
60
0
100
AcDbSpline
70
4
71
3
72
8
73
4
40
0
40
0
40
0
40
0
40
1
40
1
40
1
40
1
41
1
10
116.02936916744
20
-37.8753926749734
30
0
41
1
10
116.036457099118
20
-37.9178541371172
30
0
41
1
10
116.043565285275
20
-37.9594368446446
30
0
41
1
10
116.050609144996
20
-38.000773094003
30
0
0
SPLINE
5
3AA
100
AcDbEntity
8
1
62
256
6
ByLayer
370
18
48
1
60
0
100
AcDbSpline
70
4
71
3
72
8
73
4
40
0
40
0
40
0
40
0
40
1
40
1
40
1
40
1
41
1
10
116.050609144996
20
-38.0007730940075
30
0
41
1
10
116.075284008154
20
-38.1455752815495
30
0
41
1
10
116.099225161599
20
-38.2941773998091
30
0
41
1
10
116.122836535268
20
-38.4424149718676
30
0
0
SPLINE
5
3AB
100
AcDbEntity
8
1
62
256
6
ByLayer
370
18
48
1
60
0
100
AcDbSpline
70
4
71
3
72
22
73
18
40
0
40
0
40
0
40
0
40
0.247648061032073
40
0.247648061032073
40
0.499630853098511
40
0.499630853098511
40
0.554937524732206
40
0.554937524732206
40
0.599939125431662
40
0.599939125431662
40
0.645356331405024
40
0.645356331405024
40
0.695796263471616
40
0.695796263471616
40
0.780049574067142
40
0.780049574067142
40
1
40
1
40
1
40
1
41
1
10
116.122836535281
20
-38.4424149719374
30
0
41
1
10
116.124074733933
20
-38.4501886645841
30
0
41
1
10
116.125302140611
20
-38.4577677803696
30
0
41
1
10
116.127657539526
20
-38.4718000361894
30
0
41
1
10
116.128873492767
20
-38.4788133519768
30
0
41
1
10
116.129821808775
20
-38.4832164279301
30
0
41
1
10
116.129969513117
20
-38.4838199785998
30
0
41
1
10
116.130132994466
20
-38.4842058550346
30
0
41
1
10
116.130167891312
20
-38.484111899171
30
0
41
1
10
116.130124058172
20
-38.4832208825374
30
0
41
1
10
116.130042169741
20
-38.4823976354273
30
0
41
1
10
116.129762866839
20
-38.4800826965575
30
0
41
1
10
116.129552107485
20
-38.4785088811226
30
0
41
1
10
116.128907980384
20
-38.4739540775329
30
0
41
1
10
116.12841255805
20
-38.4706714539584
30
0
41
1
10
116.126541969597
20
-38.4586925155807
30
0
41
1
10
116.124982400227
20
-38.4493974056929
30
0
41
1
10
116.123395971994
20
-38.440257475226
30
0
0
SPLINE
5
3AC
100
AcDbEntity
8
1
62
256
6
ByLayer
370
18
48
1
60
0
100
AcDbSpline
70
4
71
3
72
9
73
5
40
0
40
0
40
0
40
0
40
0.166750579530141
40
1
40
1
40
1
40
1
41
1
10
115.209670438315
20
-33.3525643312132
30
0
41
1
10
115.223047777792
20
-33.3649832100086
30
0
41
1
10
115.293922426813
20
-33.4409626485249
30
0
41
1
10
115.30208924599
20
-33.5216637895612
30
0
41
1
10
115.308894243337
20
-33.588907968561
30
0
0
SPLINE
5
3AD
100
AcDbEntity
8
1
62
256
6
ByLayer
370
18
48
1
60
0
100
AcDbSpline
70
4
71
2
72
6
73
3
40
0
40
0
40
0
40
1
40
1
40
1
41
1
10
115.110746755476
20
-33.3675790306895
30
0
41
1
10
115.134565455078
20
-33.2858971833185
30
0
41
1
10
115.041036434296
20
-33.2050439939451
30
0
0
SPLINE
5
3AE
100
AcDbEntity
8
1
62
256
6
ByLayer
370
18
48
1
60
0
100
AcDbSpline
70
4
71
3
72
10
73
6
40
0
40
0
40
0
40
0
40
0.3334393148019
40
0.666560685198127
40
1
40
1
40
1
40
1
41
1
10
114.444038108828
20
-37.2989792705564
30
0
41
1
10
114.408352538562
20
-37.3556273558306
30
0
41
1
10
114.337015425292
20
-37.4688695107277
30
0
41
1
10
113.989194811319
20
-37.571654420247
30
0
41
1
10
113.710549001565
20
-37.5618361615517
30
0
41
1
10
113.571159640716
20
-37.5569246905865
30
0
0
SPLINE
5
3AF
100
AcDbEntity
8
1
62
256
6
ByLayer
370
18
48
1
60
0
100
AcDbSpline
70
4
71
2
72
7
73
4
40
0
40
0
40
0
40
0.5
40
1
40
1
40
1
41
1
10
113.613067450536
20
-37.2646567081026
30
0
41
1
10
113.841004809521
20
-37.2960754864414
30
0
41
1
10
114.227383161169
20
-37.1831404274014
30
0
41
1
10
114.245890620968
20
-37.0776503326848
30
0
0
SPLINE
5
3B0
100
AcDbEntity
8
1
62
256
6
ByLayer
370
18
48
1
60
0
100
AcDbSpline
70
4
71
2
72
6
73
3
40
0
40
0
40
0
40
1
40
1
40
1
41
1
10
105.046015446005
20
-36.1159483008248
30
0
41
1
10
105.196073859494
20
-36.2074767727153
30
0
41
1
10
105.415823127967
20
-36.2325381728997
30
0
0
SPLINE
5
3B1
100
AcDbEntity
8
1
62
256
6
ByLayer
370
18
48
1
60
0
100
AcDbSpline
70
4
71
1
72
4
73
2
40
0
40
0
40
1
40
1
41
1
10
105.415823127967
20
-36.2325381728997
30
0
41
1
10
105.373915318147
20
-36.5248061553835
30
0
0
SPLINE
5
3B2
100
AcDbEntity
8
1
62
256
6
ByLayer
370
18
48
1
60
0
100
AcDbSpline
70
4
71
1
72
4
73
2
40
0
40
0
40
1
40
1
41
1
10
113.613067450536
20
-37.2646567081026
30
0
41
1
10
113.571159640716
20
-37.5569246905865
30
0
0
SPLINE
5
3B3
100
AcDbEntity
8
1
62
256
6
ByLayer
370
18
48
1
60
0
100
AcDbSpline
70
4
71
1
72
4
73
2
40
0
40
0
40
1
40
1
41
1
10
114.245890620968
20
-37.0776503326848
30
0
41
1
10
114.444038108828
20
-37.2989792705564
30
0
0
SPLINE
5
3B4
100
AcDbEntity
8
1
62
256
6
ByLayer
370
18
48
1
60
0
100
AcDbSpline
70
4
71
3
72
11
73
7
40
0
40
0
40
0
40
0
40
0.252621746455789
40
0.500000000000004
40
0.747378253544223
40
1
40
1
40
1
40
1
41
1
10
105.373915318147
20
-36.5248061553835
30
0
41
1
10
105.270907264522
20
-36.504156185967
30
0
41
1
10
105.067029223399
20
-36.4632848641067
30
0
41
1
10
104.82701684592
20
-36.3462000193686
30
0
41
1
10
104.671856354735
20
-36.2077085479527
30
0
41
1
10
104.66905921044
20
-36.114913601913
30
0
41
1
10
104.667645971486
20
-36.0680295592514
30
0
0
SPLINE
5
3B5
100
AcDbEntity
8
1
62
256
6
ByLayer
370
18
48
1
60
0
100
AcDbSpline
70
4
71
1
72
4
73
2
40
0
40
0
40
1
40
1
41
1
10
115.110746755476
20
-33.3675790306895
30
0
41
1
10
115.308894243337
20
-33.588907968561
30
0
0
SPLINE
5
3B6
100
AcDbEntity
8
1
62
256
6
ByLayer
370
18
48
1
60
0
100
AcDbSpline
70
4
71
3
72
10
73
6
40
0
40
0
40
0
40
0
40
0.5
40
0.5
40
1
40
1
40
1
40
1
41
1
10
47.5008045096383
20
-35.4325647952788
30
0
41
1
10
46.52270278289
20
-41.8869036898493
30
0
41
1
10
47.5973708869674
20
-47.7324455128928
30
0
41
1
10
52.7984893946839
20
-58.4826116337297
30
0
41
1
10
56.6697066246215
20
-63.2673448975864
30
0
41
1
10
61
20
-67.8387906252458
30
0
0
SPLINE
5
3B7
100
AcDbEntity
8
1
62
256
6
ByLayer
370
18
48
1
60
0
100
AcDbSpline
70
4
71
3
72
16
73
12
40
0
40
0
40
0
40
0
40
0.111412770144095
40
0.111412770144095
40
0.248965452398461
40
0.248965452398461
40
0.467123877727659
40
0.467123877727659
40
0.889866934613996
40
0.889866934613996
40
1
40
1
40
1
40
1
41
1
10
13.4613248654052
20
-38.1154578595255
30
0
41
1
10
13.489102594139
20
-38.1154578595255
30
0
41
1
10
13.5172256117112
20
-38.1138543599703
30
0
41
1
10
13.5755663174453
20
-38.1074356116134
30
0
41
1
10
13.6057164246602
20
-38.1019214555356
30
0
41
1
10
13.6749461812577
20
-38.0851194427551
30
0
41
1
10
13.7106943542742
20
-38.0721266199021
30
0
41
1
10
13.7995108663105
20
-38.0315976751082
30
0
41
1
10
13.8406224917979
20
-38.0009250413257
30
0
41
1
10
13.8799825988554
20
-37.9612613686127
30
0
41
1
10
13.8874729933637
20
-37.9529177724503
30
0
41
1
10
13.8943375672975
20
-37.9445010117191
30
0
0
SPLINE
5
3B8
100
AcDbEntity
8
1
62
256
6
ByLayer
370
18
48
1
60
0
100
AcDbSpline
70
4
71
3
72
8
73
4
40
0
40
0
40
0
40
0
40
1
40
1
40
1
40
1
41
1
10
61
20
-37.9012771484454
30
0
41
1
10
63.0948201489088
20
-38.155305666479
30
0
41
1
10
65.1896526979994
20
-38.4093133974566
30
0
41
1
10
67.2844968080954
20
-38.6633017431963
30
0
0
SPLINE
5
3B9
100
AcDbEntity
8
1
62
256
6
ByLayer
370
18
48
1
60
0
100
AcDbSpline
70
4
71
3
72
14
73
10
40
0
40
0
40
0
40
0
40
0.306596477913566
40
0.306596477913566
40
0.613240426087301
40
0.613240426087301
40
0.919563086458894
40
0.919563086458894
40
1
40
1
40
1
40
1
41
1
10
47.5008045096383
20
-35.4325647952788
30
0
41
1
10
47.5045581720495
20
-35.4077949695694
30
0
41
1
10
47.5120860795002
20
-35.3882160804324
30
0
41
1
10
47.5334976518205
20
-35.3627963364776
30
0
41
1
10
47.5476745813186
20
-35.3566111539038
30
0
41
1
10
47.5805430875687
20
-35.3582324350708
30
0
41
1
10
47.5996698384483
20
-35.3660377794904
30
0
41
1
10
47.6252906239791
20
-35.3838192551373
30
0
41
1
10
47.6307742082847
20
-35.3880018532168
30
0
41
1
10
47.6363268705508
20
-35.3926048498358
30
0
0
SPLINE
5
3BA
100
AcDbEntity
8
1
62
256
6
ByLayer
370
18
48
1
60
0
100
AcDbSpline
70
4
71
3
72
14
73
10
40
0
40
0
40
0
40
0
40
0.291471912956364
40
0.291471912956364
40
0.583015259065967
40
0.583015259065967
40
0.873902411559694
40
0.873902411559694
40
1
40
1
40
1
40
1
41
1
10
47.2883817241715
20
45.3174393998859
30
0
41
1
10
47.2908510117175
20
45.336400870329
30
0
41
1
10
47.2970990247806
20
45.361365500626
30
0
41
1
10
47.3161909378355
20
45.419308849506
30
0
41
1
10
47.3292976406268
20
45.4530826079947
30
0
41
1
10
47.3603641966975
20
45.5245221594415
30
0
41
1
10
47.3787282949234
20
45.5631399920853
30
0
41
1
10
47.4070325957006
20
45.6184024429272
30
0
41
1
10
47.4159779996236
20
45.6353489476499
30
0
41
1
10
47.4251027743985
20
45.6521422400941
30
0
0
SPLINE
5
3BB
100
AcDbEntity
8
1
62
256
6
ByLayer
370
18
48
1
60
0
100
AcDbSpline
70
4
71
3
72
8
73
4
40
0
40
0
40
0
40
0
40
1
40
1
40
1
40
1
41
1
10
55.1754630377935
20
-33.5023700343509
30
0
41
1
10
55.1754895446083
20
-33.502291575796
30
0
41
1
10
55.1755160515962
20
-33.5022131172165
30
0
41
1
10
55.1755425587571
20
-33.5021346586122
30
0
0
SPLINE
5
3BC
100
AcDbEntity
8
1
62
256
6
ByLayer
370
18
48
1
60
0
100
AcDbSpline
70
4
71
3
72
10
73
6
40
0
40
0
40
0
40
0
40
0.803866996872521
40
0.803866996872521
40
1
40
1
40
1
40
1
41
1
10
67.284496808093
20
73.4416779186381
30
0
41
1
10
66.7015138081205
20
73.4213197036785
30
0
41
1
10
66.3287419082674
20
73.4083022220907
30
0
41
1
10
66.1730808762256
20
73.4028664190719
30
0
41
1
10
66.1580662977782
20
73.4023420984389
30
0
41
1
10
66.1581399115698
20
73.4023446690893
30
0
0
SPLINE
5
3BD
100
AcDbEntity
8
1
62
256
6
ByLayer
370
18
48
1
60
0
100
AcDbSpline
70
4
71
3
72
8
73
4
40
0
40
0
40
0
40
0
40
1
40
1
40
1
40
1
41
1
10
53.6170736973045
20
56.9176568911503
30
0
41
1
10
51.5383023937706
20
53.1706597935017
30
0
41
1
10
49.4709564184603
20
49.4173440549559
30
0
41
1
10
47.4251027743985
20
45.6521422400941
30
0
0
SPLINE
5
3BE
100
AcDbEntity
8
1
62
256
6
ByLayer
370
18
48
1
60
0
100
AcDbSpline
70
4
71
3
72
12
73
8
40
0
40
0
40
0
40
0
40
0.25
40
0.25
40
0.5
40
0.5
40
1
40
1
40
1
40
1
41
1
10
47.2883817241715
20
45.3174393998859
30
0
41
1
10
46.9817018726476
20
42.9624682465142
30
0
41
1
10
47.1263315411057
20
40.4937486163159
30
0
41
1
10
48.2595652006569
20
35.343593272101
30
0
41
1
10
49.2482618135856
20
32.6539377100547
30
0
41
1
10
53.1427829411733
20
24.4057520364995
30
0
41
1
10
56.8589518655364
20
18.7771547392286
30
0
41
1
10
61
20
13.0993065293354
30
0
0
SPLINE
5
3BF
100
AcDbEntity
8
1
62
256
6
ByLayer
370
18
48
1
60
0
100
AcDbSpline
70
4
71
3
72
14
73
10
40
0
40
0
40
0
40
0
40
0.25
40
0.25
40
0.5
40
0.5
40
0.75
40
0.75
40
1
40
1
40
1
40
1
41
1
10
67.2844968080931
20
-38.6633017431968
30
0
41
1
10
66.7031119994913
20
-37.2199884918581
30
0
41
1
10
66.3289739240676
20
-35.742271507455
30
0
41
1
10
66.0780867643581
20
-32.7042691052758
30
0
41
1
10
66.2137366292774
20
-31.1697880819988
30
0
41
1
10
66.9475860261797
20
-28.2347309686999
30
0
41
1
10
67.5532316980248
20
-26.7946980195002
30
0
41
1
10
69.0700576503572
20
-24.1032935206988
30
0
41
1
10
69.9807836105764
20
-22.8363040409927
30
0
41
1
10
71
20
-21.6253805770707
30
0
0
SPLINE
5
3C0
100
AcDbEntity
8
1
62
256
6
ByLayer
370
18
48
1
60
0
100
AcDbSpline
70
4
71
3
72
16
73
12
40
0
40
0
40
0
40
0
40
0.111412770144064
40
0.111412770144064
40
0.248965452398436
40
0.248965452398436
40
0.467123877727658
40
0.467123877727658
40
0.889866934614122
40
0.889866934614122
40
1
40
1
40
1
40
1
41
1
10
10.5386751345948
20
38.1154578595255
30
0
41
1
10
10.510897405861
20
38.1154578595255
30
0
41
1
10
10.4827743882888
20
38.1138543599703
30
0
41
1
10
10.4244336825548
20
38.1074356116134
30
0
41
1
10
10.3942835753398
20
38.1019214555357
30
0
41
1
10
10.3250538187423
20
38.0851194427552
30
0
41
1
10
10.2893056457259
20
38.0721266199022
30
0
41
1
10
10.2004891336895
20
38.0315976751083
30
0
41
1
10
10.1593775082021
20
38.0009250413257
30
0
41
1
10
10.1200174011447
20
37.9612613686127
30
0
41
1
10
10.1125270066363
20
37.9529177724503
30
0
41
1
10
10.1056624327026
20
37.9445010117191
30
0
0
SPLINE
5
3C1
100
AcDbEntity
8
1
62
256
6
ByLayer
370
18
48
1
60
0
100
AcDbSpline
70
4
71
3
72
16
73
12
40
0
40
0
40
0
40
0
40
0.46307632328944
40
0.46307632328944
40
0.645417922138898
40
0.645417922138898
40
0.830321639273301
40
0.830321639273301
40
0.944651290970181
40
0.944651290970181
40
1
40
1
40
1
40
1
41
1
10
10.1056624327026
20
-37.944501011719
30
0
41
1
10
10.1343124491107
20
-37.9796292418724
30
0
41
1
10
10.1735051369363
20
-38.0140162383101
30
0
41
1
10
10.2540961394291
20
-38.0567528229611
30
0
41
1
10
10.2802114910956
20
-38.068372489805
30
0
41
1
10
10.3409361701455
20
-38.0892608704532
30
0
41
1
10
10.3764451765787
20
-38.0987416550406
30
0
41
1
10
10.4416217638846
20
-38.1096208051146
30
0
41
1
10
10.468977488351
20
-38.112760822145
30
0
41
1
10
10.5107386416705
20
-38.1150674153361
30
0
41
1
10
10.5247338160839
20
-38.1154578595256
30
0
41
1
10
10.5386751345948
20
-38.1154578595256
30
0
0
SPLINE
5
3C2
100
AcDbEntity
8
1
62
256
6
ByLayer
370
18
48
1
60
0
100
AcDbSpline
70
4
71
3
72
8
73
4
40
0
40
0
40
0
40
0
40
1
40
1
40
1
40
1
41
1
10
55.2352207777469
20
61.7232073298526
30
0
41
1
10
57.1557988909705
20
65.0665833826758
30
0
41
1
10
59.0775331045851
20
68.4092954170285
30
0
41
1
10
61
20
71.7515857628273
30
0
0
SPLINE
5
3C3
100
AcDbEntity
8
1
62
256
6
ByLayer
370
18
48
1
60
0
100
AcDbSpline
70
4
71
3
72
16
73
12
40
0
40
0
40
0
40
0
40
0.463076323289514
40
0.463076323289514
40
0.645417922138965
40
0.645417922138965
40
0.830321639273357
40
0.830321639273357
40
0.944651290970221
40
0.944651290970221
40
1
40
1
40
1
40
1
41
1
10
13.8943375672974
20
-12.6576002058704
30
0
41
1
10
13.8656875508894
20
-12.5522940543948
30
0
41
1
10
13.8264948630637
20
-12.4476658274361
30
0
41
1
10
13.7459038605709
20
-12.3160508976659
30
0
41
1
10
13.7197885089044
20
-12.2800720868289
30
0
41
1
10
13.6590638298545
20
-12.2151290969611
30
0
41
1
10
13.6235548234213
20
-12.185498382796
30
0
41
1
10
13.5583782361154
20
-12.1514192676284
30
0
41
1
10
13.531022511649
20
-12.1415603847926
30
0
41
1
10
13.4892613583295
20
-12.1343167157599
30
0
41
1
10
13.4752661839161
20
-12.1330899674705
30
0
41
1
10
13.4613248654052
20
-12.1330899674705
30
0
0
SPLINE
5
3C4
100
AcDbEntity
8
1
62
256
6
ByLayer
370
18
48
1
60
0
100
AcDbSpline
70
4
71
3
72
16
73
12
40
0
40
0
40
0
40
0
40
0.463076323289505
40
0.463076323289505
40
0.645417922138948
40
0.645417922138948
40
0.830321639273348
40
0.830321639273348
40
0.944651290970219
40
0.944651290970219
40
1
40
1
40
1
40
1
41
1
10
10.1056624327026
20
12.6576002058704
30
0
41
1
10
10.1343124491107
20
12.5522940543949
30
0
41
1
10
10.1735051369363
20
12.4476658274361
30
0
41
1
10
10.2540961394291
20
12.3160508976659
30
0
41
1
10
10.2802114910956
20
12.2800720868289
30
0
41
1
10
10.3409361701455
20
12.2151290969612
30
0
41
1
10
10.3764451765787
20
12.1854983827961
30
0
41
1
10
10.4416217638846
20
12.1514192676284
30
0
41
1
10
10.468977488351
20
12.1415603847926
30
0
41
1
10
10.5107386416705
20
12.1343167157599
30
0
41
1
10
10.5247338160839
20
12.1330899674706
30
0
41
1
10
10.5386751345948
20
12.1330899674706
30
0
0
SPLINE
5
3C5
100
AcDbEntity
8
1
62
256
6
ByLayer
370
18
48
1
60
0
100
AcDbSpline
70
4
71
3
72
16
73
12
40
0
40
0
40
0
40
0
40
0.111412770144096
40
0.111412770144096
40
0.248965452398463
40
0.248965452398463
40
0.46712387772768
40
0.46712387772768
40
0.889866934614037
40
0.889866934614037
40
1
40
1
40
1
40
1
41
1
10
13.4613248654052
20
12.1330899674707
30
0
41
1
10
13.489102594139
20
12.1330899674707
30
0
41
1
10
13.5172256117112
20
12.1381298129189
30
0
41
1
10
13.5755663174453
20
12.1582682733016
30
0
41
1
10
13.6057164246602
20
12.17555078909
30
0
41
1
10
13.6749461812577
20
12.2280340568692
30
0
41
1
10
13.7106943542742
20
12.2684634146653
30
0
41
1
10
13.7995108663105
20
12.3937525277222
30
0
41
1
10
13.8406224917979
20
12.4875806371415
30
0
41
1
10
13.8799825988554
20
12.6072726192705
30
0
41
1
10
13.8874729933637
20
12.6323687416998
30
0
41
1
10
13.8943375672975
20
12.6576002058704
30
0
0
SPLINE
5
3C6
100
AcDbEntity
8
1
62
256
6
ByLayer
370
18
48
1
60
0
100
AcDbSpline
70
4
71
3
72
16
73
12
40
0
40
0
40
0
40
0
40
0.463076323289407
40
0.463076323289407
40
0.645417922138895
40
0.645417922138895
40
0.830321639273306
40
0.830321639273306
40
0.944651290970177
40
0.944651290970177
40
1
40
1
40
1
40
1
41
1
10
13.8943375672974
20
37.9445010117191
30
0
41
1
10
13.8656875508894
20
37.9796292418725
30
0
41
1
10
13.8264948630637
20
38.0140162383101
30
0
41
1
10
13.7459038605709
20
38.0567528229612
30
0
41
1
10
13.7197885089044
20
38.068372489805
30
0
41
1
10
13.6590638298545
20
38.0892608704532
30
0
41
1
10
13.6235548234213
20
38.0987416550407
30
0
41
1
10
13.5583782361154
20
38.1096208051147
30
0
41
1
10
13.531022511649
20
38.112760822145
30
0
41
1
10
13.4892613583295
20
38.1150674153361
30
0
41
1
10
13.4752661839161
20
38.1154578595256
30
0
41
1
10
13.4613248654052
20
38.1154578595256
30
0
0
SPLINE
5
3C7
100
AcDbEntity
8
1
62
256
6
ByLayer
370
18
48
1
60
0
100
AcDbSpline
70
4
71
3
72
10
73
6
40
0
40
0
40
0
40
0
40
0.401868592020638
40
0.401868592020638
40
1
40
1
40
1
40
1
41
1
10
61
20
71.7515857628273
30
0
41
1
10
61.8418424238653
20
71.9780021922854
30
0
41
1
10
62.683686851185
20
72.2044111727923
30
0
41
1
10
64.7785168315503
20
72.7677837366105
30
0
41
1
10
66.0315047509979
20
73.104738521261
30
0
41
1
10
67.284496808094
20
73.4416779186384
30
0
0
SPLINE
5
3C8
100
AcDbEntity
8
1
62
256
6
ByLayer
370
18
48
1
60
0
100
AcDbSpline
70
4
71
3
72
8
73
4
40
0
40
0
40
0
40
0
40
1
40
1
40
1
40
1
41
1
10
53.6170736973045
20
56.9176568911503
30
0
41
1
10
53.951144348883
20
58.4758951939951
30
0
41
1
10
54.4460938699096
20
59.978165833879
30
0
41
1
10
55.0808737591427
20
61.4317913101912
30
0
0
SPLINE
5
3C9
100
AcDbEntity
8
1
62
256
6
ByLayer
370
18
48
1
60
0
100
AcDbSpline
70
4
71
3
72
8
73
4
40
0
40
0
40
0
40
0
40
1
40
1
40
1
40
1
41
1
10
53.3701719579292
20
-40.0959277494713
30
0
41
1
10
51.446103988314
20
-38.531308385463
30
0
41
1
10
49.5321555758416
20
-36.9641920818253
30
0
41
1
10
47.6363268705508
20
-35.3926048498358
30
0
0
SPLINE
5
3CA
100
AcDbEntity
8
1
62
256
6
ByLayer
370
18
48
1
60
0
100
AcDbSpline
70
4
71
3
72
8
73
4
40
0
40
0
40
0
40
0
40
1
40
1
40
1
40
1
41
1
10
53.3701719579292
20
-40.0959277494715
30
0
41
1
10
53.8138824021284
20
-37.9247241875629
30
0
41
1
10
54.4244269285891
20
-35.7253910989377
30
0
41
1
10
55.1754630377933
20
-33.5023700343509
30
0
0
SPLINE
5
3CB
100
AcDbEntity
8
1
62
256
6
ByLayer
370
18
48
1
60
0
100
AcDbSpline
70
4
71
3
72
18
73
14
40
0
40
0
40
0
40
0
40
0.160893488427954
40
0.160893488427954
40
0.320024701559045
40
0.320024701559045
40
0.471739101745997
40
0.471739101745997
40
0.616553453947167
40
0.616553453947167
40
0.90065118104257
40
0.90065118104257
40
1
40
1
40
1
40
1
41
1
10
55.0808737591437
20
61.4317913101931
30
0
41
1
10
55.0847484053321
20
61.440664125017
30
0
41
1
10
55.0894805098149
20
61.450946170314
30
0
41
1
10
55.1004722602059
20
61.4738998271557
30
0
41
1
10
55.1067515568787
20
61.4866209451783
30
0
41
1
10
55.1204202418408
20
61.5136226942277
30
0
41
1
10
55.1277896273977
20
61.5278924117342
30
0
41
1
10
55.1433182014598
20
61.557433195671
30
0
41
1
10
55.1514774828905
20
61.5727265240766
30
0
41
1
10
55.1767306895783
20
61.6194149367575
30
0
41
1
10
55.1954152379965
20
61.6531546251133
30
0
41
1
10
55.221392612901
20
61.6990464978018
30
0
41
1
10
55.2282942820864
20
61.7111495647653
30
0
41
1
10
55.2352207777469
20
61.7232073298526
30
0
0
SPLINE
5
3CC
100
AcDbEntity
8
1
62
256
6
ByLayer
370
18
48
1
60
0
100
AcDbSpline
70
4
71
3
72
8
73
4
40
0
40
0
40
0
40
0
40
1
40
1
40
1
40
1
41
1
10
55.3252953388755
20
-33.4504047637727
30
0
41
1
10
57.2158850300066
20
-34.9342824280247
30
0
41
1
10
59.107587197075
20
-36.4178719911328
30
0
41
1
10
61
20
-37.9012771484454
30
0
0
SPLINE
5
3CD
100
AcDbEntity
8
1
62
256
6
ByLayer
370
18
48
1
60
0
100
AcDbSpline
70
4
71
3
72
16
73
12
40
0
40
0
40
0
40
0
40
0.111412770144067
40
0.111412770144067
40
0.248965452398468
40
0.248965452398468
40
0.467123877727668
40
0.467123877727668
40
0.889866934614094
40
0.889866934614094
40
1
40
1
40
1
40
1
41
1
10
10.5386751345948
20
-12.1330899674707
30
0
41
1
10
10.510897405861
20
-12.1330899674707
30
0
41
1
10
10.4827743882888
20
-12.1381298129189
30
0
41
1
10
10.4244336825547
20
-12.1582682733016
30
0
41
1
10
10.3942835753398
20
-12.17555078909
30
0
41
1
10
10.3250538187423
20
-12.2280340568692
30
0
41
1
10
10.2893056457259
20
-12.2684634146653
30
0
41
1
10
10.2004891336895
20
-12.3937525277222
30
0
41
1
10
10.1593775082021
20
-12.4875806371415
30
0
41
1
10
10.1200174011447
20
-12.6072726192704
30
0
41
1
10
10.1125270066363
20
-12.6323687416998
30
0
41
1
10
10.1056624327026
20
-12.6576002058703
30
0
0
SPLINE
5
3CE
100
AcDbEntity
8
1
62
256
6
ByLayer
370
18
48
1
60
0
100
AcDbSpline
70
4
71
3
72
18
73
14
40
0
40
0
40
0
40
0
40
0.167880447891043
40
0.167880447891043
40
0.334754700685949
40
0.334754700685949
40
0.493350423335824
40
0.493350423335824
40
0.644478519129058
40
0.644478519129058
40
0.940861047629606
40
0.940861047629606
40
1
40
1
40
1
40
1
41
1
10
55.1755426664911
20
-33.5021347432082
30
0
41
1
10
55.1799343327964
20
-33.4891802997327
30
0
41
1
10
55.1851441203625
20
-33.4775124216716
30
0
41
1
10
55.1970254416923
20
-33.4573707410283
30
0
41
1
10
55.2037278656031
20
-33.4488130185961
30
0
41
1
10
55.2181194244772
20
-33.435508056018
30
0
41
1
10
55.2257906898655
20
-33.4305509999906
30
0
41
1
10
55.2418055915588
20
-33.4242073419973
30
0
41
1
10
55.2501532617251
20
-33.4226445143581
30
0
41
1
10
55.2758144854407
20
-33.4228634553354
30
0
41
1
10
55.2945864290492
20
-33.4293373174977
30
0
41
1
10
55.3175161133499
20
-33.4445358093031
30
0
41
1
10
55.3214008868725
20
-33.4473481035316
30
0
41
1
10
55.3252953388755
20
-33.450404763773
30
0
0
SPLINE
5
3CF
100
AcDbEntity
8
1
62
256
6
ByLayer
370
18
48
1
60
0
100
AcDbSpline
70
4
71
3
72
18
73
14
40
0
40
0
40
0
40
0
40
0.185832572047046
40
0.185832572047046
40
0.343075808699628
40
0.343075808699628
40
0.496497479308023
40
0.496497479308023
40
0.645512559688735
40
0.645512559688735
40
0.790377368272779
40
0.790377368272779
40
1
40
1
40
1
40
1
41
1
10
72.4999999999999
20
55.2786245294387
30
0
41
1
10
72.4999999999999
20
55.2906635591886
30
0
41
1
10
72.5000000000001
20
55.3050370415218
30
0
41
1
10
72.5000000000001
20
55.335251529697
30
0
41
1
10
72.4999999999999
20
55.3506308664093
30
0
41
1
10
72.4999999999999
20
55.3834666145398
30
0
41
1
10
72.5
20
55.4009739820664
30
0
41
1
10
72.5
20
55.4373848914306
30
0
41
1
10
72.5
20
55.4563557879075
30
0
41
1
10
72.5
20
55.4950810381088
30
0
41
1
10
72.5
20
55.5149282051564
30
0
41
1
10
72.5
20
55.5642667372232
30
0
41
1
10
72.5
20
55.5945237613744
30
0
41
1
10
72.5
20
55.6245623967753
30
0
0
SPLINE
5
3D0
100
AcDbEntity
8
1
62
256
6
ByLayer
370
18
48
1
60
0
100
AcDbSpline
70
4
71
3
72
9
73
5
40
0
40
0
40
0
40
0
40
0.131017155734179
40
1
40
1
40
1
40
1
41
1
10
115.219279882235
20
-49.7542706242699
30
0
41
1
10
115.228770612606
20
-49.7635005159793
30
0
41
1
10
115.294258254399
20
-49.8357321549512
30
0
41
1
10
115.30208924599
20
-49.9188419540619
30
0
41
1
10
115.308894243337
20
-49.9910629436795
30
0
0
SPLINE
5
3D1
100
AcDbEntity
8
1
62
256
6
ByLayer
370
18
48
1
60
0
100
AcDbSpline
70
4
71
3
72
26
73
22
40
0
40
0
40
0
40
0
40
0.0286869624045705
40
0.0286869624045705
40
0.14175857707287
40
0.14175857707287
40
0.254859186747111
40
0.254859186747111
40
0.368025661656482
40
0.368025661656482
40
0.481336136143506
40
0.481336136143506
40
0.59498876468132
40
0.59498876468132
40
0.731770501834047
40
0.731770501834047
40
0.814572892185945
40
0.814572892185945
40
0.903908109635053
40
0.903908109635053
40
1
40
1
40
1
40
1
41
1
10
110.180679833464
20
86.4933279560588
30
0
41
1
10
110.177179349633
20
86.4907758572722
30
0
41
1
10
110.173654294222
20
86.488259036363
30
0
41
1
10
110.156126121013
20
86.4760056124215
30
0
41
1
10
110.141767506959
20
86.4667816261873
30
0
41
1
10
110.112417496478
20
86.4495749789091
30
0
41
1
10
110.097397016209
20
86.4415750359807
30
0
41
1
10
110.066793399302
20
86.4270060055422
30
0
41
1
10
110.051172020306
20
86.420418301955
30
0
41
1
10
110.019461807953
20
86.4089911301464
30
0
41
1
10
110.003314514631
20
86.4041304021475
30
0
41
1
10
109.970741714741
20
86.3966956975456
30
0
41
1
10
109.954210170209
20
86.3941008304976
30
0
41
1
10
109.91822318721
20
86.3919494329185
30
0
41
1
10
109.898418346577
20
86.3930943486455
30
0
41
1
10
109.86915778031
20
86.4006897644895
30
0
41
1
10
109.858526578405
20
86.4049671428967
30
0
41
1
10
109.839150066551
20
86.4169461197531
30
0
41
1
10
109.830403560447
20
86.4250877791173
30
0
41
1
10
109.816928113535
20
86.4446179414183
30
0
41
1
10
109.812333782291
20
86.4564751517373
30
0
41
1
10
109.810109766091
20
86.4687278411902
30
0
0
SPLINE
5
3D2
100
AcDbEntity
8
1
62
256
6
ByLayer
370
18
48
1
60
0
100
AcDbSpline
70
4
71
3
72
8
73
4
40
0
40
0
40
0
40
0
40
1
40
1
40
1
40
1
41
1
10
108.133211728012
20
87.8299658309851
30
0
41
1
10
108.140098687565
20
87.831023491821
30
0
41
1
10
108.146986655142
20
87.8320813195955
30
0
41
1
10
108.153875677039
20
87.833139322005
30
0
0
SPLINE
5
3D3
100
AcDbEntity
8
1
62
256
6
ByLayer
370
18
48
1
60
0
100
AcDbSpline
70
4
71
3
72
8
73
4
40
0
40
0
40
0
40
0
40
1
40
1
40
1
40
1
41
1
10
109.177628253139
20
86.4191664584981
30
0
41
1
10
109.174308898622
20
86.4131781507356
30
0
41
1
10
109.170989916196
20
86.4071909598775
30
0
41
1
10
109.167671289826
20
86.4012048364372
30
0
0
SPLINE
5
3D4
100
AcDbEntity
8
1
62
256
6
ByLayer
370
18
48
1
60
0
100
AcDbSpline
70
4
71
3
72
30
73
26
40
0
40
0
40
0
40
0
40
0.0754486908212763
40
0.0754486908212763
40
0.134142567439336
40
0.134142567439336
40
0.208789318447153
40
0.208789318447153
40
0.300864837338323
40
0.300864837338323
40
0.400373451416047
40
0.400373451416047
40
0.499841523429575
40
0.499841523429575
40
0.644794997236281
40
0.644794997236281
40
0.711843600985111
40
0.711843600985111
40
0.778927202841179
40
0.778927202841179
40
0.846083321820512
40
0.846083321820512
40
0.913400043300398
40
0.913400043300398
40
1
40
1
40
1
40
1
41
1
10
108.588694944344
20
86.6825434225266
30
0
41
1
10
108.595135397266
20
86.6973915619096
30
0
41
1
10
108.598820251316
20
86.7136468850742
30
0
41
1
10
108.601764134762
20
86.7429383467133
30
0
41
1
10
108.601839605655
20
86.7560694654842
30
0
41
1
10
108.599865154344
20
86.7859102235751
30
0
41
1
10
108.59722828247
20
86.8027507415935
30
0
41
1
10
108.588745260484
20
86.8400070420041
30
0
41
1
10
108.582258393623
20
86.8605007512322
30
0
41
1
10
108.565895701597
20
86.9022930010442
30
0
41
1
10
108.555724616219
20
86.923676553861
30
0
41
1
10
108.532740742257
20
86.9651353334259
30
0
41
1
10
108.519855594375
20
86.9853382812959
30
0
41
1
10
108.485480356935
20
87.0328162110719
30
0
41
1
10
108.462519155416
20
87.0594548247407
30
0
41
1
10
108.426054453389
20
87.0946540605212
30
0
41
1
10
108.414015772181
20
87.1053078250686
30
0
41
1
10
108.389124990591
20
87.1252916631222
30
0
41
1
10
108.376230721438
20
87.1346559604845
30
0
41
1
10
108.34968279141
20
87.1517346543441
30
0
41
1
10
108.335970685133
20
87.1594866715644
30
0
41
1
10
108.307868608679
20
87.1728341830492
30
0
41
1
10
108.293384946695
20
87.178471459189
30
0
41
1
10
108.259920462127
20
87.1878753882456
30
0
41
1
10
108.240410930335
20
87.1907745200751
30
0
41
1
10
108.221504432757
20
87.1896946925133
30
0
0
SPLINE
5
3D5
100
AcDbEntity
8
1
62
256
6
ByLayer
370
18
48
1
60
0
100
AcDbSpline
70
4
71
3
72
8
73
4
40
0
40
0
40
0
40
0
40
1
40
1
40
1
40
1
41
1
10
108.221504432757
20
87.1896946925133
30
0
41
1
10
108.214545981448
20
87.1892972668409
30
0
41
1
10
108.207588597727
20
87.1888998895552
30
0
41
1
10
108.200632234712
20
87.1885025585592
30
0
0
SPLINE
5
3D6
100
AcDbEntity
8
1
62
256
6
ByLayer
370
18
48
1
60
0
100
AcDbSpline
70
4
71
3
72
26
73
22
40
0
40
0
40
0
40
0
40
0.0286869624046459
40
0.0286869624046459
40
0.141758577072953
40
0.141758577072953
40
0.254859186747214
40
0.254859186747214
40
0.368025661656579
40
0.368025661656579
40
0.481336136143593
40
0.481336136143593
40
0.594988764681338
40
0.594988764681338
40
0.731770501834061
40
0.731770501834061
40
0.814572892185845
40
0.814572892185845
40
0.903908109634989
40
0.903908109634989
40
1
40
1
40
1
40
1
41
1
10
107.958103868981
20
87.4872865267607
30
0
41
1
10
107.957649751778
20
87.4916071633405
30
0
41
1
10
107.957240000095
20
87.4959327052512
30
0
41
1
10
107.955436186286
20
87.51731635744
30
0
41
1
10
107.95468591353
20
87.5344443231229
30
0
41
1
10
107.954627362991
20
87.5686689066174
30
0
41
1
10
107.955318790059
20
87.5857995270376
30
0
41
1
10
107.958281727446
20
87.6198805485866
30
0
41
1
10
107.96055650524
20
87.6368736841317
30
0
41
1
10
107.966930178181
20
87.6704510017537
30
0
41
1
10
107.971040521463
20
87.6870970836662
30
0
41
1
10
107.98148602678
20
87.7195684462242
30
0
41
1
10
107.987857976807
20
87.7354977216703
30
0
41
1
10
108.004930796458
20
87.7685570890354
30
0
41
1
10
108.016457911277
20
87.7856736543097
30
0
41
1
10
108.038940479715
20
87.8082674777377
30
0
41
1
10
108.048511114264
20
87.8157840278432
30
0
41
1
10
108.069833520919
20
87.8275860841891
30
0
41
1
10
108.081994522694
20
87.8316734020095
30
0
41
1
10
108.107222979036
20
87.8348110682484
30
0
41
1
10
108.120655651315
20
87.8335301649959
30
0
41
1
10
108.133211728012
20
87.829965830985
30
0
0
SPLINE
5
3D7
100
AcDbEntity
8
1
62
256
6
ByLayer
370
18
48
1
60
0
100
AcDbSpline
70
4
71
3
72
26
73
22
40
0
40
0
40
0
40
0
40
0.034174742958395
40
0.034174742958395
40
0.118717554180441
40
0.118717554180441
40
0.203116442115722
40
0.203116442115722
40
0.327045140901062
40
0.327045140901062
40
0.402980231179104
40
0.402980231179104
40
0.50554722846284
40
0.50554722846284
40
0.60790486912903
40
0.60790486912903
40
0.71016594750803
40
0.71016594750803
40
0.915602886218747
40
0.915602886218747
40
1
40
1
40
1
40
1
41
1
10
108.200632234712
20
87.1885025585592
30
0
41
1
10
108.196467283227
20
87.1863021839104
30
0
41
1
10
108.192156042542
20
87.184367003351
30
0
41
1
10
108.176923210801
20
87.1787841296505
30
0
41
1
10
108.165208111226
20
87.1767051157759
30
0
41
1
10
108.141844782818
20
87.1771039570325
30
0
41
1
10
108.129918831018
20
87.1795771777915
30
0
41
1
10
108.102312027593
20
87.1901421110265
30
0
41
1
10
108.086891402921
20
87.2004012392256
30
0
41
1
10
108.065034861982
20
87.2199529571003
30
0
41
1
10
108.057250895472
20
87.2282262502558
30
0
41
1
10
108.040317590126
20
87.2487780763248
30
0
41
1
10
108.031565645711
20
87.2615280249393
30
0
41
1
10
108.015820147792
20
87.2879902355346
30
0
41
1
10
108.00878197621
20
87.3017742182413
30
0
41
1
10
107.996177714472
20
87.3299544628433
30
0
41
1
10
107.990591431473
20
87.3443966429204
30
0
41
1
10
107.975750488314
20
87.3883955817591
30
0
41
1
10
107.968370013127
20
87.41872513881
30
0
41
1
10
107.961158004339
20
87.4619144970454
30
0
41
1
10
107.959439012012
20
87.474583489364
30
0
41
1
10
107.958103868981
20
87.4872865267607
30
0
0
SPLINE
5
3D8
100
AcDbEntity
8
1
62
256
6
ByLayer
370
18
48
1
60
0
100
AcDbSpline
70
4
71
3
72
26
73
22
40
0
40
0
40
0
40
0
40
0.036967983939861
40
0.036967983939861
40
0.140366078222994
40
0.140366078222994
40
0.298318733654404
40
0.298318733654404
40
0.500628765508172
40
0.500628765508172
40
0.645354084681067
40
0.645354084681067
40
0.712297154914707
40
0.712297154914707
40
0.779275168169083
40
0.779275168169083
40
0.846325584405812
40
0.846325584405812
40
0.913536350357144
40
0.913536350357144
40
1
40
1
40
1
40
1
41
1
10
110.319847157677
20
86.8644948520409
30
0
41
1
10
110.315935122492
20
86.8711190191593
30
0
41
1
10
110.312601362709
20
86.8782189403397
30
0
41
1
10
110.302012527794
20
86.9060101135692
30
0
41
1
10
110.298059189158
20
86.9288376796346
30
0
41
1
10
110.294529536123
20
86.9872479927429
30
0
41
1
10
110.298180623516
20
87.0243884354122
30
0
41
1
10
110.314603889656
20
87.107453446171
30
0
41
1
10
110.329969263633
20
87.1543722936166
30
0
41
1
10
110.363585980529
20
87.2302130663879
30
0
41
1
10
110.380053565807
20
87.2609958125404
30
0
41
1
10
110.407098080336
20
87.3028701359593
30
0
41
1
10
110.416149098135
20
87.3157405171929
30
0
41
1
10
110.435137585236
20
87.3403362522263
30
0
41
1
10
110.445107133282
20
87.3521036336105
30
0
41
1
10
110.465951350135
20
87.3741634428258
30
0
41
1
10
110.476871838334
20
87.3845044500513
30
0
41
1
10
110.499646250454
20
87.4031992959607
30
0
41
1
10
110.511576461957
20
87.4116127820735
30
0
41
1
10
110.539736709521
20
87.4274937314742
30
0
41
1
10
110.556578889148
20
87.4342135821331
30
0
41
1
10
110.573570997557
20
87.4369068501005
30
0
0
SPLINE
5
3D9
100
AcDbEntity
8
1
62
256
6
ByLayer
370
18
48
1
60
0
100
AcDbSpline
70
4
71
3
72
30
73
26
40
0
40
0
40
0
40
0
40
0.0754486908212609
40
0.0754486908212609
40
0.134142567439348
40
0.134142567439348
40
0.208789318447175
40
0.208789318447175
40
0.300864837338311
40
0.300864837338311
40
0.400373451416042
40
0.400373451416042
40
0.499841523429535
40
0.499841523429535
40
0.644794997236309
40
0.644794997236309
40
0.711843600985116
40
0.711843600985116
40
0.778927202841212
40
0.778927202841212
40
0.846083321820487
40
0.846083321820487
40
0.913400043300387
40
0.913400043300387
40
1
40
1
40
1
40
1
41
1
10
109.798542604603
20
86.4844271865743
30
0
41
1
10
109.789392954144
20
86.4968445075359
30
0
41
1
10
109.777633589931
20
86.5075982389852
30
0
41
1
10
109.754523222856
20
86.5238666988332
30
0
41
1
10
109.743516514594
20
86.5301130166695
30
0
41
1
10
109.717383226711
20
86.5425099023402
30
0
41
1
10
109.701840092497
20
86.5482303722168
30
0
41
1
10
109.66606069671
20
86.5586799092492
30
0
41
1
10
109.645421942338
20
86.5629122285001
30
0
41
1
10
109.601670900902
20
86.5689540646088
30
0
41
1
10
109.578330622037
20
86.5705594536789
30
0
41
1
10
109.531334205788
20
86.5709923794062
30
0
41
1
10
109.507532482132
20
86.5698199406817
30
0
41
1
10
109.449404405323
20
86.5637104336211
30
0
41
1
10
109.414821658283
20
86.5572738988168
30
0
41
1
10
109.365858492749
20
86.5437332803396
30
0
41
1
10
109.350504660763
20
86.5388108104866
30
0
41
1
10
109.320478403604
20
86.5276713513526
30
0
41
1
10
109.305754787537
20
86.5214356802375
30
0
41
1
10
109.2772984854
20
86.5075519454189
30
0
41
1
10
109.263503114618
20
86.4998733539896
30
0
41
1
10
109.237381932373
20
86.482919874382
30
0
41
1
10
109.224971317647
20
86.4735871870811
30
0
41
1
10
109.199374282176
20
86.4502752981608
30
0
41
1
10
109.186647123193
20
86.4354370223302
30
0
41
1
10
109.177628253139
20
86.4191664584981
30
0
0
SPLINE
5
3DA
100
AcDbEntity
8
1
62
256
6
ByLayer
370
18
48
1
60
0
100
AcDbSpline
70
4
71
3
72
8
73
4
40
0
40
0
40
0
40
0
40
1
40
1
40
1
40
1
41
1
10
110.573570997557
20
87.4369068501005
30
0
41
1
10
110.579824866552
20
87.4378980952498
30
0
41
1
10
110.586077278025
20
87.438889123386
30
0
41
1
10
110.592328297083
20
87.4398799441827
30
0
0
SPLINE
5
3DB
100
AcDbEntity
8
1
62
256
6
ByLayer
370
18
48
1
60
0
100
AcDbSpline
70
4
71
3
72
26
73
22
40
0
40
0
40
0
40
0
40
0.0753632465606004
40
0.0753632465606004
40
0.133990653438623
40
0.133990653438623
40
0.208552868369829
40
0.208552868369829
40
0.300524113423261
40
0.300524113423261
40
0.399920035818942
40
0.399920035818942
40
0.499275462063606
40
0.499275462063606
40
0.577746029348541
40
0.577746029348541
40
0.777160361616591
40
0.777160361616591
40
0.91386469565991
40
0.91386469565991
40
1
40
1
40
1
40
1
41
1
10
110.505942241839
20
88.0803514795922
30
0
41
1
10
110.490940842725
20
88.0795670015384
30
0
41
1
10
110.475410404208
20
88.0818130256401
30
0
41
1
10
110.448388784007
20
88.0892575286277
30
0
41
1
10
110.436599555933
20
88.0937384477959
30
0
41
1
10
110.410355187024
20
88.1058847298491
30
0
41
1
10
110.39593222683
20
88.114132360955
30
0
41
1
10
110.364675365158
20
88.1347849312966
30
0
41
1
10
110.347929062514
20
88.1477987906276
30
0
41
1
10
110.314513750948
20
88.1771584820426
30
0
41
1
10
110.297838223296
20
88.1937998391975
30
0
41
1
10
110.26624418855
20
88.2289812062802
30
0
41
1
10
110.25122875936
20
88.2476310293242
30
0
41
1
10
110.226130861687
20
88.2822954072885
30
0
41
1
10
110.215628415602
20
88.2981074999467
30
0
41
1
10
110.181213492505
20
88.354888055089
30
0
41
1
10
110.160517083932
20
88.3984954376003
30
0
41
1
10
110.1377083106
20
88.4724867890125
30
0
41
1
10
110.131575644918
20
88.5034947132408
30
0
41
1
10
110.130974157649
20
88.552005062191
30
0
41
1
10
110.13310137558
20
88.5706789055724
30
0
41
1
10
110.138751730252
20
88.5875027495789
30
0
0
SPLINE
5
3DC
100
AcDbEntity
8
1
62
256
6
ByLayer
370
18
48
1
60
0
100
AcDbSpline
70
4
71
3
72
26
73
22
40
0
40
0
40
0
40
0
40
0.0286988395658775
40
0.0286988395658775
40
0.141769071600764
40
0.141769071600764
40
0.254868298287106
40
0.254868298287106
40
0.368033389403182
40
0.368033389403182
40
0.481342478336051
40
0.481342478336051
40
0.594993717135815
40
0.594993717135815
40
0.731773781728593
40
0.731773781728593
40
0.814575159577648
40
0.814575159577648
40
0.903909284641037
40
0.903909284641037
40
1
40
1
40
1
40
1
41
1
10
110.751389005349
20
87.7808726248977
30
0
41
1
10
110.750934888146
20
87.7851932614778
30
0
41
1
10
110.750438710197
20
87.7895097196223
30
0
41
1
10
110.747780496896
20
87.8108035708062
30
0
41
1
10
110.745008290237
20
87.8277190226725
30
0
41
1
10
110.738138029412
20
87.8612276665664
30
0
41
1
10
110.734033327502
20
87.877854193518
30
0
41
1
10
110.724407553857
20
87.9106120882209
30
0
41
1
10
110.718874734067
20
87.9267846121927
30
0
41
1
10
110.706226758428
20
87.958362673987
30
0
41
1
10
110.699088388599
20
87.9738264685102
30
0
41
1
10
110.682966384451
20
88.0035054733029
30
0
41
1
10
110.673927793865
20
88.0178150356628
30
0
41
1
10
110.651718027465
20
88.0467456368616
30
0
41
1
10
110.637807601911
20
88.0611886089076
30
0
41
1
10
110.612991598778
20
88.0788111521415
30
0
41
1
10
110.60287918101
20
88.0842589300856
30
0
41
1
10
110.581431690461
20
88.0915656890934
30
0
41
1
10
110.569778635798
20
88.0931500487234
30
0
41
1
10
110.546790860312
20
88.0912199847887
30
0
41
1
10
110.53520756902
20
88.0873097978156
30
0
41
1
10
110.524907790384
20
88.0813432166085
30
0
0
SPLINE
5
3DD
100
AcDbEntity
8
1
62
256
6
ByLayer
370
18
48
1
60
0
100
AcDbSpline
70
4
71
3
72
26
73
22
40
0
40
0
40
0
40
0
40
0.0246840387502176
40
0.0246840387502176
40
0.108402719804368
40
0.108402719804368
40
0.192103052547503
40
0.192103052547503
40
0.309485195483523
40
0.309485195483523
40
0.380199874143326
40
0.380199874143326
40
0.476666438094132
40
0.476666438094132
40
0.587023534816806
40
0.587023534816806
40
0.697229101300186
40
0.697229101300186
40
0.807364565734766
40
0.807364565734766
40
1
40
1
40
1
40
1
41
1
10
110.592328297083
20
87.4398799441827
30
0
41
1
10
110.595278778165
20
87.4389165256713
30
0
41
1
10
110.598271604705
20
87.4381042475989
30
0
41
1
10
110.611415286053
20
87.4352971371316
30
0
41
1
10
110.62205015375
20
87.4350527031571
30
0
41
1
10
110.642668562235
20
87.43897202271
30
0
41
1
10
110.652893444884
20
87.4431883232417
30
0
41
1
10
110.675242915097
20
87.4574082979768
30
0
41
1
10
110.686942193951
20
87.4692252626041
30
0
41
1
10
110.702699673473
20
87.4905868899511
30
0
41
1
10
110.708076514202
20
87.4993203692461
30
0
41
1
10
110.719469912327
20
87.5207997088069
30
0
41
1
10
110.725064712139
20
87.5339401071336
30
0
41
1
10
110.735272023116
20
87.5628239169669
30
0
41
1
10
110.73966399145
20
87.5787697484049
30
0
41
1
10
110.746685609437
20
87.6110545033454
30
0
41
1
10
110.749330063395
20
87.6274617622117
30
0
41
1
10
110.753123751266
20
87.6604468283765
30
0
41
1
10
110.754277705082
20
87.6770696513634
30
0
41
1
10
110.755608216979
20
87.722737707332
30
0
41
1
10
110.75442948784
20
87.7519443663673
30
0
41
1
10
110.751389005349
20
87.7808726248977
30
0
0
SPLINE
5
3DE
100
AcDbEntity
8
1
62
256
6
ByLayer
370
18
48
1
60
0
100
AcDbSpline
70
4
71
3
72
26
73
22
40
0
40
0
40
0
40
0
40
0.0341747429583145
40
0.0341747429583145
40
0.11871755418038
40
0.11871755418038
40
0.203116442115665
40
0.203116442115665
40
0.327045140900968
40
0.327045140900968
40
0.402980231179038
40
0.402980231179038
40
0.505547228462766
40
0.505547228462766
40
0.607904869128957
40
0.607904869128957
40
0.710165947508006
40
0.710165947508006
40
0.915602886218721
40
0.915602886218721
40
1
40
1
40
1
40
1
41
1
10
110.329809067662
20
86.8476251654618
30
0
41
1
10
110.333436569364
20
86.8452627613849
30
0
41
1
10
110.336905276333
20
86.8426422231447
30
0
41
1
10
110.348112881652
20
86.8327413493197
30
0
41
1
10
110.354882255452
20
86.8239939611345
30
0
41
1
10
110.36458080407
20
86.8042261239874
30
0
41
1
10
110.367632766742
20
86.7929756369358
30
0
41
1
10
110.370635034197
20
86.7644652284337
30
0
41
1
10
110.368652618767
20
86.746319050687
30
0
41
1
10
110.36160687974
20
86.7180583317983
30
0
41
1
10
110.357990225701
20
86.7073291101441
30
0
41
1
10
110.34795525343
20
86.6826971499748
30
0
41
1
10
110.340963040674
20
86.6688902393155
30
0
41
1
10
110.325379641023
20
86.6422744633354
30
0
41
1
10
110.316747231304
20
86.6293917541909
30
0
41
1
10
110.298299105776
20
86.604563559488
30
0
41
1
10
110.288453268702
20
86.5925778677523
30
0
41
1
10
110.257471110201
20
86.5579093872693
30
0
41
1
10
110.234822899523
20
86.5364281787865
30
0
41
1
10
110.201057852195
20
86.5086441758515
30
0
41
1
10
110.19097155233
20
86.5008313425918
30
0
41
1
10
110.180679833464
20
86.4933279560588
30
0
0
SPLINE
5
3DF
100
AcDbEntity
8
1
62
256
6
ByLayer
370
18
48
1
60
0
100
AcDbSpline
70
4
71
3
72
8
73
4
40
0
40
0
40
0
40
0
40
1
40
1
40
1
40
1
41
1
10
109.810109766091
20
86.4687278411902
30
0
41
1
10
109.806255015117
20
86.4739600122906
30
0
41
1
10
109.802399309551
20
86.4791931130541
30
0
41
1
10
109.798542604603
20
86.4844271865743
30
0
0
SPLINE
5
3E0
100
AcDbEntity
8
1
62
256
6
ByLayer
370
18
48
1
60
0
100
AcDbSpline
70
4
71
3
72
8
73
4
40
0
40
0
40
0
40
0
40
1
40
1
40
1
40
1
41
1
10
110.14498854354
20
88.6060749905764
30
0
41
1
10
110.142910245703
20
88.5998854186989
30
0
41
1
10
110.140831317848
20
88.5936946896185
30
0
41
1
10
110.138751730252
20
88.5875027495789
30
0
0
SPLINE
5
3E1
100
AcDbEntity
8
1
62
256
6
ByLayer
370
18
48
1
60
0
100
AcDbSpline
70
4
71
3
72
30
73
26
40
0
40
0
40
0
40
0
40
0.075448690821117
40
0.075448690821117
40
0.134142567439182
40
0.134142567439182
40
0.208789318447004
40
0.208789318447004
40
0.300864837338219
40
0.300864837338219
40
0.400373451415974
40
0.400373451415974
40
0.49984152342949
40
0.49984152342949
40
0.644794997236242
40
0.644794997236242
40
0.71184360098504
40
0.71184360098504
40
0.778927202841189
40
0.778927202841189
40
0.846083321820498
40
0.846083321820498
40
0.913400043300353
40
0.913400043300353
40
1
40
1
40
1
40
1
41
1
10
108.928904069992
20
88.7856189855311
30
0
41
1
10
108.939560557795
20
88.7733600395562
30
0
41
1
10
108.952760185525
20
88.7627576859023
30
0
41
1
10
108.978212386111
20
88.7467353626746
30
0
41
1
10
108.990183513335
20
88.7405904093558
30
0
41
1
10
109.018343449478
20
88.7284065330007
30
0
41
1
10
109.034913098418
20
88.7227939541693
30
0
41
1
10
109.072725414947
20
88.7125580857168
30
0
41
1
10
109.094318699824
20
88.7084260916647
30
0
41
1
10
109.139684672574
20
88.702553991677
30
0
41
1
10
109.163660949094
20
88.7010154486538
30
0
41
1
10
109.211504426376
20
88.7006715526286
30
0
41
1
10
109.235519721993
20
88.7018664386708
30
0
41
1
10
109.293647798802
20
88.7079759457313
30
0
41
1
10
109.327777166153
20
88.7143648284102
30
0
41
1
10
109.375435318043
20
88.7277682844264
30
0
41
1
10
109.390279602889
20
88.7326371987169
30
0
41
1
10
109.419102362416
20
88.7436501651525
30
0
41
1
10
109.433129974991
20
88.749812683353
30
0
41
1
10
109.460013560036
20
88.7635311189443
30
0
41
1
10
109.47292869017
20
88.7711171933533
30
0
41
1
10
109.497111409557
20
88.7878669323048
30
0
41
1
10
109.50845713218
20
88.7970876949355
30
0
41
1
10
109.531436396716
20
88.8201244450435
30
0
41
1
10
109.542525297012
20
88.8347905329476
30
0
41
1
10
109.549818421457
20
88.8508797136074
30
0
0
SPLINE
5
3E2
100
AcDbEntity
8
1
62
256
6
ByLayer
370
18
48
1
60
0
100
AcDbSpline
70
4
71
3
72
26
73
22
40
0
40
0
40
0
40
0
40
0.0286869624046147
40
0.0286869624046147
40
0.141758577072983
40
0.141758577072983
40
0.254859186747166
40
0.254859186747166
40
0.368025661656541
40
0.368025661656541
40
0.48133613614361
40
0.48133613614361
40
0.594988764681315
40
0.594988764681315
40
0.731770501834073
40
0.731770501834073
40
0.814572892185919
40
0.814572892185919
40
0.90390810963505
40
0.90390810963505
40
1
40
1
40
1
40
1
41
1
10
108.78403726528
20
86.3465349069904
30
0
41
1
10
108.780082664246
20
86.3483034447835
30
0
41
1
10
108.776146679572
20
86.3501120420165
30
0
41
1
10
108.756803041638
20
86.3592410457032
30
0
41
1
10
108.741666644753
20
86.3671421337265
30
0
41
1
10
108.71216400417
20
86.384150181782
30
0
41
1
10
108.697768314932
20
86.3932738555442
30
0
41
1
10
108.669948505779
20
86.4127670193716
30
0
41
1
10
108.65648924448
20
86.4231606102761
30
0
41
1
10
108.630868938
20
86.4452809309689
30
0
41
1
10
108.618660454145
20
86.4570482559523
30
0
41
1
10
108.596109950719
20
86.4820404328652
30
0
41
1
10
108.585697356394
20
86.495348249911
30
0
41
1
10
108.566101492974
20
86.5261845701322
30
0
41
1
10
108.557362003073
20
86.5443975177719
30
0
41
1
10
108.549647611606
20
86.5744883381068
30
0
41
1
10
108.548181117202
20
86.5862396019677
30
0
41
1
10
108.549195634078
20
86.6099227434053
30
0
41
1
10
108.552064129146
20
86.6220943336142
30
0
41
1
10
108.562646270552
20
86.644639098966
30
0
41
1
10
108.570839846533
20
86.6551476384944
30
0
41
1
10
108.580551481556
20
86.6637707845914
30
0
0
SPLINE
5
3E3
100
AcDbEntity
8
1
62
256
6
ByLayer
370
18
48
1
60
0
100
AcDbSpline
70
4
71
3
72
8
73
4
40
0
40
0
40
0
40
0
40
1
40
1
40
1
40
1
41
1
10
109.549818421457
20
88.8508797136074
30
0
41
1
10
109.552502623073
20
88.8568012641099
30
0
41
1
10
109.555186049394
20
88.8627216553296
30
0
41
1
10
109.55786873527
20
88.8686409387307
30
0
0
SPLINE
5
3E4
100
AcDbEntity
8
1
62
256
6
ByLayer
370
18
48
1
60
0
100
AcDbSpline
70
4
71
3
72
8
73
4
40
0
40
0
40
0
40
0
40
1
40
1
40
1
40
1
41
1
10
108.580551481556
20
86.6637707845914
30
0
41
1
10
108.583265719887
20
86.6700271965082
30
0
41
1
10
108.585980203846
20
86.6762847252269
30
0
41
1
10
108.588694944344
20
86.6825434225266
30
0
0
SPLINE
5
3E5
100
AcDbEntity
8
1
62
256
6
ByLayer
370
18
48
1
60
0
100
AcDbSpline
70
4
71
3
72
26
73
22
40
0
40
0
40
0
40
0
40
0.028686962404563
40
0.028686962404563
40
0.141758577072835
40
0.141758577072835
40
0.254859186747105
40
0.254859186747105
40
0.368025661656493
40
0.368025661656493
40
0.481336136143551
40
0.481336136143551
40
0.594988764681292
40
0.594988764681292
40
0.731770501834103
40
0.731770501834103
40
0.814572892185927
40
0.814572892185927
40
0.903908109635054
40
0.903908109635054
40
1
40
1
40
1
40
1
41
1
10
109.925455609051
20
88.921624244668
30
0
41
1
10
109.929410210085
20
88.9198557068748
30
0
41
1
10
109.933348549916
20
88.9180473571789
30
0
41
1
10
109.952715489683
20
88.9089208026136
30
0
41
1
10
109.967906906717
20
88.901025497441
30
0
41
1
10
109.99759770643
20
88.8840372257067
30
0
41
1
10
110.012126667741
20
88.8749275594041
30
0
41
1
10
110.04030473616
20
88.8554720501428
30
0
41
1
10
110.053989317654
20
88.845102141345
30
0
41
1
10
110.080177158269
20
88.8230414708935
30
0
41
1
10
110.092728709751
20
88.8113102037709
30
0
41
1
10
110.116125630886
20
88.7864069889438
30
0
41
1
10
110.127044224847
20
88.7731523546029
30
0
41
1
10
110.148003488413
20
88.7424593335113
30
0
41
1
10
110.157666506492
20
88.7243434525944
30
0
41
1
10
110.167253685232
20
88.6944494701338
30
0
41
1
10
110.169532033731
20
88.6827835355767
30
0
41
1
10
110.170380272708
20
88.6592961776685
30
0
41
1
10
110.168603778844
20
88.647239361411
30
0
41
1
10
110.160363373487
20
88.6249407224359
30
0
41
1
10
110.153459327613
20
88.6145677179832
30
0
41
1
10
110.14498854354
20
88.6060749905764
30
0
0
SPLINE
5
3E6
100
AcDbEntity
8
1
62
256
6
ByLayer
370
18
48
1
60
0
100
AcDbSpline
70
4
71
3
72
26
73
22
40
0
40
0
40
0
40
0
40
0.0341747429583099
40
0.0341747429583099
40
0.118717554180367
40
0.118717554180367
40
0.203116442115646
40
0.203116442115646
40
0.327045140900979
40
0.327045140900979
40
0.402980231179052
40
0.402980231179052
40
0.505547228462666
40
0.505547228462666
40
0.607904869128863
40
0.607904869128863
40
0.710165947507919
40
0.710165947507919
40
0.915602886218638
40
0.915602886218638
40
1
40
1
40
1
40
1
41
1
10
109.55786873527
20
88.8686409387307
30
0
41
1
10
109.557734460348
20
88.8731331163449
30
0
41
1
10
109.557899180742
20
88.8776175940937
30
0
41
1
10
109.559593996158
20
88.8928564055527
30
0
41
1
10
109.562861931207
20
88.9035064647011
30
0
41
1
10
109.573406696846
20
88.9225475338903
30
0
41
1
10
109.580800263729
20
88.931169201535
30
0
41
1
10
109.602191268896
20
88.9487769211045
30
0
41
1
10
109.617988680493
20
88.956495212296
30
0
41
1
10
109.644780042497
20
88.9649823468919
30
0
41
1
10
109.655472280516
20
88.9673638213865
30
0
41
1
10
109.68096807033
20
88.9712891907822
30
0
41
1
10
109.696008096814
20
88.9722721457098
30
0
41
1
10
109.72613933331
20
88.9722998318433
30
0
41
1
10
109.741313213934
20
88.9713463529362
30
0
41
1
10
109.77152682302
20
88.9679061438981
30
0
41
1
10
109.786615709519
20
88.9654135802541
30
0
41
1
10
109.831589651334
20
88.9559938716025
30
0
41
1
10
109.861288225006
20
88.9471108268448
30
0
41
1
10
109.902053887812
20
88.9316832532121
30
0
41
1
10
109.913828747154
20
88.9268238955317
30
0
41
1
10
109.925455609051
20
88.921624244668
30
0
0
SPLINE
5
3E7
100
AcDbEntity
8
1
62
256
6
ByLayer
370
18
48
1
60
0
100
AcDbSpline
70
4
71
3
72
8
73
4
40
0
40
0
40
0
40
0
40
1
40
1
40
1
40
1
41
1
10
110.524907790384
20
88.0813432166085
30
0
41
1
10
110.518587367863
20
88.0810127256518
30
0
41
1
10
110.512265540247
20
88.0806821480046
30
0
41
1
10
110.505942241839
20
88.0803514795922
30
0
0
SPLINE
5
3E8
100
AcDbEntity
8
1
62
256
6
ByLayer
370
18
48
1
60
0
100
AcDbSpline
70
4
71
3
72
8
73
4
40
0
40
0
40
0
40
0
40
1
40
1
40
1
40
1
41
1
10
108.915430259005
20
88.8011179339776
30
0
41
1
10
108.919920950473
20
88.7959526029165
30
0
41
1
10
108.924412212143
20
88.7907863017914
30
0
41
1
10
108.928904069992
20
88.7856189855312
30
0
0
SPLINE
5
3E9
100
AcDbEntity
8
1
62
256
6
ByLayer
370
18
48
1
60
0
100
AcDbSpline
70
4
71
3
72
30
73
26
40
0
40
0
40
0
40
0
40
0.0754486908212652
40
0.0754486908212652
40
0.134142567439285
40
0.134142567439285
40
0.208789318447146
40
0.208789318447146
40
0.300864837338294
40
0.300864837338294
40
0.400373451416015
40
0.400373451416015
40
0.499841523429537
40
0.499841523429537
40
0.644794997236287
40
0.644794997236287
40
0.711843600985112
40
0.711843600985112
40
0.778927202841185
40
0.778927202841185
40
0.846083321820487
40
0.846083321820487
40
0.91340004330036
40
0.91340004330036
40
1
40
1
40
1
40
1
41
1
10
108.153875677039
20
87.833139322005
30
0
41
1
10
108.170219199092
20
87.8356493279199
30
0
41
1
10
108.186383549113
20
87.8412266085328
30
0
41
1
10
108.213608716389
20
87.854372678634
30
0
41
1
10
108.225173105025
20
87.8613081618273
30
0
41
1
10
108.250345265728
20
87.8788585389054
30
0
41
1
10
108.26376478543
20
87.8900325325698
30
0
41
1
10
108.292077619603
20
87.9169461302379
30
0
41
1
10
108.306706772366
20
87.9332576828145
30
0
41
1
10
108.334902587433
20
87.9690929645782
30
0
41
1
10
108.348389779748
20
87.9889045513485
30
0
41
1
10
108.372825852551
20
88.029974920037
30
0
41
1
10
108.383849214305
20
88.0513615302905
30
0
41
1
10
108.407602053674
20
88.104948967127
30
0
41
1
10
108.418996909351
20
88.1380002895373
30
0
41
1
10
108.430842866036
20
88.1866715625646
30
0
41
1
10
108.433903243244
20
88.2022210191838
30
0
41
1
10
108.438436969998
20
88.2332810700221
30
0
41
1
10
108.439918315166
20
88.2488444620423
30
0
41
1
10
108.441040328727
20
88.2797242411067
30
0
41
1
10
108.440683472909
20
88.2951085912463
30
0
41
1
10
108.437733347271
20
88.3253077120106
30
0
41
1
10
108.435127853962
20
88.3402217131162
30
0
41
1
10
108.425951519397
20
88.372799961687
30
0
41
1
10
108.418350017244
20
88.3904512753838
30
0
41
1
10
108.407599516917
20
88.4055513200678
30
0
0
SPLINE
5
3EA
100
AcDbEntity
8
1
62
256
6
ByLayer
370
18
48
1
60
0
100
AcDbSpline
70
4
71
3
72
8
73
4
40
0
40
0
40
0
40
0
40
1
40
1
40
1
40
1
41
1
10
108.407599516917
20
88.4055513200678
30
0
41
1
10
108.403642843674
20
88.411108823528
30
0
41
1
10
108.399686664326
20
88.4166652372812
30
0
41
1
10
108.395730957434
20
88.422220609706
30
0
0
SPLINE
5
3EB
100
AcDbEntity
8
1
62
256
6
ByLayer
370
18
48
1
60
0
100
AcDbSpline
70
4
71
3
72
26
73
22
40
0
40
0
40
0
40
0
40
0.0286869624047328
40
0.0286869624047328
40
0.141758577072994
40
0.141758577072994
40
0.254859186747188
40
0.254859186747188
40
0.368025661656554
40
0.368025661656554
40
0.481336136143646
40
0.481336136143646
40
0.594988764681358
40
0.594988764681358
40
0.731770501834091
40
0.731770501834091
40
0.814572892185903
40
0.814572892185903
40
0.903908109635046
40
0.903908109635046
40
1
40
1
40
1
40
1
41
1
10
108.528813040867
20
88.7748311955995
30
0
41
1
10
108.532313524697
20
88.7773832943861
30
0
41
1
10
108.535840935267
20
88.7799003628325
30
0
41
1
10
108.553392410308
20
88.7921562358952
30
0
41
1
10
108.567806044512
20
88.8013860049801
30
0
41
1
10
108.597344214121
20
88.8186124285797
30
0
41
1
10
108.612497966463
20
88.8266263789675
30
0
41
1
10
108.643459842637
20
88.8412330639721
30
0
41
1
10
108.659306541828
20
88.8478444496661
30
0
41
1
10
108.691584288316
20
88.859331271716
30
0
41
1
10
108.708074649266
20
88.8642280575756
30
0
41
1
10
108.741493866864
20
88.8717517242634
30
0
41
1
10
108.758531411033
20
88.8743997740163
30
0
41
1
10
108.795881794177
20
88.8766944707251
30
0
41
1
10
108.816610162987
20
88.8756466217209
30
0
41
1
10
108.847743516528
20
88.8682480437511
30
0
41
1
10
108.859186572529
20
88.8640559946477
30
0
41
1
10
108.880425840234
20
88.8522728013206
30
0
41
1
10
108.890264347544
20
88.8442459159079
30
0
41
1
10
108.906081530504
20
88.8249618799834
30
0
41
1
10
108.911965391855
20
88.8132402047403
30
0
41
1
10
108.915430259005
20
88.8011179339776
30
0
0
SPLINE
5
3EC
100
AcDbEntity
8
1
62
256
6
ByLayer
370
18
48
1
60
0
100
AcDbSpline
70
4
71
3
72
8
73
4
40
0
40
0
40
0
40
0
40
1
40
1
40
1
40
1
41
1
10
110.319847157679
20
86.8644948520375
30
0
41
1
10
110.323168678021
20
86.8588705913174
30
0
41
1
10
110.326489301264
20
86.8532473779259
30
0
41
1
10
110.329809067662
20
86.8476251654618
30
0
0
SPLINE
5
3ED
100
AcDbEntity
8
1
62
256
6
ByLayer
370
18
48
1
60
0
100
AcDbSpline
70
4
71
3
72
26
73
22
40
0
40
0
40
0
40
0
40
0.0341747429583028
40
0.0341747429583028
40
0.118717554180336
40
0.118717554180336
40
0.203116442115649
40
0.203116442115649
40
0.327045140900969
40
0.327045140900969
40
0.402980231179052
40
0.402980231179052
40
0.505547228462798
40
0.505547228462798
40
0.607904869128969
40
0.607904869128969
40
0.710165947508046
40
0.710165947508046
40
0.915602886218749
40
0.915602886218749
40
1
40
1
40
1
40
1
41
1
10
108.395730957434
20
88.422220609706
30
0
41
1
10
108.391655639262
20
88.4245359463752
30
0
41
1
10
108.387735056745
20
88.4271089905816
30
0
41
1
10
108.374973844089
20
88.4368465736954
30
0
41
1
10
108.367085943138
20
88.4454763999398
30
0
41
1
10
108.355307385086
20
88.4650256192861
30
0
41
1
10
108.351268474251
20
88.4761723739058
30
0
41
1
10
108.346123852927
20
88.5044576119428
30
0
41
1
10
108.347035849354
20
88.5224912841187
30
0
41
1
10
108.35267430974
20
88.5506040920621
30
0
41
1
10
108.355818708759
20
88.5612836777135
30
0
41
1
10
108.364872022494
20
88.5858124614131
30
0
41
1
10
108.371394814792
20
88.5995700339942
30
0
41
1
10
108.386179773727
20
88.6261018904735
30
0
41
1
10
108.394481049661
20
88.6389497960546
30
0
41
1
10
108.412369989736
20
88.6637192179982
30
0
41
1
10
108.421987004427
20
88.6756808595322
30
0
41
1
10
108.452403056365
20
88.710289839818
30
0
41
1
10
108.474831192248
20
88.7317479175076
30
0
41
1
10
108.508455310703
20
88.7595171082212
30
0
41
1
10
108.518521322
20
88.7673278090665
30
0
41
1
10
108.528813040867
20
88.7748311955995
30
0
0
SPLINE
5
3EE
100
AcDbEntity
8
1
62
256
6
ByLayer
370
18
48
1
60
0
100
AcDbSpline
70
4
71
3
72
26
73
22
40
0
40
0
40
0
40
0
40
0.0341747429582914
40
0.0341747429582914
40
0.118717554180362
40
0.118717554180362
40
0.203116442115665
40
0.203116442115665
40
0.327045140900951
40
0.327045140900951
40
0.402980231179096
40
0.402980231179096
40
0.505547228462749
40
0.505547228462749
40
0.607904869128971
40
0.607904869128971
40
0.71016594750803
40
0.71016594750803
40
0.915602886218714
40
0.915602886218714
40
1
40
1
40
1
40
1
41
1
10
109.167671289826
20
86.4012048364372
30
0
41
1
10
109.167357748278
20
86.3966655914152
30
0
41
1
10
109.166741152336
20
86.3921336196325
30
0
41
1
10
109.163492729583
20
86.3767315174625
30
0
41
1
10
109.159106267383
20
86.3659638963732
30
0
41
1
10
109.14648149231
20
86.3467042093831
30
0
41
1
10
109.138100977264
20
86.3379788093066
30
0
41
1
10
109.114567618228
20
86.320145919272
30
0
41
1
10
109.097699787627
20
86.3123151225097
30
0
41
1
10
109.069501146982
20
86.3036800769684
30
0
41
1
10
109.058336653943
20
86.301248966471
30
0
41
1
10
109.031859205594
20
86.2972204206058
30
0
41
1
10
109.016349758652
20
86.2961881275999
30
0
41
1
10
108.98542008144
20
86.2960765219656
30
0
41
1
10
108.969915067031
20
86.2969951973095
30
0
41
1
10
108.939142272492
20
86.3003766335881
30
0
41
1
10
108.92382456361
20
86.3028451470304
30
0
41
1
10
108.878284515232
20
86.3122053554848
30
0
41
1
10
108.848365866765
20
86.3210652694495
30
0
41
1
10
108.807459275085
20
86.3364780308606
30
0
41
1
10
108.795664127177
20
86.3413352561267
30
0
41
1
10
108.78403726528
20
86.3465349069904
30
0
0
SPLINE
5
3EF
100
AcDbEntity
8
1
62
256
6
ByLayer
370
18
48
1
60
0
100
AcDbSpline
70
4
71
3
72
12
73
8
40
0
40
0
40
0
40
0
40
0.196826480578012
40
0.196826480578012
40
0.442758293472523
40
0.442758293472523
40
1
40
1
40
1
40
1
41
1
10
106.346988529679
20
80.7297716653173
30
0
41
1
10
106.352490667094
20
80.7313153839157
30
0
41
1
10
106.364288364587
20
80.7380559069949
30
0
41
1
10
106.40081220153
20
80.7626457730528
30
0
41
1
10
106.428258828613
20
80.7830380882946
30
0
41
1
10
106.525977776305
20
80.8625291498743
30
0
41
1
10
106.608509287283
20
80.9397842988407
30
0
41
1
10
106.686316606972
20
81.0290453975249
30
0
0
SPLINE
5
3F0
100
AcDbEntity
8
1
62
256
6
ByLayer
370
18
48
1
60
0
100
AcDbSpline
70
4
71
3
72
14
73
10
40
0
40
0
40
0
40
0
40
0.123978615721112
40
0.123978615721112
40
0.615825371669666
40
0.615825371669666
40
0.93264265841913
40
0.93264265841913
40
1
40
1
40
1
40
1
41
1
10
103.39894174388
20
83.9211126830769
30
0
41
1
10
103.387423142196
20
83.908274148056
30
0
41
1
10
103.376278719718
20
83.895643874552
30
0
41
1
10
103.323375791609
20
83.8348961737054
30
0
41
1
10
103.286725146442
20
83.7900296518173
30
0
41
1
10
103.240953990097
20
83.7362241619605
30
0
41
1
10
103.226430742893
20
83.7200334660089
30
0
41
1
10
103.214751436689
20
83.7099967186257
30
0
41
1
10
103.212908787011
20
83.7085770678578
30
0
41
1
10
103.211290662242
20
83.7075214325257
30
0
0
LINE
5
70
100
AcDbEntity
8
SK1
62
256
6
ByLayer
370
18
48
1
60
0
100
AcDbLine
10
-0.2
20
-6.365251
30
0
11
-0.2
21
-28.683485
31
0
39
0
210
0
220
0
230
1
0
LINE
5
72
100
AcDbEntity
8
SK1
62
256
6
ByLayer
370
18
48
1
60
0
100
AcDbLine
10
-0.4
20
27.32511
30
0
11
-0.4
21
5.670607
31
0
39
0
210
0
220
0
230
1
0
LINE
5
73
100
AcDbEntity
8
SK1
62
256
6
ByLayer
370
18
48
1
60
0
100
AcDbLine
10
-0.4
20
-5.670607
30
0
11
-0.4
21
-27.325111
31
0
39
0
210
0
220
0
230
1
0
LINE
5
74
100
AcDbEntity
8
SK1
62
256
6
ByLayer
370
18
48
1
60
0
100
AcDbLine
10
-0.2
20
28.683485
30
0
11
-0.2
21
6.365252
31
0
39
0
210
0
220
0
230
1
0
LINE
5
75
100
AcDbEntity
8
SK1
62
256
6
ByLayer
370
18
48
1
60
0
100
AcDbLine
10
-1.307107
20
4.281245
30
0
11
-1.307107
21
-4.281244
31
0
39
0
210
0
220
0
230
1
0
LINE
5
76
100
AcDbEntity
8
SK1
62
256
6
ByLayer
370
18
48
1
60
0
100
AcDbLine
10
-2.2
20
-24.989567
30
0
11
-2.2
21
-12.864564
31
0
39
0
210
0
220
0
230
1
0
LINE
5
77
100
AcDbEntity
8
1
62
256
6
ByLayer
370
18
48
1
60
0
100
AcDbLine
10
0
20
-39.6925
30
0
11
0
21
39.6925
31
0
39
0
210
0
220
0
230
1
0
LINE
5
79
100
AcDbEntity
8
SK1
62
256
6
ByLayer
370
18
48
1
60
0
100
AcDbLine
10
-46.500473
20
26.407117
30
0
11
-46.500473
21
-26.407117
31
0
39
0
210
0
220
0
230
1
0
LINE
5
7A
100
AcDbEntity
8
SK1
62
256
6
ByLayer
370
18
48
1
60
0
100
AcDbLine
10
-2.2
20
-12.864564
30
0
11
-2.2
21
12.864565
31
0
39
0
210
0
220
0
230
1
0
LINE
5
7B
100
AcDbEntity
8
SK1
62
256
6
ByLayer
370
18
48
1
60
0
100
AcDbLine
10
-2
20
27.325145
30
0
11
-2
21
-27.325145
31
0
39
0
210
0
220
0
230
1
0
LINE
5
7C
100
AcDbEntity
8
SK1
62
256
6
ByLayer
370
18
48
1
60
0
100
AcDbLine
10
-3
20
-27.5
30
0
11
-3
21
27.5
31
0
39
0
210
0
220
0
230
1
0
LINE
5
7D
100
AcDbEntity
8
SK1
62
256
6
ByLayer
370
18
48
1
60
0
100
AcDbLine
10
-2.2
20
12.864565
30
0
11
-2.2
21
24.989566
31
0
39
0
210
0
220
0
230
1
0
LINE
5
7E
100
AcDbEntity
8
SK1
62
256
6
ByLayer
370
18
48
1
60
0
100
AcDbLine
10
-48
20
25.499074
30
0
11
-48
21
-25.498396
31
0
39
0
210
0
220
0
230
1
0
LINE
5
7F
100
AcDbEntity
8
4
62
256
6
ByLayer
370
13
48
0.05
60
0
100
AcDbLine
10
0
20
0
30
0
11
115
21
0
31
0
39
0
210
0
220
0
230
1
0
LINE
5
81
100
AcDbEntity
8
SK4
62
256
6
ByLayer
370
13
48
0.05
60
0
100
AcDbLine
10
-57.605691
20
0.000339
30
0
11
118.394309
21
0.000339
31
0
39
0
210
0
220
0
230
1
0
LINE
5
83
100
AcDbEntity
8
SK1
62
256
6
ByLayer
370
18
48
1
60
0
100
AcDbLine
10
-3
20
-27.5
30
0
11
-2.194881
21
-27.520227
31
0
39
0
210
0
220
0
230
1
0
LINE
5
84
100
AcDbEntity
8
SK1
62
256
6
ByLayer
370
18
48
1
60
0
100
AcDbLine
10
-3
20
27.5
30
0
11
-2.194881
21
27.520227
31
0
39
0
210
0
220
0
230
1
0
LINE
5
85
100
AcDbEntity
8
SK1
62
256
6
ByLayer
370
18
48
1
60
0
100
AcDbLine
10
-2
20
-27.325151
30
0
11
-0.4
21
-27.325151
31
0
39
0
210
0
220
0
230
1
0
LINE
5
86
100
AcDbEntity
8
SK1
62
256
6
ByLayer
370
18
48
1
60
0
100
AcDbLine
10
-48
20
25.49036
30
0
11
-47.850047
21
25.582031
31
0
39
0
210
0
220
0
230
1
0
LINE
5
87
100
AcDbEntity
8
SK1
62
256
6
ByLayer
370
18
48
1
60
0
100
AcDbLine
10
-47.850047
20
25.582031
30
0
11
-47.700093
21
25.673702
31
0
39
0
210
0
220
0
230
1
0
LINE
5
88
100
AcDbEntity
8
SK1
62
256
6
ByLayer
370
18
48
1
60
0
100
AcDbLine
10
-47.700093
20
25.673702
30
0
11
-47.55014
21
25.765374
31
0
39
0
210
0
220
0
230
1
0
LINE
5
89
100
AcDbEntity
8
SK1
62
256
6
ByLayer
370
18
48
1
60
0
100
AcDbLine
10
-47.55014
20
25.765374
30
0
11
-47.400186
21
25.857045
31
0
39
0
210
0
220
0
230
1
0
LINE
5
8A
100
AcDbEntity
8
SK1
62
256
6
ByLayer
370
18
48
1
60
0
100
AcDbLine
10
-47.400186
20
25.857045
30
0
11
-47.250233
21
25.948716
31
0
39
0
210
0
220
0
230
1
0
LINE
5
8B
100
AcDbEntity
8
SK1
62
256
6
ByLayer
370
18
48
1
60
0
100
AcDbLine
10
-47.250233
20
25.948716
30
0
11
-47.100279
21
26.040387
31
0
39
0
210
0
220
0
230
1
0
LINE
5
8C
100
AcDbEntity
8
SK1
62
256
6
ByLayer
370
18
48
1
60
0
100
AcDbLine
10
-47.100279
20
26.040387
30
0
11
-46.950326
21
26.132059
31
0
39
0
210
0
220
0
230
1
0
LINE
5
8D
100
AcDbEntity
8
SK1
62
256
6
ByLayer
370
18
48
1
60
0
100
AcDbLine
10
-46.950326
20
26.132059
30
0
11
-46.800373
21
26.22373
31
0
39
0
210
0
220
0
230
1
0
LINE
5
8E
100
AcDbEntity
8
SK1
62
256
6
ByLayer
370
18
48
1
60
0
100
AcDbLine
10
-46.800373
20
26.22373
30
0
11
-46.650419
21
26.315401
31
0
39
0
210
0
220
0
230
1
0
LINE
5
8F
100
AcDbEntity
8
SK1
62
256
6
ByLayer
370
18
48
1
60
0
100
AcDbLine
10
-46.650419
20
26.315401
30
0
11
-46.500466
21
26.407072
31
0
39
0
210
0
220
0
230
1
0
LINE
5
90
100
AcDbEntity
8
SK1
62
256
6
ByLayer
370
18
48
1
60
0
100
AcDbLine
10
-46.500473
20
-26.407117
30
0
11
-3
21
-27.5
31
0
39
0
210
0
220
0
230
1
0
LINE
5
91
100
AcDbEntity
8
SK1
62
256
6
ByLayer
370
18
48
1
60
0
100
AcDbLine
10
-2.199993
20
26.694883
30
0
11
-2.2
21
24.989566
31
0
39
0
210
0
220
0
230
1
0
LINE
5
92
100
AcDbEntity
8
SK1
62
256
6
ByLayer
370
18
48
1
60
0
100
AcDbLine
10
-2
20
27.325151
30
0
11
-0.4
21
27.325151
31
0
39
0
210
0
220
0
230
1
0
LINE
5
93
100
AcDbEntity
8
SK1
62
256
6
ByLayer
370
18
48
1
60
0
100
AcDbLine
10
-46.500473
20
26.407117
30
0
11
-3
21
27.5
31
0
39
0
210
0
220
0
230
1
0
LINE
5
94
100
AcDbEntity
8
SK1
62
256
6
ByLayer
370
18
48
1
60
0
100
AcDbLine
10
-48
20
-25.490337
30
0
11
-47.850048
21
-25.582006
31
0
39
0
210
0
220
0
230
1
0
LINE
5
95
100
AcDbEntity
8
SK1
62
256
6
ByLayer
370
18
48
1
60
0
100
AcDbLine
10
-47.850048
20
-25.582006
30
0
11
-47.700096
21
-25.673674
31
0
39
0
210
0
220
0
230
1
0
LINE
5
96
100
AcDbEntity
8
SK1
62
256
6
ByLayer
370
18
48
1
60
0
100
AcDbLine
10
-47.700096
20
-25.673674
30
0
11
-47.550144
21
-25.765343
31
0
39
0
210
0
220
0
230
1
0
LINE
5
97
100
AcDbEntity
8
SK1
62
256
6
ByLayer
370
18
48
1
60
0
100
AcDbLine
10
-47.550144
20
-25.765343
30
0
11
-47.400192
21
-25.857011
31
0
39
0
210
0
220
0
230
1
0
LINE
5
98
100
AcDbEntity
8
SK1
62
256
6
ByLayer
370
18
48
1
60
0
100
AcDbLine
10
-47.400192
20
-25.857011
30
0
11
-47.25024
21
-25.94868
31
0
39
0
210
0
220
0
230
1
0
LINE
5
99
100
AcDbEntity
8
SK1
62
256
6
ByLayer
370
18
48
1
60
0
100
AcDbLine
10
-47.25024
20
-25.94868
30
0
11
-47.100288
21
-26.040348
31
0
39
0
210
0
220
0
230
1
0
LINE
5
9A
100
AcDbEntity
8
SK1
62
256
6
ByLayer
370
18
48
1
60
0
100
AcDbLine
10
-47.100288
20
-26.040348
30
0
11
-46.950336
21
-26.132016
31
0
39
0
210
0
220
0
230
1
0
LINE
5
9B
100
AcDbEntity
8
SK1
62
256
6
ByLayer
370
18
48
1
60
0
100
AcDbLine
10
-46.950336
20
-26.132016
30
0
11
-46.800383
21
-26.223685
31
0
39
0
210
0
220
0
230
1
0
LINE
5
9C
100
AcDbEntity
8
SK1
62
256
6
ByLayer
370
18
48
1
60
0
100
AcDbLine
10
-46.800383
20
-26.223685
30
0
11
-46.650431
21
-26.315353
31
0
39
0
210
0
220
0
230
1
0
LINE
5
9D
100
AcDbEntity
8
SK1
62
256
6
ByLayer
370
18
48
1
60
0
100
AcDbLine
10
-46.650431
20
-26.315353
30
0
11
-46.500479
21
-26.407022
31
0
39
0
210
0
220
0
230
1
0
LINE
5
9E
100
AcDbEntity
8
80
62
256
6
ByLayer
370
13
48
1
60
0
100
AcDbLine
10
0
20
0
30
0
11
-53.536
21
0
31
0
39
0
210
0
220
0
230
1
0
LINE
5
9F
100
AcDbEntity
8
81
62
256
6
ByLayer
370
13
48
1
60
0
100
AcDbLine
10
115
20
94.5
30
0
11
126
21
94.5
31
0
39
0
210
0
220
0
230
1
0
LINE
5
A0
100
AcDbEntity
8
1
62
256
6
ByLayer
370
18
48
1
60
1
100
AcDbLine
10
0
20
0
30
0
11
0
21
841
31
0
39
0
210
0
220
0
230
1
0
LINE
5
A1
100
AcDbEntity
8
1
62
256
6
ByLayer
370
18
48
1
60
1
100
AcDbLine
10
1189
20
841
30
0
11
0
21
841
31
0
39
0
210
0
220
0
230
1
0
LINE
5
A2
100
AcDbEntity
8
1
62
256
6
ByLayer
370
18
48
1
60
1
100
AcDbLine
10
1189
20
841
30
0
11
1189
21
0
31
0
39
0
210
0
220
0
230
1
0
LINE
5
A3
100
AcDbEntity
8
1
62
256
6
ByLayer
370
18
48
1
60
1
100
AcDbLine
10
0
20
0
30
0
11
1189
21
0
31
0
39
0
210
0
220
0
230
1
0
LINE
5
A4
100
AcDbEntity
8
1
62
256
6
ByLayer
370
18
48
1
60
1
100
AcDbLine
10
0
20
0
30
0
11
0
21
841
31
0
39
0
210
0
220
0
230
1
0
LINE
5
A5
100
AcDbEntity
8
1
62
256
6
ByLayer
370
18
48
1
60
1
100
AcDbLine
10
1189
20
841
30
0
11
0
21
841
31
0
39
0
210
0
220
0
230
1
0
LINE
5
A6
100
AcDbEntity
8
1
62
256
6
ByLayer
370
18
48
1
60
1
100
AcDbLine
10
1189
20
841
30
0
11
1189
21
0
31
0
39
0
210
0
220
0
230
1
0
LINE
5
A7
100
AcDbEntity
8
1
62
256
6
ByLayer
370
18
48
1
60
1
100
AcDbLine
10
0
20
0
30
0
11
1189
21
0
31
0
39
0
210
0
220
0
230
1
0
LINE
5
A8
100
AcDbEntity
8
1
62
256
6
ByLayer
370
18
48
1
60
1
100
AcDbLine
10
0
20
0
30
0
11
0
21
841
31
0
39
0
210
0
220
0
230
1
0
LINE
5
A9
100
AcDbEntity
8
1
62
256
6
ByLayer
370
18
48
1
60
1
100
AcDbLine
10
1189
20
841
30
0
11
0
21
841
31
0
39
0
210
0
220
0
230
1
0
LINE
5
AA
100
AcDbEntity
8
1
62
256
6
ByLayer
370
18
48
1
60
1
100
AcDbLine
10
1189
20
841
30
0
11
1189
21
0
31
0
39
0
210
0
220
0
230
1
0
LINE
5
AB
100
AcDbEntity
8
1
62
256
6
ByLayer
370
18
48
1
60
1
100
AcDbLine
10
0
20
0
30
0
11
1189
21
0
31
0
39
0
210
0
220
0
230
1
0
LINE
5
AC
100
AcDbEntity
8
1
62
256
6
ByLayer
370
18
48
0.05
60
0
100
AcDbLine
10
113.86442
20
-94.472933
30
0
11
103.582952
21
-93.392307
31
0
39
0
210
0
220
0
230
1
0
LINE
5
AD
100
AcDbEntity
8
1
62
256
6
ByLayer
370
18
48
0.05
60
0
100
AcDbLine
10
116.199096
20
-83.136073
30
0
11
115.114342
21
-93.456814
31
0
39
0
210
0
220
0
230
1
0
LINE
5
AE
100
AcDbEntity
8
1
62
256
6
ByLayer
370
18
48
1
60
1
100
AcDbLine
10
0
20
0
30
0
11
0
21
841
31
0
39
0
210
0
220
0
230
1
0
LINE
5
AF
100
AcDbEntity
8
1
62
256
6
ByLayer
370
18
48
1
60
1
100
AcDbLine
10
1189
20
841
30
0
11
0
21
841
31
0
39
0
210
0
220
0
230
1
0
LINE
5
B0
100
AcDbEntity
8
1
62
256
6
ByLayer
370
18
48
1
60
1
100
AcDbLine
10
1189
20
841
30
0
11
1189
21
0
31
0
39
0
210
0
220
0
230
1
0
LINE
5
B1
100
AcDbEntity
8
1
62
256
6
ByLayer
370
18
48
1
60
1
100
AcDbLine
10
0
20
0
30
0
11
1189
21
0
31
0
39
0
210
0
220
0
230
1
0
LINE
5
B2
100
AcDbEntity
8
1
62
256
6
ByLayer
370
18
48
1
60
0
100
AcDbLine
10
66.166093
20
73.404758
30
0
11
61
21
72.020508
31
0
39
0
210
0
220
0
230
1
0
LINE
5
B3
100
AcDbEntity
8
1
62
256
6
ByLayer
370
18
48
1
60
0
100
AcDbLine
10
110.3
20
5.472052
30
0
11
102.004719
21
5.472052
31
0
39
0
210
0
220
0
230
1
0
LINE
5
B4
100
AcDbEntity
8
1
62
256
6
ByLayer
370
18
48
1
60
0
100
AcDbLine
10
109.150352
20
-10.527948
30
0
11
110.3
21
-10.527948
31
0
39
0
210
0
220
0
230
1
0
LINE
5
B5
100
AcDbEntity
8
1
62
256
6
ByLayer
370
18
48
1
60
0
100
AcDbLine
10
110.3
20
53.2
30
0
11
102.004719
21
53.2
31
0
39
0
210
0
220
0
230
1
0
LINE
5
B6
100
AcDbEntity
8
1
62
256
6
ByLayer
370
18
48
1
60
0
100
AcDbLine
10
102.004719
20
37.2
30
0
11
110.3
21
37.2
31
0
39
0
210
0
220
0
230
1
0
LINE
5
B7
100
AcDbEntity
8
1
62
256
6
ByLayer
370
18
48
1
60
0
100
AcDbLine
10
104.161592
20
-38.603906
30
0
11
104.144085
21
-38.782669
31
0
39
0
210
0
220
0
230
1
0
LINE
5
B8
100
AcDbEntity
8
1
62
256
6
ByLayer
370
18
48
1
60
0
100
AcDbLine
10
115.338465
20
-35.906763
30
0
11
115.31327
21
-33.546286
31
0
39
0
210
0
220
0
230
1
0
LINE
5
B9
100
AcDbEntity
8
1
62
256
6
ByLayer
370
18
48
1
60
0
100
AcDbLine
10
115.320044
20
-36.106561
30
0
11
115.33755
21
-35.927798
31
0
39
0
210
0
220
0
230
1
0
LINE
5
BA
100
AcDbEntity
8
1
62
256
6
ByLayer
370
18
48
1
60
0
100
AcDbLine
10
61
20
72.020508
30
0
11
42.512951
21
40
31
0
39
0
210
0
220
0
230
1
0
LINE
5
BB
100
AcDbEntity
8
1
62
256
6
ByLayer
370
18
48
1
60
0
100
AcDbLine
10
42.512951
20
-40
30
0
11
51.544047
21
-55.642317
31
0
39
0
210
0
220
0
230
1
0
LINE
5
BC
100
AcDbEntity
8
1
62
256
6
ByLayer
370
18
48
1
60
0
100
AcDbLine
10
0.3
20
-40
30
0
11
42.512951
21
-40
31
0
39
0
210
0
220
0
230
1
0
LINE
5
BD
100
AcDbEntity
8
1
62
256
6
ByLayer
370
18
48
1
60
0
100
AcDbLine
10
42.512951
20
40
30
0
11
0.3
21
40
31
0
39
0
210
0
220
0
230
1
0
LINE
5
BE
100
AcDbEntity
8
1
62
256
6
ByLayer
370
18
48
1
60
0
100
AcDbLine
10
0.3
20
40
30
0
11
0
21
39.7
31
0
39
0
210
0
220
0
230
1
0
LINE
5
BF
100
AcDbEntity
8
1
62
256
6
ByLayer
370
18
48
1
60
0
100
AcDbLine
10
0
20
-39.7
30
0
11
0.3
21
-40
31
0
39
0
210
0
220
0
230
1
0
LINE
5
C0
100
AcDbEntity
8
1
62
256
6
ByLayer
370
18
48
1
60
0
100
AcDbLine
10
102.004719
20
-49.438183
30
0
11
110.3
21
-49.438183
31
0
39
0
210
0
220
0
230
1
0
LINE
5
C1
100
AcDbEntity
8
1
62
256
6
ByLayer
370
18
48
1
60
0
100
AcDbLine
10
110.8
20
-7.925865
30
0
11
113.5
21
-7.202402
31
0
39
0
210
0
220
0
230
1
0
LINE
5
C2
100
AcDbEntity
8
1
62
256
6
ByLayer
370
18
48
1
60
0
100
AcDbLine
10
113.5
20
7.202402
30
0
11
110.5
21
8.00625
31
0
39
0
210
0
220
0
230
1
0
LINE
5
C3
100
AcDbEntity
8
1
62
256
6
ByLayer
370
18
48
1
60
0
100
AcDbLine
10
110.5
20
8.00625
30
0
11
102.004281
21
8.00625
31
0
39
0
210
0
220
0
230
1
0
LINE
5
C4
100
AcDbEntity
8
1
62
256
6
ByLayer
370
18
48
1
60
0
100
AcDbLine
10
116.125747
20
-38.453343
30
0
11
115.837956
21
-36.578739
31
0
39
0
210
0
220
0
230
1
0
LINE
5
C5
100
AcDbEntity
8
1
62
256
6
ByLayer
370
18
48
1
60
0
100
AcDbLine
10
116.225563
20
-39.283915
30
0
11
116.129924
21
-38.481416
31
0
39
0
210
0
220
0
230
1
0
LINE
5
C6
100
AcDbEntity
8
1
62
256
6
ByLayer
370
18
48
1
60
0
100
AcDbLine
10
109.611499
20
85.247845
30
0
11
109.683625
21
85.255426
31
0
39
0
210
0
220
0
230
1
0
LINE
5
C7
100
AcDbEntity
8
1
62
256
6
ByLayer
370
18
48
1
60
0
100
AcDbLine
10
109.181889
20
90.029131
30
0
11
109.109762
21
90.021551
31
0
39
0
210
0
220
0
230
1
0
LINE
5
C8
100
AcDbEntity
8
1
62
256
6
ByLayer
370
18
48
1
60
0
100
AcDbLine
10
109.259221
20
88.704358
30
0
11
109.359457
21
88.714893
31
0
39
0
210
0
220
0
230
1
0
LINE
5
C9
100
AcDbEntity
8
1
62
256
6
ByLayer
370
18
48
1
60
0
100
AcDbLine
10
109.584068
20
86.577864
30
0
11
109.483831
21
86.567329
31
0
39
0
210
0
220
0
230
1
0
LINE
5
CA
100
AcDbEntity
8
1
62
256
6
ByLayer
370
18
48
1
60
0
100
AcDbLine
10
78.954699
20
-37.68611
30
0
11
78.954699
21
-38.029867
31
0
39
0
210
0
220
0
230
1
0
LINE
5
CB
100
AcDbEntity
8
1
62
256
6
ByLayer
370
18
48
1
60
0
100
AcDbLine
10
115.313269
20
-49.950236
30
0
11
115.338466
21
-47.502431
31
0
39
0
210
0
220
0
230
1
0
LINE
5
CC
100
AcDbEntity
8
1
62
256
6
ByLayer
370
18
48
1
60
0
100
AcDbLine
10
115.337396
20
-47.479345
30
0
11
115.319622
21
-47.307199
31
0
39
0
210
0
220
0
230
1
0
LINE
5
CD
100
AcDbEntity
8
1
62
256
6
ByLayer
370
18
48
1
60
0
100
AcDbLine
10
115.838133
20
-46.367179
30
0
11
116.029251
21
-44.931421
31
0
39
0
210
0
220
0
230
1
0
LINE
5
CE
100
AcDbEntity
8
1
62
256
6
ByLayer
370
18
48
1
60
0
100
AcDbLine
10
75.966572
20
-36.760517
30
0
11
76.477071
21
-37.110815
31
0
39
0
210
0
220
0
230
1
0
LINE
5
CF
100
AcDbEntity
8
1
62
256
6
ByLayer
370
18
48
1
60
0
100
AcDbLine
10
76.477071
20
-37.110815
30
0
11
77.319694
21
-36.800074
31
0
39
0
210
0
220
0
230
1
0
LINE
5
D0
100
AcDbEntity
8
1
62
256
6
ByLayer
370
18
48
1
60
0
100
AcDbLine
10
76.477071
20
-37.110815
30
0
11
76.477071
21
-36.712605
31
0
39
0
210
0
220
0
230
1
0
LINE
5
D1
100
AcDbEntity
8
1
62
256
6
ByLayer
370
18
48
1
60
0
100
AcDbLine
10
116.225099
20
-43.394946
30
0
11
116.122837
21
-44.207647
31
0
39
0
210
0
220
0
230
1
0
LINE
5
D2
100
AcDbEntity
8
1
62
256
6
ByLayer
370
18
48
1
60
0
100
AcDbLine
10
116.220224
20
-43.334409
30
0
11
116.123396
21
-44.139653
31
0
39
0
210
0
220
0
230
1
0
LINE
5
D3
100
AcDbEntity
8
1
62
256
6
ByLayer
370
18
48
1
60
0
100
AcDbLine
10
116.029251
20
-44.931426
30
0
11
116.029369
21
-44.930537
31
0
39
0
210
0
220
0
230
1
0
LINE
5
D4
100
AcDbEntity
8
1
62
256
6
ByLayer
370
18
48
1
60
0
100
AcDbLine
10
115.321304
20
-44.858453
30
0
11
115.232537
21
-43.594253
31
0
39
0
210
0
220
0
230
1
0
LINE
5
D5
100
AcDbEntity
8
1
62
256
6
ByLayer
370
18
48
1
60
0
100
AcDbLine
10
115.386787
20
-44.54844
30
0
11
115.301371
21
-43.29897
31
0
39
0
210
0
220
0
230
1
0
LINE
5
D6
100
AcDbEntity
8
1
62
256
6
ByLayer
370
18
48
1
60
0
100
AcDbLine
10
115.541688
20
-43.86208
30
0
11
115.484406
21
-42.954509
31
0
39
0
210
0
220
0
230
1
0
LINE
5
D7
100
AcDbEntity
8
1
62
256
6
ByLayer
370
18
48
1
60
0
100
AcDbLine
10
115.59358
20
-42.961789
30
0
11
115.60951
21
-43.834082
31
0
39
0
210
0
220
0
230
1
0
LINE
5
D8
100
AcDbEntity
8
1
62
256
6
ByLayer
370
18
48
1
60
0
100
AcDbLine
10
115.2047
20
-45.734431
30
0
11
115.27127
21
-45.23433
31
0
39
0
210
0
220
0
230
1
0
LINE
5
D9
100
AcDbEntity
8
1
62
256
6
ByLayer
370
18
48
1
60
0
100
AcDbLine
10
115.27127
20
-45.23433
30
0
11
115.321304
21
-44.858453
31
0
39
0
210
0
220
0
230
1
0
LINE
5
DA
100
AcDbEntity
8
1
62
256
6
ByLayer
370
18
48
1
60
0
100
AcDbLine
10
115.27127
20
-45.23433
30
0
11
115.204642
21
-45.235416
31
0
39
0
210
0
220
0
230
1
0
LINE
5
DB
100
AcDbEntity
8
1
62
256
6
ByLayer
370
18
48
1
60
0
100
AcDbLine
10
115.421991
20
-44.396037
30
0
11
115.338586
21
-43.139306
31
0
39
0
210
0
220
0
230
1
0
LINE
5
DC
100
AcDbEntity
8
1
62
256
6
ByLayer
370
18
48
1
60
0
100
AcDbLine
10
115.322547
20
-49.047855
30
0
11
115.836084
21
-46.37961
31
0
39
0
210
0
220
0
230
1
0
LINE
5
DD
100
AcDbEntity
8
1
62
256
6
ByLayer
370
18
48
1
60
0
100
AcDbLine
10
115.47092
20
-46.737476
30
0
11
115.334153
21
-47.44809
31
0
39
0
210
0
220
0
230
1
0
LINE
5
DE
100
AcDbEntity
8
1
62
256
6
ByLayer
370
18
48
1
60
0
100
AcDbLine
10
112.130959
20
91.096527
30
0
11
112.46852
21
91.132006
31
0
39
0
210
0
220
0
230
1
0
LINE
5
DF
100
AcDbEntity
8
1
62
256
6
ByLayer
370
18
48
1
60
0
100
AcDbLine
10
104.767464
20
80.788176
30
0
11
104.754937
21
80.927471
31
0
39
0
210
0
220
0
230
1
0
LINE
5
E0
100
AcDbEntity
8
1
62
256
6
ByLayer
370
18
48
1
60
0
100
AcDbLine
10
103.666283
20
81.727315
30
0
11
103.804186
21
81.743089
31
0
39
0
210
0
220
0
230
1
0
LINE
5
E1
100
AcDbEntity
8
1
62
256
6
ByLayer
370
18
48
1
60
0
100
AcDbLine
10
108.438793
20
91.036655
30
0
11
105.862875
21
90.765915
31
0
39
0
210
0
220
0
230
1
0
LINE
5
E2
100
AcDbEntity
8
1
62
256
6
ByLayer
370
18
48
1
60
0
100
AcDbLine
10
116.199096
20
83.136073
30
0
11
115.114342
21
93.456814
31
0
39
0
210
0
220
0
230
1
0
LINE
5
E3
100
AcDbEntity
8
1
62
256
6
ByLayer
370
18
48
1
60
0
100
AcDbLine
10
113.208268
20
94.263331
30
0
11
113.87851
21
94.333777
31
0
39
0
210
0
220
0
230
1
0
LINE
5
E4
100
AcDbEntity
8
1
62
256
6
ByLayer
370
18
48
1
60
0
100
AcDbLine
10
113.86442
20
94.472933
30
0
11
113.87851
21
94.333777
31
0
39
0
210
0
220
0
230
1
0
LINE
5
E5
100
AcDbEntity
8
1
62
256
6
ByLayer
370
18
48
1
60
0
100
AcDbLine
10
113.954625
20
94.481997
30
0
11
113.967454
21
94.342714
31
0
39
0
210
0
220
0
230
1
0
LINE
5
E6
100
AcDbEntity
8
1
62
256
6
ByLayer
370
18
48
1
60
0
100
AcDbLine
10
114.003238
20
94.486417
30
0
11
114.014707
21
94.34701
31
0
39
0
210
0
220
0
230
1
0
LINE
5
E7
100
AcDbEntity
8
1
62
256
6
ByLayer
370
18
48
1
60
0
100
AcDbLine
10
114.162206
20
94.498796
30
0
11
114.171452
21
94.359216
31
0
39
0
210
0
220
0
230
1
0
LINE
5
E8
100
AcDbEntity
8
1
62
256
6
ByLayer
370
18
48
1
60
0
100
AcDbLine
10
109.156932
20
84.241531
30
0
11
106.581015
21
83.970791
31
0
39
0
210
0
220
0
230
1
0
LINE
5
E9
100
AcDbEntity
8
1
62
256
6
ByLayer
370
18
48
1
60
0
100
AcDbLine
10
114.274878
20
94.493813
30
0
11
114.252605
21
94.355627
31
0
39
0
210
0
220
0
230
1
0
LINE
5
EA
100
AcDbEntity
8
1
62
256
6
ByLayer
370
18
48
1
60
0
100
AcDbLine
10
115.049348
20
93.864212
30
0
11
114.918753
21
93.814086
31
0
39
0
210
0
220
0
230
1
0
LINE
5
EB
100
AcDbEntity
8
1
62
256
6
ByLayer
370
18
48
1
60
0
100
AcDbLine
10
115.077628
20
93.754608
30
0
11
114.939122
21
93.735142
31
0
39
0
210
0
220
0
230
1
0
LINE
5
EC
100
AcDbEntity
8
1
62
256
6
ByLayer
370
18
48
1
60
0
100
AcDbLine
10
112.740294
20
88.546249
30
0
11
112.618973
21
88.533498
31
0
39
0
210
0
220
0
230
1
0
LINE
5
ED
100
AcDbEntity
8
1
62
256
6
ByLayer
370
18
48
1
60
0
100
AcDbLine
10
115.098618
20
93.595933
30
0
11
114.959819
21
93.578686
31
0
39
0
210
0
220
0
230
1
0
LINE
5
EE
100
AcDbEntity
8
1
62
256
6
ByLayer
370
18
48
1
60
0
100
AcDbLine
10
113.006415
20
84.84723
30
0
11
113.127736
21
84.859981
31
0
39
0
210
0
220
0
230
1
0
LINE
5
EF
100
AcDbEntity
8
1
62
256
6
ByLayer
370
18
48
1
60
0
100
AcDbLine
10
115.104419
20
93.547277
30
0
11
114.965458
21
93.531392
31
0
39
0
210
0
220
0
230
1
0
LINE
5
F0
100
AcDbEntity
8
1
62
256
6
ByLayer
370
18
48
1
60
0
100
AcDbLine
10
115.114342
20
93.456814
30
0
11
114.975242
21
93.442194
31
0
39
0
210
0
220
0
230
1
0
LINE
5
F1
100
AcDbEntity
8
1
62
256
6
ByLayer
370
18
48
1
60
0
100
AcDbLine
10
114.975242
20
93.442194
30
0
11
115.045956
21
92.769391
31
0
39
0
210
0
220
0
230
1
0
LINE
5
F2
100
AcDbEntity
8
1
62
256
6
ByLayer
370
18
48
1
60
0
100
AcDbLine
10
104.608496
20
80.775797
30
0
11
104.598192
21
80.915265
31
0
39
0
210
0
220
0
230
1
0
LINE
5
F3
100
AcDbEntity
8
1
62
256
6
ByLayer
370
18
48
1
60
0
100
AcDbLine
10
103.65636
20
81.817778
30
0
11
103.794402
21
81.832287
31
0
39
0
210
0
220
0
230
1
0
LINE
5
F4
100
AcDbEntity
8
1
62
256
6
ByLayer
370
18
48
1
60
0
100
AcDbLine
10
112.855962
20
87.445738
30
0
11
112.734641
21
87.432987
31
0
39
0
210
0
220
0
230
1
0
LINE
5
F5
100
AcDbEntity
8
1
62
256
6
ByLayer
370
18
48
1
60
0
100
AcDbLine
10
106.090188
20
86.734626
30
0
11
105.961066
21
86.721055
31
0
39
0
210
0
220
0
230
1
0
LINE
5
F6
100
AcDbEntity
8
1
62
256
6
ByLayer
370
18
48
1
60
0
100
AcDbLine
10
106.361962
20
84.148869
30
0
11
106.090188
21
86.734626
31
0
39
0
210
0
220
0
230
1
0
LINE
5
F7
100
AcDbEntity
8
1
62
256
6
ByLayer
370
18
48
1
60
0
100
AcDbLine
10
112.111033
20
91.422623
30
0
11
109.535116
21
91.151883
31
0
39
0
210
0
220
0
230
1
0
LINE
5
F8
100
AcDbEntity
8
1
62
256
6
ByLayer
370
18
48
1
60
0
100
AcDbLine
10
113.127736
20
84.859981
30
0
11
112.855962
21
87.445738
31
0
39
0
210
0
220
0
230
1
0
LINE
5
F9
100
AcDbEntity
8
1
62
256
6
ByLayer
370
18
48
1
60
0
100
AcDbLine
10
112.740294
20
88.546249
30
0
11
112.46852
21
91.132006
31
0
39
0
210
0
220
0
230
1
0
LINE
5
FA
100
AcDbEntity
8
1
62
256
6
ByLayer
370
18
48
1
60
0
100
AcDbLine
10
105.573623
20
90.407323
30
0
11
105.845397
21
87.821566
31
0
39
0
210
0
220
0
230
1
0
LINE
5
FB
100
AcDbEntity
8
1
62
256
6
ByLayer
370
18
48
1
60
0
100
AcDbLine
10
113.86442
20
94.472933
30
0
11
103.582952
21
93.392307
31
0
39
0
210
0
220
0
230
1
0
LINE
5
FC
100
AcDbEntity
8
1
62
256
6
ByLayer
370
18
48
1
60
0
100
AcDbLine
10
102.780363
20
91.480226
30
0
11
102.709648
21
92.153028
31
0
39
0
210
0
220
0
230
1
0
LINE
5
FD
100
AcDbEntity
8
1
62
256
6
ByLayer
370
18
48
1
60
0
100
AcDbLine
10
102.571606
20
92.138519
30
0
11
102.709648
21
92.153028
31
0
39
0
210
0
220
0
230
1
0
LINE
5
FE
100
AcDbEntity
8
1
62
256
6
ByLayer
370
18
48
1
60
0
100
AcDbLine
10
102.562504
20
92.229069
30
0
11
102.700673
21
92.242311
31
0
39
0
210
0
220
0
230
1
0
LINE
5
FF
100
AcDbEntity
8
1
62
256
6
ByLayer
370
18
48
1
60
0
100
AcDbLine
10
110.262567
20
84.230649
30
0
11
112.838484
21
84.501389
31
0
39
0
210
0
220
0
230
1
0
LINE
5
100
100
AcDbEntity
8
1
62
256
6
ByLayer
370
18
48
1
60
0
100
AcDbLine
10
104.906283
20
80.80166
30
0
11
115.18775
21
81.882286
31
0
39
0
210
0
220
0
230
1
0
LINE
5
101
100
AcDbEntity
8
1
62
256
6
ByLayer
370
18
48
1
60
0
100
AcDbLine
10
115.989281
20
83.794256
30
0
11
116.059995
21
83.121453
31
0
39
0
210
0
220
0
230
1
0
LINE
5
102
100
AcDbEntity
8
1
62
256
6
ByLayer
370
18
48
1
60
0
100
AcDbLine
10
116.199096
20
83.136073
30
0
11
116.059995
21
83.121453
31
0
39
0
210
0
220
0
230
1
0
LINE
5
103
100
AcDbEntity
8
1
62
256
6
ByLayer
370
18
48
1
60
0
100
AcDbLine
10
116.208198
20
83.045524
30
0
11
116.06897
21
83.03217
31
0
39
0
210
0
220
0
230
1
0
LINE
5
104
100
AcDbEntity
8
1
62
256
6
ByLayer
370
18
48
1
60
0
100
AcDbLine
10
103.794402
20
81.832287
30
0
11
103.723687
21
82.50509
31
0
39
0
210
0
220
0
230
1
0
LINE
5
105
100
AcDbEntity
8
1
62
256
6
ByLayer
370
18
48
1
60
0
100
AcDbLine
10
116.21264
20
82.996726
30
0
11
116.073288
21
82.984737
31
0
39
0
210
0
220
0
230
1
0
LINE
5
106
100
AcDbEntity
8
1
62
256
6
ByLayer
370
18
48
1
60
0
100
AcDbLine
10
115.277869
20
81.892174
30
0
11
115.261459
21
82.03108
31
0
39
0
210
0
220
0
230
1
0
LINE
5
107
100
AcDbEntity
8
1
62
256
6
ByLayer
370
18
48
1
60
0
100
AcDbLine
10
116.225099
20
82.837154
30
0
11
116.085572
21
82.827397
31
0
39
0
210
0
220
0
230
1
0
LINE
5
108
100
AcDbEntity
8
1
62
256
6
ByLayer
370
18
48
1
60
0
100
AcDbLine
10
116.220224
20
82.724065
30
0
11
116.082061
21
82.745943
31
0
39
0
210
0
220
0
230
1
0
LINE
5
109
100
AcDbEntity
8
1
62
256
6
ByLayer
370
18
48
1
60
0
100
AcDbLine
10
108.455905
20
90.911365
30
0
11
105.879987
21
90.640625
31
0
39
0
210
0
220
0
230
1
0
LINE
5
10A
100
AcDbEntity
8
1
62
256
6
ByLayer
370
18
48
1
60
0
100
AcDbLine
10
115.59358
20
81.9472
30
0
11
115.543064
21
82.077736
31
0
39
0
210
0
220
0
230
1
0
LINE
5
10B
100
AcDbEntity
8
1
62
256
6
ByLayer
370
18
48
1
60
0
100
AcDbLine
10
115.484406
20
81.918901
30
0
11
115.46443
21
82.057353
31
0
39
0
210
0
220
0
230
1
0
LINE
5
10C
100
AcDbEntity
8
1
62
256
6
ByLayer
370
18
48
1
60
0
100
AcDbLine
10
106.361962
20
84.148869
30
0
11
106.23284
21
84.135298
31
0
39
0
210
0
220
0
230
1
0
LINE
5
10D
100
AcDbEntity
8
1
62
256
6
ByLayer
370
18
48
1
60
0
100
AcDbLine
10
115.326338
20
81.897958
30
0
11
115.308573
21
82.036703
31
0
39
0
210
0
220
0
230
1
0
LINE
5
10E
100
AcDbEntity
8
1
62
256
6
ByLayer
370
18
48
1
60
0
100
AcDbLine
10
115.18775
20
81.882286
30
0
11
115.172601
21
82.02133
31
0
39
0
210
0
220
0
230
1
0
LINE
5
10F
100
AcDbEntity
8
1
62
256
6
ByLayer
370
18
48
1
60
0
100
AcDbLine
10
112.128146
20
91.297333
30
0
11
109.552228
21
91.026593
31
0
39
0
210
0
220
0
230
1
0
LINE
5
110
100
AcDbEntity
8
1
62
256
6
ByLayer
370
18
48
1
60
0
100
AcDbLine
10
115.172601
20
82.02133
30
0
11
114.502358
21
81.950885
31
0
39
0
210
0
220
0
230
1
0
LINE
5
111
100
AcDbEntity
8
1
62
256
6
ByLayer
370
18
48
1
60
0
100
AcDbLine
10
104.495825
20
80.780779
30
0
11
104.517038
21
80.918854
31
0
39
0
210
0
220
0
230
1
0
LINE
5
112
100
AcDbEntity
8
1
62
256
6
ByLayer
370
18
48
1
60
0
100
AcDbLine
10
102.571606
20
92.138519
30
0
11
103.65636
21
81.817778
31
0
39
0
210
0
220
0
230
1
0
LINE
5
113
100
AcDbEntity
8
1
62
256
6
ByLayer
370
18
48
1
60
0
100
AcDbLine
10
105.702745
20
90.420895
30
0
11
105.974519
21
87.835138
31
0
39
0
210
0
220
0
230
1
0
LINE
5
114
100
AcDbEntity
8
1
62
256
6
ByLayer
370
18
48
1
60
0
100
AcDbLine
10
103.721355
20
81.410381
30
0
11
103.850891
21
81.460395
31
0
39
0
210
0
220
0
230
1
0
LINE
5
115
100
AcDbEntity
8
1
62
256
6
ByLayer
370
18
48
1
60
0
100
AcDbLine
10
112.618973
20
88.533498
30
0
11
112.347199
21
91.119255
31
0
39
0
210
0
220
0
230
1
0
LINE
5
116
100
AcDbEntity
8
1
62
256
6
ByLayer
370
18
48
1
60
0
100
AcDbLine
10
112.734641
20
87.432987
30
0
11
113.006415
21
84.84723
31
0
39
0
210
0
220
0
230
1
0
LINE
5
117
100
AcDbEntity
8
1
62
256
6
ByLayer
370
18
48
1
60
0
100
AcDbLine
10
105.561376
20
81.01115
30
0
11
104.891133
21
80.940705
31
0
39
0
210
0
220
0
230
1
0
LINE
5
118
100
AcDbEntity
8
1
62
256
6
ByLayer
370
18
48
1
60
0
100
AcDbLine
10
103.693074
20
81.519985
30
0
11
103.830521
21
81.539339
31
0
39
0
210
0
220
0
230
1
0
LINE
5
119
100
AcDbEntity
8
1
62
256
6
ByLayer
370
18
48
1
60
0
100
AcDbLine
10
104.906283
20
80.80166
30
0
11
104.891133
21
80.940705
31
0
39
0
210
0
220
0
230
1
0
LINE
5
11A
100
AcDbEntity
8
1
62
256
6
ByLayer
370
18
48
1
60
0
100
AcDbLine
10
106.590326
20
83.844681
30
0
11
109.166243
21
84.115421
31
0
39
0
210
0
220
0
230
1
0
LINE
5
11B
100
AcDbEntity
8
1
62
256
6
ByLayer
370
18
48
1
60
0
100
AcDbLine
10
102.558062
20
92.277867
30
0
11
102.696356
21
92.289744
31
0
39
0
210
0
220
0
230
1
0
LINE
5
11C
100
AcDbEntity
8
1
62
256
6
ByLayer
370
18
48
1
60
0
100
AcDbLine
10
102.545603
20
92.437439
30
0
11
102.684071
21
92.447084
31
0
39
0
210
0
220
0
230
1
0
LINE
5
11D
100
AcDbEntity
8
1
62
256
6
ByLayer
370
18
48
1
60
0
100
AcDbLine
10
102.550478
20
92.550528
30
0
11
102.687582
21
92.528538
31
0
39
0
210
0
220
0
230
1
0
LINE
5
11E
100
AcDbEntity
8
1
62
256
6
ByLayer
370
18
48
1
60
0
100
AcDbLine
10
103.177122
20
93.327392
30
0
11
103.22658
21
93.196745
31
0
39
0
210
0
220
0
230
1
0
LINE
5
11F
100
AcDbEntity
8
1
62
256
6
ByLayer
370
18
48
1
60
0
100
AcDbLine
10
103.286296
20
93.355692
30
0
11
103.305214
21
93.217128
31
0
39
0
210
0
220
0
230
1
0
LINE
5
120
100
AcDbEntity
8
1
62
256
6
ByLayer
370
18
48
1
60
0
100
AcDbLine
10
103.444364
20
93.376635
30
0
11
103.461071
21
93.237779
31
0
39
0
210
0
220
0
230
1
0
LINE
5
121
100
AcDbEntity
8
1
62
256
6
ByLayer
370
18
48
1
60
0
100
AcDbLine
10
105.961066
20
86.721055
30
0
11
106.23284
21
84.135298
31
0
39
0
210
0
220
0
230
1
0
LINE
5
122
100
AcDbEntity
8
1
62
256
6
ByLayer
370
18
48
1
60
0
100
AcDbLine
10
103.492833
20
93.382419
30
0
11
103.508185
21
93.243401
31
0
39
0
210
0
220
0
230
1
0
LINE
5
123
100
AcDbEntity
8
1
62
256
6
ByLayer
370
18
48
1
60
0
100
AcDbLine
10
112.829173
20
84.627499
30
0
11
110.253256
21
84.356759
31
0
39
0
210
0
220
0
230
1
0
LINE
5
124
100
AcDbEntity
8
1
62
256
6
ByLayer
370
18
48
1
60
0
100
AcDbLine
10
103.582952
20
93.392307
30
0
11
103.597043
21
93.253151
31
0
39
0
210
0
220
0
230
1
0
LINE
5
125
100
AcDbEntity
8
1
62
256
6
ByLayer
370
18
48
1
60
0
100
AcDbLine
10
104.816077
20
80.792595
30
0
11
104.802189
21
80.931767
31
0
39
0
210
0
220
0
230
1
0
LINE
5
126
100
AcDbEntity
8
1
62
256
6
ByLayer
370
18
48
1
60
0
100
AcDbLine
10
103.597043
20
93.253151
30
0
11
104.267285
21
93.323596
31
0
39
0
210
0
220
0
230
1
0
LINE
5
127
100
AcDbEntity
8
1
62
256
6
ByLayer
370
18
48
1
60
0
100
AcDbLine
10
103.672084
20
81.67866
30
0
11
103.809825
21
81.695795
31
0
39
0
210
0
220
0
230
1
0
LINE
5
128
100
AcDbEntity
8
1
62
256
6
ByLayer
370
18
48
1
60
0
100
AcDbLine
10
105.974519
20
87.835138
30
0
11
105.845397
21
87.821566
31
0
39
0
210
0
220
0
230
1
0
LINE
5
129
100
AcDbEntity
8
1
62
256
6
ByLayer
370
18
48
1
60
0
100
AcDbLine
10
105.702745
20
90.420895
30
0
11
105.573623
21
90.407323
31
0
39
0
210
0
220
0
230
1
0
LINE
5
12A
100
AcDbEntity
8
1
62
256
6
ByLayer
370
18
48
1
60
0
100
AcDbLine
10
110.5
20
8.00625
30
0
11
110.5
21
5.430607
31
0
39
0
210
0
220
0
230
1
0
LINE
5
12B
100
AcDbEntity
8
1
62
256
6
ByLayer
370
18
48
1
60
0
100
AcDbLine
10
113.5
20
7.202402
30
0
11
113.5
21
-7.202402
31
0
39
0
210
0
220
0
230
1
0
LINE
5
12C
100
AcDbEntity
8
1
62
256
6
ByLayer
370
18
48
1
60
0
100
AcDbLine
10
102.571606
20
-42.522006
30
0
11
102.709997
21
-41.928335
31
0
39
0
210
0
220
0
230
1
0
LINE
5
12D
100
AcDbEntity
8
1
62
256
6
ByLayer
370
18
48
1
60
0
100
AcDbLine
10
103.579126
20
-39.012077
30
0
11
103.252388
21
-40.413723
31
0
39
0
210
0
220
0
230
1
0
LINE
5
12E
100
AcDbEntity
8
1
62
256
6
ByLayer
370
18
48
1
60
0
100
AcDbLine
10
102.571606
20
-42.522006
30
0
11
103.133634
21
-40.789514
31
0
39
0
210
0
220
0
230
1
0
LINE
5
12F
100
AcDbEntity
8
1
62
256
6
ByLayer
370
18
48
1
60
0
100
AcDbLine
10
102.562504
20
-42.562865
30
0
11
103.033581
21
-41.110317
31
0
39
0
210
0
220
0
230
1
0
LINE
5
130
100
AcDbEntity
8
1
62
256
6
ByLayer
370
18
48
1
60
0
100
AcDbLine
10
102.558062
20
-42.58492
30
0
11
102.984458
21
-41.269648
31
0
39
0
210
0
220
0
230
1
0
LINE
5
131
100
AcDbEntity
8
1
62
256
6
ByLayer
370
18
48
1
60
0
100
AcDbLine
10
102.545603
20
-42.657203
30
0
11
102.814335
21
-41.827636
31
0
39
0
210
0
220
0
230
1
0
LINE
5
132
100
AcDbEntity
8
1
62
256
6
ByLayer
370
18
48
1
60
0
100
AcDbLine
10
102.550478
20
-42.709494
30
0
11
102.807785
21
-41.890958
31
0
39
0
210
0
220
0
230
1
0
LINE
5
133
100
AcDbEntity
8
1
62
256
6
ByLayer
370
18
48
1
60
0
100
AcDbLine
10
103.489359
20
-39.66384
30
0
11
103.653336
21
-38.960406
31
0
39
0
210
0
220
0
230
1
0
LINE
5
134
100
AcDbEntity
8
1
62
256
6
ByLayer
370
18
48
1
60
0
100
AcDbLine
10
113.86442
20
-44.470634
30
0
11
103.582952
21
-43.17609
31
0
39
0
210
0
220
0
230
1
0
LINE
5
135
100
AcDbEntity
8
1
62
256
6
ByLayer
370
18
48
1
60
0
100
AcDbLine
10
104.634891
20
-36.062166
30
0
11
103.854524
21
-39.409798
31
0
39
0
210
0
220
0
230
1
0
LINE
5
136
100
AcDbEntity
8
1
62
256
6
ByLayer
370
18
48
1
60
0
100
AcDbLine
10
104.25411
20
-38.994373
30
0
11
104.179739
21
-39.31341
31
0
39
0
210
0
220
0
230
1
0
LINE
5
137
100
AcDbEntity
8
1
62
256
6
ByLayer
370
18
48
1
60
0
100
AcDbLine
10
104.179739
20
-39.31341
30
0
11
104.416858
21
-39.097095
31
0
39
0
210
0
220
0
230
1
0
LINE
5
138
100
AcDbEntity
8
1
62
256
6
ByLayer
370
18
48
1
60
0
100
AcDbLine
10
103.489359
20
-39.66384
30
0
11
103.252388
21
-40.413723
31
0
39
0
210
0
220
0
230
1
0
LINE
5
139
100
AcDbEntity
8
1
62
256
6
ByLayer
370
18
48
1
60
0
100
AcDbLine
10
103.252388
20
-40.413723
30
0
11
103.133634
21
-40.789514
31
0
39
0
210
0
220
0
230
1
0
LINE
5
13A
100
AcDbEntity
8
1
62
256
6
ByLayer
370
18
48
1
60
0
100
AcDbLine
10
103.917045
20
-40.843587
30
0
11
114.045832
21
-42.118907
31
0
39
0
210
0
220
0
230
1
0
LINE
5
13B
100
AcDbEntity
8
1
62
256
6
ByLayer
370
18
48
1
60
0
100
AcDbLine
10
103.798291
20
-41.219378
30
0
11
103.582952
21
-43.17609
31
0
39
0
210
0
220
0
230
1
0
LINE
5
13C
100
AcDbEntity
8
1
62
256
6
ByLayer
370
18
48
1
60
0
100
AcDbLine
10
103.676163
20
-41.525904
30
0
11
103.492833
21
-43.164552
31
0
39
0
210
0
220
0
230
1
0
LINE
5
13D
100
AcDbEntity
8
1
62
256
6
ByLayer
370
18
48
1
60
0
100
AcDbLine
10
103.613076
20
-41.676204
30
0
11
103.444364
21
-43.158132
31
0
39
0
210
0
220
0
230
1
0
LINE
5
13E
100
AcDbEntity
8
1
62
256
6
ByLayer
370
18
48
1
60
0
100
AcDbLine
10
103.395484
20
-42.203491
30
0
11
103.286296
21
-43.136242
31
0
39
0
210
0
220
0
230
1
0
LINE
5
13F
100
AcDbEntity
8
1
62
256
6
ByLayer
370
18
48
1
60
0
100
AcDbLine
10
103.177122
20
-43.114773
30
0
11
103.321671
21
-42.223312
31
0
39
0
210
0
220
0
230
1
0
LINE
5
140
100
AcDbEntity
8
1
62
256
6
ByLayer
370
18
48
1
60
0
100
AcDbLine
10
104.154016
20
-40.093704
30
0
11
113.978134
21
-41.330663
31
0
39
0
210
0
220
0
230
1
0
LINE
5
141
100
AcDbEntity
8
1
62
256
6
ByLayer
370
18
48
1
60
0
100
AcDbLine
10
113.365514
20
-41.115057
30
0
11
104.829353
21
-40.040265
31
0
39
0
210
0
220
0
230
1
0
LINE
5
142
100
AcDbEntity
8
1
62
256
6
ByLayer
370
18
48
1
60
0
100
AcDbLine
10
113.41171
20
-40.838214
30
0
11
104.87555
21
-39.763423
31
0
39
0
210
0
220
0
230
1
0
LINE
5
143
100
AcDbEntity
8
1
62
256
6
ByLayer
370
18
48
1
60
0
100
AcDbLine
10
104.87555
20
-39.763423
30
0
11
104.948159
21
-39.230892
31
0
39
0
210
0
220
0
230
1
0
LINE
5
144
100
AcDbEntity
8
1
62
256
6
ByLayer
370
18
48
1
60
0
100
AcDbLine
10
104.154016
20
-40.093704
30
0
11
103.917045
21
-40.843587
31
0
39
0
210
0
220
0
230
1
0
LINE
5
145
100
AcDbEntity
8
1
62
256
6
ByLayer
370
18
48
1
60
0
100
AcDbLine
10
103.917045
20
-40.843587
30
0
11
103.798291
21
-41.219378
31
0
39
0
210
0
220
0
230
1
0
LINE
5
146
100
AcDbEntity
8
1
62
256
6
ByLayer
370
18
48
1
60
0
100
AcDbLine
10
113.86442
20
-44.470634
30
0
11
114.079758
21
-42.513922
31
0
39
0
210
0
220
0
230
1
0
LINE
5
147
100
AcDbEntity
8
1
62
256
6
ByLayer
370
18
48
1
60
0
100
AcDbLine
10
114.003238
20
-44.487604
30
0
11
114.160849
21
-43.004279
31
0
39
0
210
0
220
0
230
1
0
LINE
5
148
100
AcDbEntity
8
1
62
256
6
ByLayer
370
18
48
1
60
0
100
AcDbLine
10
114.162206
20
-44.505633
30
0
11
114.258486
21
-43.571256
31
0
39
0
210
0
220
0
230
1
0
LINE
5
149
100
AcDbEntity
8
1
62
256
6
ByLayer
370
18
48
1
60
0
100
AcDbLine
10
114.274878
20
-44.512096
30
0
11
114.327144
21
-43.609015
31
0
39
0
210
0
220
0
230
1
0
LINE
5
14A
100
AcDbEntity
8
1
62
256
6
ByLayer
370
18
48
1
60
0
100
AcDbLine
10
113.41171
20
-40.838214
30
0
11
113.484319
21
-40.305684
31
0
39
0
210
0
220
0
230
1
0
LINE
5
14B
100
AcDbEntity
8
1
62
256
6
ByLayer
370
18
48
1
60
0
100
AcDbLine
10
113.978134
20
-41.330663
30
0
11
114.045832
21
-42.118907
31
0
39
0
210
0
220
0
230
1
0
LINE
5
14C
100
AcDbEntity
8
1
62
256
6
ByLayer
370
18
48
1
60
0
100
AcDbLine
10
114.045832
20
-42.118907
30
0
11
114.079758
21
-42.513922
31
0
39
0
210
0
220
0
230
1
0
LINE
5
14D
100
AcDbEntity
8
1
62
256
6
ByLayer
370
18
48
1
60
0
100
AcDbLine
10
114.867282
20
-41.87616
30
0
11
115.935927
21
-37.291872
31
0
39
0
210
0
220
0
230
1
0
LINE
5
14E
100
AcDbEntity
8
1
62
256
6
ByLayer
370
18
48
1
60
0
100
AcDbLine
10
114.901208
20
-42.271174
30
0
11
115.114342
21
-44.101267
31
0
39
0
210
0
220
0
230
1
0
LINE
5
14F
100
AcDbEntity
8
1
62
256
6
ByLayer
370
18
48
1
60
0
100
AcDbLine
10
114.926214
20
-42.607723
30
0
11
115.104419
21
-44.142023
31
0
39
0
210
0
220
0
230
1
0
LINE
5
150
100
AcDbEntity
8
1
62
256
6
ByLayer
370
18
48
1
60
0
100
AcDbLine
10
114.937759
20
-42.774693
30
0
11
115.098618
21
-44.163907
31
0
39
0
210
0
220
0
230
1
0
LINE
5
151
100
AcDbEntity
8
1
62
256
6
ByLayer
370
18
48
1
60
0
100
AcDbLine
10
114.976728
20
-43.359008
30
0
11
115.077628
21
-44.235115
31
0
39
0
210
0
220
0
230
1
0
LINE
5
152
100
AcDbEntity
8
1
62
256
6
ByLayer
370
18
48
1
60
0
100
AcDbLine
10
115.049348
20
-44.283232
30
0
11
114.962256
21
-43.421333
31
0
39
0
210
0
220
0
230
1
0
LINE
5
153
100
AcDbEntity
8
1
62
256
6
ByLayer
370
18
48
1
60
0
100
AcDbLine
10
114.799584
20
-41.087915
30
0
11
115.836084
21
-36.641521
31
0
39
0
210
0
220
0
230
1
0
LINE
5
154
100
AcDbEntity
8
1
62
256
6
ByLayer
370
18
48
1
60
0
100
AcDbLine
10
115.47092
20
-36.895562
30
0
11
114.570306
21
-40.759027
31
0
39
0
210
0
220
0
230
1
0
LINE
5
155
100
AcDbEntity
8
1
62
256
6
ByLayer
370
18
48
1
60
0
100
AcDbLine
10
114.385674
20
-40.094998
30
0
11
114.271662
21
-40.584089
31
0
39
0
210
0
220
0
230
1
0
LINE
5
156
100
AcDbEntity
8
1
62
256
6
ByLayer
370
18
48
1
60
0
100
AcDbLine
10
114.271662
20
-40.584089
30
0
11
114.064421
21
-40.288763
31
0
39
0
210
0
220
0
230
1
0
LINE
5
157
100
AcDbEntity
8
1
62
256
6
ByLayer
370
18
48
1
60
0
100
AcDbLine
10
114.799584
20
-41.087915
30
0
11
114.867282
21
-41.87616
31
0
39
0
210
0
220
0
230
1
0
LINE
5
158
100
AcDbEntity
8
1
62
256
6
ByLayer
370
18
48
1
60
0
100
AcDbLine
10
114.867282
20
-41.87616
30
0
11
114.901208
21
-42.271174
31
0
39
0
210
0
220
0
230
1
0
LINE
5
159
100
AcDbEntity
8
1
62
256
6
ByLayer
370
18
48
1
60
0
100
AcDbLine
10
116.199096
20
-39.447877
30
0
11
115.114342
21
-44.101267
31
0
39
0
210
0
220
0
230
1
0
LINE
5
15A
100
AcDbEntity
8
1
62
256
6
ByLayer
370
18
48
1
60
0
100
AcDbLine
10
113.954625
20
-44.4818
30
0
11
114.132046
21
-42.842409
31
0
39
0
210
0
220
0
230
1
0
LINE
5
15B
100
AcDbEntity
8
1
62
256
6
ByLayer
370
18
48
1
60
0
100
AcDbLine
10
116.199096
20
-39.447877
30
0
11
115.985961
21
-37.617784
31
0
39
0
210
0
220
0
230
1
0
LINE
5
15C
100
AcDbEntity
8
1
62
256
6
ByLayer
370
18
48
1
60
0
100
AcDbLine
10
116.208198
20
-39.407018
30
0
11
116.029369
21
-37.875393
31
0
39
0
210
0
220
0
230
1
0
LINE
5
15D
100
AcDbEntity
8
1
62
256
6
ByLayer
370
18
48
1
60
0
100
AcDbLine
10
116.21264
20
-39.384963
30
0
11
116.050609
21
-38.000773
31
0
39
0
210
0
220
0
230
1
0
LINE
5
15E
100
AcDbEntity
8
1
62
256
6
ByLayer
370
18
48
1
60
0
100
AcDbLine
10
116.225099
20
-39.31268
30
0
11
116.122837
21
-38.442415
31
0
39
0
210
0
220
0
230
1
0
LINE
5
15F
100
AcDbEntity
8
1
62
256
6
ByLayer
370
18
48
1
60
0
100
AcDbLine
10
115.836084
20
-36.641521
30
0
11
115.935927
21
-37.291872
31
0
39
0
210
0
220
0
230
1
0
LINE
5
160
100
AcDbEntity
8
1
62
256
6
ByLayer
370
18
48
1
60
0
100
AcDbLine
10
115.935927
20
-37.291872
30
0
11
115.985961
21
-37.617784
31
0
39
0
210
0
220
0
230
1
0
LINE
5
161
100
AcDbEntity
8
1
62
256
6
ByLayer
370
18
48
1
60
0
100
AcDbLine
10
110.8
20
37.7
30
0
11
110.8
21
52.7
31
0
39
0
210
0
220
0
230
1
0
LINE
5
162
100
AcDbEntity
8
1
62
256
6
ByLayer
370
18
48
1
60
0
100
AcDbLine
10
110.3
20
53.2
30
0
11
110.3
21
37.2
31
0
39
0
210
0
220
0
230
1
0
LINE
5
163
100
AcDbEntity
8
1
62
256
6
ByLayer
370
18
48
1
60
0
100
AcDbLine
10
110.3
20
-10.527948
30
0
11
110.3
21
5.472052
31
0
39
0
210
0
220
0
230
1
0
LINE
5
164
100
AcDbEntity
8
1
62
256
6
ByLayer
370
18
48
1
60
0
100
AcDbLine
10
110.8
20
4.972052
30
0
11
110.8
21
-10.027948
31
0
39
0
210
0
220
0
230
1
0
LINE
5
165
100
AcDbEntity
8
1
62
256
6
ByLayer
370
18
48
1
60
0
100
AcDbLine
10
110.8
20
-44.085111
30
0
11
110.8
21
-48.938183
31
0
39
0
210
0
220
0
230
1
0
LINE
5
166
100
AcDbEntity
8
1
62
256
6
ByLayer
370
18
48
1
60
0
100
AcDbLine
10
110.3
20
-49.438183
30
0
11
110.3
21
-44.021347
31
0
39
0
210
0
220
0
230
1
0
LINE
5
167
100
AcDbEntity
8
1
62
256
6
ByLayer
370
18
48
1
60
0
100
AcDbLine
10
115.316443
20
-36.128383
30
0
11
114.401818
21
-40.051949
31
0
39
0
210
0
220
0
230
1
0
LINE
5
168
100
AcDbEntity
8
1
62
256
6
ByLayer
370
18
48
1
60
0
100
AcDbLine
10
105.373915
20
-36.524806
30
0
11
104.870985
21
-39.041912
31
0
39
0
210
0
220
0
230
1
0
LINE
5
169
100
AcDbEntity
8
1
62
256
6
ByLayer
370
18
48
1
60
0
100
AcDbLine
10
115.308894
20
-33.588908
30
0
11
114.444038
21
-37.298979
31
0
39
0
210
0
220
0
230
1
0
LINE
5
16A
100
AcDbEntity
8
1
62
256
6
ByLayer
370
18
48
1
60
0
100
AcDbLine
10
114.245891
20
-37.07765
30
0
11
115.110747
21
-33.367579
31
0
39
0
210
0
220
0
230
1
0
LINE
5
16B
100
AcDbEntity
8
1
62
256
6
ByLayer
370
18
48
1
60
0
100
AcDbLine
10
114.444038
20
-37.298979
30
0
11
114.418837
21
-39.876236
31
0
39
0
210
0
220
0
230
1
0
LINE
5
16C
100
AcDbEntity
8
1
62
256
6
ByLayer
370
18
48
1
60
0
100
AcDbLine
10
104.164715
20
-38.585135
30
0
11
104.667646
21
-36.06803
31
0
39
0
210
0
220
0
230
1
0
LINE
5
16D
100
AcDbEntity
8
1
62
256
6
ByLayer
370
18
48
1
60
0
100
AcDbLine
10
115.333778
20
-35.951366
30
0
11
114.419154
21
-39.874933
31
0
39
0
210
0
220
0
230
1
0
LINE
5
16E
100
AcDbEntity
8
1
62
256
6
ByLayer
370
18
48
1
60
0
100
AcDbLine
10
113.525606
20
-40.31088
30
0
11
104.856653
21
-39.219368
31
0
39
0
210
0
220
0
230
1
0
LINE
5
16F
100
AcDbEntity
8
1
62
256
6
ByLayer
370
18
48
1
60
0
100
AcDbLine
10
114.419154
20
-39.874933
30
0
11
114.401818
21
-40.051949
31
0
39
0
210
0
220
0
230
1
0
LINE
5
170
100
AcDbEntity
8
1
62
256
6
ByLayer
370
18
48
1
60
0
100
AcDbLine
10
113.542941
20
-40.133864
30
0
11
104.873989
21
-39.042352
31
0
39
0
210
0
220
0
230
1
0
LINE
5
171
100
AcDbEntity
8
1
62
256
6
ByLayer
370
18
48
1
60
0
100
AcDbLine
10
115.316443
20
-36.128383
30
0
11
115.333778
21
-35.951366
31
0
39
0
210
0
220
0
230
1
0
LINE
5
172
100
AcDbEntity
8
1
62
256
6
ByLayer
370
18
48
1
60
0
100
AcDbLine
10
113.545958
20
-40.134182
30
0
11
113.57116
21
-37.556925
31
0
39
0
210
0
220
0
230
1
0
LINE
5
173
100
AcDbEntity
8
1
62
256
6
ByLayer
370
18
48
1
60
0
100
AcDbLine
10
104.873989
20
-39.042352
30
0
11
104.856653
21
-39.219368
31
0
39
0
210
0
220
0
230
1
0
LINE
5
174
100
AcDbEntity
8
1
62
256
6
ByLayer
370
18
48
1
60
0
100
AcDbLine
10
115.334096
20
-35.949945
30
0
11
115.308894
21
-33.588908
31
0
39
0
210
0
220
0
230
1
0
LINE
5
175
100
AcDbEntity
8
1
62
256
6
ByLayer
370
18
48
1
60
0
100
AcDbLine
10
113.57116
20
-37.556925
30
0
11
105.373915
21
-36.524806
31
0
39
0
210
0
220
0
230
1
0
LINE
5
176
100
AcDbEntity
8
1
62
256
6
ByLayer
370
18
48
1
60
0
100
AcDbLine
10
113.525606
20
-40.31088
30
0
11
113.542941
21
-40.133864
31
0
39
0
210
0
220
0
230
1
0
LINE
5
177
100
AcDbEntity
8
1
62
256
6
ByLayer
370
18
48
1
60
0
100
AcDbLine
10
105.415823
20
-36.232538
30
0
11
113.613067
21
-37.264657
31
0
39
0
210
0
220
0
230
1
0
LINE
5
178
100
AcDbEntity
8
1
62
256
6
ByLayer
370
18
48
1
60
0
100
AcDbLine
10
10.105662
20
37.944501
30
0
11
10.105662
21
12.6576
31
0
39
0
210
0
220
0
230
1
0
LINE
5
179
100
AcDbEntity
8
1
62
256
6
ByLayer
370
18
48
1
60
0
100
AcDbLine
10
10.538675
20
38.115458
30
0
11
10.538675
21
12.13309
31
0
39
0
210
0
220
0
230
1
0
LINE
5
17A
100
AcDbEntity
8
1
62
256
6
ByLayer
370
18
48
1
60
0
100
AcDbLine
10
13.461325
20
38.115458
30
0
11
13.461325
21
12.13309
31
0
39
0
210
0
220
0
230
1
0
LINE
5
17B
100
AcDbEntity
8
1
62
256
6
ByLayer
370
18
48
1
60
0
100
AcDbLine
10
13.894338
20
37.944501
30
0
11
13.894338
21
12.6576
31
0
39
0
210
0
220
0
230
1
0
LINE
5
17C
100
AcDbEntity
8
1
62
256
6
ByLayer
370
18
48
1
60
0
100
AcDbLine
10
10.538675
20
-12.13309
30
0
11
10.538675
21
-38.115458
31
0
39
0
210
0
220
0
230
1
0
LINE
5
17D
100
AcDbEntity
8
1
62
256
6
ByLayer
370
18
48
1
60
0
100
AcDbLine
10
13.461325
20
-12.13309
30
0
11
13.461325
21
-38.115458
31
0
39
0
210
0
220
0
230
1
0
LINE
5
17E
100
AcDbEntity
8
1
62
256
6
ByLayer
370
18
48
1
60
0
100
AcDbLine
10
72.5
20
55.624562
30
0
11
55.235221
21
61.723207
31
0
39
0
210
0
220
0
230
1
0
LINE
5
17F
100
AcDbEntity
8
1
62
256
6
ByLayer
370
18
48
1
60
0
100
AcDbLine
10
13.894338
20
-12.6576
30
0
11
13.894338
21
-37.944501
31
0
39
0
210
0
220
0
230
1
0
LINE
5
180
100
AcDbEntity
8
1
62
256
6
ByLayer
370
18
48
1
60
0
100
AcDbLine
10
80.496197
20
47.422822
30
0
11
84.183075
21
41.27977
31
0
39
0
210
0
220
0
230
1
0
LINE
5
181
100
AcDbEntity
8
1
62
256
6
ByLayer
370
18
48
1
60
0
100
AcDbLine
10
71
20
-21.625381
30
0
11
71
21
7.813552
31
0
39
0
210
0
220
0
230
1
0
LINE
5
182
100
AcDbEntity
8
1
62
256
6
ByLayer
370
18
48
1
60
0
100
AcDbLine
10
61
20
-37.901277
30
0
11
61
21
13.099307
31
0
39
0
210
0
220
0
230
1
0
LINE
5
183
100
AcDbEntity
8
1
62
256
6
ByLayer
370
18
48
1
60
0
100
AcDbLine
10
61
20
72.020508
30
0
11
61
21
71.751586
31
0
39
0
210
0
220
0
230
1
0
LINE
5
184
100
AcDbEntity
8
1
62
256
6
ByLayer
370
18
48
1
60
0
100
AcDbLine
10
80.496197
20
47.422822
30
0
11
53.617074
21
56.917657
31
0
39
0
210
0
220
0
230
1
0
LINE
5
185
100
AcDbEntity
8
1
62
256
6
ByLayer
370
18
48
1
60
0
100
AcDbLine
10
42.512951
20
-40
30
0
11
42.512951
21
40
31
0
39
0
210
0
220
0
230
1
0
LINE
5
186
100
AcDbEntity
8
1
62
256
6
ByLayer
370
18
48
1
60
0
100
AcDbLine
10
80.496197
20
52.211868
30
0
11
72.5
21
55.03646
31
0
39
0
210
0
220
0
230
1
0
LINE
5
187
100
AcDbEntity
8
1
62
256
6
ByLayer
370
18
48
1
60
0
100
AcDbLine
10
47.654509
20
-35.407308
30
0
11
47.500805
21
-35.432565
31
0
39
0
210
0
220
0
230
1
0
LINE
5
188
100
AcDbEntity
8
1
62
256
6
ByLayer
370
18
48
1
60
0
100
AcDbLine
10
85.335807
20
31.877491
30
0
11
47.288382
21
45.317439
31
0
39
0
210
0
220
0
230
1
0
LINE
5
189
100
AcDbEntity
8
1
62
256
6
ByLayer
370
18
48
1
60
0
100
AcDbLine
10
47.425103
20
45.652142
30
0
11
85.301039
21
32.272771
31
0
39
0
210
0
220
0
230
1
0
LINE
5
18A
100
AcDbEntity
8
1
62
256
6
ByLayer
370
18
48
1
60
0
100
AcDbLine
10
67.284497
20
-38.663302
30
0
11
72.5
21
-38.74542
31
0
39
0
210
0
220
0
230
1
0
LINE
5
18B
100
AcDbEntity
8
1
62
256
6
ByLayer
370
18
48
1
60
0
100
AcDbLine
10
85.301039
20
32.272771
30
0
11
84.183075
21
41.27977
31
0
39
0
210
0
220
0
230
1
0
LINE
5
18C
100
AcDbEntity
8
1
62
256
6
ByLayer
370
18
48
1
60
0
100
AcDbLine
10
80.922846
20
51.753555
30
0
11
80.496197
21
52.211868
31
0
39
0
210
0
220
0
230
1
0
LINE
5
18D
100
AcDbEntity
8
1
62
256
6
ByLayer
370
18
48
1
60
0
100
AcDbLine
10
67.284497
20
73.441678
30
0
11
72.5
21
73.623807
31
0
39
0
210
0
220
0
230
1
0
LINE
5
18E
100
AcDbEntity
8
1
62
256
6
ByLayer
370
18
48
1
60
0
100
AcDbLine
10
84.183075
20
46.321384
30
0
11
84.183075
21
41.27977
31
0
39
0
210
0
220
0
230
1
0
LINE
5
18F
100
AcDbEntity
8
1
62
256
6
ByLayer
370
18
48
1
60
0
100
AcDbLine
10
73.004363
20
-36.86965
30
0
11
72.499841
21
-36.952553
31
0
39
0
210
0
220
0
230
1
0
LINE
5
190
100
AcDbEntity
8
1
62
256
6
ByLayer
370
18
48
1
60
0
100
AcDbLine
10
64.295023
20
-38.300763
30
0
11
53.370172
21
-40.095928
31
0
39
0
210
0
220
0
230
1
0
LINE
5
191
100
AcDbEntity
8
1
62
256
6
ByLayer
370
18
48
1
60
0
100
AcDbLine
10
72.5
20
73.623807
30
0
11
73.004799
21
73.641435
31
0
39
0
210
0
220
0
230
1
0
LINE
5
192
100
AcDbEntity
8
1
62
256
6
ByLayer
370
18
48
1
60
0
100
AcDbLine
10
87.4
20
-24.832439
30
0
11
85.579808
21
-24.832439
31
0
39
0
210
0
220
0
230
1
0
LINE
5
193
100
AcDbEntity
8
1
62
256
6
ByLayer
370
18
48
1
60
0
100
AcDbLine
10
80.922846
20
51.753555
30
0
11
84.183075
21
46.321384
31
0
39
0
210
0
220
0
230
1
0
LINE
5
194
100
AcDbEntity
8
1
62
256
6
ByLayer
370
18
48
1
60
0
100
AcDbLine
10
85.335807
20
2.564802
30
0
11
85.335807
21
31.877491
31
0
39
0
210
0
220
0
230
1
0
LINE
5
195
100
AcDbEntity
8
1
62
256
6
ByLayer
370
18
48
1
60
0
100
AcDbLine
10
72.5
20
55.278625
30
0
11
72.5
21
55.03646
31
0
39
0
210
0
220
0
230
1
0
LINE
5
196
100
AcDbEntity
8
1
62
256
6
ByLayer
370
18
48
1
60
0
100
AcDbLine
10
72.5
20
-38.74542
30
0
11
72.5
21
-24.626497
31
0
39
0
210
0
220
0
230
1
0
LINE
5
197
100
AcDbEntity
8
1
62
256
6
ByLayer
370
18
48
1
60
0
100
AcDbLine
10
72.5
20
-24.626497
30
0
11
85.579808
21
-24.832439
31
0
39
0
210
0
220
0
230
1
0
LINE
5
198
100
AcDbEntity
8
1
62
256
6
ByLayer
370
18
48
1
60
0
100
AcDbLine
10
80.496197
20
47.422822
30
0
11
80.496197
21
52.211868
31
0
39
0
210
0
220
0
230
1
0
LINE
5
199
100
AcDbEntity
8
1
62
256
6
ByLayer
370
18
48
1
60
0
100
AcDbLine
10
84.183075
20
46.321384
30
0
11
86.975265
21
23.825803
31
0
39
0
210
0
220
0
230
1
0
LINE
5
19A
100
AcDbEntity
8
1
62
256
6
ByLayer
370
18
48
1
60
0
100
AcDbLine
10
55.080874
20
61.431791
30
0
11
72.5
21
55.278625
31
0
39
0
210
0
220
0
230
1
0
LINE
5
19B
100
AcDbEntity
8
1
62
256
6
ByLayer
370
18
48
1
60
0
100
AcDbLine
10
73.004783
20
-30.888056
30
0
11
72.5
21
-30.971001
31
0
39
0
210
0
220
0
230
1
0
LINE
5
19C
100
AcDbEntity
8
1
62
256
6
ByLayer
370
18
48
1
60
0
100
AcDbLine
10
13.461325
20
-12.13309
30
0
11
10.538675
21
-12.13309
31
0
39
0
210
0
220
0
230
1
0
LINE
5
19D
100
AcDbEntity
8
1
62
256
6
ByLayer
370
18
48
1
60
0
100
AcDbLine
10
10.538675
20
-38.115458
30
0
11
13.461325
21
-38.115458
31
0
39
0
210
0
220
0
230
1
0
LINE
5
19E
100
AcDbEntity
8
1
62
256
6
ByLayer
370
18
48
1
60
0
100
AcDbLine
10
85.335807
20
-65.874982
30
0
11
85.335807
21
-46.126999
31
0
39
0
210
0
220
0
230
1
0
LINE
5
19F
100
AcDbEntity
8
1
62
256
6
ByLayer
370
18
48
1
60
0
100
AcDbLine
10
13.461325
20
38.115458
30
0
11
10.538675
21
38.115458
31
0
39
0
210
0
220
0
230
1
0
LINE
5
1A0
100
AcDbEntity
8
1
62
256
6
ByLayer
370
18
48
1
60
0
100
AcDbLine
10
0.3
20
-40
30
0
11
0.3
21
40
31
0
39
0
210
0
220
0
230
1
0
LINE
5
1A1
100
AcDbEntity
8
1
62
256
6
ByLayer
370
18
48
1
60
0
100
AcDbLine
10
10.538675
20
12.13309
30
0
11
13.461325
21
12.13309
31
0
39
0
210
0
220
0
230
1
0
LINE
5
1A2
100
AcDbEntity
8
1
62
256
6
ByLayer
370
18
48
1
60
0
100
AcDbLine
10
55.175463
20
-33.50237
30
0
11
55.354122
21
-33.473013
31
0
39
0
210
0
220
0
230
1
0
LINE
5
1A3
100
AcDbEntity
8
1
62
256
6
ByLayer
370
18
48
1
60
0
100
AcDbLine
10
73.004761
20
-30.311871
30
0
11
72.5
21
-30.394813
31
0
39
0
210
0
220
0
230
1
0
LINE
5
1A4
100
AcDbEntity
8
1
62
256
6
ByLayer
370
18
48
1
60
0
100
AcDbLine
10
72.5
20
55.624562
30
0
11
72.5
21
73.623807
31
0
39
0
210
0
220
0
230
1
0
LINE
5
1A5
100
AcDbEntity
8
1
62
256
6
ByLayer
370
18
48
1
60
0
100
AcDbLine
10
10.105662
20
-12.6576
30
0
11
10.105662
21
-37.944501
31
0
39
0
210
0
220
0
230
1
0
LINE
5
1A6
100
AcDbEntity
8
1
62
256
6
ByLayer
370
18
48
1
60
0
100
AcDbLine
10
115.308894
20
-49.991063
30
0
11
115.204693
21
-50.532475
31
0
39
0
210
0
220
0
230
1
0
LINE
5
1A7
100
AcDbEntity
8
1
62
256
6
ByLayer
370
18
48
1
60
0
100
AcDbLine
10
108.696734
20
86.693899
30
0
11
108.689544
21
86.675226
31
0
39
0
210
0
220
0
230
1
0
LINE
5
1A8
100
AcDbEntity
8
1
62
256
6
ByLayer
370
18
48
1
60
0
100
AcDbLine
10
108.580551
20
86.663771
30
0
11
108.689544
21
86.675226
31
0
39
0
210
0
220
0
230
1
0
LINE
5
1A9
100
AcDbEntity
8
1
62
256
6
ByLayer
370
18
48
1
60
0
100
AcDbLine
10
108.588695
20
86.682543
30
0
11
108.696734
21
86.693899
31
0
39
0
210
0
220
0
230
1
0
LINE
5
1AA
100
AcDbEntity
8
1
62
256
6
ByLayer
370
18
48
1
60
0
100
AcDbLine
10
108.261914
20
87.844495
30
0
11
108.242204
21
87.841421
31
0
39
0
210
0
220
0
230
1
0
LINE
5
1AB
100
AcDbEntity
8
1
62
256
6
ByLayer
370
18
48
1
60
0
100
AcDbLine
10
108.153876
20
87.833139
30
0
11
108.261914
21
87.844495
31
0
39
0
210
0
220
0
230
1
0
LINE
5
1AC
100
AcDbEntity
8
1
62
256
6
ByLayer
370
18
48
1
60
0
100
AcDbLine
10
108.504723
20
88.433676
30
0
11
108.515638
21
88.416907
31
0
39
0
210
0
220
0
230
1
0
LINE
5
1AD
100
AcDbEntity
8
1
62
256
6
ByLayer
370
18
48
1
60
0
100
AcDbLine
10
108.221504
20
87.189695
30
0
11
108.329543
21
87.20105
31
0
39
0
210
0
220
0
230
1
0
LINE
5
1AE
100
AcDbEntity
8
1
62
256
6
ByLayer
370
18
48
1
60
0
100
AcDbLine
10
110.524908
20
88.081343
30
0
11
110.589705
21
88.088154
31
0
39
0
210
0
220
0
230
1
0
LINE
5
1AF
100
AcDbEntity
8
1
62
256
6
ByLayer
370
18
48
1
60
0
100
AcDbLine
10
110.592328
20
87.43988
30
0
11
110.655903
21
87.446562
31
0
39
0
210
0
220
0
230
1
0
LINE
5
1B0
100
AcDbEntity
8
1
62
256
6
ByLayer
370
18
48
1
60
0
100
AcDbLine
10
109.557869
20
88.868641
30
0
11
109.666861
21
88.880096
31
0
39
0
210
0
220
0
230
1
0
LINE
5
1B1
100
AcDbEntity
8
1
62
256
6
ByLayer
370
18
48
1
60
0
100
AcDbLine
10
109.666861
20
88.880096
30
0
11
109.657857
21
88.862235
31
0
39
0
210
0
220
0
230
1
0
LINE
5
1B2
100
AcDbEntity
8
1
62
256
6
ByLayer
370
18
48
1
60
0
100
AcDbLine
10
109.81011
20
86.468728
30
0
11
109.919102
21
86.480183
31
0
39
0
210
0
220
0
230
1
0
LINE
5
1B3
100
AcDbEntity
8
1
62
256
6
ByLayer
370
18
48
1
60
0
100
AcDbLine
10
109.798543
20
86.484427
30
0
11
109.906581
21
86.495783
31
0
39
0
210
0
220
0
230
1
0
LINE
5
1B4
100
AcDbEntity
8
1
62
256
6
ByLayer
370
18
48
1
60
0
100
AcDbLine
10
108.4076
20
88.405551
30
0
11
108.515638
21
88.416907
31
0
39
0
210
0
220
0
230
1
0
LINE
5
1B5
100
AcDbEntity
8
1
62
256
6
ByLayer
370
18
48
1
60
0
100
AcDbLine
10
108.395731
20
88.422221
30
0
11
108.504723
21
88.433676
31
0
39
0
210
0
220
0
230
1
0
LINE
5
1B6
100
AcDbEntity
8
1
62
256
6
ByLayer
370
18
48
1
60
0
100
AcDbLine
10
109.549818
20
88.85088
30
0
11
109.657857
21
88.862235
31
0
39
0
210
0
220
0
230
1
0
LINE
5
1B7
100
AcDbEntity
8
1
62
256
6
ByLayer
370
18
48
1
60
0
100
AcDbLine
10
108.309624
20
87.199958
30
0
11
108.329543
21
87.20105
31
0
39
0
210
0
220
0
230
1
0
LINE
5
1B8
100
AcDbEntity
8
1
62
256
6
ByLayer
370
18
48
1
60
0
100
AcDbLine
10
109.906581
20
86.495783
30
0
11
109.919102
21
86.480183
31
0
39
0
210
0
220
0
230
1
0
LINE
5
1B9
100
AcDbEntity
8
1
62
256
6
ByLayer
370
18
48
1
60
0
100
AcDbLine
10
81.977734
20
81.720529
30
0
11
81.723045
21
81.652286
31
0
39
0
210
0
220
0
230
1
0
LINE
5
1BA
100
AcDbEntity
8
1
62
256
6
ByLayer
370
18
48
1
60
0
100
AcDbLine
10
81.422329
20
81.571709
30
0
11
81.723045
21
81.652286
31
0
39
0
210
0
220
0
230
1
0
LINE
5
1BB
100
AcDbEntity
8
1
62
256
6
ByLayer
370
18
48
1
60
0
100
AcDbLine
10
81.422329
20
81.079953
30
0
11
81.723045
21
80.999376
31
0
39
0
210
0
220
0
230
1
0
LINE
5
1BC
100
AcDbEntity
8
1
62
256
6
ByLayer
370
18
48
1
60
0
100
AcDbLine
10
81.723045
20
80.999376
30
0
11
81.977734
21
80.931132
31
0
39
0
210
0
220
0
230
1
0
LINE
5
1BD
100
AcDbEntity
8
1
62
256
6
ByLayer
370
18
48
1
60
0
100
AcDbLine
10
112.15649
20
-61.818023
30
0
11
113.341318
21
-61.20259
31
0
39
0
210
0
220
0
230
1
0
LINE
5
1BE
100
AcDbEntity
8
1
62
256
6
ByLayer
370
18
48
1
60
0
100
AcDbLine
10
115.204699
20
-48.371438
30
0
11
115.204699
21
-43.713668
31
0
39
0
210
0
220
0
230
1
0
LINE
5
1BF
100
AcDbEntity
8
1
62
256
6
ByLayer
370
18
48
1
60
0
100
AcDbLine
10
98.204699
20
-72.212478
30
0
11
85.276577
21
-72.212478
31
0
39
0
210
0
220
0
230
1
0
LINE
5
1C0
100
AcDbEntity
8
1
62
256
6
ByLayer
370
18
48
1
60
0
100
AcDbLine
10
115.204699
20
-48.371438
30
0
11
115.204699
21
-50.874433
31
0
39
0
210
0
220
0
230
1
0
LINE
5
1C1
100
AcDbEntity
8
1
62
256
6
ByLayer
370
18
48
1
60
0
100
AcDbLine
10
115.204699
20
-50.874433
30
0
11
113.854256
21
-58.537464
31
0
39
0
210
0
220
0
230
1
0
LINE
5
1C2
100
AcDbEntity
8
1
62
256
6
ByLayer
370
18
48
1
60
0
100
AcDbLine
10
111.408305
20
-61.830216
30
0
11
112.15649
21
-61.818023
31
0
39
0
210
0
220
0
230
1
0
LINE
5
1C3
100
AcDbEntity
8
1
62
256
6
ByLayer
370
18
48
1
60
0
100
AcDbLine
10
102.004699
20
-42.255688
30
0
11
102.004699
21
-58.700735
31
0
39
0
210
0
220
0
230
1
0
LINE
5
1C4
100
AcDbEntity
8
1
62
256
6
ByLayer
370
18
48
1
60
0
100
AcDbLine
10
98.204699
20
-72.212478
30
0
11
98.204699
21
-41.7774
31
0
39
0
210
0
220
0
230
1
0
LINE
5
1C5
100
AcDbEntity
8
1
62
256
6
ByLayer
370
18
48
1
60
0
100
AcDbLine
10
113.341318
20
-61.20259
30
0
11
113.854256
21
-58.537464
31
0
39
0
210
0
220
0
230
1
0
LINE
5
1C6
100
AcDbEntity
8
1
62
256
6
ByLayer
370
18
48
1
60
0
100
AcDbLine
10
85.276577
20
-72.212478
30
0
11
85.276577
21
-65.884971
31
0
39
0
210
0
220
0
230
1
0
LINE
5
1C7
100
AcDbEntity
8
1
62
256
6
ByLayer
370
18
48
1
60
0
100
AcDbLine
10
108.584498
20
-49.437855
30
0
11
108.584498
21
-56.669535
31
0
39
0
210
0
220
0
230
1
0
LINE
5
1C8
100
AcDbEntity
8
1
62
256
6
ByLayer
370
18
48
1
60
0
100
AcDbLine
10
109.014011
20
-65.987509
30
0
11
105.703209
21
-68.692915
31
0
39
0
210
0
220
0
230
1
0
LINE
5
1C9
100
AcDbEntity
8
1
62
256
6
ByLayer
370
18
48
1
60
0
100
AcDbLine
10
98.204699
20
-72.212478
30
0
11
105.703209
21
-68.692915
31
0
39
0
210
0
220
0
230
1
0
LINE
5
1CA
100
AcDbEntity
8
1
62
256
6
ByLayer
370
18
48
1
60
0
100
AcDbLine
10
105.904182
20
-59.761168
30
0
11
105.703209
21
-68.692915
31
0
39
0
210
0
220
0
230
1
0
LINE
5
1CB
100
AcDbEntity
8
1
62
256
6
ByLayer
370
18
48
1
60
0
100
AcDbLine
10
115.204699
20
-48.371438
30
0
11
108.584498
21
-56.669535
31
0
39
0
210
0
220
0
230
1
0
LINE
5
1CC
100
AcDbEntity
8
1
62
256
6
ByLayer
370
18
48
1
60
0
100
AcDbLine
10
113.854256
20
-58.423499
30
0
11
111.232316
21
-62.075428
31
0
39
0
210
0
220
0
230
1
0
LINE
5
1CD
100
AcDbEntity
8
1
62
256
6
ByLayer
370
18
48
1
60
0
100
AcDbLine
10
113.854256
20
-58.537464
30
0
11
113.854256
21
-58.423499
31
0
39
0
210
0
220
0
230
1
0
LINE
5
1CE
100
AcDbEntity
8
1
62
256
6
ByLayer
370
18
48
1
60
0
100
AcDbLine
10
106.346989
20
80.729772
30
0
11
114.564485
21
81.593465
31
0
39
0
210
0
220
0
230
1
0
LINE
5
1CF
100
AcDbEntity
8
1
62
256
6
ByLayer
370
18
48
1
60
0
100
AcDbLine
10
115.204699
20
70.132313
30
0
11
114.559876
21
69.897617
31
0
39
0
210
0
220
0
230
1
0
LINE
5
1D0
100
AcDbEntity
8
1
62
256
6
ByLayer
370
18
48
1
60
0
100
AcDbLine
10
102.637479
20
91.51176
30
0
11
102.429789
21
91.48993
31
0
39
0
210
0
220
0
230
1
0
LINE
5
1D1
100
AcDbEntity
8
1
62
256
6
ByLayer
370
18
48
1
60
0
100
AcDbLine
10
115.204464
20
81.69962
30
0
11
115.204699
21
81.694643
31
0
39
0
210
0
220
0
230
1
0
LINE
5
1D2
100
AcDbEntity
8
1
62
256
6
ByLayer
370
18
48
1
60
0
100
AcDbLine
10
97.519682
20
90.973857
30
0
11
102.429789
21
91.48993
31
0
39
0
210
0
220
0
230
1
0
LINE
5
1D3
100
AcDbEntity
8
1
62
256
6
ByLayer
370
18
48
1
60
0
100
AcDbLine
10
91.004699
20
90.289105
30
0
11
97.519682
21
90.973857
31
0
39
0
210
0
220
0
230
1
0
LINE
5
1D4
100
AcDbEntity
8
1
62
256
6
ByLayer
370
18
48
1
60
0
100
AcDbLine
10
108.584498
20
67.722757
30
0
11
114.559876
21
69.897617
31
0
39
0
210
0
220
0
230
1
0
LINE
5
1D5
100
AcDbEntity
8
1
62
256
6
ByLayer
370
18
48
1
60
0
100
AcDbLine
10
102.930804
20
82.127429
30
0
11
102.90487
21
82.37608
31
0
39
0
210
0
220
0
230
1
0
LINE
5
1D6
100
AcDbEntity
8
1
62
256
6
ByLayer
370
18
48
1
60
0
100
AcDbLine
10
114.564485
20
81.593465
30
0
11
114.559876
21
69.897617
31
0
39
0
210
0
220
0
230
1
0
LINE
5
1D7
100
AcDbEntity
8
1
62
256
6
ByLayer
370
18
48
1
60
0
100
AcDbLine
10
115.204464
20
81.69962
30
0
11
114.584431
21
81.634452
31
0
39
0
210
0
220
0
230
1
0
LINE
5
1D8
100
AcDbEntity
8
1
62
256
6
ByLayer
370
18
48
1
60
0
100
AcDbLine
10
103.398942
20
83.921113
30
0
11
103.434895
21
83.924892
31
0
39
0
210
0
220
0
230
1
0
LINE
5
1D9
100
AcDbEntity
8
1
62
256
6
ByLayer
370
18
48
1
60
0
100
AcDbLine
10
102.90487
20
82.37608
30
0
11
103.530277
21
82.441813
31
0
39
0
210
0
220
0
230
1
0
LINE
5
1DA
100
AcDbEntity
8
1
62
256
6
ByLayer
370
18
48
1
60
0
100
AcDbLine
10
102.930804
20
82.127429
30
0
11
103.55641
21
82.193183
31
0
39
0
210
0
220
0
230
1
0
LINE
5
1DB
100
AcDbEntity
8
1
62
256
6
ByLayer
370
18
48
1
60
0
100
AcDbLine
10
91.004699
20
90.289105
30
0
11
73.004699
21
88.397229
31
0
39
0
210
0
220
0
230
1
0
LINE
5
1DC
100
AcDbEntity
8
1
62
256
6
ByLayer
370
18
48
1
60
0
100
AcDbLine
10
103.55641
20
82.193183
30
0
11
103.530277
21
82.441813
31
0
39
0
210
0
220
0
230
1
0
LINE
5
1DD
100
AcDbEntity
8
1
62
256
6
ByLayer
370
18
48
1
60
0
100
AcDbLine
10
102.004699
20
21.42319
30
0
11
102.004699
21
58.325831
31
0
39
0
210
0
220
0
230
1
0
LINE
5
1DE
100
AcDbEntity
8
1
62
256
6
ByLayer
370
18
48
1
60
0
100
AcDbLine
10
97.519682
20
23.826057
30
0
11
97.519682
21
90.973857
31
0
39
0
210
0
220
0
230
1
0
LINE
5
1DF
100
AcDbEntity
8
1
62
256
6
ByLayer
370
18
48
1
60
0
100
AcDbLine
10
115.185291
20
81.882038
30
0
11
115.204464
21
81.69962
31
0
39
0
210
0
220
0
230
1
0
LINE
5
1E0
100
AcDbEntity
8
1
62
256
6
ByLayer
370
18
48
1
60
0
100
AcDbLine
10
115.204699
20
70.132313
30
0
11
115.204699
21
81.694643
31
0
39
0
210
0
220
0
230
1
0
LINE
5
1E1
100
AcDbEntity
8
1
62
256
6
ByLayer
370
18
48
1
60
0
100
AcDbLine
10
103.590112
20
82.448102
30
0
11
103.530277
21
82.441813
31
0
39
0
210
0
220
0
230
1
0
LINE
5
1E2
100
AcDbEntity
8
1
62
256
6
ByLayer
370
18
48
1
60
0
100
AcDbLine
10
103.616244
20
82.199471
30
0
11
103.55641
21
82.193183
31
0
39
0
210
0
220
0
230
1
0
LINE
5
1E3
100
AcDbEntity
8
1
62
256
6
ByLayer
370
18
48
1
60
0
100
AcDbLine
10
73.004699
20
88.397229
30
0
11
73.004699
21
54.85801
31
0
39
0
210
0
220
0
230
1
0
LINE
5
1E4
100
AcDbEntity
8
1
62
256
6
ByLayer
370
18
48
1
60
0
100
AcDbLine
10
91.004699
20
90.289105
30
0
11
91.004699
21
23.825923
31
0
39
0
210
0
220
0
230
1
0
LINE
5
1E5
100
AcDbEntity
8
1
62
256
6
ByLayer
370
18
48
1
60
0
100
AcDbLine
10
98.204699
20
-2.82604
30
0
11
85.276577
21
-2.82604
31
0
39
0
210
0
220
0
230
1
0
LINE
5
1E6
100
AcDbEntity
8
1
62
256
6
ByLayer
370
18
48
1
60
0
100
AcDbLine
10
88.575869
20
-28.995818
30
0
11
88.658353
21
-29.088263
31
0
39
0
210
0
220
0
230
1
0
LINE
5
1E7
100
AcDbEntity
8
1
62
256
6
ByLayer
370
18
48
1
60
0
100
AcDbLine
10
73.004699
20
-31.231248
30
0
11
85.954976
21
-31.772732
31
0
39
0
210
0
220
0
230
1
0
LINE
5
1E8
100
AcDbEntity
8
1
62
256
6
ByLayer
370
18
48
1
60
0
100
AcDbLine
10
107.584808
20
-27.785786
30
0
11
107.95784
21
-26.185547
31
0
39
0
210
0
220
0
230
1
0
LINE
5
1E9
100
AcDbEntity
8
1
62
256
6
ByLayer
370
18
48
1
60
0
100
AcDbLine
10
73.004699
20
-31.231248
30
0
11
73.004699
21
-24.63411
31
0
39
0
210
0
220
0
230
1
0
LINE
5
1EA
100
AcDbEntity
8
1
62
256
6
ByLayer
370
18
48
1
60
0
100
AcDbLine
10
115.204699
20
-32.277797
30
0
11
115.204699
21
-23.023257
31
0
39
0
210
0
220
0
230
1
0
LINE
5
1EB
100
AcDbEntity
8
1
62
256
6
ByLayer
370
18
48
1
60
0
100
AcDbLine
10
73.004699
20
-45.542543
30
0
11
73.004699
21
-32.079571
31
0
39
0
210
0
220
0
230
1
0
LINE
5
1EC
100
AcDbEntity
8
1
62
256
6
ByLayer
370
18
48
1
60
0
100
AcDbLine
10
104.387108
20
-36.030944
30
0
11
113.69046
21
-37.202333
31
0
39
0
210
0
220
0
230
1
0
LINE
5
1ED
100
AcDbEntity
8
1
62
256
6
ByLayer
370
18
48
1
60
0
100
AcDbLine
10
112.15649
20
-28.361408
30
0
11
113.341318
21
-28.002374
31
0
39
0
210
0
220
0
230
1
0
LINE
5
1EE
100
AcDbEntity
8
1
62
256
6
ByLayer
370
18
48
1
60
0
100
AcDbLine
10
114.085499
20
-37.082626
30
0
11
115.067698
21
-32.869176
31
0
39
0
210
0
220
0
230
1
0
LINE
5
1EF
100
AcDbEntity
8
1
62
256
6
ByLayer
370
18
48
1
60
0
100
AcDbLine
10
115.070375
20
-32.934677
30
0
11
115.067698
21
-32.869176
31
0
39
0
210
0
220
0
230
1
0
LINE
5
1F0
100
AcDbEntity
8
1
62
256
6
ByLayer
370
18
48
1
60
0
100
AcDbLine
10
115.045161
20
-33.192145
30
0
11
115.070375
21
-32.934677
31
0
39
0
210
0
220
0
230
1
0
LINE
5
1F1
100
AcDbEntity
8
1
62
256
6
ByLayer
370
18
48
1
60
0
100
AcDbLine
10
87.589645
20
-22.316196
30
0
11
107.722186
21
-26.500895
31
0
39
0
210
0
220
0
230
1
0
LINE
5
1F2
100
AcDbEntity
8
1
62
256
6
ByLayer
370
18
48
1
60
0
100
AcDbLine
10
113.854256
20
-25.801969
30
0
11
113.854256
21
-25.70481
31
0
39
0
210
0
220
0
230
1
0
LINE
5
1F3
100
AcDbEntity
8
1
62
256
6
ByLayer
370
18
48
1
60
0
100
AcDbLine
10
85.276577
20
-2.82604
30
0
11
87.589645
21
-22.316196
31
0
39
0
210
0
220
0
230
1
0
LINE
5
1F4
100
AcDbEntity
8
1
62
256
6
ByLayer
370
18
48
1
60
0
100
AcDbLine
10
73.004699
20
-32.079571
30
0
11
73.004699
21
-31.231248
31
0
39
0
210
0
220
0
230
1
0
LINE
5
1F5
100
AcDbEntity
8
1
62
256
6
ByLayer
370
18
48
1
60
0
100
AcDbLine
10
86.058744
20
-31.842626
30
0
11
86.058744
21
-24.831888
31
0
39
0
210
0
220
0
230
1
0
LINE
5
1F6
100
AcDbEntity
8
1
62
256
6
ByLayer
370
18
48
1
60
0
100
AcDbLine
10
113.787503
20
-36.294693
30
0
11
113.69046
21
-37.202333
31
0
39
0
210
0
220
0
230
1
0
LINE
5
1F7
100
AcDbEntity
8
1
62
256
6
ByLayer
370
18
48
1
60
0
100
AcDbLine
10
113.978345
20
-36.236863
30
0
11
114.085499
21
-37.082626
31
0
39
0
210
0
220
0
230
1
0
LINE
5
1F8
100
AcDbEntity
8
1
62
256
6
ByLayer
370
18
48
1
60
0
100
AcDbLine
10
109.014011
20
-18.697288
30
0
11
105.703209
21
-11.799555
31
0
39
0
210
0
220
0
230
1
0
LINE
5
1F9
100
AcDbEntity
8
1
62
256
6
ByLayer
370
18
48
1
60
0
100
AcDbLine
10
85.954976
20
-31.772732
30
0
11
85.954976
21
-24.832309
31
0
39
0
210
0
220
0
230
1
0
LINE
5
1FA
100
AcDbEntity
8
1
62
256
6
ByLayer
370
18
48
1
60
0
100
AcDbLine
10
115.204464
20
-32.282474
30
0
11
115.204699
21
-32.277797
31
0
39
0
210
0
220
0
230
1
0
LINE
5
1FB
100
AcDbEntity
8
1
62
256
6
ByLayer
370
18
48
1
60
0
100
AcDbLine
10
91.004699
20
-46.395548
30
0
11
73.004699
21
-45.542543
31
0
39
0
210
0
220
0
230
1
0
LINE
5
1FC
100
AcDbEntity
8
1
62
256
6
ByLayer
370
18
48
1
60
0
100
AcDbLine
10
115.204699
20
-23.023257
30
0
11
113.854256
21
-25.801969
31
0
39
0
210
0
220
0
230
1
0
LINE
5
1FD
100
AcDbEntity
8
1
62
256
6
ByLayer
370
18
48
1
60
0
100
AcDbLine
10
104.225495
20
-36.144994
30
0
11
103.960341
21
-38.852513
31
0
39
0
210
0
220
0
230
1
0
LINE
5
1FE
100
AcDbEntity
8
1
62
256
6
ByLayer
370
18
48
1
60
0
100
AcDbLine
10
108.502908
20
-20.619804
30
0
11
107.722186
21
-26.500895
31
0
39
0
210
0
220
0
230
1
0
LINE
5
1FF
100
AcDbEntity
8
1
62
256
6
ByLayer
370
18
48
1
60
0
100
AcDbLine
10
97.519682
20
-41.690706
30
0
11
102.429789
21
-42.30894
31
0
39
0
210
0
220
0
230
1
0
LINE
5
200
100
AcDbEntity
8
1
62
256
6
ByLayer
370
18
48
1
60
0
100
AcDbLine
10
107.584808
20
-27.785786
30
0
11
112.15649
21
-28.361408
31
0
39
0
210
0
220
0
230
1
0
LINE
5
201
100
AcDbEntity
8
1
62
256
6
ByLayer
370
18
48
1
60
0
100
AcDbLine
10
107.722186
20
-26.500895
30
0
11
107.584808
21
-27.785786
31
0
39
0
210
0
220
0
230
1
0
LINE
5
202
100
AcDbEntity
8
1
62
256
6
ByLayer
370
18
48
1
60
0
100
AcDbLine
10
104.387108
20
-36.030944
30
0
11
73.004699
21
-32.079571
31
0
39
0
210
0
220
0
230
1
0
LINE
5
203
100
AcDbEntity
8
1
62
256
6
ByLayer
370
18
48
1
60
0
100
AcDbLine
10
104.387108
20
-36.030944
30
0
11
104.225495
21
-36.144994
31
0
39
0
210
0
220
0
230
1
0
LINE
5
204
100
AcDbEntity
8
1
62
256
6
ByLayer
370
18
48
1
60
0
100
AcDbLine
10
102.004699
20
21.423141
30
0
11
102.004699
21
2.309568
31
0
39
0
210
0
220
0
230
1
0
LINE
5
205
100
AcDbEntity
8
1
62
256
6
ByLayer
370
18
48
1
60
0
100
AcDbLine
10
98.204699
20
23.825773
30
0
11
102.004699
21
21.423141
31
0
39
0
210
0
220
0
230
1
0
LINE
5
206
100
AcDbEntity
8
1
62
256
6
ByLayer
370
18
48
1
60
0
100
AcDbLine
10
98.204699
20
-2.82604
30
0
11
98.204699
21
23.825773
31
0
39
0
210
0
220
0
230
1
0
LINE
5
207
100
AcDbEntity
8
1
62
256
6
ByLayer
370
18
48
1
60
0
100
AcDbLine
10
98.204699
20
23.825773
30
0
11
85.276577
21
23.825773
31
0
39
0
210
0
220
0
230
1
0
LINE
5
208
100
AcDbEntity
8
1
62
256
6
ByLayer
370
18
48
1
60
0
100
AcDbLine
10
113.854256
20
-25.70481
30
0
11
111.232316
21
-21.529093
31
0
39
0
210
0
220
0
230
1
0
LINE
5
209
100
AcDbEntity
8
1
62
256
6
ByLayer
370
18
48
1
60
0
100
AcDbLine
10
115.204699
20
-20.889363
30
0
11
108.584498
21
-9.559313
31
0
39
0
210
0
220
0
230
1
0
LINE
5
20A
100
AcDbEntity
8
1
62
256
6
ByLayer
370
18
48
1
60
0
100
AcDbLine
10
105.904182
20
-4.743635
30
0
11
105.703209
21
-11.799555
31
0
39
0
210
0
220
0
230
1
0
LINE
5
20B
100
AcDbEntity
8
1
62
256
6
ByLayer
370
18
48
1
60
0
100
AcDbLine
10
85.276577
20
-2.82604
30
0
11
85.276577
21
23.825773
31
0
39
0
210
0
220
0
230
1
0
LINE
5
20C
100
AcDbEntity
8
1
62
256
6
ByLayer
370
18
48
1
60
0
100
AcDbLine
10
115.067698
20
-32.869176
30
0
11
115.204464
21
-32.282474
31
0
39
0
210
0
220
0
230
1
0
LINE
5
20D
100
AcDbEntity
8
1
62
256
6
ByLayer
370
18
48
1
60
0
100
AcDbLine
10
98.204699
20
-2.82604
30
0
11
105.703209
21
-11.799555
31
0
39
0
210
0
220
0
230
1
0
LINE
5
20E
100
AcDbEntity
8
1
62
256
6
ByLayer
370
18
48
1
60
0
100
AcDbLine
10
113.787503
20
-36.294693
30
0
11
113.978345
21
-36.236863
31
0
39
0
210
0
220
0
230
1
0
LINE
5
20F
100
AcDbEntity
8
1
62
256
6
ByLayer
370
18
48
1
60
0
100
AcDbLine
10
113.854256
20
-25.70481
30
0
11
110.860295
21
-25.327839
31
0
39
0
210
0
220
0
230
1
0
LINE
5
210
100
AcDbEntity
8
1
62
256
6
ByLayer
370
18
48
1
60
0
100
AcDbLine
10
88.575869
20
-28.995818
30
0
11
87.589645
21
-22.316196
31
0
39
0
210
0
220
0
230
1
0
LINE
5
211
100
AcDbEntity
8
1
62
256
6
ByLayer
370
18
48
1
60
0
100
AcDbLine
10
103.330168
20
-39.459446
30
0
11
103.24349
21
-40.344527
31
0
39
0
210
0
220
0
230
1
0
LINE
5
212
100
AcDbEntity
8
1
62
256
6
ByLayer
370
18
48
1
60
0
100
AcDbLine
10
103.960341
20
-38.852513
30
0
11
104.593535
21
-36.056953
31
0
39
0
210
0
220
0
230
1
0
LINE
5
213
100
AcDbEntity
8
1
62
256
6
ByLayer
370
18
48
1
60
0
100
AcDbLine
10
111.232316
20
-21.529093
30
0
11
110.860295
21
-25.327839
31
0
39
0
210
0
220
0
230
1
0
LINE
5
214
100
AcDbEntity
8
1
62
256
6
ByLayer
370
18
48
1
60
0
100
AcDbLine
10
113.69046
20
-37.202333
30
0
11
114.085499
21
-37.082626
31
0
39
0
210
0
220
0
230
1
0
LINE
5
215
100
AcDbEntity
8
1
62
256
6
ByLayer
370
18
48
1
60
0
100
AcDbLine
10
107.95784
20
-26.185547
30
0
11
108.502908
21
-20.619804
31
0
39
0
210
0
220
0
230
1
0
LINE
5
216
100
AcDbEntity
8
1
62
256
6
ByLayer
370
18
48
1
60
0
100
AcDbLine
10
86.058744
20
-31.842626
30
0
11
85.954976
21
-31.772732
31
0
39
0
210
0
220
0
230
1
0
LINE
5
217
100
AcDbEntity
8
1
62
256
6
ByLayer
370
18
48
1
60
0
100
AcDbLine
10
113.341318
20
-28.002374
30
0
11
113.854256
21
-25.801969
31
0
39
0
210
0
220
0
230
1
0
LINE
5
218
100
AcDbEntity
8
1
62
256
6
ByLayer
370
18
48
1
60
0
100
AcDbLine
10
112.15649
20
-28.361408
30
0
11
113.787503
21
-36.294693
31
0
39
0
210
0
220
0
230
1
0
LINE
5
219
100
AcDbEntity
8
1
62
256
6
ByLayer
370
18
48
1
60
0
100
AcDbLine
10
115.070375
20
-32.934677
30
0
11
115.052929
21
-32.93248
31
0
39
0
210
0
220
0
230
1
0
LINE
5
21A
100
AcDbEntity
8
1
62
256
6
ByLayer
370
18
48
1
60
0
100
AcDbLine
10
103.364994
20
-39.305692
30
0
11
103.330168
21
-39.459446
31
0
39
0
210
0
220
0
230
1
0
LINE
5
21B
100
AcDbEntity
8
1
62
256
6
ByLayer
370
18
48
1
60
0
100
AcDbLine
10
103.537124
20
-39.048132
30
0
11
103.24349
21
-40.344527
31
0
39
0
210
0
220
0
230
1
0
LINE
5
21C
100
AcDbEntity
8
1
62
256
6
ByLayer
370
18
48
1
60
0
100
AcDbLine
10
113.341318
20
-28.002374
30
0
11
113.978345
21
-36.236863
31
0
39
0
210
0
220
0
230
1
0
LINE
5
21D
100
AcDbEntity
8
1
62
256
6
ByLayer
370
18
48
1
60
0
100
AcDbLine
10
115.204464
20
-32.282474
30
0
11
115.113794
21
-33.208317
31
0
39
0
210
0
220
0
230
1
0
LINE
5
21E
100
AcDbEntity
8
1
62
256
6
ByLayer
370
18
48
1
60
0
100
AcDbLine
10
115.204699
20
-20.889363
30
0
11
115.204699
21
-23.023257
31
0
39
0
210
0
220
0
230
1
0
MTEXT
5
3F1
100
AcDbEntity
8
SK6
62
256
6
ByLayer
370
18
48
1
60
0
100
AcDbMText
10
120.75
20
100.75
30
0
210
0
220
0
230
1
1
\W0.7423;BR30-214SP12Y-C8
40
3
41
0
44
1.084337
50
0
71
7
72
5
7
iso_b_vert
0
MTEXT
5
3F5
100
AcDbEntity
8
2
62
256
6
ByLayer
370
18
48
1
60
0
100
AcDbMText
10
150.75
20
-14.1
30
0
210
0
220
0
230
1
1
\W0.7883;Dc = 189.0 - 214.0
40
3
41
0
44
1.084337
50
89.9999999999993
71
7
72
5
7
iso_b_vert
0
DIMENSION
5
402
100
AcDbEntity
8
SK2
62
256
6
ByLayer
370
13
48
1
60
0
100
AcDbDimension
2
DimnDraft3D1
10
-75.5
20
-40
30
0
11
-75
21
-2.889474
31
0
70
33
71
5
72
1
41
1
210
0
220
0
230
1
3
Standard
100
AcDbAlignedDimension
13
-1.7
23
40
33
0
14
-1.7
24
-40
34
0
1001
ACAD
1000
DSTYLE
1002
{
1070
   279
1070
     0
1070
    74
1070
     0
1070
   173
1070
     1
1070
   340
1005
3F2
1070
   271
1070
     0
1070
   272
1070
     3
1070
    77
1070
     1
1070
    73
1070
     0
1070
   171
1070
     4
1070
   274
1070
     4
1070
   177
1070
     7
1070
   176
1070
     7
1070
   178
1070
     7
1070
    78
1070
     8
1070
    41
1041
3.175
1070
   147
1041
1.5
1070
    42
1041
2.0
1070
    44
1041
2.0
1070
   140
1041
3.0
1070
   343
1005
0
1070
   344
1005
0
1002
}
0
DIMENSION
5
40C
100
AcDbEntity
8
2
62
256
6
ByLayer
370
13
48
1
60
0
100
AcDbDimension
2
DimnDraft3D2
10
151.5
20
-94.5
30
0
11
151.5
21
-0.434211
31
0
70
32
71
5
72
1
41
1
210
0
220
0
230
1
3
Standard
100
AcDbAlignedDimension
13
117
23
94.5
33
0
14
116.196755
24
-94.5
34
0
50
90
100
AcDbRotatedDimension
1001
ACAD
1000
DSTYLE
1002
{
1070
    74
1070
     0
1070
   279
1070
     0
1070
   172
1070
     1
1070
   173
1070
     1
1070
   340
1005
3F2
1070
   272
1070
     3
1070
    77
1070
     1
1070
    73
1070
     0
1070
   171
1070
     4
1070
   274
1070
     4
1070
   177
1070
     7
1070
   176
1070
     7
1070
   178
1070
     7
1070
    78
1070
     8
1070
    41
1041
3.175
1070
   147
1041
1.5
1070
    42
1041
2.0
1070
    44
1041
2.0
1070
   140
1041
3.0
1070
   343
1005
0
1070
   344
1005
0
1002
}
0
DIMENSION
5
416
100
AcDbEntity
8
2
62
256
6
ByLayer
370
13
48
1
60
0
100
AcDbDimension
2
DimnDraft3D3
10
116
20
94.5
30
0
11
129.963948
21
81.030631
31
0
70
34
71
5
72
1
41
1
210
0
220
0
230
1
3
Standard
100
AcDb2LineAngularDimension
13
116.199096
23
83.136073
33
0
14
115.114342
24
93.456814
34
0
15
115
25
94.5
35
0
16
132.193383
26
79.02324
36
0
40
0
0
DIMENSION
5
420
100
AcDbEntity
8
2
62
256
6
ByLayer
370
13
48
1
60
0
100
AcDbDimension
2
DimnDraft3D4
10
115
20
118.5
30
0
11
55.396053
21
118.5
31
0
70
32
71
5
72
1
41
1
210
0
220
0
230
1
3
Standard
100
AcDbAlignedDimension
13
0
23
41.6925
33
0
14
115
24
96.5
34
0
50
0
100
AcDbRotatedDimension
1001
ACAD
1000
DSTYLE
1002
{
1070
   279
1070
     0
1070
   172
1070
     1
1070
   173
1070
     1
1070
   340
1005
3F2
1070
   271
1070
     0
1070
   272
1070
     3
1070
    77
1070
     1
1070
    73
1070
     0
1070
   171
1070
     4
1070
   274
1070
     4
1070
   177
1070
     7
1070
   176
1070
     7
1070
   178
1070
     7
1070
    78
1070
     8
1070
    41
1041
3.175
1070
   147
1041
1.5
1070
    42
1041
2.0
1070
    44
1041
2.0
1070
   140
1041
3.0
1070
   343
1005
0
1070
   344
1005
0
1002
}
0
DIMENSION
5
42A
100
AcDbEntity
8
SK2
62
256
6
ByLayer
370
13
48
1
60
0
100
AcDbDimension
2
DimnDraft3D5
10
115
20
133.5
30
0
11
31.021053
21
133.5
31
0
70
32
71
5
72
1
41
1
210
0
220
0
230
1
3
Standard
100
AcDbAlignedDimension
13
-48
23
27.499074
33
0
14
115
24
96.5
34
0
50
0
100
AcDbRotatedDimension
1001
ACAD
1000
DSTYLE
1002
{
1070
   279
1070
     0
1070
   172
1070
     1
1070
   173
1070
     1
1070
   340
1005
3F2
1070
   271
1070
     0
1070
   272
1070
     3
1070
    77
1070
     1
1070
    73
1070
     0
1070
   171
1070
     4
1070
   274
1070
     4
1070
   177
1070
     7
1070
   176
1070
     7
1070
   178
1070
     7
1070
    78
1070
     8
1070
    41
1041
3.175
1070
   147
1041
1.5
1070
    42
1041
2.0
1070
    44
1041
2.0
1070
   140
1041
3.0
1070
   343
1005
0
1070
   344
1005
0
1002
}
0
ENDSEC
0
SECTION
2
OBJECTS
0
DICTIONARY
5
49e
330
0
100
AcDbDictionary
280
0
281
1
3
ACAD_GROUP
350
49f
3
ACAD_GROUP
350
4a0
3
ACAD_MLINESTYLE
350
4a1
0
DICTIONARY
5
49f
330
0
100
AcDbDictionary
280
0
281
1
0
DICTIONARY
5
4a0
330
0
100
AcDbDictionary
280
0
281
1
3
_DC
350
436
3
_DC_55
350
435
3
<200931852NDI000_00>
350
439
3
<200931852NDI000_00>9
350
43A
3
<200937550NDI000_00>
350
437
3
<200937550NDI000_00>7
350
438
3
<200938396MOD000_00>
350
433
3
R820G_BR24SCFC12A_A1
350
434
0
DICTIONARY
5
4a1
330
0
100
AcDbDictionary
280
0
281
1
3
Standard
350
18
0
GROUP
5
436
330
4a0
100
AcDbGroup
300

70
0
71
1
340
3F5
0
GROUP
5
435
330
4a0
100
AcDbGroup
300

70
0
71
1
340
3F5
340
3F5
0
GROUP
5
439
330
4a0
100
AcDbGroup
300

70
0
71
1
340
A8
340
A9
340
AA
340
AB
0
GROUP
5
43A
330
4a0
100
AcDbGroup
300

70
0
71
1
340
AE
340
AF
340
B0
340
B1
340
B2
340
B3
340
B4
340
B5
340
B6
340
B7
340
B8
340
B9
340
BA
340
BB
340
BC
340
BD
340
BE
340
BF
340
C0
340
C1
340
C2
340
C3
340
C4
340
C5
340
C6
340
C7
340
C8
340
C9
340
CA
340
CB
340
CC
340
CD
340
CE
340
CF
340
D0
340
D1
340
D2
340
D3
340
D4
340
D5
340
D6
340
D7
340
D8
340
D9
340
DA
340
DB
340
DC
340
DD
340
DE
340
DF
340
E0
340
E1
340
E2
340
E3
340
E4
340
E5
340
E6
340
E7
340
E8
340
E9
340
EA
340
EB
340
EC
340
ED
340
EE
340
EF
340
F0
340
F1
340
F2
340
F3
340
F4
340
F5
340
F6
340
F7
340
F8
340
F9
340
FA
340
FB
340
FC
340
FD
340
FE
340
FF
340
100
340
101
340
102
340
103
340
104
340
105
340
106
340
107
340
108
340
109
340
10A
340
10B
340
10C
340
10D
340
10E
340
10F
340
110
340
111
340
112
340
113
340
114
340
115
340
116
340
117
340
118
340
119
340
11A
340
11B
340
11C
340
11D
340
11E
340
11F
340
120
340
121
340
122
340
123
340
124
340
125
340
126
340
127
340
128
340
129
340
12A
340
12B
340
12C
340
12D
340
12E
340
12F
340
130
340
131
340
132
340
133
340
134
340
135
340
136
340
137
340
138
340
139
340
13A
340
13B
340
13C
340
13D
340
13E
340
13F
340
140
340
141
340
142
340
143
340
144
340
145
340
146
340
147
340
148
340
149
340
14A
340
14B
340
14C
340
14D
340
14E
340
14F
340
150
340
151
340
152
340
153
340
154
340
155
340
156
340
157
340
158
340
159
340
15A
340
15B
340
15C
340
15D
340
15E
340
15F
340
160
340
161
340
162
340
163
340
164
340
165
340
166
340
167
340
168
340
169
340
16A
340
16B
340
16C
340
16D
340
16E
340
16F
340
170
340
171
340
172
340
173
340
174
340
175
340
176
340
177
340
178
340
179
340
17A
340
17B
340
17C
340
17D
340
17E
340
17F
340
180
340
181
340
182
340
183
340
184
340
185
340
186
340
187
340
188
340
189
340
18A
340
18B
340
18C
340
18D
340
18E
340
18F
340
190
340
191
340
192
340
193
340
194
340
195
340
196
340
197
340
198
340
199
340
19A
340
19B
340
19C
340
19D
340
19E
340
19F
340
1A0
340
1A1
340
1A2
340
1A3
340
1A4
340
1A5
340
1A6
340
1A7
340
1A8
340
1A9
340
1AA
340
1AB
340
1AC
340
1AD
340
1AE
340
1AF
340
1B0
340
1B1
340
1B2
340
1B3
340
1B4
340
1B5
340
1B6
340
1B7
340
1B8
340
1B9
340
1BA
340
1BB
340
1BC
340
1BD
340
1BE
340
1BF
340
1C0
340
1C1
340
1C2
340
1C3
340
1C4
340
1C5
340
1C6
340
1C7
340
1C8
340
1C9
340
1CA
340
1CB
340
1CC
340
1CD
340
1CE
340
1CF
340
1D0
340
1D1
340
1D2
340
1D3
340
1D4
340
1D5
340
1D6
340
1D7
340
1D8
340
1D9
340
1DA
340
1DB
340
1DC
340
1DD
340
1DE
340
1DF
340
1E0
340
1E1
340
1E2
340
1E3
340
1E4
340
1E5
340
1E6
340
1E7
340
1E8
340
1E9
340
1EA
340
1EB
340
1EC
340
1ED
340
1EE
340
1EF
340
1F0
340
1F1
340
1F2
340
1F3
340
1F4
340
1F5
340
1F6
340
1F7
340
1F8
340
1F9
340
1FA
340
1FB
340
1FC
340
1FD
340
1FE
340
1FF
340
200
340
201
340
202
340
203
340
204
340
205
340
206
340
207
340
208
340
209
340
20A
340
20B
340
20C
340
20D
340
20E
340
20F
340
210
340
211
340
212
340
213
340
214
340
215
340
216
340
217
340
218
340
219
340
21A
340
21B
340
21C
340
21D
340
21E
340
261
340
262
340
263
340
264
340
265
340
266
340
267
340
268
340
269
340
273
340
274
340
275
340
276
340
277
340
278
340
279
340
27A
340
27B
340
27C
340
27D
340
27E
340
27F
340
280
340
281
340
282
340
283
340
284
340
285
340
286
340
287
340
288
340
289
340
28A
340
28B
340
28C
340
28D
340
28E
340
28F
340
290
340
291
340
292
340
293
340
294
340
295
340
296
340
297
340
298
340
299
340
29A
340
29B
340
29C
340
29D
340
29E
340
29F
340
2A0
340
2A1
340
2A2
340
2A3
340
2A4
340
2A5
340
2A6
340
2A7
340
2A8
340
2A9
340
2AA
340
2AB
340
2AC
340
2AD
340
2AE
340
2AF
340
2B0
340
2B1
340
2B2
340
2B3
340
2B4
340
2B5
340
2B6
340
2B7
340
2B8
340
2B9
340
2BA
340
2BB
340
2BC
340
2BD
340
2BE
340
2BF
340
2C0
340
2C1
340
2C2
340
2C3
340
2C4
340
2C5
340
2C6
340
2C7
340
2C8
340
2C9
340
2CA
340
2CB
340
2CC
340
2CD
340
2CE
340
2CF
340
2D0
340
2D1
340
2D2
340
2D3
340
2D4
340
2D5
340
2D6
340
2D7
340
2D8
340
2D9
340
2DA
340
2DB
340
2DC
340
2DD
340
2DE
340
2DF
340
2E0
340
2E1
340
2E2
340
2E3
340
2E4
340
2E5
340
2E6
340
2E7
340
2E8
340
2E9
340
2EA
340
2EB
340
2EC
340
2ED
340
2EE
340
2EF
340
2F0
340
2F1
340
2F2
340
2F3
340
2F4
340
2F5
340
2F6
340
2F7
340
2F8
340
2F9
340
2FA
340
2FB
340
2FC
340
2FD
340
2FE
340
2FF
340
300
340
301
340
302
340
303
340
304
340
305
340
306
340
307
340
308
340
309
340
30A
340
30B
340
30C
340
30D
340
30E
340
30F
340
310
340
311
340
312
340
313
340
314
340
315
340
316
340
317
340
318
340
319
340
31A
340
31B
340
31C
340
31D
340
31E
340
31F
340
320
340
321
340
322
340
323
340
324
340
325
340
326
340
327
340
328
340
329
340
32A
340
32B
340
32C
340
32D
340
32E
340
32F
340
330
340
331
340
332
340
333
340
334
340
335
340
336
340
337
340
338
340
339
340
33A
340
33B
340
33C
340
33D
340
33E
340
33F
340
340
340
341
340
342
340
343
340
344
340
345
340
346
340
347
340
348
340
349
340
34A
340
34B
340
34C
340
34D
340
34E
340
34F
340
350
340
351
340
352
340
353
340
354
340
355
340
356
340
357
340
358
340
359
340
35A
340
35B
340
35C
340
35D
340
35E
340
35F
340
360
340
361
340
362
340
363
340
364
340
365
340
366
340
367
340
368
340
369
340
36A
340
36B
340
36C
340
36D
340
36E
340
36F
340
370
340
371
340
372
340
373
340
374
340
375
340
376
340
377
340
378
340
379
340
37A
340
37B
340
37C
340
37D
340
37E
340
37F
340
380
340
381
340
382
340
383
340
384
340
385
340
386
340
387
340
388
340
389
340
38A
340
38B
340
38C
340
38D
340
38E
340
38F
340
390
340
391
340
392
340
393
340
394
340
395
340
396
340
397
340
398
340
399
340
39A
340
39B
340
39C
340
39D
340
39E
340
39F
340
3A0
340
3A1
340
3A2
340
3A3
340
3A4
340
3A5
340
3A6
340
3A7
340
3A8
340
3A9
340
3AA
340
3AB
340
3AC
340
3AD
340
3AE
340
3AF
340
3B0
340
3B1
340
3B2
340
3B3
340
3B4
340
3B5
340
3B6
340
3B7
340
3B8
340
3B9
340
3BA
340
3BB
340
3BC
340
3BD
340
3BE
340
3BF
340
3C0
340
3C1
340
3C2
340
3C3
340
3C4
340
3C5
340
3C6
340
3C7
340
3C8
340
3C9
340
3CA
340
3CB
340
3CC
340
3CD
340
3CE
340
3CF
340
3D0
340
3D1
340
3D2
340
3D3
340
3D4
340
3D5
340
3D6
340
3D7
340
3D8
340
3D9
340
3DA
340
3DB
340
3DC
340
3DD
340
3DE
340
3DF
340
3E0
340
3E1
340
3E2
340
3E3
340
3E4
340
3E5
340
3E6
340
3E7
340
3E8
340
3E9
340
3EA
340
3EB
340
3EC
340
3ED
340
3EE
340
3EF
340
3F0
0
GROUP
5
437
330
4a0
100
AcDbGroup
300

70
0
71
1
340
A0
340
A1
340
A2
340
A3
0
GROUP
5
438
330
4a0
100
AcDbGroup
300

70
0
71
1
340
A4
340
A5
340
A6
340
A7
0
GROUP
5
433
330
4a0
100
AcDbGroup
300

70
0
71
1
340
6C
340
6E
340
70
340
72
340
73
340
74
340
75
340
76
340
77
340
79
340
7A
340
7B
340
7C
340
7D
340
7E
340
7F
340
81
340
83
340
84
340
85
340
86
340
87
340
88
340
89
340
8A
340
8B
340
8C
340
8D
340
8E
340
8F
340
90
340
91
340
92
340
93
340
94
340
95
340
96
340
97
340
98
340
99
340
9A
340
9B
340
9C
340
9D
340
9E
340
9F
340
A0
340
A1
340
A2
340
A3
340
A4
340
A5
340
A6
340
A7
340
A8
340
A9
340
AA
340
AB
340
AC
340
AD
340
AE
340
AF
340
B0
340
B1
340
B2
340
B3
340
B4
340
B5
340
B6
340
B7
340
B8
340
B9
340
BA
340
BB
340
BC
340
BD
340
BE
340
BF
340
C0
340
C1
340
C2
340
C3
340
C4
340
C5
340
C6
340
C7
340
C8
340
C9
340
CA
340
CB
340
CC
340
CD
340
CE
340
CF
340
D0
340
D1
340
D2
340
D3
340
D4
340
D5
340
D6
340
D7
340
D8
340
D9
340
DA
340
DB
340
DC
340
DD
340
DE
340
DF
340
E0
340
E1
340
E2
340
E3
340
E4
340
E5
340
E6
340
E7
340
E8
340
E9
340
EA
340
EB
340
EC
340
ED
340
EE
340
EF
340
F0
340
F1
340
F2
340
F3
340
F4
340
F5
340
F6
340
F7
340
F8
340
F9
340
FA
340
FB
340
FC
340
FD
340
FE
340
FF
340
100
340
101
340
102
340
103
340
104
340
105
340
106
340
107
340
108
340
109
340
10A
340
10B
340
10C
340
10D
340
10E
340
10F
340
110
340
111
340
112
340
113
340
114
340
115
340
116
340
117
340
118
340
119
340
11A
340
11B
340
11C
340
11D
340
11E
340
11F
340
120
340
121
340
122
340
123
340
124
340
125
340
126
340
127
340
128
340
129
340
12A
340
12B
340
12C
340
12D
340
12E
340
12F
340
130
340
131
340
132
340
133
340
134
340
135
340
136
340
137
340
138
340
139
340
13A
340
13B
340
13C
340
13D
340
13E
340
13F
340
140
340
141
340
142
340
143
340
144
340
145
340
146
340
147
340
148
340
149
340
14A
340
14B
340
14C
340
14D
340
14E
340
14F
340
150
340
151
340
152
340
153
340
154
340
155
340
156
340
157
340
158
340
159
340
15A
340
15B
340
15C
340
15D
340
15E
340
15F
340
160
340
161
340
162
340
163
340
164
340
165
340
166
340
167
340
168
340
169
340
16A
340
16B
340
16C
340
16D
340
16E
340
16F
340
170
340
171
340
172
340
173
340
174
340
175
340
176
340
177
340
178
340
179
340
17A
340
17B
340
17C
340
17D
340
17E
340
17F
340
180
340
181
340
182
340
183
340
184
340
185
340
186
340
187
340
188
340
189
340
18A
340
18B
340
18C
340
18D
340
18E
340
18F
340
190
340
191
340
192
340
193
340
194
340
195
340
196
340
197
340
198
340
199
340
19A
340
19B
340
19C
340
19D
340
19E
340
19F
340
1A0
340
1A1
340
1A2
340
1A3
340
1A4
340
1A5
340
1A6
340
1A7
340
1A8
340
1A9
340
1AA
340
1AB
340
1AC
340
1AD
340
1AE
340
1AF
340
1B0
340
1B1
340
1B2
340
1B3
340
1B4
340
1B5
340
1B6
340
1B7
340
1B8
340
1B9
340
1BA
340
1BB
340
1BC
340
1BD
340
1BE
340
1BF
340
1C0
340
1C1
340
1C2
340
1C3
340
1C4
340
1C5
340
1C6
340
1C7
340
1C8
340
1C9
340
1CA
340
1CB
340
1CC
340
1CD
340
1CE
340
1CF
340
1D0
340
1D1
340
1D2
340
1D3
340
1D4
340
1D5
340
1D6
340
1D7
340
1D8
340
1D9
340
1DA
340
1DB
340
1DC
340
1DD
340
1DE
340
1DF
340
1E0
340
1E1
340
1E2
340
1E3
340
1E4
340
1E5
340
1E6
340
1E7
340
1E8
340
1E9
340
1EA
340
1EB
340
1EC
340
1ED
340
1EE
340
1EF
340
1F0
340
1F1
340
1F2
340
1F3
340
1F4
340
1F5
340
1F6
340
1F7
340
1F8
340
1F9
340
1FA
340
1FB
340
1FC
340
1FD
340
1FE
340
1FF
340
200
340
201
340
202
340
203
340
204
340
205
340
206
340
207
340
208
340
209
340
20A
340
20B
340
20C
340
20D
340
20E
340
20F
340
210
340
211
340
212
340
213
340
214
340
215
340
216
340
217
340
218
340
219
340
21A
340
21B
340
21C
340
21D
340
21E
340
21F
340
220
340
221
340
222
340
223
340
224
340
225
340
226
340
227
340
228
340
229
340
22A
340
22B
340
22C
340
22D
340
22E
340
22F
340
230
340
231
340
232
340
233
340
234
340
235
340
236
340
237
340
238
340
239
340
23A
340
23B
340
23C
340
23D
340
23E
340
23F
340
240
340
241
340
242
340
243
340
244
340
245
340
246
340
247
340
248
340
249
340
24A
340
24B
340
24C
340
24D
340
24E
340
24F
340
250
340
251
340
252
340
253
340
254
340
255
340
256
340
257
340
258
340
259
340
25A
340
25B
340
25C
340
25D
340
25E
340
25F
340
260
340
261
340
262
340
263
340
264
340
265
340
266
340
267
340
268
340
269
340
26A
340
26B
340
26C
340
26D
340
26E
340
26F
340
270
340
271
340
272
340
273
340
274
340
275
340
276
340
277
340
278
340
279
340
27A
340
27B
340
27C
340
27D
340
27E
340
27F
340
280
340
281
340
282
340
283
340
284
340
285
340
286
340
287
340
288
340
289
340
28A
340
28B
340
28C
340
28D
340
28E
340
28F
340
290
340
291
340
292
340
293
340
294
340
295
340
296
340
297
340
298
340
299
340
29A
340
29B
340
29C
340
29D
340
29E
340
29F
340
2A0
340
2A1
340
2A2
340
2A3
340
2A4
340
2A5
340
2A6
340
2A7
340
2A8
340
2A9
340
2AA
340
2AB
340
2AC
340
2AD
340
2AE
340
2AF
340
2B0
340
2B1
340
2B2
340
2B3
340
2B4
340
2B5
340
2B6
340
2B7
340
2B8
340
2B9
340
2BA
340
2BB
340
2BC
340
2BD
340
2BE
340
2BF
340
2C0
340
2C1
340
2C2
340
2C3
340
2C4
340
2C5
340
2C6
340
2C7
340
2C8
340
2C9
340
2CA
340
2CB
340
2CC
340
2CD
340
2CE
340
2CF
340
2D0
340
2D1
340
2D2
340
2D3
340
2D4
340
2D5
340
2D6
340
2D7
340
2D8
340
2D9
340
2DA
340
2DB
340
2DC
340
2DD
340
2DE
340
2DF
340
2E0
340
2E1
340
2E2
340
2E3
340
2E4
340
2E5
340
2E6
340
2E7
340
2E8
340
2E9
340
2EA
340
2EB
340
2EC
340
2ED
340
2EE
340
2EF
340
2F0
340
2F1
340
2F2
340
2F3
340
2F4
340
2F5
340
2F6
340
2F7
340
2F8
340
2F9
340
2FA
340
2FB
340
2FC
340
2FD
340
2FE
340
2FF
340
300
340
301
340
302
340
303
340
304
340
305
340
306
340
307
340
308
340
309
340
30A
340
30B
340
30C
340
30D
340
30E
340
30F
340
310
340
311
340
312
340
313
340
314
340
315
340
316
340
317
340
318
340
319
340
31A
340
31B
340
31C
340
31D
340
31E
340
31F
340
320
340
321
340
322
340
323
340
324
340
325
340
326
340
327
340
328
340
329
340
32A
340
32B
340
32C
340
32D
340
32E
340
32F
340
330
340
331
340
332
340
333
340
334
340
335
340
336
340
337
340
338
340
339
340
33A
340
33B
340
33C
340
33D
340
33E
340
33F
340
340
340
341
340
342
340
343
340
344
340
345
340
346
340
347
340
348
340
349
340
34A
340
34B
340
34C
340
34D
340
34E
340
34F
340
350
340
351
340
352
340
353
340
354
340
355
340
356
340
357
340
358
340
359
340
35A
340
35B
340
35C
340
35D
340
35E
340
35F
340
360
340
361
340
362
340
363
340
364
340
365
340
366
340
367
340
368
340
369
340
36A
340
36B
340
36C
340
36D
340
36E
340
36F
340
370
340
371
340
372
340
373
340
374
340
375
340
376
340
377
340
378
340
379
340
37A
340
37B
340
37C
340
37D
340
37E
340
37F
340
380
340
381
340
382
340
383
340
384
340
385
340
386
340
387
340
388
340
389
340
38A
340
38B
340
38C
340
38D
340
38E
340
38F
340
390
340
391
340
392
340
393
340
394
340
395
340
396
340
397
340
398
340
399
340
39A
340
39B
340
39C
340
39D
340
39E
340
39F
340
3A0
340
3A1
340
3A2
340
3A3
340
3A4
340
3A5
340
3A6
340
3A7
340
3A8
340
3A9
340
3AA
340
3AB
340
3AC
340
3AD
340
3AE
340
3AF
340
3B0
340
3B1
340
3B2
340
3B3
340
3B4
340
3B5
340
3B6
340
3B7
340
3B8
340
3B9
340
3BA
340
3BB
340
3BC
340
3BD
340
3BE
340
3BF
340
3C0
340
3C1
340
3C2
340
3C3
340
3C4
340
3C5
340
3C6
340
3C7
340
3C8
340
3C9
340
3CA
340
3CB
340
3CC
340
3CD
340
3CE
340
3CF
340
3D0
340
3D1
340
3D2
340
3D3
340
3D4
340
3D5
340
3D6
340
3D7
340
3D8
340
3D9
340
3DA
340
3DB
340
3DC
340
3DD
340
3DE
340
3DF
340
3E0
340
3E1
340
3E2
340
3E3
340
3E4
340
3E5
340
3E6
340
3E7
340
3E8
340
3E9
340
3EA
340
3EB
340
3EC
340
3ED
340
3EE
340
3EF
340
3F0
340
6E
340
9F
340
3F5
340
3F5
340
3F5
340
3F1
340
3F5
340
40C
340
416
340
3F5
340
3F5
340
3F5
340
A0
340
A1
340
A2
340
A3
340
A4
340
A5
340
A6
340
A7
340
A8
340
A9
340
AA
340
AB
340
AE
340
AF
340
B0
340
B1
340
B2
340
B3
340
B4
340
B5
340
B6
340
B7
340
B8
340
B9
340
BA
340
BB
340
BC
340
BD
340
BE
340
BF
340
C0
340
C1
340
C2
340
C3
340
C4
340
C5
340
C6
340
C7
340
C8
340
C9
340
CA
340
CB
340
CC
340
CD
340
CE
340
CF
340
D0
340
D1
340
D2
340
D3
340
D4
340
D5
340
D6
340
D7
340
D8
340
D9
340
DA
340
DB
340
DC
340
DD
340
DE
340
DF
340
E0
340
E1
340
E2
340
E3
340
E4
340
E5
340
E6
340
E7
340
E8
340
E9
340
EA
340
EB
340
EC
340
ED
340
EE
340
EF
340
F0
340
F1
340
F2
340
F3
340
F4
340
F5
340
F6
340
F7
340
F8
340
F9
340
FA
340
FB
340
FC
340
FD
340
FE
340
FF
340
100
340
101
340
102
340
103
340
104
340
105
340
106
340
107
340
108
340
109
340
10A
340
10B
340
10C
340
10D
340
10E
340
10F
340
110
340
111
340
112
340
113
340
114
340
115
340
116
340
117
340
118
340
119
340
11A
340
11B
340
11C
340
11D
340
11E
340
11F
340
120
340
121
340
122
340
123
340
124
340
125
340
126
340
127
340
128
340
129
340
12A
340
12B
340
12C
340
12D
340
12E
340
12F
340
130
340
131
340
132
340
133
340
134
340
135
340
136
340
137
340
138
340
139
340
13A
340
13B
340
13C
340
13D
340
13E
340
13F
340
140
340
141
340
142
340
143
340
144
340
145
340
146
340
147
340
148
340
149
340
14A
340
14B
340
14C
340
14D
340
14E
340
14F
340
150
340
151
340
152
340
153
340
154
340
155
340
156
340
157
340
158
340
159
340
15A
340
15B
340
15C
340
15D
340
15E
340
15F
340
160
340
161
340
162
340
163
340
164
340
165
340
166
340
167
340
168
340
169
340
16A
340
16B
340
16C
340
16D
340
16E
340
16F
340
170
340
171
340
172
340
173
340
174
340
175
340
176
340
177
340
178
340
179
340
17A
340
17B
340
17C
340
17D
340
17E
340
17F
340
180
340
181
340
182
340
183
340
184
340
185
340
186
340
187
340
188
340
189
340
18A
340
18B
340
18C
340
18D
340
18E
340
18F
340
190
340
191
340
192
340
193
340
194
340
195
340
196
340
197
340
198
340
199
340
19A
340
19B
340
19C
340
19D
340
19E
340
19F
340
1A0
340
1A1
340
1A2
340
1A3
340
1A4
340
1A5
340
1A6
340
1A7
340
1A8
340
1A9
340
1AA
340
1AB
340
1AC
340
1AD
340
1AE
340
1AF
340
1B0
340
1B1
340
1B2
340
1B3
340
1B4
340
1B5
340
1B6
340
1B7
340
1B8
340
1B9
340
1BA
340
1BB
340
1BC
340
1BD
340
1BE
340
1BF
340
1C0
340
1C1
340
1C2
340
1C3
340
1C4
340
1C5
340
1C6
340
1C7
340
1C8
340
1C9
340
1CA
340
1CB
340
1CC
340
1CD
340
1CE
340
1CF
340
1D0
340
1D1
340
1D2
340
1D3
340
1D4
340
1D5
340
1D6
340
1D7
340
1D8
340
1D9
340
1DA
340
1DB
340
1DC
340
1DD
340
1DE
340
1DF
340
1E0
340
1E1
340
1E2
340
1E3
340
1E4
340
1E5
340
1E6
340
1E7
340
1E8
340
1E9
340
1EA
340
1EB
340
1EC
340
1ED
340
1EE
340
1EF
340
1F0
340
1F1
340
1F2
340
1F3
340
1F4
340
1F5
340
1F6
340
1F7
340
1F8
340
1F9
340
1FA
340
1FB
340
1FC
340
1FD
340
1FE
340
1FF
340
200
340
201
340
202
340
203
340
204
340
205
340
206
340
207
340
208
340
209
340
20A
340
20B
340
20C
340
20D
340
20E
340
20F
340
210
340
211
340
212
340
213
340
214
340
215
340
216
340
217
340
218
340
219
340
21A
340
21B
340
21C
340
21D
340
21E
340
261
340
262
340
263
340
264
340
265
340
266
340
267
340
268
340
269
340
273
340
274
340
275
340
276
340
277
340
278
340
279
340
27A
340
27B
340
27C
340
27D
340
27E
340
27F
340
280
340
281
340
282
340
283
340
284
340
285
340
286
340
287
340
288
340
289
340
28A
340
28B
340
28C
340
28D
340
28E
340
28F
340
290
340
291
340
292
340
293
340
294
340
295
340
296
340
297
340
298
340
299
340
29A
340
29B
340
29C
340
29D
340
29E
340
29F
340
2A0
340
2A1
340
2A2
340
2A3
340
2A4
340
2A5
340
2A6
340
2A7
340
2A8
340
2A9
340
2AA
340
2AB
340
2AC
340
2AD
340
2AE
340
2AF
340
2B0
340
2B1
340
2B2
340
2B3
340
2B4
340
2B5
340
2B6
340
2B7
340
2B8
340
2B9
340
2BA
340
2BB
340
2BC
340
2BD
340
2BE
340
2BF
340
2C0
340
2C1
340
2C2
340
2C3
340
2C4
340
2C5
340
2C6
340
2C7
340
2C8
340
2C9
340
2CA
340
2CB
340
2CC
340
2CD
340
2CE
340
2CF
340
2D0
340
2D1
340
2D2
340
2D3
340
2D4
340
2D5
340
2D6
340
2D7
340
2D8
340
2D9
340
2DA
340
2DB
340
2DC
340
2DD
340
2DE
340
2DF
340
2E0
340
2E1
340
2E2
340
2E3
340
2E4
340
2E5
340
2E6
340
2E7
340
2E8
340
2E9
340
2EA
340
2EB
340
2EC
340
2ED
340
2EE
340
2EF
340
2F0
340
2F1
340
2F2
340
2F3
340
2F4
340
2F5
340
2F6
340
2F7
340
2F8
340
2F9
340
2FA
340
2FB
340
2FC
340
2FD
340
2FE
340
2FF
340
300
340
301
340
302
340
303
340
304
340
305
340
306
340
307
340
308
340
309
340
30A
340
30B
340
30C
340
30D
340
30E
340
30F
340
310
340
311
340
312
340
313
340
314
340
315
340
316
340
317
340
318
340
319
340
31A
340
31B
340
31C
340
31D
340
31E
340
31F
340
320
340
321
340
322
340
323
340
324
340
325
340
326
340
327
340
328
340
329
340
32A
340
32B
340
32C
340
32D
340
32E
340
32F
340
330
340
331
340
332
340
333
340
334
340
335
340
336
340
337
340
338
340
339
340
33A
340
33B
340
33C
340
33D
340
33E
340
33F
340
340
340
341
340
342
340
343
340
344
340
345
340
346
340
347
340
348
340
349
340
34A
340
34B
340
34C
340
34D
340
34E
340
34F
340
350
340
351
340
352
340
353
340
354
340
355
340
356
340
357
340
358
340
359
340
35A
340
35B
340
35C
340
35D
340
35E
340
35F
340
360
340
361
340
362
340
363
340
364
340
365
340
366
340
367
340
368
340
369
340
36A
340
36B
340
36C
340
36D
340
36E
340
36F
340
370
340
371
340
372
340
373
340
374
340
375
340
376
340
377
340
378
340
379
340
37A
340
37B
340
37C
340
37D
340
37E
340
37F
340
380
340
381
340
382
340
383
340
384
340
385
340
386
340
387
340
388
340
389
340
38A
340
38B
340
38C
340
38D
340
38E
340
38F
340
390
340
391
340
392
340
393
340
394
340
395
340
396
340
397
340
398
340
399
340
39A
340
39B
340
39C
340
39D
340
39E
340
39F
340
3A0
340
3A1
340
3A2
340
3A3
340
3A4
340
3A5
340
3A6
340
3A7
340
3A8
340
3A9
340
3AA
340
3AB
340
3AC
340
3AD
340
3AE
340
3AF
340
3B0
340
3B1
340
3B2
340
3B3
340
3B4
340
3B5
340
3B6
340
3B7
340
3B8
340
3B9
340
3BA
340
3BB
340
3BC
340
3BD
340
3BE
340
3BF
340
3C0
340
3C1
340
3C2
340
3C3
340
3C4
340
3C5
340
3C6
340
3C7
340
3C8
340
3C9
340
3CA
340
3CB
340
3CC
340
3CD
340
3CE
340
3CF
340
3D0
340
3D1
340
3D2
340
3D3
340
3D4
340
3D5
340
3D6
340
3D7
340
3D8
340
3D9
340
3DA
340
3DB
340
3DC
340
3DD
340
3DE
340
3DF
340
3E0
340
3E1
340
3E2
340
3E3
340
3E4
340
3E5
340
3E6
340
3E7
340
3E8
340
3E9
340
3EA
340
3EB
340
3EC
340
3ED
340
3EE
340
3EF
340
3F0
340
3F1
340
3F5
340
402
340
40C
340
416
340
420
340
42A
0
GROUP
5
434
330
4a0
100
AcDbGroup
300

70
0
71
1
340
6E
340
9F
340
3F5
340
3F5
340
3F5
340
3F1
340
3F5
340
40C
340
416
0
MLINESTYLE
5
18
330
4a1
100
AcDbMlineStyle
2
Standard
70
0
3

62
256
51
90
52
90
71
2
49
-0.5
62
256
6
ByLayer
49
0.5
62
256
6
ByLayer
0
RASTERVARIABLES
5
48b
330

100
AcDbRasterVariables
90
0
70
1
71
1
72
1
0
ENDSEC
0
EOF
