0
SECTION
2
HEADER
9
$ACADVER
1
AC1015
9
$DWGCODEPAGE
3
ANSI_1252
9
$HANDSEED
5
40b
9
$ANGBASE
50
0
9
$ANGDIR
70
0
9
$ATTMODE
70
1
9
$AUNITS
70
0
9
$AUPREC
70
0
9
$CECOLOR
62
256
9
$CELTSCALE
40
1
9
$CELTYPE
6
ByLayer
9
$CELWEIGHT
370
18
9
$CLAYER
8
0
9
$CMLJUST
70
0
9
$CMLSCALE
40
1
9
$CMLSTYLE
2
Standard
9
$DIMSTYLE
2
Standard
9
$TEXTSIZE
40
0.2
9
$TEXTSTYLE
7
Standard
9
$LUNITS
70
2
9
$LUPREC
70
4
9
$EXTNAMES
290
1
9
$INSUNITS
70
4
9
$LTSCALE
40
1
9
$LWDISPLAY
290
1
9
$PDMODE
70
0
9
$PDSIZE
40
0
9
$PLINEGEN
70
0
0
ENDSEC
0
SECTION
2
CLASSES
0
CLASS
1
RASTERVARIABLES
2
AcDbRasterVariables
3
ISM
90
0
280
0
281
0
0
ENDSEC
0
SECTION
2
TABLES
0
TABLE
2
VPORT
5
401
100
AcDbSymbolTable
0
VPORT
5
1
100
AcDbSymbolTableRecord
100
AcDbViewportTableRecord
2
*Active
70
0
10
0
20
0
11
1
21
1
12
-1
22
1
13
0
23
0
14
0.5
24
0.5
15
10
25
10
16
0
26
0
36
1
17
0
27
0
37
0
0
ENDTAB
0
TABLE
2
LTYPE
5
402
100
AcDbSymbolTable
0
LTYPE
5
14
100
AcDbSymbolTableRecord
100
AcDbLinetypeTableRecord
70
0
2
ByBlock
3

72
65
73
0
40
0
0
LTYPE
5
15
100
AcDbSymbolTableRecord
100
AcDbLinetypeTableRecord
70
0
2
ByLayer
3

72
65
73
0
40
0
0
LTYPE
5
16
100
AcDbSymbolTableRecord
100
AcDbLinetypeTableRecord
70
0
2
CONTINUOUS
3
Solid line
72
65
73
0
40
0
0
LTYPE
5
6A
100
AcDbSymbolTableRecord
100
AcDbLinetypeTableRecord
70
0
2
CENTER
3
____ _ ____ _ ____ _ ____
72
65
73
4
40
47.5
49
22
74
0
49
-8.5
74
0
49
8.5
74
0
49
-8.5
74
0
0
LTYPE
5
6B
100
AcDbSymbolTableRecord
100
AcDbLinetypeTableRecord
70
0
2
DASHED
3
__ __ __ __ __ __ __ __ __
72
65
73
2
40
25.72
49
12.86
74
0
49
-12.86
74
0
0
ENDTAB
0
TABLE
2
LAYER
5
403
100
AcDbSymbolTable
0
LAYER
5
10
100
AcDbSymbolTableRecord
100
AcDbLayerTableRecord
2
0
70
0
62
7
6
CONTINUOUS
290
1
370
-3
390
0
0
LAYER
5
6D
100
AcDbSymbolTableRecord
100
AcDbLayerTableRecord
2
80
70
0
62
-6
6
CONTINUOUS
290
1
370
-3
390
0
0
LAYER
5
6F
100
AcDbSymbolTableRecord
100
AcDbLayerTableRecord
2
81
70
0
62
-3
6
CONTINUOUS
290
1
370
-3
390
0
0
LAYER
5
7E
100
AcDbSymbolTableRecord
100
AcDbLayerTableRecord
2
4
70
0
62
-2
6
CENTER
290
1
370
-3
390
0
0
LAYER
5
83
100
AcDbSymbolTableRecord
100
AcDbLayerTableRecord
2
1
70
0
62
4
6
CONTINUOUS
290
1
370
-3
390
0
0
LAYER
5
358
100
AcDbSymbolTableRecord
100
AcDbLayerTableRecord
2
2
70
0
62
7
6
CONTINUOUS
290
1
370
-3
390
0
0
LAYER
5
3eb
100
AcDbSymbolTableRecord
100
AcDbLayerTableRecord
2
SK1
70
0
62
4
6
CONTINUOUS
290
1
370
-3
390
0
0
LAYER
5
3ec
100
AcDbSymbolTableRecord
100
AcDbLayerTableRecord
2
SK4
70
0
62
2
6
CENTER
290
1
370
-3
390
0
0
LAYER
5
3ed
100
AcDbSymbolTableRecord
100
AcDbLayerTableRecord
2
SK6
70
0
62
5
6
CONTINUOUS
290
1
370
-3
390
0
0
LAYER
5
3ee
100
AcDbSymbolTableRecord
100
AcDbLayerTableRecord
2
SK2
70
0
62
7
6
CONTINUOUS
290
1
370
-3
390
0
0
ENDTAB
0
TABLE
2
STYLE
5
404
100
AcDbSymbolTable
0
STYLE
5
11
100
AcDbSymbolTableRecord
100
AcDbTextStyleTableRecord
2
Standard
3
txt
70
0
71
0
40
0
41
1
42
0
50
0
0
STYLE
5
354
100
AcDbSymbolTableRecord
100
AcDbTextStyleTableRecord
2
iso_b_vert
3
simplex.shx
70
0
71
0
40
0
41
1
42
0
50
0
0
STYLE
5
355
100
AcDbSymbolTableRecord
100
AcDbTextStyleTableRecord
2
DWGDirectTextStyle
3
simplex
70
0
71
0
40
0
41
1
42
0
50
0
0
ENDTAB
0
TABLE
2
DIMSTYLE
5
405
100
AcDbSymbolTable
100
AcDbDimStyleTable
0
DIMSTYLE
105
27
100
AcDbSymbolTableRecord
100
AcDbDimStyleTableRecord
2
Standard
70
0
3
<>
41
0.18
42
0.0625
44
0.18
140
0.18
147
0.09
73
0
74
0
77
1
271
2
275
0
278
52
280
0
340
11
0
ENDTAB
0
TABLE
2
VIEW
5
406
100
AcDbSymbolTable
0
ENDTAB
0
TABLE
2
UCS
5
407
100
AcDbSymbolTable
0
ENDTAB
0
TABLE
2
APPID
5
408
100
AcDbSymbolTable
0
APPID
5
12
100
AcDbSymbolTableRecord
100
AcDbRegAppTableRecord
2
ACAD
70
0
0
ENDTAB
0
TABLE
2
BLOCK_RECORD
5
409
100
AcDbSymbolTable
0
BLOCK_RECORD
5
1F
100
AcDbSymbolTableRecord
100
AcDbBlockTableRecord
2
*Model_Space
340
0
70
0
0
BLOCK_RECORD
5
1B
100
AcDbSymbolTableRecord
100
AcDbBlockTableRecord
2
*Paper_Space
340
0
70
0
0
BLOCK_RECORD
5
23
100
AcDbSymbolTableRecord
100
AcDbBlockTableRecord
2
*Paper_Space0
340
0
70
0
0
BLOCK_RECORD
5
359
100
AcDbSymbolTableRecord
100
AcDbBlockTableRecord
2
DimnDraft3D1
340
0
70
0
0
BLOCK_RECORD
5
365
100
AcDbSymbolTableRecord
100
AcDbBlockTableRecord
2
DimnDraft3D2
340
0
70
0
0
BLOCK_RECORD
5
36F
100
AcDbSymbolTableRecord
100
AcDbBlockTableRecord
2
DimnDraft3D3
340
0
70
0
0
BLOCK_RECORD
5
379
100
AcDbSymbolTableRecord
100
AcDbBlockTableRecord
2
DimnDraft3D4
340
0
70
0
0
BLOCK_RECORD
5
383
100
AcDbSymbolTableRecord
100
AcDbBlockTableRecord
2
DimnDraft3D5
340
0
70
0
0
ENDTAB
0
ENDSEC
0
SECTION
2
BLOCKS
0
BLOCK
5
20
100
AcDbEntity
8
0
100
AcDbBlockBegin
2
*Model_Space
70
0
10
0
20
0
30
0
3
*Model_Space
0
ENDBLK
5
21
100
AcDbEntity
8
0
100
AcDbBlockEnd
0
BLOCK
5
1C
100
AcDbEntity
8
0
100
AcDbBlockBegin
2
*Paper_Space
70
0
10
0
20
0
30
0
3
*Paper_Space
0
ENDBLK
5
1D
100
AcDbEntity
8
0
100
AcDbBlockEnd
0
BLOCK
5
24
100
AcDbEntity
8
0
100
AcDbBlockBegin
2
*Paper_Space0
70
0
10
0
20
0
30
0
3
*Paper_Space0
0
ENDBLK
5
25
100
AcDbEntity
8
0
100
AcDbBlockEnd
0
BLOCK
5
362
100
AcDbEntity
8
0
100
AcDbBlockBegin
2
DimnDraft3D1
70
0
10
0
20
0
30
0
3
DimnDraft3D1
0
MTEXT
5
35A
100
AcDbEntity
8
SK2
62
256
6
ByLayer
370
18
48
1
60
0
100
AcDbMText
10
-66.847843
20
-2.139474
30
0
210
0
220
0
230
1
1
\W0.8132;%%c 80
40
3
41
0
44
1.084337
50
90
71
7
72
5
7
iso_b_vert
0
MTEXT
5
35C
100
AcDbEntity
8
SK2
62
256
6
ByLayer
370
18
48
1
60
0
100
AcDbMText
10
-66.847843
20
-4.507895
30
0
210
0
220
0
230
1
1
\W0.3160; 
40
3
41
0
44
1.084337
50
90
71
7
72
5
7
iso_b_vert
0
LINE
5
35D
100
AcDbEntity
8
SK2
62
256
6
ByLayer
370
13
48
1
60
0
100
AcDbLine
10
-1.7
20
40
30
0
11
-68.097843
21
40
31
0
39
0
210
0
220
0
230
1
0
LINE
5
35E
100
AcDbEntity
8
SK2
62
256
6
ByLayer
370
13
48
1
60
0
100
AcDbLine
10
-1.7
20
-40
30
0
11
-68.097843
21
-40
31
0
39
0
210
0
220
0
230
1
0
LINE
5
35F
100
AcDbEntity
8
SK2
62
256
6
ByLayer
370
13
48
1
60
0
100
AcDbLine
10
-66.097843
20
40
30
0
11
-66.097843
21
-40
31
0
39
0
210
0
220
0
230
1
0
SOLID
5
360
100
AcDbEntity
8
SK2
62
256
6
ByLayer
370
13
48
1
60
0
100
AcDbTrace
10
-66.097843
20
40
30
0
11
-65.679846
21
36.825002
31
0
12
-66.51584
22
36.824998
32
0
13
-66.097843
23
40
33
0
39
0
210
0
220
0
230
1
0
SOLID
5
361
100
AcDbEntity
8
SK2
62
256
6
ByLayer
370
13
48
1
60
0
100
AcDbTrace
10
-66.097843
20
-40
30
0
11
-66.51584
21
-36.825002
31
0
12
-65.679846
22
-36.824998
32
0
13
-66.097843
23
-40
33
0
39
0
210
0
220
0
230
1
0
ENDBLK
5
363
100
AcDbEntity
8
0
100
AcDbBlockEnd
0
BLOCK
5
36C
100
AcDbEntity
8
0
100
AcDbBlockBegin
2
DimnDraft3D2
70
0
10
0
20
0
30
0
3
DimnDraft3D2
0
MTEXT
5
366
100
AcDbEntity
8
2
62
256
6
ByLayer
370
18
48
1
60
0
100
AcDbMText
10
135.75
20
0.315789
30
0
210
0
220
0
230
1
1
\W0.3160; 
40
3
41
0
44
1.084337
50
90
71
7
72
5
7
iso_b_vert
0
LINE
5
367
100
AcDbEntity
8
2
62
256
6
ByLayer
370
13
48
1
60
0
100
AcDbLine
10
95.285079
20
-48
30
0
11
138.5
21
-48
31
0
39
0
210
0
220
0
230
1
0
LINE
5
368
100
AcDbEntity
8
2
62
256
6
ByLayer
370
13
48
1
60
0
100
AcDbLine
10
108
20
48
30
0
11
138.5
21
48
31
0
39
0
210
0
220
0
230
1
0
LINE
5
369
100
AcDbEntity
8
2
62
256
6
ByLayer
370
13
48
1
60
0
100
AcDbLine
10
136.5
20
-48
30
0
11
136.5
21
48
31
0
39
0
210
0
220
0
230
1
0
SOLID
5
36A
100
AcDbEntity
8
2
62
256
6
ByLayer
370
13
48
1
60
0
100
AcDbTrace
10
136.5
20
-48
30
0
11
136.082003
21
-44.825002
31
0
12
136.917997
22
-44.824998
32
0
13
136.5
23
-48
33
0
39
0
210
0
220
0
230
1
0
SOLID
5
36B
100
AcDbEntity
8
2
62
256
6
ByLayer
370
13
48
1
60
0
100
AcDbTrace
10
136.5
20
48
30
0
11
136.917997
21
44.825002
31
0
12
136.082003
22
44.824998
32
0
13
136.5
23
48
33
0
39
0
210
0
220
0
230
1
0
ENDBLK
5
36D
100
AcDbEntity
8
0
100
AcDbBlockEnd
0
BLOCK
5
376
100
AcDbEntity
8
0
100
AcDbBlockBegin
2
DimnDraft3D3
70
0
10
0
20
0
30
0
3
DimnDraft3D3
0
MTEXT
5
370
100
AcDbEntity
8
2
62
256
6
ByLayer
370
18
48
1
60
0
100
AcDbMText
10
45.839474
20
74.25
30
0
210
0
220
0
230
1
1
\W0.6754;94
40
3
41
0
44
1.084337
50
0
71
7
72
5
7
iso_b_vert
0
LINE
5
371
100
AcDbEntity
8
2
62
256
6
ByLayer
370
13
48
1
60
0
100
AcDbLine
10
0
20
41.7
30
0
11
0
21
75.5
31
0
39
0
210
0
220
0
230
1
0
LINE
5
372
100
AcDbEntity
8
2
62
256
6
ByLayer
370
13
48
1
60
0
100
AcDbLine
10
94
20
50
30
0
11
94
21
75.5
31
0
39
0
210
0
220
0
230
1
0
LINE
5
373
100
AcDbEntity
8
2
62
256
6
ByLayer
370
13
48
1
60
0
100
AcDbLine
10
0
20
73.5
30
0
11
94
21
73.5
31
0
39
0
210
0
220
0
230
1
0
SOLID
5
374
100
AcDbEntity
8
2
62
256
6
ByLayer
370
13
48
1
60
0
100
AcDbTrace
10
0
20
73.5
30
0
11
3.174998
21
73.917997
31
0
12
3.175002
22
73.082003
32
0
13
0
23
73.5
33
0
39
0
210
0
220
0
230
1
0
SOLID
5
375
100
AcDbEntity
8
2
62
256
6
ByLayer
370
13
48
1
60
0
100
AcDbTrace
10
94
20
73.5
30
0
11
90.825002
21
73.082003
31
0
12
90.824998
22
73.917997
32
0
13
94
23
73.5
33
0
39
0
210
0
220
0
230
1
0
ENDBLK
5
377
100
AcDbEntity
8
0
100
AcDbBlockEnd
0
BLOCK
5
380
100
AcDbEntity
8
0
100
AcDbBlockBegin
2
DimnDraft3D4
70
0
10
0
20
0
30
0
3
DimnDraft3D4
0
MTEXT
5
37A
100
AcDbEntity
8
SK2
62
256
6
ByLayer
370
18
48
1
60
0
100
AcDbMText
10
21.113158
20
89.25
30
0
210
0
220
0
230
1
1
\W0.6672;142
40
3
41
0
44
1.084337
50
0
71
7
72
5
7
iso_b_vert
0
LINE
5
37B
100
AcDbEntity
8
SK2
62
256
6
ByLayer
370
13
48
1
60
0
100
AcDbLine
10
-48
20
27.499074
30
0
11
-48
21
90.5
31
0
39
0
210
0
220
0
230
1
0
LINE
5
37C
100
AcDbEntity
8
SK2
62
256
6
ByLayer
370
13
48
1
60
0
100
AcDbLine
10
94
20
50
30
0
11
94
21
90.5
31
0
39
0
210
0
220
0
230
1
0
LINE
5
37D
100
AcDbEntity
8
SK2
62
256
6
ByLayer
370
13
48
1
60
0
100
AcDbLine
10
-48
20
88.5
30
0
11
94
21
88.5
31
0
39
0
210
0
220
0
230
1
0
SOLID
5
37E
100
AcDbEntity
8
SK2
62
256
6
ByLayer
370
13
48
1
60
0
100
AcDbTrace
10
-48
20
88.5
30
0
11
-44.825002
21
88.917997
31
0
12
-44.824998
22
88.082003
32
0
13
-48
23
88.5
33
0
39
0
210
0
220
0
230
1
0
SOLID
5
37F
100
AcDbEntity
8
SK2
62
256
6
ByLayer
370
13
48
1
60
0
100
AcDbTrace
10
94
20
88.5
30
0
11
90.825002
21
88.082003
31
0
12
90.824998
22
88.917997
32
0
13
94
23
88.5
33
0
39
0
210
0
220
0
230
1
0
ENDBLK
5
381
100
AcDbEntity
8
0
100
AcDbBlockEnd
0
BLOCK
5
38A
100
AcDbEntity
8
0
100
AcDbBlockBegin
2
DimnDraft3D5
70
0
10
0
20
0
30
0
3
DimnDraft3D5
0
MTEXT
5
384
100
AcDbEntity
8
2
62
256
6
ByLayer
370
18
48
1
60
0
100
AcDbMText
10
109.9097
20
30.779949
30
0
210
0
220
0
230
1
1
\W0.6310;84%%d
40
3
41
0
44
1.084337
50
48.0000000000003
71
7
72
5
7
iso_b_vert
0
LINE
5
385
100
AcDbEntity
8
2
62
256
6
ByLayer
370
13
48
1
60
0
100
AcDbLine
10
95.406391
20
34.647029
30
0
11
96.730449
21
22.049451
31
0
39
0
210
0
220
0
230
1
0
LINE
5
386
100
AcDbEntity
8
2
62
256
6
ByLayer
370
13
48
1
60
0
100
AcDbLine
10
96
20
48
30
0
11
120.096429
21
48
31
0
39
0
210
0
220
0
230
1
0
ARC
5
387
100
AcDbEntity
8
2
62
256
6
ByLayer
370
13
48
1
60
0
100
AcDbCircle
39
0
10
94.002937
20
48
30
0
40
24.0934918154994
210
0
220
0
230
1
100
AcDbArc
50
276
51
0
0
SOLID
5
388
100
AcDbEntity
8
2
62
256
6
ByLayer
370
13
48
1
60
0
100
AcDbTrace
10
96.521393
20
24.038495
30
0
11
99.609032
21
24.888095
31
0
12
99.723719
22
24.060006
32
0
13
96.521393
23
24.038495
33
0
39
0
210
0
220
0
230
1
0
SOLID
5
389
100
AcDbEntity
8
2
62
256
6
ByLayer
370
13
48
1
60
0
100
AcDbTrace
10
118.096429
20
48
30
0
11
118.40977
21
44.812971
31
0
12
117.574229
22
44.840465
32
0
13
118.096429
23
48
33
0
39
0
210
0
220
0
230
1
0
ENDBLK
5
38B
100
AcDbEntity
8
0
100
AcDbBlockEnd
0
ENDSEC
0
SECTION
2
ENTITIES
0
ARC
5
1D9
100
AcDbEntity
8
SK1
62
256
6
ByLayer
370
18
48
1
60
0
100
AcDbCircle
39
0
10
-0.6
20
29.6
30
0
40
1.00000000013804
210
0
220
0
230
1
100
AcDbArc
50
293.578178
51
306.869898
0
ARC
5
1DA
100
AcDbEntity
8
SK1
62
256
6
ByLayer
370
18
48
1
60
0
100
AcDbCircle
39
0
10
-0.6
20
-29.6
30
0
40
0.99999999997421
210
0
220
0
230
1
100
AcDbArc
50
53.130102
51
66.421822
0
ARC
5
1DB
100
AcDbEntity
8
1
62
256
6
ByLayer
370
13
48
0.05
60
0
100
AcDbCircle
39
0
10
-93.285079
20
-47.206
30
0
40
0.793999999999945
210
0
220
0
230
-1
100
AcDbArc
50
186
51
276
0
ARC
5
1DC
100
AcDbEntity
8
1
62
256
6
ByLayer
370
18
48
1
60
0
100
AcDbCircle
39
0
10
89.8
20
-25.951721
30
0
40
0.8
210
0
220
0
230
1
100
AcDbArc
50
270
51
0
0
ARC
5
1DD
100
AcDbEntity
8
1
62
256
6
ByLayer
370
18
48
1
60
0
100
AcDbCircle
39
0
10
89.8
20
9.974297
30
0
40
0.8
210
0
220
0
230
1
100
AcDbArc
50
0
51
90
0
ARC
5
1DE
100
AcDbEntity
8
1
62
256
6
ByLayer
370
18
48
1
60
0
100
AcDbCircle
39
0
10
89.8
20
22.6325
30
0
40
0.8
210
0
220
0
230
1
100
AcDbArc
50
0
51
90
0
ARC
5
1DF
100
AcDbEntity
8
1
62
256
6
ByLayer
370
18
48
1
60
0
100
AcDbCircle
39
0
10
89.8
20
11.3675
30
0
40
0.8
210
0
220
0
230
1
100
AcDbArc
50
299.453903
51
0
0
ARC
5
1E0
100
AcDbEntity
8
1
62
256
6
ByLayer
370
18
48
1
60
0
100
AcDbCircle
39
0
10
67.002937
20
38.727069
30
0
40
0.850000000000001
210
0
220
0
230
1
100
AcDbArc
50
8.304234
51
356.695766
0
ARC
5
1E1
100
AcDbEntity
8
1
62
256
6
ByLayer
370
18
48
1
60
0
100
AcDbCircle
39
0
10
67.002937
20
38.727069
30
0
40
0.7
210
0
220
0
230
1
100
AcDbArc
50
5
51
0
0
ARC
5
1E2
100
AcDbEntity
8
1
62
256
6
ByLayer
370
18
48
1
60
0
100
AcDbCircle
39
0
10
-91.002937
20
22.727069
30
0
40
6.00000000000213
210
0
220
0
230
-1
100
AcDbArc
50
0
51
70
0
CIRCLE
5
1E3
100
AcDbEntity
8
1
62
256
6
ByLayer
370
18
48
1
60
0
100
AcDbCircle
10
-67.002937
20
38.727069
30
0
40
1.025
39
0
210
0
220
0
230
-1
0
ELLIPSE
5
1E4
100
AcDbEntity
8
1
62
256
6
ByLayer
370
18
48
1
60
0
100
AcDbEllipse
10
148.647757
20
0
30
0
11
122.658908728045
21
-35.4610863307036
31
0
210
0
220
0
230
-1
40
0.126354
41
2.23660906820649
42
2.34131289472542
0
ELLIPSE
5
1E5
100
AcDbEntity
8
1
62
256
6
ByLayer
370
18
48
1
60
0
100
AcDbEllipse
10
91.404882
20
41.994323
30
0
11
-0.192617575984812
21
-0.0538374351333268
31
0
210
0
220
0
230
1
40
0.014613
41
0.972752381899641
42
1.65683361369333
0
ELLIPSE
5
1E6
100
AcDbEntity
8
1
62
256
6
ByLayer
370
18
48
1
60
0
100
AcDbEllipse
10
85.285518
20
35.643564
30
0
11
1.04528463267655
21
-9.94521895368276
31
0
210
0
220
0
230
1
40
0.996195
41
1.53588974175501
42
1.5518957047899
0
ELLIPSE
5
1E7
100
AcDbEntity
8
1
62
256
6
ByLayer
370
18
48
1
60
0
100
AcDbEllipse
10
94.726446
20
36.302474
30
0
11
0.0522642316338275
21
-0.497260947684138
31
0
210
0
220
0
230
1
40
0.996195
41
1.30899693899576
42
1.535889741755
0
ELLIPSE
5
1E8
100
AcDbEntity
8
1
62
256
6
ByLayer
370
18
48
1
60
0
100
AcDbEllipse
10
88.133688
20
37.938951
30
0
11
-0.0128650708014692
21
-0.199585795970738
31
0
210
0
220
0
230
1
40
0.085922
41
1.5854638530164
42
2.26954508481446
0
ELLIPSE
5
1E9
100
AcDbEntity
8
1
62
256
6
ByLayer
370
18
48
1
60
0
100
AcDbEllipse
10
93.140703
20
45.327504
30
0
11
1.04528463267655
21
-9.94521895368274
31
0
210
0
220
0
230
1
40
0.996195
41
0
42
0.00910062891819018
0
ELLIPSE
5
1EA
100
AcDbEntity
8
1
62
256
6
ByLayer
370
18
48
1
60
0
100
AcDbEllipse
10
94.234429
20
36.380884
30
0
11
0.104528463267655
21
-0.994521895368273
31
0
210
0
220
0
230
1
40
0.996195
41
0.261799387799166
42
1.30899693899577
0
ELLIPSE
5
1EB
100
AcDbEntity
8
1
62
256
6
ByLayer
370
18
48
1
60
0
100
AcDbEllipse
10
93.092234
20
45.32172
30
0
11
1.04528463267655
21
-9.94521895368276
31
0
210
0
220
0
230
1
40
0.996195
41
0.0189006220049981
42
0.0349065850398841
0
ELLIPSE
5
1EC
100
AcDbEntity
8
1
62
256
6
ByLayer
370
18
48
1
60
0
100
AcDbEllipse
10
85.153919
20
41.33732
30
0
11
-0.199601851976567
21
0.0126135121010974
31
0
210
0
220
0
230
1
40
0.014613
41
-2.34091484548929
42
-1.65683361369347
0
ELLIPSE
5
1ED
100
AcDbEntity
8
1
62
256
6
ByLayer
370
18
48
1
60
0
100
AcDbEllipse
10
88.348918
20
41.133652
30
0
11
-0.321279495150694
21
3.05677020853233
31
0
210
0
220
0
230
1
40
0.996195
41
1.73925456887577
42
2.97313441150891
0
ELLIPSE
5
1EE
100
AcDbEntity
8
1
62
256
6
ByLayer
370
18
48
1
60
0
100
AcDbEllipse
10
88.144717
20
37.840983
30
0
11
-0.0104528463267654
21
0.0994521895368271
31
0
210
0
220
0
230
1
40
0.996195
41
3.14159265358979
42
-0.168458242081299
0
ELLIPSE
5
1EF
100
AcDbEntity
8
1
62
256
6
ByLayer
370
18
48
1
60
0
100
AcDbEllipse
10
85.28943
20
35.59471
30
0
11
-1.03066457613002
21
9.80611840735786
31
0
210
0
220
0
230
1
40
0.996195
41
-1.57989695571309
42
-1.5707963267949
0
ELLIPSE
5
1F0
100
AcDbEntity
8
1
62
256
6
ByLayer
370
18
48
1
60
0
100
AcDbEllipse
10
88.140817
20
37.840573
30
0
11
0.0236644336325638
21
-0.225152046182972
31
0
210
0
220
0
230
1
40
0.996195
41
0
42
2.97313441150886
0
ELLIPSE
5
1F1
100
AcDbEntity
8
1
62
256
6
ByLayer
370
18
48
1
60
0
100
AcDbEllipse
10
90.247668
20
36.070089
30
0
11
-0.508022259791756
21
4.8335089305165
31
0
210
0
220
0
230
1
40
0.996195
41
-1.58969694879989
42
-1.57989695571309
0
ELLIPSE
5
1F2
100
AcDbEntity
8
1
62
256
6
ByLayer
370
18
48
1
60
0
100
AcDbEllipse
10
94.725916
20
36.302419
30
0
11
-0.0376441750873299
21
0.358160401359422
31
0
210
0
220
0
230
1
40
0.996195
41
-1.83259571459403
42
-1.60570291183481
0
ELLIPSE
5
1F3
100
AcDbEntity
8
1
62
256
6
ByLayer
370
18
48
1
60
0
100
AcDbEllipse
10
94.2339
20
36.380828
30
0
11
-0.0899084067211589
21
0.855421349043579
31
0
210
0
220
0
230
1
40
0.996195
41
-2.87979326579072
42
-1.83259571459406
0
ELLIPSE
5
1F4
100
AcDbEntity
8
1
62
256
6
ByLayer
370
18
48
1
60
0
100
AcDbEllipse
10
91.802605
20
38.325994
30
0
11
0.0341172799593293
21
-0.324604235719799
31
0
210
0
220
0
230
1
40
0.996195
41
0
42
1.57079632679485
0
ELLIPSE
5
1F5
100
AcDbEntity
8
1
62
256
6
ByLayer
370
18
48
1
60
0
100
AcDbEllipse
10
88.137835
20
37.739709
30
0
11
-0.0209056926535308
21
0.198904379073655
31
0
210
0
220
0
230
1
40
0.087156
41
-2.25487755859018
42
-1.57079632679483
0
ELLIPSE
5
1F6
100
AcDbEntity
8
1
62
256
6
ByLayer
370
18
48
1
60
0
100
AcDbEllipse
10
94.412594
20
35.913986
30
0
11
-0.0376441750873299
21
0.358160401359422
31
0
210
0
220
0
230
1
40
0.996195
41
-3.10668606854987
42
-2.87979326579074
0
ELLIPSE
5
1F7
100
AcDbEntity
8
1
62
256
6
ByLayer
370
18
48
1
60
0
100
AcDbEllipse
10
93.091704
20
45.321665
30
0
11
-1.03066457613004
21
9.80611840735805
31
0
210
0
220
0
230
1
40
0.996195
41
-3.12269203158479
42
-3.1066860685499
0
ELLIPSE
5
1F8
100
AcDbEntity
8
1
62
256
6
ByLayer
370
18
48
1
60
0
100
AcDbEllipse
10
93.907942
20
38.027714
30
0
11
1.04528463267655
21
-9.94521895368274
31
0
210
0
220
0
230
1
40
0.996195
41
3.1324920246716
42
3.14159265358979
0
ELLIPSE
5
1F9
100
AcDbEntity
8
1
62
256
6
ByLayer
370
18
48
1
60
0
100
AcDbEllipse
10
93.707876
20
40.359784
30
0
11
-0.508022259791756
21
4.8335089305165
31
0
210
0
220
0
230
1
40
0.996195
41
-3.13249202467161
42
-3.12269203158481
0
ELLIPSE
5
1FA
100
AcDbEntity
8
1
62
256
6
ByLayer
370
18
48
1
60
0
100
AcDbEllipse
10
83.336246
20
39.269681
30
0
11
-0.508022259791756
21
4.8335089305165
31
0
210
0
220
0
230
1
40
0.996195
41
3.12269203158481
42
3.13249202467161
0
ELLIPSE
5
1FB
100
AcDbEntity
8
1
62
256
6
ByLayer
370
18
48
1
60
0
100
AcDbEllipse
10
91.629905
20
40.922164
30
0
11
0.0236644336325638
21
-0.225152046182972
31
0
210
0
220
0
230
1
40
0.996195
41
1.57079632679496
42
-1.73925456887577
0
ELLIPSE
5
1FC
100
AcDbEntity
8
1
62
256
6
ByLayer
370
18
48
1
60
0
100
AcDbEllipse
10
89.234158
20
37.854937
30
0
11
0.020905692653531
21
-0.198904379073655
31
0
210
0
220
0
230
1
40
0.087156
41
0.886715094998215
42
1.57079632679497
0
ELLIPSE
5
1FD
100
AcDbEntity
8
1
62
256
6
ByLayer
370
18
48
1
60
0
100
AcDbEllipse
10
89.23714
20
37.955801
30
0
11
0.0236644336325637
21
-0.225152046182971
31
0
210
0
220
0
230
1
40
0.996195
41
-2.97313441150886
42
2.5204279320937E-13
0
ELLIPSE
5
1FE
100
AcDbEntity
8
1
62
256
6
ByLayer
370
18
48
1
60
0
100
AcDbEllipse
10
89.153402
20
46.481337
30
0
11
-0.508022259791756
21
4.8335089305165
31
0
210
0
220
0
230
1
40
0.996195
41
-1.5616956978767
42
-1.5518957047899
0
ELLIPSE
5
1FF
100
AcDbEntity
8
1
62
256
6
ByLayer
370
18
48
1
60
0
100
AcDbEllipse
10
87.612717
20
35.793145
30
0
11
-0.508022259791756
21
4.8335089305165
31
0
210
0
220
0
230
1
40
0.996195
41
1.57989695571309
42
1.58969694879989
0
ELLIPSE
5
200
100
AcDbEntity
8
1
62
256
6
ByLayer
370
18
48
1
60
0
100
AcDbEllipse
10
83.184555
20
35.089373
30
0
11
0.0522642316338275
21
-0.497260947684138
31
0
210
0
220
0
230
1
40
0.996195
41
-1.535889741755
42
-1.30899693899582
0
ELLIPSE
5
201
100
AcDbEntity
8
1
62
256
6
ByLayer
370
18
48
1
60
0
100
AcDbEllipse
10
89.241041
20
37.956211
30
0
11
-0.0104528463267653
21
0.0994521895368265
31
0
210
0
220
0
230
1
40
0.996195
41
0.168458242081229
42
3.14159265358922
0
ELLIPSE
5
202
100
AcDbEntity
8
1
62
256
6
ByLayer
370
18
48
1
60
0
100
AcDbEllipse
10
88.352818
20
41.134062
30
0
11
0.334491082456495
21
-3.18247006517847
31
0
210
0
220
0
230
1
40
0.996195
41
0.168458242080909
42
1.40233808471401
0
ELLIPSE
5
203
100
AcDbEntity
8
1
62
256
6
ByLayer
370
18
48
1
60
0
100
AcDbEllipse
10
91.806505
20
38.326403
30
0
11
-0.0209056926535308
21
0.198904379073655
31
0
210
0
220
0
230
1
40
0.996195
41
3.14159265358951
42
-1.5707963267949
0
ELLIPSE
5
204
100
AcDbEntity
8
1
62
256
6
ByLayer
370
18
48
1
60
0
100
AcDbEllipse
10
85.071831
20
41.345551
30
0
11
0.0104528463267654
21
-0.0994521895368265
31
0
210
0
220
0
230
1
40
0.996195
41
-1.5707963267949
42
1.40233808471383
0
ELLIPSE
5
205
100
AcDbEntity
8
1
62
256
6
ByLayer
370
18
48
1
60
0
100
AcDbEllipse
10
85.266083
20
40.270157
30
0
11
-0.192617575984812
21
-0.0538374351333268
31
0
210
0
220
0
230
1
40
0.014613
41
1.65683361369354
42
2.34091484548929
0
ELLIPSE
5
206
100
AcDbEntity
8
1
62
256
6
ByLayer
370
18
48
1
60
0
100
AcDbEllipse
10
91.518137
20
42.023085
30
0
11
0.0104528463267654
21
-0.0994521895368265
31
0
210
0
220
0
230
1
40
0.996195
41
-1.40233808471397
42
1.5707963267949
0
ELLIPSE
5
207
100
AcDbEntity
8
1
62
256
6
ByLayer
370
18
48
1
60
0
100
AcDbEllipse
10
86.51898
20
46.204448
30
0
11
0.522642316338255
21
-4.97260947684119
31
0
210
0
220
0
230
1
40
0.996195
41
-1.58969694879989
42
-1.57989695571309
0
ELLIPSE
5
208
100
AcDbEntity
8
1
62
256
6
ByLayer
370
18
48
1
60
0
100
AcDbEllipse
10
91.48166
20
46.631028
30
0
11
1.04528463267655
21
-9.94521895368276
31
0
210
0
220
0
230
1
40
0.996195
41
-1.60570291183478
42
-1.58969694879989
0
ELLIPSE
5
209
100
AcDbEntity
8
1
62
256
6
ByLayer
370
18
48
1
60
0
100
AcDbEllipse
10
85.558347
20
37.669696
30
0
11
-0.0209056926535308
21
0.198904379073655
31
0
210
0
220
0
230
1
40
0.996195
41
1.57079632679497
42
3.14159265358979
0
ELLIPSE
5
20A
100
AcDbEntity
8
1
62
256
6
ByLayer
370
18
48
1
60
0
100
AcDbEllipse
10
82.040732
20
45.972118
30
0
11
0.0522642316338275
21
-0.497260947684138
31
0
210
0
220
0
230
1
40
0.996195
41
-1.83259571459404
42
-1.60570291183479
0
ELLIPSE
5
20B
100
AcDbEntity
8
1
62
256
6
ByLayer
370
18
48
1
60
0
100
AcDbEllipse
10
84.205206
20
45.915507
30
0
11
1.04528463267655
21
-9.94521895368274
31
0
210
0
220
0
230
1
40
0.996195
41
1.5707963267949
42
1.57989695571309
0
ELLIPSE
5
20C
100
AcDbEntity
8
1
62
256
6
ByLayer
370
18
48
1
60
0
100
AcDbEllipse
10
94.413123
20
35.914042
30
0
11
0.0522642316338275
21
-0.497260947684138
31
0
210
0
220
0
230
1
40
0.996195
41
0.0349065850397681
42
0.261799387798986
0
ELLIPSE
5
20D
100
AcDbEntity
8
1
62
256
6
ByLayer
370
18
48
1
60
0
100
AcDbEllipse
10
85.289959
20
35.594766
30
0
11
1.04528463267655
21
-9.94521895368274
31
0
210
0
220
0
230
1
40
0.996195
41
1.5616956978767
42
1.5707963267949
0
ELLIPSE
5
20E
100
AcDbEntity
8
1
62
256
6
ByLayer
370
18
48
1
60
0
100
AcDbEllipse
10
82.859236
20
44.246879
30
0
11
1.04528463267655
21
-9.94521895368274
31
0
210
0
220
0
230
1
40
0.996195
41
-0.00910062891819089
42
0
0
ELLIPSE
5
20F
100
AcDbEntity
8
1
62
256
6
ByLayer
370
18
48
1
60
0
100
AcDbEllipse
10
83.336775
20
39.269737
30
0
11
0.522642316338255
21
-4.97260947684119
31
0
210
0
220
0
230
1
40
0.996195
41
-0.0189006220050045
42
-0.00910062891819764
0
ELLIPSE
5
210
100
AcDbEntity
8
1
62
256
6
ByLayer
370
18
48
1
60
0
100
AcDbEllipse
10
88.352818
20
41.134062
30
0
11
-0.334491082456493
21
3.18247006517847
31
0
210
0
220
0
230
1
40
0.996195
41
-1.40233808471402
42
-0.168458242080857
0
ELLIPSE
5
211
100
AcDbEntity
8
1
62
256
6
ByLayer
370
18
48
1
60
0
100
AcDbEllipse
10
82.907849
20
44.251298
30
0
11
1.04528463267655
21
-9.94521895368276
31
0
210
0
220
0
230
1
40
0.996195
41
-0.0349065850398912
42
-0.0189006220050038
0
ELLIPSE
5
212
100
AcDbEntity
8
1
62
256
6
ByLayer
370
18
48
1
60
0
100
AcDbEllipse
10
88.557018
20
44.426731
30
0
11
0.0236644336325638
21
-0.225152046182972
31
0
210
0
220
0
230
1
40
0.996195
41
-3.14159265358954
42
-0.168458242080929
0
ELLIPSE
5
213
100
AcDbEntity
8
1
62
256
6
ByLayer
370
18
48
1
60
0
100
AcDbEllipse
10
88.348918
20
41.133652
30
0
11
-0.321279495150694
21
3.05677020853233
31
0
210
0
220
0
230
1
40
0.996195
41
-1.40233808471402
42
-0.168458242080898
0
ELLIPSE
5
214
100
AcDbEntity
8
1
62
256
6
ByLayer
370
18
48
1
60
0
100
AcDbEllipse
10
92.561972
20
36.359085
30
0
11
1.04528463267655
21
-9.94521895368274
31
0
210
0
220
0
230
1
40
0.996195
41
-1.5707963267949
42
-1.5616956978767
0
ELLIPSE
5
215
100
AcDbEntity
8
1
62
256
6
ByLayer
370
18
48
1
60
0
100
AcDbEllipse
10
91.514236
20
42.022675
30
0
11
0.0236644336325637
21
-0.225152046182971
31
0
210
0
220
0
230
1
40
0.996195
41
-1.40233808471402
42
1.5707963267949
0
ELLIPSE
5
216
100
AcDbEntity
8
1
62
256
6
ByLayer
370
18
48
1
60
0
100
AcDbEllipse
10
90.248198
20
36.070145
30
0
11
0.522642316338255
21
-4.97260947684119
31
0
210
0
220
0
230
1
40
0.996195
41
1.5518957047899
42
1.56169569787671
0
ELLIPSE
5
217
100
AcDbEntity
8
1
62
256
6
ByLayer
370
18
48
1
60
0
100
AcDbEllipse
10
85.183599
20
40.244629
30
0
11
0.0236644336325637
21
-0.225152046182971
31
0
210
0
220
0
230
1
40
0.996195
41
1.73925456887583
42
-1.57079632679496
0
ELLIPSE
5
218
100
AcDbEntity
8
1
62
256
6
ByLayer
370
18
48
1
60
0
100
AcDbEllipse
10
88.348918
20
41.133652
30
0
11
-0.321279495150694
21
3.05677020853233
31
0
210
0
220
0
230
1
40
0.996195
41
0.16845824208088
42
1.40233808471402
0
ELLIPSE
5
219
100
AcDbEntity
8
1
62
256
6
ByLayer
370
18
48
1
60
0
100
AcDbEllipse
10
83.626475
20
36.947088
30
0
11
1.04528463267655
21
-9.94521895368274
31
0
210
0
220
0
230
1
40
0.996195
41
3.14159265358979
42
-3.1324920246716
0
ELLIPSE
5
21A
100
AcDbEntity
8
1
62
256
6
ByLayer
370
18
48
1
60
0
100
AcDbEllipse
10
83.058773
20
41.914753
30
0
11
0.522642316338255
21
-4.97260947684119
31
0
210
0
220
0
230
1
40
0.996195
41
-3.13249202467159
42
-3.12269203158479
0
ELLIPSE
5
21B
100
AcDbEntity
8
1
62
256
6
ByLayer
370
18
48
1
60
0
100
AcDbEllipse
10
85.067931
20
41.345141
30
0
11
0.0236644336325637
21
-0.225152046182971
31
0
210
0
220
0
230
1
40
0.996195
41
-1.5707963267949
42
1.40233808471396
0
ELLIPSE
5
21C
100
AcDbEntity
8
1
62
256
6
ByLayer
370
18
48
1
60
0
100
AcDbEllipse
10
82.532749
20
45.893709
30
0
11
0.104528463267655
21
-0.994521895368273
31
0
210
0
220
0
230
1
40
0.996195
41
-2.87979326579069
42
-1.83259571459407
0
ELLIPSE
5
21D
100
AcDbEntity
8
1
62
256
6
ByLayer
370
18
48
1
60
0
100
AcDbEllipse
10
82.354054
20
46.360551
30
0
11
0.0522642316338275
21
-0.497260947684138
31
0
210
0
220
0
230
1
40
0.996195
41
-3.10668606855003
42
-2.87979326579091
0
ELLIPSE
5
21E
100
AcDbEntity
8
1
62
256
6
ByLayer
370
18
48
1
60
0
100
AcDbEllipse
10
83.674944
20
36.952872
30
0
11
1.04528463267655
21
-9.94521895368276
31
0
210
0
220
0
230
1
40
0.996195
41
-3.1226920315848
42
-3.10668606854991
0
ELLIPSE
5
21F
100
AcDbEntity
8
1
62
256
6
ByLayer
370
18
48
1
60
0
100
AcDbEllipse
10
87.460695
20
44.311503
30
0
11
0.0236644336325638
21
-0.225152046182972
31
0
210
0
220
0
230
1
40
0.996195
41
0.168458242080712
42
3.14159265358979
0
ELLIPSE
5
220
100
AcDbEntity
8
1
62
256
6
ByLayer
370
18
48
1
60
0
100
AcDbEllipse
10
91.476689
20
46.679771
30
0
11
-1.03066457613002
21
9.80611840735786
31
0
210
0
220
0
230
1
40
0.996195
41
1.56169569787671
42
1.5707963267949
0
ELLIPSE
5
221
100
AcDbEntity
8
1
62
256
6
ByLayer
370
18
48
1
60
0
100
AcDbEllipse
10
91.633805
20
40.922573
30
0
11
-0.0104528463267654
21
0.0994521895368271
31
0
210
0
220
0
230
1
40
0.996195
41
-1.57079632679475
42
1.40233808471383
0
ELLIPSE
5
222
100
AcDbEntity
8
1
62
256
6
ByLayer
370
18
48
1
60
0
100
AcDbEllipse
10
87.613246
20
35.7932
30
0
11
0.522642316338255
21
-4.97260947684119
31
0
210
0
220
0
230
1
40
0.996195
41
-1.5616956978767
42
-1.5518957047899
0
ELLIPSE
5
223
100
AcDbEntity
8
1
62
256
6
ByLayer
370
18
48
1
60
0
100
AcDbEllipse
10
83.57179
20
34.774572
30
0
11
0.0522642316338275
21
-0.497260947684138
31
0
210
0
220
0
230
1
40
0.996195
41
-0.261799387798986
42
-0.0349065850398822
0
ELLIPSE
5
224
100
AcDbEntity
8
1
62
256
6
ByLayer
370
18
48
1
60
0
100
AcDbEllipse
10
86.518451
20
46.204392
30
0
11
-0.508022259791756
21
4.8335089305165
31
0
210
0
220
0
230
1
40
0.996195
41
1.5518957047899
42
1.5616956978767
0
ELLIPSE
5
225
100
AcDbEntity
8
1
62
256
6
ByLayer
370
18
48
1
60
0
100
AcDbEllipse
10
84.89523
20
43.941311
30
0
11
0.0341172799593293
21
-0.324604235719799
31
0
210
0
220
0
230
1
40
0.996195
41
-3.14159265358962
42
-1.5707963267949
0
ELLIPSE
5
226
100
AcDbEntity
8
1
62
256
6
ByLayer
370
18
48
1
60
0
100
AcDbEllipse
10
91.481131
20
46.630973
30
0
11
-1.03066457613004
21
9.80611840735805
31
0
210
0
220
0
230
1
40
0.996195
41
1.53588974175502
42
1.5518957047899
0
ELLIPSE
5
227
100
AcDbEntity
8
1
62
256
6
ByLayer
370
18
48
1
60
0
100
AcDbEllipse
10
82.040203
20
45.972063
30
0
11
-0.0376441750873299
21
0.358160401359422
31
0
210
0
220
0
230
1
40
0.996195
41
1.30899693899577
42
1.53588974175498
0
ELLIPSE
5
228
100
AcDbEntity
8
1
62
256
6
ByLayer
370
18
48
1
60
0
100
AcDbEllipse
10
82.532219
20
45.893653
30
0
11
-0.0899084067211589
21
0.855421349043579
31
0
210
0
220
0
230
1
40
0.996195
41
0.261799387799198
42
1.30899693899573
0
ELLIPSE
5
229
100
AcDbEntity
8
1
62
256
6
ByLayer
370
18
48
1
60
0
100
AcDbEllipse
10
82.353525
20
46.360495
30
0
11
-0.0376441750873299
21
0.358160401359422
31
0
210
0
220
0
230
1
40
0.996195
41
0.034906585039925
42
0.261799387799338
0
ELLIPSE
5
22A
100
AcDbEntity
8
1
62
256
6
ByLayer
370
18
48
1
60
0
100
AcDbEllipse
10
83.674415
20
36.952817
30
0
11
-1.03066457613004
21
9.80611840735805
31
0
210
0
220
0
230
1
40
0.996195
41
0.018900622005001
42
0.0349065850398965
0
ELLIPSE
5
22B
100
AcDbEntity
8
1
62
256
6
ByLayer
370
18
48
1
60
0
100
AcDbEllipse
10
83.058244
20
41.914698
30
0
11
-0.508022259791756
21
4.8335089305165
31
0
210
0
220
0
230
1
40
0.996195
41
0.00910062891820846
42
0.0189006220049988
0
ELLIPSE
5
22C
100
AcDbEntity
8
1
62
256
6
ByLayer
370
18
48
1
60
0
100
AcDbEllipse
10
83.625945
20
36.947032
30
0
11
-1.03066457613002
21
9.80611840735786
31
0
210
0
220
0
230
1
40
0.996195
41
0
42
0.00910062891818473
0
ELLIPSE
5
22D
100
AcDbEntity
8
1
62
256
6
ByLayer
370
18
48
1
60
0
100
AcDbEllipse
10
83.649517
20
35.268364
30
0
11
0.104528463267655
21
-0.994521895368273
31
0
210
0
220
0
230
1
40
0.996195
41
-1.30899693899573
42
-0.261799387799166
0
ELLIPSE
5
22E
100
AcDbEntity
8
1
62
256
6
ByLayer
370
18
48
1
60
0
100
AcDbEllipse
10
91.477219
20
46.679826
30
0
11
1.04528463267655
21
-9.94521895368274
31
0
210
0
220
0
230
1
40
0.996195
41
-1.57989695571309
42
-1.5707963267949
0
ELLIPSE
5
22F
100
AcDbEntity
8
1
62
256
6
ByLayer
370
18
48
1
60
0
100
AcDbEllipse
10
85.554447
20
37.669286
30
0
11
0.0341172799593293
21
-0.324604235719799
31
0
210
0
220
0
230
1
40
0.996195
41
-1.5707963267949
42
0
0
ELLIPSE
5
230
100
AcDbEntity
8
1
62
256
6
ByLayer
370
18
48
1
60
0
100
AcDbEllipse
10
83.648988
20
35.268309
30
0
11
-0.0899084067211589
21
0.855421349043579
31
0
210
0
220
0
230
1
40
0.996195
41
1.83259571459406
42
2.87979326579059
0
ELLIPSE
5
231
100
AcDbEntity
8
1
62
256
6
ByLayer
370
18
48
1
60
0
100
AcDbEllipse
10
82.907319
20
44.251243
30
0
11
-1.03066457613004
21
9.80611840735805
31
0
210
0
220
0
230
1
40
0.996195
41
3.10668606854991
42
3.1226920315848
0
ELLIPSE
5
232
100
AcDbEntity
8
1
62
256
6
ByLayer
370
18
48
1
60
0
100
AcDbEllipse
10
88.348918
20
41.133652
30
0
11
-0.282116967194846
21
2.68416364461171
31
0
210
0
220
0
230
1
40
0.996195
41
0
42
6.28318530717959
0
ELLIPSE
5
233
100
AcDbEntity
8
1
62
256
6
ByLayer
370
18
48
1
60
0
100
AcDbEllipse
10
88.393421
20
41.13833
30
0
11
-0.278364087565398
21
2.64845738006431
31
0
210
0
220
0
230
1
40
0.996195
41
-0.926046936997997
42
0
0
ELLIPSE
5
234
100
AcDbEntity
8
1
62
256
6
ByLayer
370
18
48
1
60
0
100
AcDbEllipse
10
88.393421
20
41.13833
30
0
11
-0.278364087565398
21
2.64845738006431
31
0
210
0
220
0
230
1
40
0.996195
41
0
42
-2.2155727204214
0
ELLIPSE
5
235
100
AcDbEntity
8
1
62
256
6
ByLayer
370
18
48
1
60
0
100
AcDbEllipse
10
88.419818
20
41.141104
30
0
11
-0.264604505792555
21
2.51754370433981
31
0
210
0
220
0
230
1
40
0.996195
41
0
42
6.28318530717959
0
ELLIPSE
5
236
100
AcDbEntity
8
1
62
256
6
ByLayer
370
18
48
1
60
0
100
AcDbEllipse
10
91.517046
20
40.92716
30
0
11
0.199601851976567
21
-0.0126135121010976
31
0
210
0
220
0
230
1
40
0.014613
41
1.4847590398959
42
2.16884027169009
0
ELLIPSE
5
237
100
AcDbEntity
8
1
62
256
6
ByLayer
370
18
48
1
60
0
100
AcDbEllipse
10
93.582623
20
47.18522
30
0
11
0.0522642316338275
21
-0.497260947684138
31
0
210
0
220
0
230
1
40
0.996195
41
1.60570291183479
42
1.83259571459401
0
ELLIPSE
5
238
100
AcDbEntity
8
1
62
256
6
ByLayer
370
18
48
1
60
0
100
AcDbEllipse
10
92.556171
20
36.407741
30
0
11
1.04528463267655
21
-9.94521895368276
31
0
210
0
220
0
230
1
40
0.996195
41
-1.5518957047899
42
-1.53588974175501
0
ELLIPSE
5
239
100
AcDbEntity
8
1
62
256
6
ByLayer
370
18
48
1
60
0
100
AcDbEllipse
10
85.561917
20
37.468969
30
0
11
0.020905692653531
21
-0.198904379073655
31
0
210
0
220
0
230
1
40
0.087156
41
0.886715094999611
42
1.57079632679483
0
ELLIPSE
5
23A
100
AcDbEntity
8
1
62
256
6
ByLayer
370
18
48
1
60
0
100
AcDbEllipse
10
85.284988
20
35.643508
30
0
11
-1.03066457613004
21
9.80611840735805
31
0
210
0
220
0
230
1
40
0.996195
41
-1.60570291183478
42
-1.58969694879989
0
ELLIPSE
5
23B
100
AcDbEntity
8
1
62
256
6
ByLayer
370
18
48
1
60
0
100
AcDbEllipse
10
93.140174
20
45.327449
30
0
11
-1.03066457613002
21
9.80611840735786
31
0
210
0
220
0
230
1
40
0.996195
41
3.14159265358979
42
-3.1324920246716
0
ELLIPSE
5
23C
100
AcDbEntity
8
1
62
256
6
ByLayer
370
18
48
1
60
0
100
AcDbEllipse
10
87.436807
20
44.409543
30
0
11
0.020905692653531
21
-0.198904379073655
31
0
210
0
220
0
230
1
40
0.087156
41
1.57079632679483
42
2.25487755859018
0
ELLIPSE
5
23D
100
AcDbEntity
8
1
62
256
6
ByLayer
370
18
48
1
60
0
100
AcDbEllipse
10
93.708405
20
40.359839
30
0
11
0.522642316338255
21
-4.97260947684119
31
0
210
0
220
0
230
1
40
0.996195
41
0.00910062891819621
42
0.0189006220050159
0
ELLIPSE
5
23E
100
AcDbEntity
8
1
62
256
6
ByLayer
370
18
48
1
60
0
100
AcDbEllipse
10
93.430402
20
43.004856
30
0
11
0.522642316338255
21
-4.97260947684119
31
0
210
0
220
0
230
1
40
0.996195
41
3.12269203158478
42
3.1324920246716
0
ELLIPSE
5
23F
100
AcDbEntity
8
1
62
256
6
ByLayer
370
18
48
1
60
0
100
AcDbEllipse
10
93.859329
20
38.023294
30
0
11
1.04528463267655
21
-9.94521895368276
31
0
210
0
220
0
230
1
40
0.996195
41
3.1066860685499
42
3.1226920315848
0
ELLIPSE
5
240
100
AcDbEntity
8
1
62
256
6
ByLayer
370
18
48
1
60
0
100
AcDbEllipse
10
88.53313
20
44.524771
30
0
11
-0.0209056926535308
21
0.198904379073655
31
0
210
0
220
0
230
1
40
0.087156
41
-1.5707963267949
42
-0.886715094999611
0
ELLIPSE
5
241
100
AcDbEntity
8
1
62
256
6
ByLayer
370
18
48
1
60
0
100
AcDbEllipse
10
93.195388
20
47.500021
30
0
11
0.0522642316338275
21
-0.497260947684138
31
0
210
0
220
0
230
1
40
0.996195
41
2.87979326579081
42
3.10668606855014
0
ELLIPSE
5
242
100
AcDbEntity
8
1
62
256
6
ByLayer
370
18
48
1
60
0
100
AcDbEllipse
10
89.153932
20
46.481392
30
0
11
0.522642316338255
21
-4.97260947684119
31
0
210
0
220
0
230
1
40
0.996195
41
1.57989695571309
42
1.58969694879989
0
ELLIPSE
5
243
100
AcDbEntity
8
1
62
256
6
ByLayer
370
18
48
1
60
0
100
AcDbEllipse
10
93.117661
20
47.006228
30
0
11
0.104528463267655
21
-0.994521895368273
31
0
210
0
220
0
230
1
40
0.996195
41
1.83259571459411
42
2.87979326579074
0
ELLIPSE
5
244
100
AcDbEntity
8
1
62
256
6
ByLayer
370
18
48
1
60
0
100
AcDbEllipse
10
84.211007
20
45.866852
30
0
11
1.04528463267655
21
-9.94521895368276
31
0
210
0
220
0
230
1
40
0.996195
41
1.58969694879989
42
1.60570291183478
0
ELLIPSE
5
245
100
AcDbEntity
8
1
62
256
6
ByLayer
370
18
48
1
60
0
100
AcDbEllipse
10
93.907413
20
38.027658
30
0
11
-1.03066457613002
21
9.80611840735786
31
0
210
0
220
0
230
1
40
0.996195
41
-0.00910062891819124
42
0
0
ELLIPSE
5
246
100
AcDbEntity
8
1
62
256
6
ByLayer
370
18
48
1
60
0
100
AcDbEllipse
10
93.429873
20
43.0048
30
0
11
-0.508022259791756
21
4.8335089305165
31
0
210
0
220
0
230
1
40
0.996195
41
-0.0189006220049753
42
-0.00910062891818498
0
ELLIPSE
5
247
100
AcDbEntity
8
1
62
256
6
ByLayer
370
18
48
1
60
0
100
AcDbEllipse
10
93.8588
20
38.023239
30
0
11
-1.03066457613004
21
9.80611840735805
31
0
210
0
220
0
230
1
40
0.996195
41
-0.0349065850398791
42
-0.0189006220049908
0
ELLIPSE
5
248
100
AcDbEntity
8
1
62
256
6
ByLayer
370
18
48
1
60
0
100
AcDbEllipse
10
84.860889
20
44.138803
30
0
11
-0.0209056926535308
21
0.198904379073655
31
0
210
0
220
0
230
1
40
0.087156
41
-1.57079632679497
42
-0.886715094999611
0
ELLIPSE
5
249
100
AcDbEntity
8
1
62
256
6
ByLayer
370
18
48
1
60
0
100
AcDbEllipse
10
93.194859
20
47.499965
30
0
11
-0.0376441750873299
21
0.358160401359422
31
0
210
0
220
0
230
1
40
0.996195
41
-0.261799387799194
42
-0.034906585039925
0
ELLIPSE
5
24A
100
AcDbEntity
8
1
62
256
6
ByLayer
370
18
48
1
60
0
100
AcDbEllipse
10
93.117131
20
47.006172
30
0
11
-0.0899084067211589
21
0.855421349043579
31
0
210
0
220
0
230
1
40
0.996195
41
-1.30899693899573
42
-0.261799387799137
0
ELLIPSE
5
24B
100
AcDbEntity
8
1
62
256
6
ByLayer
370
18
48
1
60
0
100
AcDbEllipse
10
93.582094
20
47.185164
30
0
11
-0.0376441750873299
21
0.358160401359422
31
0
210
0
220
0
230
1
40
0.996195
41
-1.53588974175498
42
-1.30899693899573
0
ELLIPSE
5
24C
100
AcDbEntity
8
1
62
256
6
ByLayer
370
18
48
1
60
0
100
AcDbEllipse
10
91.109048
20
44.795511
30
0
11
0.020905692653531
21
-0.198904379073655
31
0
210
0
220
0
230
1
40
0.087156
41
1.57079632679483
42
2.25487755859018
0
ELLIPSE
5
24D
100
AcDbEntity
8
1
62
256
6
ByLayer
370
18
48
1
60
0
100
AcDbEllipse
10
84.204676
20
45.915451
30
0
11
-1.03066457613002
21
9.80611840735786
31
0
210
0
220
0
230
1
40
0.996195
41
-1.5707963267949
42
-1.5616956978767
0
ELLIPSE
5
24E
100
AcDbEntity
8
1
62
256
6
ByLayer
370
18
48
1
60
0
100
AcDbEllipse
10
88.348918
20
41.133652
30
0
11
-0.321279495150694
21
3.05677020853233
31
0
210
0
220
0
230
1
40
0.996195
41
-2.97313441150891
42
-1.73925456887578
0
ELLIPSE
5
24F
100
AcDbEntity
8
1
62
256
6
ByLayer
370
18
48
1
60
0
100
AcDbEllipse
10
83.571261
20
34.774516
30
0
11
-0.0376441750873299
21
0.358160401359422
31
0
210
0
220
0
230
1
40
0.996195
41
2.8797932657906
42
3.10668606854987
0
ELLIPSE
5
250
100
AcDbEntity
8
1
62
256
6
ByLayer
370
18
48
1
60
0
100
AcDbEllipse
10
83.184026
20
35.089317
30
0
11
-0.0376441750873299
21
0.358160401359422
31
0
210
0
220
0
230
1
40
0.996195
41
1.60570291183481
42
1.83259571459403
0
ELLIPSE
5
251
100
AcDbEntity
8
1
62
256
6
ByLayer
370
18
48
1
60
0
100
AcDbEllipse
10
92.555642
20
36.407685
30
0
11
-1.03066457613004
21
9.80611840735805
31
0
210
0
220
0
230
1
40
0.996195
41
1.58969694879989
42
1.60570291183478
0
ELLIPSE
5
252
100
AcDbEntity
8
1
62
256
6
ByLayer
370
18
48
1
60
0
100
AcDbEllipse
10
85.187499
20
40.245039
30
0
11
-0.0104528463267653
21
0.0994521895368265
31
0
210
0
220
0
230
1
40
0.996195
41
-1.40233808471383
42
1.5707963267949
0
ELLIPSE
5
253
100
AcDbEntity
8
1
62
256
6
ByLayer
370
18
48
1
60
0
100
AcDbEllipse
10
92.561443
20
36.35903
30
0
11
-1.03066457613002
21
9.80611840735786
31
0
210
0
220
0
230
1
40
0.996195
41
1.5707963267949
42
1.57989695571309
0
ELLIPSE
5
254
100
AcDbEntity
8
1
62
256
6
ByLayer
370
18
48
1
60
0
100
AcDbEllipse
10
88.537277
20
44.325529
30
0
11
-0.0128650708014692
21
-0.199585795970738
31
0
210
0
220
0
230
1
40
0.085922
41
0.901382621220396
42
1.58546385301633
0
ELLIPSE
5
255
100
AcDbEntity
8
1
62
256
6
ByLayer
370
18
48
1
60
0
100
AcDbEllipse
10
88.352818
20
41.134062
30
0
11
-0.334491082456493
21
3.18247006517847
31
0
210
0
220
0
230
1
40
0.996195
41
0.168458242080873
42
1.40233808471401
0
ELLIPSE
5
256
100
AcDbEntity
8
1
62
256
6
ByLayer
370
18
48
1
60
0
100
AcDbEllipse
10
87.464595
20
44.311913
30
0
11
0.0104528463267655
21
-0.0994521895368271
31
0
210
0
220
0
230
1
40
0.996195
41
0.168458242081229
42
3.14159265358922
0
ELLIPSE
5
257
100
AcDbEntity
8
1
62
256
6
ByLayer
370
18
48
1
60
0
100
AcDbEllipse
10
91.143389
20
44.598019
30
0
11
0.0341172799593293
21
-0.324604235719799
31
0
210
0
220
0
230
1
40
0.996195
41
1.5707963267949
42
3.14159265358979
0
ELLIPSE
5
258
100
AcDbEntity
8
1
62
256
6
ByLayer
370
18
48
1
60
0
100
AcDbEllipse
10
84.899131
20
43.941721
30
0
11
0.020905692653531
21
-0.198904379073655
31
0
210
0
220
0
230
1
40
0.996195
41
3.14159265358979
42
-1.5707963267949
0
ELLIPSE
5
259
100
AcDbEntity
8
1
62
256
6
ByLayer
370
18
48
1
60
0
100
AcDbEllipse
10
82.858706
20
44.246823
30
0
11
-1.03066457613002
21
9.80611840735786
31
0
210
0
220
0
230
1
40
0.996195
41
3.1324920246716
42
3.14159265358979
0
ELLIPSE
5
25A
100
AcDbEntity
8
1
62
256
6
ByLayer
370
18
48
1
60
0
100
AcDbEllipse
10
89.196789
20
38.050688
30
0
11
0.0540801584411731
21
-0.192549568846512
31
0
210
0
220
0
230
1
40
0.085922
41
1.55612880057361
42
2.2402100323674
0
ELLIPSE
5
25B
100
AcDbEntity
8
1
62
256
6
ByLayer
370
18
48
1
60
0
100
AcDbEllipse
10
87.474176
20
44.213792
30
0
11
-0.0540801584411734
21
0.192549568846512
31
0
210
0
220
0
230
1
40
0.085922
41
-2.26954508481246
42
-1.58546385301625
0
ELLIPSE
5
25C
100
AcDbEntity
8
1
62
256
6
ByLayer
370
18
48
1
60
0
100
AcDbEllipse
10
88.352818
20
41.134062
30
0
11
0.334491082456495
21
-3.18247006517847
31
0
210
0
220
0
230
1
40
0.996195
41
-1.40233808471402
42
-0.168458242080873
0
ELLIPSE
5
25D
100
AcDbEntity
8
1
62
256
6
ByLayer
370
18
48
1
60
0
100
AcDbEllipse
10
84.210477
20
45.866796
30
0
11
-1.03066457613004
21
9.80611840735805
31
0
210
0
220
0
230
1
40
0.996195
41
-1.5518957047899
42
-1.53588974175501
0
ELLIPSE
5
25E
100
AcDbEntity
8
1
62
256
6
ByLayer
370
18
48
1
60
0
100
AcDbEllipse
10
88.560919
20
44.427141
30
0
11
0.0104528463267655
21
-0.0994521895368271
31
0
210
0
220
0
230
1
40
0.996195
41
3.14159265358922
42
-0.168458242081229
0
ELLIPSE
5
25F
100
AcDbEntity
8
1
62
256
6
ByLayer
370
18
48
1
60
0
100
AcDbEllipse
10
91.147289
20
44.598429
30
0
11
0.020905692653531
21
-0.198904379073655
31
0
210
0
220
0
230
1
40
0.996195
41
1.57079632679483
42
3.14159265358951
0
ELLIPSE
5
260
100
AcDbEntity
8
1
62
256
6
ByLayer
370
18
48
1
60
0
100
AcDbEllipse
10
91.810076
20
38.125677
30
0
11
0.020905692653531
21
-0.198904379073655
31
0
210
0
220
0
230
1
40
0.087156
41
0.886715094999611
42
1.5707963267949
0
ELLIPSE
5
261
100
AcDbEntity
8
1
62
256
6
ByLayer
370
18
48
1
60
0
100
AcDbEllipse
10
88.47
20
41.146378
30
0
11
-0.112305380934767
21
1.06851432438367
31
0
210
0
220
0
230
1
40
0.996195
41
0.128314548408031
42
1.04719755119661
0
ELLIPSE
5
262
100
AcDbEntity
8
1
62
256
6
ByLayer
370
18
48
1
60
0
100
AcDbEllipse
10
88.352984
20
41.13408
30
0
11
-0.147353774668412
21
1.40197751590066
31
0
210
0
220
0
230
1
40
0.996195
41
1.5707963267949
42
2.61799387799146
0
ELLIPSE
5
263
100
AcDbEntity
8
1
62
256
6
ByLayer
370
18
48
1
60
0
100
AcDbEllipse
10
88.352984
20
41.13408
30
0
11
0.156792694901482
21
-1.49178284305241
31
0
210
0
220
0
230
1
40
0.996195
41
0
42
6.28318530717959
0
ELLIPSE
5
264
100
AcDbEntity
8
1
62
256
6
ByLayer
370
18
48
1
60
0
100
AcDbEllipse
10
87.339447
20
41.651973
30
0
11
0.133173354417302
21
0.301374772921452
31
0
210
0
220
0
230
-1
40
0.507214
41
0.319332365944966
42
1.5730511279835
0
ELLIPSE
5
265
100
AcDbEntity
8
1
62
256
6
ByLayer
370
18
48
1
60
0
100
AcDbEllipse
10
87.239405
20
41.017038
30
0
11
0.0344734871857038
21
-0.327993321092447
31
0
210
0
220
0
230
-1
40
0.506253
41
0.210870490724199
42
2.70145522657088
0
ELLIPSE
5
266
100
AcDbEntity
8
1
62
256
6
ByLayer
370
18
48
1
60
0
100
AcDbEllipse
10
87.469271
20
40.416777
30
0
11
0.192922535712216
21
-0.267100713766935
31
0
210
0
220
0
230
-1
40
0.507214
41
-2.82676989002724
42
-1.57305112799109
0
ELLIPSE
5
267
100
AcDbEntity
8
1
62
256
6
ByLayer
370
18
48
1
60
0
100
AcDbEllipse
10
88.47
20
41.146378
30
0
11
-0.112305380934767
21
1.06851432438367
31
0
210
0
220
0
230
1
40
0.996195
41
1.04719755119661
42
2.09439510239321
0
ELLIPSE
5
268
100
AcDbEntity
8
1
62
256
6
ByLayer
370
18
48
1
60
0
100
AcDbEllipse
10
88.352984
20
41.13408
30
0
11
-0.147353774668412
21
1.40197751590066
31
0
210
0
220
0
230
1
40
0.996195
41
-2.61799387799151
42
-1.5707963267949
0
ELLIPSE
5
269
100
AcDbEntity
8
1
62
256
6
ByLayer
370
18
48
1
60
0
100
AcDbEllipse
10
88.352984
20
41.13408
30
0
11
-0.147353774668412
21
1.40197751590066
31
0
210
0
220
0
230
1
40
0.996195
41
0.523598775598326
42
1.5707963267949
0
ELLIPSE
5
26A
100
AcDbEntity
8
1
62
256
6
ByLayer
370
18
48
1
60
0
100
AcDbEllipse
10
88.430995
20
41.142279
30
0
11
0.250868311842371
21
-2.38685254888385
31
0
210
0
220
0
230
1
40
0.996195
41
3.55980384410863E-05
42
3.14153014702201
0
ELLIPSE
5
26B
100
AcDbEntity
8
1
62
256
6
ByLayer
370
18
48
1
60
0
100
AcDbEllipse
10
88.352984
20
41.13408
30
0
11
-0.147353774668412
21
1.40197751590066
31
0
210
0
220
0
230
1
40
0.996195
41
-1.5707963267949
42
-0.523598775598294
0
ELLIPSE
5
26C
100
AcDbEntity
8
1
62
256
6
ByLayer
370
18
48
1
60
0
100
AcDbEllipse
10
87.967143
20
40.011911
30
0
11
0.300051635635574
21
-0.134602403247211
31
0
210
0
220
0
230
-1
40
0.509152
41
0.706725092708472
42
-2.93304503394625
0
ELLIPSE
5
26D
100
AcDbEntity
8
1
62
256
6
ByLayer
370
18
48
1
60
0
100
AcDbEllipse
10
88.340176
20
42.381575
30
0
11
0.326745207488437
21
0.0343423051561421
31
0
210
0
220
0
230
-1
40
0.510128
41
0.317077564750355
42
1.5707963267949
0
ELLIPSE
5
26E
100
AcDbEntity
8
1
62
256
6
ByLayer
370
18
48
1
60
0
100
AcDbEllipse
10
88.47
20
41.146378
30
0
11
0.112305380934768
21
-1.06851432438367
31
0
210
0
220
0
230
1
40
0.996195
41
0
42
0.781013460241079
0
ELLIPSE
5
26F
100
AcDbEntity
8
1
62
256
6
ByLayer
370
18
48
1
60
0
100
AcDbEllipse
10
88.47
20
41.146378
30
0
11
-0.112305380934767
21
1.06851432438367
31
0
210
0
220
0
230
1
40
0.996195
41
2.09439510239321
42
3.14159265358979
0
ELLIPSE
5
270
100
AcDbEntity
8
1
62
256
6
ByLayer
370
18
48
1
60
0
100
AcDbEllipse
10
88.47
20
41.146378
30
0
11
-0.112305380934767
21
1.06851432438367
31
0
210
0
220
0
230
1
40
0.996195
41
-0.78238708838015
42
0
0
ELLIPSE
5
271
100
AcDbEntity
8
1
62
256
6
ByLayer
370
18
48
1
60
0
100
AcDbEllipse
10
89.197738
20
40.141251
30
0
11
0.265509374245891
21
0.194045260686859
31
0
210
0
220
0
230
-1
40
0.509152
41
2.52890196913077
42
-2.92850617208823
0
ELLIPSE
5
272
100
AcDbEntity
8
1
62
256
6
ByLayer
370
18
48
1
60
0
100
AcDbEllipse
10
87.469271
20
40.416777
30
0
11
0.192922535724167
21
-0.267100713771146
31
0
210
0
220
0
230
-1
40
0.507214
41
-1.57305112794469
42
-0.319332365940705
0
ELLIPSE
5
273
100
AcDbEntity
8
1
62
256
6
ByLayer
370
18
48
1
60
0
100
AcDbEllipse
10
88.599824
20
39.911182
30
0
11
0.326745207486013
21
0.03434230516215
31
0
210
0
220
0
230
-1
40
0.510128
41
-1.5707963267949
42
-0.317077564752713
0
ELLIPSE
5
274
100
AcDbEntity
8
1
62
256
6
ByLayer
370
18
48
1
60
0
100
AcDbEllipse
10
88.972857
20
42.280846
30
0
11
0.300051635635573
21
-0.134602403247193
31
0
210
0
220
0
230
-1
40
0.509152
41
2.9285061720884
42
-2.43486654220567
0
ELLIPSE
5
275
100
AcDbEntity
8
1
62
256
6
ByLayer
370
18
48
1
60
0
100
AcDbEllipse
10
87.742262
20
42.151505
30
0
11
0.265509374245916
21
0.194045260686863
31
0
210
0
220
0
230
-1
40
0.509152
41
2.93304503394624
42
-0.612689599861681
0
ELLIPSE
5
276
100
AcDbEntity
8
1
62
256
6
ByLayer
370
18
48
1
60
0
100
AcDbEllipse
10
87.339447
20
41.651973
30
0
11
0.133173354416877
21
0.301374772918264
31
0
210
0
220
0
230
-1
40
0.507214
41
1.5730511279786
42
2.82676989002496
0
ELLIPSE
5
277
100
AcDbEntity
8
1
62
256
6
ByLayer
370
18
48
1
60
0
100
AcDbEllipse
10
88.47
20
41.146378
30
0
11
-0.112305380934767
21
1.06851432438367
31
0
210
0
220
0
230
1
40
0.996195
41
-1.89899478131322
42
-1.22592464552859
0
ELLIPSE
5
278
100
AcDbEntity
8
1
62
256
6
ByLayer
370
18
48
1
60
0
100
AcDbEllipse
10
88.352984
20
41.13408
30
0
11
-0.147353774668412
21
1.40197751590066
31
0
210
0
220
0
230
1
40
0.996195
41
-0.523598775598294
42
0.523598775598326
0
ELLIPSE
5
279
100
AcDbEntity
8
1
62
256
6
ByLayer
370
18
48
1
60
0
100
AcDbEllipse
10
88.352984
20
41.13408
30
0
11
-0.147353774668412
21
1.40197751590066
31
0
210
0
220
0
230
1
40
0.996195
41
2.61799387799146
42
-2.61799387799151
0
ELLIPSE
5
27A
100
AcDbEntity
8
1
62
256
6
ByLayer
370
18
48
1
60
0
100
AcDbEllipse
10
88.358868
20
41.134698
30
0
11
0.250868311842371
21
-2.38685254888385
31
0
210
0
220
0
230
1
40
0.996195
41
0
42
6.28318530717959
0
ELLIPSE
5
27B
100
AcDbEntity
8
1
62
256
6
ByLayer
370
18
48
1
60
0
100
AcDbEllipse
10
93.054769
20
-27.678432
30
0
11
-0.745924813977829
21
-0.0780779859636487
31
0
210
0
220
0
230
1
40
0.553856
41
2.79078269119055
42
2.9785670513369
0
ELLIPSE
5
27C
100
AcDbEntity
8
1
62
256
6
ByLayer
370
18
48
1
60
0
100
AcDbEllipse
10
94.091269
20
-22.121138
30
0
11
-0.745924813977829
21
-0.0780779859636487
31
0
210
0
220
0
230
1
40
0.553856
41
2.97856705133685
42
-2.21222767983967
0
ELLIPSE
5
27D
100
AcDbEntity
8
1
62
256
6
ByLayer
370
18
48
1
60
0
100
AcDbEllipse
10
94.726446
20
-19.171999
30
0
11
-0.497283209318555
21
-0.0520519906424325
31
0
210
0
220
0
230
1
40
0.553856
41
3.01347363637672
42
-3.04281886804366
0
ELLIPSE
5
27E
100
AcDbEntity
8
1
62
256
6
ByLayer
370
18
48
1
60
0
100
AcDbEllipse
10
94.234429
20
-19.250958
30
0
11
-0.994566418637106
21
-0.104103981284865
31
0
210
0
220
0
230
1
40
0.553856
41
-3.0428188680436
42
-2.29281224237586
0
ELLIPSE
5
27F
100
AcDbEntity
8
1
62
256
6
ByLayer
370
18
48
1
60
0
100
AcDbEllipse
10
83.518293
20
32.186495
30
0
11
8.80763230534891
21
-86.8874094188123
31
0
210
0
220
0
230
-1
40
0.009125
41
1.6295422418943
42
1.72676645750243
0
ELLIPSE
5
280
100
AcDbEntity
8
1
62
256
6
ByLayer
370
18
48
1
60
0
100
AcDbEllipse
10
93.589007
20
35.900475
30
0
11
0.0487528219070206
21
-0.799276649712014
31
0
210
0
220
0
230
-1
40
0.08699
41
-0.899477289578888
42
-0.0248960520999703
0
ELLIPSE
5
281
100
AcDbEntity
8
1
62
256
6
ByLayer
370
18
48
1
60
0
100
AcDbEllipse
10
94.097857
20
35.909188
30
0
11
0.0839421960080538
21
-0.798656645919215
31
0
210
0
220
0
230
-1
40
0.086824
41
-0.895664793878706
42
-0.0205385275441405
0
ELLIPSE
5
282
100
AcDbEntity
8
1
62
256
6
ByLayer
370
18
48
1
60
0
100
AcDbEllipse
10
84.27752
20
36.125641
30
0
11
-0.219509772862073
21
2.08849598027337
31
0
210
0
220
0
230
1
40
0.996195
41
0.947386744149114
42
1.5707963267949
0
ELLIPSE
5
283
100
AcDbEntity
8
1
62
256
6
ByLayer
370
18
48
1
60
0
100
AcDbEllipse
10
84.009671
20
35.846112
30
0
11
0.00234239982487378
21
-2.10008585590673
31
0
210
0
220
0
230
-1
40
0.996112
41
-0.691409196485354
42
1.46759190742528
0
ELLIPSE
5
284
100
AcDbEntity
8
1
62
256
6
ByLayer
370
18
48
1
60
0
100
AcDbEllipse
10
83.983737
20
36.094763
30
0
11
0.00234240024202231
21
-2.10008585591135
31
0
210
0
220
0
230
-1
40
0.996112
41
1.46759190762503
42
2.13039306125811
0
ELLIPSE
5
285
100
AcDbEntity
8
1
62
256
6
ByLayer
370
18
48
1
60
0
100
AcDbEllipse
10
84.303652
20
35.87701
30
0
11
-0.219509772862074
21
2.08849598027338
31
0
210
0
220
0
230
1
40
0.996195
41
1.5707963267949
42
3.07044042407416
0
ELLIPSE
5
286
100
AcDbEntity
8
1
62
256
6
ByLayer
370
18
48
1
60
0
100
AcDbEllipse
10
91.002937
20
-27.016186
30
0
11
5.73321631381346
21
5.73321631381346
31
0
210
0
220
0
230
-1
40
0.308596
41
2.6990132855509
42
-2.84226868687288
0
ELLIPSE
5
287
100
AcDbEntity
8
1
62
256
6
ByLayer
370
18
48
1
60
0
100
AcDbEllipse
10
89.673334
20
-36.436315
30
0
11
1.58288774805544
21
2.59002719735912
31
0
210
0
220
0
230
-1
40
0.190039
41
-2.25393164359557
42
-1.16420308904231
0
ELLIPSE
5
288
100
AcDbEntity
8
1
62
256
6
ByLayer
370
18
48
1
60
0
100
AcDbEllipse
10
91.002937
20
-24.378695
30
0
11
5.7932240478904
21
9.14857823291947
31
0
210
0
220
0
230
-1
40
0.170692
41
2.18315837542144
42
2.66298551706948
0
ELLIPSE
5
289
100
AcDbEntity
8
1
62
256
6
ByLayer
370
18
48
1
60
0
100
AcDbEllipse
10
83.058268
20
-17.524606
30
0
11
0.777494590266084
21
-0.188434315386428
31
0
210
0
220
0
230
-1
40
0.896137
41
3.01499159358434
42
-1.69739738679677
0
ELLIPSE
5
28A
100
AcDbEntity
8
1
62
256
6
ByLayer
370
18
48
1
60
0
100
AcDbEllipse
10
94.328772
20
-14.336442
30
0
11
0.0993174976275257
21
0.794410710621039
31
0
210
0
220
0
230
-1
40
0.056164
41
-0.45813310550004
42
1.11266322127337
0
ELLIPSE
5
28B
100
AcDbEntity
8
1
62
256
6
ByLayer
370
18
48
1
60
0
100
AcDbEllipse
10
91.002937
20
5.642725
30
0
11
5.84973387285506
21
-5.84973387285506
31
0
210
0
220
0
230
-1
40
0.228112
41
2.17541450994877
42
2.91731784470972
0
ELLIPSE
5
28C
100
AcDbEntity
8
1
62
256
6
ByLayer
370
18
48
1
60
0
100
AcDbEllipse
10
64.702937
20
-18.465623
30
0
11
2.05649877036413
21
-0.476890768616033
31
0
210
0
220
0
230
-1
40
0.891653
41
0
42
6.28318530717959
0
ELLIPSE
5
28D
100
AcDbEntity
8
1
62
256
6
ByLayer
370
18
48
1
60
0
100
AcDbEllipse
10
67.002937
20
-11.387883
30
0
11
1.025
21
0
31
0
210
0
220
0
230
1
40
0.433659
41
2.21256433959078
42
0
0
ELLIPSE
5
28E
100
AcDbEntity
8
1
62
256
6
ByLayer
370
18
48
1
60
0
100
AcDbEllipse
10
67.002937
20
-11.387883
30
0
11
1.025
21
0
31
0
210
0
220
0
230
1
40
0.433659
41
0
42
0.82447171499363
0
ELLIPSE
5
28F
100
AcDbEntity
8
1
62
256
6
ByLayer
370
18
48
1
60
0
100
AcDbEllipse
10
89.673334
20
-3.234415
30
0
11
1.61349816085167
21
-2.69672457131195
31
0
210
0
220
0
230
-1
40
0.140924
41
-2.786725068652
42
-1.69699651411521
0
ELLIPSE
5
290
100
AcDbEntity
8
1
62
256
6
ByLayer
370
18
48
1
60
0
100
AcDbEllipse
10
89.288993
20
-7.197168
30
0
11
-1.44322784511136
21
0.139976380490292
31
0
210
0
220
0
230
1
40
0.440218
41
0
42
6.28318530717959
0
ELLIPSE
5
291
100
AcDbEntity
8
1
62
256
6
ByLayer
370
18
48
1
60
0
100
AcDbEllipse
10
91.002937
20
2.765849
30
0
11
5.87883372706014
21
-9.69555111057371
31
0
210
0
220
0
230
-1
40
0.123739
41
1.71855288220769
42
2.19838002382159
0
ELLIPSE
5
292
100
AcDbEntity
8
1
62
256
6
ByLayer
370
18
48
1
60
0
100
AcDbEllipse
10
79.47545
20
-25.489737
30
0
11
5.87571077246886
21
-1.36254505318572
31
0
210
0
220
0
230
-1
40
0.891653
41
-2.92303457770302
42
-1.68694761918731
0
ELLIPSE
5
293
100
AcDbEntity
8
1
62
256
6
ByLayer
370
18
48
1
60
0
100
AcDbEllipse
10
89.748268
20
-2.461812
30
0
11
0.356916511589599
21
3.31107501971651
31
0
210
0
220
0
230
-1
40
0.570459
41
-1.52709465273497
42
-1.04602688042619
0
ELLIPSE
5
294
100
AcDbEntity
8
1
62
256
6
ByLayer
370
18
48
1
60
0
100
AcDbEllipse
10
82.139057
20
-20.50737
30
0
11
0.777494590284508
21
-0.188434315451663
31
0
210
0
220
0
230
-1
40
0.896137
41
-3.11218985553914
42
-2.37252891981841
0
ELLIPSE
5
295
100
AcDbEntity
8
1
62
256
6
ByLayer
370
18
48
1
60
0
100
AcDbEllipse
10
70.735672
20
-12.734165
30
0
11
1.38337984259123
21
-0.613505488933677
31
0
210
0
220
0
230
-1
40
0.94519
41
-1.12196582104006
42
1.7578274447508
0
ELLIPSE
5
296
100
AcDbEntity
8
1
62
256
6
ByLayer
370
18
48
1
60
0
100
AcDbEllipse
10
89.288993
20
-7.197168
30
0
11
1.89112614187006
21
-0.183417326159693
31
0
210
0
220
0
230
1
40
0.440218
41
1.50834961629678
42
3.07914594309162
0
ELLIPSE
5
297
100
AcDbEntity
8
1
62
256
6
ByLayer
370
18
48
1
60
0
100
AcDbEllipse
10
93.379346
20
-14.599231
30
0
11
-1.09486250318794
21
0.106188978302981
31
0
210
0
220
0
230
1
40
0.440218
41
3.07914594309163
42
-2.40347325710865
0
ELLIPSE
5
298
100
AcDbEntity
8
1
62
256
6
ByLayer
370
18
48
1
60
0
100
AcDbEllipse
10
82.354054
20
-20.61959
30
0
11
0.497664774176339
21
-0.0482677174104462
31
0
210
0
220
0
230
1
40
0.440218
41
-1.89504242509207
42
-1.66814962233295
0
ELLIPSE
5
299
100
AcDbEntity
8
1
62
256
6
ByLayer
370
18
48
1
60
0
100
AcDbEllipse
10
94.091269
20
-14.399296
30
0
11
0.746497161264506
21
-0.0724015761156691
31
0
210
0
220
0
230
1
40
0.440218
41
-0.062446710498171
42
1.3531347526104
0
ELLIPSE
5
29A
100
AcDbEntity
8
1
62
256
6
ByLayer
370
18
48
1
60
0
100
AcDbEllipse
10
82.887433
20
-16.755896
30
0
11
0.388745222250415
21
-0.0942186402867057
31
0
210
0
220
0
230
1
40
0.896141
41
-1.44419041493871
42
-0.538073181095
0
ELLIPSE
5
29B
100
AcDbEntity
8
1
62
256
6
ByLayer
370
18
48
1
60
0
100
AcDbEllipse
10
83.955858
20
-17.112452
30
0
11
-0.781487070472422
21
0.0757951919339881
31
0
210
0
220
0
230
1
40
0.440218
41
-0.0624467104981784
42
1.5083496162967
0
ELLIPSE
5
29C
100
AcDbEntity
8
1
62
256
6
ByLayer
370
18
48
1
60
0
100
AcDbEllipse
10
83.23065
20
-17.44937
30
0
11
0.746497161264506
21
-0.0724015761156691
31
0
210
0
220
0
230
1
40
0.440218
41
3.07914594309162
42
-1.63324303729304
0
ELLIPSE
5
29D
100
AcDbEntity
8
1
62
256
6
ByLayer
370
18
48
1
60
0
100
AcDbEllipse
10
83.626475
20
-16.559546
30
0
11
9.95329548352677
21
-0.965354348208923
31
0
210
0
220
0
230
1
40
0.440218
41
-1.64234366621125
42
-1.63324303729306
0
ELLIPSE
5
29E
100
AcDbEntity
8
1
62
256
6
ByLayer
370
18
48
1
60
0
100
AcDbEllipse
10
85.289959
20
-16.092377
30
0
11
9.95329548352677
21
-0.965354348208923
31
0
210
0
220
0
230
1
40
0.440218
41
-0.0624467104981676
42
-0.0533460815799741
0
ELLIPSE
5
29F
100
AcDbEntity
8
1
62
256
6
ByLayer
370
18
48
1
60
0
100
AcDbEllipse
10
90.248198
20
-16.691183
30
0
11
4.9766477417632
21
-0.482677174104444
31
0
210
0
220
0
230
1
40
0.440218
41
-0.0533460815799713
42
-0.0435460884931766
0
ELLIPSE
5
2A0
100
AcDbEntity
8
1
62
256
6
ByLayer
370
18
48
1
60
0
100
AcDbEllipse
10
82.532749
20
-20.427303
30
0
11
0.995329548352675
21
-0.0965354348208921
31
0
210
0
220
0
230
1
40
0.440218
41
-2.94223997628882
42
-1.89504242509219
0
ELLIPSE
5
2A1
100
AcDbEntity
8
1
62
256
6
ByLayer
370
18
48
1
60
0
100
AcDbEllipse
10
91.477219
20
-21.475953
30
0
11
9.95329548352677
21
-0.965354348208923
31
0
210
0
220
0
230
1
40
0.440218
41
3.07914594309163
42
3.08824657200982
0
ELLIPSE
5
2A2
100
AcDbEntity
8
1
62
256
6
ByLayer
370
18
48
1
60
0
100
AcDbEllipse
10
86.51898
20
-20.877147
30
0
11
4.9766477417632
21
-0.482677174104444
31
0
210
0
220
0
230
1
40
0.440218
41
3.08824657200982
42
3.09804656509662
0
ELLIPSE
5
2A3
100
AcDbEntity
8
1
62
256
6
ByLayer
370
18
48
1
60
0
100
AcDbEllipse
10
82.040732
20
-20.423377
30
0
11
0.497664774176339
21
-0.0482677174104462
31
0
210
0
220
0
230
1
40
0.440218
41
3.1140525281315
42
-2.94223997628891
0
ELLIPSE
5
2A4
100
AcDbEntity
8
1
62
256
6
ByLayer
370
18
48
1
60
0
100
AcDbEllipse
10
93.117661
20
-21.748804
30
0
11
0.995329548352675
21
-0.0965354348208921
31
0
210
0
220
0
230
1
40
0.440218
41
-1.371443649494
42
-0.324246098297347
0
ELLIPSE
5
2A5
100
AcDbEntity
8
1
62
256
6
ByLayer
370
18
48
1
60
0
100
AcDbEllipse
10
85.285518
20
-16.113592
30
0
11
9.95329548352679
21
-0.965354348208925
31
0
210
0
220
0
230
1
40
0.440218
41
-0.0435460884931724
42
-0.0275401254582875
0
ELLIPSE
5
2A6
100
AcDbEntity
8
1
62
256
6
ByLayer
370
18
48
1
60
0
100
AcDbEllipse
10
91.48166
20
-21.454738
30
0
11
9.95329548352679
21
-0.965354348208925
31
0
210
0
220
0
230
1
40
0.440218
41
3.09804656509662
42
3.11405252813151
0
ELLIPSE
5
2A7
100
AcDbEntity
8
1
62
256
6
ByLayer
370
18
48
1
60
0
100
AcDbEllipse
10
83.674944
20
-16.565902
30
0
11
9.95329548352679
21
-0.965354348208925
31
0
210
0
220
0
230
1
40
0.440218
41
-1.66814962233295
42
-1.65214365929806
0
ELLIPSE
5
2A8
100
AcDbEntity
8
1
62
256
6
ByLayer
370
18
48
1
60
0
100
AcDbEllipse
10
83.862263
20
-17.366368
30
0
11
0.0495543611078046
21
0.396918587742118
31
0
210
0
220
0
230
1
40
0.056034
41
-2.68497963582219
42
-1.77886240197781
0
ELLIPSE
5
2A9
100
AcDbEntity
8
1
62
256
6
ByLayer
370
18
48
1
60
0
100
AcDbEllipse
10
83.058773
20
-18.710246
30
0
11
4.9766477417632
21
-0.482677174104444
31
0
210
0
220
0
230
1
40
0.440218
41
-1.65214365929807
42
-1.64234366621127
0
ELLIPSE
5
2AA
100
AcDbEntity
8
1
62
256
6
ByLayer
370
18
48
1
60
0
100
AcDbEllipse
10
94.726446
20
-17.144953
30
0
11
0.497664774176339
21
-0.0482677174104462
31
0
210
0
220
0
230
1
40
0.440218
41
-0.0275401254582652
42
0.0954448777875656
0
ELLIPSE
5
2AB
100
AcDbEntity
8
1
62
256
6
ByLayer
370
18
48
1
60
0
100
AcDbEllipse
10
83.942573
20
-17.249435
30
0
11
-1.09486250318794
21
0.106188978302981
31
0
210
0
220
0
230
1
40
0.440218
41
-0.0624467104981584
42
1.5083496162967
0
ELLIPSE
5
2AC
100
AcDbEntity
8
1
62
256
6
ByLayer
370
18
48
1
60
0
100
AcDbEllipse
10
93.582623
20
-21.864355
30
0
11
0.497664774176339
21
-0.0482677174104462
31
0
210
0
220
0
230
1
40
0.440218
41
-0.324246098297277
42
-0.0973532955380799
0
ELLIPSE
5
2AD
100
AcDbEntity
8
1
62
256
6
ByLayer
370
18
48
1
60
0
100
AcDbEllipse
10
94.503829
20
-14.377813
30
0
11
-0.388745222250415
21
0.0942186402867056
31
0
210
0
220
0
230
1
40
0.896141
41
0.791285004807646
42
1.69740223865123
0
ELLIPSE
5
2AE
100
AcDbEntity
8
1
62
256
6
ByLayer
370
18
48
1
60
0
100
AcDbEllipse
10
92.398423
20
-18.432088
30
0
11
0.0495543611078046
21
0.396918587742118
31
0
210
0
220
0
230
1
40
0.056034
41
-2.68497963582219
42
-1.77886240197784
0
ELLIPSE
5
2AF
100
AcDbEntity
8
1
62
256
6
ByLayer
370
18
48
1
60
0
100
AcDbEllipse
10
92.478733
20
-18.315155
30
0
11
-1.09486250318794
21
0.106188978302981
31
0
210
0
220
0
230
1
40
0.440218
41
1.50834961629675
42
3.07914594309162
0
ELLIPSE
5
2B0
100
AcDbEntity
8
1
62
256
6
ByLayer
370
18
48
1
60
0
100
AcDbEllipse
10
92.492019
20
-18.178171
30
0
11
-0.781487070472422
21
0.0757951919339881
31
0
210
0
220
0
230
1
40
0.440218
41
1.50834961629662
42
3.07914594309163
0
ELLIPSE
5
2B1
100
AcDbEntity
8
1
62
256
6
ByLayer
370
18
48
1
60
0
100
AcDbEllipse
10
93.054769
20
-18.675889
30
0
11
0.746497161264506
21
-0.0724015761156691
31
0
210
0
220
0
230
1
40
0.440218
41
-1.63324303729304
42
-0.0624467104981215
0
ELLIPSE
5
2B2
100
AcDbEntity
8
1
62
256
6
ByLayer
370
18
48
1
60
0
100
AcDbEllipse
10
93.603215
20
-18.093736
30
0
11
-0.388745222250415
21
0.0942186402867056
31
0
210
0
220
0
230
1
40
0.896141
41
0.791285004807395
42
1.69740223865094
0
ELLIPSE
5
2B3
100
AcDbEntity
8
1
62
256
6
ByLayer
370
18
48
1
60
0
100
AcDbEllipse
10
93.907942
20
-17.843163
30
0
11
9.95329548352677
21
-0.965354348208923
31
0
210
0
220
0
230
1
40
0.440218
41
-1.63324303729307
42
-1.62414240837488
0
ELLIPSE
5
2B4
100
AcDbEntity
8
1
62
256
6
ByLayer
370
18
48
1
60
0
100
AcDbEllipse
10
93.430402
20
-20.00512
30
0
11
4.9766477417632
21
-0.482677174104444
31
0
210
0
220
0
230
1
40
0.440218
41
-1.62414240837486
42
-1.61434241528806
0
ELLIPSE
5
2B5
100
AcDbEntity
8
1
62
256
6
ByLayer
370
18
48
1
60
0
100
AcDbEllipse
10
93.859329
20
-17.837399
30
0
11
9.95329548352679
21
-0.965354348208925
31
0
210
0
220
0
230
1
40
0.440218
41
-1.61434241528807
42
-1.59833645225318
0
ELLIPSE
5
2B6
100
AcDbEntity
8
1
62
256
6
ByLayer
370
18
48
1
60
0
100
AcDbEllipse
10
93.195388
20
-21.973105
30
0
11
0.497664774176339
21
-0.0482677174104462
31
0
210
0
220
0
230
1
40
0.440218
41
-1.59833645225325
42
-1.371443649494
0
ELLIPSE
5
2B7
100
AcDbEntity
8
1
62
256
6
ByLayer
370
18
48
1
60
0
100
AcDbEllipse
10
84.205206
20
-20.56806
30
0
11
9.95329548352677
21
-0.965354348208923
31
0
210
0
220
0
230
1
40
0.440218
41
-0.0715473394163594
42
-0.0624467104981692
0
ELLIPSE
5
2B8
100
AcDbEntity
8
1
62
256
6
ByLayer
370
18
48
1
60
0
100
AcDbEllipse
10
89.153932
20
-21.206115
30
0
11
4.9766477417632
21
-0.482677174104444
31
0
210
0
220
0
230
1
40
0.440218
41
-0.0813473325031701
42
-0.0715473394163595
0
ELLIPSE
5
2B9
100
AcDbEntity
8
1
62
256
6
ByLayer
370
18
48
1
60
0
100
AcDbEllipse
10
84.211007
20
-20.547014
30
0
11
9.95329548352679
21
-0.965354348208925
31
0
210
0
220
0
230
1
40
0.440218
41
-0.0973532955380529
42
-0.0813473325031637
0
ELLIPSE
5
2BA
100
AcDbEntity
8
1
62
256
6
ByLayer
370
18
48
1
60
0
100
AcDbEllipse
10
64.702937
20
-14.898543
30
0
11
-2
21
2.44921270764475E-16
31
0
210
0
220
0
230
1
40
0.901077
41
1.27362150370175
42
1.81593915096553
0
ELLIPSE
5
2BB
100
AcDbEntity
8
1
62
256
6
ByLayer
370
18
48
1
60
0
100
AcDbEllipse
10
64.887216
20
25.910975
30
0
11
1.75933425489768
21
-0.475965506005217
31
0
210
0
220
0
230
-1
40
0.351906
41
0
42
6.28318530717959
0
ELLIPSE
5
2BC
100
AcDbEntity
8
1
62
256
6
ByLayer
370
18
48
1
60
0
100
AcDbEllipse
10
754.597892
20
-172.15558
30
0
11
712.89917703263
21
-203.518401657323
31
0
210
0
220
0
230
-1
40
0.06666
41
2.89470470626647
42
2.93556713378269
0
ELLIPSE
5
2BD
100
AcDbEntity
8
1
62
256
6
ByLayer
370
18
48
1
60
0
100
AcDbEllipse
10
72.834351
20
0
30
0
11
4.86649343378975
21
-38.6989215255312
31
0
210
0
220
0
230
-1
40
0.059369
41
1.8286536294971
42
1.83203814741856
0
ELLIPSE
5
2BE
100
AcDbEntity
8
1
62
256
6
ByLayer
370
18
48
1
60
0
100
AcDbEllipse
10
148.647757
20
0
30
0
11
113.30894016562
21
-32.7579802535514
31
0
210
0
220
0
230
-1
40
0.126354
41
2.54382647945778
42
-2.84297814831331
0
ELLIPSE
5
2BF
100
AcDbEntity
8
1
62
256
6
ByLayer
370
18
48
1
60
0
100
AcDbEllipse
10
-656.899424
20
0
30
0
11
738.439565137947
21
-16.8200871936812
31
0
210
0
220
0
230
-1
40
0.047199
41
-0.243204408843572
42
-0.167371454687312
0
ELLIPSE
5
2C0
100
AcDbEntity
8
1
62
256
6
ByLayer
370
18
48
1
60
0
100
AcDbEllipse
10
72.834351
20
0
30
0
11
4.47263072983339
21
38.6984541730259
31
0
210
0
220
0
230
-1
40
0.077336
41
2.85944751270783
42
2.86283206296252
0
ELLIPSE
5
2C1
100
AcDbEntity
8
1
62
256
6
ByLayer
370
18
48
1
60
0
100
AcDbEllipse
10
754.597901
20
157.830496
30
0
11
712.839417740054
21
187.208401458554
31
0
210
0
220
0
230
-1
40
0.087652
41
2.93674793091915
42
2.97761035819896
0
ELLIPSE
5
2C2
100
AcDbEntity
8
1
62
256
6
ByLayer
370
18
48
1
60
0
100
AcDbEllipse
10
148.647757
20
0
30
0
11
113.272058397561
21
30.400761993515
31
0
210
0
220
0
230
-1
40
0.16607
41
2.62488107253421
42
-2.68613007656088
0
ELLIPSE
5
2C3
100
AcDbEntity
8
1
62
256
6
ByLayer
370
18
48
1
60
0
100
AcDbEllipse
10
30.763884
20
0
30
0
11
18.7348357595694
21
39.4834983055073
31
0
210
0
220
0
230
-1
40
0.341999
41
-2.98049364836087
42
-2.05364588642063
0
ELLIPSE
5
2C4
100
AcDbEntity
8
1
62
256
6
ByLayer
370
18
48
1
60
0
100
AcDbEllipse
10
-6.763884
20
0
30
0
11
18.7348357595584
21
-39.4834983054935
31
0
210
0
220
0
230
-1
40
0.341999
41
-1.08794676716943
42
-0.161099005228968
0
ELLIPSE
5
2C5
100
AcDbEntity
8
1
62
256
6
ByLayer
370
18
48
1
60
0
100
AcDbEllipse
10
30.763884
20
0
30
0
11
18.7348357595663
21
-39.483498305503
31
0
210
0
220
0
230
-1
40
0.341999
41
2.05364588642055
42
2.98049364836085
0
ELLIPSE
5
2C6
100
AcDbEntity
8
1
62
256
6
ByLayer
370
18
48
1
60
0
100
AcDbEllipse
10
148.647757
20
0
30
0
11
122.618983443461
21
32.9093563191243
31
0
210
0
220
0
230
-1
40
0.16607
41
2.31766366088694
42
2.4223674874794
0
ELLIPSE
5
2C7
100
AcDbEntity
8
1
62
256
6
ByLayer
370
18
48
1
60
0
100
AcDbEllipse
10
-6.763884
20
0
30
0
11
18.734835759569
21
39.4834983055066
31
0
210
0
220
0
230
-1
40
0.341999
41
0.161099005228924
42
1.08794676716918
0
ELLIPSE
5
2C8
100
AcDbEntity
8
1
62
256
6
ByLayer
370
18
48
1
60
0
100
AcDbEllipse
10
65.776689
20
-0.000129
30
0
11
32.5809460354173
21
37.9946698415832
31
0
210
0
220
0
230
-1
40
0.225702
41
1.65670500166796
42
1.66186910320475
0
POINT
5
6C
100
AcDbEntity
8
80
62
256
6
ByLayer
370
13
48
1
60
0
100
AcDbPoint
10
0
20
0
30
0
39
0
210
0
220
0
230
1
50
360
0
POINT
5
6E
100
AcDbEntity
8
81
62
256
6
ByLayer
370
13
48
1
60
0
100
AcDbPoint
10
94
20
48
30
0
39
0
210
0
220
0
230
1
50
360
0
SPLINE
5
2C9
100
AcDbEntity
8
SK1
62
256
6
ByLayer
370
18
48
1
60
0
100
AcDbSpline
70
4
71
3
72
16
73
12
40
0
40
0
40
0
40
0
40
0.0449620914812451
40
0.0903368815019423
40
0.123287996773751
40
0.156195942313692
40
0.206380327128441
40
0.302189466870412
40
0.465199895219244
40
0.628992158827555
40
1
40
1
40
1
40
1
41
1
10
-0.400000000000063
20
-5.67060688490521
30
0
41
1
10
-0.420927174634212
20
-5.6923944636843
30
0
41
1
10
-0.467485467566112
20
-5.72851688005115
30
0
41
1
10
-0.544757012788323
20
-5.76392327686637
30
0
41
1
10
-0.622034972988132
20
-5.76840721477473
30
0
41
1
10
-0.699252754045661
20
-5.74775039259256
30
0
41
1
10
-0.800267140719386
20
-5.68134988910837
30
0
41
1
10
-0.926677638040221
20
-5.52279599491436
30
0
41
1
10
-1.04851005422595
20
-5.27936518655821
30
0
41
1
10
-1.18854873195445
20
-4.85450503712925
30
0
41
1
10
-1.26941082007026
20
-4.51991257098303
30
0
41
1
10
-1.30710678118653
20
-4.28124408565431
30
0
0
SPLINE
5
2CA
100
AcDbEntity
8
SK1
62
256
6
ByLayer
370
18
48
1
60
0
100
AcDbSpline
70
4
71
2
72
6
73
3
40
0
40
0
40
0
40
1
40
1
40
1
41
1
10
-46.5004731678958
20
-26.4071167016237
30
0
41
1
10
-24.7502365839479
20
-26.9535583508345
30
0
41
1
10
-3
20
-27.5000000000453
30
0
0
SPLINE
5
2CB
100
AcDbEntity
8
SK1
62
256
6
ByLayer
370
18
48
1
60
0
100
AcDbSpline
70
4
71
2
72
6
73
3
40
0
40
0
40
0
40
1
40
1
40
1
41
1
10
-0.400000000000023
20
27.3251512814302
30
0
41
1
10
-1.20000000000001
20
27.3251512814302
30
0
41
1
10
-2
20
27.3251512814302
30
0
0
SPLINE
5
2CC
100
AcDbEntity
8
SK1
62
256
6
ByLayer
370
18
48
1
60
0
100
AcDbSpline
70
4
71
2
72
6
73
3
40
0
40
0
40
0
40
1
40
1
40
1
41
1
10
-46.5004657229078
20
26.4070723719183
30
0
41
1
10
-47.2502328425843
20
25.948716264935
30
0
41
1
10
-48
20
25.49035990838
30
0
0
SPLINE
5
2CD
100
AcDbEntity
8
SK1
62
256
6
ByLayer
370
18
48
1
60
0
100
AcDbSpline
70
4
71
3
72
16
73
12
40
0
40
0
40
0
40
0
40
0.0316164998116628
40
0.0560460207738062
40
0.0756171221987377
40
0.0951959244131065
40
0.122531021195027
40
0.171855515565494
40
0.328145741064575
40
0.663365227866927
40
1
40
1
40
1
40
1
41
1
10
-0.400000000000062
20
5.67060691171689
30
0
41
1
10
-0.394038052578522
20
5.66431914550421
30
0
41
1
10
-0.382312554508222
20
5.65553431284061
30
0
41
1
10
-0.363502762487242
20
5.64766784076189
30
0
41
1
10
-0.346198557899655
20
5.64729821251078
30
0
41
1
10
-0.328895214687272
20
5.65334439405915
30
0
41
1
10
-0.30792599449198
20
5.67013463423577
30
0
41
1
10
-0.271956932242407
20
5.7244001890264
30
0
41
1
10
-0.230624220443553
20
5.86926111680978
30
0
41
1
10
-0.203282826745883
20
6.09335430168501
30
0
41
1
10
-0.197092167151639
20
6.27443245898657
30
0
41
1
10
-0.20000000000063
20
6.36525211459042
30
0
0
SPLINE
5
2CE
100
AcDbEntity
8
SK1
62
256
6
ByLayer
370
18
48
1
60
0
100
AcDbSpline
70
4
71
3
72
16
73
12
40
0
40
0
40
0
40
0
40
0.0721970668560741
40
0.19511995078129
40
0.317828301303899
40
0.440532154257065
40
0.563232677489317
40
0.685930681727617
40
0.808626752139643
40
0.93132134212991
40
1
40
1
40
1
40
1
41
1
10
-2.19993682588037
20
-27.5201003717167
30
0
41
1
10
-2.19994139324855
20
-27.5198835533974
30
0
41
1
10
-2.19995287134114
20
-27.5059026437411
30
0
41
1
10
-2.19996732554009
20
-27.4216127677619
30
0
41
1
10
-2.19997951574158
20
-27.2438017794422
30
0
41
1
10
-2.19998803453222
20
-26.9910044540957
30
0
41
1
10
-2.19999374010091
20
-26.6679419456381
30
0
41
1
10
-2.19999729067714
20
-26.2783671939303
30
0
41
1
10
-2.19999923971755
20
-25.8255283842756
30
0
41
1
10
-2.19999990245835
20
-25.3873584266318
30
0
41
1
10
-2.20000000900744
20
-25.0968894776193
30
0
41
1
10
-2.20000000000004
20
-24.9895674792699
30
0
0
SPLINE
5
2CF
100
AcDbEntity
8
SK1
62
256
6
ByLayer
370
18
48
1
60
0
100
AcDbSpline
70
4
71
3
72
17
73
13
40
0
40
0
40
0
40
0
40
0.0083774336733044
40
0.13107307489976
40
0.253870259918073
40
0.376665276734196
40
0.499365626719947
40
0.622068631448149
40
0.744775141329333
40
0.86765865800172
40
0.990532709220672
40
1
40
1
40
1
40
1
41
1
10
-2.20000000000004
20
24.9895663958005
30
0
41
1
10
-2.2000000000886
20
25.0026504115115
30
0
41
1
10
-2.19999999188588
20
25.2066545141932
30
0
41
1
10
-2.19999974186018
20
25.5807389761762
30
0
41
1
10
-2.19999842588539
20
26.0639264373314
30
0
41
1
10
-2.19999571070134
20
26.4851114987927
30
0
41
1
10
-2.19999113986927
20
26.8412797098066
30
0
41
1
10
-2.19998409090049
20
27.1290100323353
30
0
41
1
10
-2.19997381330887
20
27.344257886706
30
0
41
1
10
-2.19995942401597
20
27.4819415537373
30
0
41
1
10
-2.19994578268366
20
27.5188252678245
30
0
41
1
10
-2.19993743127942
20
27.5200970097762
30
0
41
1
10
-2.19993682792658
20
27.5201003716316
30
0
0
SPLINE
5
2D0
100
AcDbEntity
8
SK1
62
256
6
ByLayer
370
18
48
1
60
0
100
AcDbSpline
70
4
71
3
72
16
73
12
40
0
40
0
40
0
40
0
40
0.34311842282875
40
0.537367149428758
40
0.729775833568636
40
0.819562957589123
40
0.856762937236356
40
0.894277255197613
40
0.927696580960605
40
0.97610589537855
40
1
40
1
40
1
40
1
41
1
10
-1.30710678118653
20
4.2812448052843
30
0
41
1
10
-1.27125472986791
20
4.5015594829067
30
0
41
1
10
-1.19107721931311
20
4.83813364123108
30
0
41
1
10
-1.05190662903441
20
5.28466896893454
30
0
41
1
10
-0.909980941480553
20
5.55804744815943
30
0
41
1
10
-0.76378469251409
20
5.71273487789639
30
0
41
1
10
-0.662860730515555
20
5.76100180217995
30
0
41
1
10
-0.58780420306817
20
5.76985675523793
30
0
41
1
10
-0.507628486343787
20
5.75082457326449
30
0
41
1
10
-0.446883466155755
20
5.71269814454737
30
0
41
1
10
-0.41115480724073
20
5.68172562296964
30
0
41
1
10
-0.400000000000065
20
5.67060691171686
30
0
0
SPLINE
5
2D1
100
AcDbEntity
8
SK1
62
256
6
ByLayer
370
18
48
1
60
0
100
AcDbSpline
70
4
71
2
72
6
73
3
40
0
40
0
40
0
40
1
40
1
40
1
41
1
10
-3
20
-27.5000000000453
30
0
41
1
10
-2.59744067185469
20
-27.5101136915598
30
0
41
1
10
-2.19488134370937
20
-27.5202273830743
30
0
0
SPLINE
5
2D2
100
AcDbEntity
8
SK1
62
256
6
ByLayer
370
18
48
1
60
0
100
AcDbSpline
70
4
71
3
72
13
73
9
40
0
40
0
40
0
40
0
40
0.239468190909075
40
0.368375774873997
40
0.50001647112755
40
0.631654429480293
40
0.760554462869735
40
1
40
1
40
1
40
1
41
1
10
-2
20
27.3251512814302
30
0
41
1
10
-2.02607195688124
20
27.32540435647
30
0
41
1
10
-2.06363514552148
20
27.3325216078568
30
0
41
1
10
-2.11047804957901
20
27.3567471636424
30
0
41
1
10
-2.14242236365003
20
27.3827224769008
30
0
41
1
10
-2.16840047364593
20
27.4146634923699
30
0
41
1
10
-2.19262861825256
20
27.4615013561305
30
0
41
1
10
-2.19974657432198
20
27.4990612074137
30
0
41
1
10
-2.20000000000002
20
27.5251310238059
30
0
0
SPLINE
5
2D3
100
AcDbEntity
8
SK1
62
256
6
ByLayer
370
18
48
1
60
0
100
AcDbSpline
70
4
71
3
72
16
73
12
40
0
40
0
40
0
40
0
40
0.182423135116527
40
0.274927839727614
40
0.367413177569415
40
0.458890948559807
40
0.550361533595071
40
0.644312928040867
40
0.738283918026196
40
0.869115426195095
40
1
40
1
40
1
40
1
41
1
10
-1.30710678118653
20
4.2812448052843
30
0
41
1
10
-1.39984244998149
20
3.78091146535471
30
0
41
1
10
-1.51936157709913
20
3.01487294384333
30
0
41
1
10
-1.64273765962471
20
1.9660273301255
30
0
41
1
10
-1.7082830887209
20
1.16601786654827
30
0
41
1
10
-1.74138123653412
20
0.361357969502696
30
0
41
1
10
-1.73997208525282
20
-0.450146638532749
30
0
41
1
10
-1.70175288596251
20
-1.26571156427087
30
0
41
1
10
-1.62194802782224
20
-2.18661124795037
30
0
41
1
10
-1.49131767885389
20
-3.19698451441523
30
0
41
1
10
-1.37296890675467
20
-3.92257879145559
30
0
41
1
10
-1.30710678118652
20
-4.28124408565431
30
0
0
SPLINE
5
2D4
100
AcDbEntity
8
SK1
62
256
6
ByLayer
370
18
48
1
60
0
100
AcDbSpline
70
4
71
3
72
13
73
9
40
0
40
0
40
0
40
0
40
0.239445542786723
40
0.368345579137717
40
0.49998353965132
40
0.631624236626216
40
0.760531819312439
40
1
40
1
40
1
40
1
41
1
10
-2.20000000000002
20
-27.5251310239642
30
0
41
1
10
-2.19974657432782
20
-27.4990612076283
30
0
41
1
10
-2.19262861824384
20
-27.4615013564006
30
0
41
1
10
-2.16840047371738
20
-27.4146634928512
30
0
41
1
10
-2.14242236380985
20
-27.3827224774726
30
0
41
1
10
-2.11047804983015
20
-27.3567471642878
30
0
41
1
10
-2.06363514647053
20
-27.3325216086764
30
0
41
1
10
-2.02607195733614
20
-27.3254043572623
30
0
41
1
10
-2
20
-27.3251512819252
30
0
0
SPLINE
5
2D5
100
AcDbEntity
8
SK1
62
256
6
ByLayer
370
18
48
1
60
0
100
AcDbSpline
70
4
71
2
72
6
73
3
40
0
40
0
40
0
40
1
40
1
40
1
41
1
10
-3
20
27.500000000101
30
0
41
1
10
-24.7502365839479
20
26.9535583508891
30
0
41
1
10
-46.5004731678958
20
26.4071167016772
30
0
0
SPLINE
5
2D6
100
AcDbEntity
8
SK1
62
256
6
ByLayer
370
18
48
1
60
0
100
AcDbSpline
70
4
71
2
72
6
73
3
40
0
40
0
40
0
40
1
40
1
40
1
41
1
10
-2
20
-27.3251512819252
30
0
41
1
10
-1.20000000000001
20
-27.3251512819252
30
0
41
1
10
-0.400000000000023
20
-27.3251512819252
30
0
0
SPLINE
5
2D7
100
AcDbEntity
8
SK1
62
256
6
ByLayer
370
18
48
1
60
0
100
AcDbSpline
70
4
71
2
72
6
73
3
40
0
40
0
40
0
40
1
40
1
40
1
41
1
10
-48
20
-25.4903372289617
30
0
41
1
10
-47.2502396776065
20
-25.9486795491991
30
0
41
1
10
-46.5004793682357
20
-26.407021856008
30
0
0
SPLINE
5
2D8
100
AcDbEntity
8
SK1
62
256
6
ByLayer
370
18
48
1
60
0
100
AcDbSpline
70
4
71
2
72
6
73
3
40
0
40
0
40
0
40
1
40
1
40
1
41
1
10
-0.400000000000023
20
-27.3251512818931
30
0
41
1
10
-0.214629265596418
20
-27.3447858171552
30
0
41
1
10
-0.200000000000023
20
-27.5127479889025
30
0
0
SPLINE
5
2D9
100
AcDbEntity
8
SK1
62
256
6
ByLayer
370
18
48
1
60
0
100
AcDbSpline
70
4
71
2
72
6
73
3
40
0
40
0
40
0
40
1
40
1
40
1
41
1
10
-0.200000000000023
20
27.5127419688873
30
0
41
1
10
-0.214628642458859
20
27.3447861394389
30
0
41
1
10
-0.400000000000023
20
27.3251512814162
30
0
0
SPLINE
5
2DA
100
AcDbEntity
8
SK1
62
256
6
ByLayer
370
18
48
1
60
0
100
AcDbSpline
70
4
71
3
72
16
73
12
40
0
40
0
40
0
40
0
40
0.484362133143251
40
0.672654027085994
40
0.809095459552826
40
0.877752097826651
40
0.901320737247328
40
0.925121024104531
40
0.94599539984818
40
0.971882270190054
40
1
40
1
40
1
40
1
41
1
10
-0.200000000000061
20
-6.36525122554052
30
0
41
1
10
-0.195581000847972
20
-6.2340777624133
30
0
41
1
10
-0.206768985511109
20
-6.05285286800125
30
0
41
1
10
-0.240576655278756
20
-5.83412744354334
30
0
41
1
10
-0.271009924337311
20
-5.73008961132426
30
0
41
1
10
-0.303428989102254
20
-5.67425820640277
30
0
41
1
10
-0.328239388270793
20
-5.6537617093485
30
0
41
1
10
-0.346004555757753
20
-5.64702125526236
30
0
41
1
10
-0.365212764831182
20
-5.64796013775803
30
0
41
1
10
-0.383525191647765
20
-5.65644060486822
30
0
41
1
10
-0.394703386845375
20
-5.66509105982019
30
0
41
1
10
-0.400000000000064
20
-5.67060688490521
30
0
0
SPLINE
5
2DB
100
AcDbEntity
8
SK1
62
256
6
ByLayer
370
18
48
1
60
0
100
AcDbSpline
70
4
71
2
72
6
73
3
40
0
40
0
40
0
40
1
40
1
40
1
41
1
10
-2.19488134370937
20
27.52022738313
30
0
41
1
10
-2.59744067185469
20
27.5101136916156
30
0
41
1
10
-3
20
27.500000000101
30
0
0
SPLINE
5
2DC
100
AcDbEntity
8
1
62
256
6
ByLayer
370
18
48
1
60
0
100
AcDbSpline
70
4
71
3
72
20
73
16
40
0
40
0
40
0
40
0
40
0.332431012821213
40
0.664862025642426
40
0.831077532053032
40
0.914185285258335
40
0.955739161860987
40
0.976516100162313
40
0.986255289991059
40
0.995690130137657
40
0.995994479819806
40
0.996643759141722
40
0.997293038463639
40
0.999890155751304
40
1
40
1
40
1
40
1
41
1
10
82.2502628712766
20
40.4926577069054
30
0
41
1
10
82.3025279465765
20
39.9953887322747
30
0
41
1
10
82.4070580971763
20
39.0008507830133
30
0
41
1
10
82.5377153675675
20
37.7576777562145
30
0
41
1
10
82.6291927939889
20
36.887458526166
30
0
41
1
10
82.6749044179065
20
36.4523459600314
30
0
41
1
10
82.6978023875776
20
36.2347942696296
30
0
41
1
10
82.7090896864842
20
36.1269831594432
30
0
41
1
10
82.715368859709
20
36.0672220464451
30
0
41
1
10
82.7184395984849
20
36.0380860923856
30
0
41
1
10
82.7200804902789
20
36.0225472571195
30
0
41
1
10
82.7203337228807
20
36.0201496685704
30
0
41
1
10
82.720956697256
20
36.0143234584995
30
0
41
1
10
82.7215254715907
20
36.0093075890184
30
0
41
1
10
82.7220019815094
20
36.0052640602356
30
0
41
1
10
82.7220213453761
20
36.0050999833212
30
0
0
SPLINE
5
2DD
100
AcDbEntity
8
1
62
256
6
ByLayer
370
18
48
1
60
0
100
AcDbSpline
70
4
71
1
72
4
73
2
40
0
40
0
40
1
40
1
41
1
10
94.9874252399447
20
37.2942465744857
30
0
41
1
10
95.0635560799291
20
36.4451253248907
30
0
0
SPLINE
5
2DE
100
AcDbEntity
8
1
62
256
6
ByLayer
370
18
48
1
60
0
100
AcDbSpline
70
4
71
3
72
20
73
16
40
0
40
0
40
0
40
0
40
0.332431012821215
40
0.664862025642431
40
0.831077532053038
40
0.914185285258342
40
0.955739161860994
40
0.97651610016232
40
0.986255289991066
40
0.995690130137665
40
0.995994479819813
40
0.996643759141729
40
0.997293038463646
40
0.999890155751312
40
1
40
1
40
1
40
1
41
1
10
87.7360145193702
20
47.293463672185
30
0
41
1
10
87.2406378033176
20
47.241397481276
30
0
41
1
10
86.2498843712124
20
47.1372650994576
30
0
41
1
10
85.0114419887609
20
47.0071050607552
30
0
41
1
10
84.1445342164686
20
46.9159756302382
30
0
41
1
10
83.7110773687229
20
46.8704381078318
30
0
41
1
10
83.4943535538393
20
46.8476270277525
30
0
41
1
10
83.3869526625149
20
46.836383013061
30
0
41
1
10
83.3274189570302
20
46.830127748865
30
0
41
1
10
83.298393880752
20
46.8270686316253
30
0
41
1
10
83.2829141815445
20
46.8254339258901
30
0
41
1
10
83.2805257175235
20
46.825181647594
30
0
41
1
10
83.274721686355
20
46.8245609637677
30
0
41
1
10
83.2697249367354
20
46.8239940401626
30
0
41
1
10
83.2656968356376
20
46.8235189549688
30
0
41
1
10
83.2655333847648
20
46.8234996488086
30
0
0
SPLINE
5
2DF
100
AcDbEntity
8
1
62
256
6
ByLayer
370
18
48
1
60
0
100
AcDbSpline
70
4
71
3
72
20
73
16
40
0
40
0
40
0
40
0
40
0.332431012821213
40
0.664862025642425
40
0.831077532053031
40
0.914185285258334
40
0.955739161860986
40
0.976516100162312
40
0.986255289991058
40
0.995690130137656
40
0.995994479819805
40
0.996643759141721
40
0.997293038463637
40
0.999890155751303
40
1
40
1
40
1
40
1
41
1
10
94.5158563993393
20
41.7818235347521
30
0
41
1
10
94.4635913240394
20
42.2790925093827
30
0
41
1
10
94.3590611734396
20
43.2736304586442
30
0
41
1
10
94.2284039030484
20
44.516803485443
30
0
41
1
10
94.136926476627
20
45.3870227154915
30
0
41
1
10
94.0912148527095
20
45.8221352816262
30
0
41
1
10
94.0683168830382
20
46.0396869720279
30
0
41
1
10
94.0570295841316
20
46.1474980822143
30
0
41
1
10
94.0507504109069
20
46.2072591952124
30
0
41
1
10
94.047679672131
20
46.2363951492719
30
0
41
1
10
94.046038780337
20
46.251933984538
30
0
41
1
10
94.0457855477352
20
46.254331573087
30
0
41
1
10
94.0451625733598
20
46.260157783158
30
0
41
1
10
94.0445937990252
20
46.2651736526391
30
0
41
1
10
94.0441172891064
20
46.2692171814218
30
0
41
1
10
94.0440979252397
20
46.2693812583362
30
0
0
SPLINE
5
2E0
100
AcDbEntity
8
1
62
256
6
ByLayer
370
18
48
1
60
0
100
AcDbSpline
70
4
71
3
72
21
73
17
40
0
40
0
40
0
40
0
40
0.0001096836879482
40
0.0027068013926548
40
0.0033560808188318
40
0.0040053602450082
40
0.0088749559413326
40
0.013744551637658
40
0.0234837430303079
40
0.0338722138491345
40
0.0442606846679609
40
0.0858145679432669
40
0.168922334493879
40
0.335137867595103
40
0.667568933797552
40
1
40
1
40
1
40
1
41
1
10
84.5596040593545
20
34.5112465261235
30
0
41
1
10
84.5597677128111
20
34.5112616032054
30
0
41
1
10
84.5638063263108
20
34.5116343680187
30
0
41
1
10
84.5688115155249
20
34.5121186925431
30
0
41
1
10
84.5746177621106
20
34.5127182980814
30
0
41
1
10
84.5838098061039
20
34.513679646836
30
0
41
1
10
84.5992909571311
20
34.5153005733854
30
0
41
1
10
84.6283175652363
20
34.518345177931
30
0
41
1
10
84.6655674473517
20
34.5222615374321
30
0
41
1
10
84.7110401905838
20
34.5270537950682
30
0
41
1
10
84.8039203590971
20
34.5368454825772
30
0
41
1
10
85.0051701738919
20
34.5579675218673
30
0
41
1
10
85.4386227328151
20
34.6035458496934
30
0
41
1
10
86.3055333643224
20
34.6946480765973
30
0
41
1
10
87.5439746030879
20
34.8248189967451
30
0
41
1
10
88.5347280351931
20
34.9289513785633
30
0
41
1
10
89.0301047512457
20
34.9810175694724
30
0
0
SPLINE
5
2E1
100
AcDbEntity
8
1
62
256
6
ByLayer
370
18
48
1
60
0
100
AcDbSpline
70
4
71
3
72
46
73
42
40
0
40
0
40
0
40
0
40
0.000235681918161
40
0.0012435088517112
40
0.0022513357852615
40
0.0026922600686897
40
0.0093061243201132
40
0.0163609128549649
40
0.0324861437917687
40
0.0486113747285726
40
0.0647366056653764
40
0.0687679133995774
40
0.0707835672666779
40
0.0727992211337783
40
0.0768305288679793
40
0.0788461827350798
40
0.0808618366021803
40
0.0848931443363812
40
0.0889244520705822
40
0.0969870675389841
40
0.129237529412592
40
0.1614879912862
40
0.193738453159807
40
0.209863684096611
40
0.217926299565013
40
0.219941953432114
40
0.221957607299214
40
0.222965434232764
40
0.223973261166314
40
0.225988915033415
40
0.22649282850019
40
0.226996741966965
40
0.227232951404516
40
0.234555443968592
40
0.242114145970219
40
0.258239376907023
40
0.29048983878063
40
0.354990762527846
40
0.483992610022277
40
0.741996305011138
40
1
40
1
40
1
40
1
41
1
10
92.3951757046468
20
37.7078319249458
30
0
41
1
10
92.3948963049367
20
37.7077989738968
30
0
41
1
10
92.3934181848211
20
37.7076268578978
30
0
41
1
10
92.3907035193961
20
37.7073307113897
30
0
41
1
10
92.3877079333444
20
37.7070209728829
30
0
41
1
10
92.377879442744
20
37.7060031217429
30
0
41
1
10
92.3607058070982
20
37.704211369144
30
0
41
1
10
92.3244972078732
20
37.7004056920124
30
0
41
1
10
92.276729415238
20
37.6953850946971
30
0
41
1
10
92.2179382858409
20
37.6892058980014
30
0
41
1
10
92.173844938793
20
37.6845715004797
30
0
41
1
10
92.146899004486
20
37.6817393686608
30
0
41
1
10
92.1371004829198
20
37.6807095025448
30
0
41
1
10
92.1273019613536
20
37.6796796364289
30
0
41
1
10
92.1175034397874
20
37.678649770313
30
0
41
1
10
92.1077049182213
20
37.6776199041969
30
0
41
1
10
92.097906396655
20
37.676590038081
30
0
41
1
10
92.0856582446973
20
37.6753027054361
30
0
41
1
10
92.0660612015649
20
37.6732429732042
30
0
41
1
10
92.0121693329509
20
37.6675787095664
30
0
41
1
10
91.9239826388551
20
37.658309914523
30
0
41
1
10
91.8064003800609
20
37.6459515211316
30
0
41
1
10
91.708415164399
20
37.6356528599721
30
0
41
1
10
91.6398255134357
20
37.6284437971605
30
0
41
1
10
91.6079803183455
20
37.6250967322836
30
0
41
1
10
91.5932825359963
20
37.6235519331096
30
0
41
1
10
91.5871584600173
20
37.6229082667872
30
0
41
1
10
91.5822591992343
20
37.6223933337293
30
0
41
1
10
91.5773599384512
20
37.6218784006712
30
0
41
1
10
91.573073085266
20
37.6214278342455
30
0
41
1
10
91.5693986396787
20
37.621041634452
30
0
41
1
10
91.5678867584214
20
37.6208827293287
30
0
41
1
10
91.5580882368552
20
37.6198528632127
30
0
41
1
10
91.5397160089186
20
37.6179218642453
30
0
41
1
10
91.5020338039111
20
37.6139613049049
30
0
41
1
10
91.4340565605457
20
37.6068166087255
30
0
41
1
10
91.296877258619
20
37.5923984831022
30
0
41
1
10
91.0225186547657
20
37.5635622318557
30
0
41
1
10
90.473801447059
20
37.5058897293626
30
0
41
1
10
89.6899197217638
20
37.4235004400866
30
0
41
1
10
89.0628143415277
20
37.357589008666
30
0
41
1
10
88.7492616514096
20
37.3246332929556
30
0
0
SPLINE
5
2E2
100
AcDbEntity
8
1
62
256
6
ByLayer
370
18
48
1
60
0
100
AcDbSpline
70
4
71
1
72
4
73
2
40
0
40
0
40
1
40
1
41
1
10
94.343748699871
20
35.5527644164539
30
0
41
1
10
93.5005861943302
20
35.450978978996
30
0
0
SPLINE
5
2E3
100
AcDbEntity
8
1
62
256
6
ByLayer
370
18
48
1
60
0
100
AcDbSpline
70
4
71
3
72
41
73
37
40
0
40
0
40
0
40
0
40
0.0078125
40
0.01171875
40
0.013671875
40
0.015625
40
0.03125
40
0.0625
40
0.09375
40
0.125
40
0.1328125
40
0.140625
40
0.15625
40
0.1875
40
0.25
40
0.3125
40
0.375
40
0.4375
40
0.46875
40
0.4765625
40
0.484375
40
0.5
40
0.5625
40
0.625
40
0.6875
40
0.71875
40
0.734375
40
0.7421875
40
0.75
40
0.78125
40
0.8125
40
0.875
40
0.90625
40
0.921875
40
0.9375
40
1
40
1
40
1
40
1
41
1
10
88.7492616514096
20
37.3246332929556
30
0
41
1
10
88.7499276959737
20
37.3182963022299
30
0
41
1
10
88.7511244166147
20
37.3085028175546
30
0
41
1
10
88.7526350907213
20
37.2985850379978
30
0
41
1
10
88.7535082179686
20
37.2934208247356
30
0
41
1
10
88.7556976663239
20
37.2803020124647
30
0
41
1
10
88.7611727671671
20
37.2475875741456
30
0
41
1
10
88.7699318575885
20
37.1951847071991
30
0
41
1
10
88.7804430919643
20
37.1323194528106
30
0
41
1
10
88.7883253560634
20
37.085162563497
30
0
41
1
10
88.7935834183551
20
37.0537526272452
30
0
41
1
10
88.7970766276607
20
37.0328504986422
30
0
41
1
10
88.803108750952
20
36.9963110866396
30
0
41
1
10
88.8152417631707
20
36.9205142262599
30
0
41
1
10
88.8324624713063
20
36.8064744261818
30
0
41
1
10
88.8526597293189
20
36.661962977156
30
0
41
1
10
88.87205127563
20
36.5122750214185
30
0
41
1
10
88.8872745220488
20
36.3852305106451
30
0
41
1
10
88.8966144283373
20
36.3024945607735
30
0
41
1
10
88.900803028576
20
36.2644477759619
30
0
41
1
10
88.9035853022103
20
36.2388911743009
30
0
41
1
10
88.9113038761382
20
36.168063719954
30
0
41
1
10
88.9239017483435
20
36.0524293075314
30
0
41
1
10
88.9407098816122
20
35.8981597428563
30
0
41
1
10
88.9547155154996
20
35.7696068539742
30
0
41
1
10
88.964522734753
20
35.6796052796714
30
0
41
1
10
88.9694212468326
20
35.6346271392028
30
0
41
1
10
88.9722286877836
20
35.6088885096832
30
0
41
1
10
88.9764241545072
20
35.5704007976141
30
0
41
1
10
88.9825756941078
20
35.5126057068834
30
0
41
1
10
88.9930692710366
20
35.4095356137702
30
0
41
1
10
89.0028336327211
20
35.3067173726037
30
0
41
1
10
89.0106260863975
20
35.218063048639
30
0
41
1
10
89.0148610903027
20
35.1679079150452
30
0
41
1
10
89.0209515276293
20
35.0932891927162
30
0
41
1
10
89.0260386038191
20
35.0308778976085
30
0
41
1
10
89.0301047512457
20
34.9810175694724
30
0
0
SPLINE
5
2E4
100
AcDbEntity
8
1
62
256
6
ByLayer
370
18
48
1
60
0
100
AcDbSpline
70
4
71
3
72
21
73
17
40
0
40
0
40
0
40
0
40
0.000109683687934
40
0.0027068013926407
40
0.0033560808188177
40
0.004005360244994
40
0.0088749559413186
40
0.013744551637644
40
0.023483743030294
40
0.0338722138491208
40
0.0442606846679473
40
0.085814567943254
40
0.168922334493867
40
0.335137867595094
40
0.667568933797547
40
1
40
1
40
1
40
1
41
1
10
94.9874226271833
20
37.294246333777
30
0
41
1
10
94.9874074764936
20
37.2944106106798
30
0
41
1
10
94.9870328977873
20
37.2984646100373
30
0
41
1
10
94.9865464084104
20
37.303488885173
30
0
41
1
10
94.9859444321141
20
37.309317302231
30
0
41
1
10
94.9849793751588
20
37.3185444545547
30
0
41
1
10
94.9833522101137
20
37.3340847361429
30
0
41
1
10
94.9802959288016
20
37.363222216249
30
0
41
1
10
94.9763646187888
20
37.4006143878449
30
0
41
1
10
94.9715541526436
20
37.4462608397782
30
0
41
1
10
94.9617252856299
20
37.5394958189004
30
0
41
1
10
94.9405223360547
20
37.7415143513794
30
0
41
1
10
94.8947700619944
20
38.1766226450118
30
0
41
1
10
94.8033197356683
20
39.0468447233951
30
0
41
1
10
94.672651625239
20
40.29001661086
30
0
41
1
10
94.5681214746391
20
41.2845545601214
30
0
41
1
10
94.5158563993393
20
41.7818235347521
30
0
0
SPLINE
5
2E5
100
AcDbEntity
8
1
62
256
6
ByLayer
370
18
48
1
60
0
100
AcDbSpline
70
4
71
3
72
21
73
17
40
0
40
0
40
0
40
0
40
0.0592792738439128
40
0.12223937758049
40
0.185199481317067
40
0.248159585053646
40
0.311119688790226
40
0.374079792526802
40
0.499999999999957
40
0.625920207473113
40
0.751840414946268
40
0.814800518682846
40
0.877760622419424
40
0.909240674287712
40
0.940720726156001
40
1
40
1
40
1
40
1
41
1
10
92.5281091190755
20
37.872632378161
30
0
41
1
10
92.5285276087446
20
37.8681034911219
30
0
41
1
10
92.5291354527957
20
37.8591206708321
30
0
41
1
10
92.5287499800211
20
37.8460373347276
30
0
41
1
10
92.5270085546513
20
37.8317026148036
30
0
41
1
10
92.5238192241618
20
37.8170043348197
30
0
41
1
10
92.5190823747769
20
37.8025702879223
30
0
41
1
10
92.5107296182955
20
37.7838702134721
30
0
41
1
10
92.4965188800513
20
37.7618794929912
30
0
41
1
10
92.4743526173743
20
37.7396475236956
30
0
41
1
10
92.4530372088731
20
37.7256728608681
30
0
41
1
10
92.4348264759931
20
37.7174224813512
30
0
41
1
10
92.4234890956908
20
37.7135138144761
30
0
41
1
10
92.4147619862663
20
37.7111519276771
30
0
41
1
10
92.4062676007932
20
37.7093061039573
30
0
41
1
10
92.3996753996634
20
37.7083625971892
30
0
41
1
10
92.3951757046467
20
37.7078319249458
30
0
0
SPLINE
5
2E6
100
AcDbEntity
8
1
62
256
6
ByLayer
370
18
48
1
60
0
100
AcDbSpline
70
4
71
3
72
42
73
38
40
0
40
0
40
0
40
0
40
0.258003694988868
40
0.516007389977737
40
0.645009237472171
40
0.709510161219388
40
0.741760623092997
40
0.749823238561399
40
0.757885854029801
40
0.765444556031428
40
0.769223907032242
40
0.773003258033055
40
0.77350717149983
40
0.774011084966606
40
0.776026738833706
40
0.778042392700807
40
0.782073700435008
40
0.79013631590341
40
0.806261546840214
40
0.838512008713823
40
0.870762470587431
40
0.90301293246104
40
0.911075547929442
40
0.915106855663644
40
0.919138163397844
40
0.923169471132045
40
0.927200778866246
40
0.931232086600447
40
0.935263394334648
40
0.951388625271453
40
0.967513856208257
40
0.983639087145061
40
0.990693875679913
40
0.997748664214765
40
0.998756491148315
40
0.999764318081866
40
1
40
1
40
1
40
1
41
1
10
92.1434420296212
20
41.5324727366896
30
0
41
1
10
92.1765236308117
20
41.2177223262339
30
0
41
1
10
92.2426868331927
20
40.5882215053227
30
0
41
1
10
92.3253908361689
20
39.8013454791837
30
0
41
1
10
92.3832836382523
20
39.2505322608864
30
0
41
1
10
92.412230039294
20
38.9751256517377
30
0
41
1
10
92.4256694397776
20
38.8472582974902
30
0
41
1
10
92.4318722400008
20
38.7882425955297
30
0
41
1
10
92.4349090276102
20
38.7593494914449
30
0
41
1
10
92.4373966089497
20
38.7356817359712
30
0
41
1
10
92.4393349840194
20
38.7172393291086
30
0
41
1
10
92.4403687840566
20
38.7074033787818
30
0
41
1
10
92.4409826028287
20
38.7015632832753
30
0
41
1
10
92.4413702778427
20
38.6978748019028
30
0
41
1
10
92.4419517903636
20
38.692342079844
30
0
41
1
10
92.4429855904008
20
38.6825061295173
30
0
41
1
10
92.4447947404659
20
38.6652932164454
30
0
41
1
10
92.4484130405961
20
38.6308673903019
30
0
41
1
10
92.4556496408565
20
38.5620157380147
30
0
41
1
10
92.4659876412285
20
38.4636562347473
30
0
41
1
10
92.478393241675
20
38.3456248308265
30
0
41
1
10
92.4876974420098
20
38.2571012778858
30
0
41
1
10
92.4933833422144
20
38.2030035510887
30
0
41
1
10
92.4954509422889
20
38.1833316504353
30
0
41
1
10
92.4970016423446
20
38.1685777249452
30
0
41
1
10
92.4985523424004
20
38.153823799455
30
0
41
1
10
92.5001030424562
20
38.139069873965
30
0
41
1
10
92.501653742512
20
38.1243159484749
30
0
41
1
10
92.5047551426237
20
38.0948080974947
30
0
41
1
10
92.509407242791
20
38.0505463210243
30
0
41
1
10
92.5156100430143
20
37.991530619064
30
0
41
1
10
92.5206498181956
20
37.9435803612211
30
0
41
1
10
92.5245265683351
20
37.9066955474958
30
0
41
1
10
92.5264823024261
20
37.8882270788214
30
0
41
1
10
92.5276676462096
20
37.8771281266601
30
0
41
1
10
92.5279435129675
20
37.8744008412694
30
0
41
1
10
92.5280831337827
20
37.8729135904923
30
0
41
1
10
92.5281091190755
20
37.872632378161
30
0
0
SPLINE
5
2E7
100
AcDbEntity
8
1
62
256
6
ByLayer
370
18
48
1
60
0
100
AcDbSpline
70
4
71
3
72
20
73
16
40
0
40
0
40
0
40
0
40
0.332431012821208
40
0.664862025642416
40
0.83107753205302
40
0.914185285258322
40
0.955739161860973
40
0.976516100162299
40
0.986255289991045
40
0.995690130137643
40
0.995994479819791
40
0.996643759141708
40
0.997293038463624
40
0.99989015575129
40
1
40
1
40
1
40
1
41
1
10
89.0301047512457
20
34.9810175694724
30
0
41
1
10
89.5254814672983
20
35.0330837603816
30
0
41
1
10
90.5162348994035
20
35.1372161421998
30
0
41
1
10
91.7546772818549
20
35.2673761809023
30
0
41
1
10
92.6215850541473
20
35.3585056114193
30
0
41
1
10
93.055041901893
20
35.4040431338257
30
0
41
1
10
93.2717657167765
20
35.426854213905
30
0
41
1
10
93.379166608101
20
35.4380982285965
30
0
41
1
10
93.4387003135857
20
35.4443534927924
30
0
41
1
10
93.4677253898639
20
35.4474126100322
30
0
41
1
10
93.4832050890713
20
35.4490473157673
30
0
41
1
10
93.4855935530924
20
35.4492995940635
30
0
41
1
10
93.4913975842608
20
35.4499202778899
30
0
41
1
10
93.4963943338806
20
35.4504872014949
30
0
41
1
10
93.5004224349784
20
35.4509622866888
30
0
41
1
10
93.5005858858512
20
35.4509815928488
30
0
0
SPLINE
5
2E8
100
AcDbEntity
8
1
62
256
6
ByLayer
370
18
48
1
60
0
100
AcDbSpline
70
4
71
1
72
4
73
2
40
0
40
0
40
1
40
1
41
1
10
82.4223705707449
20
46.7217168252037
30
0
41
1
10
83.2655330762856
20
46.8235022626616
30
0
0
SPLINE
5
2E9
100
AcDbEntity
8
1
62
256
6
ByLayer
370
18
48
1
60
0
100
AcDbSpline
70
4
71
3
72
45
73
41
40
0
40
0
40
0
40
0
40
0.0011565097570629
40
0.0196321945810376
40
0.0288700369930249
40
0.0381078794050123
40
0.056583564228987
40
0.130486303524886
40
0.204389042820785
40
0.278291782116683
40
0.310624230558639
40
0.340935900972973
40
0.342956679000595
40
0.347575600206589
40
0.352194521412582
40
0.370670206236557
40
0.379908048648544
40
0.389145891060532
40
0.407621575884506
40
0.426097260708481
40
0.463048630356431
40
0.50000000000438
40
0.536951369652329
40
0.555427054476303
40
0.573902739300279
40
0.592378424124255
40
0.610854108948228
40
0.629329793772203
40
0.647805478596178
40
0.65242439980217
40
0.657043321008165
40
0.689375769450122
40
0.721708217892076
40
0.795610957187975
40
0.869513696483874
40
0.943416435779773
40
0.961892120603748
40
0.980367805427722
40
0.998843490251698
40
1
40
1
40
1
40
1
41
1
10
82.4223710907485
20
46.7217126617328
30
0
41
1
10
82.4219119028768
20
46.7216552421707
30
0
41
1
10
82.4141228020825
20
46.7206780586721
30
0
41
1
10
82.4028116230057
20
46.7191736350409
30
0
41
1
10
82.3885507344363
20
46.7169557047758
30
0
41
1
10
82.3743711267163
20
46.7145429911493
30
0
41
1
10
82.3354523197984
20
46.7071051293925
30
0
41
1
10
82.2708444559039
20
46.690349989952
30
0
41
1
10
82.1850036522003
20
46.6576834044429
30
0
41
1
10
82.1168524963166
20
46.6223538549012
30
0
41
1
10
82.0669329614516
20
46.5909426119246
30
0
41
1
10
82.0438847354899
20
46.5747930420225
30
0
41
1
10
82.0309184422676
20
46.565194257437
30
0
41
1
10
82.0269806694011
20
46.5622464703396
30
0
41
1
10
82.0173328117758
20
46.55491124371
30
0
41
1
10
82.0062113857758
20
46.546123172675
30
0
41
1
10
81.993698706158
20
46.5357738402884
30
0
41
1
10
81.9813221044557
20
46.5252239683019
30
0
41
1
10
81.9661147426045
20
46.5116668831095
30
0
41
1
10
81.9423800380887
20
46.4892134942622
30
0
41
1
10
81.9138971255111
20
46.4597680420172
30
0
41
1
10
81.8818254304633
20
46.4223879768667
30
0
41
1
10
81.8570313939089
20
46.3896670067286
30
0
41
1
10
81.8384118037575
20
46.3626679808417
30
0
41
1
10
81.8250689840651
20
46.3420376614714
30
0
41
1
10
81.812362090669
20
46.3210563670785
30
0
41
1
10
81.8003051769443
20
46.2997541725961
30
0
41
1
10
81.7889122962662
20
46.2781611529569
30
0
41
1
10
81.780876200574
20
46.2617708255596
30
0
41
1
10
81.7757350971323
20
46.2507718545995
30
0
41
1
10
81.7681531713828
20
46.2342316159679
30
0
41
1
10
81.7563811792256
20
46.2063957998079
30
0
41
1
10
81.7358554787213
20
46.1500235424424
30
0
41
1
10
81.7156019348472
20
46.0757558575411
30
0
41
1
10
81.7016209403658
20
45.9846711826741
30
0
41
1
10
81.6987285297962
20
45.917744759645
30
0
41
1
10
81.6996500333801
20
45.8743664782611
30
0
41
1
10
81.7006910876182
20
45.8527451001612
30
0
41
1
10
81.7018604847008
20
45.8376709290008
30
0
41
1
10
81.7025278305252
20
45.8298191175378
30
0
41
1
10
81.7025673554466
20
45.8293562717913
30
0
0
SPLINE
5
2EA
100
AcDbEntity
8
1
62
256
6
ByLayer
370
18
48
1
60
0
100
AcDbSpline
70
4
71
1
72
4
73
2
40
0
40
0
40
1
40
1
41
1
10
81.7786940306712
20
44.9802346671718
30
0
41
1
10
81.7025631906868
20
45.8293559167668
30
0
0
SPLINE
5
2EB
100
AcDbEntity
8
1
62
256
6
ByLayer
370
18
48
1
60
0
100
AcDbSpline
70
4
71
3
72
46
73
42
40
0
40
0
40
0
40
0
40
0.000235681918112
40
0.0012435088516623
40
0.0022513357852126
40
0.0026922600686408
40
0.0093061243200646
40
0.0163609128549166
40
0.0324861437917213
40
0.0486113747285259
40
0.0647366056653306
40
0.0687679133995317
40
0.0707835672666323
40
0.0727992211337329
40
0.076830528867934
40
0.0788461827350346
40
0.0808618366021352
40
0.0848931443363364
40
0.0889244520705375
40
0.0969870675389398
40
0.129237529412549
40
0.161487991286158
40
0.193738453159768
40
0.209863684096572
40
0.217926299564975
40
0.219941953432075
40
0.221957607299176
40
0.222965434232726
40
0.223973261166276
40
0.225988915033377
40
0.226492828500152
40
0.226996741966927
40
0.227232951404478
40
0.234555443968554
40
0.242114145970182
40
0.258239376906986
40
0.290489838780596
40
0.354990762527814
40
0.483992610022251
40
0.741996305011126
40
1
40
1
40
1
40
1
41
1
10
84.3026595695423
20
44.5594723794864
30
0
41
1
10
84.3029389692524
20
44.5595053305353
30
0
41
1
10
84.3044170893679
20
44.5596774465342
30
0
41
1
10
84.3071317547927
20
44.5599735930425
30
0
41
1
10
84.3101273408445
20
44.5602833315493
30
0
41
1
10
84.3199558314449
20
44.5613011826892
30
0
41
1
10
84.3371294670907
20
44.5630929352882
30
0
41
1
10
84.3733380663157
20
44.5668986124198
30
0
41
1
10
84.4211058589509
20
44.571919209735
30
0
41
1
10
84.479896988348
20
44.5780984064307
30
0
41
1
10
84.5239903353959
20
44.5827328039525
30
0
41
1
10
84.5509362697029
20
44.5855649357713
30
0
41
1
10
84.5607347912691
20
44.5865948018873
30
0
41
1
10
84.5705333128353
20
44.5876246680033
30
0
41
1
10
84.5803318344015
20
44.5886545341192
30
0
41
1
10
84.5901303559677
20
44.5896844002351
30
0
41
1
10
84.5999288775339
20
44.5907142663511
30
0
41
1
10
84.6121770294916
20
44.592001598996
30
0
41
1
10
84.631774072624
20
44.594061331228
30
0
41
1
10
84.685665941238
20
44.5997255948656
30
0
41
1
10
84.7738526353337
20
44.6089943899092
30
0
41
1
10
84.8914348941281
20
44.6213527833006
30
0
41
1
10
84.9894201097899
20
44.6316514444601
30
0
41
1
10
85.0580097607532
20
44.6388605072717
30
0
41
1
10
85.0898549558434
20
44.6422075721486
30
0
41
1
10
85.1045527381927
20
44.6437523713224
30
0
41
1
10
85.1106768141715
20
44.6443960376449
30
0
41
1
10
85.1155760749546
20
44.6449109707029
30
0
41
1
10
85.1204753357377
20
44.6454259037608
30
0
41
1
10
85.1247621889229
20
44.6458764701866
30
0
41
1
10
85.1284366345103
20
44.64626266998
30
0
41
1
10
85.1299485157676
20
44.6464215751034
30
0
41
1
10
85.1397470373337
20
44.6474514412194
30
0
41
1
10
85.1581192652703
20
44.6493824401869
30
0
41
1
10
85.1958014702778
20
44.6533429995272
30
0
41
1
10
85.2637787136433
20
44.6604876957066
30
0
41
1
10
85.4009580155699
20
44.67490582133
30
0
41
1
10
85.6753166194233
20
44.7037420725765
30
0
41
1
10
86.2240338271299
20
44.7614145750696
30
0
41
1
10
87.0079155524251
20
44.8438038643454
30
0
41
1
10
87.6350209326612
20
44.9097152957662
30
0
41
1
10
87.9485736227793
20
44.9426710114766
30
0
0
SPLINE
5
2EC
100
AcDbEntity
8
1
62
256
6
ByLayer
370
18
48
1
60
0
100
AcDbSpline
70
4
71
3
72
21
73
17
40
0
40
0
40
0
40
0
40
0.0592792738438571
40
0.122239377580429
40
0.185199481316999
40
0.248159585053573
40
0.311119688790147
40
0.374079792526717
40
0.49999999999986
40
0.625920207473004
40
0.751840414946148
40
0.81480051868272
40
0.877760622419292
40
0.909240674287578
40
0.940720726155864
40
1
40
1
40
1
40
1
41
1
10
84.1697261551134
20
44.394671926271
30
0
41
1
10
84.1693076654443
20
44.3992008133102
30
0
41
1
10
84.1686998213931
20
44.4081836336001
30
0
41
1
10
84.1690852941678
20
44.4212669697046
30
0
41
1
10
84.1708267195376
20
44.4356016896286
30
0
41
1
10
84.1740160500271
20
44.4502999696125
30
0
41
1
10
84.178752899412
20
44.4647340165099
30
0
41
1
10
84.1871056558934
20
44.48343409096
30
0
41
1
10
84.2013163941376
20
44.505424811441
30
0
41
1
10
84.2234826568147
20
44.5276567807366
30
0
41
1
10
84.2447980653158
20
44.541631443564
30
0
41
1
10
84.2630087981959
20
44.5498818230809
30
0
41
1
10
84.274346178498
20
44.5537904899561
30
0
41
1
10
84.2830732879226
20
44.556152376755
30
0
41
1
10
84.2915676733957
20
44.5579982004749
30
0
41
1
10
84.2981598745257
20
44.558941707243
30
0
41
1
10
84.3026595695423
20
44.5594723794864
30
0
0
SPLINE
5
2ED
100
AcDbEntity
8
1
62
256
6
ByLayer
370
18
48
1
60
0
100
AcDbSpline
70
4
71
3
72
42
73
38
40
0
40
0
40
0
40
0
40
0.258003694988868
40
0.516007389977735
40
0.645009237472169
40
0.709510161219386
40
0.741760623092995
40
0.749823238561397
40
0.757885854029799
40
0.765444556031426
40
0.76922390703224
40
0.773003258033053
40
0.773507171499828
40
0.774011084966603
40
0.776026738833704
40
0.778042392700804
40
0.782073700435005
40
0.790136315903407
40
0.806261546840212
40
0.83851200871382
40
0.870762470587429
40
0.903012932461037
40
0.911075547929439
40
0.915106855663641
40
0.919138163397841
40
0.923169471132042
40
0.927200778866243
40
0.931232086600444
40
0.935263394334645
40
0.95138862527145
40
0.967513856208254
40
0.983639087145058
40
0.99069387567991
40
0.997748664214762
40
0.998756491148312
40
0.999764318081862
40
1
40
1
40
1
40
1
41
1
10
84.5543932445677
20
40.7348315677426
30
0
41
1
10
84.5213116433772
20
41.0495819781981
30
0
41
1
10
84.4551484409962
20
41.6790827991094
30
0
41
1
10
84.37244443802
20
42.4659588252484
30
0
41
1
10
84.3145516359366
20
43.0167720435458
30
0
41
1
10
84.2856052348949
20
43.2921786526945
30
0
41
1
10
84.2721658344113
20
43.420046006942
30
0
41
1
10
84.2659630341881
20
43.4790617089025
30
0
41
1
10
84.2629262465788
20
43.5079548129872
30
0
41
1
10
84.2604386652392
20
43.531622568461
30
0
41
1
10
84.2585002901695
20
43.5500649753236
30
0
41
1
10
84.2574664901323
20
43.5599009256504
30
0
41
1
10
84.2568526713602
20
43.5657410211569
30
0
41
1
10
84.2564649963463
20
43.5694295025294
30
0
41
1
10
84.2558834838254
20
43.5749622245881
30
0
41
1
10
84.2548496837881
20
43.5847981749149
30
0
41
1
10
84.253040533723
20
43.6020110879867
30
0
41
1
10
84.2494222335928
20
43.6364369141303
30
0
41
1
10
84.2421856333324
20
43.7052885664175
30
0
41
1
10
84.2318476329604
20
43.8036480696849
30
0
41
1
10
84.2194420325139
20
43.9216794736057
30
0
41
1
10
84.2101378321791
20
44.0102030265463
30
0
41
1
10
84.2044519319745
20
44.0643007533433
30
0
41
1
10
84.2023843319001
20
44.0839726539969
30
0
41
1
10
84.2008336318443
20
44.098726579487
30
0
41
1
10
84.1992829317885
20
44.113480504977
30
0
41
1
10
84.1977322317327
20
44.1282344304672
30
0
41
1
10
84.1961815316769
20
44.1429883559573
30
0
41
1
10
84.1930801315652
20
44.1724962069375
30
0
41
1
10
84.1884280313978
20
44.2167579834078
30
0
41
1
10
84.1822252311746
20
44.2757736853682
30
0
41
1
10
84.1771854559933
20
44.3237239432111
30
0
41
1
10
84.1733087058537
20
44.3606087569364
30
0
41
1
10
84.1713529717628
20
44.3790772256108
30
0
41
1
10
84.1701676279794
20
44.3901761777721
30
0
41
1
10
84.1698917612214
20
44.3929034631627
30
0
41
1
10
84.1697521404062
20
44.3943907139399
30
0
41
1
10
84.1697261551134
20
44.394671926271
30
0
0
SPLINE
5
2EE
100
AcDbEntity
8
1
62
256
6
ByLayer
370
18
48
1
60
0
100
AcDbSpline
70
4
71
3
72
41
73
37
40
0
40
0
40
0
40
0
40
0.0078125
40
0.01171875
40
0.013671875
40
0.015625
40
0.03125
40
0.0625
40
0.09375
40
0.125
40
0.1328125
40
0.140625
40
0.15625
40
0.1875
40
0.25
40
0.3125
40
0.375
40
0.4375
40
0.46875
40
0.4765625
40
0.484375
40
0.5
40
0.5625
40
0.625
40
0.6875
40
0.71875
40
0.734375
40
0.7421875
40
0.75
40
0.78125
40
0.8125
40
0.875
40
0.90625
40
0.921875
40
0.9375
40
1
40
1
40
1
40
1
41
1
10
87.9485736227793
20
44.9426710114766
30
0
41
1
10
87.9479075782152
20
44.9490080022022
30
0
41
1
10
87.9470419676812
20
44.9588362879521
30
0
41
1
10
87.9464576076172
20
44.968851427038
30
0
41
1
10
87.9462379546281
20
44.9740843232124
30
0
41
1
10
87.9456520038431
20
44.987371669869
30
0
41
1
10
87.9442057464116
20
45.020509556694
30
0
41
1
10
87.9418782610213
20
45.0735884125688
30
0
41
1
10
87.9390893783731
20
45.13726531883
30
0
41
1
10
87.9369949274992
20
45.1850305318267
30
0
41
1
10
87.9356075955598
20
45.216847298232
30
0
41
1
10
87.9346786729613
20
45.2380189442283
30
0
41
1
10
87.932982008955
20
45.2750140313638
30
0
41
1
10
87.9290908323462
20
45.3516771435724
30
0
41
1
10
87.9222250190373
20
45.4668052869524
30
0
41
1
10
87.9119352987943
20
45.6123580601588
30
0
41
1
10
87.8997812173205
20
45.7628067041033
30
0
41
1
10
87.8882577602363
20
45.8902400784054
30
0
41
1
10
87.8801917959343
20
45.9731099249752
30
0
41
1
10
87.8763784938479
20
46.0111961552122
30
0
41
1
10
87.8737864518649
20
46.0367727510255
30
0
41
1
10
87.8666105006441
20
46.107657237317
30
0
41
1
10
87.8548913329125
20
46.2233840053012
30
0
41
1
10
87.8392577221088
20
46.377777017262
30
0
41
1
10
87.8262296508055
20
46.5064326521118
30
0
41
1
10
87.8171101792985
20
46.5965065116156
30
0
41
1
10
87.8125501659017
20
46.6415202297293
30
0
41
1
10
87.8099448955493
20
46.6672801082351
30
0
41
1
10
87.8060466359671
20
46.7057990580336
30
0
41
1
10
87.8000474746334
20
46.7636101643655
30
0
41
1
10
87.7888822643974
20
46.8666096659734
30
0
41
1
10
87.7770561369841
20
46.9692112068299
30
0
41
1
10
87.7662460364576
20
47.0575483633301
30
0
41
1
10
87.7599606567379
20
47.1074879937418
30
0
41
1
10
87.7504038986703
20
47.1817423910802
30
0
41
1
10
87.7424037721482
20
47.2438475122603
30
0
41
1
10
87.7360145193702
20
47.293463672185
30
0
0
SPLINE
5
2EF
100
AcDbEntity
8
1
62
256
6
ByLayer
370
18
48
1
60
0
100
AcDbSpline
70
4
71
3
72
21
73
17
40
0
40
0
40
0
40
0
40
0.0001096836879329
40
0.0027068013926395
40
0.0033560808188165
40
0.0040053602449929
40
0.0088749559413174
40
0.0137445516376429
40
0.0234837430302929
40
0.0338722138491197
40
0.0442606846679462
40
0.0858145679432529
40
0.168922334493866
40
0.335137867595093
40
0.667568933797547
40
1
40
1
40
1
40
1
41
1
10
81.7786966434325
20
44.9802349078805
30
0
41
1
10
81.7787117941222
20
44.9800706309776
30
0
41
1
10
81.7790863728285
20
44.9760166316201
30
0
41
1
10
81.7795728622054
20
44.9709923564845
30
0
41
1
10
81.7801748385018
20
44.9651639394265
30
0
41
1
10
81.781139895457
20
44.9559367871028
30
0
41
1
10
81.7827670605022
20
44.9403965055145
30
0
41
1
10
81.7858233418143
20
44.9112590254084
30
0
41
1
10
81.7897546518271
20
44.8738668538126
30
0
41
1
10
81.7945651179722
20
44.8282204018792
30
0
41
1
10
81.804393984986
20
44.7349854227571
30
0
41
1
10
81.8255969345611
20
44.5329668902781
30
0
41
1
10
81.8713492086215
20
44.0978585966457
30
0
41
1
10
81.9627995349476
20
43.2276365182623
30
0
41
1
10
82.0934676453769
20
41.9844646307974
30
0
41
1
10
82.1979977959767
20
40.9899266815361
30
0
41
1
10
82.2502628712766
20
40.4926577069054
30
0
0
SPLINE
5
2F0
100
AcDbEntity
8
1
62
256
6
ByLayer
370
18
48
1
60
0
100
AcDbSpline
70
4
71
3
72
41
73
37
40
0
40
0
40
0
40
0
40
0.0625
40
0.078125
40
0.09375
40
0.125
40
0.1875
40
0.21875
40
0.25
40
0.2578125
40
0.265625
40
0.28125
40
0.3125
40
0.375
40
0.4375
40
0.5
40
0.515625
40
0.5234375
40
0.53125
40
0.5625
40
0.625
40
0.6875
40
0.75
40
0.8125
40
0.84375
40
0.859375
40
0.8671875
40
0.875
40
0.90625
40
0.9375
40
0.96875
40
0.984375
40
0.986328125
40
0.98828125
40
0.9921875
40
1
40
1
40
1
40
1
41
1
10
82.2502628712766
20
40.4926577069054
30
0
41
1
10
82.3009733989477
20
40.4979875981362
30
0
41
1
10
82.3644512209795
20
40.5046593860772
30
0
41
1
10
82.4403376876007
20
40.5126353751184
30
0
41
1
10
82.4912198121124
20
40.5179833019039
30
0
41
1
10
82.5808876227607
20
40.52740776857
30
0
41
1
10
82.6842375544924
20
40.5382702841094
30
0
41
1
10
82.7872160899955
20
40.5490937643323
30
0
41
1
10
82.8447230411522
20
40.5551379884561
30
0
41
1
10
82.8829312517166
20
40.5591538332084
30
0
41
1
10
82.9084814367445
20
40.5618392658666
30
0
41
1
10
82.9531368935988
20
40.5665327435097
30
0
41
1
10
83.0424881159329
20
40.5759239354031
30
0
41
1
10
83.1701142184637
20
40.5893379793096
30
0
41
1
10
83.3232709684032
20
40.6054354023878
30
0
41
1
10
83.4380720067991
20
40.6175014777361
30
0
41
1
10
83.5083870374057
20
40.6248918852557
30
0
41
1
10
83.5337612316902
20
40.6275588205415
30
0
41
1
10
83.5714952355846
20
40.6315248241642
30
0
41
1
10
83.6533460727856
20
40.6401276938141
30
0
41
1
10
83.7782509380651
20
40.6532557241603
30
0
41
1
10
83.9241294502996
20
40.6685881736304
30
0
41
1
10
84.0636559015618
20
40.6832529945897
30
0
41
1
10
84.1726263992712
20
40.6947062554179
30
0
41
1
10
84.2444453896481
20
40.7022547354791
30
0
41
1
10
84.2789049990898
20
40.7058765863769
30
0
41
1
10
84.2985796913284
20
40.7079444798587
30
0
41
1
10
84.3281373791348
20
40.7110511180318
30
0
41
1
10
84.3725239200488
20
40.7157163314707
30
0
41
1
10
84.4316930589471
20
40.721935258566
30
0
41
1
10
84.4810174229416
20
40.7271194581235
30
0
41
1
10
84.5118038698186
20
40.7303552440792
30
0
41
1
10
84.5241549587937
20
40.7316533958406
30
0
41
1
10
84.5290069943127
20
40.7321633653232
30
0
41
1
10
84.5384723712262
20
40.7331582165252
30
0
41
1
10
84.5480803680049
20
40.7341680576791
30
0
41
1
10
84.5543932445677
20
40.7348315677426
30
0
0
SPLINE
5
2F1
100
AcDbEntity
8
1
62
256
6
ByLayer
370
18
48
1
60
0
100
AcDbSpline
70
4
71
3
72
45
73
41
40
0
40
0
40
0
40
0
40
0.0011565097570493
40
0.0196321945810247
40
0.0288700369930124
40
0.0381078794050001
40
0.0565835642289756
40
0.130486303524877
40
0.204389042820779
40
0.278291782116681
40
0.310624230558638
40
0.340935900972972
40
0.342956679000595
40
0.347575600206589
40
0.352194521412583
40
0.370670206236558
40
0.379908048648546
40
0.389145891060533
40
0.407621575884509
40
0.426097260708484
40
0.463048630356435
40
0.500000000004385
40
0.536951369652336
40
0.555427054476312
40
0.573902739300287
40
0.592378424124264
40
0.610854108948238
40
0.629329793772214
40
0.647805478596189
40
0.652424399802183
40
0.657043321008177
40
0.689375769450135
40
0.721708217892091
40
0.795610957187992
40
0.869513696483894
40
0.943416435779796
40
0.961892120603771
40
0.980367805427747
40
0.998843490251724
40
1
40
1
40
1
40
1
41
1
10
82.8240978385435
20
35.1587065090836
30
0
41
1
10
82.8241554083787
20
35.1582455599304
30
0
41
1
10
82.8251351290594
20
35.1504265803843
30
0
41
1
10
82.8266429193645
20
35.139071944295
30
0
41
1
10
82.8288638988096
20
35.1247560114726
30
0
41
1
10
82.8312788722052
20
35.1105215088071
30
0
41
1
10
82.8387199004039
20
35.0714513850149
30
0
41
1
10
82.8554638906352
20
35.0065888308753
30
0
41
1
10
82.8880769356023
20
34.9204013868925
30
0
41
1
10
82.9233290108901
20
34.8519675776461
30
0
41
1
10
82.9546629117017
20
34.8018366182581
30
0
41
1
10
82.970770642914
20
34.778689470647
30
0
41
1
10
82.9803439790305
20
34.7656671198184
30
0
41
1
10
82.9832839158846
20
34.7617122967247
30
0
41
1
10
82.9905994885307
20
34.7520225751788
30
0
41
1
10
82.9993636661773
20
34.7408526275974
30
0
41
1
10
83.0096843969954
20
34.7282849903689
30
0
41
1
10
83.0202048131415
20
34.715853780551
30
0
41
1
10
83.0337234935623
20
34.7005788496303
30
0
41
1
10
83.056112125137
20
34.6767376615242
30
0
41
1
10
83.0854705595318
20
34.6481249811106
30
0
41
1
10
83.1227369190455
20
34.6159038190641
30
0
41
1
10
83.1553557558045
20
34.5909912018162
30
0
41
1
10
83.182269050974
20
34.572280637595
30
0
41
1
10
83.2028331610981
20
34.5588716089434
30
0
41
1
10
83.2237464358352
20
34.5461006045317
30
0
41
1
10
83.2449789010511
20
34.5339817540855
30
0
41
1
10
83.2665005826117
20
34.5225291873305
30
0
41
1
10
83.28283627544
20
34.5144500723269
30
0
41
1
10
83.2937983835996
20
34.50928104039
30
0
41
1
10
83.310283069684
20
34.5016576735145
30
0
41
1
10
83.3380246126642
20
34.489819630195
30
0
41
1
10
83.3942033234254
20
34.4691725498855
30
0
41
1
10
83.4682106394213
20
34.4487844578173
30
0
41
1
10
83.5589673806355
20
34.4346790222166
30
0
41
1
10
83.6256469970634
20
34.4317227529953
30
0
41
1
10
83.6688630945442
20
34.4326133147977
30
0
41
1
10
83.6904031729112
20
34.4336411201729
30
0
41
1
10
83.7054203112307
20
34.4348029377744
30
0
41
1
10
83.7132423693544
20
34.4354665531954
30
0
41
1
10
83.7137034610641
20
34.4355058589151
30
0
0
SPLINE
5
2F2
100
AcDbEntity
8
1
62
256
6
ByLayer
370
18
48
1
60
0
100
AcDbSpline
70
4
71
1
72
4
73
2
40
0
40
0
40
1
40
1
41
1
10
84.5596043012384
20
34.5112439034087
30
0
41
1
10
83.7137038180685
20
34.4355016783122
30
0
0
SPLINE
5
2F3
100
AcDbEntity
8
1
62
256
6
ByLayer
370
18
48
1
60
0
100
AcDbSpline
70
4
71
3
72
46
73
42
40
0
40
0
40
0
40
0
40
0.0002356819181363
40
0.0012435088516865
40
0.0022513357852368
40
0.002692260068665
40
0.0093061243200886
40
0.0163609128549405
40
0.0324861437917448
40
0.048611374728549
40
0.0647366056653533
40
0.0687679133995543
40
0.0707835672666549
40
0.0727992211337554
40
0.0768305288679565
40
0.078846182735057
40
0.0808618366021575
40
0.0848931443363586
40
0.0889244520705596
40
0.0969870675389618
40
0.12923752941257
40
0.161487991286179
40
0.193738453159787
40
0.209863684096592
40
0.217926299564994
40
0.219941953432094
40
0.221957607299195
40
0.222965434232745
40
0.223973261166295
40
0.225988915033396
40
0.226492828500171
40
0.226996741966946
40
0.227232951404497
40
0.234555443968573
40
0.2421141459702
40
0.258239376907004
40
0.290489838780613
40
0.35499076252783
40
0.483992610022264
40
0.741996305011132
40
1
40
1
40
1
40
1
41
1
10
91.7587796231874
20
45.1923135874233
30
0
41
1
10
91.7588126730669
20
45.1920331176101
30
0
41
1
10
91.7589853201252
20
45.190549338031
30
0
41
1
10
91.7592825162347
20
45.1878242944455
30
0
41
1
10
91.7595934764331
20
45.1848172697925
30
0
41
1
10
91.7606153299697
20
45.1749512479755
30
0
41
1
10
91.7624140268468
20
45.1577120223499
30
0
41
1
10
91.7662342410467
20
45.1213651121581
30
0
41
1
10
91.7712740162282
20
45.0734148543152
30
0
41
1
10
91.7774768164514
20
45.0143991523548
30
0
41
1
10
91.7821289166188
20
44.9701373758845
30
0
41
1
10
91.7849718667211
20
44.9430885124859
30
0
41
1
10
91.7860056667583
20
44.9332525621592
30
0
41
1
10
91.7870394667955
20
44.9234166118324
30
0
41
1
10
91.7880732668327
20
44.9135806615058
30
0
41
1
10
91.7891070668699
20
44.903744711179
30
0
41
1
10
91.7901408669071
20
44.8939087608522
30
0
41
1
10
91.7914331169536
20
44.8816138229438
30
0
41
1
10
91.7935007170281
20
44.8619419222904
30
0
41
1
10
91.7991866172326
20
44.8078441954933
30
0
41
1
10
91.8084908175674
20
44.7193206425527
30
0
41
1
10
91.8208964180139
20
44.6012892386318
30
0
41
1
10
91.8312344183859
20
44.5029297353644
30
0
41
1
10
91.8384710186464
20
44.4340780830772
30
0
41
1
10
91.8418308687673
20
44.4021112445154
30
0
41
1
10
91.8433815688231
20
44.3873573190252
30
0
41
1
10
91.8440276938463
20
44.3812098500711
30
0
41
1
10
91.8445445938649
20
44.3762918749077
30
0
41
1
10
91.8450614938835
20
44.3713738997443
30
0
41
1
10
91.8455137813998
20
44.3670706714763
30
0
41
1
10
91.8459014564137
20
44.3633821901038
30
0
41
1
10
91.8460609685288
20
44.3618645337058
30
0
41
1
10
91.8470947685661
20
44.352028583379
30
0
41
1
10
91.8490331436358
20
44.3335861765164
30
0
41
1
10
91.8530088316695
20
44.2957600316075
30
0
41
1
10
91.8601808194276
20
44.2275231262157
30
0
41
1
10
91.8746540199484
20
44.0898198216414
30
0
41
1
10
91.9036004209901
20
43.8144132124928
30
0
41
1
10
91.9614932230735
20
43.2635999941954
30
0
41
1
10
92.0441972260497
20
42.4767239680564
30
0
41
1
10
92.1103604284307
20
41.8472231471452
30
0
41
1
10
92.1434420296212
20
41.5324727366896
30
0
0
SPLINE
5
2F4
100
AcDbEntity
8
1
62
256
6
ByLayer
370
18
48
1
60
0
100
AcDbSpline
70
4
71
3
72
46
73
42
40
0
40
0
40
0
40
0
40
0.0002356819181372
40
0.0012435088516874
40
0.0022513357852377
40
0.0026922600686659
40
0.0093061243200896
40
0.0163609128549414
40
0.0324861437917457
40
0.0486113747285499
40
0.0647366056653541
40
0.0687679133995552
40
0.0707835672666557
40
0.0727992211337563
40
0.0768305288679573
40
0.0788461827350578
40
0.0808618366021584
40
0.0848931443363594
40
0.0889244520705605
40
0.0969870675389626
40
0.129237529412571
40
0.16148799128618
40
0.193738453159788
40
0.209863684096592
40
0.217926299564994
40
0.219941953432095
40
0.221957607299196
40
0.222965434232746
40
0.223973261166296
40
0.225988915033396
40
0.226492828500172
40
0.226996741966947
40
0.227232951404498
40
0.234555443968574
40
0.242114145970201
40
0.258239376907005
40
0.290489838780614
40
0.354990762527831
40
0.483992610022264
40
0.741996305011132
40
1
40
1
40
1
40
1
41
1
10
84.9390556510015
20
37.0749907170089
30
0
41
1
10
84.939022601122
20
37.0752711868221
30
0
41
1
10
84.9388499540636
20
37.0767549664011
30
0
41
1
10
84.9385527579541
20
37.0794800099866
30
0
41
1
10
84.9382417977558
20
37.0824870346397
30
0
41
1
10
84.9372199442192
20
37.0923530564567
30
0
41
1
10
84.9354212473421
20
37.1095922820823
30
0
41
1
10
84.9316010331422
20
37.1459391922741
30
0
41
1
10
84.9265612579608
20
37.1938894501169
30
0
41
1
10
84.9203584577376
20
37.2529051520774
30
0
41
1
10
84.9157063575701
20
37.2971669285476
30
0
41
1
10
84.9128634074678
20
37.3242157919462
30
0
41
1
10
84.9118296074306
20
37.334051742273
30
0
41
1
10
84.9107958073934
20
37.3438876925997
30
0
41
1
10
84.9097620073562
20
37.3537236429264
30
0
41
1
10
84.908728207319
20
37.3635595932532
30
0
41
1
10
84.9076944072818
20
37.3733955435799
30
0
41
1
10
84.9064021572353
20
37.3856904814884
30
0
41
1
10
84.9043345571609
20
37.4053623821418
30
0
41
1
10
84.8986486569563
20
37.4594601089389
30
0
41
1
10
84.8893444566215
20
37.5479836618795
30
0
41
1
10
84.8769388561751
20
37.6660150658004
30
0
41
1
10
84.866600855803
20
37.7643745690677
30
0
41
1
10
84.8593642555426
20
37.8332262213549
30
0
41
1
10
84.8560044054216
20
37.8651930599168
30
0
41
1
10
84.8544537053658
20
37.879946985407
30
0
41
1
10
84.8538075803426
20
37.8860944543611
30
0
41
1
10
84.853290680324
20
37.8910124295245
30
0
41
1
10
84.8527737803054
20
37.8959304046879
30
0
41
1
10
84.8523214927891
20
37.9002336329559
30
0
41
1
10
84.8519338177752
20
37.9039221143283
30
0
41
1
10
84.8517743056601
20
37.9054397707264
30
0
41
1
10
84.8507405056229
20
37.9152757210531
30
0
41
1
10
84.8488021305531
20
37.9337181279158
30
0
41
1
10
84.8448264425194
20
37.9715442728246
30
0
41
1
10
84.8376544547613
20
38.0397811782163
30
0
41
1
10
84.8231812542405
20
38.1774844827908
30
0
41
1
10
84.7942348531988
20
38.4528910919394
30
0
41
1
10
84.7363420511154
20
39.0037043102367
30
0
41
1
10
84.6536380481392
20
39.7905803363758
30
0
41
1
10
84.5874748457582
20
40.420081157287
30
0
41
1
10
84.5543932445677
20
40.7348315677426
30
0
0
SPLINE
5
2F5
100
AcDbEntity
8
1
62
256
6
ByLayer
370
18
48
1
60
0
100
AcDbSpline
70
4
71
1
72
4
73
2
40
0
40
0
40
1
40
1
41
1
10
93.9420255796344
20
47.1157752512202
30
0
41
1
10
94.0441005291194
20
46.2693815658961
30
0
0
SPLINE
5
2F6
100
AcDbEntity
8
1
62
256
6
ByLayer
370
18
48
1
60
0
100
AcDbSpline
70
4
71
3
72
45
73
41
40
0
40
0
40
0
40
0
40
0.0011565097570555
40
0.0196321945810303
40
0.0288700369930177
40
0.0381078794050051
40
0.0565835642289798
40
0.130486303524879
40
0.204389042820778
40
0.278291782116677
40
0.310624230558633
40
0.340935900972967
40
0.342956679000589
40
0.347575600206583
40
0.352194521412576
40
0.370670206236551
40
0.379908048648538
40
0.389145891060526
40
0.407621575884501
40
0.426097260708475
40
0.463048630356425
40
0.500000000004374
40
0.536951369652323
40
0.555427054476298
40
0.573902739300273
40
0.592378424124249
40
0.610854108948223
40
0.629329793772197
40
0.647805478596172
40
0.652424399802166
40
0.65704332100816
40
0.689375769450116
40
0.721708217892071
40
0.79561095718797
40
0.869513696483869
40
0.943416435779769
40
0.961892120603743
40
0.980367805427718
40
0.998843490251695
40
1
40
1
40
1
40
1
41
1
10
93.9420214320723
20
47.1157747325739
30
0
41
1
10
93.9419638622371
20
47.1162356817271
30
0
41
1
10
93.9409841415564
20
47.1240546612731
30
0
41
1
10
93.9394763512514
20
47.1354092973625
30
0
41
1
10
93.9372553718063
20
47.1497252301848
30
0
41
1
10
93.9348403984107
20
47.1639597328505
30
0
41
1
10
93.927399370212
20
47.2030298566425
30
0
41
1
10
93.9106553799806
20
47.2678924107821
30
0
41
1
10
93.8780423350135
20
47.354079854765
30
0
41
1
10
93.8427902597259
20
47.4225136640114
30
0
41
1
10
93.8114563589142
20
47.4726446233993
30
0
41
1
10
93.7953486277018
20
47.4957917710105
30
0
41
1
10
93.7857752915854
20
47.508814121839
30
0
41
1
10
93.7828353547313
20
47.5127689449329
30
0
41
1
10
93.7755197820852
20
47.5224586664787
30
0
41
1
10
93.7667556044385
20
47.53362861406
30
0
41
1
10
93.7564348736204
20
47.5461962512885
30
0
41
1
10
93.7459144574744
20
47.5586274611064
30
0
41
1
10
93.7323957770536
20
47.5739023920271
30
0
41
1
10
93.710007145479
20
47.5977435801333
30
0
41
1
10
93.6806487110841
20
47.6263562605469
30
0
41
1
10
93.6433823515703
20
47.6585774225935
30
0
41
1
10
93.6107635148114
20
47.6834900398413
30
0
41
1
10
93.5838502196418
20
47.7022006040624
30
0
41
1
10
93.5632861095177
20
47.7156096327141
30
0
41
1
10
93.5423728347807
20
47.7283806371258
30
0
41
1
10
93.5211403695648
20
47.740499487572
30
0
41
1
10
93.4996186880042
20
47.7519520543269
30
0
41
1
10
93.4832829951758
20
47.7600311693306
30
0
41
1
10
93.4723208870163
20
47.7652002012676
30
0
41
1
10
93.4558362009319
20
47.7728235681431
30
0
41
1
10
93.4280946579516
20
47.7846616114624
30
0
41
1
10
93.3719159471905
20
47.8053086917721
30
0
41
1
10
93.2979086311946
20
47.8256967838403
30
0
41
1
10
93.2071518899804
20
47.8398022194409
30
0
41
1
10
93.1404722735525
20
47.8427584886622
30
0
41
1
10
93.0972561760717
20
47.8418679268598
30
0
41
1
10
93.0757160977047
20
47.8408401214846
30
0
41
1
10
93.0606989593852
20
47.8396783038831
30
0
41
1
10
93.0528769012615
20
47.839014688462
30
0
41
1
10
93.0524158095518
20
47.8389753827424
30
0
0
SPLINE
5
2F7
100
AcDbEntity
8
1
62
256
6
ByLayer
370
18
48
1
60
0
100
AcDbSpline
70
4
71
1
72
4
73
2
40
0
40
0
40
1
40
1
41
1
10
92.2065149693775
20
47.7632373382488
30
0
41
1
10
93.0524154525474
20
47.8389795633453
30
0
0
SPLINE
5
2F8
100
AcDbEntity
8
1
62
256
6
ByLayer
370
18
48
1
60
0
100
AcDbSpline
70
4
71
3
72
21
73
17
40
0
40
0
40
0
40
0
40
0.0592792738436841
40
0.122239377580287
40
0.185199481316888
40
0.248159585053493
40
0.311119688790097
40
0.374079792526698
40
0.499999999999904
40
0.62592020747311
40
0.751840414946316
40
0.814800518682919
40
0.877760622419522
40
0.909240674287823
40
0.940720726156124
40
1
40
1
40
1
40
1
41
1
10
91.594487181931
20
45.3258743443756
30
0
41
1
10
91.598998880779
20
45.326290807793
30
0
41
1
10
91.607947785294
20
45.3268938025855
30
0
41
1
10
91.6209827309327
20
45.3264965186124
30
0
41
1
10
91.6352654775889
20
45.3247372235509
30
0
41
1
10
91.649911578861
20
45.3215243250517
30
0
41
1
10
91.6642956572027
20
45.3167583347678
30
0
41
1
10
91.682932751243
20
45.3083595448793
30
0
41
1
10
91.7048528870607
20
45.2940782763178
30
0
41
1
10
91.7270196799356
20
45.2718115660849
30
0
41
1
10
91.7409592254856
20
45.2504054346485
30
0
41
1
10
91.7491933324321
20
45.2321201170397
30
0
41
1
10
91.7530964381855
20
45.2207372760333
30
0
41
1
10
91.7554564518559
20
45.2119756853418
30
0
41
1
10
91.7573021387527
20
45.2034480972522
30
0
41
1
10
91.7582473592913
20
45.1968305163093
30
0
41
1
10
91.7587796231874
20
45.1923135874233
30
0
0
SPLINE
5
2F9
100
AcDbEntity
8
1
62
256
6
ByLayer
370
18
48
1
60
0
100
AcDbSpline
70
4
71
3
72
42
73
38
40
0
40
0
40
0
40
0
40
0.258003694988864
40
0.516007389977729
40
0.645009237472161
40
0.709510161219377
40
0.741760623092985
40
0.749823238561387
40
0.757885854029789
40
0.765444556031416
40
0.76922390703223
40
0.773003258033043
40
0.773507171499818
40
0.774011084966593
40
0.776026738833694
40
0.778042392700794
40
0.782073700434995
40
0.790136315903397
40
0.806261546840201
40
0.838512008713809
40
0.870762470587417
40
0.903012932461025
40
0.911075547929427
40
0.915106855663629
40
0.919138163397829
40
0.92316947113203
40
0.927200778866231
40
0.931232086600432
40
0.935263394334633
40
0.951388625271437
40
0.967513856208241
40
0.983639087145045
40
0.990693875679897
40
0.997748664214749
40
0.998756491148299
40
0.99976431808185
40
1
40
1
40
1
40
1
41
1
10
87.9485736227793
20
44.9426710114766
30
0
41
1
10
88.2621263128975
20
44.9756267271869
30
0
41
1
10
88.8892316931336
20
45.0415381586076
30
0
41
1
10
89.6731134184288
20
45.1239274478835
30
0
41
1
10
90.2218306261354
20
45.1815999503766
30
0
41
1
10
90.4961892299888
20
45.2104362016232
30
0
41
1
10
90.6235700103492
20
45.2238244611306
30
0
41
1
10
90.6823611397464
20
45.2300036578263
30
0
41
1
10
90.7111442968471
20
45.2330288895419
30
0
41
1
10
90.7347219893657
20
45.2355070048833
30
0
41
1
10
90.7530942173023
20
45.2374380038507
30
0
41
1
10
90.7628927388685
20
45.2384678699667
30
0
41
1
10
90.7687106110484
20
45.239079352973
30
0
41
1
10
90.7723850566357
20
45.2394655527666
30
0
41
1
10
90.7778967250168
20
45.2400448524568
30
0
41
1
10
90.7876952465829
20
45.2410747185727
30
0
41
1
10
90.8048426593238
20
45.2428769842756
30
0
41
1
10
90.8391374848054
20
45.2464815156815
30
0
41
1
10
90.9077271357687
20
45.2536905784931
30
0
41
1
10
91.0057123514306
20
45.2639892396526
30
0
41
1
10
91.1232946102249
20
45.2763476330439
30
0
41
1
10
91.2114813043206
20
45.2856164280875
30
0
41
1
10
91.2653731729347
20
45.2912806917252
30
0
41
1
10
91.2849702160671
20
45.293340423957
30
0
41
1
10
91.2996679984163
20
45.294885223131
30
0
41
1
10
91.3143657807656
20
45.2964300223049
30
0
41
1
10
91.3290635631149
20
45.2979748214789
30
0
41
1
10
91.3437613454642
20
45.2995196206528
30
0
41
1
10
91.3731569101627
20
45.3026092190006
30
0
41
1
10
91.4172502572106
20
45.3072436165223
30
0
41
1
10
91.4760413866078
20
45.313422813218
30
0
41
1
10
91.5238091792429
20
45.3184434105333
30
0
41
1
10
91.5605536351162
20
45.3223054084681
30
0
41
1
10
91.5789518141027
20
45.3242538106606
30
0
41
1
10
91.5900085165002
20
45.3254347856159
30
0
41
1
10
91.5927254322937
20
45.325709521298
30
0
41
1
10
91.5942070368667
20
45.325848484899
30
0
41
1
10
91.594487181931
20
45.3258743443756
30
0
0
SPLINE
5
2FA
100
AcDbEntity
8
1
62
256
6
ByLayer
370
18
48
1
60
0
100
AcDbSpline
70
4
71
3
72
21
73
17
40
0
40
0
40
0
40
0
40
0.0001096836879221
40
0.0027068013926288
40
0.0033560808188058
40
0.0040053602449821
40
0.0088749559413067
40
0.0137445516376322
40
0.0234837430302824
40
0.0338722138491093
40
0.0442606846679359
40
0.0858145679432431
40
0.168922334493857
40
0.335137867595086
40
0.667568933797543
40
1
40
1
40
1
40
1
41
1
10
92.2065152112613
20
47.7632347155339
30
0
41
1
10
92.2063515578047
20
47.763219638452
30
0
41
1
10
92.202312944305
20
47.7628468736388
30
0
41
1
10
92.1973077550909
20
47.7623625491143
30
0
41
1
10
92.1915015085052
20
47.7617629435761
30
0
41
1
10
92.1823094645119
20
47.7608015948216
30
0
41
1
10
92.1668283134847
20
47.7591806682721
30
0
41
1
10
92.1378017053796
20
47.7561360637266
30
0
41
1
10
92.1005518232641
20
47.7522197042253
30
0
41
1
10
92.0550790800321
20
47.7474274465892
30
0
41
1
10
91.9621989115188
20
47.7376357590803
30
0
41
1
10
91.7609490967239
20
47.7165137197901
30
0
41
1
10
91.3274965378008
20
47.670935391964
30
0
41
1
10
90.4605859062935
20
47.5798331650601
30
0
41
1
10
89.222144667528
20
47.4496622449125
30
0
41
1
10
88.2313912354228
20
47.3455298630942
30
0
41
1
10
87.7360145193702
20
47.293463672185
30
0
0
SPLINE
5
2FB
100
AcDbEntity
8
1
62
256
6
ByLayer
370
18
48
1
60
0
100
AcDbSpline
70
4
71
1
72
4
73
2
40
0
40
0
40
1
40
1
41
1
10
82.8240936909814
20
35.1587059904373
30
0
41
1
10
82.7220187414965
20
36.0050996757615
30
0
0
SPLINE
5
2FC
100
AcDbEntity
8
1
62
256
6
ByLayer
370
18
48
1
60
0
100
AcDbSpline
70
4
71
3
72
21
73
17
40
0
40
0
40
0
40
0
40
0.0592792738439086
40
0.122239377580495
40
0.18519948131708
40
0.248159585053669
40
0.311119688790257
40
0.374079792526842
40
0.500000000000015
40
0.625920207473189
40
0.751840414946362
40
0.814800518682948
40
0.877760622419535
40
0.909240674287829
40
0.940720726156122
40
1
40
1
40
1
40
1
41
1
10
85.1033480922579
20
36.9414299600566
30
0
41
1
10
85.09883639341
20
36.9410134966391
30
0
41
1
10
85.0898874888949
20
36.9404105018466
30
0
41
1
10
85.0768525432562
20
36.9408077858197
30
0
41
1
10
85.0625697966
20
36.9425670808813
30
0
41
1
10
85.0479236953279
20
36.9457799793804
30
0
41
1
10
85.0335396169861
20
36.9505459696643
30
0
41
1
10
85.0149025229459
20
36.9589447595529
30
0
41
1
10
84.9929823871282
20
36.9732260281144
30
0
41
1
10
84.9708155942533
20
36.9954927383473
30
0
41
1
10
84.9568760487033
20
37.0168988697836
30
0
41
1
10
84.9486419417568
20
37.0351841873924
30
0
41
1
10
84.9447388360035
20
37.0465670283988
30
0
41
1
10
84.9423788223331
20
37.0553286190904
30
0
41
1
10
84.9405331354362
20
37.0638562071799
30
0
41
1
10
84.9395879148975
20
37.0704737881228
30
0
41
1
10
84.9390556510015
20
37.0749907170089
30
0
0
SPLINE
5
2FD
100
AcDbEntity
8
1
62
256
6
ByLayer
370
18
48
1
60
0
100
AcDbSpline
70
4
71
3
72
42
73
38
40
0
40
0
40
0
40
0
40
0.258003694988868
40
0.516007389977737
40
0.645009237472171
40
0.709510161219388
40
0.741760623092996
40
0.749823238561398
40
0.757885854029801
40
0.765444556031428
40
0.769223907032242
40
0.773003258033055
40
0.77350717149983
40
0.774011084966605
40
0.776026738833706
40
0.778042392700806
40
0.782073700435007
40
0.790136315903409
40
0.806261546840214
40
0.838512008713822
40
0.870762470587431
40
0.903012932461039
40
0.911075547929441
40
0.915106855663643
40
0.919138163397843
40
0.923169471132044
40
0.927200778866246
40
0.931232086600447
40
0.935263394334648
40
0.951388625271452
40
0.967513856208256
40
0.983639087145061
40
0.990693875679912
40
0.997748664214764
40
0.998756491148315
40
0.999764318081865
40
1
40
1
40
1
40
1
41
1
10
88.7492616514096
20
37.3246332929556
30
0
41
1
10
88.4357089612915
20
37.2916775772452
30
0
41
1
10
87.8086035810553
20
37.2257661458245
30
0
41
1
10
87.0247218557601
20
37.1433768565486
30
0
41
1
10
86.4760046480534
20
37.0857043540555
30
0
41
1
10
86.2016460442001
20
37.0568681028089
30
0
41
1
10
86.0742652638397
20
37.0434798433016
30
0
41
1
10
86.0154741344425
20
37.0373006466059
30
0
41
1
10
85.9866909773419
20
37.0342754148903
30
0
41
1
10
85.9631132848232
20
37.0317972995488
30
0
41
1
10
85.9447410568866
20
37.0298663005814
30
0
41
1
10
85.9349425353204
20
37.0288364344655
30
0
41
1
10
85.9291246631404
20
37.0282249514592
30
0
41
1
10
85.9254502175532
20
37.0278387516656
30
0
41
1
10
85.9199385491722
20
37.0272594519754
30
0
41
1
10
85.910140027606
20
37.0262295858595
30
0
41
1
10
85.8929926148652
20
37.0244273201565
30
0
41
1
10
85.8586977893835
20
37.0208227887507
30
0
41
1
10
85.7901081384201
20
37.0136137259391
30
0
41
1
10
85.6921229227582
20
37.0033150647796
30
0
41
1
10
85.574540663964
20
36.9909566713882
30
0
41
1
10
85.4863539698683
20
36.9816878763447
30
0
41
1
10
85.4324621012542
20
36.976023612707
30
0
41
1
10
85.4128650581218
20
36.973963880475
30
0
41
1
10
85.3981672757726
20
36.9724190813011
30
0
41
1
10
85.3834694934233
20
36.9708742821272
30
0
41
1
10
85.368771711074
20
36.9693294829533
30
0
41
1
10
85.3540739287247
20
36.9677846837794
30
0
41
1
10
85.3246783640261
20
36.9646950854316
30
0
41
1
10
85.2805850169783
20
36.9600606879097
30
0
41
1
10
85.2217938875811
20
36.953881491214
30
0
41
1
10
85.174026094946
20
36.9488608938988
30
0
41
1
10
85.1372816390727
20
36.944998895964
30
0
41
1
10
85.1188834600862
20
36.9430504937716
30
0
41
1
10
85.1078267576887
20
36.9418695188161
30
0
41
1
10
85.1051098418952
20
36.9415947831342
30
0
41
1
10
85.1036282373222
20
36.9414558195332
30
0
41
1
10
85.1033480922579
20
36.9414299600566
30
0
0
SPLINE
5
2FE
100
AcDbEntity
8
1
62
256
6
ByLayer
370
18
48
1
60
0
100
AcDbSpline
70
4
71
3
72
45
73
41
40
0
40
0
40
0
40
0
40
0.0011565097570303
40
0.0196321945810057
40
0.0288700369929934
40
0.0381078794049811
40
0.0565835642289565
40
0.130486303524858
40
0.20438904282076
40
0.278291782116661
40
0.310624230558618
40
0.340935900972953
40
0.342956679000575
40
0.347575600206569
40
0.352194521412563
40
0.370670206236538
40
0.379908048648526
40
0.389145891060513
40
0.407621575884489
40
0.426097260708464
40
0.463048630356415
40
0.500000000004366
40
0.536951369652317
40
0.555427054476291
40
0.573902739300268
40
0.592378424124243
40
0.610854108948218
40
0.629329793772194
40
0.647805478596169
40
0.652424399802162
40
0.657043321008157
40
0.689375769450114
40
0.721708217892071
40
0.795610957187972
40
0.869513696483874
40
0.943416435779775
40
0.961892120603751
40
0.980367805427726
40
0.998843490251701
40
1
40
1
40
1
40
1
41
1
10
94.3437481798674
20
35.5527685799247
30
0
41
1
10
94.344207367739
20
35.5528259994867
30
0
41
1
10
94.3519964685333
20
35.5538031829853
30
0
41
1
10
94.3633076476102
20
35.5553076066166
30
0
41
1
10
94.3775685361796
20
35.5575255368816
30
0
41
1
10
94.3917481438996
20
35.5599382505081
30
0
41
1
10
94.4306669508175
20
35.567376112265
30
0
41
1
10
94.495274814712
20
35.5841312517056
30
0
41
1
10
94.5811156184156
20
35.6167978372146
30
0
41
1
10
94.6492667742993
20
35.6521273867562
30
0
41
1
10
94.6991863091643
20
35.6835386297329
30
0
41
1
10
94.722234535126
20
35.6996881996349
30
0
41
1
10
94.7352008283482
20
35.7092869842204
30
0
41
1
10
94.7391386012147
20
35.7122347713179
30
0
41
1
10
94.7487864588401
20
35.7195699979476
30
0
41
1
10
94.7599078848402
20
35.7283580689825
30
0
41
1
10
94.7724205644578
20
35.7387074013691
30
0
41
1
10
94.7847971661601
20
35.7492572733556
30
0
41
1
10
94.8000045280114
20
35.762814358548
30
0
41
1
10
94.8237392325272
20
35.7852677473952
30
0
41
1
10
94.8522221451047
20
35.8147131996402
30
0
41
1
10
94.8842938401526
20
35.8520932647908
30
0
41
1
10
94.9090878767069
20
35.884814234929
30
0
41
1
10
94.9277074668584
20
35.9118132608157
30
0
41
1
10
94.9410502865508
20
35.9324435801862
30
0
41
1
10
94.9537571799469
20
35.9534248745789
30
0
41
1
10
94.9658140936717
20
35.9747270690614
30
0
41
1
10
94.9772069743497
20
35.9963200887006
30
0
41
1
10
94.9852430700419
20
36.0127104160979
30
0
41
1
10
94.9903841734835
20
36.0237093870579
30
0
41
1
10
94.9979660992331
20
36.0402496256896
30
0
41
1
10
95.0097380913903
20
36.0680854418496
30
0
41
1
10
95.0302637918946
20
36.124457699215
30
0
41
1
10
95.0505173357687
20
36.1987253841164
30
0
41
1
10
95.0644983302502
20
36.2898100589834
30
0
41
1
10
95.0673907408197
20
36.3567364820126
30
0
41
1
10
95.0664692372358
20
36.4001147633965
30
0
41
1
10
95.0654281829977
20
36.4217361414962
30
0
41
1
10
95.0642587859151
20
36.4368103126567
30
0
41
1
10
95.0635914400908
20
36.4446621241197
30
0
41
1
10
95.0635519151693
20
36.4451249698661
30
0
0
SPLINE
5
2FF
100
AcDbEntity
8
1
62
256
6
ByLayer
370
18
48
1
60
0
100
AcDbSpline
70
4
71
3
72
41
73
37
40
0
40
0
40
0
40
0
40
0.0078125
40
0.01171875
40
0.013671875
40
0.015625
40
0.03125
40
0.0625
40
0.09375
40
0.125
40
0.1328125
40
0.140625
40
0.15625
40
0.1875
40
0.25
40
0.3125
40
0.375
40
0.4375
40
0.46875
40
0.4765625
40
0.484375
40
0.5
40
0.5625
40
0.625
40
0.6875
40
0.71875
40
0.734375
40
0.7421875
40
0.75
40
0.78125
40
0.8125
40
0.875
40
0.90625
40
0.921875
40
0.9375
40
1
40
1
40
1
40
1
41
1
10
92.1434420296212
20
41.5324727366896
30
0
41
1
10
92.149754906184
20
41.533136246753
30
0
41
1
10
92.1596940130698
20
41.5341808889815
30
0
41
1
10
92.1700857040258
20
41.5352730997125
30
0
41
1
10
92.1755912138031
20
41.5358517521074
30
0
41
1
10
92.1895458003485
20
41.5373184382547
30
0
41
1
10
92.2243610906371
20
41.5409776727161
30
0
41
1
10
92.2801170596627
20
41.546837861202
30
0
41
1
10
92.3470085502887
20
41.55386844017
30
0
41
1
10
92.3971829044278
20
41.5591419772918
30
0
41
1
10
92.4306113225864
20
41.5626554456185
30
0
41
1
10
92.4528503015323
20
41.5649928564936
30
0
41
1
10
92.4916453702589
20
41.5690703825243
30
0
41
1
10
92.5717061962457
20
41.5774851144143
30
0
41
1
10
92.6910315887819
20
41.5900267185447
30
0
41
1
10
92.8404655778136
20
41.6057328636845
30
0
41
1
10
92.9935815548854
20
41.6218260013616
30
0
41
1
10
93.1221862094997
20
41.6353428952365
30
0
41
1
10
93.205310988687
20
41.6440796615846
30
0
41
1
10
93.2434202907337
20
41.6480851106327
30
0
41
1
10
93.2689847166696
20
41.6507720400707
30
0
41
1
10
93.3398423699832
20
41.6582194795349
30
0
41
1
10
93.4555221128527
20
41.6703779104449
30
0
41
1
10
93.6098533852574
20
41.6865987808086
30
0
41
1
10
93.7384570503722
20
41.7001155706829
30
0
41
1
10
93.828496020453
20
41.7095790477773
30
0
41
1
10
93.8734899759897
20
41.7143081030656
30
0
41
1
10
93.8992423316163
20
41.7170147847101
30
0
41
1
10
93.9377477493221
20
41.7210618671916
30
0
41
1
10
93.9954070787457
20
41.7271221069166
30
0
41
1
10
94.0977139809417
20
41.7378749956342
30
0
41
1
10
94.1990021469446
20
41.7485208108635
30
0
41
1
10
94.2856523107427
20
41.7576281100651
30
0
41
1
10
94.3344840594399
20
41.7627605336686
30
0
41
1
10
94.4069042053201
20
41.7703721977192
30
0
41
1
10
94.4674689770195
20
41.7767378117327
30
0
41
1
10
94.5158563993393
20
41.7818235347521
30
0
0
SPLINE
5
300
100
AcDbEntity
8
1
62
256
6
ByLayer
370
18
48
1
60
0
100
AcDbSpline
70
4
71
3
72
26
73
22
40
0
40
0
40
0
40
0
40
0.0286869624045618
40
0.0286869624045618
40
0.141758577072859
40
0.141758577072859
40
0.254859186747113
40
0.254859186747113
40
0.368025661656489
40
0.368025661656489
40
0.481336136143516
40
0.481336136143516
40
0.594988764681217
40
0.594988764681217
40
0.731770501834068
40
0.731770501834068
40
0.814572892185874
40
0.814572892185874
40
0.903908109634992
40
0.903908109634992
40
1
40
1
40
1
40
1
41
1
10
89.1789176974239
20
39.9933279560588
30
0
41
1
10
89.1754172135936
20
39.9907758572722
30
0
41
1
10
89.1718921581819
20
39.988259036363
30
0
41
1
10
89.154363984973
20
39.9760056124216
30
0
41
1
10
89.1400053709191
20
39.9667816261873
30
0
41
1
10
89.1106553604384
20
39.949574978909
30
0
41
1
10
89.0956348801697
20
39.9415750359806
30
0
41
1
10
89.0650312632628
20
39.9270060055422
30
0
41
1
10
89.0494098842662
20
39.9204183019549
30
0
41
1
10
89.0176996719136
20
39.9089911301464
30
0
41
1
10
89.0015523785907
20
39.9041304021475
30
0
41
1
10
88.9689795787017
20
39.8966956975455
30
0
41
1
10
88.9524480341689
20
39.8941008304976
30
0
41
1
10
88.91646105117
20
39.8919494329184
30
0
41
1
10
88.8966562105377
20
39.8930943486454
30
0
41
1
10
88.8673956442705
20
39.9006897644894
30
0
41
1
10
88.8567644423651
20
39.9049671428967
30
0
41
1
10
88.8373879305116
20
39.9169461197531
30
0
41
1
10
88.8286414244071
20
39.9250877791173
30
0
41
1
10
88.815165977495
20
39.9446179414183
30
0
41
1
10
88.8105716462515
20
39.9564751517373
30
0
41
1
10
88.8083476300513
20
39.9687278411901
30
0
0
SPLINE
5
301
100
AcDbEntity
8
1
62
256
6
ByLayer
370
18
48
1
60
0
100
AcDbSpline
70
4
71
3
72
26
73
22
40
0
40
0
40
0
40
0
40
0.0246840387502225
40
0.0246840387502225
40
0.108402719804381
40
0.108402719804381
40
0.192103052547609
40
0.192103052547609
40
0.309485195483535
40
0.309485195483535
40
0.380199874143337
40
0.380199874143337
40
0.476666438094155
40
0.476666438094155
40
0.587023534816812
40
0.587023534816812
40
0.69722910130019
40
0.69722910130019
40
0.807364565734768
40
0.807364565734768
40
1
40
1
40
1
40
1
41
1
10
89.5905661610437
20
40.9398799441827
30
0
41
1
10
89.5935166421257
20
40.9389165256712
30
0
41
1
10
89.5965094686655
20
40.9381042475987
30
0
41
1
10
89.6096531500136
20
40.9352971371314
30
0
41
1
10
89.62028801771
20
40.935052703157
30
0
41
1
10
89.6409064261948
20
40.93897202271
30
0
41
1
10
89.6511313088441
20
40.9431883232415
30
0
41
1
10
89.6734807790568
20
40.9574082979767
30
0
41
1
10
89.6851800579109
20
40.9692252626041
30
0
41
1
10
89.7009375374336
20
40.9905868899512
30
0
41
1
10
89.7063143781619
20
40.9993203692461
30
0
41
1
10
89.7177077762868
20
41.0207997088069
30
0
41
1
10
89.7233025760993
20
41.0339401071336
30
0
41
1
10
89.7335098870763
20
41.0628239169669
30
0
41
1
10
89.7379018554103
20
41.0787697484049
30
0
41
1
10
89.7449234733969
20
41.1110545033453
30
0
41
1
10
89.7475679273553
20
41.1274617622116
30
0
41
1
10
89.7513616152262
20
41.1604468283764
30
0
41
1
10
89.7525155690425
20
41.1770696513633
30
0
41
1
10
89.7538460809391
20
41.2227377073319
30
0
41
1
10
89.7526673517999
20
41.2519443663672
30
0
41
1
10
89.7496268693096
20
41.2808726248976
30
0
0
SPLINE
5
302
100
AcDbEntity
8
1
62
256
6
ByLayer
370
18
48
1
60
0
100
AcDbSpline
70
4
71
3
72
26
73
22
40
0
40
0
40
0
40
0
40
0.0286869624045613
40
0.0286869624045613
40
0.141758577072924
40
0.141758577072924
40
0.25485918674718
40
0.25485918674718
40
0.368025661656563
40
0.368025661656563
40
0.481336136143595
40
0.481336136143595
40
0.594988764681319
40
0.594988764681319
40
0.731770501834067
40
0.731770501834067
40
0.814572892185911
40
0.814572892185911
40
0.903908109635036
40
0.903908109635036
40
1
40
1
40
1
40
1
41
1
10
88.9236934730112
20
42.4216242446679
30
0
41
1
10
88.927648074045
20
42.4198557068747
30
0
41
1
10
88.9315864138766
20
42.4180473571789
30
0
41
1
10
88.950953353643
20
42.4089208026135
30
0
41
1
10
88.9661447706777
20
42.401025497441
30
0
41
1
10
88.9958355703899
20
42.3840372257067
30
0
41
1
10
89.0103645317013
20
42.374927559404
30
0
41
1
10
89.0385426001203
20
42.3554720501428
30
0
41
1
10
89.0522271816147
20
42.345102141345
30
0
41
1
10
89.0784150222297
20
42.3230414708935
30
0
41
1
10
89.0909665737116
20
42.3113102037709
30
0
41
1
10
89.1143634948464
20
42.2864069889437
30
0
41
1
10
89.1252820888074
20
42.2731523546029
30
0
41
1
10
89.1462413523735
20
42.2424593335113
30
0
41
1
10
89.1559043704518
20
42.2243434525943
30
0
41
1
10
89.1654915491923
20
42.1944494701338
30
0
41
1
10
89.1677698976915
20
42.1827835355766
30
0
41
1
10
89.1686181366678
20
42.1592961776684
30
0
41
1
10
89.1668416428046
20
42.147239361411
30
0
41
1
10
89.158601237447
20
42.1249407224358
30
0
41
1
10
89.1516971915734
20
42.1145677179832
30
0
41
1
10
89.1432264075006
20
42.1060749905763
30
0
0
SPLINE
5
303
100
AcDbEntity
8
1
62
256
6
ByLayer
370
18
48
1
60
0
100
AcDbSpline
70
4
71
3
72
26
73
22
40
0
40
0
40
0
40
0
40
0.0753632465605497
40
0.0753632465605497
40
0.133990653438515
40
0.133990653438515
40
0.208552868369797
40
0.208552868369797
40
0.300524113423238
40
0.300524113423238
40
0.399920035818929
40
0.399920035818929
40
0.499275462063602
40
0.499275462063602
40
0.577746029348542
40
0.577746029348542
40
0.77716036161657
40
0.77716036161657
40
0.91386469565991
40
0.91386469565991
40
1
40
1
40
1
40
1
41
1
10
89.5041801057988
20
41.5803514795921
30
0
41
1
10
89.489178706685
20
41.5795670015383
30
0
41
1
10
89.4736482681685
20
41.58181302564
30
0
41
1
10
89.4466266479669
20
41.5892575286277
30
0
41
1
10
89.4348374198934
20
41.5937384477959
30
0
41
1
10
89.4085930509839
20
41.6058847298491
30
0
41
1
10
89.3941700907901
20
41.6141323609548
30
0
41
1
10
89.3629132291184
20
41.6347849312965
30
0
41
1
10
89.3461669264741
20
41.6477987906276
30
0
41
1
10
89.3127516149081
20
41.6771584820426
30
0
41
1
10
89.2960760872562
20
41.6937998391974
30
0
41
1
10
89.26448205251
20
41.7289812062801
30
0
41
1
10
89.24946662332
20
41.7476310293241
30
0
41
1
10
89.2243687256475
20
41.7822954072885
30
0
41
1
10
89.2138662795623
20
41.7981074999466
30
0
41
1
10
89.1794513564656
20
41.854888055089
30
0
41
1
10
89.1587549478925
20
41.8984954376003
30
0
41
1
10
89.1359461745597
20
41.9724867890125
30
0
41
1
10
89.1298135088787
20
42.0034947132408
30
0
41
1
10
89.1292120216096
20
42.052005062191
30
0
41
1
10
89.1313392395404
20
42.0706789055724
30
0
41
1
10
89.1369895942118
20
42.0875027495788
30
0
0
SPLINE
5
304
100
AcDbEntity
8
1
62
256
6
ByLayer
370
18
48
1
60
0
100
AcDbSpline
70
4
71
3
72
26
73
22
40
0
40
0
40
0
40
0
40
0.0341747429582818
40
0.0341747429582818
40
0.118717554180304
40
0.118717554180304
40
0.203116442115696
40
0.203116442115696
40
0.327045140900947
40
0.327045140900947
40
0.402980231179082
40
0.402980231179082
40
0.505547228462746
40
0.505547228462746
40
0.607904869129005
40
0.607904869129005
40
0.710165947508026
40
0.710165947508026
40
0.915602886218741
40
0.915602886218741
40
1
40
1
40
1
40
1
41
1
10
87.198870098672
20
40.6885025585592
30
0
41
1
10
87.1947051471876
20
40.6863021839102
30
0
41
1
10
87.1903939065024
20
40.6843670033509
30
0
41
1
10
87.1751610747615
20
40.6787841296504
30
0
41
1
10
87.1634459751861
20
40.6767051157758
30
0
41
1
10
87.1400826467787
20
40.6771039570324
30
0
41
1
10
87.128156694978
20
40.6795771777914
30
0
41
1
10
87.1005498915532
20
40.6901421110265
30
0
41
1
10
87.0851292668815
20
40.7004012392256
30
0
41
1
10
87.0632727259427
20
40.7199529571003
30
0
41
1
10
87.0554887594326
20
40.7282262502557
30
0
41
1
10
87.0385554540862
20
40.7487780763248
30
0
41
1
10
87.0298035096714
20
40.7615280249391
30
0
41
1
10
87.0140580117525
20
40.7879902355346
30
0
41
1
10
87.0070198401705
20
40.8017742182412
30
0
41
1
10
86.9944155784327
20
40.8299544628431
30
0
41
1
10
86.9888292954328
20
40.8443966429203
30
0
41
1
10
86.9739883522746
20
40.8883955817591
30
0
41
1
10
86.9666078770875
20
40.9187251388099
30
0
41
1
10
86.9593958682996
20
40.9619144970454
30
0
41
1
10
86.9576768759725
20
40.974583489364
30
0
41
1
10
86.9563417329414
20
40.9872865267606
30
0
0
SPLINE
5
305
100
AcDbEntity
8
1
62
256
6
ByLayer
370
18
48
1
60
0
100
AcDbSpline
70
4
71
3
72
8
73
4
40
0
40
0
40
0
40
0
40
1
40
1
40
1
40
1
41
1
10
87.2197422967177
20
40.6896946925132
30
0
41
1
10
87.2127838454081
20
40.6892972668407
30
0
41
1
10
87.2058264616871
20
40.6888998895552
30
0
41
1
10
87.198870098672
20
40.6885025585592
30
0
0
SPLINE
5
306
100
AcDbEntity
8
1
62
256
6
ByLayer
370
18
48
1
60
0
100
AcDbSpline
70
4
71
3
72
8
73
4
40
0
40
0
40
0
40
0
40
1
40
1
40
1
40
1
41
1
10
89.1432264075006
20
42.1060749905763
30
0
41
1
10
89.1411481096629
20
42.0998854186989
30
0
41
1
10
89.1390691818087
20
42.0936946896185
30
0
41
1
10
89.1369895942119
20
42.0875027495788
30
0
0
SPLINE
5
307
100
AcDbEntity
8
1
62
256
6
ByLayer
370
18
48
1
60
0
100
AcDbSpline
70
4
71
3
72
30
73
26
40
0
40
0
40
0
40
0
40
0.0754486908212101
40
0.0754486908212101
40
0.134142567439248
40
0.134142567439248
40
0.208789318447076
40
0.208789318447076
40
0.300864837338292
40
0.300864837338292
40
0.400373451415957
40
0.400373451415957
40
0.499841523429533
40
0.499841523429533
40
0.644794997236313
40
0.644794997236313
40
0.711843600985123
40
0.711843600985123
40
0.778927202841162
40
0.778927202841162
40
0.846083321820497
40
0.846083321820497
40
0.913400043300342
40
0.913400043300342
40
1
40
1
40
1
40
1
41
1
10
88.7967804685638
20
39.9844271865742
30
0
41
1
10
88.7876308181044
20
39.9968445075358
30
0
41
1
10
88.7758714538909
20
40.0075982389851
30
0
41
1
10
88.7527610868165
20
40.0238666988332
30
0
41
1
10
88.7417543785546
20
40.0301130166695
30
0
41
1
10
88.7156210906713
20
40.0425099023402
30
0
41
1
10
88.7000779564573
20
40.0482303722167
30
0
41
1
10
88.6642985606698
20
40.0586799092492
30
0
41
1
10
88.643659806298
20
40.0629122284999
30
0
41
1
10
88.5999087648624
20
40.0689540646086
30
0
41
1
10
88.5765684859967
20
40.0705594536788
30
0
41
1
10
88.5295720697486
20
40.0709923794062
30
0
41
1
10
88.5057703460924
20
40.0698199406815
30
0
41
1
10
88.4476422692829
20
40.063710433621
30
0
41
1
10
88.4130595222435
20
40.0572738988168
30
0
41
1
10
88.3640963567091
20
40.0437332803396
30
0
41
1
10
88.3487425247234
20
40.0388108104866
30
0
41
1
10
88.3187162675641
20
40.0276713513526
30
0
41
1
10
88.3039926514972
20
40.0214356802374
30
0
41
1
10
88.2755363493606
20
40.0075519454187
30
0
41
1
10
88.2617409785782
20
39.9998733539896
30
0
41
1
10
88.2356197963337
20
39.9829198743819
30
0
41
1
10
88.223209181607
20
39.9735871870811
30
0
41
1
10
88.1976121461359
20
39.9502752981608
30
0
41
1
10
88.1848849871535
20
39.9354370223302
30
0
41
1
10
88.1758661170991
20
39.919166458498
30
0
0
SPLINE
5
308
100
AcDbEntity
8
1
62
256
6
ByLayer
370
18
48
1
60
0
100
AcDbSpline
70
4
71
3
72
8
73
4
40
0
40
0
40
0
40
0
40
1
40
1
40
1
40
1
41
1
10
89.5718088615174
20
40.9369068501004
30
0
41
1
10
89.5780627305126
20
40.9378980952497
30
0
41
1
10
89.5843151419853
20
40.9388891233859
30
0
41
1
10
89.5905661610437
20
40.9398799441826
30
0
0
SPLINE
5
309
100
AcDbEntity
8
1
62
256
6
ByLayer
370
18
48
1
60
0
100
AcDbSpline
70
4
71
3
72
8
73
4
40
0
40
0
40
0
40
0
40
1
40
1
40
1
40
1
41
1
10
89.5231456543444
20
41.5813432166085
30
0
41
1
10
89.5168252318231
20
41.5810127256518
30
0
41
1
10
89.5105034042069
20
41.5806821480045
30
0
41
1
10
89.5041801057988
20
41.5803514795921
30
0
0
SPLINE
5
30A
100
AcDbEntity
8
1
62
256
6
ByLayer
370
18
48
1
60
0
100
AcDbSpline
70
4
71
3
72
8
73
4
40
0
40
0
40
0
40
0
40
1
40
1
40
1
40
1
41
1
10
87.5787893455158
20
40.1637707845913
30
0
41
1
10
87.5815035838473
20
40.170027196508
30
0
41
1
10
87.5842180678063
20
40.1762847252269
30
0
41
1
10
87.5869328083047
20
40.1825434225265
30
0
0
SPLINE
5
30B
100
AcDbEntity
8
1
62
256
6
ByLayer
370
18
48
1
60
0
100
AcDbSpline
70
4
71
3
72
8
73
4
40
0
40
0
40
0
40
0
40
1
40
1
40
1
40
1
41
1
10
88.1758661170991
20
39.919166458498
30
0
41
1
10
88.1725467625817
20
39.9131781507355
30
0
41
1
10
88.1692277801563
20
39.9071909598774
30
0
41
1
10
88.1659091537862
20
39.9012048364371
30
0
0
SPLINE
5
30C
100
AcDbEntity
8
1
62
256
6
ByLayer
370
18
48
1
60
0
100
AcDbSpline
70
4
71
3
72
8
73
4
40
0
40
0
40
0
40
0
40
1
40
1
40
1
40
1
41
1
10
88.8083476300513
20
39.9687278411902
30
0
41
1
10
88.8044928790775
20
39.9739600122905
30
0
41
1
10
88.8006371735115
20
39.979193113054
30
0
41
1
10
88.7967804685638
20
39.9844271865742
30
0
0
SPLINE
5
30D
100
AcDbEntity
8
1
62
256
6
ByLayer
370
18
48
1
60
0
100
AcDbSpline
70
4
71
3
72
26
73
22
40
0
40
0
40
0
40
0
40
0.0341747429583218
40
0.0341747429583218
40
0.118717554180384
40
0.118717554180384
40
0.20311644211569
40
0.20311644211569
40
0.32704514090098
40
0.32704514090098
40
0.402980231179004
40
0.402980231179004
40
0.505547228462775
40
0.505547228462775
40
0.607904869128994
40
0.607904869128994
40
0.710165947508051
40
0.710165947508051
40
0.915602886218723
40
0.915602886218723
40
1
40
1
40
1
40
1
41
1
10
88.1659091537862
20
39.9012048364371
30
0
41
1
10
88.1655956122384
20
39.8966655914152
30
0
41
1
10
88.1649790162966
20
39.8921336196324
30
0
41
1
10
88.1617305935433
20
39.8767315174624
30
0
41
1
10
88.1573441313428
20
39.8659638963732
30
0
41
1
10
88.1447193562703
20
39.8467042093831
30
0
41
1
10
88.1363388412238
20
39.8379788093065
30
0
41
1
10
88.112805482188
20
39.8201459192719
30
0
41
1
10
88.0959376515876
20
39.8123151225096
30
0
41
1
10
88.0677390109426
20
39.8036800769684
30
0
41
1
10
88.0565745179038
20
39.801248966471
30
0
41
1
10
88.0300970695538
20
39.7972204206056
30
0
41
1
10
88.0145876226122
20
39.7961881275999
30
0
41
1
10
87.9836579454004
20
39.7960765219655
30
0
41
1
10
87.9681529309917
20
39.7969951973095
30
0
41
1
10
87.9373801364525
20
39.8003766335881
30
0
41
1
10
87.9220624275703
20
39.8028451470304
30
0
41
1
10
87.8765223791927
20
39.8122053554848
30
0
41
1
10
87.8466037307254
20
39.8210652694494
30
0
41
1
10
87.8056971390457
20
39.8364780308605
30
0
41
1
10
87.7939019911373
20
39.8413352561266
30
0
41
1
10
87.7822751292398
20
39.8465349069903
30
0
0
SPLINE
5
30E
100
AcDbEntity
8
1
62
256
6
ByLayer
370
18
48
1
60
0
100
AcDbSpline
70
4
71
3
72
30
73
26
40
0
40
0
40
0
40
0
40
0.0754486908212836
40
0.0754486908212836
40
0.134142567439335
40
0.134142567439335
40
0.208789318447147
40
0.208789318447147
40
0.300864837338275
40
0.300864837338275
40
0.400373451416016
40
0.400373451416016
40
0.499841523429523
40
0.499841523429523
40
0.644794997236259
40
0.644794997236259
40
0.711843600985121
40
0.711843600985121
40
0.7789272028412
40
0.7789272028412
40
0.846083321820502
40
0.846083321820502
40
0.913400043300361
40
0.913400043300361
40
1
40
1
40
1
40
1
41
1
10
87.9271419339527
20
42.2856189855311
30
0
41
1
10
87.9377984217554
20
42.2733600395561
30
0
41
1
10
87.950998049485
20
42.2627576859022
30
0
41
1
10
87.9764502500709
20
42.2467353626745
30
0
41
1
10
87.988421377295
20
42.2405904093557
30
0
41
1
10
88.0165813134385
20
42.2284065330007
30
0
41
1
10
88.0331509623785
20
42.2227939541692
30
0
41
1
10
88.0709632789075
20
42.2125580857168
30
0
41
1
10
88.0925565637837
20
42.2084260916646
30
0
41
1
10
88.1379225365345
20
42.2025539916768
30
0
41
1
10
88.1618988130545
20
42.2010154486537
30
0
41
1
10
88.2097422903365
20
42.2006715526286
30
0
41
1
10
88.2337575859528
20
42.2018664386708
30
0
41
1
10
88.2918856627621
20
42.2079759457313
30
0
41
1
10
88.3260150301131
20
42.2143648284101
30
0
41
1
10
88.3736731820034
20
42.2277682844262
30
0
41
1
10
88.3885174668493
20
42.2326371987168
30
0
41
1
10
88.4173402263765
20
42.2436501651524
30
0
41
1
10
88.4313678389516
20
42.249812683353
30
0
41
1
10
88.4582514239961
20
42.2635311189442
30
0
41
1
10
88.4711665541305
20
42.2711171933533
30
0
41
1
10
88.4953492735174
20
42.2878669323047
30
0
41
1
10
88.5066949961404
20
42.2970876949354
30
0
41
1
10
88.529674260676
20
42.3201244450433
30
0
41
1
10
88.5407631609722
20
42.3347905329475
30
0
41
1
10
88.5480562854175
20
42.3508797136072
30
0
0
SPLINE
5
30F
100
AcDbEntity
8
1
62
256
6
ByLayer
370
18
48
1
60
0
100
AcDbSpline
70
4
71
3
72
8
73
4
40
0
40
0
40
0
40
0
40
1
40
1
40
1
40
1
41
1
10
88.5480562854175
20
42.3508797136072
30
0
41
1
10
88.5507404870333
20
42.3568012641098
30
0
41
1
10
88.5534239133539
20
42.3627216553296
30
0
41
1
10
88.5561065992302
20
42.3686409387306
30
0
0
SPLINE
5
310
100
AcDbEntity
8
1
62
256
6
ByLayer
370
18
48
1
60
0
100
AcDbSpline
70
4
71
3
72
26
73
22
40
0
40
0
40
0
40
0
40
0.0341747429583106
40
0.0341747429583106
40
0.118717554180345
40
0.118717554180345
40
0.203116442115645
40
0.203116442115645
40
0.327045140900971
40
0.327045140900971
40
0.402980231179043
40
0.402980231179043
40
0.505547228462776
40
0.505547228462776
40
0.607904869128975
40
0.607904869128975
40
0.710165947508029
40
0.710165947508029
40
0.915602886218636
40
0.915602886218636
40
1
40
1
40
1
40
1
41
1
10
88.5561065992302
20
42.3686409387306
30
0
41
1
10
88.5559723243078
20
42.3731331163449
30
0
41
1
10
88.5561370447024
20
42.3776175940937
30
0
41
1
10
88.5578318601183
20
42.3928564055526
30
0
41
1
10
88.5610997951672
20
42.4035064647011
30
0
41
1
10
88.571644560806
20
42.4225475338902
30
0
41
1
10
88.5790381276894
20
42.4311692015349
30
0
41
1
10
88.6004291328561
20
42.4487769211043
30
0
41
1
10
88.6162265444537
20
42.456495212296
30
0
41
1
10
88.6430179064577
20
42.4649823468919
30
0
41
1
10
88.6537101444759
20
42.4673638213865
30
0
41
1
10
88.6792059342905
20
42.4712891907822
30
0
41
1
10
88.6942459607746
20
42.4722721457098
30
0
41
1
10
88.7243771972702
20
42.4722998318432
30
0
41
1
10
88.739551077894
20
42.4713463529361
30
0
41
1
10
88.7697646869804
20
42.4679061438979
30
0
41
1
10
88.7848535734787
20
42.465413580254
30
0
41
1
10
88.8298275152947
20
42.4559938716025
30
0
41
1
10
88.8595260889664
20
42.4471108268447
30
0
41
1
10
88.9002917517719
20
42.4316832532121
30
0
41
1
10
88.9120666111137
20
42.4268238955316
30
0
41
1
10
88.9236934730112
20
42.4216242446679
30
0
0
SPLINE
5
311
100
AcDbEntity
8
1
62
256
6
ByLayer
370
18
48
1
60
0
100
AcDbSpline
70
4
71
3
72
26
73
22
40
0
40
0
40
0
40
0
40
0.0286869624046618
40
0.0286869624046618
40
0.141758577072957
40
0.141758577072957
40
0.254859186747221
40
0.254859186747221
40
0.368025661656605
40
0.368025661656605
40
0.481336136143607
40
0.481336136143607
40
0.594988764681357
40
0.594988764681357
40
0.731770501834074
40
0.731770501834074
40
0.814572892185981
40
0.814572892185981
40
0.903908109635011
40
0.903908109635011
40
1
40
1
40
1
40
1
41
1
10
86.9563417329414
20
40.9872865267606
30
0
41
1
10
86.9558876157378
20
40.9916071633404
30
0
41
1
10
86.9554778640552
20
40.9959327052511
30
0
41
1
10
86.9536740502464
20
41.01731635744
30
0
41
1
10
86.9529237774901
20
41.0344443231229
30
0
41
1
10
86.9528652269511
20
41.0686689066173
30
0
41
1
10
86.9535566540193
20
41.0857995270375
30
0
41
1
10
86.9565195914065
20
41.1198805485865
30
0
41
1
10
86.9587943692007
20
41.1368736841316
30
0
41
1
10
86.9651680421413
20
41.1704510017537
30
0
41
1
10
86.9692783854238
20
41.1870970836661
30
0
41
1
10
86.9797238907403
20
41.2195684462241
30
0
41
1
10
86.9860958407668
20
41.2354977216702
30
0
41
1
10
87.0031686604179
20
41.2685570890353
30
0
41
1
10
87.0146957752376
20
41.2856736543096
30
0
41
1
10
87.0371783436756
20
41.3082674777376
30
0
41
1
10
87.0467489782246
20
41.3157840278432
30
0
41
1
10
87.0680713848793
20
41.327586084189
30
0
41
1
10
87.0802323866547
20
41.3316734020094
30
0
41
1
10
87.1054608429963
20
41.3348110682484
30
0
41
1
10
87.1188935152752
20
41.3335301649959
30
0
41
1
10
87.1314495919727
20
41.329965830985
30
0
0
SPLINE
5
312
100
AcDbEntity
8
1
62
256
6
ByLayer
370
18
48
1
60
0
100
AcDbSpline
70
4
71
3
72
8
73
4
40
0
40
0
40
0
40
0
40
1
40
1
40
1
40
1
41
1
10
87.1314495919727
20
41.329965830985
30
0
41
1
10
87.138336551525
20
41.331023491821
30
0
41
1
10
87.1452245191023
20
41.3320813195956
30
0
41
1
10
87.1521135409992
20
41.3331393220048
30
0
0
SPLINE
5
313
100
AcDbEntity
8
1
62
256
6
ByLayer
370
18
48
1
60
0
100
AcDbSpline
70
4
71
3
72
8
73
4
40
0
40
0
40
0
40
0
40
1
40
1
40
1
40
1
41
1
10
89.3180850216397
20
40.3644948520375
30
0
41
1
10
89.3214065419811
20
40.3588705913173
30
0
41
1
10
89.3247271652243
20
40.3532473779257
30
0
41
1
10
89.3280469316223
20
40.3476251654618
30
0
0
SPLINE
5
314
100
AcDbEntity
8
1
62
256
6
ByLayer
370
18
48
1
60
0
100
AcDbSpline
70
4
71
3
72
30
73
26
40
0
40
0
40
0
40
0
40
0.0754486908212024
40
0.0754486908212024
40
0.134142567439254
40
0.134142567439254
40
0.208789318447073
40
0.208789318447073
40
0.300864837338273
40
0.300864837338273
40
0.400373451415955
40
0.400373451415955
40
0.49984152342954
40
0.49984152342954
40
0.644794997236268
40
0.644794997236268
40
0.711843600985102
40
0.711843600985102
40
0.778927202841176
40
0.778927202841176
40
0.846083321820513
40
0.846083321820513
40
0.913400043300328
40
0.913400043300328
40
1
40
1
40
1
40
1
41
1
10
87.5869328083047
20
40.1825434225265
30
0
41
1
10
87.5933732612264
20
40.1973915619096
30
0
41
1
10
87.5970581152758
20
40.2136468850741
30
0
41
1
10
87.6000019987219
20
40.2429383467133
30
0
41
1
10
87.6000774696151
20
40.2560694654841
30
0
41
1
10
87.5981030183046
20
40.285910223575
30
0
41
1
10
87.5954661464298
20
40.3027507415935
30
0
41
1
10
87.5869831244443
20
40.3400070420041
30
0
41
1
10
87.5804962575833
20
40.3605007512322
30
0
41
1
10
87.5641335655574
20
40.4022930010441
30
0
41
1
10
87.5539624801795
20
40.4236765538609
30
0
41
1
10
87.5309786062173
20
40.4651353334258
30
0
41
1
10
87.5180934583347
20
40.4853382812958
30
0
41
1
10
87.4837182208951
20
40.5328162110718
30
0
41
1
10
87.4607570193765
20
40.5594548247407
30
0
41
1
10
87.4242923173492
20
40.5946540605212
30
0
41
1
10
87.4122536361414
20
40.6053078250686
30
0
41
1
10
87.3873628545518
20
40.6252916631222
30
0
41
1
10
87.3744685853987
20
40.6346559604843
30
0
41
1
10
87.3479206553697
20
40.6517346543439
30
0
41
1
10
87.3342085490931
20
40.6594866715644
30
0
41
1
10
87.3061064726397
20
40.6728341830492
30
0
41
1
10
87.2916228106552
20
40.6784714591889
30
0
41
1
10
87.2581583260874
20
40.6878753882456
30
0
41
1
10
87.2386487942952
20
40.690774520075
30
0
41
1
10
87.2197422967177
20
40.6896946925132
30
0
0
SPLINE
5
315
100
AcDbEntity
8
1
62
256
6
ByLayer
370
18
48
1
60
0
100
AcDbSpline
70
4
71
3
72
26
73
22
40
0
40
0
40
0
40
0
40
0.0341747429583051
40
0.0341747429583051
40
0.118717554180368
40
0.118717554180368
40
0.203116442115667
40
0.203116442115667
40
0.327045140900974
40
0.327045140900974
40
0.402980231179031
40
0.402980231179031
40
0.505547228462724
40
0.505547228462724
40
0.607904869128949
40
0.607904869128949
40
0.710165947507915
40
0.710165947507915
40
0.915602886218621
40
0.915602886218621
40
1
40
1
40
1
40
1
41
1
10
89.3280469316223
20
40.3476251654618
30
0
41
1
10
89.331674433324
20
40.3452627613849
30
0
41
1
10
89.3351431402937
20
40.3426422231447
30
0
41
1
10
89.3463507456125
20
40.3327413493197
30
0
41
1
10
89.3531201194118
20
40.3239939611344
30
0
41
1
10
89.3628186680298
20
40.3042261239873
30
0
41
1
10
89.3658706307024
20
40.2929756369357
30
0
41
1
10
89.3688728981569
20
40.2644652284336
30
0
41
1
10
89.3668904827267
20
40.2463190506869
30
0
41
1
10
89.3598447437
20
40.2180583317981
30
0
41
1
10
89.3562280896608
20
40.207329110144
30
0
41
1
10
89.3461931173897
20
40.1826971499747
30
0
41
1
10
89.3392009046343
20
40.1688902393155
30
0
41
1
10
89.3236175049833
20
40.1422744633353
30
0
41
1
10
89.3149850952639
20
40.1293917541909
30
0
41
1
10
89.2965369697362
20
40.1045635594879
30
0
41
1
10
89.2866911326621
20
40.0925778677523
30
0
41
1
10
89.2557089741618
20
40.0579093872692
30
0
41
1
10
89.2330607634838
20
40.0364281787865
30
0
41
1
10
89.1992957161549
20
40.0086441758514
30
0
41
1
10
89.1892094162902
20
40.0008313425917
30
0
41
1
10
89.1789176974239
20
39.9933279560588
30
0
0
SPLINE
5
316
100
AcDbEntity
8
1
62
256
6
ByLayer
370
18
48
1
60
0
100
AcDbSpline
70
4
71
3
72
30
73
26
40
0
40
0
40
0
40
0
40
0.0754486908211578
40
0.0754486908211578
40
0.13414256743924
40
0.13414256743924
40
0.208789318447057
40
0.208789318447057
40
0.300864837338203
40
0.300864837338203
40
0.400373451415946
40
0.400373451415946
40
0.499841523429514
40
0.499841523429514
40
0.644794997236257
40
0.644794997236257
40
0.711843600985085
40
0.711843600985085
40
0.778927202841179
40
0.778927202841179
40
0.846083321820502
40
0.846083321820502
40
0.913400043300359
40
0.913400043300359
40
1
40
1
40
1
40
1
41
1
10
87.1521135409992
20
41.3331393220048
30
0
41
1
10
87.168457063052
20
41.3356493279198
30
0
41
1
10
87.1846214130728
20
41.3412266085327
30
0
41
1
10
87.2118465803491
20
41.354372678634
30
0
41
1
10
87.2234109689854
20
41.3613081618272
30
0
41
1
10
87.2485831296883
20
41.3788585389053
30
0
41
1
10
87.2620026493905
20
41.3900325325698
30
0
41
1
10
87.2903154835631
20
41.4169461302379
30
0
41
1
10
87.3049446363262
20
41.4332576828144
30
0
41
1
10
87.3331404513935
20
41.4690929645782
30
0
41
1
10
87.3466276437083
20
41.4889045513485
30
0
41
1
10
87.3710637165112
20
41.5299749200369
30
0
41
1
10
87.3820870782649
20
41.5513615302904
30
0
41
1
10
87.4058399176348
20
41.6049489671269
30
0
41
1
10
87.4172347733112
20
41.6380002895373
30
0
41
1
10
87.4290807299963
20
41.6866715625645
30
0
41
1
10
87.4321411072044
20
41.7022210191838
30
0
41
1
10
87.4366748339581
20
41.7332810700221
30
0
41
1
10
87.4381561791258
20
41.7488444620421
30
0
41
1
10
87.4392781926874
20
41.7797242411067
30
0
41
1
10
87.4389213368693
20
41.7951085912462
30
0
41
1
10
87.4359712112315
20
41.8253077120106
30
0
41
1
10
87.4333657179219
20
41.8402217131162
30
0
41
1
10
87.4241893833574
20
41.8727999616868
30
0
41
1
10
87.4165878812046
20
41.8904512753837
30
0
41
1
10
87.405837380877
20
41.9055513200677
30
0
0
SPLINE
5
317
100
AcDbEntity
8
1
62
256
6
ByLayer
370
18
48
1
60
0
100
AcDbSpline
70
4
71
3
72
8
73
4
40
0
40
0
40
0
40
0
40
1
40
1
40
1
40
1
41
1
10
87.405837380877
20
41.9055513200678
30
0
41
1
10
87.401880707634
20
41.9111088235279
30
0
41
1
10
87.397924528286
20
41.9166652372812
30
0
41
1
10
87.3939688213941
20
41.922220609706
30
0
0
SPLINE
5
318
100
AcDbEntity
8
1
62
256
6
ByLayer
370
18
48
1
60
0
100
AcDbSpline
70
4
71
3
72
26
73
22
40
0
40
0
40
0
40
0
40
0.0286869624046202
40
0.0286869624046202
40
0.141758577072888
40
0.141758577072888
40
0.254859186747175
40
0.254859186747175
40
0.36802566165655
40
0.36802566165655
40
0.481336136143594
40
0.481336136143594
40
0.594988764681308
40
0.594988764681308
40
0.731770501834079
40
0.731770501834079
40
0.814572892185911
40
0.814572892185911
40
0.90390810963503
40
0.90390810963503
40
1
40
1
40
1
40
1
41
1
10
87.7822751292398
20
39.8465349069903
30
0
41
1
10
87.7783205282059
20
39.8483034447835
30
0
41
1
10
87.7743845435326
20
39.8501120420165
30
0
41
1
10
87.7550409055986
20
39.8592410457031
30
0
41
1
10
87.7399045087136
20
39.8671421337265
30
0
41
1
10
87.7104018681298
20
39.884150181782
30
0
41
1
10
87.6960061788922
20
39.8932738555441
30
0
41
1
10
87.6681863697394
20
39.9127670193716
30
0
41
1
10
87.6547271084397
20
39.923160610276
30
0
41
1
10
87.6291068019601
20
39.9452809309689
30
0
41
1
10
87.6168983181058
20
39.9570482559522
30
0
41
1
10
87.5943478146792
20
39.9820404328652
30
0
41
1
10
87.5839352203546
20
39.9953482499109
30
0
41
1
10
87.5643393569341
20
40.0261845701321
30
0
41
1
10
87.5555998670329
20
40.0443975177718
30
0
41
1
10
87.5478854755667
20
40.0744883381067
30
0
41
1
10
87.5464189811626
20
40.0862396019677
30
0
41
1
10
87.5474334980379
20
40.1099227434053
30
0
41
1
10
87.5503019931063
20
40.1220943336142
30
0
41
1
10
87.5608841345119
20
40.1446390989658
30
0
41
1
10
87.5690777104934
20
40.1551476384944
30
0
41
1
10
87.5787893455158
20
40.1637707845913
30
0
0
SPLINE
5
319
100
AcDbEntity
8
1
62
256
6
ByLayer
370
18
48
1
60
0
100
AcDbSpline
70
4
71
3
72
26
73
22
40
0
40
0
40
0
40
0
40
0.034174742958325
40
0.034174742958325
40
0.118717554180441
40
0.118717554180441
40
0.203116442115727
40
0.203116442115727
40
0.327045140901051
40
0.327045140901051
40
0.402980231179119
40
0.402980231179119
40
0.505547228462855
40
0.505547228462855
40
0.60790486912909
40
0.60790486912909
40
0.710165947508089
40
0.710165947508089
40
0.915602886218875
40
0.915602886218875
40
1
40
1
40
1
40
1
41
1
10
87.3939688213941
20
41.922220609706
30
0
41
1
10
87.3898935032223
20
41.9245359463752
30
0
41
1
10
87.3859729207053
20
41.9271089905815
30
0
41
1
10
87.373211708049
20
41.9368465736954
30
0
41
1
10
87.3653238070982
20
41.9454763999397
30
0
41
1
10
87.3535452490465
20
41.9650256192861
30
0
41
1
10
87.3495063382107
20
41.9761723739057
30
0
41
1
10
87.3443617168872
20
42.0044576119427
30
0
41
1
10
87.3452737133146
20
42.0224912841187
30
0
41
1
10
87.3509121737002
20
42.050604092062
30
0
41
1
10
87.3540565727188
20
42.0612836777134
30
0
41
1
10
87.3631098864546
20
42.0858124614131
30
0
41
1
10
87.3696326787526
20
42.0995700339941
30
0
41
1
10
87.3844176376873
20
42.1261018904734
30
0
41
1
10
87.3927189136217
20
42.1389497960546
30
0
41
1
10
87.4106078536967
20
42.1637192179982
30
0
41
1
10
87.420224868387
20
42.1756808595321
30
0
41
1
10
87.4506409203256
20
42.210289839818
30
0
41
1
10
87.4730690562081
20
42.2317479175076
30
0
41
1
10
87.5066931746628
20
42.2595171082212
30
0
41
1
10
87.5167591859608
20
42.2673278090665
30
0
41
1
10
87.527050904827
20
42.2748311955994
30
0
0
SPLINE
5
31A
100
AcDbEntity
8
1
62
256
6
ByLayer
370
18
48
1
60
0
100
AcDbSpline
70
4
71
3
72
26
73
22
40
0
40
0
40
0
40
0
40
0.0286869624047508
40
0.0286869624047508
40
0.141758577073007
40
0.141758577073007
40
0.254859186747312
40
0.254859186747312
40
0.36802566165667
40
0.36802566165667
40
0.48133613614364
40
0.48133613614364
40
0.594988764681346
40
0.594988764681346
40
0.731770501834078
40
0.731770501834078
40
0.814572892185886
40
0.814572892185886
40
0.90390810963502
40
0.90390810963502
40
1
40
1
40
1
40
1
41
1
10
87.527050904827
20
42.2748311955994
30
0
41
1
10
87.5305513886573
20
42.277383294386
30
0
41
1
10
87.5340787992271
20
42.2799003628323
30
0
41
1
10
87.5516302742686
20
42.2921562358952
30
0
41
1
10
87.5660439084721
20
42.3013860049802
30
0
41
1
10
87.5955820780812
20
42.3186124285796
30
0
41
1
10
87.6107358304238
20
42.3266263789675
30
0
41
1
10
87.641697706597
20
42.3412330639721
30
0
41
1
10
87.6575444057881
20
42.3478444496661
30
0
41
1
10
87.6898221522761
20
42.359331271716
30
0
41
1
10
87.7063125132267
20
42.3642280575755
30
0
41
1
10
87.7397317308239
20
42.3717517242634
30
0
41
1
10
87.7567692749932
20
42.3743997740162
30
0
41
1
10
87.7941196581376
20
42.3766944707249
30
0
41
1
10
87.814848026947
20
42.3756466217208
30
0
41
1
10
87.8459813804884
20
42.3682480437511
30
0
41
1
10
87.8574244364891
20
42.3640559946476
30
0
41
1
10
87.8786637041942
20
42.3522728013205
30
0
41
1
10
87.8885022115039
20
42.3442459159079
30
0
41
1
10
87.9043193944638
20
42.3249618799834
30
0
41
1
10
87.9102032558152
20
42.3132402047402
30
0
41
1
10
87.9136681229651
20
42.3011179339775
30
0
0
SPLINE
5
31B
100
AcDbEntity
8
1
62
256
6
ByLayer
370
18
48
1
60
0
100
AcDbSpline
70
4
71
3
72
8
73
4
40
0
40
0
40
0
40
0
40
1
40
1
40
1
40
1
41
1
10
87.9136681229651
20
42.3011179339775
30
0
41
1
10
87.9181588144328
20
42.2959526029164
30
0
41
1
10
87.9226500761036
20
42.2907863017913
30
0
41
1
10
87.9271419339527
20
42.2856189855311
30
0
0
SPLINE
5
31C
100
AcDbEntity
8
1
62
256
6
ByLayer
370
18
48
1
60
0
100
AcDbSpline
70
4
71
3
72
26
73
22
40
0
40
0
40
0
40
0
40
0.0286988395658766
40
0.0286988395658766
40
0.141769071600779
40
0.141769071600779
40
0.254868298287122
40
0.254868298287122
40
0.368033389403154
40
0.368033389403154
40
0.481342478336056
40
0.481342478336056
40
0.594993717135823
40
0.594993717135823
40
0.731773781728604
40
0.731773781728604
40
0.814575159577665
40
0.814575159577665
40
0.903909284641045
40
0.903909284641045
40
1
40
1
40
1
40
1
41
1
10
89.7496268693096
20
41.2808726248976
30
0
41
1
10
89.7491727521059
20
41.2851932614777
30
0
41
1
10
89.748676574157
20
41.2895097196222
30
0
41
1
10
89.7460183608562
20
41.3108035708061
30
0
41
1
10
89.7432461541969
20
41.3277190226723
30
0
41
1
10
89.7363758933726
20
41.3612276665664
30
0
41
1
10
89.7322711914624
20
41.3778541935179
30
0
41
1
10
89.722645417817
20
41.4106120882208
30
0
41
1
10
89.7171125980273
20
41.4267846121926
30
0
41
1
10
89.7044646223879
20
41.458362673987
30
0
41
1
10
89.697326252559
20
41.4738264685101
30
0
41
1
10
89.6812042484109
20
41.5035054733028
30
0
41
1
10
89.6721656578254
20
41.5178150356628
30
0
41
1
10
89.6499558914253
20
41.5467456368615
30
0
41
1
10
89.6360454658712
20
41.5611886089076
30
0
41
1
10
89.6112294627386
20
41.5788111521414
30
0
41
1
10
89.6011170449707
20
41.5842589300855
30
0
41
1
10
89.5796695544212
20
41.5915656890934
30
0
41
1
10
89.5680164997581
20
41.5931500487233
30
0
41
1
10
89.5450287242723
20
41.5912199847886
30
0
41
1
10
89.5334454329802
20
41.5873097978155
30
0
41
1
10
89.5231456543444
20
41.5813432166085
30
0
0
SPLINE
5
31D
100
AcDbEntity
8
1
62
256
6
ByLayer
370
18
48
1
60
0
100
AcDbSpline
70
4
71
3
72
26
73
22
40
0
40
0
40
0
40
0
40
0.0369679839399307
40
0.0369679839399307
40
0.140366078223081
40
0.140366078223081
40
0.298318733654474
40
0.298318733654474
40
0.500628765508237
40
0.500628765508237
40
0.645354084681095
40
0.645354084681095
40
0.712297154914722
40
0.712297154914722
40
0.779275168169093
40
0.779275168169093
40
0.846325584405812
40
0.846325584405812
40
0.913536350357209
40
0.913536350357209
40
1
40
1
40
1
40
1
41
1
10
89.3180850216376
20
40.3644948520409
30
0
41
1
10
89.3141729864525
20
40.3711190191593
30
0
41
1
10
89.3108392266696
20
40.3782189403396
30
0
41
1
10
89.3002503917539
20
40.4060101135691
30
0
41
1
10
89.2962970531182
20
40.4288376796345
30
0
41
1
10
89.2927674000829
20
40.4872479927428
30
0
41
1
10
89.2964184874758
20
40.5243884354122
30
0
41
1
10
89.3128417536163
20
40.6074534461709
30
0
41
1
10
89.3282071275934
20
40.6543722936165
30
0
41
1
10
89.3618238444897
20
40.7302130663879
30
0
41
1
10
89.3782914297677
20
40.7609958125404
30
0
41
1
10
89.4053359442964
20
40.8028701359593
30
0
41
1
10
89.4143869620953
20
40.8157405171928
30
0
41
1
10
89.4333754491967
20
40.8403362522263
30
0
41
1
10
89.4433449972421
20
40.8521036336104
30
0
41
1
10
89.464189214095
20
40.8741634428256
30
0
41
1
10
89.4751097022938
20
40.8845044500513
30
0
41
1
10
89.4978841144139
20
40.9031992959607
30
0
41
1
10
89.5098143259176
20
40.9116127820735
30
0
41
1
10
89.5379745734813
20
40.9274937314742
30
0
41
1
10
89.5548167531086
20
40.934213582133
30
0
41
1
10
89.5718088615174
20
40.9369068501004
30
0
0
SPLINE
5
31E
100
AcDbEntity
8
1
62
256
6
ByLayer
370
18
48
1
60
0
100
AcDbSpline
70
4
71
3
72
20
73
16
40
0
40
0
40
0
40
0
40
0.111661444996793
40
0.111661444996793
40
0.222456821428647
40
0.222456821428647
40
0.429919501068651
40
0.429919501068651
40
0.533729292983497
40
0.533729292983497
40
0.746952618715329
40
0.746952618715329
40
0.903209875641776
40
0.903209875641776
40
1
40
1
40
1
40
1
41
1
10
95.1216338359541
20
-19.8880308327703
30
0
41
1
10
95.1161398447285
20
-19.901423770797
30
0
41
1
10
95.1095912640373
20
-19.9099364101926
30
0
41
1
10
95.0936425808501
20
-19.9153625954516
30
0
41
1
10
95.0840620631836
20
-19.9127199858657
30
0
41
1
10
95.0520902732139
20
-19.8966536740796
30
0
41
1
10
95.0251180775201
20
-19.8766664053208
30
0
41
1
10
94.9766980990918
20
-19.844587122607
30
0
41
1
10
94.9590397574079
20
-19.8332327605666
30
0
41
1
10
94.9016134420654
20
-19.7977793913262
30
0
41
1
10
94.8572280368749
20
-19.7727520487093
30
0
41
1
10
94.7754058279302
20
-19.7246255969908
30
0
41
1
10
94.7384641493633
20
-19.7022757840201
30
0
41
1
10
94.681957386998
20
-19.6583335832668
30
0
41
1
10
94.6609083944343
20
-19.6391603071429
30
0
41
1
10
94.6425014633248
20
-19.6180374116043
30
0
0
SPLINE
5
31F
100
AcDbEntity
8
1
62
256
6
ByLayer
370
18
48
1
60
0
100
AcDbSpline
70
4
71
3
72
8
73
4
40
0
40
0
40
0
40
0
40
1
40
1
40
1
40
1
41
1
10
95.023488840046
20
-20.7053533832353
30
0
41
1
10
95.0248627609608
20
-20.6951254921949
30
0
41
1
10
95.0262354905255
20
-20.6848975332943
30
0
41
1
10
95.0276070314041
20
-20.6746695083708
30
0
0
SPLINE
5
320
100
AcDbEntity
8
1
62
256
6
ByLayer
370
18
48
1
60
0
100
AcDbSpline
70
4
71
3
72
8
73
4
40
0
40
0
40
0
40
0
40
1
40
1
40
1
40
1
41
1
10
95.0276070314007
20
-20.6746695083966
30
0
41
1
10
95.0346949630779
20
-20.6218125042927
30
0
41
1
10
95.0418031492351
20
-20.5685014131637
30
0
41
1
10
95.0488470089562
20
-20.5150822905725
30
0
0
SPLINE
5
321
100
AcDbEntity
8
1
62
256
6
ByLayer
370
18
48
1
60
0
100
AcDbSpline
70
4
71
3
72
8
73
4
40
0
40
0
40
0
40
0
40
1
40
1
40
1
40
1
41
1
10
95.0488470089566
20
-20.5150822905716
30
0
41
1
10
95.0735218721147
20
-20.3279534163263
30
0
41
1
10
95.0974630255593
20
-20.142508671844
30
0
41
1
10
95.1210743992285
20
-19.956887543912
30
0
0
SPLINE
5
322
100
AcDbEntity
8
1
62
256
6
ByLayer
370
18
48
1
60
0
100
AcDbSpline
70
4
71
3
72
22
73
18
40
0
40
0
40
0
40
0
40
0.247648061032158
40
0.247648061032158
40
0.499630853098556
40
0.499630853098556
40
0.554937524732288
40
0.554937524732288
40
0.599939125431648
40
0.599939125431648
40
0.645356331405082
40
0.645356331405082
40
0.695796263471576
40
0.695796263471576
40
0.780049574067143
40
0.780049574067143
40
1
40
1
40
1
40
1
41
1
10
95.1210743992413
20
-19.9568875439437
30
0
41
1
10
95.1223125978933
20
-19.9471534287838
30
0
41
1
10
95.1235400045708
20
-19.937280582487
30
0
41
1
10
95.125895403486
20
-19.9170544768997
30
0
41
1
10
95.1271113567277
20
-19.9063252606653
30
0
41
1
10
95.1280596727349
20
-19.8936338937754
30
0
41
1
10
95.1282073770771
20
-19.8913078975809
30
0
41
1
10
95.1283708584266
20
-19.8873890902986
30
0
41
1
10
95.1284057552726
20
-19.8857107174695
30
0
41
1
10
95.1283619221321
20
-19.8828615327934
30
0
41
1
10
95.1282800337014
20
-19.8816661238466
30
0
41
1
10
95.1280007307993
20
-19.8798527344563
30
0
41
1
10
95.1277899714457
20
-19.8792717510099
30
0
41
1
10
95.1271458443445
20
-19.8784800677047
30
0
41
1
10
95.12665042201
20
-19.8787107255944
30
0
41
1
10
95.1247798335568
20
-19.8806951904874
30
0
41
1
10
95.1232202641867
20
-19.8841635286316
30
0
41
1
10
95.1216338359542
20
-19.8880308327696
30
0
0
SPLINE
5
323
100
AcDbEntity
8
1
62
256
6
ByLayer
370
18
48
1
60
0
100
AcDbSpline
70
4
71
3
72
8
73
4
40
0
40
0
40
0
40
0
40
1
40
1
40
1
40
1
41
1
10
67.8440247446561
20
38.8498339799942
30
0
41
1
10
67.8883476110359
20
38.9223107914512
30
0
41
1
10
67.9310161266883
20
38.9920824063461
30
0
41
1
10
67.9726938876631
20
39.0602339378431
30
0
0
SPLINE
5
324
100
AcDbEntity
8
1
62
256
6
ByLayer
370
18
48
1
60
0
100
AcDbSpline
70
4
71
3
72
8
73
4
40
0
40
0
40
0
40
0
40
1
40
1
40
1
40
1
41
1
10
67.9840732868938
20
38.4986040995611
30
0
41
1
10
67.9410534057451
20
38.5568532939969
30
0
41
1
10
67.8970551781637
20
38.6164271757648
30
0
41
1
10
67.8515238195515
20
38.6780769267616
30
0
0
SPLINE
5
325
100
AcDbEntity
8
1
62
256
6
ByLayer
370
18
48
1
60
0
100
AcDbSpline
70
4
71
3
72
14
73
10
40
0
40
0
40
0
40
0
40
0.124197480351665
40
0.124197480351665
40
0.616912513930427
40
0.616912513930427
40
0.934289091474455
40
0.934289091474455
40
1
40
1
40
1
40
1
41
1
10
82.3971796078399
20
37.4211126830769
30
0
41
1
10
82.3856610061568
20
37.4082741480559
30
0
41
1
10
82.3745165836784
20
37.395643874552
30
0
41
1
10
82.3216136555696
20
37.3348961737053
30
0
41
1
10
82.284963010402
20
37.2900296518172
30
0
41
1
10
82.2391918540577
20
37.2362241619604
30
0
41
1
10
82.2246686068528
20
37.2200334660088
30
0
41
1
10
82.2130428054592
20
37.2100426986054
30
0
41
1
10
82.2112426724687
20
37.208651144823
30
0
41
1
10
82.2096553309485
20
37.2076045983833
30
0
0
SPLINE
5
326
100
AcDbEntity
8
1
62
256
6
ByLayer
370
18
48
1
60
0
100
AcDbSpline
70
4
71
3
72
12
73
8
40
0
40
0
40
0
40
0
40
0.195817342722459
40
0.195817342722459
40
0.442058153730412
40
0.442058153730412
40
1
40
1
40
1
40
1
41
1
10
85.3453329452183
20
34.2298019700268
30
0
41
1
10
85.3508763867086
20
34.231399628532
30
0
41
1
10
85.3626286935324
20
34.2381248920871
30
0
41
1
10
85.3990500654904
20
34.2626457730527
30
0
41
1
10
85.4264966925729
20
34.2830380882945
30
0
41
1
10
85.5242156402655
20
34.3625291498741
30
0
41
1
10
85.6067471512432
20
34.4397842988406
30
0
41
1
10
85.684554470932
20
34.5290453975248
30
0
0
SPLINE
5
327
100
AcDbEntity
8
1
62
256
6
ByLayer
370
18
48
1
60
0
100
AcDbSpline
70
4
71
2
72
6
73
3
40
0
40
0
40
0
40
1
40
1
40
1
41
0.499941648329306
10
93.6394755298121
20
35.1015514835651
30
0
41
0.500058351670694
10
93.9113385908527
20
35.1062004233153
30
0
41
0.499941648329306
10
94.183206066576
20
35.1108495574518
30
0
0
SPLINE
5
328
100
AcDbEntity
8
1
62
256
6
ByLayer
370
18
48
1
60
0
100
AcDbSpline
70
4
71
3
72
8
73
4
40
0
40
0
40
0
40
0
40
1
40
1
40
1
40
1
41
1
10
85.8567624750486
20
-26.7609348212033
30
0
41
1
10
85.5860092676059
20
-28.100645649271
30
0
41
1
10
85.0029368934
20
-28.9090941068124
30
0
41
1
10
85.0029368934
20
-28.9988220013918
30
0
0
SPLINE
5
329
100
AcDbEntity
8
1
62
256
6
ByLayer
370
18
48
1
60
0
100
AcDbSpline
70
4
71
3
72
14
73
10
40
0
40
0
40
0
40
0
40
0.296881969763585
40
0.296881969763585
40
0.555368717806619
40
0.555368717806619
40
0.815498404043691
40
0.815498404043691
40
1
40
1
40
1
40
1
41
1
10
66.4639969479755
20
-17.6517820014035
30
0
41
1
10
66.4024827110798
20
-17.7205416150626
30
0
41
1
10
66.3345315421846
20
-17.7768947755531
30
0
41
1
10
66.2121055185418
20
-17.845956036989
30
0
41
1
10
66.1559634983241
20
-17.8639162301392
30
0
41
1
10
66.0628607970575
20
-17.8677886587902
30
0
41
1
10
66.0249141028319
20
-17.853639838002
30
0
41
1
10
65.9866790471863
20
-17.8065214897726
30
0
41
1
10
65.9782898419843
20
-17.7798256778685
30
0
41
1
10
65.9779886026298
20
-17.747754382927
30
0
0
SPLINE
5
32A
100
AcDbEntity
8
1
62
256
6
ByLayer
370
18
48
1
60
0
100
AcDbSpline
70
4
71
3
72
10
73
6
40
0
40
0
40
0
40
0
40
0.295368028639117
40
0.295368028639117
40
1
40
1
40
1
40
1
41
1
10
94.9841990062714
20
-15.4822682851255
30
0
41
1
10
94.9885115639622
20
-15.5080443376744
30
0
41
1
10
94.9928129133389
20
-15.5338192348835
30
0
41
1
10
95.0073359196651
20
-15.6210964471791
30
0
41
1
10
95.0175037267824
20
-15.6826078699305
30
0
41
1
10
95.0276070314041
20
-15.7441330169518
30
0
0
SPLINE
5
32B
100
AcDbEntity
8
1
62
256
6
ByLayer
370
18
48
1
60
0
100
AcDbSpline
70
2053
71
3
72
22
73
18
40
0
40
0
40
0
40
0
40
0.247648061032122
40
0.247648061032122
40
0.499630853098492
40
0.499630853098492
40
0.554937524732167
40
0.554937524732167
40
0.599939125431568
40
0.599939125431568
40
0.645356331404982
40
0.645356331404982
40
0.695796263471506
40
0.695796263471506
40
0.7800495740671
40
0.7800495740671
40
1
40
1
40
1
40
1
41
1
10
95.1213541175978
20
-16.3204693377368
30
0
41
1
10
95.1223125978933
20
-16.3286848305564
30
0
41
1
10
95.1235400045708
20
-16.3363987241504
30
0
41
1
10
95.125895403486
20
-16.3507232103204
30
0
41
1
10
95.1271113567277
20
-16.357896183015
30
0
41
1
10
95.1280596727349
20
-16.362530085692
30
0
41
1
10
95.1282073770771
20
-16.3631781340971
30
0
41
1
10
95.1283708584266
20
-16.3636457828249
30
0
41
1
10
95.1284057552726
20
-16.3635896438295
30
0
41
1
10
95.1283619221321
20
-16.3627707117551
30
0
41
1
10
95.1282800337014
20
-16.3619825540454
30
0
41
1
10
95.1280007307993
20
-16.359732339022
30
0
41
1
10
95.1277899714457
20
-16.358188232197
30
0
41
1
10
95.1271458443445
20
-16.3536998980587
30
0
41
1
10
95.12665042201
20
-16.3504476092905
30
0
41
1
10
95.1247798335568
20
-16.3385543100478
30
0
41
1
10
95.1232202641867
20
-16.3292833638642
30
0
41
1
10
95.1213541175978
20
-16.3204693377368
30
0
0
SPLINE
5
32C
100
AcDbEntity
8
1
62
256
6
ByLayer
370
18
48
1
60
0
100
AcDbSpline
70
4
71
3
72
8
73
4
40
0
40
0
40
0
40
0
40
1
40
1
40
1
40
1
41
1
10
82.0318185847166
20
-18.8109741691926
30
0
41
1
10
82.0153940020709
20
-18.8640770875766
30
0
41
1
10
81.9990047262881
20
-18.9174664628545
30
0
41
1
10
81.9826960576447
20
-18.9709294077326
30
0
0
SPLINE
5
32D
100
AcDbEntity
8
1
62
256
6
ByLayer
370
18
48
1
60
0
100
AcDbSpline
70
4
71
3
72
8
73
4
40
0
40
0
40
0
40
0
40
1
40
1
40
1
40
1
41
1
10
81.9826960576438
20
-18.9709294077339
30
0
41
1
10
81.925566276104
20
-19.1582117928342
30
0
41
1
10
81.868894931704
20
-19.3446103481468
30
0
41
1
10
81.8125724206515
20
-19.5311691993487
30
0
0
SPLINE
5
32E
100
AcDbEntity
8
1
62
256
6
ByLayer
370
18
48
1
60
0
100
AcDbSpline
70
4
71
3
72
22
73
18
40
0
40
0
40
0
40
0
40
0.247648061032083
40
0.247648061032083
40
0.49963085309851
40
0.49963085309851
40
0.554937524732147
40
0.554937524732147
40
0.599939125431589
40
0.599939125431589
40
0.645356331405018
40
0.645356331405018
40
0.695796263471423
40
0.695796263471423
40
0.780049574066976
40
0.780049574066976
40
1
40
1
40
1
40
1
41
1
10
81.8125724206342
20
-19.5311691993277
30
0
41
1
10
81.8096188247005
20
-19.5409524894192
30
0
41
1
10
81.8066846359961
20
-19.550836388669
30
0
41
1
10
81.8009941657343
20
-19.5708981883546
30
0
41
1
10
81.7980557653682
20
-19.5814845236453
30
0
41
1
10
81.7954895764617
20
-19.5935317153786
30
0
41
1
10
81.7950672755311
20
-19.5957148977932
30
0
41
1
10
81.7945090757526
20
-19.5993169973018
30
0
41
1
10
81.7943330280762
20
-19.6008284733209
30
0
41
1
10
81.794215924097
20
-19.6033067491467
30
0
41
1
10
81.7942786233947
20
-19.6042927566016
30
0
41
1
10
81.794643409377
20
-19.605661597486
30
0
41
1
10
81.7949709972862
20
-19.6060011423434
30
0
41
1
10
81.7960332947459
20
-19.606177926895
30
0
41
1
10
81.7969021733128
20
-19.6055796915133
30
0
41
1
10
81.8002381127727
20
-19.6023644748152
30
0
41
1
10
81.8031077312727
20
-19.598128146586
30
0
41
1
10
81.8060229131724
20
-19.5935542073822
30
0
0
SPLINE
5
32F
100
AcDbEntity
8
1
62
256
6
ByLayer
370
18
48
1
60
0
100
AcDbSpline
70
4
71
3
72
22
73
18
40
0
40
0
40
0
40
0
40
0.10461153152925
40
0.10461153152925
40
0.208411675036483
40
0.208411675036483
40
0.40277588600405
40
0.40277588600405
40
0.500031490391539
40
0.500031490391539
40
0.699792640385678
40
0.699792640385678
40
0.846184360106947
40
0.846184360106947
40
0.950335564350897
40
0.950335564350897
40
1
40
1
40
1
40
1
41
1
10
81.8060229131726
20
-19.5935542073815
30
0
41
1
10
81.8161185377026
20
-19.577714107377
30
0
41
1
10
81.8268054268108
20
-19.5664939676932
30
0
41
1
10
81.8492499002871
20
-19.5559580542238
30
0
41
1
10
81.8613019964965
20
-19.5561666808019
30
0
41
1
10
81.8986078448175
20
-19.566384718253
30
0
41
1
10
81.9272233844851
20
-19.5838055091343
30
0
41
1
10
81.9768983822673
20
-19.6142454439997
30
0
41
1
10
81.9947544867865
20
-19.6254081824201
30
0
41
1
10
82.0521808021291
20
-19.66137052756
30
0
41
1
10
82.0958048342968
20
-19.6882613064167
30
0
41
1
10
82.1741453566015
20
-19.7420970504059
30
0
41
1
10
82.2088872028365
20
-19.767707525636
30
0
41
1
10
82.2625196749154
20
-19.8205690266482
30
0
41
1
10
82.2832679526796
20
-19.8459552213263
30
0
41
1
10
82.3072365010157
20
-19.887060773033
30
0
41
1
10
82.3140832332506
20
-19.9010596246843
30
0
41
1
10
82.3199083880231
20
-19.9153670678928
30
0
0
SPLINE
5
330
100
AcDbEntity
8
1
62
256
6
ByLayer
370
18
48
1
60
0
100
AcDbSpline
70
4
71
3
72
8
73
4
40
0
40
0
40
0
40
0
40
1
40
1
40
1
40
1
41
1
10
95.0276070314007
20
-15.7441330169232
30
0
41
1
10
95.0346949630779
20
-15.7872957300024
30
0
41
1
10
95.0418031492351
20
-15.8295991204152
30
0
41
1
10
95.0488470089562
20
-15.8716610788781
30
0
0
SPLINE
5
331
100
AcDbEntity
8
1
62
256
6
ByLayer
370
18
48
1
60
0
100
AcDbSpline
70
4
71
3
72
8
73
4
40
0
40
0
40
0
40
0
40
1
40
1
40
1
40
1
41
1
10
95.0488470089566
20
-15.8716610788826
30
0
41
1
10
95.0735218721147
20
-16.0190054483475
30
0
41
1
10
95.0974630255593
20
-16.1700718481736
30
0
41
1
10
95.1210743992285
20
-16.3207815000676
30
0
0
SPLINE
5
332
100
AcDbEntity
8
1
62
256
6
ByLayer
370
18
48
1
60
0
100
AcDbSpline
70
4
71
3
72
10
73
6
40
0
40
0
40
0
40
0
40
0.295368028639062
40
0.295368028639062
40
1
40
1
40
1
40
1
41
1
10
82.7965286207934
20
-18.9050282337979
30
0
41
1
10
82.7844950237433
20
-18.9353949063744
30
0
41
1
10
82.7724599409991
20
-18.9657576931309
30
0
41
1
10
82.7317340065011
20
-19.0685509028137
30
0
41
1
10
82.7030570919612
20
-19.1409713962327
30
0
41
1
10
82.674401160656
20
-19.2133816062869
30
0
0
SPLINE
5
333
100
AcDbEntity
8
1
62
256
6
ByLayer
370
18
48
1
60
0
100
AcDbSpline
70
4
71
3
72
8
73
4
40
0
40
0
40
0
40
0
40
1
40
1
40
1
40
1
41
1
10
82.6744011606594
20
-19.2133816062563
30
0
41
1
10
82.65429771027
20
-19.264180690401
30
0
41
1
10
82.6329617443469
20
-19.3144722771987
30
0
41
1
10
82.6113142400727
20
-19.3645918585256
30
0
0
SPLINE
5
334
100
AcDbEntity
8
1
62
256
6
ByLayer
370
18
48
1
60
0
100
AcDbSpline
70
4
71
3
72
8
73
4
40
0
40
0
40
0
40
0
40
1
40
1
40
1
40
1
41
1
10
82.6113142400757
20
-19.3645918585294
30
0
41
1
10
82.5354823486352
20
-19.5401623354726
30
0
41
1
10
82.4648175147333
20
-19.7177976836008
30
0
41
1
10
82.3937213955988
20
-19.8951047903778
30
0
0
SPLINE
5
335
100
AcDbEntity
8
1
62
256
6
ByLayer
370
18
48
1
60
0
100
AcDbSpline
70
4
71
3
72
10
73
6
40
0
40
0
40
0
40
0
40
0.295368028639093
40
0.295368028639093
40
1
40
1
40
1
40
1
41
1
10
93.0779959983458
20
-20.1886454865036
30
0
41
1
10
93.0831471314109
20
-20.2211576326054
30
0
41
1
10
93.0883018780418
20
-20.2536665295177
30
0
41
1
10
93.1057394081765
20
-20.3637213122755
30
0
41
1
10
93.1180169605938
20
-20.4412548754957
30
0
41
1
10
93.1302836837996
20
-20.5187741836415
30
0
0
SPLINE
5
336
100
AcDbEntity
8
1
62
256
6
ByLayer
370
18
48
1
60
0
100
AcDbSpline
70
4
71
3
72
8
73
4
40
0
40
0
40
0
40
0
40
1
40
1
40
1
40
1
41
1
10
93.1302836838029
20
-20.518774183611
30
0
41
1
10
93.1388893528618
20
-20.5731575344445
30
0
41
1
10
93.1488130784915
20
-20.6273518209171
30
0
41
1
10
93.15908728372
20
-20.6814567533178
30
0
0
SPLINE
5
337
100
AcDbEntity
8
1
62
256
6
ByLayer
370
18
48
1
60
0
100
AcDbSpline
70
4
71
3
72
8
73
4
40
0
40
0
40
0
40
0
40
1
40
1
40
1
40
1
41
1
10
93.1590872837161
20
-20.6814567533207
30
0
41
1
10
93.1950781492538
20
-20.8709880409956
30
0
41
1
10
93.2256344515092
20
-21.0612606121912
30
0
41
1
10
93.25672342032
20
-21.251325289171
30
0
0
SPLINE
5
338
100
AcDbEntity
8
1
62
256
6
ByLayer
370
18
48
1
60
0
100
AcDbSpline
70
4
71
3
72
22
73
18
40
0
40
0
40
0
40
0
40
0.247648061031411
40
0.247648061031411
40
0.499630853097125
40
0.499630853097125
40
0.554937524730936
40
0.554937524730936
40
0.59993912543038
40
0.59993912543038
40
0.645356331403835
40
0.645356331403835
40
0.695796263470493
40
0.695796263470493
40
0.780049574066318
40
0.780049574066318
40
1
40
1
40
1
40
1
41
1
10
93.2567234202197
20
-21.2513252891936
30
0
41
1
10
93.2583537497308
20
-21.2612924274933
30
0
41
1
10
93.2603126892905
20
-21.271233766514
30
0
41
1
10
93.2658205485458
20
-21.2907713272496
30
0
41
1
10
93.2691726144902
20
-21.3009011634396
30
0
41
1
10
93.2770296589921
20
-21.3106975253872
30
0
41
1
10
93.2786730189295
20
-21.3123785352141
30
0
41
1
10
93.2820725210835
20
-21.3148541973819
30
0
41
1
10
93.2837876271268
20
-21.3157680216116
30
0
41
1
10
93.2874304411189
20
-21.3169045474693
30
0
41
1
10
93.2894080842103
20
-21.317126511405
30
0
41
1
10
93.2934738010632
20
-21.3168569769223
30
0
41
1
10
93.2956082291181
20
-21.316297337934
30
0
41
1
10
93.3009260139542
20
-21.3141618574392
30
0
41
1
10
93.3039845341781
20
-21.3121581722904
30
0
41
1
10
93.3140416410976
20
-21.3041770128145
30
0
41
1
10
93.3199823306019
20
-21.2968536408069
30
0
41
1
10
93.3253822418148
20
-21.2893748426759
30
0
0
SPLINE
5
339
100
AcDbEntity
8
1
62
256
6
ByLayer
370
18
48
1
60
0
100
AcDbSpline
70
4
71
3
72
22
73
18
40
0
40
0
40
0
40
0
40
0.104611531529293
40
0.104611531529293
40
0.208411675036571
40
0.208411675036571
40
0.402775886004179
40
0.402775886004179
40
0.500031490391689
40
0.500031490391689
40
0.699792640385785
40
0.699792640385785
40
0.846184360107014
40
0.846184360107014
40
0.950335564350935
40
0.950335564350935
40
1
40
1
40
1
40
1
41
1
10
93.3253822418147
20
-21.2893748426751
30
0
41
1
10
93.3440827819445
20
-21.2634748678319
30
0
41
1
10
93.3674376266578
20
-21.2399797938147
30
0
41
1
10
93.4190526041033
20
-21.2017527679394
30
0
41
1
10
93.447581854936
20
-21.186343843799
30
0
41
1
10
93.5291866789079
20
-21.1496424920806
30
0
41
1
10
93.5834934163224
20
-21.1330171944942
30
0
41
1
10
93.6587047773633
20
-21.1106135303238
30
0
41
1
10
93.6831442872682
20
-21.103617589508
30
0
41
1
10
93.7541174852451
20
-21.0836856245154
30
0
41
1
10
93.7977703845781
20
-21.0715292336416
30
0
41
1
10
93.86284577532
20
-21.059173141375
30
0
41
1
10
93.8876105849765
20
-21.0566349673242
30
0
41
1
10
93.9230335031318
20
-21.0658750807326
30
0
41
1
10
93.9359479552051
20
-21.0742414474081
30
0
41
1
10
93.9516472863444
20
-21.0944640021471
30
0
41
1
10
93.9562874019529
20
-21.1022615033326
30
0
41
1
10
93.9604934330241
20
-21.1110115394786
30
0
0
SPLINE
5
33A
100
AcDbEntity
8
1
62
256
6
ByLayer
370
18
48
1
60
0
100
AcDbSpline
70
4
71
3
72
10
73
6
40
0
40
0
40
0
40
0
40
0.295368028639112
40
0.295368028639112
40
1
40
1
40
1
40
1
41
1
10
82.1318718887676
20
-18.488797196613
30
0
41
1
10
82.1219838229749
20
-18.5205074750804
30
0
41
1
10
82.1121066995793
20
-18.5522216506283
30
0
41
1
10
82.0787042539704
20
-18.6596010823854
30
0
41
1
10
82.0552305713502
20
-18.7352800196209
30
0
41
1
10
82.0318185847077
20
-18.8109741692198
30
0
0
SPLINE
5
33B
100
AcDbEntity
8
1
62
256
6
ByLayer
370
18
48
1
60
0
100
AcDbSpline
70
4
71
3
72
10
73
6
40
0
40
0
40
0
40
0
40
0.295368028639123
40
0.295368028639123
40
1
40
1
40
1
40
1
41
1
10
93.8994454252731
20
-19.9579513415671
30
0
41
1
10
93.9019448957023
20
-19.9912081750766
30
0
41
1
10
93.9044326198166
20
-20.0244660730338
30
0
41
1
10
93.9128190481401
20
-20.1370627483593
30
0
41
1
10
93.9186659248828
20
-20.2164022891327
30
0
41
1
10
93.9244516555244
20
-20.2957417057221
30
0
0
SPLINE
5
33C
100
AcDbEntity
8
1
62
256
6
ByLayer
370
18
48
1
60
0
100
AcDbSpline
70
4
71
3
72
8
73
4
40
0
40
0
40
0
40
0
40
1
40
1
40
1
40
1
41
1
10
93.9244516555208
20
-20.2957417056936
30
0
41
1
10
93.9285106109843
20
-20.3514019460965
30
0
41
1
10
93.9323207209908
20
-20.4073131676383
30
0
41
1
10
93.9359966578832
20
-20.4632711439659
30
0
0
SPLINE
5
33D
100
AcDbEntity
8
1
62
256
6
ByLayer
370
18
48
1
60
0
100
AcDbSpline
70
4
71
3
72
8
73
4
40
0
40
0
40
0
40
0
40
1
40
1
40
1
40
1
41
1
10
93.9359966578842
20
-20.4632711439675
30
0
41
1
10
93.948873580961
20
-20.6592937030674
30
0
41
1
10
93.9621353259235
20
-20.8544232416866
30
0
41
1
10
93.9749655886869
20
-21.0496156556168
30
0
0
SPLINE
5
33E
100
AcDbEntity
8
1
62
256
6
ByLayer
370
18
48
1
60
0
100
AcDbSpline
70
4
71
3
72
22
73
18
40
0
40
0
40
0
40
0
40
0.247648061032076
40
0.247648061032076
40
0.499630853098465
40
0.499630853098465
40
0.554937524732196
40
0.554937524732196
40
0.599939125431441
40
0.599939125431441
40
0.645356331404978
40
0.645356331404978
40
0.695796263471455
40
0.695796263471455
40
0.780049574067048
40
0.780049574067048
40
1
40
1
40
1
40
1
41
1
10
93.9749655887198
20
-21.049615655602
30
0
41
1
10
93.9756384175977
20
-21.0598516963838
30
0
41
1
10
93.9762331087996
20
-21.0701761680699
30
0
41
1
10
93.9770025095791
20
-21.0910444676076
30
0
41
1
10
93.9772934631534
20
-21.1020339802154
30
0
41
1
10
93.9763945983587
20
-21.1142893334803
30
0
41
1
10
93.9761644247989
20
-21.1164965025496
30
0
41
1
10
93.9755693378852
20
-21.1200939967853
30
0
41
1
10
93.9752292614076
20
-21.1215849941907
30
0
41
1
10
93.9744076156573
20
-21.1239753096173
30
0
41
1
10
93.9739126054796
20
-21.1248916883434
30
0
41
1
10
93.9728008449063
20
-21.1260761858298
30
0
41
1
10
93.9721627721207
20
-21.1262951701989
30
0
41
1
10
93.970471304402
20
-21.1261281535824
30
0
41
1
10
93.969391591758
20
-21.1252866411271
30
0
41
1
10
93.9656324205857
20
-21.1211856163936
30
0
41
1
10
93.9630185546503
20
-21.1162646879058
30
0
41
1
10
93.9604934330241
20
-21.1110115394794
30
0
0
SPLINE
5
33F
100
AcDbEntity
8
1
62
256
6
ByLayer
370
18
48
1
60
0
100
AcDbSpline
70
4
71
3
72
22
73
18
40
0
40
0
40
0
40
0
40
0.247648061031864
40
0.247648061031864
40
0.499630853098285
40
0.499630853098285
40
0.554937524731936
40
0.554937524731936
40
0.599939125431298
40
0.599939125431298
40
0.645356331404647
40
0.645356331404647
40
0.69579626347121
40
0.69579626347121
40
0.780049574066993
40
0.780049574066993
40
1
40
1
40
1
40
1
41
1
10
82.3937213956893
20
-19.8951047904244
30
0
41
1
10
82.3899930603488
20
-19.9044029118996
30
0
41
1
10
82.3859550217597
20
-19.9135955421677
30
0
41
1
10
82.3764305378361
20
-19.9312563498734
30
0
41
1
10
82.3710153094664
20
-19.9402916097905
30
0
41
1
10
82.3613644798402
20
-19.9479021544356
30
0
41
1
10
82.3594262527786
20
-19.9491360114686
30
0
41
1
10
82.3556359239993
20
-19.9507140399921
30
0
41
1
10
82.3537969731016
20
-19.9511841484915
30
0
41
1
10
82.3500675551743
20
-19.9514002683668
30
0
41
1
10
82.3481295644874
20
-19.9511333745462
30
0
41
1
10
82.344305114817
20
-19.9498787711522
30
0
41
1
10
82.3423893980409
20
-19.948813481016
30
0
41
1
10
82.3377803215312
20
-19.9454386550057
30
0
41
1
10
82.3353008450512
20
-19.9427435638685
30
0
41
1
10
82.3274576638686
20
-19.9325275951194
30
0
41
1
10
82.3234055624477
20
-19.9239566464417
30
0
41
1
10
82.3199083880228
20
-19.9153670678935
30
0
0
SPLINE
5
340
100
AcDbEntity
8
1
62
256
6
ByLayer
370
18
48
1
60
0
100
AcDbSpline
70
4
71
3
72
10
73
6
40
0
40
0
40
0
40
0
40
0.0516104502458142
40
0.0516104502458142
40
1
40
1
40
1
40
1
41
1
10
54.7626733254164
20
37.2966299882086
30
0
41
1
10
54.7626659549378
20
37.2966296019382
30
0
41
1
10
54.7635467626671
20
37.2966757631152
30
0
41
1
10
54.7981183286784
20
37.2984875821163
30
0
41
1
10
55.1308561111984
20
37.3159256303817
30
0
41
1
10
55.6642599447532
20
37.3438801407594
30
0
0
SPLINE
5
341
100
AcDbEntity
8
1
62
256
6
ByLayer
370
18
48
1
60
0
100
AcDbSpline
70
4
71
3
72
8
73
4
40
0
40
0
40
0
40
0
40
1
40
1
40
1
40
1
41
1
10
54
20
17.3371756859697
30
0
41
1
10
53.5312188415843
20
17.8994936560924
30
0
41
1
10
53.0824925068418
20
18.4608056149289
30
0
41
1
10
52.6576951545867
20
19.0199932722356
30
0
0
SPLINE
5
342
100
AcDbEntity
8
1
62
256
6
ByLayer
370
18
48
1
60
0
100
AcDbSpline
70
4
71
3
72
16
73
12
40
0
40
0
40
0
40
0
40
0.46307632328944
40
0.46307632328944
40
0.645417922138898
40
0.645417922138898
40
0.830321639273301
40
0.830321639273301
40
0.944651290970181
40
0.944651290970181
40
1
40
1
40
1
40
1
41
1
10
10.1056624327026
20
-37.9445010117192
30
0
41
1
10
10.1343124491107
20
-37.9796292418725
30
0
41
1
10
10.1735051369363
20
-38.0140162383102
30
0
41
1
10
10.2540961394291
20
-38.0567528229612
30
0
41
1
10
10.2802114910956
20
-38.0683724898051
30
0
41
1
10
10.3409361701455
20
-38.0892608704534
30
0
41
1
10
10.3764451765787
20
-38.0987416550408
30
0
41
1
10
10.4416217638846
20
-38.1096208051147
30
0
41
1
10
10.468977488351
20
-38.1127608221451
30
0
41
1
10
10.5107386416705
20
-38.1150674153362
30
0
41
1
10
10.5247338160839
20
-38.1154578595256
30
0
41
1
10
10.5386751345948
20
-38.1154578595256
30
0
0
SPLINE
5
343
100
AcDbEntity
8
1
62
256
6
ByLayer
370
18
48
1
60
0
100
AcDbSpline
70
4
71
3
72
12
73
8
40
0
40
0
40
0
40
0
40
0.5
40
0.5
40
0.75
40
0.75
40
1
40
1
40
1
40
1
41
1
10
60
20
-7.93185586731192
30
0
41
1
10
58.1513066559568
20
-9.39794484642539
30
0
41
1
10
56.4538911210555
20
-11.0679168395684
30
0
41
1
10
55.0006715730625
20
-14.1377109851616
30
0
41
1
10
54.7317395006359
20
-15.2587762625262
30
0
41
1
10
54.7993247739924
20
-17.4858440731697
30
0
41
1
10
55.1338266907001
20
-18.6051059213768
30
0
41
1
10
55.6642599447535
20
-19.6321217131339
30
0
0
SPLINE
5
344
100
AcDbEntity
8
1
62
256
6
ByLayer
370
18
48
1
60
0
100
AcDbSpline
70
4
71
3
72
10
73
6
40
0
40
0
40
0
40
0
40
0.556563958134696
40
0.556563958134696
40
1
40
1
40
1
40
1
41
1
10
54
20
36.8955939611366
30
0
41
1
10
53.7509486953264
20
36.6452148257625
30
0
41
1
10
53.5019108647489
20
36.3948222869347
30
0
41
1
10
53.0544807083093
20
35.9449067242749
30
0
41
1
10
52.8560831499008
20
35.745388902908
30
0
41
1
10
52.6576951545867
20
35.5458615734657
30
0
0
SPLINE
5
345
100
AcDbEntity
8
1
62
256
6
ByLayer
370
18
48
1
60
0
100
AcDbSpline
70
4
71
3
72
18
73
14
40
0
40
0
40
0
40
0
40
0.155378030898095
40
0.155378030898095
40
0.310378572865002
40
0.310378572865002
40
0.476526341869317
40
0.476526341869317
40
0.642799748169077
40
0.642799748169077
40
0.809515150118334
40
0.809515150118334
40
1
40
1
40
1
40
1
41
1
10
42.5911672486081
20
35.5458615734658
30
0
41
1
10
42.5359872104803
20
35.5458615734658
30
0
41
1
10
42.4807911289076
20
35.5457292200836
30
0
41
1
10
42.3706869616978
20
35.5451805366989
30
0
41
1
10
42.315744062168
20
35.5447650162887
30
0
41
1
10
42.2022544451381
20
35.543568998154
30
0
41
1
10
42.1436744289098
20
35.542765000892
30
0
41
1
10
42.0272372506951
20
35.5406915617488
30
0
41
1
10
41.9692778982829
20
35.5394230002451
30
0
41
1
10
41.8548350701029
20
35.5362289318878
30
0
41
1
10
41.7980876689227
20
35.5343064519416
30
0
41
1
10
41.6814004297157
20
35.5290312396617
30
0
41
1
10
41.6193606160442
20
35.5255385743717
30
0
41
1
10
41.5710102919533
20
35.5202924653396
30
0
0
SPLINE
5
346
100
AcDbEntity
8
1
62
256
6
ByLayer
370
18
48
1
60
0
100
AcDbSpline
70
4
71
3
72
18
73
14
40
0
40
0
40
0
40
0
40
0.286655812366031
40
0.286655812366031
40
0.426731608134344
40
0.426731608134344
40
0.566761518922079
40
0.566761518922079
40
0.706753103535011
40
0.706753103535011
40
0.851595411295458
40
0.851595411295458
40
1
40
1
40
1
40
1
41
1
10
61.5
20
28.5468749107454
30
0
41
1
10
61.5
20
28.566199619535
30
0
41
1
10
61.5000000000004
20
28.5930276274906
30
0
41
1
10
61.5000000000004
20
28.6403857262969
30
0
41
1
10
61.5
20
28.6573704093438
30
0
41
1
10
61.5
20
28.6932527771685
30
0
41
1
10
61.5
20
28.7122616995713
30
0
41
1
10
61.5
20
28.7516727074501
30
0
41
1
10
61.5
20
28.772190827514
30
0
41
1
10
61.5
20
28.8148415936965
30
0
41
1
10
61.5
20
28.8371343665693
30
0
41
1
10
61.5
20
28.8826786580064
30
0
41
1
10
61.5
20
28.9060800424201
30
0
41
1
10
61.5
20
28.9294104549125
30
0
0
SPLINE
5
347
100
AcDbEntity
8
1
62
256
6
ByLayer
370
18
48
1
60
0
100
AcDbSpline
70
4
71
3
72
8
73
4
40
0
40
0
40
0
40
0
40
1
40
1
40
1
40
1
41
1
10
54
20
-37.066581847565
30
0
41
1
10
53.5312188415843
20
-36.6310393535864
30
0
41
1
10
53.0824925068418
20
-36.1841764657714
30
0
41
1
10
52.6576951545867
20
-35.7250069726233
30
0
0
SPLINE
5
348
100
AcDbEntity
8
1
62
256
6
ByLayer
370
18
48
1
60
0
100
AcDbSpline
70
4
71
3
72
8
73
4
40
0
40
0
40
0
40
0
40
1
40
1
40
1
40
1
41
1
10
55.6642599447535
20
-19.6321217131339
30
0
41
1
10
55.1095042754631
20
-19.5673243789285
30
0
41
1
10
54.5547509318194
20
-19.5025233001722
30
0
41
1
10
54
20
-19.4377183388453
30
0
0
SPLINE
5
349
100
AcDbEntity
8
1
62
256
6
ByLayer
370
18
48
1
60
0
100
AcDbSpline
70
4
71
3
72
10
73
6
40
0
40
0
40
0
40
0
40
0.108696003163732
40
0.108696003163732
40
1
40
1
40
1
40
1
41
1
10
55.6642599447532
20
37.3438801407593
30
0
41
1
10
55.6039602206119
20
37.3276387854818
30
0
41
1
10
55.5436605239525
20
37.3113973281712
30
0
41
1
10
54.9889053613168
20
37.1619754614153
30
0
41
1
10
54.4944517226289
20
37.0287882676339
30
0
41
1
10
54
20
36.8955939611366
30
0
0
SPLINE
5
34A
100
AcDbEntity
8
1
62
256
6
ByLayer
370
18
48
1
60
0
100
AcDbSpline
70
4
71
3
72
16
73
12
40
0
40
0
40
0
40
0
40
0.184527441340193
40
0.184527441340193
40
0.368401515374343
40
0.368401515374343
40
0.58332649325859
40
0.58332649325859
40
0.798917535483813
40
0.798917535483813
40
1
40
1
40
1
40
1
41
1
10
45.6533651571758
20
-18.8523946271694
30
0
41
1
10
45.5926098876724
20
-18.8523946271694
30
0
41
1
10
45.5318292282347
20
-18.8537646993844
30
0
41
1
10
45.4107245940938
20
-18.8594785159255
30
0
41
1
10
45.3503437652948
20
-18.8638097314413
30
0
41
1
10
45.2199978790011
20
-18.8769592909371
30
0
41
1
10
45.1499901988691
20
-18.8863899299188
30
0
41
1
10
45.0115597442113
20
-18.9116773764347
30
0
41
1
10
44.9427660311194
20
-18.9274921991864
30
0
41
1
10
44.8148762494895
20
-18.9683245593283
30
0
41
1
10
44.7537654039635
20
-18.9925629604579
30
0
41
1
10
44.7021312395589
20
-19.0270671925506
30
0
0
SPLINE
5
34B
100
AcDbEntity
8
1
62
256
6
ByLayer
370
18
48
1
60
0
100
AcDbSpline
70
4
71
3
72
8
73
4
40
0
40
0
40
0
40
0
40
1
40
1
40
1
40
1
41
1
10
54
20
-19.4377183388453
30
0
41
1
10
53.552519888196
20
-19.2426299146201
30
0
41
1
10
53.105083229676
20
-19.0475227441642
30
0
41
1
10
52.6576951545867
20
-18.8523946271698
30
0
0
SPLINE
5
34C
100
AcDbEntity
8
1
62
256
6
ByLayer
370
18
48
1
60
0
100
AcDbSpline
70
4
71
3
72
16
73
12
40
0
40
0
40
0
40
0
40
0.111412770144067
40
0.111412770144067
40
0.248965452398468
40
0.248965452398468
40
0.467123877727668
40
0.467123877727668
40
0.889866934614094
40
0.889866934614094
40
1
40
1
40
1
40
1
41
1
10
10.5386751345948
20
-12.1330899674708
30
0
41
1
10
10.510897405861
20
-12.1330899674708
30
0
41
1
10
10.4827743882888
20
-12.138129812919
30
0
41
1
10
10.4244336825547
20
-12.1582682733017
30
0
41
1
10
10.3942835753398
20
-12.1755507890902
30
0
41
1
10
10.3250538187423
20
-12.2280340568693
30
0
41
1
10
10.2893056457259
20
-12.2684634146655
30
0
41
1
10
10.2004891336895
20
-12.3937525277223
30
0
41
1
10
10.1593775082021
20
-12.4875806371416
30
0
41
1
10
10.1200174011447
20
-12.6072726192705
30
0
41
1
10
10.1125270066363
20
-12.6323687416999
30
0
41
1
10
10.1056624327026
20
-12.6576002058704
30
0
0
SPLINE
5
34D
100
AcDbEntity
8
1
62
256
6
ByLayer
370
18
48
1
60
0
100
AcDbSpline
70
4
71
3
72
16
73
12
40
0
40
0
40
0
40
0
40
0.111412770144095
40
0.111412770144095
40
0.248965452398461
40
0.248965452398461
40
0.467123877727659
40
0.467123877727659
40
0.889866934613996
40
0.889866934613996
40
1
40
1
40
1
40
1
41
1
10
13.4613248654052
20
-38.1154578595256
30
0
41
1
10
13.489102594139
20
-38.1154578595256
30
0
41
1
10
13.5172256117112
20
-38.1138543599705
30
0
41
1
10
13.5755663174453
20
-38.1074356116135
30
0
41
1
10
13.6057164246602
20
-38.1019214555357
30
0
41
1
10
13.6749461812577
20
-38.0851194427552
30
0
41
1
10
13.7106943542742
20
-38.0721266199022
30
0
41
1
10
13.7995108663105
20
-38.0315976751083
30
0
41
1
10
13.8406224917979
20
-38.0009250413258
30
0
41
1
10
13.8799825988554
20
-37.9612613686128
30
0
41
1
10
13.8874729933637
20
-37.9529177724504
30
0
41
1
10
13.8943375672975
20
-37.9445010117192
30
0
0
SPLINE
5
34E
100
AcDbEntity
8
1
62
256
6
ByLayer
370
18
48
1
60
0
100
AcDbSpline
70
4
71
3
72
16
73
12
40
0
40
0
40
0
40
0
40
0.463076323289514
40
0.463076323289514
40
0.645417922138965
40
0.645417922138965
40
0.830321639273357
40
0.830321639273357
40
0.944651290970221
40
0.944651290970221
40
1
40
1
40
1
40
1
41
1
10
13.8943375672974
20
-12.6576002058705
30
0
41
1
10
13.8656875508894
20
-12.5522940543949
30
0
41
1
10
13.8264948630637
20
-12.4476658274362
30
0
41
1
10
13.7459038605709
20
-12.3160508976661
30
0
41
1
10
13.7197885089044
20
-12.280072086829
30
0
41
1
10
13.6590638298545
20
-12.2151290969612
30
0
41
1
10
13.6235548234213
20
-12.1854983827961
30
0
41
1
10
13.5583782361154
20
-12.1514192676285
30
0
41
1
10
13.531022511649
20
-12.1415603847927
30
0
41
1
10
13.4892613583295
20
-12.1343167157601
30
0
41
1
10
13.4752661839161
20
-12.1330899674706
30
0
41
1
10
13.4613248654052
20
-12.1330899674706
30
0
0
SPLINE
5
34F
100
AcDbEntity
8
1
62
256
6
ByLayer
370
18
48
1
60
0
100
AcDbSpline
70
4
71
3
72
16
73
12
40
0
40
0
40
0
40
0
40
0.463076323289505
40
0.463076323289505
40
0.645417922138948
40
0.645417922138948
40
0.830321639273348
40
0.830321639273348
40
0.944651290970219
40
0.944651290970219
40
1
40
1
40
1
40
1
41
1
10
10.1056624327026
20
12.6576002058703
30
0
41
1
10
10.1343124491107
20
12.5522940543948
30
0
41
1
10
10.1735051369363
20
12.447665827436
30
0
41
1
10
10.2540961394291
20
12.3160508976658
30
0
41
1
10
10.2802114910956
20
12.2800720868288
30
0
41
1
10
10.3409361701455
20
12.2151290969609
30
0
41
1
10
10.3764451765787
20
12.185498382796
30
0
41
1
10
10.4416217638846
20
12.1514192676283
30
0
41
1
10
10.468977488351
20
12.1415603847925
30
0
41
1
10
10.5107386416705
20
12.1343167157598
30
0
41
1
10
10.5247338160839
20
12.1330899674705
30
0
41
1
10
10.5386751345948
20
12.1330899674705
30
0
0
SPLINE
5
350
100
AcDbEntity
8
1
62
256
6
ByLayer
370
18
48
1
60
0
100
AcDbSpline
70
4
71
3
72
16
73
12
40
0
40
0
40
0
40
0
40
0.111412770144064
40
0.111412770144064
40
0.248965452398436
40
0.248965452398436
40
0.467123877727658
40
0.467123877727658
40
0.889866934614122
40
0.889866934614122
40
1
40
1
40
1
40
1
41
1
10
10.5386751345948
20
38.1154578595254
30
0
41
1
10
10.510897405861
20
38.1154578595254
30
0
41
1
10
10.4827743882888
20
38.1138543599702
30
0
41
1
10
10.4244336825548
20
38.1074356116132
30
0
41
1
10
10.3942835753398
20
38.1019214555356
30
0
41
1
10
10.3250538187423
20
38.0851194427551
30
0
41
1
10
10.2893056457259
20
38.0721266199021
30
0
41
1
10
10.2004891336895
20
38.0315976751081
30
0
41
1
10
10.1593775082021
20
38.0009250413256
30
0
41
1
10
10.1200174011447
20
37.9612613686125
30
0
41
1
10
10.1125270066363
20
37.9529177724502
30
0
41
1
10
10.1056624327026
20
37.944501011719
30
0
0
SPLINE
5
351
100
AcDbEntity
8
1
62
256
6
ByLayer
370
18
48
1
60
0
100
AcDbSpline
70
4
71
3
72
16
73
12
40
0
40
0
40
0
40
0
40
0.111412770144096
40
0.111412770144096
40
0.248965452398463
40
0.248965452398463
40
0.46712387772768
40
0.46712387772768
40
0.889866934614037
40
0.889866934614037
40
1
40
1
40
1
40
1
41
1
10
13.4613248654052
20
12.1330899674706
30
0
41
1
10
13.489102594139
20
12.1330899674706
30
0
41
1
10
13.5172256117112
20
12.1381298129188
30
0
41
1
10
13.5755663174453
20
12.1582682733015
30
0
41
1
10
13.6057164246602
20
12.1755507890899
30
0
41
1
10
13.6749461812577
20
12.2280340568691
30
0
41
1
10
13.7106943542742
20
12.2684634146652
30
0
41
1
10
13.7995108663105
20
12.3937525277221
30
0
41
1
10
13.8406224917979
20
12.4875806371414
30
0
41
1
10
13.8799825988554
20
12.6072726192704
30
0
41
1
10
13.8874729933637
20
12.6323687416997
30
0
41
1
10
13.8943375672975
20
12.6576002058703
30
0
0
SPLINE
5
352
100
AcDbEntity
8
1
62
256
6
ByLayer
370
18
48
1
60
0
100
AcDbSpline
70
4
71
3
72
16
73
12
40
0
40
0
40
0
40
0
40
0.463076323289407
40
0.463076323289407
40
0.645417922138895
40
0.645417922138895
40
0.830321639273306
40
0.830321639273306
40
0.944651290970177
40
0.944651290970177
40
1
40
1
40
1
40
1
41
1
10
13.8943375672974
20
37.944501011719
30
0
41
1
10
13.8656875508894
20
37.9796292418724
30
0
41
1
10
13.8264948630637
20
38.01401623831
30
0
41
1
10
13.7459038605709
20
38.056752822961
30
0
41
1
10
13.7197885089044
20
38.0683724898049
30
0
41
1
10
13.6590638298545
20
38.0892608704531
30
0
41
1
10
13.6235548234213
20
38.0987416550406
30
0
41
1
10
13.5583782361154
20
38.1096208051146
30
0
41
1
10
13.531022511649
20
38.1127608221449
30
0
41
1
10
13.4892613583295
20
38.1150674153359
30
0
41
1
10
13.4752661839161
20
38.1154578595255
30
0
41
1
10
13.4613248654052
20
38.1154578595255
30
0
0
LINE
5
70
100
AcDbEntity
8
SK1
62
256
6
ByLayer
370
18
48
1
60
0
100
AcDbLine
10
-2.2
20
-12.864564
30
0
11
-2.2
21
12.864565
31
0
39
0
210
0
220
0
230
1
0
LINE
5
72
100
AcDbEntity
8
SK1
62
256
6
ByLayer
370
18
48
1
60
0
100
AcDbLine
10
-2.2
20
12.864565
30
0
11
-2.2
21
24.989566
31
0
39
0
210
0
220
0
230
1
0
LINE
5
73
100
AcDbEntity
8
SK1
62
256
6
ByLayer
370
18
48
1
60
0
100
AcDbLine
10
-1.307107
20
4.281245
30
0
11
-1.307107
21
-4.281244
31
0
39
0
210
0
220
0
230
1
0
LINE
5
74
100
AcDbEntity
8
SK1
62
256
6
ByLayer
370
18
48
1
60
0
100
AcDbLine
10
-3
20
-27.5
30
0
11
-3
21
27.5
31
0
39
0
210
0
220
0
230
1
0
LINE
5
75
100
AcDbEntity
8
SK1
62
256
6
ByLayer
370
18
48
1
60
0
100
AcDbLine
10
-0.4
20
27.32511
30
0
11
-0.4
21
5.670607
31
0
39
0
210
0
220
0
230
1
0
LINE
5
76
100
AcDbEntity
8
SK1
62
256
6
ByLayer
370
18
48
1
60
0
100
AcDbLine
10
-48
20
25.499074
30
0
11
-48
21
-25.498396
31
0
39
0
210
0
220
0
230
1
0
LINE
5
77
100
AcDbEntity
8
SK1
62
256
6
ByLayer
370
18
48
1
60
0
100
AcDbLine
10
-0.4
20
-5.670607
30
0
11
-0.4
21
-27.325111
31
0
39
0
210
0
220
0
230
1
0
LINE
5
78
100
AcDbEntity
8
SK1
62
256
6
ByLayer
370
18
48
1
60
0
100
AcDbLine
10
-0.2
20
28.683485
30
0
11
-0.2
21
6.365252
31
0
39
0
210
0
220
0
230
1
0
LINE
5
79
100
AcDbEntity
8
SK1
62
256
6
ByLayer
370
18
48
1
60
0
100
AcDbLine
10
-2
20
27.325145
30
0
11
-2
21
-27.325145
31
0
39
0
210
0
220
0
230
1
0
LINE
5
7A
100
AcDbEntity
8
SK1
62
256
6
ByLayer
370
18
48
1
60
0
100
AcDbLine
10
-46.500473
20
26.407117
30
0
11
-46.500473
21
-26.407117
31
0
39
0
210
0
220
0
230
1
0
LINE
5
7B
100
AcDbEntity
8
SK1
62
256
6
ByLayer
370
18
48
1
60
0
100
AcDbLine
10
-0.2
20
-6.365251
30
0
11
-0.2
21
-28.683485
31
0
39
0
210
0
220
0
230
1
0
LINE
5
7C
100
AcDbEntity
8
SK1
62
256
6
ByLayer
370
18
48
1
60
0
100
AcDbLine
10
-2.2
20
-24.989567
30
0
11
-2.2
21
-12.864564
31
0
39
0
210
0
220
0
230
1
0
LINE
5
7D
100
AcDbEntity
8
4
62
256
6
ByLayer
370
13
48
0.05
60
0
100
AcDbLine
10
0
20
0
30
0
11
94
21
0
31
0
39
0
210
0
220
0
230
1
0
LINE
5
7F
100
AcDbEntity
8
SK4
62
256
6
ByLayer
370
13
48
0.05
60
0
100
AcDbLine
10
-56.128812
20
0.000339
30
0
11
100.315008
21
0.000339
31
0
39
0
210
0
220
0
230
1
0
LINE
5
81
100
AcDbEntity
8
80
62
256
6
ByLayer
370
13
48
1
60
0
100
AcDbLine
10
0
20
0
30
0
11
-54.9974
21
0
31
0
39
0
210
0
220
0
230
1
0
LINE
5
82
100
AcDbEntity
8
1
62
256
6
ByLayer
370
13
48
0.05
60
0
100
AcDbLine
10
93.202084
20
-47.99565
30
0
11
82.150956
21
-46.83413
31
0
39
0
210
0
220
0
230
1
0
LINE
5
84
100
AcDbEntity
8
1
62
256
6
ByLayer
370
13
48
0.05
60
0
100
AcDbLine
10
95.23625
20
-36.237868
30
0
11
94.07473
21
-47.288996
31
0
39
0
210
0
220
0
230
1
0
LINE
5
85
100
AcDbEntity
8
81
62
256
6
ByLayer
370
13
48
1
60
0
100
AcDbLine
10
94
20
48
30
0
11
106
21
48
31
0
39
0
210
0
220
0
230
1
0
LINE
5
86
100
AcDbEntity
8
1
62
256
6
ByLayer
370
18
48
1
60
1
100
AcDbLine
10
0
20
0
30
0
11
0
21
841
31
0
39
0
210
0
220
0
230
1
0
LINE
5
87
100
AcDbEntity
8
1
62
256
6
ByLayer
370
18
48
1
60
1
100
AcDbLine
10
1189
20
841
30
0
11
0
21
841
31
0
39
0
210
0
220
0
230
1
0
LINE
5
88
100
AcDbEntity
8
1
62
256
6
ByLayer
370
18
48
1
60
1
100
AcDbLine
10
1189
20
841
30
0
11
1189
21
0
31
0
39
0
210
0
220
0
230
1
0
LINE
5
89
100
AcDbEntity
8
1
62
256
6
ByLayer
370
18
48
1
60
1
100
AcDbLine
10
0
20
0
30
0
11
1189
21
0
31
0
39
0
210
0
220
0
230
1
0
LINE
5
8A
100
AcDbEntity
8
1
62
256
6
ByLayer
370
18
48
1
60
0
100
AcDbLine
10
66.389416
20
-11.031803
30
0
11
62.002937
21
-10.932111
31
0
39
0
210
0
220
0
230
1
0
LINE
5
8B
100
AcDbEntity
8
1
62
256
6
ByLayer
370
18
48
1
60
0
100
AcDbLine
10
69.679528
20
-11.106577
30
0
11
67.698926
21
-11.061564
31
0
39
0
210
0
220
0
230
1
0
LINE
5
8C
100
AcDbEntity
8
1
62
256
6
ByLayer
370
18
48
1
60
0
100
AcDbLine
10
66.389416
20
-11.031803
30
0
11
62.002937
21
-10.932111
31
0
39
0
210
0
220
0
230
1
0
LINE
5
8D
100
AcDbEntity
8
1
62
256
6
ByLayer
370
18
48
1
60
0
100
AcDbLine
10
69.679528
20
-11.106577
30
0
11
67.698926
21
-11.061564
31
0
39
0
210
0
220
0
230
1
0
LINE
5
8E
100
AcDbEntity
8
1
62
256
6
ByLayer
370
18
48
1
60
0
100
AcDbLine
10
69.371793
20
9.589379
30
0
11
69.318689
21
9.589379
31
0
39
0
210
0
220
0
230
1
0
LINE
5
8F
100
AcDbEntity
8
1
62
256
6
ByLayer
370
18
48
1
60
0
100
AcDbLine
10
69.371793
20
9.589379
30
0
11
69.371793
21
19.76936
31
0
39
0
210
0
220
0
230
1
0
LINE
5
90
100
AcDbEntity
8
1
62
256
6
ByLayer
370
18
48
1
60
0
100
AcDbLine
10
69.518768
20
-22.819121
30
0
11
69.371793
21
-24.036123
31
0
39
0
210
0
220
0
230
1
0
LINE
5
91
100
AcDbEntity
8
1
62
256
6
ByLayer
370
18
48
1
60
0
100
AcDbLine
10
69.371793
20
-37.264681
30
0
11
69.371793
21
-24.036123
31
0
39
0
210
0
220
0
230
1
0
LINE
5
92
100
AcDbEntity
8
1
62
256
6
ByLayer
370
18
48
1
60
0
100
AcDbLine
10
81.678786
20
-19.898399
30
0
11
82.031618
21
-18.799624
31
0
39
0
210
0
220
0
230
1
0
LINE
5
93
100
AcDbEntity
8
1
62
256
6
ByLayer
370
18
48
1
60
0
100
AcDbLine
10
85.003
20
-26.751721
30
0
11
89.8
21
-26.751721
31
0
39
0
210
0
220
0
230
1
0
LINE
5
94
100
AcDbEntity
8
1
62
256
6
ByLayer
370
18
48
1
60
0
100
AcDbLine
10
89.8
20
10.774297
30
0
11
85.030675
21
10.774297
31
0
39
0
210
0
220
0
230
1
0
LINE
5
95
100
AcDbEntity
8
1
62
256
6
ByLayer
370
18
48
1
60
0
100
AcDbLine
10
65.902937
20
-16.967338
30
0
11
65.902937
21
-17.795731
31
0
39
0
210
0
220
0
230
1
0
LINE
5
96
100
AcDbEntity
8
1
62
256
6
ByLayer
370
18
48
1
60
0
100
AcDbLine
10
0.3
20
40
30
0
11
0
21
39.7
31
0
39
0
210
0
220
0
230
1
0
LINE
5
97
100
AcDbEntity
8
1
62
256
6
ByLayer
370
18
48
1
60
0
100
AcDbLine
10
0
20
-39.7
30
0
11
0.3
21
-40
31
0
39
0
210
0
220
0
230
1
0
LINE
5
98
100
AcDbEntity
8
1
62
256
6
ByLayer
370
18
48
1
60
0
100
AcDbLine
10
30
20
-40
30
0
11
32.453739
21
-35.75
31
0
39
0
210
0
220
0
230
1
0
LINE
5
99
100
AcDbEntity
8
1
62
256
6
ByLayer
370
18
48
1
60
0
100
AcDbLine
10
32.453739
20
35.75
30
0
11
30
21
40
31
0
39
0
210
0
220
0
230
1
0
LINE
5
9A
100
AcDbEntity
8
1
62
256
6
ByLayer
370
18
48
1
60
0
100
AcDbLine
10
0.3
20
-40
30
0
11
30
21
-40
31
0
39
0
210
0
220
0
230
1
0
LINE
5
9B
100
AcDbEntity
8
1
62
256
6
ByLayer
370
18
48
1
60
0
100
AcDbLine
10
30
20
40
30
0
11
0.3
21
40
31
0
39
0
210
0
220
0
230
1
0
LINE
5
9C
100
AcDbEntity
8
1
62
256
6
ByLayer
370
18
48
1
60
0
100
AcDbLine
10
32.453739
20
-35.75
30
0
11
52.657695
21
-35.75
31
0
39
0
210
0
220
0
230
1
0
LINE
5
9D
100
AcDbEntity
8
1
62
256
6
ByLayer
370
18
48
1
60
0
100
AcDbLine
10
52.657695
20
35.75
30
0
11
32.453739
21
35.75
31
0
39
0
210
0
220
0
230
1
0
LINE
5
9E
100
AcDbEntity
8
1
62
256
6
ByLayer
370
18
48
1
60
0
100
AcDbLine
10
54
20
37.092305
30
0
11
52.657695
21
35.75
31
0
39
0
210
0
220
0
230
1
0
LINE
5
9F
100
AcDbEntity
8
1
62
256
6
ByLayer
370
18
48
1
60
0
100
AcDbLine
10
54.792661
20
37.304698
30
0
11
54
21
37.092305
31
0
39
0
210
0
220
0
230
1
0
LINE
5
A0
100
AcDbEntity
8
1
62
256
6
ByLayer
370
18
48
1
60
0
100
AcDbLine
10
52.657695
20
-35.75
30
0
11
53.305155
21
-36.39746
31
0
39
0
210
0
220
0
230
1
0
LINE
5
A1
100
AcDbEntity
8
1
62
256
6
ByLayer
370
18
48
1
60
0
100
AcDbLine
10
95.124164
20
-16.334042
30
0
11
94.836383
21
-14.432739
31
0
39
0
210
0
220
0
230
1
0
LINE
5
A2
100
AcDbEntity
8
1
62
256
6
ByLayer
370
18
48
1
60
0
100
AcDbLine
10
95.22387
20
-17.172123
30
0
11
95.128201
21
-16.361356
31
0
39
0
210
0
220
0
230
1
0
LINE
5
A3
100
AcDbEntity
8
1
62
256
6
ByLayer
370
18
48
1
60
0
100
AcDbLine
10
88.609737
20
38.747845
30
0
11
88.681863
21
38.755426
31
0
39
0
210
0
220
0
230
1
0
LINE
5
A4
100
AcDbEntity
8
1
62
256
6
ByLayer
370
18
48
1
60
0
100
AcDbLine
10
88.180126
20
43.529131
30
0
11
88.108
21
43.521551
31
0
39
0
210
0
220
0
230
1
0
LINE
5
A5
100
AcDbEntity
8
1
62
256
6
ByLayer
370
18
48
1
60
0
100
AcDbLine
10
88.582305
20
40.077864
30
0
11
88.482069
21
40.067329
31
0
39
0
210
0
220
0
230
1
0
LINE
5
A6
100
AcDbEntity
8
1
62
256
6
ByLayer
370
18
48
1
60
0
100
AcDbLine
10
88.257459
20
42.204358
30
0
11
88.357695
21
42.214893
31
0
39
0
210
0
220
0
230
1
0
LINE
5
A7
100
AcDbEntity
8
1
62
256
6
ByLayer
370
18
48
1
60
0
100
AcDbLine
10
94.836213
20
-22.099487
30
0
11
95.023489
21
-20.705352
31
0
39
0
210
0
220
0
230
1
0
LINE
5
A8
100
AcDbEntity
8
1
62
256
6
ByLayer
370
18
48
1
60
0
100
AcDbLine
10
95.114133
20
-20.011374
30
0
11
95.121913
21
-19.950405
31
0
39
0
210
0
220
0
230
1
0
LINE
5
A9
100
AcDbEntity
8
1
62
256
6
ByLayer
370
18
48
1
60
0
100
AcDbLine
10
95.121901
20
-19.950415
30
0
11
95.223164
21
-19.156924
31
0
39
0
210
0
220
0
230
1
0
LINE
5
AA
100
AcDbEntity
8
1
62
256
6
ByLayer
370
18
48
1
60
0
100
AcDbLine
10
92
20
4.469352
30
0
11
90.600031
21
4.844472
31
0
39
0
210
0
220
0
230
1
0
LINE
5
AB
100
AcDbEntity
8
1
62
256
6
ByLayer
370
18
48
1
60
0
100
AcDbLine
10
89.8
20
23.4325
30
0
11
85.044625
21
23.4325
31
0
39
0
210
0
220
0
230
1
0
LINE
5
AC
100
AcDbEntity
8
1
62
256
6
ByLayer
370
18
48
1
60
0
100
AcDbLine
10
91.129197
20
44.596527
30
0
11
91.466758
21
44.632006
31
0
39
0
210
0
220
0
230
1
0
LINE
5
AD
100
AcDbEntity
8
1
62
256
6
ByLayer
370
18
48
1
60
0
100
AcDbLine
10
94.987519
20
37.294256
30
0
11
95.058233
21
36.621453
31
0
39
0
210
0
220
0
230
1
0
LINE
5
AE
100
AcDbEntity
8
1
62
256
6
ByLayer
370
18
48
1
60
0
100
AcDbLine
10
95.223337
20
36.337154
30
0
11
95.08381
21
36.327397
31
0
39
0
210
0
220
0
230
1
0
LINE
5
AF
100
AcDbEntity
8
1
62
256
6
ByLayer
370
18
48
1
60
0
100
AcDbLine
10
85.3602
20
37.648869
30
0
11
85.231078
21
37.635298
31
0
39
0
210
0
220
0
230
1
0
LINE
5
B0
100
AcDbEntity
8
1
62
256
6
ByLayer
370
18
48
1
60
0
100
AcDbLine
10
94.482644
20
35.418901
30
0
11
94.462667
21
35.557353
31
0
39
0
210
0
220
0
230
1
0
LINE
5
B1
100
AcDbEntity
8
1
62
256
6
ByLayer
370
18
48
1
60
0
100
AcDbLine
10
85.588564
20
37.344681
30
0
11
88.164481
21
37.615421
31
0
39
0
210
0
220
0
230
1
0
LINE
5
B2
100
AcDbEntity
8
1
62
256
6
ByLayer
370
18
48
1
60
0
100
AcDbLine
10
94.324576
20
35.397958
30
0
11
94.30681
21
35.536703
31
0
39
0
210
0
220
0
230
1
0
LINE
5
B3
100
AcDbEntity
8
1
62
256
6
ByLayer
370
18
48
1
60
0
100
AcDbLine
10
88.15517
20
37.741531
30
0
11
85.579253
21
37.470791
31
0
39
0
210
0
220
0
230
1
0
LINE
5
B4
100
AcDbEntity
8
1
62
256
6
ByLayer
370
18
48
1
60
0
100
AcDbLine
10
85.3602
20
37.648869
30
0
11
85.088426
21
40.234626
31
0
39
0
210
0
220
0
230
1
0
LINE
5
B5
100
AcDbEntity
8
1
62
256
6
ByLayer
370
18
48
1
60
0
100
AcDbLine
10
89.260805
20
37.730649
30
0
11
91.836722
21
38.001389
31
0
39
0
210
0
220
0
230
1
0
LINE
5
B6
100
AcDbEntity
8
1
62
256
6
ByLayer
370
18
48
1
60
0
100
AcDbLine
10
84.972757
20
41.335138
30
0
11
84.843635
21
41.321566
31
0
39
0
210
0
220
0
230
1
0
LINE
5
B7
100
AcDbEntity
8
1
62
256
6
ByLayer
370
18
48
1
60
0
100
AcDbLine
10
92.004653
20
38.34723
30
0
11
92.125974
21
38.359981
31
0
39
0
210
0
220
0
230
1
0
LINE
5
B8
100
AcDbEntity
8
1
62
256
6
ByLayer
370
18
48
1
60
0
100
AcDbLine
10
91.732879
20
40.932987
30
0
11
92.004653
21
38.34723
31
0
39
0
210
0
220
0
230
1
0
LINE
5
B9
100
AcDbEntity
8
1
62
256
6
ByLayer
370
18
48
1
60
0
100
AcDbLine
10
81.548716
20
46.050528
30
0
11
81.68582
21
46.028538
31
0
39
0
210
0
220
0
230
1
0
LINE
5
BA
100
AcDbEntity
8
1
62
256
6
ByLayer
370
18
48
1
60
0
100
AcDbLine
10
93.160444
20
47.998796
30
0
11
93.16969
21
47.859216
31
0
39
0
210
0
220
0
230
1
0
LINE
5
BB
100
AcDbEntity
8
1
62
256
6
ByLayer
370
18
48
1
60
0
100
AcDbLine
10
83.606734
20
34.275797
30
0
11
83.59643
21
34.415265
31
0
39
0
210
0
220
0
230
1
0
LINE
5
BC
100
AcDbEntity
8
1
62
256
6
ByLayer
370
18
48
1
60
0
100
AcDbLine
10
95.206436
20
36.545524
30
0
11
95.067208
21
36.53217
31
0
39
0
210
0
220
0
230
1
0
LINE
5
BD
100
AcDbEntity
8
1
62
256
6
ByLayer
370
18
48
1
60
0
100
AcDbLine
10
95.197334
20
36.636073
30
0
11
95.058233
21
36.621453
31
0
39
0
210
0
220
0
230
1
0
LINE
5
BE
100
AcDbEntity
8
1
62
256
6
ByLayer
370
18
48
1
60
0
100
AcDbLine
10
81.569844
20
45.638519
30
0
11
82.654598
21
35.317778
31
0
39
0
210
0
220
0
230
1
0
LINE
5
BF
100
AcDbEntity
8
1
62
256
6
ByLayer
370
18
48
1
60
0
100
AcDbLine
10
94.11258
20
46.956814
30
0
11
93.97348
21
46.942194
31
0
39
0
210
0
220
0
230
1
0
LINE
5
C0
100
AcDbEntity
8
1
62
256
6
ByLayer
370
18
48
1
60
0
100
AcDbLine
10
83.765702
20
34.288176
30
0
11
83.753174
21
34.427471
31
0
39
0
210
0
220
0
230
1
0
LINE
5
C1
100
AcDbEntity
8
1
62
256
6
ByLayer
370
18
48
1
60
0
100
AcDbLine
10
91.8542
20
40.945738
30
0
11
91.732879
21
40.932987
31
0
39
0
210
0
220
0
230
1
0
LINE
5
C2
100
AcDbEntity
8
1
62
256
6
ByLayer
370
18
48
1
60
0
100
AcDbLine
10
82.664521
20
35.227315
30
0
11
82.802424
21
35.243089
31
0
39
0
210
0
220
0
230
1
0
LINE
5
C3
100
AcDbEntity
8
1
62
256
6
ByLayer
370
18
48
1
60
0
100
AcDbLine
10
85.088426
20
40.234626
30
0
11
84.959304
21
40.221055
31
0
39
0
210
0
220
0
230
1
0
LINE
5
C4
100
AcDbEntity
8
1
62
256
6
ByLayer
370
18
48
1
60
0
100
AcDbLine
10
91.738532
20
42.046249
30
0
11
91.617211
21
42.033498
31
0
39
0
210
0
220
0
230
1
0
LINE
5
C5
100
AcDbEntity
8
1
62
256
6
ByLayer
370
18
48
1
60
0
100
AcDbLine
10
91.109271
20
44.922623
30
0
11
88.533354
21
44.651883
31
0
39
0
210
0
220
0
230
1
0
LINE
5
C6
100
AcDbEntity
8
1
62
256
6
ByLayer
370
18
48
1
60
0
100
AcDbLine
10
92.125974
20
38.359981
30
0
11
91.8542
21
40.945738
31
0
39
0
210
0
220
0
230
1
0
LINE
5
C7
100
AcDbEntity
8
1
62
256
6
ByLayer
370
18
48
1
60
0
100
AcDbLine
10
91.738532
20
42.046249
30
0
11
91.466758
21
44.632006
31
0
39
0
210
0
220
0
230
1
0
LINE
5
C8
100
AcDbEntity
8
1
62
256
6
ByLayer
370
18
48
1
60
0
100
AcDbLine
10
87.43703
20
44.536655
30
0
11
84.861113
21
44.265915
31
0
39
0
210
0
220
0
230
1
0
LINE
5
C9
100
AcDbEntity
8
1
62
256
6
ByLayer
370
18
48
1
60
0
100
AcDbLine
10
84.571861
20
43.907323
30
0
11
84.843635
21
41.321566
31
0
39
0
210
0
220
0
230
1
0
LINE
5
CA
100
AcDbEntity
8
1
62
256
6
ByLayer
370
18
48
1
60
0
100
AcDbLine
10
93.273116
20
47.993813
30
0
11
93.250843
21
47.855627
31
0
39
0
210
0
220
0
230
1
0
LINE
5
CB
100
AcDbEntity
8
1
62
256
6
ByLayer
370
18
48
1
60
0
100
AcDbLine
10
83.494062
20
34.280779
30
0
11
83.515276
21
34.418854
31
0
39
0
210
0
220
0
230
1
0
LINE
5
CC
100
AcDbEntity
8
1
62
256
6
ByLayer
370
18
48
1
60
0
100
AcDbLine
10
92.862657
20
47.972933
30
0
11
82.58119
21
46.892307
31
0
39
0
210
0
220
0
230
1
0
LINE
5
CD
100
AcDbEntity
8
1
62
256
6
ByLayer
370
18
48
1
60
0
100
AcDbLine
10
81.7786
20
44.980226
30
0
11
81.707886
21
45.653028
31
0
39
0
210
0
220
0
230
1
0
LINE
5
CE
100
AcDbEntity
8
1
62
256
6
ByLayer
370
18
48
1
60
0
100
AcDbLine
10
81.569844
20
45.638519
30
0
11
81.707886
21
45.653028
31
0
39
0
210
0
220
0
230
1
0
LINE
5
CF
100
AcDbEntity
8
1
62
256
6
ByLayer
370
18
48
1
60
0
100
AcDbLine
10
81.560742
20
45.729069
30
0
11
81.698911
21
45.742311
31
0
39
0
210
0
220
0
230
1
0
LINE
5
D0
100
AcDbEntity
8
1
62
256
6
ByLayer
370
18
48
1
60
0
100
AcDbLine
10
94.170838
20
35.52133
30
0
11
93.500596
21
35.450885
31
0
39
0
210
0
220
0
230
1
0
LINE
5
D1
100
AcDbEntity
8
1
62
256
6
ByLayer
370
18
48
1
60
0
100
AcDbLine
10
82.719592
20
34.910381
30
0
11
82.849129
21
34.960395
31
0
39
0
210
0
220
0
230
1
0
LINE
5
D2
100
AcDbEntity
8
1
62
256
6
ByLayer
370
18
48
1
60
0
100
AcDbLine
10
94.276107
20
35.392174
30
0
11
94.259697
21
35.53108
31
0
39
0
210
0
220
0
230
1
0
LINE
5
D3
100
AcDbEntity
8
1
62
256
6
ByLayer
370
18
48
1
60
0
100
AcDbLine
10
87.454142
20
44.411365
30
0
11
84.878225
21
44.140625
31
0
39
0
210
0
220
0
230
1
0
LINE
5
D4
100
AcDbEntity
8
1
62
256
6
ByLayer
370
18
48
1
60
0
100
AcDbLine
10
81.5563
20
45.777867
30
0
11
81.694594
21
45.789744
31
0
39
0
210
0
220
0
230
1
0
LINE
5
D5
100
AcDbEntity
8
1
62
256
6
ByLayer
370
18
48
1
60
0
100
AcDbLine
10
81.543841
20
45.937439
30
0
11
81.682309
21
45.947084
31
0
39
0
210
0
220
0
230
1
0
LINE
5
D6
100
AcDbEntity
8
1
62
256
6
ByLayer
370
18
48
1
60
0
100
AcDbLine
10
82.17536
20
46.827392
30
0
11
82.224818
21
46.696745
31
0
39
0
210
0
220
0
230
1
0
LINE
5
D7
100
AcDbEntity
8
1
62
256
6
ByLayer
370
18
48
1
60
0
100
AcDbLine
10
82.284534
20
46.855692
30
0
11
82.303452
21
46.717128
31
0
39
0
210
0
220
0
230
1
0
LINE
5
D8
100
AcDbEntity
8
1
62
256
6
ByLayer
370
18
48
1
60
0
100
AcDbLine
10
82.442602
20
46.876635
30
0
11
82.459309
21
46.737779
31
0
39
0
210
0
220
0
230
1
0
LINE
5
D9
100
AcDbEntity
8
1
62
256
6
ByLayer
370
18
48
1
60
0
100
AcDbLine
10
82.491071
20
46.882419
30
0
11
82.506422
21
46.743401
31
0
39
0
210
0
220
0
230
1
0
LINE
5
DA
100
AcDbEntity
8
1
62
256
6
ByLayer
370
18
48
1
60
0
100
AcDbLine
10
82.58119
20
46.892307
30
0
11
82.595281
21
46.753151
31
0
39
0
210
0
220
0
230
1
0
LINE
5
DB
100
AcDbEntity
8
1
62
256
6
ByLayer
370
18
48
1
60
0
100
AcDbLine
10
82.595281
20
46.753151
30
0
11
83.265523
21
46.823596
31
0
39
0
210
0
220
0
230
1
0
LINE
5
DC
100
AcDbEntity
8
1
62
256
6
ByLayer
370
18
48
1
60
0
100
AcDbLine
10
82.654598
20
35.317778
30
0
11
82.79264
21
35.332287
31
0
39
0
210
0
220
0
230
1
0
LINE
5
DD
100
AcDbEntity
8
1
62
256
6
ByLayer
370
18
48
1
60
0
100
AcDbLine
10
94.185988
20
35.382286
30
0
11
94.170838
21
35.52133
31
0
39
0
210
0
220
0
230
1
0
LINE
5
DE
100
AcDbEntity
8
1
62
256
6
ByLayer
370
18
48
1
60
0
100
AcDbLine
10
84.700983
20
43.920895
30
0
11
84.972757
21
41.335138
31
0
39
0
210
0
220
0
230
1
0
LINE
5
DF
100
AcDbEntity
8
1
62
256
6
ByLayer
370
18
48
1
60
0
100
AcDbLine
10
95.210878
20
36.496726
30
0
11
95.071526
21
36.484737
31
0
39
0
210
0
220
0
230
1
0
LINE
5
E0
100
AcDbEntity
8
1
62
256
6
ByLayer
370
18
48
1
60
0
100
AcDbLine
10
95.218462
20
36.224065
30
0
11
95.080299
21
36.245943
31
0
39
0
210
0
220
0
230
1
0
LINE
5
E1
100
AcDbEntity
8
1
62
256
6
ByLayer
370
18
48
1
60
0
100
AcDbLine
10
95.197334
20
36.636073
30
0
11
94.11258
21
46.956814
31
0
39
0
210
0
220
0
230
1
0
LINE
5
E2
100
AcDbEntity
8
1
62
256
6
ByLayer
370
18
48
1
60
0
100
AcDbLine
10
92.206506
20
47.763331
30
0
11
92.876748
21
47.833777
31
0
39
0
210
0
220
0
230
1
0
LINE
5
E3
100
AcDbEntity
8
1
62
256
6
ByLayer
370
18
48
1
60
0
100
AcDbLine
10
92.862657
20
47.972933
30
0
11
92.876748
21
47.833777
31
0
39
0
210
0
220
0
230
1
0
LINE
5
E4
100
AcDbEntity
8
1
62
256
6
ByLayer
370
18
48
1
60
0
100
AcDbLine
10
92.952863
20
47.981997
30
0
11
92.965692
21
47.842714
31
0
39
0
210
0
220
0
230
1
0
LINE
5
E5
100
AcDbEntity
8
1
62
256
6
ByLayer
370
18
48
1
60
0
100
AcDbLine
10
93.001476
20
47.986417
30
0
11
93.012945
21
47.84701
31
0
39
0
210
0
220
0
230
1
0
LINE
5
E6
100
AcDbEntity
8
1
62
256
6
ByLayer
370
18
48
1
60
0
100
AcDbLine
10
83.90452
20
34.30166
30
0
11
83.889371
21
34.440705
31
0
39
0
210
0
220
0
230
1
0
LINE
5
E7
100
AcDbEntity
8
1
62
256
6
ByLayer
370
18
48
1
60
0
100
AcDbLine
10
94.047585
20
47.364212
30
0
11
93.916991
21
47.314086
31
0
39
0
210
0
220
0
230
1
0
LINE
5
E8
100
AcDbEntity
8
1
62
256
6
ByLayer
370
18
48
1
60
0
100
AcDbLine
10
94.075866
20
47.254608
30
0
11
93.93736
21
47.235142
31
0
39
0
210
0
220
0
230
1
0
LINE
5
E9
100
AcDbEntity
8
1
62
256
6
ByLayer
370
18
48
1
60
0
100
AcDbLine
10
94.096856
20
47.095933
30
0
11
93.958057
21
47.078686
31
0
39
0
210
0
220
0
230
1
0
LINE
5
EA
100
AcDbEntity
8
1
62
256
6
ByLayer
370
18
48
1
60
0
100
AcDbLine
10
84.559613
20
34.51115
30
0
11
83.889371
21
34.440705
31
0
39
0
210
0
220
0
230
1
0
LINE
5
EB
100
AcDbEntity
8
1
62
256
6
ByLayer
370
18
48
1
60
0
100
AcDbLine
10
94.102657
20
47.047277
30
0
11
93.963696
21
47.031392
31
0
39
0
210
0
220
0
230
1
0
LINE
5
EC
100
AcDbEntity
8
1
62
256
6
ByLayer
370
18
48
1
60
0
100
AcDbLine
10
83.814315
20
34.292595
30
0
11
83.800427
21
34.431767
31
0
39
0
210
0
220
0
230
1
0
LINE
5
ED
100
AcDbEntity
8
1
62
256
6
ByLayer
370
18
48
1
60
0
100
AcDbLine
10
93.97348
20
46.942194
30
0
11
94.044194
21
46.269391
31
0
39
0
210
0
220
0
230
1
0
LINE
5
EE
100
AcDbEntity
8
1
62
256
6
ByLayer
370
18
48
1
60
0
100
AcDbLine
10
84.959304
20
40.221055
30
0
11
85.231078
21
37.635298
31
0
39
0
210
0
220
0
230
1
0
LINE
5
EF
100
AcDbEntity
8
1
62
256
6
ByLayer
370
18
48
1
60
0
100
AcDbLine
10
91.827411
20
38.127499
30
0
11
89.251494
21
37.856759
31
0
39
0
210
0
220
0
230
1
0
LINE
5
F0
100
AcDbEntity
8
1
62
256
6
ByLayer
370
18
48
1
60
0
100
AcDbLine
10
82.691312
20
35.019985
30
0
11
82.828759
21
35.039339
31
0
39
0
210
0
220
0
230
1
0
LINE
5
F1
100
AcDbEntity
8
1
62
256
6
ByLayer
370
18
48
1
60
0
100
AcDbLine
10
82.79264
20
35.332287
30
0
11
82.721925
21
36.00509
31
0
39
0
210
0
220
0
230
1
0
LINE
5
F2
100
AcDbEntity
8
1
62
256
6
ByLayer
370
18
48
1
60
0
100
AcDbLine
10
82.670322
20
35.17866
30
0
11
82.808063
21
35.195795
31
0
39
0
210
0
220
0
230
1
0
LINE
5
F3
100
AcDbEntity
8
1
62
256
6
ByLayer
370
18
48
1
60
0
100
AcDbLine
10
91.617211
20
42.033498
30
0
11
91.345437
21
44.619255
31
0
39
0
210
0
220
0
230
1
0
LINE
5
F4
100
AcDbEntity
8
1
62
256
6
ByLayer
370
18
48
1
60
0
100
AcDbLine
10
84.700983
20
43.920895
30
0
11
84.571861
21
43.907323
31
0
39
0
210
0
220
0
230
1
0
LINE
5
F5
100
AcDbEntity
8
1
62
256
6
ByLayer
370
18
48
1
60
0
100
AcDbLine
10
83.90452
20
34.30166
30
0
11
94.185988
21
35.382286
31
0
39
0
210
0
220
0
230
1
0
LINE
5
F6
100
AcDbEntity
8
1
62
256
6
ByLayer
370
18
48
1
60
0
100
AcDbLine
10
91.126383
20
44.797333
30
0
11
88.550466
21
44.526593
31
0
39
0
210
0
220
0
230
1
0
LINE
5
F7
100
AcDbEntity
8
1
62
256
6
ByLayer
370
18
48
1
60
0
100
AcDbLine
10
94.591818
20
35.4472
30
0
11
94.541302
21
35.577736
31
0
39
0
210
0
220
0
230
1
0
LINE
5
F8
100
AcDbEntity
8
1
62
256
6
ByLayer
370
18
48
1
60
0
100
AcDbLine
10
87.502961
20
41.933676
30
0
11
87.513876
21
41.916907
31
0
39
0
210
0
220
0
230
1
0
LINE
5
F9
100
AcDbEntity
8
1
62
256
6
ByLayer
370
18
48
1
60
0
100
AcDbLine
10
89.523146
20
41.581343
30
0
11
89.587943
21
41.588154
31
0
39
0
210
0
220
0
230
1
0
LINE
5
FA
100
AcDbEntity
8
1
62
256
6
ByLayer
370
18
48
1
60
0
100
AcDbLine
10
89.590566
20
40.93988
30
0
11
89.654141
21
40.946562
31
0
39
0
210
0
220
0
230
1
0
LINE
5
FB
100
AcDbEntity
8
1
62
256
6
ByLayer
370
18
48
1
60
0
100
AcDbLine
10
87.694972
20
40.193899
30
0
11
87.687781
21
40.175226
31
0
39
0
210
0
220
0
230
1
0
LINE
5
FC
100
AcDbEntity
8
1
62
256
6
ByLayer
370
18
48
1
60
0
100
AcDbLine
10
88.556107
20
42.368641
30
0
11
88.665099
21
42.380096
31
0
39
0
210
0
220
0
230
1
0
LINE
5
FD
100
AcDbEntity
8
1
62
256
6
ByLayer
370
18
48
1
60
0
100
AcDbLine
10
87.152114
20
41.333139
30
0
11
87.260152
21
41.344495
31
0
39
0
210
0
220
0
230
1
0
LINE
5
FE
100
AcDbEntity
8
1
62
256
6
ByLayer
370
18
48
1
60
0
100
AcDbLine
10
87.393969
20
41.922221
30
0
11
87.502961
21
41.933676
31
0
39
0
210
0
220
0
230
1
0
LINE
5
FF
100
AcDbEntity
8
1
62
256
6
ByLayer
370
18
48
1
60
0
100
AcDbLine
10
88.904819
20
39.995783
30
0
11
88.91734
21
39.980183
31
0
39
0
210
0
220
0
230
1
0
LINE
5
100
100
AcDbEntity
8
1
62
256
6
ByLayer
370
18
48
1
60
0
100
AcDbLine
10
87.260152
20
41.344495
30
0
11
87.240442
21
41.341421
31
0
39
0
210
0
220
0
230
1
0
LINE
5
101
100
AcDbEntity
8
1
62
256
6
ByLayer
370
18
48
1
60
0
100
AcDbLine
10
87.307862
20
40.699958
30
0
11
87.327781
21
40.70105
31
0
39
0
210
0
220
0
230
1
0
LINE
5
102
100
AcDbEntity
8
1
62
256
6
ByLayer
370
18
48
1
60
0
100
AcDbLine
10
87.586933
20
40.182543
30
0
11
87.694972
21
40.193899
31
0
39
0
210
0
220
0
230
1
0
LINE
5
103
100
AcDbEntity
8
1
62
256
6
ByLayer
370
18
48
1
60
0
100
AcDbLine
10
87.578789
20
40.163771
30
0
11
87.687781
21
40.175226
31
0
39
0
210
0
220
0
230
1
0
LINE
5
104
100
AcDbEntity
8
1
62
256
6
ByLayer
370
18
48
1
60
0
100
AcDbLine
10
87.219742
20
40.689695
30
0
11
87.327781
21
40.70105
31
0
39
0
210
0
220
0
230
1
0
LINE
5
105
100
AcDbEntity
8
1
62
256
6
ByLayer
370
18
48
1
60
0
100
AcDbLine
10
88.665099
20
42.380096
30
0
11
88.656095
21
42.362235
31
0
39
0
210
0
220
0
230
1
0
LINE
5
106
100
AcDbEntity
8
1
62
256
6
ByLayer
370
18
48
1
60
0
100
AcDbLine
10
88.808348
20
39.968728
30
0
11
88.91734
21
39.980183
31
0
39
0
210
0
220
0
230
1
0
LINE
5
107
100
AcDbEntity
8
1
62
256
6
ByLayer
370
18
48
1
60
0
100
AcDbLine
10
87.405837
20
41.905551
30
0
11
87.513876
21
41.916907
31
0
39
0
210
0
220
0
230
1
0
LINE
5
108
100
AcDbEntity
8
1
62
256
6
ByLayer
370
18
48
1
60
0
100
AcDbLine
10
88.548056
20
42.35088
30
0
11
88.656095
21
42.362235
31
0
39
0
210
0
220
0
230
1
0
LINE
5
109
100
AcDbEntity
8
1
62
256
6
ByLayer
370
18
48
1
60
0
100
AcDbLine
10
88.79678
20
39.984427
30
0
11
88.904819
21
39.995783
31
0
39
0
210
0
220
0
230
1
0
LINE
5
10A
100
AcDbEntity
8
1
62
256
6
ByLayer
370
18
48
1
60
0
100
AcDbLine
10
93.797822
20
-27.668443
30
0
11
94.834322
21
-22.111149
31
0
39
0
210
0
220
0
230
1
0
LINE
5
10B
100
AcDbEntity
8
1
62
256
6
ByLayer
370
18
48
1
60
0
100
AcDbLine
10
95.223337
20
-19.155565
30
0
11
95.121074
21
-19.956888
31
0
39
0
210
0
220
0
230
1
0
LINE
5
10C
100
AcDbEntity
8
1
62
256
6
ByLayer
370
18
48
1
60
0
100
AcDbLine
10
95.218462
20
-19.093041
30
0
11
95.121634
21
-19.888031
31
0
39
0
210
0
220
0
230
1
0
LINE
5
10D
100
AcDbEntity
8
1
62
256
6
ByLayer
370
18
48
1
60
0
100
AcDbLine
10
90.6
20
11.3675
30
0
11
90.6
21
22.6325
31
0
39
0
210
0
220
0
230
1
0
LINE
5
10E
100
AcDbEntity
8
1
62
256
6
ByLayer
370
18
48
1
60
0
100
AcDbLine
10
89.8
20
23.4325
30
0
11
89.8
21
10.774327
31
0
39
0
210
0
220
0
230
1
0
LINE
5
10F
100
AcDbEntity
8
1
62
256
6
ByLayer
370
18
48
1
60
0
100
AcDbLine
10
67.812249
20
38.797875
30
0
11
67.844025
21
38.849834
31
0
39
0
210
0
220
0
230
1
0
LINE
5
110
100
AcDbEntity
8
1
62
256
6
ByLayer
370
18
48
1
60
0
100
AcDbLine
10
67.700273
20
38.788078
30
0
11
67.812249
21
38.797875
31
0
39
0
210
0
220
0
230
1
0
LINE
5
111
100
AcDbEntity
8
1
62
256
6
ByLayer
370
18
48
1
60
0
100
AcDbLine
10
67.851524
20
38.678077
30
0
11
67.815341
21
38.727069
31
0
39
0
210
0
220
0
230
1
0
LINE
5
112
100
AcDbEntity
8
1
62
256
6
ByLayer
370
18
48
1
60
0
100
AcDbLine
10
67.702937
20
38.727069
30
0
11
67.815341
21
38.727069
31
0
39
0
210
0
220
0
230
1
0
LINE
5
113
100
AcDbEntity
8
1
62
256
6
ByLayer
370
18
48
1
60
0
100
AcDbLine
10
81.929122
20
35.627437
30
0
11
82.223103
21
35.658336
31
0
39
0
210
0
220
0
230
1
0
LINE
5
114
100
AcDbEntity
8
1
62
256
6
ByLayer
370
18
48
1
60
0
100
AcDbLine
10
94.502937
20
35.019377
30
0
11
94.19611
21
34.987128
31
0
39
0
210
0
220
0
230
1
0
LINE
5
115
100
AcDbEntity
8
1
62
256
6
ByLayer
370
18
48
1
60
0
100
AcDbLine
10
85.002937
20
18.663087
30
0
11
85.002937
21
22.727069
31
0
39
0
210
0
220
0
230
1
0
LINE
5
116
100
AcDbEntity
8
1
62
256
6
ByLayer
370
18
48
1
60
0
100
AcDbLine
10
94.502937
20
30.386032
30
0
11
94.502937
21
35.019377
31
0
39
0
210
0
220
0
230
1
0
LINE
5
117
100
AcDbEntity
8
1
62
256
6
ByLayer
370
18
48
1
60
0
100
AcDbLine
10
94.183206
20
35.11085
30
0
11
94.19611
21
34.987128
31
0
39
0
210
0
220
0
230
1
0
LINE
5
118
100
AcDbEntity
8
1
62
256
6
ByLayer
370
18
48
1
60
0
100
AcDbLine
10
94.502937
20
30.386032
30
0
11
94.194252
21
30.27368
31
0
39
0
210
0
220
0
230
1
0
LINE
5
119
100
AcDbEntity
8
1
62
256
6
ByLayer
370
18
48
1
60
0
100
AcDbLine
10
82.588339
20
35.948101
30
0
11
82.196971
21
35.906966
31
0
39
0
210
0
220
0
230
1
0
LINE
5
11A
100
AcDbEntity
8
1
62
256
6
ByLayer
370
18
48
1
60
0
100
AcDbLine
10
82.614471
20
35.69947
30
0
11
82.223103
21
35.658336
31
0
39
0
210
0
220
0
230
1
0
LINE
5
11B
100
AcDbEntity
8
1
62
256
6
ByLayer
370
18
48
1
60
0
100
AcDbLine
10
74.002937
20
44.830079
30
0
11
74.002937
21
19.769889
31
0
39
0
210
0
220
0
230
1
0
LINE
5
11C
100
AcDbEntity
8
1
62
256
6
ByLayer
370
18
48
1
60
0
100
AcDbLine
10
74.002937
20
44.830079
30
0
11
62.002937
21
43.568828
31
0
39
0
210
0
220
0
230
1
0
LINE
5
11D
100
AcDbEntity
8
1
62
256
6
ByLayer
370
18
48
1
60
0
100
AcDbLine
10
94.502937
20
35.422184
30
0
11
94.502937
21
35.019377
31
0
39
0
210
0
220
0
230
1
0
LINE
5
11E
100
AcDbEntity
8
1
62
256
6
ByLayer
370
18
48
1
60
0
100
AcDbLine
10
80.001243
20
45.460526
30
0
11
81.366862
21
45.604059
31
0
39
0
210
0
220
0
230
1
0
LINE
5
11F
100
AcDbEntity
8
1
62
256
6
ByLayer
370
18
48
1
60
0
100
AcDbLine
10
74.002937
20
44.830079
30
0
11
80.001243
21
45.460526
31
0
39
0
210
0
220
0
230
1
0
LINE
5
120
100
AcDbEntity
8
1
62
256
6
ByLayer
370
18
48
1
60
0
100
AcDbLine
10
81.929122
20
35.627437
30
0
11
81.903189
21
35.876089
31
0
39
0
210
0
220
0
230
1
0
LINE
5
121
100
AcDbEntity
8
1
62
256
6
ByLayer
370
18
48
1
60
0
100
AcDbLine
10
82.39718
20
37.421113
30
0
11
82.433134
21
37.424892
31
0
39
0
210
0
220
0
230
1
0
LINE
5
122
100
AcDbEntity
8
1
62
256
6
ByLayer
370
18
48
1
60
0
100
AcDbLine
10
94.19611
20
34.987128
30
0
11
94.194252
21
30.27368
31
0
39
0
210
0
220
0
230
1
0
LINE
5
123
100
AcDbEntity
8
1
62
256
6
ByLayer
370
18
48
1
60
0
100
AcDbLine
10
81.903189
20
35.876089
30
0
11
82.196971
21
35.906966
31
0
39
0
210
0
220
0
230
1
0
LINE
5
124
100
AcDbEntity
8
1
62
256
6
ByLayer
370
18
48
1
60
0
100
AcDbLine
10
88.950816
20
28.365225
30
0
11
94.194252
21
30.27368
31
0
39
0
210
0
220
0
230
1
0
LINE
5
125
100
AcDbEntity
8
1
62
256
6
ByLayer
370
18
48
1
60
0
100
AcDbLine
10
80.001243
20
19.769642
30
0
11
80.001243
21
45.460526
31
0
39
0
210
0
220
0
230
1
0
LINE
5
126
100
AcDbEntity
8
1
62
256
6
ByLayer
370
18
48
1
60
0
100
AcDbLine
10
62.002937
20
43.568828
30
0
11
62.002937
21
28.166075
31
0
39
0
210
0
220
0
230
1
0
LINE
5
127
100
AcDbEntity
8
1
62
256
6
ByLayer
370
18
48
1
60
0
100
AcDbLine
10
85.345333
20
34.229802
30
0
11
93.639476
21
35.101551
31
0
39
0
210
0
220
0
230
1
0
LINE
5
128
100
AcDbEntity
8
1
62
256
6
ByLayer
370
18
48
1
60
0
100
AcDbLine
10
82.223103
20
35.658336
30
0
11
82.196971
21
35.906966
31
0
39
0
210
0
220
0
230
1
0
LINE
5
129
100
AcDbEntity
8
1
62
256
6
ByLayer
370
18
48
1
60
0
100
AcDbLine
10
81.571205
20
45.625536
30
0
11
81.366862
21
45.604059
31
0
39
0
210
0
220
0
230
1
0
LINE
5
12A
100
AcDbEntity
8
1
62
256
6
ByLayer
370
18
48
1
60
0
100
AcDbLine
10
90.6
20
-21.916639
30
0
11
90.6
21
-25.951721
31
0
39
0
210
0
220
0
230
1
0
LINE
5
12B
100
AcDbEntity
8
1
62
256
6
ByLayer
370
18
48
1
60
0
100
AcDbLine
10
89.8
20
-26.751721
30
0
11
89.8
21
-21.773533
31
0
39
0
210
0
220
0
230
1
0
LINE
5
12C
100
AcDbEntity
8
1
62
256
6
ByLayer
370
18
48
1
60
0
100
AcDbLine
10
94.502937
20
-23.441657
30
0
11
94.502937
21
-20.194379
31
0
39
0
210
0
220
0
230
1
0
LINE
5
12D
100
AcDbEntity
8
1
62
256
6
ByLayer
370
18
48
1
60
0
100
AcDbLine
10
83.302937
20
-24.036123
30
0
11
85.002937
21
-22.078658
31
0
39
0
210
0
220
0
230
1
0
LINE
5
12E
100
AcDbEntity
8
1
62
256
6
ByLayer
370
18
48
1
60
0
100
AcDbLine
10
92.663625
20
-34.155827
30
0
11
92.382105
21
-34.603255
31
0
39
0
210
0
220
0
230
1
0
LINE
5
12F
100
AcDbEntity
8
1
62
256
6
ByLayer
370
18
48
1
60
0
100
AcDbLine
10
83.302937
20
-40.674706
30
0
11
83.302937
21
-24.036123
31
0
39
0
210
0
220
0
230
1
0
LINE
5
130
100
AcDbEntity
8
1
62
256
6
ByLayer
370
18
48
1
60
0
100
AcDbLine
10
88.950816
20
-26.751505
30
0
11
88.950816
21
-30.446489
31
0
39
0
210
0
220
0
230
1
0
LINE
5
131
100
AcDbEntity
8
1
62
256
6
ByLayer
370
18
48
1
60
0
100
AcDbLine
10
94.474124
20
-23.669585
30
0
11
94.502937
21
-23.441657
31
0
39
0
210
0
220
0
230
1
0
LINE
5
132
100
AcDbEntity
8
1
62
256
6
ByLayer
370
18
48
1
60
0
100
AcDbLine
10
94.474124
20
-23.669585
30
0
11
92.663625
21
-34.155827
31
0
39
0
210
0
220
0
230
1
0
LINE
5
133
100
AcDbEntity
8
1
62
256
6
ByLayer
370
18
48
1
60
0
100
AcDbLine
10
85.002937
20
-22.078658
30
0
11
85.002937
21
-31.972776
31
0
39
0
210
0
220
0
230
1
0
LINE
5
134
100
AcDbEntity
8
1
62
256
6
ByLayer
370
18
48
1
60
0
100
AcDbLine
10
85.002937
20
-21.174569
30
0
11
85.002937
21
-22.078658
31
0
39
0
210
0
220
0
230
1
0
LINE
5
135
100
AcDbEntity
8
1
62
256
6
ByLayer
370
18
48
1
60
0
100
AcDbLine
10
83.302937
20
-24.036123
30
0
11
69.372004
21
-24.036123
31
0
39
0
210
0
220
0
230
1
0
LINE
5
136
100
AcDbEntity
8
1
62
256
6
ByLayer
370
18
48
1
60
0
100
AcDbLine
10
69.318689
20
-40.674706
30
0
11
69.318689
21
-37.303833
31
0
39
0
210
0
220
0
230
1
0
LINE
5
137
100
AcDbEntity
8
1
62
256
6
ByLayer
370
18
48
1
60
0
100
AcDbLine
10
90.128272
20
-34.750456
30
0
11
92.262251
21
-34.667131
31
0
39
0
210
0
220
0
230
1
0
LINE
5
138
100
AcDbEntity
8
1
62
256
6
ByLayer
370
18
48
1
60
0
100
AcDbLine
10
83.302937
20
-40.674706
30
0
11
69.318689
21
-40.674706
31
0
39
0
210
0
220
0
230
1
0
LINE
5
139
100
AcDbEntity
8
1
62
256
6
ByLayer
370
18
48
1
60
0
100
AcDbLine
10
88.292417
20
-37.837905
30
0
11
86.441909
21
-39.274739
31
0
39
0
210
0
220
0
230
1
0
LINE
5
13A
100
AcDbEntity
8
1
62
256
6
ByLayer
370
18
48
1
60
0
100
AcDbLine
10
86.579834
20
-32.954725
30
0
11
86.441909
21
-39.274739
31
0
39
0
210
0
220
0
230
1
0
LINE
5
13B
100
AcDbEntity
8
1
62
256
6
ByLayer
370
18
48
1
60
0
100
AcDbLine
10
92.382105
20
-31.660733
30
0
11
89.84726
21
-35.135718
31
0
39
0
210
0
220
0
230
1
0
LINE
5
13C
100
AcDbEntity
8
1
62
256
6
ByLayer
370
18
48
1
60
0
100
AcDbLine
10
92.382105
20
-34.603255
30
0
11
92.382105
21
-31.660733
31
0
39
0
210
0
220
0
230
1
0
LINE
5
13D
100
AcDbEntity
8
1
62
256
6
ByLayer
370
18
48
1
60
0
100
AcDbLine
10
94.474124
20
-23.669585
30
0
11
88.950816
21
-30.446489
31
0
39
0
210
0
220
0
230
1
0
LINE
5
13E
100
AcDbEntity
8
1
62
256
6
ByLayer
370
18
48
1
60
0
100
AcDbLine
10
83.302937
20
-40.674706
30
0
11
86.441909
21
-39.274739
31
0
39
0
210
0
220
0
230
1
0
LINE
5
13F
100
AcDbEntity
8
1
62
256
6
ByLayer
370
18
48
1
60
0
100
AcDbLine
10
92.262251
20
-34.667131
30
0
11
92.382105
21
-34.603255
31
0
39
0
210
0
220
0
230
1
0
LINE
5
140
100
AcDbEntity
8
1
62
256
6
ByLayer
370
18
48
1
60
0
100
AcDbLine
10
87.018255
20
-8.564431
30
0
11
92.262251
21
-9.112416
31
0
39
0
210
0
220
0
230
1
0
LINE
5
141
100
AcDbEntity
8
1
62
256
6
ByLayer
370
18
48
1
60
0
100
AcDbLine
10
94.474124
20
-6.025764
30
0
11
88.950816
21
3.47371
31
0
39
0
210
0
220
0
230
1
0
LINE
5
142
100
AcDbEntity
8
1
62
256
6
ByLayer
370
18
48
1
60
0
100
AcDbLine
10
93.355464
20
-17.923452
30
0
11
94.398115
21
-13.621484
31
0
39
0
210
0
220
0
230
1
0
LINE
5
143
100
AcDbEntity
8
1
62
256
6
ByLayer
370
18
48
1
60
0
100
AcDbLine
10
94.39996
20
-14.121596
30
0
11
94.412714
21
-13.990097
31
0
39
0
210
0
220
0
230
1
0
LINE
5
144
100
AcDbEntity
8
1
62
256
6
ByLayer
370
18
48
1
60
0
100
AcDbLine
10
94.502937
20
-13.188988
30
0
11
94.502937
21
-13.547814
31
0
39
0
210
0
220
0
230
1
0
LINE
5
145
100
AcDbEntity
8
1
62
256
6
ByLayer
370
18
48
1
60
0
100
AcDbLine
10
83.12761
20
-16.809648
30
0
11
92.960425
21
-18.037252
31
0
39
0
210
0
220
0
230
1
0
LINE
5
146
100
AcDbEntity
8
1
62
256
6
ByLayer
370
18
48
1
60
0
100
AcDbLine
10
85.002937
20
18.663164
30
0
11
85.002937
21
11.049187
31
0
39
0
210
0
220
0
230
1
0
LINE
5
147
100
AcDbEntity
8
1
62
256
6
ByLayer
370
18
48
1
60
0
100
AcDbLine
10
87.018255
20
-8.564431
30
0
11
87.406592
21
-6.962154
31
0
39
0
210
0
220
0
230
1
0
LINE
5
148
100
AcDbEntity
8
1
62
256
6
ByLayer
370
18
48
1
60
0
100
AcDbLine
10
92.382105
20
-6.739102
30
0
11
89.487597
21
-6.377729
31
0
39
0
210
0
220
0
230
1
0
LINE
5
149
100
AcDbEntity
8
1
62
256
6
ByLayer
370
18
48
1
60
0
100
AcDbLine
10
92.382105
20
-9.077889
30
0
11
92.382105
21
-6.739102
31
0
39
0
210
0
220
0
230
1
0
LINE
5
14A
100
AcDbEntity
8
1
62
256
6
ByLayer
370
18
48
1
60
0
100
AcDbLine
10
80.001243
20
-20.128039
30
0
11
81.366862
21
-20.298533
31
0
39
0
210
0
220
0
230
1
0
LINE
5
14B
100
AcDbEntity
8
1
62
256
6
ByLayer
370
18
48
1
60
0
100
AcDbLine
10
94.474124
20
-6.025764
30
0
11
92.663625
21
-9.48099
31
0
39
0
210
0
220
0
230
1
0
LINE
5
14C
100
AcDbEntity
8
1
62
256
6
ByLayer
370
18
48
1
60
0
100
AcDbLine
10
87.876831
20
-2.113746
30
0
11
87.018255
21
-8.564431
31
0
39
0
210
0
220
0
230
1
0
LINE
5
14D
100
AcDbEntity
8
1
62
256
6
ByLayer
370
18
48
1
60
0
100
AcDbLine
10
87.406592
20
-6.962154
30
0
11
87.876831
21
-2.113746
31
0
39
0
210
0
220
0
230
1
0
LINE
5
14E
100
AcDbEntity
8
1
62
256
6
ByLayer
370
18
48
1
60
0
100
AcDbLine
10
69.908676
20
-13.904843
30
0
11
69.679528
21
-13.749944
31
0
39
0
210
0
220
0
230
1
0
LINE
5
14F
100
AcDbEntity
8
1
62
256
6
ByLayer
370
18
48
1
60
0
100
AcDbLine
10
62.002937
20
-13.441224
30
0
11
69.679528
21
-13.749944
31
0
39
0
210
0
220
0
230
1
0
LINE
5
150
100
AcDbEntity
8
1
62
256
6
ByLayer
370
18
48
1
60
0
100
AcDbLine
10
83.302937
20
19.76936
30
0
11
85.002937
21
18.663164
31
0
39
0
210
0
220
0
230
1
0
LINE
5
151
100
AcDbEntity
8
1
62
256
6
ByLayer
370
18
48
1
60
0
100
AcDbLine
10
62.002937
20
-14.172282
30
0
11
62.002937
21
-13.441224
31
0
39
0
210
0
220
0
230
1
0
LINE
5
152
100
AcDbEntity
8
1
62
256
6
ByLayer
370
18
48
1
60
0
100
AcDbLine
10
83.302937
20
6.965209
30
0
11
83.302937
21
19.76936
31
0
39
0
210
0
220
0
230
1
0
LINE
5
153
100
AcDbEntity
8
1
62
256
6
ByLayer
370
18
48
1
60
0
100
AcDbLine
10
83.12761
20
-16.809648
30
0
11
62.002937
21
-14.172282
31
0
39
0
210
0
220
0
230
1
0
LINE
5
154
100
AcDbEntity
8
1
62
256
6
ByLayer
370
18
48
1
60
0
100
AcDbLine
10
83.302937
20
6.965209
30
0
11
86.441909
21
3.218583
31
0
39
0
210
0
220
0
230
1
0
LINE
5
155
100
AcDbEntity
8
1
62
256
6
ByLayer
370
18
48
1
60
0
100
AcDbLine
10
89.84726
20
-2.669419
30
0
11
89.487597
21
-6.377729
31
0
39
0
210
0
220
0
230
1
0
LINE
5
156
100
AcDbEntity
8
1
62
256
6
ByLayer
370
18
48
1
60
0
100
AcDbLine
10
83.302937
20
19.76936
30
0
11
69.372004
21
19.76936
31
0
39
0
210
0
220
0
230
1
0
LINE
5
157
100
AcDbEntity
8
1
62
256
6
ByLayer
370
18
48
1
60
0
100
AcDbLine
10
93.24831
20
-17.068692
30
0
11
93.355464
21
-17.923452
31
0
39
0
210
0
220
0
230
1
0
LINE
5
158
100
AcDbEntity
8
1
62
256
6
ByLayer
370
18
48
1
60
0
100
AcDbLine
10
86.579834
20
7.870161
30
0
11
86.441909
21
3.218583
31
0
39
0
210
0
220
0
230
1
0
LINE
5
159
100
AcDbEntity
8
1
62
256
6
ByLayer
370
18
48
1
60
0
100
AcDbLine
10
92.663625
20
-9.48099
30
0
11
92.382105
21
-9.077889
31
0
39
0
210
0
220
0
230
1
0
LINE
5
15A
100
AcDbEntity
8
1
62
256
6
ByLayer
370
18
48
1
60
0
100
AcDbLine
10
91.737007
20
-10.662592
30
0
11
92.262251
21
-9.112416
31
0
39
0
210
0
220
0
230
1
0
LINE
5
15B
100
AcDbEntity
8
1
62
256
6
ByLayer
370
18
48
1
60
0
100
AcDbLine
10
92.663625
20
-9.48099
30
0
11
93.24831
21
-17.068692
31
0
39
0
210
0
220
0
230
1
0
LINE
5
15C
100
AcDbEntity
8
1
62
256
6
ByLayer
370
18
48
1
60
0
100
AcDbLine
10
69.318689
20
6.965209
30
0
11
69.318689
21
9.58946
31
0
39
0
210
0
220
0
230
1
0
LINE
5
15D
100
AcDbEntity
8
1
62
256
6
ByLayer
370
18
48
1
60
0
100
AcDbLine
10
69.908676
20
-13.904843
30
0
11
69.908676
21
-11.111701
31
0
39
0
210
0
220
0
230
1
0
LINE
5
15E
100
AcDbEntity
8
1
62
256
6
ByLayer
370
18
48
1
60
0
100
AcDbLine
10
69.679528
20
-13.749944
30
0
11
69.679528
21
-11.106477
31
0
39
0
210
0
220
0
230
1
0
LINE
5
15F
100
AcDbEntity
8
1
62
256
6
ByLayer
370
18
48
1
60
0
100
AcDbLine
10
62.002937
20
-13.441224
30
0
11
62.002937
21
-10.932009
31
0
39
0
210
0
220
0
230
1
0
LINE
5
160
100
AcDbEntity
8
1
62
256
6
ByLayer
370
18
48
1
60
0
100
AcDbLine
10
82.305278
20
-17.257475
30
0
11
82.265674
21
-17.425652
31
0
39
0
210
0
220
0
230
1
0
LINE
5
161
100
AcDbEntity
8
1
62
256
6
ByLayer
370
18
48
1
60
0
100
AcDbLine
10
94.502937
20
-13.547814
30
0
11
94.445958
21
-14.135294
31
0
39
0
210
0
220
0
230
1
0
LINE
5
162
100
AcDbEntity
8
1
62
256
6
ByLayer
370
18
48
1
60
0
100
AcDbLine
10
82.265674
20
-17.425652
30
0
11
82.178996
21
-18.31935
31
0
39
0
210
0
220
0
230
1
0
LINE
5
163
100
AcDbEntity
8
1
62
256
6
ByLayer
370
18
48
1
60
0
100
AcDbLine
10
70.902251
20
-6.343233
30
0
11
91.737007
21
-10.662592
31
0
39
0
210
0
220
0
230
1
0
LINE
5
164
100
AcDbEntity
8
1
62
256
6
ByLayer
370
18
48
1
60
0
100
AcDbLine
10
62.002937
20
-22.4767
30
0
11
62.002937
21
-14.172282
31
0
39
0
210
0
220
0
230
1
0
LINE
5
165
100
AcDbEntity
8
1
62
256
6
ByLayer
370
18
48
1
60
0
100
AcDbLine
10
94.412714
20
-13.990097
30
0
11
94.310896
21
-13.981344
31
0
39
0
210
0
220
0
230
1
0
LINE
5
166
100
AcDbEntity
8
1
62
256
6
ByLayer
370
18
48
1
60
0
100
AcDbLine
10
74.002937
20
-23.023653
30
0
11
62.002937
21
-22.4767
31
0
39
0
210
0
220
0
230
1
0
LINE
5
167
100
AcDbEntity
8
1
62
256
6
ByLayer
370
18
48
1
60
0
100
AcDbLine
10
83.302937
20
6.965209
30
0
11
69.318689
21
6.965209
31
0
39
0
210
0
220
0
230
1
0
LINE
5
168
100
AcDbEntity
8
1
62
256
6
ByLayer
370
18
48
1
60
0
100
AcDbLine
10
82.031612
20
-18.799642
30
0
11
82.178996
21
-18.31935
31
0
39
0
210
0
220
0
230
1
0
LINE
5
169
100
AcDbEntity
8
1
62
256
6
ByLayer
370
18
48
1
60
0
100
AcDbLine
10
92.960425
20
-18.037252
30
0
11
93.355464
21
-17.923452
31
0
39
0
210
0
220
0
230
1
0
LINE
5
16A
100
AcDbEntity
8
1
62
256
6
ByLayer
370
18
48
1
60
0
100
AcDbLine
10
71.676236
20
-11.617221
30
0
11
70.902251
21
-6.343233
31
0
39
0
210
0
220
0
230
1
0
LINE
5
16B
100
AcDbEntity
8
1
62
256
6
ByLayer
370
18
48
1
60
0
100
AcDbLine
10
71.676236
20
-11.617221
30
0
11
71.858383
21
-11.822322
31
0
39
0
210
0
220
0
230
1
0
LINE
5
16C
100
AcDbEntity
8
1
62
256
6
ByLayer
370
18
48
1
60
0
100
AcDbLine
10
94.502937
20
-13.188988
30
0
11
94.502937
21
-6.285374
31
0
39
0
210
0
220
0
230
1
0
LINE
5
16D
100
AcDbEntity
8
1
62
256
6
ByLayer
370
18
48
1
60
0
100
AcDbLine
10
94.474124
20
-6.025764
30
0
11
94.502937
21
-6.285374
31
0
39
0
210
0
220
0
230
1
0
LINE
5
16E
100
AcDbEntity
8
1
62
256
6
ByLayer
370
18
48
1
60
0
100
AcDbLine
10
88.292417
20
-0.62671
30
0
11
86.441909
21
3.218583
31
0
39
0
210
0
220
0
230
1
0
LINE
5
16F
100
AcDbEntity
8
1
62
256
6
ByLayer
370
18
48
1
60
0
100
AcDbLine
10
82.491335
20
-16.992998
30
0
11
82.178996
21
-18.31935
31
0
39
0
210
0
220
0
230
1
0
LINE
5
170
100
AcDbEntity
8
1
62
256
6
ByLayer
370
18
48
1
60
0
100
AcDbLine
10
92.382105
20
-6.739102
30
0
11
89.84726
21
-2.669419
31
0
39
0
210
0
220
0
230
1
0
LINE
5
171
100
AcDbEntity
8
1
62
256
6
ByLayer
370
18
48
1
60
0
100
AcDbLine
10
94.398115
20
-13.621484
30
0
11
94.502937
21
-13.188988
31
0
39
0
210
0
220
0
230
1
0
LINE
5
172
100
AcDbEntity
8
1
62
256
6
ByLayer
370
18
48
1
60
0
100
AcDbLine
10
93.057467
20
-17.123668
30
0
11
92.960425
21
-18.037252
31
0
39
0
210
0
220
0
230
1
0
LINE
5
173
100
AcDbEntity
8
1
62
256
6
ByLayer
370
18
48
1
60
0
100
AcDbLine
10
91.737007
20
-10.662592
30
0
11
93.057467
21
-17.123668
31
0
39
0
210
0
220
0
230
1
0
LINE
5
174
100
AcDbEntity
8
1
62
256
6
ByLayer
370
18
48
1
60
0
100
AcDbLine
10
93.057467
20
-17.123668
30
0
11
93.24831
21
-17.068692
31
0
39
0
210
0
220
0
230
1
0
LINE
5
175
100
AcDbEntity
8
1
62
256
6
ByLayer
370
18
48
1
60
0
100
AcDbLine
10
92.262251
20
-9.112416
30
0
11
92.382105
21
-9.077889
31
0
39
0
210
0
220
0
230
1
0
LINE
5
176
100
AcDbEntity
8
1
62
256
6
ByLayer
370
18
48
1
60
0
100
AcDbLine
10
69.318689
20
6.965209
30
0
11
70.902251
21
-6.343233
31
0
39
0
210
0
220
0
230
1
0
LINE
5
177
100
AcDbEntity
8
1
62
256
6
ByLayer
370
18
48
1
60
0
100
AcDbLine
10
92
20
4.469352
30
0
11
92
21
-1.770563
31
0
39
0
210
0
220
0
230
1
0
LINE
5
178
100
AcDbEntity
8
1
62
256
6
ByLayer
370
18
48
1
60
0
100
AcDbLine
10
83.152253
20
-17.772833
30
0
11
92.976372
21
-18.999351
31
0
39
0
210
0
220
0
230
1
0
LINE
5
179
100
AcDbEntity
8
1
62
256
6
ByLayer
370
18
48
1
60
0
100
AcDbLine
10
95.206436
20
-17.289989
30
0
11
95.027607
21
-15.744133
31
0
39
0
210
0
220
0
230
1
0
LINE
5
17A
100
AcDbEntity
8
1
62
256
6
ByLayer
370
18
48
1
60
0
100
AcDbLine
10
82.529008
20
-16.962228
30
0
11
82.250626
21
-18.110829
31
0
39
0
210
0
220
0
230
1
0
LINE
5
17B
100
AcDbEntity
8
1
62
256
6
ByLayer
370
18
48
1
60
0
100
AcDbLine
10
81.569844
20
-20.239041
30
0
11
82.131872
21
-18.488797
31
0
39
0
210
0
220
0
230
1
0
LINE
5
17C
100
AcDbEntity
8
1
62
256
6
ByLayer
370
18
48
1
60
0
100
AcDbLine
10
81.560742
20
-20.278341
30
0
11
82.031819
21
-18.810974
31
0
39
0
210
0
220
0
230
1
0
LINE
5
17D
100
AcDbEntity
8
1
62
256
6
ByLayer
370
18
48
1
60
0
100
AcDbLine
10
81.5563
20
-20.299557
30
0
11
81.982696
21
-18.970929
31
0
39
0
210
0
220
0
230
1
0
LINE
5
17E
100
AcDbEntity
8
1
62
256
6
ByLayer
370
18
48
1
60
0
100
AcDbLine
10
81.543841
20
-20.369095
30
0
11
81.812572
21
-19.531169
31
0
39
0
210
0
220
0
230
1
0
LINE
5
17F
100
AcDbEntity
8
1
62
256
6
ByLayer
370
18
48
1
60
0
100
AcDbLine
10
81.548716
20
-20.419451
30
0
11
81.806023
21
-19.593554
31
0
39
0
210
0
220
0
230
1
0
LINE
5
180
100
AcDbEntity
8
1
62
256
6
ByLayer
370
18
48
1
60
0
100
AcDbLine
10
82.926865
20
-16.807624
30
0
11
82.852761
21
-17.113375
31
0
39
0
210
0
220
0
230
1
0
LINE
5
181
100
AcDbEntity
8
1
62
256
6
ByLayer
370
18
48
1
60
0
100
AcDbLine
10
83.224893
20
-16.821759
30
0
11
83.177977
21
-17.015335
31
0
39
0
210
0
220
0
230
1
0
LINE
5
182
100
AcDbEntity
8
1
62
256
6
ByLayer
370
18
48
1
60
0
100
AcDbLine
10
83.177977
20
-17.015335
30
0
11
83.368238
21
-16.839686
31
0
39
0
210
0
220
0
230
1
0
LINE
5
183
100
AcDbEntity
8
1
62
256
6
ByLayer
370
18
48
1
60
0
100
AcDbLine
10
95.223337
20
-17.199235
30
0
11
95.121074
21
-16.320782
31
0
39
0
210
0
220
0
230
1
0
LINE
5
184
100
AcDbEntity
8
1
62
256
6
ByLayer
370
18
48
1
60
0
100
AcDbLine
10
82.487597
20
-17.356602
30
0
11
82.250626
21
-18.110829
31
0
39
0
210
0
220
0
230
1
0
LINE
5
185
100
AcDbEntity
8
1
62
256
6
ByLayer
370
18
48
1
60
0
100
AcDbLine
10
93.001476
20
-22.17284
30
0
11
93.159087
21
-20.681457
31
0
39
0
210
0
220
0
230
1
0
LINE
5
186
100
AcDbEntity
8
1
62
256
6
ByLayer
370
18
48
1
60
0
100
AcDbLine
10
82.250626
20
-18.110829
30
0
11
82.131872
21
-18.488797
31
0
39
0
210
0
220
0
230
1
0
LINE
5
187
100
AcDbEntity
8
1
62
256
6
ByLayer
370
18
48
1
60
0
100
AcDbLine
10
94.934165
20
-15.151703
30
0
11
94.984199
21
-15.482268
31
0
39
0
210
0
220
0
230
1
0
LINE
5
188
100
AcDbEntity
8
1
62
256
6
ByLayer
370
18
48
1
60
0
100
AcDbLine
10
82.915282
20
-18.52706
30
0
11
82.796529
21
-18.905028
31
0
39
0
210
0
220
0
230
1
0
LINE
5
189
100
AcDbEntity
8
1
62
256
6
ByLayer
370
18
48
1
60
0
100
AcDbLine
10
82.915282
20
-18.52706
30
0
11
93.04407
21
-19.791616
31
0
39
0
210
0
220
0
230
1
0
LINE
5
18A
100
AcDbEntity
8
1
62
256
6
ByLayer
370
18
48
1
60
0
100
AcDbLine
10
82.796529
20
-18.905028
30
0
11
82.58119
21
-20.872381
31
0
39
0
210
0
220
0
230
1
0
LINE
5
18B
100
AcDbEntity
8
1
62
256
6
ByLayer
370
18
48
1
60
0
100
AcDbLine
10
82.674401
20
-19.213382
30
0
11
82.491071
21
-20.860946
31
0
39
0
210
0
220
0
230
1
0
LINE
5
18C
100
AcDbEntity
8
1
62
256
6
ByLayer
370
18
48
1
60
0
100
AcDbLine
10
82.611314
20
-19.364592
30
0
11
82.442602
21
-20.854589
31
0
39
0
210
0
220
0
230
1
0
LINE
5
18D
100
AcDbEntity
8
1
62
256
6
ByLayer
370
18
48
1
60
0
100
AcDbLine
10
82.393721
20
-19.895105
30
0
11
82.284534
21
-20.832942
31
0
39
0
210
0
220
0
230
1
0
LINE
5
18E
100
AcDbEntity
8
1
62
256
6
ByLayer
370
18
48
1
60
0
100
AcDbLine
10
82.17536
20
-20.811877
30
0
11
82.319908
21
-19.915367
31
0
39
0
210
0
220
0
230
1
0
LINE
5
18F
100
AcDbEntity
8
1
62
256
6
ByLayer
370
18
48
1
60
0
100
AcDbLine
10
82.487597
20
-17.356602
30
0
11
82.593887
21
-16.918051
31
0
39
0
210
0
220
0
230
1
0
LINE
5
190
100
AcDbEntity
8
1
62
256
6
ByLayer
370
18
48
1
60
0
100
AcDbLine
10
95.197334
20
-17.329289
30
0
11
94.984199
21
-15.482268
31
0
39
0
210
0
220
0
230
1
0
LINE
5
191
100
AcDbEntity
8
1
62
256
6
ByLayer
370
18
48
1
60
0
100
AcDbLine
10
92.409948
20
-18.516795
30
0
11
83.873787
21
-17.451076
31
0
39
0
210
0
220
0
230
1
0
LINE
5
192
100
AcDbEntity
8
1
62
256
6
ByLayer
370
18
48
1
60
0
100
AcDbLine
10
83.873787
20
-17.451076
30
0
11
83.947572
21
-16.912026
31
0
39
0
210
0
220
0
230
1
0
LINE
5
193
100
AcDbEntity
8
1
62
256
6
ByLayer
370
18
48
1
60
0
100
AcDbLine
10
83.152253
20
-17.772833
30
0
11
82.915282
21
-18.52706
31
0
39
0
210
0
220
0
230
1
0
LINE
5
194
100
AcDbEntity
8
1
62
256
6
ByLayer
370
18
48
1
60
0
100
AcDbLine
10
92.363751
20
-18.789567
30
0
11
83.827591
21
-17.723847
31
0
39
0
210
0
220
0
230
1
0
LINE
5
195
100
AcDbEntity
8
1
62
256
6
ByLayer
370
18
48
1
60
0
100
AcDbLine
10
81.569844
20
-20.239041
30
0
11
81.647658
21
-19.917981
31
0
39
0
210
0
220
0
230
1
0
LINE
5
196
100
AcDbEntity
8
1
62
256
6
ByLayer
370
18
48
1
60
0
100
AcDbLine
10
95.210878
20
-17.268773
30
0
11
95.048847
21
-15.871661
31
0
39
0
210
0
220
0
230
1
0
LINE
5
197
100
AcDbEntity
8
1
62
256
6
ByLayer
370
18
48
1
60
0
100
AcDbLine
10
94.834322
20
-14.492065
30
0
11
94.934165
21
-15.151703
31
0
39
0
210
0
220
0
230
1
0
LINE
5
198
100
AcDbEntity
8
1
62
256
6
ByLayer
370
18
48
1
60
0
100
AcDbLine
10
92.862657
20
-22.155998
30
0
11
82.58119
21
-20.872381
31
0
39
0
210
0
220
0
230
1
0
LINE
5
199
100
AcDbEntity
8
1
62
256
6
ByLayer
370
18
48
1
60
0
100
AcDbLine
10
92.862657
20
-22.155998
30
0
11
93.077996
21
-20.188645
31
0
39
0
210
0
220
0
230
1
0
LINE
5
19A
100
AcDbEntity
8
1
62
256
6
ByLayer
370
18
48
1
60
0
100
AcDbLine
10
92.952863
20
-22.167076
30
0
11
93.130284
21
-20.518774
31
0
39
0
210
0
220
0
230
1
0
LINE
5
19B
100
AcDbEntity
8
1
62
256
6
ByLayer
370
18
48
1
60
0
100
AcDbLine
10
93.160444
20
-22.190774
30
0
11
93.256723
21
-21.251325
31
0
39
0
210
0
220
0
230
1
0
LINE
5
19C
100
AcDbEntity
8
1
62
256
6
ByLayer
370
18
48
1
60
0
100
AcDbLine
10
93.273116
20
-22.197406
30
0
11
93.325382
21
-21.289375
31
0
39
0
210
0
220
0
230
1
0
LINE
5
19D
100
AcDbEntity
8
1
62
256
6
ByLayer
370
18
48
1
60
0
100
AcDbLine
10
92.409948
20
-18.516795
30
0
11
92.483733
21
-17.977746
31
0
39
0
210
0
220
0
230
1
0
LINE
5
19E
100
AcDbEntity
8
1
62
256
6
ByLayer
370
18
48
1
60
0
100
AcDbLine
10
92.976372
20
-18.999351
30
0
11
93.04407
21
-19.791616
31
0
39
0
210
0
220
0
230
1
0
LINE
5
19F
100
AcDbEntity
8
1
62
256
6
ByLayer
370
18
48
1
60
0
100
AcDbLine
10
93.04407
20
-19.791616
30
0
11
93.077996
21
-20.188645
31
0
39
0
210
0
220
0
230
1
0
LINE
5
1A0
100
AcDbEntity
8
1
62
256
6
ByLayer
370
18
48
1
60
0
100
AcDbLine
10
93.86552
20
-19.560922
30
0
11
94.934165
21
-15.151703
31
0
39
0
210
0
220
0
230
1
0
LINE
5
1A1
100
AcDbEntity
8
1
62
256
6
ByLayer
370
18
48
1
60
0
100
AcDbLine
10
93.899445
20
-19.957951
30
0
11
94.11258
21
-21.804972
31
0
39
0
210
0
220
0
230
1
0
LINE
5
1A2
100
AcDbEntity
8
1
62
256
6
ByLayer
370
18
48
1
60
0
100
AcDbLine
10
93.924452
20
-20.295742
30
0
11
94.102657
21
-21.84417
31
0
39
0
210
0
220
0
230
1
0
LINE
5
1A3
100
AcDbEntity
8
1
62
256
6
ByLayer
370
18
48
1
60
0
100
AcDbLine
10
93.935997
20
-20.463271
30
0
11
94.096856
21
-21.865216
31
0
39
0
210
0
220
0
230
1
0
LINE
5
1A4
100
AcDbEntity
8
1
62
256
6
ByLayer
370
18
48
1
60
0
100
AcDbLine
10
93.974966
20
-21.049616
30
0
11
94.075866
21
-21.933689
31
0
39
0
210
0
220
0
230
1
0
LINE
5
1A5
100
AcDbEntity
8
1
62
256
6
ByLayer
370
18
48
1
60
0
100
AcDbLine
10
93.797822
20
-18.768657
30
0
11
94.834322
21
-14.492065
31
0
39
0
210
0
220
0
230
1
0
LINE
5
1A6
100
AcDbEntity
8
1
62
256
6
ByLayer
370
18
48
1
60
0
100
AcDbLine
10
94.469158
20
-14.735292
30
0
11
93.568544
21
-18.451215
31
0
39
0
210
0
220
0
230
1
0
LINE
5
1A7
100
AcDbEntity
8
1
62
256
6
ByLayer
370
18
48
1
60
0
100
AcDbLine
10
93.355163
20
-17.923495
30
0
11
93.2699
21
-18.275288
31
0
39
0
210
0
220
0
230
1
0
LINE
5
1A8
100
AcDbEntity
8
1
62
256
6
ByLayer
370
18
48
1
60
0
100
AcDbLine
10
93.2699
20
-18.275288
30
0
11
93.080159
21
-18.002757
31
0
39
0
210
0
220
0
230
1
0
LINE
5
1A9
100
AcDbEntity
8
1
62
256
6
ByLayer
370
18
48
1
60
0
100
AcDbLine
10
94.047585
20
-21.979905
30
0
11
93.960493
21
-21.111012
31
0
39
0
210
0
220
0
230
1
0
LINE
5
1AA
100
AcDbEntity
8
1
62
256
6
ByLayer
370
18
48
1
60
0
100
AcDbLine
10
93.797822
20
-18.768657
30
0
11
93.86552
21
-19.560922
31
0
39
0
210
0
220
0
230
1
0
LINE
5
1AB
100
AcDbEntity
8
1
62
256
6
ByLayer
370
18
48
1
60
0
100
AcDbLine
10
93.86552
20
-19.560922
30
0
11
93.899445
21
-19.957951
31
0
39
0
210
0
220
0
230
1
0
LINE
5
1AC
100
AcDbEntity
8
1
62
256
6
ByLayer
370
18
48
1
60
0
100
AcDbLine
10
95.197334
20
-17.329289
30
0
11
94.11258
21
-21.804972
31
0
39
0
210
0
220
0
230
1
0
LINE
5
1AD
100
AcDbEntity
8
1
62
256
6
ByLayer
370
18
48
1
60
0
100
AcDbLine
10
90.6
20
9.974297
30
0
11
90.6
21
0.636909
31
0
39
0
210
0
220
0
230
1
0
LINE
5
1AE
100
AcDbEntity
8
1
62
256
6
ByLayer
370
18
48
1
60
0
100
AcDbLine
10
89.8
20
2.013226
30
0
11
89.8
21
10.774297
31
0
39
0
210
0
220
0
230
1
0
LINE
5
1AF
100
AcDbEntity
8
1
62
256
6
ByLayer
370
18
48
1
60
0
100
AcDbLine
10
41.57101
20
35.520292
30
0
11
61.5
21
28.546875
31
0
39
0
210
0
220
0
230
1
0
LINE
5
1B0
100
AcDbEntity
8
1
62
256
6
ByLayer
370
18
48
1
60
0
100
AcDbLine
10
0.3
20
-40
30
0
11
0.3
21
40
31
0
39
0
210
0
220
0
230
1
0
LINE
5
1B1
100
AcDbEntity
8
1
62
256
6
ByLayer
370
18
48
1
60
0
100
AcDbLine
10
54
20
-19.437718
30
0
11
54
21
17.337176
31
0
39
0
210
0
220
0
230
1
0
LINE
5
1B2
100
AcDbEntity
8
1
62
256
6
ByLayer
370
18
48
1
60
0
100
AcDbLine
10
52.657695
20
-18.852395
30
0
11
45.653365
21
-18.852395
31
0
39
0
210
0
220
0
230
1
0
LINE
5
1B3
100
AcDbEntity
8
1
62
256
6
ByLayer
370
18
48
1
60
0
100
AcDbLine
10
44.702131
20
-19.027067
30
0
11
45.808691
21
-18.852358
31
0
39
0
210
0
220
0
230
1
0
LINE
5
1B4
100
AcDbEntity
8
1
62
256
6
ByLayer
370
18
48
1
60
0
100
AcDbLine
10
60
20
-7.931856
30
0
11
60
21
13.577945
31
0
39
0
210
0
220
0
230
1
0
LINE
5
1B5
100
AcDbEntity
8
1
62
256
6
ByLayer
370
18
48
1
60
0
100
AcDbLine
10
52.657695
20
-18.852395
30
0
11
52.657695
21
19.019993
31
0
39
0
210
0
220
0
230
1
0
LINE
5
1B6
100
AcDbEntity
8
1
62
256
6
ByLayer
370
18
48
1
60
0
100
AcDbLine
10
55.66426
20
37.34388
30
0
11
61.5
21
37.649718
31
0
39
0
210
0
220
0
230
1
0
LINE
5
1B7
100
AcDbEntity
8
1
62
256
6
ByLayer
370
18
48
1
60
0
100
AcDbLine
10
10.105662
20
37.944501
30
0
11
10.105662
21
12.6576
31
0
39
0
210
0
220
0
230
1
0
LINE
5
1B8
100
AcDbEntity
8
1
62
256
6
ByLayer
370
18
48
1
60
0
100
AcDbLine
10
10.538675
20
38.115458
30
0
11
10.538675
21
12.13309
31
0
39
0
210
0
220
0
230
1
0
LINE
5
1B9
100
AcDbEntity
8
1
62
256
6
ByLayer
370
18
48
1
60
0
100
AcDbLine
10
13.894338
20
37.944501
30
0
11
13.894338
21
12.6576
31
0
39
0
210
0
220
0
230
1
0
LINE
5
1BA
100
AcDbEntity
8
1
62
256
6
ByLayer
370
18
48
1
60
0
100
AcDbLine
10
0
20
-39.7
30
0
11
0
21
39.7
31
0
39
0
210
0
220
0
230
1
0
LINE
5
1BB
100
AcDbEntity
8
1
62
256
6
ByLayer
370
18
48
1
60
0
100
AcDbLine
10
71
20
-11.136588
30
0
11
71.35349
21
-10.778741
31
0
39
0
210
0
220
0
230
1
0
LINE
5
1BC
100
AcDbEntity
8
1
62
256
6
ByLayer
370
18
48
1
60
0
100
AcDbLine
10
10.105662
20
-12.6576
30
0
11
10.105662
21
-37.944501
31
0
39
0
210
0
220
0
230
1
0
LINE
5
1BD
100
AcDbEntity
8
1
62
256
6
ByLayer
370
18
48
1
60
0
100
AcDbLine
10
10.538675
20
-12.13309
30
0
11
10.538675
21
-38.115458
31
0
39
0
210
0
220
0
230
1
0
LINE
5
1BE
100
AcDbEntity
8
1
62
256
6
ByLayer
370
18
48
1
60
0
100
AcDbLine
10
13.461325
20
-12.13309
30
0
11
13.461325
21
-38.115458
31
0
39
0
210
0
220
0
230
1
0
LINE
5
1BF
100
AcDbEntity
8
1
62
256
6
ByLayer
370
18
48
1
60
0
100
AcDbLine
10
61.5
20
-10.92068
30
0
11
71
21
-11.136588
31
0
39
0
210
0
220
0
230
1
0
LINE
5
1C0
100
AcDbEntity
8
1
62
256
6
ByLayer
370
18
48
1
60
0
100
AcDbLine
10
69.357887
20
9.716061
30
0
11
69.357887
21
25.592992
31
0
39
0
210
0
220
0
230
1
0
LINE
5
1C1
100
AcDbEntity
8
1
62
256
6
ByLayer
370
18
48
1
60
0
100
AcDbLine
10
69.424157
20
25.283413
30
0
11
70.115094
21
19.769255
31
0
39
0
210
0
220
0
230
1
0
LINE
5
1C2
100
AcDbEntity
8
1
62
256
6
ByLayer
370
18
48
1
60
0
100
AcDbLine
10
61.5
20
-19.764751
30
0
11
61.5
21
-10.92068
31
0
39
0
210
0
220
0
230
1
0
LINE
5
1C3
100
AcDbEntity
8
1
62
256
6
ByLayer
370
18
48
1
60
0
100
AcDbLine
10
62.002949
20
-16.029994
30
0
11
61.5
21
-16.109401
31
0
39
0
210
0
220
0
230
1
0
LINE
5
1C4
100
AcDbEntity
8
1
62
256
6
ByLayer
370
18
48
1
60
0
100
AcDbLine
10
61.5
20
37.649718
30
0
11
62.003055
21
37.676082
31
0
39
0
210
0
220
0
230
1
0
LINE
5
1C5
100
AcDbEntity
8
1
62
256
6
ByLayer
370
18
48
1
60
0
100
AcDbLine
10
52.657695
20
35.545862
30
0
11
42.591167
21
35.545862
31
0
39
0
210
0
220
0
230
1
0
LINE
5
1C6
100
AcDbEntity
8
1
62
256
6
ByLayer
370
18
48
1
60
0
100
AcDbLine
10
62.003028
20
-16.633532
30
0
11
61.5
21
-16.712953
31
0
39
0
210
0
220
0
230
1
0
LINE
5
1C7
100
AcDbEntity
8
1
62
256
6
ByLayer
370
18
48
1
60
0
100
AcDbLine
10
61.5
20
28.92941
30
0
11
61.5
21
37.649718
31
0
39
0
210
0
220
0
230
1
0
LINE
5
1C8
100
AcDbEntity
8
1
62
256
6
ByLayer
370
18
48
1
60
0
100
AcDbLine
10
54
20
37.092305
30
0
11
54
21
36.895594
31
0
39
0
210
0
220
0
230
1
0
LINE
5
1C9
100
AcDbEntity
8
1
62
256
6
ByLayer
370
18
48
1
60
0
100
AcDbLine
10
52.657695
20
35.75
30
0
11
52.657695
21
35.545862
31
0
39
0
210
0
220
0
230
1
0
LINE
5
1CA
100
AcDbEntity
8
1
62
256
6
ByLayer
370
18
48
1
60
0
100
AcDbLine
10
30
20
-40
30
0
11
30
21
40
31
0
39
0
210
0
220
0
230
1
0
LINE
5
1CB
100
AcDbEntity
8
1
62
256
6
ByLayer
370
18
48
1
60
0
100
AcDbLine
10
61.5
20
28.92941
30
0
11
42.591167
21
35.545862
31
0
39
0
210
0
220
0
230
1
0
LINE
5
1CC
100
AcDbEntity
8
1
62
256
6
ByLayer
370
18
48
1
60
0
100
AcDbLine
10
69.357887
20
25.592992
30
0
11
69.424157
21
25.283413
31
0
39
0
210
0
220
0
230
1
0
LINE
5
1CD
100
AcDbEntity
8
1
62
256
6
ByLayer
370
18
48
1
60
0
100
AcDbLine
10
69.357887
20
25.592992
30
0
11
61.5
21
28.342571
31
0
39
0
210
0
220
0
230
1
0
LINE
5
1CE
100
AcDbEntity
8
1
62
256
6
ByLayer
370
18
48
1
60
0
100
AcDbLine
10
13.461325
20
38.115458
30
0
11
13.461325
21
12.13309
31
0
39
0
210
0
220
0
230
1
0
LINE
5
1CF
100
AcDbEntity
8
1
62
256
6
ByLayer
370
18
48
1
60
0
100
AcDbLine
10
69.357887
20
-37.299765
30
0
11
69.357887
21
-22.812134
31
0
39
0
210
0
220
0
230
1
0
LINE
5
1D0
100
AcDbEntity
8
1
62
256
6
ByLayer
370
18
48
1
60
0
100
AcDbLine
10
13.894338
20
-12.6576
30
0
11
13.894338
21
-37.944501
31
0
39
0
210
0
220
0
230
1
0
LINE
5
1D1
100
AcDbEntity
8
1
62
256
6
ByLayer
370
18
48
1
60
0
100
AcDbLine
10
10.538675
20
-38.115458
30
0
11
13.461325
21
-38.115458
31
0
39
0
210
0
220
0
230
1
0
LINE
5
1D2
100
AcDbEntity
8
1
62
256
6
ByLayer
370
18
48
1
60
0
100
AcDbLine
10
52.657695
20
-35.75
30
0
11
52.657695
21
-35.725007
31
0
39
0
210
0
220
0
230
1
0
LINE
5
1D3
100
AcDbEntity
8
1
62
256
6
ByLayer
370
18
48
1
60
0
100
AcDbLine
10
32.453739
20
-35.75
30
0
11
32.453739
21
35.75
31
0
39
0
210
0
220
0
230
1
0
LINE
5
1D4
100
AcDbEntity
8
1
62
256
6
ByLayer
370
18
48
1
60
0
100
AcDbLine
10
13.461325
20
38.115458
30
0
11
10.538675
21
38.115458
31
0
39
0
210
0
220
0
230
1
0
LINE
5
1D5
100
AcDbEntity
8
1
62
256
6
ByLayer
370
18
48
1
60
0
100
AcDbLine
10
61.5
20
28.546875
30
0
11
61.5
21
28.342571
31
0
39
0
210
0
220
0
230
1
0
LINE
5
1D6
100
AcDbEntity
8
1
62
256
6
ByLayer
370
18
48
1
60
0
100
AcDbLine
10
55.66426
20
-19.632122
30
0
11
61.5
21
-19.764751
31
0
39
0
210
0
220
0
230
1
0
LINE
5
1D7
100
AcDbEntity
8
1
62
256
6
ByLayer
370
18
48
1
60
0
100
AcDbLine
10
10.538675
20
12.13309
30
0
11
13.461325
21
12.13309
31
0
39
0
210
0
220
0
230
1
0
LINE
5
1D8
100
AcDbEntity
8
1
62
256
6
ByLayer
370
18
48
1
60
0
100
AcDbLine
10
13.461325
20
-12.13309
30
0
11
10.538675
21
-12.13309
31
0
39
0
210
0
220
0
230
1
0
MTEXT
5
353
100
AcDbEntity
8
SK6
62
256
6
ByLayer
370
18
48
1
60
0
100
AcDbMText
10
102.75
20
59.25
30
0
210
0
220
0
230
1
1
\W0.7354;BR30-107SP12Y-C8
40
3
41
0
44
1.084337
50
0
71
7
72
5
7
iso_b_vert
0
MTEXT
5
357
100
AcDbEntity
8
2
62
256
6
ByLayer
370
18
48
1
60
0
100
AcDbMText
10
135.75
20
-14.1
30
0
210
0
220
0
230
1
1
\W0.7839;Dc = 96.0 - 107.0
40
3
41
0
44
1.084337
50
89.9999999999996
71
7
72
5
7
iso_b_vert
0
DIMENSION
5
364
100
AcDbEntity
8
SK2
62
256
6
ByLayer
370
13
48
1
60
0
100
AcDbDimension
2
DimnDraft3D1
10
-68.097843
20
-40
30
0
11
-67.597843
21
-2.889474
31
0
70
33
71
5
72
1
41
1
210
0
220
0
230
1
3
Standard
100
AcDbAlignedDimension
13
-1.7
23
40
33
0
14
-1.7
24
-40
34
0
1001
ACAD
1000
DSTYLE
1002
{
1070
   279
1070
     0
1070
    74
1070
     0
1070
   173
1070
     1
1070
   340
1005
354
1070
   271
1070
     0
1070
   272
1070
     3
1070
    77
1070
     1
1070
    73
1070
     0
1070
   171
1070
     4
1070
   274
1070
     4
1070
   177
1070
     7
1070
   176
1070
     7
1070
   178
1070
     7
1070
    78
1070
     8
1070
    41
1041
3.175
1070
   147
1041
1.5
1070
    42
1041
2.0
1070
    44
1041
2.0
1070
   140
1041
3.0
1070
   343
1005
0
1070
   344
1005
0
1002
}
0
DIMENSION
5
36E
100
AcDbEntity
8
2
62
256
6
ByLayer
370
13
48
1
60
0
100
AcDbDimension
2
DimnDraft3D2
10
136.5
20
48
30
0
11
136.5
21
-0.434211
31
0
70
32
71
5
72
1
41
1
210
0
220
0
230
1
3
Standard
100
AcDbAlignedDimension
13
95.285079
23
-48
33
0
14
108
24
48
34
0
50
90
100
AcDbRotatedDimension
1001
ACAD
1000
DSTYLE
1002
{
1070
    74
1070
     0
1070
   279
1070
     0
1070
   172
1070
     1
1070
   173
1070
     1
1070
   340
1005
354
1070
   271
1070
     0
1070
   272
1070
     3
1070
    77
1070
     1
1070
    73
1070
     0
1070
   171
1070
     4
1070
   274
1070
     4
1070
   177
1070
     7
1070
   176
1070
     7
1070
   178
1070
     7
1070
    78
1070
     8
1070
    41
1041
3.175
1070
   147
1041
1.5
1070
    42
1041
2.0
1070
    44
1041
2.0
1070
   140
1041
3.0
1070
   343
1005
0
1070
   344
1005
0
1002
}
0
DIMENSION
5
378
100
AcDbEntity
8
2
62
256
6
ByLayer
370
13
48
1
60
0
100
AcDbDimension
2
DimnDraft3D3
10
94
20
73.5
30
0
11
45.089474
21
73.5
31
0
70
32
71
5
72
1
41
1
210
0
220
0
230
1
3
Standard
100
AcDbAlignedDimension
13
0
23
41.7
33
0
14
94
24
50
34
0
50
0
100
AcDbRotatedDimension
1001
ACAD
1000
DSTYLE
1002
{
1070
   279
1070
     0
1070
   172
1070
     1
1070
   173
1070
     1
1070
   340
1005
354
1070
   271
1070
     0
1070
   272
1070
     3
1070
    77
1070
     1
1070
    73
1070
     0
1070
   171
1070
     4
1070
   274
1070
     4
1070
   177
1070
     7
1070
   176
1070
     7
1070
   178
1070
     7
1070
    78
1070
     8
1070
    41
1041
3.175
1070
   147
1041
1.5
1070
    42
1041
2.0
1070
    44
1041
2.0
1070
   140
1041
3.0
1070
   343
1005
0
1070
   344
1005
0
1002
}
0
DIMENSION
5
382
100
AcDbEntity
8
SK2
62
256
6
ByLayer
370
13
48
1
60
0
100
AcDbDimension
2
DimnDraft3D4
10
94
20
88.5
30
0
11
20.363158
21
88.5
31
0
70
32
71
5
72
1
41
1
210
0
220
0
230
1
3
Standard
100
AcDbAlignedDimension
13
-48
23
27.499074
33
0
14
94
24
50
34
0
50
0
100
AcDbRotatedDimension
1001
ACAD
1000
DSTYLE
1002
{
1070
   279
1070
     0
1070
   172
1070
     1
1070
   173
1070
     1
1070
   340
1005
354
1070
   271
1070
     0
1070
   272
1070
     3
1070
    77
1070
     1
1070
    73
1070
     0
1070
   171
1070
     4
1070
   274
1070
     4
1070
   177
1070
     7
1070
   176
1070
     7
1070
   178
1070
     7
1070
    78
1070
     8
1070
    41
1041
3.175
1070
   147
1041
1.5
1070
    42
1041
2.0
1070
    44
1041
2.0
1070
   140
1041
3.0
1070
   343
1005
0
1070
   344
1005
0
1002
}
0
DIMENSION
5
38C
100
AcDbEntity
8
2
62
256
6
ByLayer
370
13
48
1
60
0
100
AcDbDimension
2
DimnDraft3D5
10
95
20
48
30
0
11
109.678456
21
33.885699
31
0
70
34
71
5
72
1
41
1
210
0
220
0
230
1
3
Standard
100
AcDb2LineAngularDimension
13
95.197334
23
36.636073
33
0
14
94.11258
24
46.956814
34
0
15
94
25
48
35
0
16
111.907891
26
31.878307
36
0
40
0
0
ENDSEC
0
SECTION
2
OBJECTS
0
DICTIONARY
5
3fd
330
0
100
AcDbDictionary
280
0
281
1
3
ACAD_GROUP
350
3fe
3
ACAD_GROUP
350
3ff
3
ACAD_MLINESTYLE
350
400
0
DICTIONARY
5
3fe
330
0
100
AcDbDictionary
280
0
281
1
0
DICTIONARY
5
3ff
330
0
100
AcDbDictionary
280
0
281
1
3
_DC
350
398
3
_DC_55
350
397
3
<200932435NDI000_00>
350
399
3
<200936956MOD000_00>
350
395
3
R820E_BR22SSYC12A_A1
350
396
0
DICTIONARY
5
400
330
0
100
AcDbDictionary
280
0
281
1
3
Standard
350
18
0
GROUP
5
398
330
3ff
100
AcDbGroup
300

70
0
71
1
340
357
0
GROUP
5
397
330
3ff
100
AcDbGroup
300

70
0
71
1
340
357
340
357
0
GROUP
5
399
330
3ff
100
AcDbGroup
300

70
0
71
1
340
86
340
87
340
88
340
89
340
8A
340
8B
340
8C
340
8D
340
8E
340
8F
340
90
340
91
340
92
340
93
340
94
340
95
340
96
340
97
340
98
340
99
340
9A
340
9B
340
9C
340
9D
340
9E
340
9F
340
A0
340
A1
340
A2
340
A3
340
A4
340
A5
340
A6
340
A7
340
A8
340
A9
340
AA
340
AB
340
AC
340
AD
340
AE
340
AF
340
B0
340
B1
340
B2
340
B3
340
B4
340
B5
340
B6
340
B7
340
B8
340
B9
340
BA
340
BB
340
BC
340
BD
340
BE
340
BF
340
C0
340
C1
340
C2
340
C3
340
C4
340
C5
340
C6
340
C7
340
C8
340
C9
340
CA
340
CB
340
CC
340
CD
340
CE
340
CF
340
D0
340
D1
340
D2
340
D3
340
D4
340
D5
340
D6
340
D7
340
D8
340
D9
340
DA
340
DB
340
DC
340
DD
340
DE
340
DF
340
E0
340
E1
340
E2
340
E3
340
E4
340
E5
340
E6
340
E7
340
E8
340
E9
340
EA
340
EB
340
EC
340
ED
340
EE
340
EF
340
F0
340
F1
340
F2
340
F3
340
F4
340
F5
340
F6
340
F7
340
F8
340
F9
340
FA
340
FB
340
FC
340
FD
340
FE
340
FF
340
100
340
101
340
102
340
103
340
104
340
105
340
106
340
107
340
108
340
109
340
10A
340
10B
340
10C
340
10D
340
10E
340
10F
340
110
340
111
340
112
340
113
340
114
340
115
340
116
340
117
340
118
340
119
340
11A
340
11B
340
11C
340
11D
340
11E
340
11F
340
120
340
121
340
122
340
123
340
124
340
125
340
126
340
127
340
128
340
129
340
12A
340
12B
340
12C
340
12D
340
12E
340
12F
340
130
340
131
340
132
340
133
340
134
340
135
340
136
340
137
340
138
340
139
340
13A
340
13B
340
13C
340
13D
340
13E
340
13F
340
140
340
141
340
142
340
143
340
144
340
145
340
146
340
147
340
148
340
149
340
14A
340
14B
340
14C
340
14D
340
14E
340
14F
340
150
340
151
340
152
340
153
340
154
340
155
340
156
340
157
340
158
340
159
340
15A
340
15B
340
15C
340
15D
340
15E
340
15F
340
160
340
161
340
162
340
163
340
164
340
165
340
166
340
167
340
168
340
169
340
16A
340
16B
340
16C
340
16D
340
16E
340
16F
340
170
340
171
340
172
340
173
340
174
340
175
340
176
340
177
340
178
340
179
340
17A
340
17B
340
17C
340
17D
340
17E
340
17F
340
180
340
181
340
182
340
183
340
184
340
185
340
186
340
187
340
188
340
189
340
18A
340
18B
340
18C
340
18D
340
18E
340
18F
340
190
340
191
340
192
340
193
340
194
340
195
340
196
340
197
340
198
340
199
340
19A
340
19B
340
19C
340
19D
340
19E
340
19F
340
1A0
340
1A1
340
1A2
340
1A3
340
1A4
340
1A5
340
1A6
340
1A7
340
1A8
340
1A9
340
1AA
340
1AB
340
1AC
340
1AD
340
1AE
340
1AF
340
1B0
340
1B1
340
1B2
340
1B3
340
1B4
340
1B5
340
1B6
340
1B7
340
1B8
340
1B9
340
1BA
340
1BB
340
1BC
340
1BD
340
1BE
340
1BF
340
1C0
340
1C1
340
1C2
340
1C3
340
1C4
340
1C5
340
1C6
340
1C7
340
1C8
340
1C9
340
1CA
340
1CB
340
1CC
340
1CD
340
1CE
340
1CF
340
1D0
340
1D1
340
1D2
340
1D3
340
1D4
340
1D5
340
1D6
340
1D7
340
1D8
340
1DC
340
1DD
340
1DE
340
1DF
340
1E0
340
1E1
340
1E2
340
1E3
340
1E4
340
1E5
340
1E6
340
1E7
340
1E8
340
1E9
340
1EA
340
1EB
340
1EC
340
1ED
340
1EE
340
1EF
340
1F0
340
1F1
340
1F2
340
1F3
340
1F4
340
1F5
340
1F6
340
1F7
340
1F8
340
1F9
340
1FA
340
1FB
340
1FC
340
1FD
340
1FE
340
1FF
340
200
340
201
340
202
340
203
340
204
340
205
340
206
340
207
340
208
340
209
340
20A
340
20B
340
20C
340
20D
340
20E
340
20F
340
210
340
211
340
212
340
213
340
214
340
215
340
216
340
217
340
218
340
219
340
21A
340
21B
340
21C
340
21D
340
21E
340
21F
340
220
340
221
340
222
340
223
340
224
340
225
340
226
340
227
340
228
340
229
340
22A
340
22B
340
22C
340
22D
340
22E
340
22F
340
230
340
231
340
232
340
233
340
234
340
235
340
236
340
237
340
238
340
239
340
23A
340
23B
340
23C
340
23D
340
23E
340
23F
340
240
340
241
340
242
340
243
340
244
340
245
340
246
340
247
340
248
340
249
340
24A
340
24B
340
24C
340
24D
340
24E
340
24F
340
250
340
251
340
252
340
253
340
254
340
255
340
256
340
257
340
258
340
259
340
25A
340
25B
340
25C
340
25D
340
25E
340
25F
340
260
340
261
340
262
340
263
340
264
340
265
340
266
340
267
340
268
340
269
340
26A
340
26B
340
26C
340
26D
340
26E
340
26F
340
270
340
271
340
272
340
273
340
274
340
275
340
276
340
277
340
278
340
279
340
27A
340
27B
340
27C
340
27D
340
27E
340
27F
340
280
340
281
340
282
340
283
340
284
340
285
340
286
340
287
340
288
340
289
340
28A
340
28B
340
28C
340
28D
340
28E
340
28F
340
290
340
291
340
292
340
293
340
294
340
295
340
296
340
297
340
298
340
299
340
29A
340
29B
340
29C
340
29D
340
29E
340
29F
340
2A0
340
2A1
340
2A2
340
2A3
340
2A4
340
2A5
340
2A6
340
2A7
340
2A8
340
2A9
340
2AA
340
2AB
340
2AC
340
2AD
340
2AE
340
2AF
340
2B0
340
2B1
340
2B2
340
2B3
340
2B4
340
2B5
340
2B6
340
2B7
340
2B8
340
2B9
340
2BA
340
2BB
340
2BC
340
2BD
340
2BE
340
2BF
340
2C0
340
2C1
340
2C2
340
2C3
340
2C4
340
2C5
340
2C6
340
2C7
340
2C8
340
2DC
340
2DD
340
2DE
340
2DF
340
2E0
340
2E1
340
2E2
340
2E3
340
2E4
340
2E5
340
2E6
340
2E7
340
2E8
340
2E9
340
2EA
340
2EB
340
2EC
340
2ED
340
2EE
340
2EF
340
2F0
340
2F1
340
2F2
340
2F3
340
2F4
340
2F5
340
2F6
340
2F7
340
2F8
340
2F9
340
2FA
340
2FB
340
2FC
340
2FD
340
2FE
340
2FF
340
300
340
301
340
302
340
303
340
304
340
305
340
306
340
307
340
308
340
309
340
30A
340
30B
340
30C
340
30D
340
30E
340
30F
340
310
340
311
340
312
340
313
340
314
340
315
340
316
340
317
340
318
340
319
340
31A
340
31B
340
31C
340
31D
340
31E
340
31F
340
320
340
321
340
322
340
323
340
324
340
325
340
326
340
327
340
328
340
329
340
32A
340
32B
340
32C
340
32D
340
32E
340
32F
340
330
340
331
340
332
340
333
340
334
340
335
340
336
340
337
340
338
340
339
340
33A
340
33B
340
33C
340
33D
340
33E
340
33F
340
340
340
341
340
342
340
343
340
344
340
345
340
346
340
347
340
348
340
349
340
34A
340
34B
340
34C
340
34D
340
34E
340
34F
340
350
340
351
340
352
0
GROUP
5
395
330
3ff
100
AcDbGroup
300

70
0
71
1
340
6C
340
6E
340
70
340
72
340
73
340
74
340
75
340
76
340
77
340
78
340
79
340
7A
340
7B
340
7C
340
7D
340
7F
340
81
340
82
340
84
340
85
340
86
340
87
340
88
340
89
340
8A
340
8B
340
8C
340
8D
340
8E
340
8F
340
90
340
91
340
92
340
93
340
94
340
95
340
96
340
97
340
98
340
99
340
9A
340
9B
340
9C
340
9D
340
9E
340
9F
340
A0
340
A1
340
A2
340
A3
340
A4
340
A5
340
A6
340
A7
340
A8
340
A9
340
AA
340
AB
340
AC
340
AD
340
AE
340
AF
340
B0
340
B1
340
B2
340
B3
340
B4
340
B5
340
B6
340
B7
340
B8
340
B9
340
BA
340
BB
340
BC
340
BD
340
BE
340
BF
340
C0
340
C1
340
C2
340
C3
340
C4
340
C5
340
C6
340
C7
340
C8
340
C9
340
CA
340
CB
340
CC
340
CD
340
CE
340
CF
340
D0
340
D1
340
D2
340
D3
340
D4
340
D5
340
D6
340
D7
340
D8
340
D9
340
DA
340
DB
340
DC
340
DD
340
DE
340
DF
340
E0
340
E1
340
E2
340
E3
340
E4
340
E5
340
E6
340
E7
340
E8
340
E9
340
EA
340
EB
340
EC
340
ED
340
EE
340
EF
340
F0
340
F1
340
F2
340
F3
340
F4
340
F5
340
F6
340
F7
340
F8
340
F9
340
FA
340
FB
340
FC
340
FD
340
FE
340
FF
340
100
340
101
340
102
340
103
340
104
340
105
340
106
340
107
340
108
340
109
340
10A
340
10B
340
10C
340
10D
340
10E
340
10F
340
110
340
111
340
112
340
113
340
114
340
115
340
116
340
117
340
118
340
119
340
11A
340
11B
340
11C
340
11D
340
11E
340
11F
340
120
340
121
340
122
340
123
340
124
340
125
340
126
340
127
340
128
340
129
340
12A
340
12B
340
12C
340
12D
340
12E
340
12F
340
130
340
131
340
132
340
133
340
134
340
135
340
136
340
137
340
138
340
139
340
13A
340
13B
340
13C
340
13D
340
13E
340
13F
340
140
340
141
340
142
340
143
340
144
340
145
340
146
340
147
340
148
340
149
340
14A
340
14B
340
14C
340
14D
340
14E
340
14F
340
150
340
151
340
152
340
153
340
154
340
155
340
156
340
157
340
158
340
159
340
15A
340
15B
340
15C
340
15D
340
15E
340
15F
340
160
340
161
340
162
340
163
340
164
340
165
340
166
340
167
340
168
340
169
340
16A
340
16B
340
16C
340
16D
340
16E
340
16F
340
170
340
171
340
172
340
173
340
174
340
175
340
176
340
177
340
178
340
179
340
17A
340
17B
340
17C
340
17D
340
17E
340
17F
340
180
340
181
340
182
340
183
340
184
340
185
340
186
340
187
340
188
340
189
340
18A
340
18B
340
18C
340
18D
340
18E
340
18F
340
190
340
191
340
192
340
193
340
194
340
195
340
196
340
197
340
198
340
199
340
19A
340
19B
340
19C
340
19D
340
19E
340
19F
340
1A0
340
1A1
340
1A2
340
1A3
340
1A4
340
1A5
340
1A6
340
1A7
340
1A8
340
1A9
340
1AA
340
1AB
340
1AC
340
1AD
340
1AE
340
1AF
340
1B0
340
1B1
340
1B2
340
1B3
340
1B4
340
1B5
340
1B6
340
1B7
340
1B8
340
1B9
340
1BA
340
1BB
340
1BC
340
1BD
340
1BE
340
1BF
340
1C0
340
1C1
340
1C2
340
1C3
340
1C4
340
1C5
340
1C6
340
1C7
340
1C8
340
1C9
340
1CA
340
1CB
340
1CC
340
1CD
340
1CE
340
1CF
340
1D0
340
1D1
340
1D2
340
1D3
340
1D4
340
1D5
340
1D6
340
1D7
340
1D8
340
1D9
340
1DA
340
1DB
340
1DC
340
1DD
340
1DE
340
1DF
340
1E0
340
1E1
340
1E2
340
1E3
340
1E4
340
1E5
340
1E6
340
1E7
340
1E8
340
1E9
340
1EA
340
1EB
340
1EC
340
1ED
340
1EE
340
1EF
340
1F0
340
1F1
340
1F2
340
1F3
340
1F4
340
1F5
340
1F6
340
1F7
340
1F8
340
1F9
340
1FA
340
1FB
340
1FC
340
1FD
340
1FE
340
1FF
340
200
340
201
340
202
340
203
340
204
340
205
340
206
340
207
340
208
340
209
340
20A
340
20B
340
20C
340
20D
340
20E
340
20F
340
210
340
211
340
212
340
213
340
214
340
215
340
216
340
217
340
218
340
219
340
21A
340
21B
340
21C
340
21D
340
21E
340
21F
340
220
340
221
340
222
340
223
340
224
340
225
340
226
340
227
340
228
340
229
340
22A
340
22B
340
22C
340
22D
340
22E
340
22F
340
230
340
231
340
232
340
233
340
234
340
235
340
236
340
237
340
238
340
239
340
23A
340
23B
340
23C
340
23D
340
23E
340
23F
340
240
340
241
340
242
340
243
340
244
340
245
340
246
340
247
340
248
340
249
340
24A
340
24B
340
24C
340
24D
340
24E
340
24F
340
250
340
251
340
252
340
253
340
254
340
255
340
256
340
257
340
258
340
259
340
25A
340
25B
340
25C
340
25D
340
25E
340
25F
340
260
340
261
340
262
340
263
340
264
340
265
340
266
340
267
340
268
340
269
340
26A
340
26B
340
26C
340
26D
340
26E
340
26F
340
270
340
271
340
272
340
273
340
274
340
275
340
276
340
277
340
278
340
279
340
27A
340
27B
340
27C
340
27D
340
27E
340
27F
340
280
340
281
340
282
340
283
340
284
340
285
340
286
340
287
340
288
340
289
340
28A
340
28B
340
28C
340
28D
340
28E
340
28F
340
290
340
291
340
292
340
293
340
294
340
295
340
296
340
297
340
298
340
299
340
29A
340
29B
340
29C
340
29D
340
29E
340
29F
340
2A0
340
2A1
340
2A2
340
2A3
340
2A4
340
2A5
340
2A6
340
2A7
340
2A8
340
2A9
340
2AA
340
2AB
340
2AC
340
2AD
340
2AE
340
2AF
340
2B0
340
2B1
340
2B2
340
2B3
340
2B4
340
2B5
340
2B6
340
2B7
340
2B8
340
2B9
340
2BA
340
2BB
340
2BC
340
2BD
340
2BE
340
2BF
340
2C0
340
2C1
340
2C2
340
2C3
340
2C4
340
2C5
340
2C6
340
2C7
340
2C8
340
2C9
340
2CA
340
2CB
340
2CC
340
2CD
340
2CE
340
2CF
340
2D0
340
2D1
340
2D2
340
2D3
340
2D4
340
2D5
340
2D6
340
2D7
340
2D8
340
2D9
340
2DA
340
2DB
340
2DC
340
2DD
340
2DE
340
2DF
340
2E0
340
2E1
340
2E2
340
2E3
340
2E4
340
2E5
340
2E6
340
2E7
340
2E8
340
2E9
340
2EA
340
2EB
340
2EC
340
2ED
340
2EE
340
2EF
340
2F0
340
2F1
340
2F2
340
2F3
340
2F4
340
2F5
340
2F6
340
2F7
340
2F8
340
2F9
340
2FA
340
2FB
340
2FC
340
2FD
340
2FE
340
2FF
340
300
340
301
340
302
340
303
340
304
340
305
340
306
340
307
340
308
340
309
340
30A
340
30B
340
30C
340
30D
340
30E
340
30F
340
310
340
311
340
312
340
313
340
314
340
315
340
316
340
317
340
318
340
319
340
31A
340
31B
340
31C
340
31D
340
31E
340
31F
340
320
340
321
340
322
340
323
340
324
340
325
340
326
340
327
340
328
340
329
340
32A
340
32B
340
32C
340
32D
340
32E
340
32F
340
330
340
331
340
332
340
333
340
334
340
335
340
336
340
337
340
338
340
339
340
33A
340
33B
340
33C
340
33D
340
33E
340
33F
340
340
340
341
340
342
340
343
340
344
340
345
340
346
340
347
340
348
340
349
340
34A
340
34B
340
34C
340
34D
340
34E
340
34F
340
350
340
351
340
352
340
6E
340
82
340
84
340
85
340
1DB
340
357
340
357
340
357
340
353
340
357
340
36E
340
357
340
357
340
357
340
86
340
87
340
88
340
89
340
8A
340
8B
340
8C
340
8D
340
8E
340
8F
340
90
340
91
340
92
340
93
340
94
340
95
340
96
340
97
340
98
340
99
340
9A
340
9B
340
9C
340
9D
340
9E
340
9F
340
A0
340
A1
340
A2
340
A3
340
A4
340
A5
340
A6
340
A7
340
A8
340
A9
340
AA
340
AB
340
AC
340
AD
340
AE
340
AF
340
B0
340
B1
340
B2
340
B3
340
B4
340
B5
340
B6
340
B7
340
B8
340
B9
340
BA
340
BB
340
BC
340
BD
340
BE
340
BF
340
C0
340
C1
340
C2
340
C3
340
C4
340
C5
340
C6
340
C7
340
C8
340
C9
340
CA
340
CB
340
CC
340
CD
340
CE
340
CF
340
D0
340
D1
340
D2
340
D3
340
D4
340
D5
340
D6
340
D7
340
D8
340
D9
340
DA
340
DB
340
DC
340
DD
340
DE
340
DF
340
E0
340
E1
340
E2
340
E3
340
E4
340
E5
340
E6
340
E7
340
E8
340
E9
340
EA
340
EB
340
EC
340
ED
340
EE
340
EF
340
F0
340
F1
340
F2
340
F3
340
F4
340
F5
340
F6
340
F7
340
F8
340
F9
340
FA
340
FB
340
FC
340
FD
340
FE
340
FF
340
100
340
101
340
102
340
103
340
104
340
105
340
106
340
107
340
108
340
109
340
10A
340
10B
340
10C
340
10D
340
10E
340
10F
340
110
340
111
340
112
340
113
340
114
340
115
340
116
340
117
340
118
340
119
340
11A
340
11B
340
11C
340
11D
340
11E
340
11F
340
120
340
121
340
122
340
123
340
124
340
125
340
126
340
127
340
128
340
129
340
12A
340
12B
340
12C
340
12D
340
12E
340
12F
340
130
340
131
340
132
340
133
340
134
340
135
340
136
340
137
340
138
340
139
340
13A
340
13B
340
13C
340
13D
340
13E
340
13F
340
140
340
141
340
142
340
143
340
144
340
145
340
146
340
147
340
148
340
149
340
14A
340
14B
340
14C
340
14D
340
14E
340
14F
340
150
340
151
340
152
340
153
340
154
340
155
340
156
340
157
340
158
340
159
340
15A
340
15B
340
15C
340
15D
340
15E
340
15F
340
160
340
161
340
162
340
163
340
164
340
165
340
166
340
167
340
168
340
169
340
16A
340
16B
340
16C
340
16D
340
16E
340
16F
340
170
340
171
340
172
340
173
340
174
340
175
340
176
340
177
340
178
340
179
340
17A
340
17B
340
17C
340
17D
340
17E
340
17F
340
180
340
181
340
182
340
183
340
184
340
185
340
186
340
187
340
188
340
189
340
18A
340
18B
340
18C
340
18D
340
18E
340
18F
340
190
340
191
340
192
340
193
340
194
340
195
340
196
340
197
340
198
340
199
340
19A
340
19B
340
19C
340
19D
340
19E
340
19F
340
1A0
340
1A1
340
1A2
340
1A3
340
1A4
340
1A5
340
1A6
340
1A7
340
1A8
340
1A9
340
1AA
340
1AB
340
1AC
340
1AD
340
1AE
340
1AF
340
1B0
340
1B1
340
1B2
340
1B3
340
1B4
340
1B5
340
1B6
340
1B7
340
1B8
340
1B9
340
1BA
340
1BB
340
1BC
340
1BD
340
1BE
340
1BF
340
1C0
340
1C1
340
1C2
340
1C3
340
1C4
340
1C5
340
1C6
340
1C7
340
1C8
340
1C9
340
1CA
340
1CB
340
1CC
340
1CD
340
1CE
340
1CF
340
1D0
340
1D1
340
1D2
340
1D3
340
1D4
340
1D5
340
1D6
340
1D7
340
1D8
340
1DC
340
1DD
340
1DE
340
1DF
340
1E0
340
1E1
340
1E2
340
1E3
340
1E4
340
1E5
340
1E6
340
1E7
340
1E8
340
1E9
340
1EA
340
1EB
340
1EC
340
1ED
340
1EE
340
1EF
340
1F0
340
1F1
340
1F2
340
1F3
340
1F4
340
1F5
340
1F6
340
1F7
340
1F8
340
1F9
340
1FA
340
1FB
340
1FC
340
1FD
340
1FE
340
1FF
340
200
340
201
340
202
340
203
340
204
340
205
340
206
340
207
340
208
340
209
340
20A
340
20B
340
20C
340
20D
340
20E
340
20F
340
210
340
211
340
212
340
213
340
214
340
215
340
216
340
217
340
218
340
219
340
21A
340
21B
340
21C
340
21D
340
21E
340
21F
340
220
340
221
340
222
340
223
340
224
340
225
340
226
340
227
340
228
340
229
340
22A
340
22B
340
22C
340
22D
340
22E
340
22F
340
230
340
231
340
232
340
233
340
234
340
235
340
236
340
237
340
238
340
239
340
23A
340
23B
340
23C
340
23D
340
23E
340
23F
340
240
340
241
340
242
340
243
340
244
340
245
340
246
340
247
340
248
340
249
340
24A
340
24B
340
24C
340
24D
340
24E
340
24F
340
250
340
251
340
252
340
253
340
254
340
255
340
256
340
257
340
258
340
259
340
25A
340
25B
340
25C
340
25D
340
25E
340
25F
340
260
340
261
340
262
340
263
340
264
340
265
340
266
340
267
340
268
340
269
340
26A
340
26B
340
26C
340
26D
340
26E
340
26F
340
270
340
271
340
272
340
273
340
274
340
275
340
276
340
277
340
278
340
279
340
27A
340
27B
340
27C
340
27D
340
27E
340
27F
340
280
340
281
340
282
340
283
340
284
340
285
340
286
340
287
340
288
340
289
340
28A
340
28B
340
28C
340
28D
340
28E
340
28F
340
290
340
291
340
292
340
293
340
294
340
295
340
296
340
297
340
298
340
299
340
29A
340
29B
340
29C
340
29D
340
29E
340
29F
340
2A0
340
2A1
340
2A2
340
2A3
340
2A4
340
2A5
340
2A6
340
2A7
340
2A8
340
2A9
340
2AA
340
2AB
340
2AC
340
2AD
340
2AE
340
2AF
340
2B0
340
2B1
340
2B2
340
2B3
340
2B4
340
2B5
340
2B6
340
2B7
340
2B8
340
2B9
340
2BA
340
2BB
340
2BC
340
2BD
340
2BE
340
2BF
340
2C0
340
2C1
340
2C2
340
2C3
340
2C4
340
2C5
340
2C6
340
2C7
340
2C8
340
2DC
340
2DD
340
2DE
340
2DF
340
2E0
340
2E1
340
2E2
340
2E3
340
2E4
340
2E5
340
2E6
340
2E7
340
2E8
340
2E9
340
2EA
340
2EB
340
2EC
340
2ED
340
2EE
340
2EF
340
2F0
340
2F1
340
2F2
340
2F3
340
2F4
340
2F5
340
2F6
340
2F7
340
2F8
340
2F9
340
2FA
340
2FB
340
2FC
340
2FD
340
2FE
340
2FF
340
300
340
301
340
302
340
303
340
304
340
305
340
306
340
307
340
308
340
309
340
30A
340
30B
340
30C
340
30D
340
30E
340
30F
340
310
340
311
340
312
340
313
340
314
340
315
340
316
340
317
340
318
340
319
340
31A
340
31B
340
31C
340
31D
340
31E
340
31F
340
320
340
321
340
322
340
323
340
324
340
325
340
326
340
327
340
328
340
329
340
32A
340
32B
340
32C
340
32D
340
32E
340
32F
340
330
340
331
340
332
340
333
340
334
340
335
340
336
340
337
340
338
340
339
340
33A
340
33B
340
33C
340
33D
340
33E
340
33F
340
340
340
341
340
342
340
343
340
344
340
345
340
346
340
347
340
348
340
349
340
34A
340
34B
340
34C
340
34D
340
34E
340
34F
340
350
340
351
340
352
340
353
340
357
340
364
340
36E
340
378
340
382
340
38C
0
GROUP
5
396
330
3ff
100
AcDbGroup
300

70
0
71
1
340
6E
340
82
340
84
340
85
340
1DB
340
357
340
357
340
357
340
353
340
357
340
36E
0
MLINESTYLE
5
18
330
400
100
AcDbMlineStyle
2
Standard
70
0
3

62
256
51
90
52
90
71
2
49
-0.5
62
256
6
ByLayer
49
0.5
62
256
6
ByLayer
0
RASTERVARIABLES
5
3ea
330

100
AcDbRasterVariables
90
0
70
1
71
1
72
1
0
ENDSEC
0
EOF
