0
SECTION
2
HEADER
9
$ACADVER
1
AC1015
9
$DWGCODEPAGE
3
ANSI_1252
9
$HANDSEED
5
339
9
$ANGBASE
50
0
9
$ANGDIR
70
0
9
$ATTMODE
70
1
9
$AUNITS
70
0
9
$AUPREC
70
0
9
$CECOLOR
62
256
9
$CELTSCALE
40
1
9
$CELTYPE
6
ByLayer
9
$CELWEIGHT
370
18
9
$CLAYER
8
0
9
$CMLJUST
70
0
9
$CMLSCALE
40
1
9
$CMLSTYLE
2
Standard
9
$DIMSTYLE
2
Standard
9
$TEXTSIZE
40
0.2
9
$TEXTSTYLE
7
Standard
9
$LUNITS
70
2
9
$LUPREC
70
4
9
$EXTNAMES
290
1
9
$INSUNITS
70
4
9
$LTSCALE
40
1
9
$LWDISPLAY
290
1
9
$PDMODE
70
0
9
$PDSIZE
40
0
9
$PLINEGEN
70
0
0
ENDSEC
0
SECTION
2
CLASSES
0
CLASS
1
RASTERVARIABLES
2
AcDbRasterVariables
3
ISM
90
0
280
0
281
0
0
ENDSEC
0
SECTION
2
TABLES
0
TABLE
2
VPORT
5
32f
100
AcDbSymbolTable
0
VPORT
5
1
100
AcDbSymbolTableRecord
100
AcDbViewportTableRecord
2
*Active
70
0
10
0
20
0
11
1
21
1
12
-1
22
1
13
0
23
0
14
0.5
24
0.5
15
10
25
10
16
0
26
0
36
1
17
0
27
0
37
0
0
ENDTAB
0
TABLE
2
LTYPE
5
330
100
AcDbSymbolTable
0
LTYPE
5
14
100
AcDbSymbolTableRecord
100
AcDbLinetypeTableRecord
70
0
2
ByBlock
3

72
65
73
0
40
0
0
LTYPE
5
15
100
AcDbSymbolTableRecord
100
AcDbLinetypeTableRecord
70
0
2
ByLayer
3

72
65
73
0
40
0
0
LTYPE
5
16
100
AcDbSymbolTableRecord
100
AcDbLinetypeTableRecord
70
0
2
CONTINUOUS
3
Solid line
72
65
73
0
40
0
0
LTYPE
5
6A
100
AcDbSymbolTableRecord
100
AcDbLinetypeTableRecord
70
0
2
CENTER
3
____ _ ____ _ ____ _ ____
72
65
73
4
40
47.5
49
22
74
0
49
-8.5
74
0
49
8.5
74
0
49
-8.5
74
0
0
LTYPE
5
6B
100
AcDbSymbolTableRecord
100
AcDbLinetypeTableRecord
70
0
2
DASHED
3
__ __ __ __ __ __ __ __ __
72
65
73
2
40
25.72
49
12.86
74
0
49
-12.86
74
0
0
ENDTAB
0
TABLE
2
LAYER
5
331
100
AcDbSymbolTable
0
LAYER
5
10
100
AcDbSymbolTableRecord
100
AcDbLayerTableRecord
2
0
70
0
62
7
6
CONTINUOUS
290
1
370
-3
390
0
0
LAYER
5
6F
100
AcDbSymbolTableRecord
100
AcDbLayerTableRecord
2
80
70
0
62
-6
6
CONTINUOUS
290
1
370
-3
390
0
0
LAYER
5
71
100
AcDbSymbolTableRecord
100
AcDbLayerTableRecord
2
81
70
0
62
-3
6
CONTINUOUS
290
1
370
-3
390
0
0
LAYER
5
73
100
AcDbSymbolTableRecord
100
AcDbLayerTableRecord
2
1
70
0
62
4
6
CONTINUOUS
290
1
370
-3
390
0
0
LAYER
5
A7
100
AcDbSymbolTableRecord
100
AcDbLayerTableRecord
2
4
70
0
62
-2
6
CENTER
290
1
370
-3
390
0
0
LAYER
5
287
100
AcDbSymbolTableRecord
100
AcDbLayerTableRecord
2
2
70
0
62
7
6
CONTINUOUS
290
1
370
-3
390
0
0
LAYER
5
319
100
AcDbSymbolTableRecord
100
AcDbLayerTableRecord
2
SK1
70
0
62
4
6
CONTINUOUS
290
1
370
-3
390
0
0
LAYER
5
31a
100
AcDbSymbolTableRecord
100
AcDbLayerTableRecord
2
SK4
70
0
62
2
6
CENTER
290
1
370
-3
390
0
0
LAYER
5
31b
100
AcDbSymbolTableRecord
100
AcDbLayerTableRecord
2
SK6
70
0
62
5
6
CONTINUOUS
290
1
370
-3
390
0
0
LAYER
5
31c
100
AcDbSymbolTableRecord
100
AcDbLayerTableRecord
2
SK2
70
0
62
7
6
CONTINUOUS
290
1
370
-3
390
0
0
ENDTAB
0
TABLE
2
STYLE
5
332
100
AcDbSymbolTable
0
STYLE
5
11
100
AcDbSymbolTableRecord
100
AcDbTextStyleTableRecord
2
Standard
3
txt
70
0
71
0
40
0
41
1
42
0
50
0
0
STYLE
5
283
100
AcDbSymbolTableRecord
100
AcDbTextStyleTableRecord
2
iso_b_vert
3
simplex.shx
70
0
71
0
40
0
41
1
42
0
50
0
0
STYLE
5
284
100
AcDbSymbolTableRecord
100
AcDbTextStyleTableRecord
2
DWGDirectTextStyle
3
simplex
70
0
71
0
40
0
41
1
42
0
50
0
0
ENDTAB
0
TABLE
2
DIMSTYLE
5
333
100
AcDbSymbolTable
100
AcDbDimStyleTable
0
DIMSTYLE
105
27
100
AcDbSymbolTableRecord
100
AcDbDimStyleTableRecord
2
Standard
70
0
3
<>
41
0.18
42
0.0625
44
0.18
140
0.18
147
0.09
73
0
74
0
77
1
271
2
275
0
278
52
280
0
340
11
0
ENDTAB
0
TABLE
2
VIEW
5
334
100
AcDbSymbolTable
0
ENDTAB
0
TABLE
2
UCS
5
335
100
AcDbSymbolTable
0
ENDTAB
0
TABLE
2
APPID
5
336
100
AcDbSymbolTable
0
APPID
5
12
100
AcDbSymbolTableRecord
100
AcDbRegAppTableRecord
2
ACAD
70
0
0
ENDTAB
0
TABLE
2
BLOCK_RECORD
5
337
100
AcDbSymbolTable
0
BLOCK_RECORD
5
1F
100
AcDbSymbolTableRecord
100
AcDbBlockTableRecord
2
*Model_Space
340
0
70
0
0
BLOCK_RECORD
5
1B
100
AcDbSymbolTableRecord
100
AcDbBlockTableRecord
2
*Paper_Space
340
0
70
0
0
BLOCK_RECORD
5
23
100
AcDbSymbolTableRecord
100
AcDbBlockTableRecord
2
*Paper_Space0
340
0
70
0
0
BLOCK_RECORD
5
288
100
AcDbSymbolTableRecord
100
AcDbBlockTableRecord
2
DimnDraft3D1
340
0
70
0
0
BLOCK_RECORD
5
293
100
AcDbSymbolTableRecord
100
AcDbBlockTableRecord
2
DimnDraft3D2
340
0
70
0
0
BLOCK_RECORD
5
29D
100
AcDbSymbolTableRecord
100
AcDbBlockTableRecord
2
DimnDraft3D3
340
0
70
0
0
BLOCK_RECORD
5
2A7
100
AcDbSymbolTableRecord
100
AcDbBlockTableRecord
2
DimnDraft3D4
340
0
70
0
0
BLOCK_RECORD
5
2B1
100
AcDbSymbolTableRecord
100
AcDbBlockTableRecord
2
DimnDraft3D5
340
0
70
0
0
ENDTAB
0
ENDSEC
0
SECTION
2
BLOCKS
0
BLOCK
5
20
100
AcDbEntity
8
0
100
AcDbBlockBegin
2
*Model_Space
70
0
10
0
20
0
30
0
3
*Model_Space
0
ENDBLK
5
21
100
AcDbEntity
8
0
100
AcDbBlockEnd
0
BLOCK
5
1C
100
AcDbEntity
8
0
100
AcDbBlockBegin
2
*Paper_Space
70
0
10
0
20
0
30
0
3
*Paper_Space
0
ENDBLK
5
1D
100
AcDbEntity
8
0
100
AcDbBlockEnd
0
BLOCK
5
24
100
AcDbEntity
8
0
100
AcDbBlockBegin
2
*Paper_Space0
70
0
10
0
20
0
30
0
3
*Paper_Space0
0
ENDBLK
5
25
100
AcDbEntity
8
0
100
AcDbBlockEnd
0
BLOCK
5
290
100
AcDbEntity
8
0
100
AcDbBlockBegin
2
DimnDraft3D1
70
0
10
0
20
0
30
0
3
DimnDraft3D1
0
MTEXT
5
289
100
AcDbEntity
8
SK2
62
256
6
ByLayer
370
18
48
1
60
0
100
AcDbMText
10
-42.67498
20
-3.323684
30
0
210
0
220
0
230
1
1
\W0.8132;%%c 50
40
3
41
0
44
1.084337
50
90
71
7
72
5
7
iso_b_vert
0
LINE
5
28B
100
AcDbEntity
8
SK2
62
256
6
ByLayer
370
13
48
1
60
0
100
AcDbLine
10
-1.7
20
24.99
30
0
11
-43.92498
21
24.99
31
0
39
0
210
0
220
0
230
1
0
LINE
5
28C
100
AcDbEntity
8
SK2
62
256
6
ByLayer
370
13
48
1
60
0
100
AcDbLine
10
-1.7
20
-24.99
30
0
11
-43.92498
21
-24.99
31
0
39
0
210
0
220
0
230
1
0
LINE
5
28D
100
AcDbEntity
8
SK2
62
256
6
ByLayer
370
13
48
1
60
0
100
AcDbLine
10
-41.92498
20
24.99
30
0
11
-41.92498
21
-24.99
31
0
39
0
210
0
220
0
230
1
0
SOLID
5
28E
100
AcDbEntity
8
SK2
62
256
6
ByLayer
370
13
48
1
60
0
100
AcDbTrace
10
-41.92498
20
24.99
30
0
11
-41.506983
21
21.815002
31
0
12
-42.342976
22
21.814998
32
0
13
-41.92498
23
24.99
33
0
39
0
210
0
220
0
230
1
0
SOLID
5
28F
100
AcDbEntity
8
SK2
62
256
6
ByLayer
370
13
48
1
60
0
100
AcDbTrace
10
-41.92498
20
-24.99
30
0
11
-42.342976
21
-21.815002
31
0
12
-41.506983
22
-21.814998
32
0
13
-41.92498
23
-24.99
33
0
39
0
210
0
220
0
230
1
0
ENDBLK
5
291
100
AcDbEntity
8
0
100
AcDbBlockEnd
0
BLOCK
5
29A
100
AcDbEntity
8
0
100
AcDbBlockBegin
2
DimnDraft3D2
70
0
10
0
20
0
30
0
3
DimnDraft3D2
0
MTEXT
5
294
100
AcDbEntity
8
2
62
256
6
ByLayer
370
18
48
1
60
0
100
AcDbMText
10
105.875
20
0.368421
30
0
210
0
220
0
230
1
1
\W0.3160; 
40
3.5
41
0
44
1.084337
50
90
71
7
72
5
7
iso_b_vert
0
LINE
5
295
100
AcDbEntity
8
2
62
256
6
ByLayer
370
13
48
1
60
0
100
AcDbLine
10
72
20
34.5
30
0
11
108.75
21
34.5
31
0
39
0
210
0
220
0
230
1
0
LINE
5
296
100
AcDbEntity
8
2
62
256
6
ByLayer
370
13
48
1
60
0
100
AcDbLine
10
71.884806
20
-34.5
30
0
11
108.75
21
-34.5
31
0
39
0
210
0
220
0
230
1
0
LINE
5
297
100
AcDbEntity
8
2
62
256
6
ByLayer
370
13
48
1
60
0
100
AcDbLine
10
106.75
20
34.5
30
0
11
106.75
21
-34.5
31
0
39
0
210
0
220
0
230
1
0
SOLID
5
298
100
AcDbEntity
8
2
62
256
6
ByLayer
370
13
48
1
60
0
100
AcDbTrace
10
106.75
20
34.5
30
0
11
107.167997
21
31.325002
31
0
12
106.332003
22
31.324998
32
0
13
106.75
23
34.5
33
0
39
0
210
0
220
0
230
1
0
SOLID
5
299
100
AcDbEntity
8
2
62
256
6
ByLayer
370
13
48
1
60
0
100
AcDbTrace
10
106.75
20
-34.5
30
0
11
106.332003
21
-31.325002
31
0
12
107.167997
22
-31.324998
32
0
13
106.75
23
-34.5
33
0
39
0
210
0
220
0
230
1
0
ENDBLK
5
29B
100
AcDbEntity
8
0
100
AcDbBlockEnd
0
BLOCK
5
2A4
100
AcDbEntity
8
0
100
AcDbBlockBegin
2
DimnDraft3D3
70
0
10
0
20
0
30
0
3
DimnDraft3D3
0
MTEXT
5
29E
100
AcDbEntity
8
2
62
256
6
ByLayer
370
18
48
1
60
0
100
AcDbMText
10
79.833804
20
21.900106
30
0
210
0
220
0
230
1
1
\W0.5899;90%%d
40
3
41
0
44
1.084337
50
45
71
7
72
5
7
iso_b_vert
0
LINE
5
29F
100
AcDbEntity
8
2
62
256
6
ByLayer
370
13
48
1
60
0
100
AcDbLine
10
70
20
20.42258
30
0
11
70
21
15.88698
31
0
39
0
210
0
220
0
230
1
0
LINE
5
2A0
100
AcDbEntity
8
2
62
256
6
ByLayer
370
13
48
1
60
0
100
AcDbLine
10
72
20
34.5
30
0
11
88.61302
21
34.5
31
0
39
0
210
0
220
0
230
1
0
ARC
5
2A1
100
AcDbEntity
8
2
62
256
6
ByLayer
370
13
48
1
60
0
100
AcDbCircle
39
0
10
70
20
34.5
30
0
40
16.6130200307806
210
0
220
0
230
1
100
AcDbArc
50
270
51
0
0
SOLID
5
2A2
100
AcDbEntity
8
2
62
256
6
ByLayer
370
13
48
1
60
0
100
AcDbTrace
10
70
20
17.88698
30
0
11
73.151494
21
18.455684
31
0
12
73.191304
22
17.620639
32
0
13
70
23
17.88698
33
0
39
0
210
0
220
0
230
1
0
SOLID
5
2A3
100
AcDbEntity
8
2
62
256
6
ByLayer
370
13
48
1
60
0
100
AcDbTrace
10
86.61302
20
34.5
30
0
11
86.879361
21
31.3087
31
0
12
86.044316
22
31.348503
32
0
13
86.61302
23
34.5
33
0
39
0
210
0
220
0
230
1
0
ENDBLK
5
2A5
100
AcDbEntity
8
0
100
AcDbBlockEnd
0
BLOCK
5
2AE
100
AcDbEntity
8
0
100
AcDbBlockBegin
2
DimnDraft3D4
70
0
10
0
20
0
30
0
3
DimnDraft3D4
0
MTEXT
5
2A8
100
AcDbEntity
8
2
62
256
6
ByLayer
370
18
48
1
60
0
100
AcDbMText
10
33.997368
20
59.25
30
0
210
0
220
0
230
1
1
\W0.6170;70
40
3
41
0
44
1.084337
50
0
71
7
72
5
7
iso_b_vert
0
LINE
5
2A9
100
AcDbEntity
8
2
62
256
6
ByLayer
370
13
48
1
60
0
100
AcDbLine
10
0
20
26.69
30
0
11
0
21
60.5
31
0
39
0
210
0
220
0
230
1
0
LINE
5
2AA
100
AcDbEntity
8
2
62
256
6
ByLayer
370
13
48
1
60
0
100
AcDbLine
10
70
20
36.5
30
0
11
70
21
60.5
31
0
39
0
210
0
220
0
230
1
0
LINE
5
2AB
100
AcDbEntity
8
2
62
256
6
ByLayer
370
13
48
1
60
0
100
AcDbLine
10
0
20
58.5
30
0
11
70
21
58.5
31
0
39
0
210
0
220
0
230
1
0
SOLID
5
2AC
100
AcDbEntity
8
2
62
256
6
ByLayer
370
13
48
1
60
0
100
AcDbTrace
10
0
20
58.5
30
0
11
3.174998
21
58.917997
31
0
12
3.175002
22
58.082003
32
0
13
0
23
58.5
33
0
39
0
210
0
220
0
230
1
0
SOLID
5
2AD
100
AcDbEntity
8
2
62
256
6
ByLayer
370
13
48
1
60
0
100
AcDbTrace
10
70
20
58.5
30
0
11
66.825002
21
58.082003
31
0
12
66.824998
22
58.917997
32
0
13
70
23
58.5
33
0
39
0
210
0
220
0
230
1
0
ENDBLK
5
2AF
100
AcDbEntity
8
0
100
AcDbBlockEnd
0
BLOCK
5
2B8
100
AcDbEntity
8
0
100
AcDbBlockBegin
2
DimnDraft3D5
70
0
10
0
20
0
30
0
3
DimnDraft3D5
0
MTEXT
5
2B2
100
AcDbEntity
8
SK2
62
256
6
ByLayer
370
18
48
1
60
0
100
AcDbMText
10
18.271053
20
74.25
30
0
210
0
220
0
230
1
1
\W0.6255;100
40
3
41
0
44
1.084337
50
0
71
7
72
5
7
iso_b_vert
0
LINE
5
2B3
100
AcDbEntity
8
SK2
62
256
6
ByLayer
370
13
48
1
60
0
100
AcDbLine
10
-30
20
17.991832
30
0
11
-30
21
75.5
31
0
39
0
210
0
220
0
230
1
0
LINE
5
2B4
100
AcDbEntity
8
SK2
62
256
6
ByLayer
370
13
48
1
60
0
100
AcDbLine
10
70
20
36.5
30
0
11
70
21
75.5
31
0
39
0
210
0
220
0
230
1
0
LINE
5
2B5
100
AcDbEntity
8
SK2
62
256
6
ByLayer
370
13
48
1
60
0
100
AcDbLine
10
-30
20
73.5
30
0
11
70
21
73.5
31
0
39
0
210
0
220
0
230
1
0
SOLID
5
2B6
100
AcDbEntity
8
SK2
62
256
6
ByLayer
370
13
48
1
60
0
100
AcDbTrace
10
-30
20
73.5
30
0
11
-26.825002
21
73.917997
31
0
12
-26.824998
22
73.082003
32
0
13
-30
23
73.5
33
0
39
0
210
0
220
0
230
1
0
SOLID
5
2B7
100
AcDbEntity
8
SK2
62
256
6
ByLayer
370
13
48
1
60
0
100
AcDbTrace
10
70
20
73.5
30
0
11
66.825002
21
73.082003
31
0
12
66.824998
22
73.917997
32
0
13
70
23
73.5
33
0
39
0
210
0
220
0
230
1
0
ENDBLK
5
2B9
100
AcDbEntity
8
0
100
AcDbBlockEnd
0
ENDSEC
0
SECTION
2
ENTITIES
0
ARC
5
14C
100
AcDbEntity
8
1
62
256
6
ByLayer
370
18
48
1
60
0
100
AcDbCircle
39
0
10
49.471329
20
33.898155
30
0
40
64.7119752908949
210
0
220
0
230
1
100
AcDbArc
50
262.251094
51
263.815605
0
ARC
5
14D
100
AcDbEntity
8
1
62
256
6
ByLayer
370
18
48
1
60
0
100
AcDbCircle
39
0
10
47.3025
20
17.959622
30
0
40
48.6265575057139
210
0
220
0
230
1
100
AcDbArc
50
260.169151
51
262.251094
0
ARC
5
14E
100
AcDbEntity
8
1
62
256
6
ByLayer
370
18
48
1
60
0
100
AcDbCircle
39
0
10
167.53052
20
288.698837
30
0
40
305.553892753789
210
0
220
0
230
1
100
AcDbArc
50
246.586007
51
247.326618
0
ARC
5
14F
100
AcDbEntity
8
1
62
256
6
ByLayer
370
18
48
1
60
0
100
AcDbCircle
39
0
10
146.452411
20
240.022819
30
0
40
252.510124770813
210
0
220
0
230
1
100
AcDbArc
50
245.689825
51
246.586007
0
ARC
5
150
100
AcDbEntity
8
1
62
256
6
ByLayer
370
18
48
1
60
0
100
AcDbCircle
39
0
10
7.558679
20
20.234352
30
0
40
5.51976622652161
210
0
220
0
230
1
100
AcDbArc
50
14.757389
51
38.235032
0
ARC
5
151
100
AcDbEntity
8
1
62
256
6
ByLayer
370
18
48
1
60
0
100
AcDbCircle
39
0
10
-0.598951
20
18.085503
30
0
40
13.955670223617
210
0
220
0
230
1
100
AcDbArc
50
5.36045
51
14.757389
0
ARC
5
152
100
AcDbEntity
8
1
62
256
6
ByLayer
370
18
48
1
60
0
100
AcDbCircle
39
0
10
-5.276706
20
17.646582
30
0
40
18.6539725460017
210
0
220
0
230
1
100
AcDbArc
50
357.507189
51
5.36045
0
ARC
5
153
100
AcDbEntity
8
1
62
256
6
ByLayer
370
18
48
1
60
0
100
AcDbCircle
39
0
10
-18.728599
20
18.232214
30
0
40
32.1186075094097
210
0
220
0
230
1
100
AcDbArc
50
352.941405
51
357.507189
0
ARC
5
154
100
AcDbEntity
8
1
62
256
6
ByLayer
370
18
48
1
60
0
100
AcDbCircle
39
0
10
-25.428699
20
19.061839
30
0
40
38.8698752274754
210
0
220
0
230
1
100
AcDbArc
50
348.266705
51
352.941405
0
ARC
5
155
100
AcDbEntity
8
1
62
256
6
ByLayer
370
18
48
1
60
0
100
AcDbCircle
39
0
10
-41.000832
20
22.296111
30
0
40
54.7743349542009
210
0
220
0
230
1
100
AcDbArc
50
344.948454
51
348.266705
0
ARC
5
156
100
AcDbEntity
8
1
62
256
6
ByLayer
370
18
48
1
60
0
100
AcDbCircle
39
0
10
12.441321
20
20.234352
30
0
40
5.51976622652153
210
0
220
0
230
1
100
AcDbArc
50
141.764968
51
165.242611
0
ARC
5
157
100
AcDbEntity
8
1
62
256
6
ByLayer
370
18
48
1
60
0
100
AcDbCircle
39
0
10
20.598951
20
18.085503
30
0
40
13.9556702236171
210
0
220
0
230
1
100
AcDbArc
50
165.242611
51
174.63955
0
ARC
5
158
100
AcDbEntity
8
1
62
256
6
ByLayer
370
18
48
1
60
0
100
AcDbCircle
39
0
10
25.276706
20
17.646582
30
0
40
18.6539725460015
210
0
220
0
230
1
100
AcDbArc
50
174.63955
51
182.492811
0
ARC
5
159
100
AcDbEntity
8
1
62
256
6
ByLayer
370
18
48
1
60
0
100
AcDbCircle
39
0
10
38.728599
20
18.232214
30
0
40
32.1186075094093
210
0
220
0
230
1
100
AcDbArc
50
182.492811
51
187.058595
0
ARC
5
15A
100
AcDbEntity
8
1
62
256
6
ByLayer
370
18
48
1
60
0
100
AcDbCircle
39
0
10
45.428699
20
19.061839
30
0
40
38.8698752274751
210
0
220
0
230
1
100
AcDbArc
50
187.058595
51
191.733295
0
ARC
5
15B
100
AcDbEntity
8
1
62
256
6
ByLayer
370
18
48
1
60
0
100
AcDbCircle
39
0
10
61.000832
20
22.296111
30
0
40
54.7743349542001
210
0
220
0
230
1
100
AcDbArc
50
191.733295
51
195.051546
0
ARC
5
15C
100
AcDbEntity
8
1
62
256
6
ByLayer
370
18
48
1
60
0
100
AcDbCircle
39
0
10
48.417368
20
20.739738
30
0
40
1.27147118105585
210
0
220
0
230
1
100
AcDbArc
50
31.98847
51
64.290719
0
ARC
5
15D
100
AcDbEntity
8
1
62
256
6
ByLayer
370
18
48
1
60
0
100
AcDbCircle
39
0
10
46.951646
20
17.695455
30
0
40
4.65022846253549
210
0
220
0
230
1
100
AcDbArc
50
64.290719
51
73.34557
0
ARC
5
15E
100
AcDbEntity
8
1
62
256
6
ByLayer
370
18
48
1
60
0
100
AcDbCircle
39
0
10
47.141726
20
18.330862
30
0
40
3.98699915538908
210
0
220
0
230
1
100
AcDbArc
50
73.34557
51
81.097468
0
ARC
5
15F
100
AcDbEntity
8
1
62
256
6
ByLayer
370
18
48
1
60
0
100
AcDbCircle
39
0
10
47.29898
20
19.334773
30
0
40
2.97084632110779
210
0
220
0
230
1
100
AcDbArc
50
81.097468
51
91.488164
0
ARC
5
160
100
AcDbEntity
8
1
62
256
6
ByLayer
370
18
48
1
60
0
100
AcDbCircle
39
0
10
47.286909
20
19.799434
30
0
40
2.5060290998052
210
0
220
0
230
1
100
AcDbArc
50
91.488164
51
100.379571
0
ARC
5
161
100
AcDbEntity
8
1
62
256
6
ByLayer
370
18
48
1
60
0
100
AcDbCircle
39
0
10
46.968168
20
21.539607
30
0
40
0.736905566885928
210
0
220
0
230
1
100
AcDbArc
50
100.379571
51
130
0
ARC
5
162
100
AcDbEntity
8
1
62
256
6
ByLayer
370
18
48
1
60
0
100
AcDbCircle
39
0
10
7.558679
20
-20.234352
30
0
40
5.51976622652187
210
0
220
0
230
1
100
AcDbArc
50
321.764968
51
345.242611
0
ARC
5
163
100
AcDbEntity
8
1
62
256
6
ByLayer
370
18
48
1
60
0
100
AcDbCircle
39
0
10
-0.598951
20
-18.085503
30
0
40
13.9556702236175
210
0
220
0
230
1
100
AcDbArc
50
345.242611
51
354.63955
0
ARC
5
164
100
AcDbEntity
8
1
62
256
6
ByLayer
370
18
48
1
60
0
100
AcDbCircle
39
0
10
-5.276706
20
-17.646582
30
0
40
18.6539725460018
210
0
220
0
230
1
100
AcDbArc
50
354.63955
51
2.492811
0
ARC
5
165
100
AcDbEntity
8
1
62
256
6
ByLayer
370
18
48
1
60
0
100
AcDbCircle
39
0
10
-18.728599
20
-18.232214
30
0
40
32.1186075094102
210
0
220
0
230
1
100
AcDbArc
50
2.492811
51
7.058595
0
ARC
5
166
100
AcDbEntity
8
1
62
256
6
ByLayer
370
18
48
1
60
0
100
AcDbCircle
39
0
10
-25.428699
20
-19.061839
30
0
40
38.8698752274757
210
0
220
0
230
1
100
AcDbArc
50
7.058595
51
11.733295
0
ARC
5
167
100
AcDbEntity
8
1
62
256
6
ByLayer
370
18
48
1
60
0
100
AcDbCircle
39
0
10
-41.000832
20
-22.296111
30
0
40
54.7743349541988
210
0
220
0
230
1
100
AcDbArc
50
11.733295
51
15.051546
0
ARC
5
168
100
AcDbEntity
8
1
62
256
6
ByLayer
370
18
48
1
60
0
100
AcDbCircle
39
0
10
18.654149
20
212.921017
30
0
40
244.530530674415
210
0
220
0
230
1
100
AcDbArc
50
276.450664
51
277.304977
0
ARC
5
169
100
AcDbEntity
8
1
62
256
6
ByLayer
370
18
48
1
60
0
100
AcDbCircle
39
0
10
24.150698
20
164.306293
30
0
40
195.606064016067
210
0
220
0
230
1
100
AcDbArc
50
275.382684
51
276.450664
0
ARC
5
16A
100
AcDbEntity
8
1
62
256
6
ByLayer
370
18
48
1
60
0
100
AcDbCircle
39
0
10
102.358638
20
101.386296
30
0
40
109.32657936016
210
0
220
0
230
1
100
AcDbArc
50
235.691436
51
236.802866
0
ARC
5
16B
100
AcDbEntity
8
1
62
256
6
ByLayer
370
18
48
1
60
0
100
AcDbCircle
39
0
10
89.088604
20
81.939398
30
0
40
85.7835199153828
210
0
220
0
230
1
100
AcDbArc
50
234.275005
51
235.691436
0
ARC
5
16C
100
AcDbEntity
8
1
62
256
6
ByLayer
370
18
48
1
60
0
100
AcDbCircle
39
0
10
48.871006
20
21.607216
30
0
40
0.891765248801909
210
0
220
0
230
1
100
AcDbArc
50
271.261003
51
310
0
ARC
5
16D
100
AcDbEntity
8
1
62
256
6
ByLayer
370
18
48
1
60
0
100
AcDbCircle
39
0
10
48.796774
20
24.979528
30
0
40
4.26489465706451
210
0
220
0
230
1
100
AcDbArc
50
262.852657
51
271.261003
0
ARC
5
16E
100
AcDbEntity
8
1
62
256
6
ByLayer
370
18
48
1
60
0
100
AcDbCircle
39
0
10
48.823607
20
25.193517
30
0
40
4.48055933884761
210
0
220
0
230
1
100
AcDbArc
50
250.563413
51
262.852657
0
ARC
5
16F
100
AcDbEntity
8
1
62
256
6
ByLayer
370
18
48
1
60
0
100
AcDbCircle
39
0
10
47.990894
20
22.833711
30
0
40
1.97814159194802
210
0
220
0
230
1
100
AcDbArc
50
223.155523
51
250.563413
0
ARC
5
170
100
AcDbEntity
8
1
62
256
6
ByLayer
370
18
48
1
60
0
100
AcDbCircle
39
0
10
47.014316
20
21.918069
30
0
40
0.639445819183934
210
0
220
0
230
1
100
AcDbArc
50
190.594563
51
223.155523
0
ARC
5
171
100
AcDbEntity
8
1
62
256
6
ByLayer
370
18
48
1
60
0
100
AcDbCircle
39
0
10
46.699942
20
21.859266
30
0
40
0.319620127625254
210
0
220
0
230
1
100
AcDbArc
50
130
51
190.594563
0
ARC
5
172
100
AcDbEntity
8
1
62
256
6
ByLayer
370
18
48
1
60
0
100
AcDbCircle
39
0
10
12.441321
20
-20.234352
30
0
40
5.51976622652164
210
0
220
0
230
1
100
AcDbArc
50
194.757389
51
218.235032
0
ARC
5
173
100
AcDbEntity
8
1
62
256
6
ByLayer
370
18
48
1
60
0
100
AcDbCircle
39
0
10
20.598951
20
-18.085503
30
0
40
13.9556702236175
210
0
220
0
230
1
100
AcDbArc
50
185.36045
51
194.757389
0
ARC
5
174
100
AcDbEntity
8
1
62
256
6
ByLayer
370
18
48
1
60
0
100
AcDbCircle
39
0
10
27.114986
20
-17.474094
30
0
40
20.5003275830556
210
0
220
0
230
1
100
AcDbArc
50
173.97782
51
185.36045
0
ARC
5
175
100
AcDbEntity
8
1
62
256
6
ByLayer
370
18
48
1
60
0
100
AcDbCircle
39
0
10
50.033362
20
-19.891883
30
0
40
43.5458842040752
210
0
220
0
230
1
100
AcDbArc
50
168.605404
51
173.97782
0
ARC
5
176
100
AcDbEntity
8
1
62
256
6
ByLayer
370
18
48
1
60
0
100
AcDbCircle
39
0
10
54.622434
20
-20.816751
30
0
40
48.2272259349128
210
0
220
0
230
1
100
AcDbArc
50
166.641624
51
168.605404
0
ARC
5
177
100
AcDbEntity
8
1
62
256
6
ByLayer
370
18
48
1
60
0
100
AcDbCircle
39
0
10
62.123122
20
-22.59791
30
0
40
55.9364961389101
210
0
220
0
230
1
100
AcDbArc
50
164.948454
51
166.641624
0
ARC
5
178
100
AcDbEntity
8
1
62
256
6
ByLayer
370
18
48
1
60
0
100
AcDbCircle
39
0
10
2.659455
20
-206.592973
30
0
40
202.291270359862
210
0
220
0
230
1
100
AcDbArc
50
77.27599
51
78.641549
0
ARC
5
179
100
AcDbEntity
8
1
62
256
6
ByLayer
370
18
48
1
60
0
100
AcDbCircle
39
0
10
48.929348
20
21.059516
30
0
40
0.667830593179826
210
0
220
0
230
1
100
AcDbArc
50
29.250739
51
31.98847
0
ARC
5
17A
100
AcDbEntity
8
1
62
256
6
ByLayer
370
18
48
1
60
0
100
AcDbCircle
39
0
10
49.00442
20
21.101559
30
0
40
0.581787399004232
210
0
220
0
230
1
100
AcDbArc
50
26.108303
51
29.250739
0
ARC
5
17B
100
AcDbEntity
8
1
62
256
6
ByLayer
370
18
48
1
60
0
100
AcDbCircle
39
0
10
49.038957
20
21.118485
30
0
40
0.543325898627141
210
0
220
0
230
1
100
AcDbArc
50
22.964223
51
26.108303
0
ARC
5
17C
100
AcDbEntity
8
1
62
256
6
ByLayer
370
18
48
1
60
0
100
AcDbCircle
39
0
10
49.101298
20
21.144901
30
0
40
0.475618736261646
210
0
220
0
230
1
100
AcDbArc
50
19.372839
51
22.964223
0
ARC
5
17D
100
AcDbEntity
8
1
62
256
6
ByLayer
370
18
48
1
60
0
100
AcDbCircle
39
0
10
49.127693
20
21.154182
30
0
40
0.447639934850003
210
0
220
0
230
1
100
AcDbArc
50
16.227854
51
19.372839
0
ARC
5
17E
100
AcDbEntity
8
1
62
256
6
ByLayer
370
18
48
1
60
0
100
AcDbCircle
39
0
10
49.17085
20
21.166743
30
0
40
0.40269188988042
210
0
220
0
230
1
100
AcDbArc
50
12.732036
51
16.227854
0
ARC
5
17F
100
AcDbEntity
8
1
62
256
6
ByLayer
370
18
48
1
60
0
100
AcDbCircle
39
0
10
49.189869
20
21.17104
30
0
40
0.38319400258136
210
0
220
0
230
1
100
AcDbArc
50
9.233379
51
12.732036
0
ARC
5
180
100
AcDbEntity
8
1
62
256
6
ByLayer
370
18
48
1
60
0
100
AcDbCircle
39
0
10
49.22194
20
21.176254
30
0
40
0.350701187192243
210
0
220
0
230
1
100
AcDbArc
50
5.410797
51
9.233379
0
ARC
5
181
100
AcDbEntity
8
1
62
256
6
ByLayer
370
18
48
1
60
0
100
AcDbCircle
39
0
10
49.241848
20
21.17814
30
0
40
0.330704150050411
210
0
220
0
230
1
100
AcDbArc
50
357.701509
51
5.410797
0
ARC
5
182
100
AcDbEntity
8
1
62
256
6
ByLayer
370
18
48
1
60
0
100
AcDbCircle
39
0
10
49.272411
20
21.176913
30
0
40
0.300117050571342
210
0
220
0
230
1
100
AcDbArc
50
349.209254
51
357.701509
0
ARC
5
183
100
AcDbEntity
8
1
62
256
6
ByLayer
370
18
48
1
60
0
100
AcDbCircle
39
0
10
49.277296
20
21.175982
30
0
40
0.29514358954213
210
0
220
0
230
1
100
AcDbArc
50
340.702333
51
349.209254
0
ARC
5
184
100
AcDbEntity
8
1
62
256
6
ByLayer
370
18
48
1
60
0
100
AcDbCircle
39
0
10
49.266202
20
21.179867
30
0
40
0.306898700579244
210
0
220
0
230
1
100
AcDbArc
50
332.520123
51
340.702333
0
ARC
5
185
100
AcDbEntity
8
1
62
256
6
ByLayer
370
18
48
1
60
0
100
AcDbCircle
39
0
10
49.243973
20
21.191428
30
0
40
0.331954095269276
210
0
220
0
230
1
100
AcDbArc
50
319.672258
51
332.520123
0
ARC
5
186
100
AcDbEntity
8
1
62
256
6
ByLayer
370
18
48
1
60
0
100
AcDbCircle
39
0
10
49.160272
20
21.262481
30
0
40
0.441746540497865
210
0
220
0
230
1
100
AcDbArc
50
310
51
319.672258
0
ARC
5
187
100
AcDbEntity
8
SK1
62
256
6
ByLayer
370
18
48
1
60
0
100
AcDbCircle
39
0
10
-5.501988
20
5.402939
30
0
40
5.50303614639601
210
0
220
0
230
1
100
AcDbArc
50
358.719892
51
1.289816
0
ARC
5
188
100
AcDbEntity
8
SK1
62
256
6
ByLayer
370
18
48
1
60
0
100
AcDbCircle
39
0
10
-0.493746
20
5.291025
30
0
40
0.493543447074873
210
0
220
0
230
1
100
AcDbArc
50
330.636389
51
358.719892
0
ARC
5
189
100
AcDbEntity
8
SK1
62
256
6
ByLayer
370
18
48
1
60
0
100
AcDbCircle
39
0
10
-0.104686
20
5.072127
30
0
40
0.0471313442153423
210
0
220
0
230
1
100
AcDbArc
50
235.730176
51
330.636389
0
ARC
5
18A
100
AcDbEntity
8
SK1
62
256
6
ByLayer
370
18
48
1
60
0
100
AcDbCircle
39
0
10
-0.027947
20
5.18475
30
0
40
0.183413189090667
210
0
220
0
230
1
100
AcDbArc
50
204.448751
51
235.730176
0
ARC
5
18B
100
AcDbEntity
8
1
62
256
6
ByLayer
370
18
48
1
60
0
100
AcDbCircle
39
0
10
60.241788
20
-14.930505
30
0
40
21.4978428561957
210
0
220
0
230
1
100
AcDbArc
50
179.067085
51
186.979721
0
ARC
5
18C
100
AcDbEntity
8
1
62
256
6
ByLayer
370
18
48
1
60
0
100
AcDbCircle
39
0
10
60.202639
20
-14.929868
30
0
40
21.4586889951189
210
0
220
0
230
1
100
AcDbArc
50
171.140057
51
179.067085
0
ARC
5
18D
100
AcDbEntity
8
1
62
256
6
ByLayer
370
18
48
1
60
0
100
AcDbCircle
39
0
10
49.909467
20
-16.201811
30
0
40
17.5530384180137
210
0
220
0
230
1
100
AcDbArc
50
228.461659
51
231.573187
0
ARC
5
18E
100
AcDbEntity
8
1
62
256
6
ByLayer
370
18
48
1
60
0
100
AcDbCircle
39
0
10
48.907139
20
-17.33321
30
0
40
16.0415078184155
210
0
220
0
230
1
100
AcDbArc
50
225.057109
51
228.461659
0
ARC
5
18F
100
AcDbEntity
8
SK1
62
256
6
ByLayer
370
18
48
1
60
0
100
AcDbCircle
39
0
10
-0.790856
20
-4.839526
30
0
40
0.653969388366706
210
0
220
0
230
1
100
AcDbArc
50
300.885026
51
335.681235
0
ARC
5
190
100
AcDbEntity
8
SK1
62
256
6
ByLayer
370
18
48
1
60
0
100
AcDbCircle
39
0
10
-0.591935
20
-5.172095
30
0
40
0.266449740006978
210
0
220
0
230
1
100
AcDbArc
50
225.7596
51
300.885026
0
ARC
5
191
100
AcDbEntity
8
SK1
62
256
6
ByLayer
370
18
48
1
60
0
100
AcDbCircle
39
0
10
0.037611
20
-4.525631
30
0
40
1.16880407420208
210
0
220
0
230
1
100
AcDbArc
50
197.665909
51
225.7596
0
ARC
5
192
100
AcDbEntity
8
SK1
62
256
6
ByLayer
370
18
48
1
60
0
100
AcDbCircle
39
0
10
5.570406
20
-2.763518
30
0
40
6.97542701288668
210
0
220
0
230
1
100
AcDbArc
50
192.864699
51
197.665909
0
ARC
5
193
100
AcDbEntity
8
SK1
62
256
6
ByLayer
370
18
48
1
60
0
100
AcDbCircle
39
0
10
5.116947
20
-2.86708
30
0
40
6.51029268332325
210
0
220
0
230
1
100
AcDbArc
50
191.078039
51
192.864699
0
ARC
5
194
100
AcDbEntity
8
SK1
62
256
6
ByLayer
370
18
48
1
60
0
100
AcDbCircle
39
0
10
3.784495
20
-3.127966
30
0
40
5.15254075904474
210
0
220
0
230
1
100
AcDbArc
50
188.820684
51
191.078039
0
ARC
5
195
100
AcDbEntity
8
1
62
256
6
ByLayer
370
18
48
1
60
0
100
AcDbCircle
39
0
10
11.6819
20
23.488459
30
0
40
0.267167572142947
210
0
220
0
230
1
100
AcDbArc
50
37.330714
51
44.119791
0
ARC
5
196
100
AcDbEntity
8
1
62
256
6
ByLayer
370
18
48
1
60
0
100
AcDbCircle
39
0
10
11.569349
20
23.379315
30
0
40
0.423948633569322
210
0
220
0
230
1
100
AcDbArc
50
44.119791
51
48.401209
0
ARC
5
197
100
AcDbEntity
8
1
62
256
6
ByLayer
370
18
48
1
60
0
100
AcDbCircle
39
0
10
11.549081
20
23.356486
30
0
40
0.454476206292926
210
0
220
0
230
1
100
AcDbArc
50
48.401209
51
74.645093
0
ARC
5
198
100
AcDbEntity
8
1
62
256
6
ByLayer
370
18
48
1
60
0
100
AcDbCircle
39
0
10
11.453652
20
23.008966
30
0
40
0.814860554951168
210
0
220
0
230
1
100
AcDbArc
50
74.645093
51
89.460513
0
ARC
5
199
100
AcDbEntity
8
1
62
256
6
ByLayer
370
18
48
1
60
0
100
AcDbCircle
39
0
10
43.372801
20
22.08113
30
0
40
8.73345345106421
210
0
220
0
230
1
100
AcDbArc
50
143.54376
51
164.563324
0
ARC
5
19A
100
AcDbEntity
8
1
62
256
6
ByLayer
370
18
48
1
60
0
100
AcDbCircle
39
0
10
42.861886
20
22.222211
30
0
40
8.20341806454942
210
0
220
0
230
1
100
AcDbArc
50
164.563324
51
186.907827
0
ARC
5
19B
100
AcDbEntity
8
1
62
256
6
ByLayer
370
18
48
1
60
0
100
AcDbCircle
39
0
10
46.381009
20
22.648559
30
0
40
11.7482731594066
210
0
220
0
230
1
100
AcDbArc
50
186.907827
51
204.499752
0
ARC
5
19C
100
AcDbEntity
8
1
62
256
6
ByLayer
370
18
48
1
60
0
100
AcDbCircle
39
0
10
59.716171
20
28.725673
30
0
40
26.4028926141288
210
0
220
0
230
1
100
AcDbArc
50
204.499752
51
212.377131
0
ARC
5
19D
100
AcDbEntity
8
1
62
256
6
ByLayer
370
18
48
1
60
0
100
AcDbCircle
39
0
10
66.156399
20
32.809161
30
0
40
34.0285991020802
210
0
220
0
230
1
100
AcDbArc
50
212.377131
51
214.720499
0
ARC
5
19E
100
AcDbEntity
8
1
62
256
6
ByLayer
370
18
48
1
60
0
100
AcDbCircle
39
0
10
70.074108
20
35.523986
30
0
40
38.7950153494817
210
0
220
0
230
1
100
AcDbArc
50
214.720499
51
216.776023
0
ARC
5
19F
100
AcDbEntity
8
1
62
256
6
ByLayer
370
18
48
1
60
0
100
AcDbCircle
39
0
10
36.440603
20
-16.711773
30
0
40
0.363633980803622
210
0
220
0
230
1
100
AcDbArc
50
63.293054
51
76.245525
0
ARC
5
1A0
100
AcDbEntity
8
1
62
256
6
ByLayer
370
18
48
1
60
0
100
AcDbCircle
39
0
10
36.479134
20
-16.554361
30
0
40
0.20157443435992
210
0
220
0
230
1
100
AcDbArc
50
76.245525
51
99.391404
0
ARC
5
1A1
100
AcDbEntity
8
1
62
256
6
ByLayer
370
18
48
1
60
0
100
AcDbCircle
39
0
10
8.546452
20
-22.997876
30
0
40
0.825950838969547
210
0
220
0
230
1
100
AcDbArc
50
252.488049
51
269.460513
0
ARC
5
1A2
100
AcDbEntity
8
1
62
256
6
ByLayer
370
18
48
1
60
0
100
AcDbCircle
39
0
10
8.414969
20
-23.414583
30
0
40
0.388992421630821
210
0
220
0
230
1
100
AcDbArc
50
217.330714
51
252.488049
0
ARC
5
1A3
100
AcDbEntity
8
1
62
256
6
ByLayer
370
18
48
1
60
0
100
AcDbCircle
39
0
10
10.719695
20
-8.377442
30
0
40
1.21373581608635
210
0
220
0
230
1
100
AcDbArc
50
14.581446
51
17.946275
0
ARC
5
1A4
100
AcDbEntity
8
1
62
256
6
ByLayer
370
18
48
1
60
0
100
AcDbCircle
39
0
10
10.444675
20
-8.466516
30
0
40
1.50282121078977
210
0
220
0
230
1
100
AcDbArc
50
17.946275
51
20.664111
0
ARC
5
1A5
100
AcDbEntity
8
1
62
256
6
ByLayer
370
18
48
1
60
0
100
AcDbCircle
39
0
10
10.703144
20
-8.369034
30
0
40
1.22658029920138
210
0
220
0
230
1
100
AcDbArc
50
20.664111
51
24.022979
0
ARC
5
1A6
100
AcDbEntity
8
1
62
256
6
ByLayer
370
18
48
1
60
0
100
AcDbCircle
39
0
10
10.961607
20
-8.253835
30
0
40
0.943607393026442
210
0
220
0
230
1
100
AcDbArc
50
24.022979
51
28.388257
0
ARC
5
1A7
100
AcDbEntity
8
1
62
256
6
ByLayer
370
18
48
1
60
0
100
AcDbCircle
39
0
10
11.035789
20
-8.213744
30
0
40
0.859284760525072
210
0
220
0
230
1
100
AcDbArc
50
28.388257
51
33.217394
0
ARC
5
1A8
100
AcDbEntity
8
1
62
256
6
ByLayer
370
18
48
1
60
0
100
AcDbCircle
39
0
10
11.203658
20
-8.103821
30
0
40
0.658627996423477
210
0
220
0
230
1
100
AcDbArc
50
33.217394
51
39.515153
0
ARC
5
1A9
100
AcDbEntity
8
1
62
256
6
ByLayer
370
18
48
1
60
0
100
AcDbCircle
39
0
10
11.302203
20
-8.022543
30
0
40
0.530889708080204
210
0
220
0
230
1
100
AcDbArc
50
39.515153
51
47.457925
0
ARC
5
1AA
100
AcDbEntity
8
1
62
256
6
ByLayer
370
18
48
1
60
0
100
AcDbCircle
39
0
10
11.402461
20
-7.913291
30
0
40
0.382607075401567
210
0
220
0
230
1
100
AcDbArc
50
47.457925
51
58.462712
0
ARC
5
1AB
100
AcDbEntity
8
1
62
256
6
ByLayer
370
18
48
1
60
0
100
AcDbCircle
39
0
10
11.452902
20
-7.8311
30
0
40
0.286172525312787
210
0
220
0
230
1
100
AcDbArc
50
58.462712
51
73.388138
0
ARC
5
1AC
100
AcDbEntity
8
1
62
256
6
ByLayer
370
18
48
1
60
0
100
AcDbCircle
39
0
10
11.45252
20
-7.832379
30
0
40
0.287507541559843
210
0
220
0
230
1
100
AcDbArc
50
73.388138
51
88.245035
0
ARC
5
1AD
100
AcDbEntity
8
1
62
256
6
ByLayer
370
18
48
1
60
0
100
AcDbCircle
39
0
10
41.1868
20
22.993147
30
0
40
6.46393686314481
210
0
220
0
230
1
100
AcDbArc
50
135.151587
51
135.357471
0
ARC
5
1AE
100
AcDbEntity
8
1
62
256
6
ByLayer
370
18
48
1
60
0
100
AcDbCircle
39
0
10
40.843778
20
23.331915
30
0
40
5.9818294740018
210
0
220
0
230
1
100
AcDbArc
50
135.357471
51
135.579948
0
ARC
5
1AF
100
AcDbEntity
8
1
62
256
6
ByLayer
370
18
48
1
60
0
100
AcDbCircle
39
0
10
40.626221
20
23.545112
30
0
40
5.67722489815066
210
0
220
0
230
1
100
AcDbArc
50
135.579948
51
136.025888
0
ARC
5
1B0
100
AcDbEntity
8
1
62
256
6
ByLayer
370
18
48
1
60
0
100
AcDbCircle
39
0
10
40.201424
20
23.954963
30
0
40
5.08694398810957
210
0
220
0
230
1
100
AcDbArc
50
136.025888
51
136.523573
0
ARC
5
1B1
100
AcDbEntity
8
1
62
256
6
ByLayer
370
18
48
1
60
0
100
AcDbCircle
39
0
10
40.102727
20
24.048545
30
0
40
4.95093489463936
210
0
220
0
230
1
100
AcDbArc
50
136.523573
51
137.007983
0
ARC
5
1B2
100
AcDbEntity
8
1
62
256
6
ByLayer
370
18
48
1
60
0
100
AcDbCircle
39
0
10
39.483897
20
24.625452
30
0
40
4.10490154466115
210
0
220
0
230
1
100
AcDbArc
50
137.007983
51
137.59223
0
ARC
5
1B3
100
AcDbEntity
8
1
62
256
6
ByLayer
370
18
48
1
60
0
100
AcDbCircle
39
0
10
39.018038
20
25.050956
30
0
40
3.47396684156036
210
0
220
0
230
1
100
AcDbArc
50
137.59223
51
138.925728
0
ARC
5
1B4
100
AcDbEntity
8
1
62
256
6
ByLayer
370
18
48
1
60
0
100
AcDbCircle
39
0
10
37.212383
20
26.624702
30
0
40
1.07874953635103
210
0
220
0
230
1
100
AcDbArc
50
138.925728
51
143.218261
0
ARC
5
1B5
100
AcDbEntity
8
SK1
62
256
6
ByLayer
370
18
48
1
60
0
100
AcDbCircle
39
0
10
-0.786202
20
4.844786
30
0
40
0.64756926009392
210
0
220
0
230
1
100
AcDbArc
50
24.064172
51
59.197466
0
ARC
5
1B6
100
AcDbEntity
8
SK1
62
256
6
ByLayer
370
18
48
1
60
0
100
AcDbCircle
39
0
10
-0.591456
20
5.171445
30
0
40
0.267264125072605
210
0
220
0
230
1
100
AcDbArc
50
59.197466
51
134.177836
0
ARC
5
1B7
100
AcDbEntity
8
SK1
62
256
6
ByLayer
370
18
48
1
60
0
100
AcDbCircle
39
0
10
0.014314
20
4.548036
30
0
40
1.136513827875
210
0
220
0
230
1
100
AcDbArc
50
134.177836
51
163.026872
0
ARC
5
1B8
100
AcDbEntity
8
SK1
62
256
6
ByLayer
370
18
48
1
60
0
100
AcDbCircle
39
0
10
8.296281
20
2.020231
30
0
40
9.79565829658632
210
0
220
0
230
1
100
AcDbArc
50
163.026872
51
166.44554
0
ARC
5
1B9
100
AcDbEntity
8
SK1
62
256
6
ByLayer
370
18
48
1
60
0
100
AcDbCircle
39
0
10
4.2655
20
2.991989
30
0
40
5.64939352433773
210
0
220
0
230
1
100
AcDbArc
50
166.44554
51
168.505054
0
ARC
5
1BA
100
AcDbEntity
8
SK1
62
256
6
ByLayer
370
18
48
1
60
0
100
AcDbCircle
39
0
10
3.767674
20
3.093227
30
0
40
5.1413782232027
210
0
220
0
230
1
100
AcDbArc
50
168.505054
51
170.768015
0
ARC
5
1BB
100
AcDbEntity
8
SK1
62
256
6
ByLayer
370
18
48
1
60
0
100
AcDbCircle
39
0
10
-2.081968
20
-5.542852
30
0
40
2.08325974699717
210
0
220
0
230
1
100
AcDbArc
50
357.98213
51
0.088682
0
ARC
5
1BC
100
AcDbEntity
8
SK1
62
256
6
ByLayer
370
18
48
1
60
0
100
AcDbCircle
39
0
10
-2.582199
20
-5.543626
30
0
40
2.58349157074255
210
0
220
0
230
1
100
AcDbArc
50
0.088682
51
1.787418
0
ARC
5
1BD
100
AcDbEntity
8
SK1
62
256
6
ByLayer
370
18
48
1
60
0
100
AcDbCircle
39
0
10
-6.942308
20
-5.679689
30
0
40
6.94572320847273
210
0
220
0
230
1
100
AcDbArc
50
1.787418
51
3.420135
0
ARC
5
1BE
100
AcDbEntity
8
SK1
62
256
6
ByLayer
370
18
48
1
60
0
100
AcDbCircle
39
0
10
-0.619882
20
-5.301838
30
0
40
0.61201606025582
210
0
220
0
230
1
100
AcDbArc
50
3.420135
51
21.791928
0
ARC
5
1BF
100
AcDbEntity
8
SK1
62
256
6
ByLayer
370
18
48
1
60
0
100
AcDbCircle
39
0
10
-0.105346
20
-5.096123
30
0
40
0.0578808369308586
210
0
220
0
230
1
100
AcDbArc
50
21.791928
51
108.236096
0
ARC
5
1C0
100
AcDbEntity
8
SK1
62
256
6
ByLayer
370
18
48
1
60
0
100
AcDbCircle
39
0
10
-0.087308
20
-5.15087
30
0
40
0.115523397554014
210
0
220
0
230
1
100
AcDbArc
50
108.236096
51
158.664141
0
ARC
5
1C1
100
AcDbEntity
8
SK1
62
256
6
ByLayer
370
18
48
1
60
0
100
AcDbCircle
39
0
10
23.544068
20
0.7134
30
0
40
25.2790707593992
210
0
220
0
230
1
100
AcDbArc
50
184.254082
51
190.557
0
ARC
5
1C2
100
AcDbEntity
8
SK1
62
256
6
ByLayer
370
18
48
1
60
0
100
AcDbCircle
39
0
10
14.718577
20
0.056921
30
0
40
16.4291966622399
210
0
220
0
230
1
100
AcDbArc
50
174.56932
51
184.254082
0
ARC
5
1C3
100
AcDbEntity
8
SK1
62
256
6
ByLayer
370
18
48
1
60
0
100
AcDbCircle
39
0
10
21.061716
20
-0.54611
30
0
40
22.8009362703158
210
0
220
0
230
1
100
AcDbArc
50
171.641411
51
174.56932
0
ARC
5
1C4
100
AcDbEntity
8
SK1
62
256
6
ByLayer
370
18
48
1
60
0
100
AcDbCircle
39
0
10
30.835541
20
-1.982165
30
0
40
32.6796972121856
210
0
220
0
230
1
100
AcDbArc
50
169.598353
51
171.641411
0
ARC
5
1C5
100
AcDbEntity
8
1
62
256
6
ByLayer
370
18
48
1
60
0
100
AcDbCircle
39
0
10
11.746966
20
-23.560417
30
0
40
0.172709774738368
210
0
220
0
230
1
100
AcDbArc
50
318.223309
51
328.571576
0
ARC
5
1C6
100
AcDbEntity
8
1
62
256
6
ByLayer
370
18
48
1
60
0
100
AcDbCircle
39
0
10
11.686742
20
-23.506615
30
0
40
0.253466151498574
210
0
220
0
230
1
100
AcDbArc
50
311.161805
51
318.223309
0
ARC
5
1C7
100
AcDbEntity
8
1
62
256
6
ByLayer
370
18
48
1
60
0
100
AcDbCircle
39
0
10
11.609112
20
-23.41782
30
0
40
0.371411169656614
210
0
220
0
230
1
100
AcDbArc
50
298.479087
51
311.161805
0
ARC
5
1C8
100
AcDbEntity
8
1
62
256
6
ByLayer
370
18
48
1
60
0
100
AcDbCircle
39
0
10
11.465473
20
-23.15304
30
0
40
0.672642474695955
210
0
220
0
230
1
100
AcDbArc
50
291.456176
51
298.479087
0
ARC
5
1C9
100
AcDbEntity
8
1
62
256
6
ByLayer
370
18
48
1
60
0
100
AcDbCircle
39
0
10
11.487409
20
-23.208852
30
0
40
0.612674420516519
210
0
220
0
230
1
100
AcDbArc
50
279.510761
51
291.456176
0
ARC
5
1CA
100
AcDbEntity
8
1
62
256
6
ByLayer
370
18
48
1
60
0
100
AcDbCircle
39
0
10
11.460189
20
-23.046378
30
0
40
0.777412790318622
210
0
220
0
230
1
100
AcDbArc
50
270.083726
51
279.510761
0
ARC
5
1CB
100
AcDbEntity
8
SK1
62
256
6
ByLayer
370
18
48
1
60
0
100
AcDbCircle
39
0
10
-0.215842
20
-17.577768
30
0
40
0.217493382754576
210
0
220
0
230
1
100
AcDbArc
50
20.550365
51
26.859613
0
ARC
5
1CC
100
AcDbEntity
8
SK1
62
256
6
ByLayer
370
18
48
1
60
0
100
AcDbCircle
39
0
10
-0.197386
20
-17.568422
30
0
40
0.196805999847621
210
0
220
0
230
1
100
AcDbArc
50
26.859613
51
33.830504
0
ARC
5
1CD
100
AcDbEntity
8
SK1
62
256
6
ByLayer
370
18
48
1
60
0
100
AcDbCircle
39
0
10
-0.197394
20
-17.568426
30
0
40
0.196814553526538
210
0
220
0
230
1
100
AcDbArc
50
33.830504
51
40.74928
0
ARC
5
1CE
100
AcDbEntity
8
SK1
62
256
6
ByLayer
370
18
48
1
60
0
100
AcDbCircle
39
0
10
-0.201432
20
-17.571906
30
0
40
0.202145345054584
210
0
220
0
230
1
100
AcDbArc
50
40.74928
51
47.486026
0
ARC
5
1CF
100
AcDbEntity
8
SK1
62
256
6
ByLayer
370
18
48
1
60
0
100
AcDbCircle
39
0
10
-0.200114
20
-17.570469
30
0
40
0.2001954031735
210
0
220
0
230
1
100
AcDbArc
50
47.486026
51
54.343887
0
ARC
5
1D0
100
AcDbEntity
8
SK1
62
256
6
ByLayer
370
18
48
1
60
0
100
AcDbCircle
39
0
10
-0.199227
20
-17.569232
30
0
40
0.198673590320262
210
0
220
0
230
1
100
AcDbArc
50
54.343887
51
61.25415
0
ARC
5
1D1
100
AcDbEntity
8
SK1
62
256
6
ByLayer
370
18
48
1
60
0
100
AcDbCircle
39
0
10
-0.20075
20
-17.572009
30
0
40
0.20184097286954
210
0
220
0
230
1
100
AcDbArc
50
61.25415
51
68.01125
0
ARC
5
1D2
100
AcDbEntity
8
SK1
62
256
6
ByLayer
370
18
48
1
60
0
100
AcDbCircle
39
0
10
-0.19941
20
-17.568689
30
0
40
0.198260298227841
210
0
220
0
230
1
100
AcDbArc
50
68.01125
51
74.890096
0
ARC
5
1D3
100
AcDbEntity
8
SK1
62
256
6
ByLayer
370
18
48
1
60
0
100
AcDbCircle
39
0
10
-0.198956
20
-17.567007
30
0
40
0.1965178356917
210
0
220
0
230
1
100
AcDbArc
50
74.890096
51
81.856262
0
ARC
5
1D4
100
AcDbEntity
8
SK1
62
256
6
ByLayer
370
18
48
1
60
0
100
AcDbCircle
39
0
10
-0.201443
20
-17.584388
30
0
40
0.214075806613472
210
0
220
0
230
1
100
AcDbArc
50
81.856262
51
88.252319
0
ARC
5
1D5
100
AcDbEntity
8
1
62
256
6
ByLayer
370
18
48
1
60
0
100
AcDbCircle
39
0
10
45.550314
20
-20.67412
30
0
40
11.3055185320021
210
0
220
0
230
1
100
AcDbArc
50
207.536235
51
225.13807
0
ARC
5
1D6
100
AcDbEntity
8
1
62
256
6
ByLayer
370
18
48
1
60
0
100
AcDbCircle
39
0
10
42.360568
20
-22.337161
30
0
40
7.70827170559644
210
0
220
0
230
1
100
AcDbArc
50
181.949018
51
207.536235
0
ARC
5
1D7
100
AcDbEntity
8
1
62
256
6
ByLayer
370
18
48
1
60
0
100
AcDbCircle
39
0
10
44.069551
20
-22.279005
30
0
40
9.41824378909746
210
0
220
0
230
1
100
AcDbArc
50
162.329885
51
181.949018
0
ARC
5
1D8
100
AcDbEntity
8
1
62
256
6
ByLayer
370
18
48
1
60
0
100
AcDbCircle
39
0
10
52.67407
20
-25.020113
30
0
40
18.4488267179915
210
0
220
0
230
1
100
AcDbArc
50
152.241316
51
162.329885
0
ARC
5
1D9
100
AcDbEntity
8
1
62
256
6
ByLayer
370
18
48
1
60
0
100
AcDbCircle
39
0
10
11.005322
20
8.256266
30
0
40
0.907936259361421
210
0
220
0
230
1
100
AcDbArc
50
343.699944
51
348.282485
0
ARC
5
1DA
100
AcDbEntity
8
1
62
256
6
ByLayer
370
18
48
1
60
0
100
AcDbCircle
39
0
10
11.020579
20
8.251804
30
0
40
0.89204002773799
210
0
220
0
230
1
100
AcDbArc
50
339.03583
51
343.699944
0
ARC
5
1DB
100
AcDbEntity
8
1
62
256
6
ByLayer
370
18
48
1
60
0
100
AcDbCircle
39
0
10
11.012243
20
8.254998
30
0
40
0.900967008638712
210
0
220
0
230
1
100
AcDbArc
50
334.500127
51
339.03583
0
ARC
5
1DC
100
AcDbEntity
8
1
62
256
6
ByLayer
370
18
48
1
60
0
100
AcDbCircle
39
0
10
10.966262
20
8.27693
30
0
40
0.951910361943274
210
0
220
0
230
1
100
AcDbArc
50
330.206927
51
334.500127
0
ARC
5
1DD
100
AcDbEntity
8
1
62
256
6
ByLayer
370
18
48
1
60
0
100
AcDbCircle
39
0
10
10.875294
20
8.329014
30
0
40
1.05673394150442
210
0
220
0
230
1
100
AcDbArc
50
326.298052
51
330.206927
0
ARC
5
1DE
100
AcDbEntity
8
1
62
256
6
ByLayer
370
18
48
1
60
0
100
AcDbCircle
39
0
10
11.154075
20
8.143076
30
0
40
0.721634129088333
210
0
220
0
230
1
100
AcDbArc
50
320.57658
51
326.298052
0
ARC
5
1DF
100
AcDbEntity
8
1
62
256
6
ByLayer
370
18
48
1
60
0
100
AcDbCircle
39
0
10
11.343331
20
7.98749
30
0
40
0.476634938038142
210
0
220
0
230
1
100
AcDbArc
50
302.606544
51
320.57658
0
ARC
5
1E0
100
AcDbEntity
8
1
62
256
6
ByLayer
370
18
48
1
60
0
100
AcDbCircle
39
0
10
11.460085
20
7.804972
30
0
40
0.25996819468392
210
0
220
0
230
1
100
AcDbArc
50
270.273194
51
302.606544
0
ARC
5
1E1
100
AcDbEntity
8
1
62
256
6
ByLayer
370
18
48
1
60
0
100
AcDbCircle
39
0
10
54.250268
20
-24.682662
30
0
40
20.19034820766
210
0
220
0
230
1
100
AcDbArc
50
125.589538
51
132.51662
0
ARC
5
1E2
100
AcDbEntity
8
1
62
256
6
ByLayer
370
18
48
1
60
0
100
AcDbCircle
39
0
10
48.295979
20
-18.18848
30
0
40
11.379675262328
210
0
220
0
230
1
100
AcDbArc
50
132.51662
51
144.774989
0
ARC
5
1E3
100
AcDbEntity
8
SK1
62
256
6
ByLayer
370
18
48
1
60
0
100
AcDbCircle
39
0
10
-0.215842
20
17.577768
30
0
40
0.217493380654834
210
0
220
0
230
1
100
AcDbArc
50
333.140387
51
339.449636
0
ARC
5
1E4
100
AcDbEntity
8
SK1
62
256
6
ByLayer
370
18
48
1
60
0
100
AcDbCircle
39
0
10
-0.197386
20
17.568422
30
0
40
0.196805999608127
210
0
220
0
230
1
100
AcDbArc
50
326.169496
51
333.140387
0
ARC
5
1E5
100
AcDbEntity
8
SK1
62
256
6
ByLayer
370
18
48
1
60
0
100
AcDbCircle
39
0
10
-0.197394
20
17.568426
30
0
40
0.196814555105465
210
0
220
0
230
1
100
AcDbArc
50
319.25072
51
326.169496
0
ARC
5
1E6
100
AcDbEntity
8
SK1
62
256
6
ByLayer
370
18
48
1
60
0
100
AcDbCircle
39
0
10
-0.201432
20
17.571906
30
0
40
0.202145346142116
210
0
220
0
230
1
100
AcDbArc
50
312.513974
51
319.25072
0
ARC
5
1E7
100
AcDbEntity
8
SK1
62
256
6
ByLayer
370
18
48
1
60
0
100
AcDbCircle
39
0
10
-0.200114
20
17.570469
30
0
40
0.200195401230114
210
0
220
0
230
1
100
AcDbArc
50
305.656113
51
312.513974
0
ARC
5
1E8
100
AcDbEntity
8
SK1
62
256
6
ByLayer
370
18
48
1
60
0
100
AcDbCircle
39
0
10
-0.199227
20
17.569232
30
0
40
0.198673587579162
210
0
220
0
230
1
100
AcDbArc
50
298.745849
51
305.656113
0
ARC
5
1E9
100
AcDbEntity
8
SK1
62
256
6
ByLayer
370
18
48
1
60
0
100
AcDbCircle
39
0
10
-0.199082
20
17.568968
30
0
40
0.198372073475906
210
0
220
0
230
1
100
AcDbArc
50
284.974087
51
298.745849
0
ARC
5
1EA
100
AcDbEntity
8
SK1
62
256
6
ByLayer
370
18
48
1
60
0
100
AcDbCircle
39
0
10
-0.201216
20
17.576945
30
0
40
0.206629135816168
210
0
220
0
230
1
100
AcDbArc
50
271.74768
51
284.974087
0
ARC
5
1EB
100
AcDbEntity
8
1
62
256
6
ByLayer
370
18
48
1
60
0
100
AcDbCircle
39
0
10
8.994678
20
-8.256266
30
0
40
0.907936259360826
210
0
220
0
230
1
100
AcDbArc
50
163.699944
51
168.282485
0
ARC
5
1EC
100
AcDbEntity
8
1
62
256
6
ByLayer
370
18
48
1
60
0
100
AcDbCircle
39
0
10
8.979421
20
-8.251804
30
0
40
0.892040027737466
210
0
220
0
230
1
100
AcDbArc
50
159.03583
51
163.699944
0
ARC
5
1ED
100
AcDbEntity
8
1
62
256
6
ByLayer
370
18
48
1
60
0
100
AcDbCircle
39
0
10
8.987757
20
-8.254998
30
0
40
0.900967008638044
210
0
220
0
230
1
100
AcDbArc
50
154.500127
51
159.03583
0
ARC
5
1EE
100
AcDbEntity
8
1
62
256
6
ByLayer
370
18
48
1
60
0
100
AcDbCircle
39
0
10
9.033738
20
-8.27693
30
0
40
0.951910361942525
210
0
220
0
230
1
100
AcDbArc
50
150.206927
51
154.500127
0
ARC
5
1EF
100
AcDbEntity
8
1
62
256
6
ByLayer
370
18
48
1
60
0
100
AcDbCircle
39
0
10
9.124706
20
-8.329014
30
0
40
1.05673394150308
210
0
220
0
230
1
100
AcDbArc
50
146.298052
51
150.206927
0
ARC
5
1F0
100
AcDbEntity
8
1
62
256
6
ByLayer
370
18
48
1
60
0
100
AcDbCircle
39
0
10
8.845925
20
-8.143076
30
0
40
0.721634129089076
210
0
220
0
230
1
100
AcDbArc
50
140.57658
51
146.298052
0
ARC
5
1F1
100
AcDbEntity
8
1
62
256
6
ByLayer
370
18
48
1
60
0
100
AcDbCircle
39
0
10
8.656669
20
-7.98749
30
0
40
0.47663493803811
210
0
220
0
230
1
100
AcDbArc
50
122.606544
51
140.57658
0
ARC
5
1F2
100
AcDbEntity
8
1
62
256
6
ByLayer
370
18
48
1
60
0
100
AcDbCircle
39
0
10
8.539915
20
-7.804972
30
0
40
0.259968194684028
210
0
220
0
230
1
100
AcDbArc
50
90.273194
51
122.606544
0
ARC
5
1F3
100
AcDbEntity
8
SK1
62
256
6
ByLayer
370
18
48
1
60
0
100
AcDbCircle
39
0
10
-1.79042
20
-17.532288
30
0
40
0.209773443831964
210
0
220
0
230
1
100
AcDbArc
50
164.631983
51
172.674984
0
ARC
5
1F4
100
AcDbEntity
8
SK1
62
256
6
ByLayer
370
18
48
1
60
0
100
AcDbCircle
39
0
10
-1.803281
20
-17.528753
30
0
40
0.196435235347086
210
0
220
0
230
1
100
AcDbArc
50
156.04483
51
164.631983
0
ARC
5
1F5
100
AcDbEntity
8
SK1
62
256
6
ByLayer
370
18
48
1
60
0
100
AcDbCircle
39
0
10
-1.799407
20
-17.530474
30
0
40
0.200674367362431
210
0
220
0
230
1
100
AcDbArc
50
147.644219
51
156.04483
0
ARC
5
1F6
100
AcDbEntity
8
SK1
62
256
6
ByLayer
370
18
48
1
60
0
100
AcDbCircle
39
0
10
-1.800297
20
-17.52991
30
0
40
0.199620801100718
210
0
220
0
230
1
100
AcDbArc
50
139.199432
51
147.644219
0
ARC
5
1F7
100
AcDbEntity
8
SK1
62
256
6
ByLayer
370
18
48
1
60
0
100
AcDbCircle
39
0
10
-1.801682
20
-17.528715
30
0
40
0.19779063251454
210
0
220
0
230
1
100
AcDbArc
50
113.631293
51
139.199432
0
ARC
5
1F8
100
AcDbEntity
8
SK1
62
256
6
ByLayer
370
18
48
1
60
0
100
AcDbCircle
39
0
10
-1.798159
20
-17.536766
30
0
40
0.206579412392757
210
0
220
0
230
1
100
AcDbArc
50
89.117354
51
113.631293
0
ARC
5
1F9
100
AcDbEntity
8
1
62
256
6
ByLayer
370
18
48
1
60
0
100
AcDbCircle
39
0
10
9.280305
20
8.377442
30
0
40
1.21373581608535
210
0
220
0
230
1
100
AcDbArc
50
194.581446
51
197.946275
0
ARC
5
1FA
100
AcDbEntity
8
1
62
256
6
ByLayer
370
18
48
1
60
0
100
AcDbCircle
39
0
10
9.555325
20
8.466516
30
0
40
1.50282121079626
210
0
220
0
230
1
100
AcDbArc
50
197.946275
51
200.664111
0
ARC
5
1FB
100
AcDbEntity
8
1
62
256
6
ByLayer
370
18
48
1
60
0
100
AcDbCircle
39
0
10
9.296856
20
8.369034
30
0
40
1.22658029920346
210
0
220
0
230
1
100
AcDbArc
50
200.664111
51
204.022979
0
ARC
5
1FC
100
AcDbEntity
8
1
62
256
6
ByLayer
370
18
48
1
60
0
100
AcDbCircle
39
0
10
9.038393
20
8.253835
30
0
40
0.943607393026278
210
0
220
0
230
1
100
AcDbArc
50
204.022979
51
208.388257
0
ARC
5
1FD
100
AcDbEntity
8
1
62
256
6
ByLayer
370
18
48
1
60
0
100
AcDbCircle
39
0
10
8.964211
20
8.213744
30
0
40
0.859284760524359
210
0
220
0
230
1
100
AcDbArc
50
208.388257
51
213.217394
0
ARC
5
1FE
100
AcDbEntity
8
1
62
256
6
ByLayer
370
18
48
1
60
0
100
AcDbCircle
39
0
10
8.796342
20
8.103821
30
0
40
0.658627996423333
210
0
220
0
230
1
100
AcDbArc
50
213.217394
51
219.515153
0
ARC
5
1FF
100
AcDbEntity
8
1
62
256
6
ByLayer
370
18
48
1
60
0
100
AcDbCircle
39
0
10
8.697797
20
8.022543
30
0
40
0.53088970808045
210
0
220
0
230
1
100
AcDbArc
50
219.515153
51
227.457925
0
ARC
5
200
100
AcDbEntity
8
1
62
256
6
ByLayer
370
18
48
1
60
0
100
AcDbCircle
39
0
10
8.597539
20
7.913291
30
0
40
0.382607075401837
210
0
220
0
230
1
100
AcDbArc
50
227.457925
51
238.462712
0
ARC
5
201
100
AcDbEntity
8
1
62
256
6
ByLayer
370
18
48
1
60
0
100
AcDbCircle
39
0
10
8.547098
20
7.8311
30
0
40
0.286172525312773
210
0
220
0
230
1
100
AcDbArc
50
238.462712
51
253.388138
0
ARC
5
202
100
AcDbEntity
8
1
62
256
6
ByLayer
370
18
48
1
60
0
100
AcDbCircle
39
0
10
8.54748
20
7.832379
30
0
40
0.287507541559696
210
0
220
0
230
1
100
AcDbArc
50
253.388138
51
268.245035
0
ARC
5
203
100
AcDbEntity
8
1
62
256
6
ByLayer
370
18
48
1
60
0
100
AcDbCircle
39
0
10
8.540051
20
22.882052
30
0
40
0.941738867366542
210
0
220
0
230
1
100
AcDbArc
50
90.083726
51
105.262655
0
ARC
5
204
100
AcDbEntity
8
1
62
256
6
ByLayer
370
18
48
1
60
0
100
AcDbCircle
39
0
10
8.375341
20
23.485678
30
0
40
0.316044623116973
210
0
220
0
230
1
100
AcDbArc
50
105.262655
51
148.571576
0
ARC
5
205
100
AcDbEntity
8
1
62
256
6
ByLayer
370
18
48
1
60
0
100
AcDbCircle
39
0
10
36.471725
20
-16.498263
30
0
40
0.145030815817411
210
0
220
0
230
1
100
AcDbArc
50
100.119785
51
109.954794
0
ARC
5
206
100
AcDbEntity
8
1
62
256
6
ByLayer
370
18
48
1
60
0
100
AcDbCircle
39
0
10
36.467415
20
-16.486394
30
0
40
0.132403900516985
210
0
220
0
230
1
100
AcDbArc
50
109.954794
51
120.722461
0
ARC
5
207
100
AcDbEntity
8
1
62
256
6
ByLayer
370
18
48
1
60
0
100
AcDbCircle
39
0
10
36.466514
20
-16.484877
30
0
40
0.130639878611997
210
0
220
0
230
1
100
AcDbArc
50
120.722461
51
137.428908
0
ARC
5
208
100
AcDbEntity
8
1
62
256
6
ByLayer
370
18
48
1
60
0
100
AcDbCircle
39
0
10
36.479141
20
-16.496476
30
0
40
0.147785563107109
210
0
220
0
230
1
100
AcDbArc
50
137.428908
51
152.219955
0
ARC
5
209
100
AcDbEntity
8
SK1
62
256
6
ByLayer
370
18
48
1
60
0
100
AcDbCircle
39
0
10
-1.79042
20
17.532288
30
0
40
0.209773443832216
210
0
220
0
230
1
100
AcDbArc
50
187.325016
51
195.368017
0
ARC
5
20A
100
AcDbEntity
8
SK1
62
256
6
ByLayer
370
18
48
1
60
0
100
AcDbCircle
39
0
10
-1.803281
20
17.528753
30
0
40
0.196435235347128
210
0
220
0
230
1
100
AcDbArc
50
195.368017
51
203.95517
0
ARC
5
20B
100
AcDbEntity
8
SK1
62
256
6
ByLayer
370
18
48
1
60
0
100
AcDbCircle
39
0
10
-1.799246
20
17.530546
30
0
40
0.200849823022236
210
0
220
0
230
1
100
AcDbArc
50
203.95517
51
210.775072
0
ARC
5
20C
100
AcDbEntity
8
SK1
62
256
6
ByLayer
370
18
48
1
60
0
100
AcDbCircle
39
0
10
-1.800324
20
17.529904
30
0
40
0.199595407220695
210
0
220
0
230
1
100
AcDbArc
50
210.775072
51
217.637733
0
ARC
5
20D
100
AcDbEntity
8
SK1
62
256
6
ByLayer
370
18
48
1
60
0
100
AcDbCircle
39
0
10
-1.80001
20
17.530146
30
0
40
0.199992796642455
210
0
220
0
230
1
100
AcDbArc
50
217.637733
51
224.481529
0
ARC
5
20E
100
AcDbEntity
8
SK1
62
256
6
ByLayer
370
18
48
1
60
0
100
AcDbCircle
39
0
10
-1.799882
20
17.530272
30
0
40
0.200171375860178
210
0
220
0
230
1
100
AcDbArc
50
224.481529
51
231.319234
0
ARC
5
20F
100
AcDbEntity
8
SK1
62
256
6
ByLayer
370
18
48
1
60
0
100
AcDbCircle
39
0
10
-1.800484
20
17.52952
30
0
40
0.199208374866853
210
0
220
0
230
1
100
AcDbArc
50
231.319234
51
238.199535
0
ARC
5
210
100
AcDbEntity
8
SK1
62
256
6
ByLayer
370
18
48
1
60
0
100
AcDbCircle
39
0
10
-1.799573
20
17.530989
30
0
40
0.200937439072489
210
0
220
0
230
1
100
AcDbArc
50
238.199535
51
245.020771
0
ARC
5
211
100
AcDbEntity
8
SK1
62
256
6
ByLayer
370
18
48
1
60
0
100
AcDbCircle
39
0
10
-1.801775
20
17.526262
30
0
40
0.195722157879267
210
0
220
0
230
1
100
AcDbArc
50
245.020771
51
258.504005
0
ARC
5
212
100
AcDbEntity
8
SK1
62
256
6
ByLayer
370
18
48
1
60
0
100
AcDbCircle
39
0
10
-1.798263
20
17.543529
30
0
40
0.213342770289282
210
0
220
0
230
1
100
AcDbArc
50
258.504005
51
270.882646
0
ARC
5
213
100
AcDbEntity
8
1
62
256
6
ByLayer
370
18
48
1
60
0
100
AcDbCircle
39
0
10
24.091559
20
-111.676703
30
0
40
104.985394848403
210
0
220
0
230
1
100
AcDbArc
50
74.811193
51
77.27599
0
ARC
5
215
100
AcDbEntity
8
1
62
256
6
ByLayer
370
18
48
1
60
0
100
AcDbCircle
39
0
10
-49
20
29.6039
30
0
40
0.897927405783631
210
0
220
0
230
-1
100
AcDbArc
50
187.5
51
172.5
0
ARC
5
216
100
AcDbEntity
8
1
62
256
6
ByLayer
370
18
48
1
60
0
100
AcDbCircle
39
0
10
-49
20
29.6039
30
0
40
0.7
210
0
220
0
230
-1
100
AcDbArc
50
187.5
51
172.5
0
ARC
5
217
100
AcDbEntity
8
1
62
256
6
ByLayer
370
13
48
0.05
60
0
100
AcDbCircle
39
0
10
69.206
20
-33.706
30
0
40
0.794000000000056
210
0
220
0
230
1
100
AcDbArc
50
260
51
360
0
ARC
5
21D
100
AcDbEntity
8
1
62
256
6
ByLayer
370
18
48
1
60
0
100
AcDbCircle
39
0
10
57.92919
20
20.266821
30
0
40
1.75
210
0
220
0
230
1
100
AcDbArc
50
208.497312
51
348.928217
0
ARC
5
21E
100
AcDbEntity
8
1
62
256
6
ByLayer
370
18
48
1
60
0
100
AcDbCircle
39
0
10
-55.777242
20
36.256874
30
0
40
5
210
0
220
0
230
-1
100
AcDbArc
50
260
51
262.946514
0
ARC
5
21F
100
AcDbEntity
8
1
62
256
6
ByLayer
370
18
48
1
60
0
100
AcDbCircle
39
0
10
58.10977
20
21.421058
30
0
40
1.67203439621247
210
0
220
0
230
1
100
AcDbArc
50
179.75
51
187.432067
0
ARC
5
220
100
AcDbEntity
8
1
62
256
6
ByLayer
370
18
48
1
60
0
100
AcDbCircle
39
0
10
58.109949
20
21.462115
30
0
40
1.5
210
0
220
0
230
1
100
AcDbArc
50
122.681322
51
179.75
0
ARC
5
221
100
AcDbEntity
8
1
62
256
6
ByLayer
370
18
48
1
60
0
100
AcDbCircle
39
0
10
-63.65
20
27.084617
30
0
40
1.6765
210
0
220
0
230
-1
100
AcDbArc
50
310
51
9.840113
0
ARC
5
222
100
AcDbEntity
8
1
62
256
6
ByLayer
370
18
48
1
60
0
100
AcDbCircle
39
0
10
-63.65
20
27.084617
30
0
40
1.6765
210
0
220
0
230
-1
100
AcDbArc
50
9.840113
51
70.159887
0
ARC
5
223
100
AcDbEntity
8
1
62
256
6
ByLayer
370
18
48
1
60
0
100
AcDbCircle
39
0
10
-63.65
20
27.084617
30
0
40
1.6765
210
0
220
0
230
-1
100
AcDbArc
50
250.159887
51
310
0
ARC
5
224
100
AcDbEntity
8
1
62
256
6
ByLayer
370
18
48
1
60
0
100
AcDbCircle
39
0
10
-63.65
20
27.084617
30
0
40
1.6765
210
0
220
0
230
-1
100
AcDbArc
50
70.159887
51
130
0
ARC
5
225
100
AcDbEntity
8
1
62
256
6
ByLayer
370
18
48
1
60
0
100
AcDbCircle
39
0
10
-63.65
20
27.084617
30
0
40
1.6765
210
0
220
0
230
-1
100
AcDbArc
50
189.840113
51
250.159887
0
ARC
5
226
100
AcDbEntity
8
1
62
256
6
ByLayer
370
18
48
1
60
0
100
AcDbCircle
39
0
10
-63.65
20
27.084617
30
0
40
1.6765
210
0
220
0
230
-1
100
AcDbArc
50
130
51
189.840113
0
ARC
5
227
100
AcDbEntity
8
1
62
256
6
ByLayer
370
18
48
1
60
0
100
AcDbCircle
39
0
10
-58.10977
20
21.421058
30
0
40
1.5
210
0
220
0
230
-1
100
AcDbArc
50
359.824016
51
0.25
0
ARC
5
228
100
AcDbEntity
8
1
62
256
6
ByLayer
370
18
48
1
60
0
100
AcDbCircle
39
0
10
-57.92919
20
20.266821
30
0
40
1.75
210
0
220
0
230
-1
100
AcDbArc
50
28.497312
51
32.410135
0
ARC
5
229
100
AcDbEntity
8
1
62
256
6
ByLayer
370
18
48
1
60
0
100
AcDbCircle
39
0
10
63.65
20
27.084617
30
0
40
1.2065
210
0
220
0
230
1
100
AcDbArc
50
259.920057
51
316.044721
0
ARC
5
22A
100
AcDbEntity
8
1
62
256
6
ByLayer
370
18
48
1
60
0
100
AcDbCircle
39
0
10
63.65
20
27.084617
30
0
40
1.2065
210
0
220
0
230
1
100
AcDbArc
50
200.079943
51
259.920057
0
ARC
5
22B
100
AcDbEntity
8
1
62
256
6
ByLayer
370
18
48
1
60
0
100
AcDbCircle
39
0
10
63.65
20
27.084617
30
0
40
1.2065
210
0
220
0
230
1
100
AcDbArc
50
143.955279
51
200.079943
0
ARC
5
22C
100
AcDbEntity
8
1
62
256
6
ByLayer
370
18
48
1
60
0
100
AcDbCircle
39
0
10
-58.094
20
31.746655
30
0
40
0.793999999999996
210
0
220
0
230
-1
100
AcDbArc
50
0
51
80
0
ARC
5
22D
100
AcDbEntity
8
1
62
256
6
ByLayer
370
18
48
1
60
0
100
AcDbCircle
39
0
10
-58.094
20
20.463234
30
0
40
0.793999999999996
210
0
220
0
230
-1
100
AcDbArc
50
260
51
0
0
ARC
5
22E
100
AcDbEntity
8
1
62
256
6
ByLayer
370
18
48
1
60
0
100
AcDbCircle
39
0
10
-69.206
20
22.422579
30
0
40
0.793999999999977
210
0
220
0
230
-1
100
AcDbArc
50
180
51
260
0
ARC
5
22F
100
AcDbEntity
8
1
62
256
6
ByLayer
370
18
48
1
60
0
100
AcDbCircle
39
0
10
-69.206
20
33.706
30
0
40
0.793999999999997
210
0
220
0
230
-1
100
AcDbArc
50
80
51
180
0
ARC
5
230
100
AcDbEntity
8
1
62
256
6
ByLayer
370
18
48
1
60
0
100
AcDbCircle
39
0
10
63.65
20
27.084617
30
0
40
1.2065
210
0
220
0
230
1
100
AcDbArc
50
316.044721
51
323.955279
0
ARC
5
231
100
AcDbEntity
8
1
62
256
6
ByLayer
370
18
48
1
60
0
100
AcDbCircle
39
0
10
-63.65
20
27.084617
30
0
40
1.2065
210
0
220
0
230
-1
100
AcDbArc
50
159.920057
51
216.044721
0
ARC
5
232
100
AcDbEntity
8
1
62
256
6
ByLayer
370
18
48
1
60
0
100
AcDbCircle
39
0
10
-63.65
20
27.084617
30
0
40
1.2065
210
0
220
0
230
-1
100
AcDbArc
50
100.079943
51
159.920057
0
ARC
5
233
100
AcDbEntity
8
1
62
256
6
ByLayer
370
18
48
1
60
0
100
AcDbCircle
39
0
10
-63.65
20
27.084617
30
0
40
1.2065
210
0
220
0
230
-1
100
AcDbArc
50
43.955279
51
100.079943
0
ARC
5
234
100
AcDbEntity
8
1
62
256
6
ByLayer
370
18
48
1
60
0
100
AcDbCircle
39
0
10
63.65
20
27.084617
30
0
40
1.2065
210
0
220
0
230
1
100
AcDbArc
50
136.044721
51
143.955279
0
ARC
5
235
100
AcDbEntity
8
1
62
256
6
ByLayer
370
18
48
1
60
0
100
AcDbCircle
39
0
10
-58.109949
20
21.462115
30
0
40
1.67203439621247
210
0
220
0
230
-1
100
AcDbArc
50
0.25
51
61.026224
0
ARC
5
236
100
AcDbEntity
8
1
62
256
6
ByLayer
370
18
48
1
60
0
100
AcDbCircle
39
0
10
-67.5
20
10.6039
30
0
40
5
210
0
220
0
230
-1
100
AcDbArc
50
2.182982
51
70
0
ARC
5
237
100
AcDbEntity
8
1
62
256
6
ByLayer
370
18
48
1
60
0
100
AcDbCircle
39
0
10
57.92919
20
20.266821
30
0
40
1.75
210
0
220
0
230
1
100
AcDbArc
50
111.071783
51
138.933752
0
CIRCLE
5
14B
100
AcDbEntity
8
1
62
256
6
ByLayer
370
18
48
1
60
0
100
AcDbCircle
10
10
20
0
30
0
40
0.0009999999999994
39
0
210
0
220
0
230
1
0
CIRCLE
5
214
100
AcDbEntity
8
1
62
256
6
ByLayer
370
18
48
1
60
0
100
AcDbCircle
10
-49
20
29.6039
30
0
40
1.025
39
0
210
0
220
0
230
-1
0
CIRCLE
5
218
100
AcDbEntity
8
1
62
256
6
ByLayer
370
18
48
1
60
0
100
AcDbCircle
10
-63.65
20
27.084617
30
0
40
4.00697067753274
39
0
210
0
220
0
230
-1
0
CIRCLE
5
219
100
AcDbEntity
8
1
62
256
6
ByLayer
370
18
48
1
60
0
100
AcDbCircle
10
-63.65
20
27.084617
30
0
40
3.425
39
0
210
0
220
0
230
-1
0
CIRCLE
5
21A
100
AcDbEntity
8
1
62
256
6
ByLayer
370
18
48
1
60
0
100
AcDbCircle
10
63.65
20
27.084617
30
0
40
3.93651081363659
39
0
210
0
220
0
230
1
0
CIRCLE
5
21B
100
AcDbEntity
8
1
62
256
6
ByLayer
370
18
48
1
60
0
100
AcDbCircle
10
-63.65
20
27.084617
30
0
40
4.07132534818238
39
0
210
0
220
0
230
-1
0
CIRCLE
5
21C
100
AcDbEntity
8
1
62
256
6
ByLayer
370
18
48
1
60
0
100
AcDbCircle
10
-63.65
20
27.084617
30
0
40
2.4
39
0
210
0
220
0
230
-1
0
ELLIPSE
5
238
100
AcDbEntity
8
1
62
256
6
ByLayer
370
18
48
1
60
0
100
AcDbEllipse
10
50.734595
20
-10.636459
30
0
11
1.39750348802968
21
-0.581313438701555
31
0
210
0
220
0
230
-1
40
0.937467
41
-1.09612797808446
42
-0.371816338506695
0
ELLIPSE
5
239
100
AcDbEntity
8
1
62
256
6
ByLayer
370
18
48
1
60
0
100
AcDbEllipse
10
50.734595
20
-10.636459
30
0
11
1.39750348803074
21
-0.581313438700005
31
0
210
0
220
0
230
-1
40
0.937467
41
-0.371816338505515
42
1.78366528770747
0
ELLIPSE
5
23A
100
AcDbEntity
8
1
62
256
6
ByLayer
370
18
48
1
60
0
100
AcDbEllipse
10
49
20
-10.645028
30
0
11
1.025
21
1.03590503145942E-15
31
0
210
0
220
0
230
-1
40
0.5
41
0.928980032893928
42
2.31733237587895
0
ELLIPSE
5
23B
100
AcDbEntity
8
1
62
256
6
ByLayer
370
18
48
1
60
0
100
AcDbEllipse
10
56.391221
20
-19.083878
30
0
11
3.09999999999999
21
0
31
0
210
0
220
0
230
1
40
0.866025
41
1.77017239384338
42
2.8758969270641
0
ELLIPSE
5
23C
100
AcDbEntity
8
1
62
256
6
ByLayer
370
18
48
1
60
0
100
AcDbEllipse
10
55.777242
20
-18.8992
30
0
11
5.00000021162733
21
4.11569134932398E-08
31
0
210
0
220
0
230
1
40
0.5
41
1.39626339226288
42
1.44768976595841
0
ELLIPSE
5
23D
100
AcDbEntity
8
1
62
256
6
ByLayer
370
18
48
1
60
0
100
AcDbEllipse
10
58.094
20
-17.085763
30
0
11
0.794000000000003
21
0
31
0
210
0
220
0
230
1
40
0.5
41
3.14159265358979
42
-1.74532925199434
0
ELLIPSE
5
23E
100
AcDbEntity
8
1
62
256
6
ByLayer
370
18
48
1
60
0
100
AcDbEllipse
10
58.094
20
-12.963482
30
0
11
0.240851501820378
21
0
31
0
210
0
220
0
230
1
40
0.5
41
-2.62603808821622
42
-2.26088381737916
0
ELLIPSE
5
23F
100
AcDbEntity
8
1
62
256
6
ByLayer
370
18
48
1
60
0
100
AcDbEllipse
10
63.307122
20
2.10324
30
0
11
-2.41481456572266
21
2.41481456572266
31
0
210
0
220
0
230
1
40
0.267949
41
-2.87979326579064
42
-0.499805456123199
0
ELLIPSE
5
240
100
AcDbEntity
8
1
62
256
6
ByLayer
370
18
48
1
60
0
100
AcDbEllipse
10
63.307122
20
1.455103
30
0
11
5.22449289680974E-15
21
4.45983865347938
31
0
210
0
220
0
230
1
40
0.560558
41
0.809191482872733
42
1.5707963267949
0
ELLIPSE
5
241
100
AcDbEntity
8
1
62
256
6
ByLayer
370
18
48
1
60
0
100
AcDbEllipse
10
67.5
20
-20.803805
30
0
11
5.00000000000086
21
0
31
0
210
0
220
0
230
1
40
0.5
41
3.14159265358979
42
-2.56807954916675
0
ELLIPSE
5
242
100
AcDbEntity
8
1
62
256
6
ByLayer
370
18
48
1
60
0
100
AcDbEllipse
10
67.5
20
-17.166498
30
0
11
4.82962913145181
21
4.82962913145181
31
0
210
0
220
0
230
1
40
0.267949
41
2.87979326579082
42
-2.82987893696605
0
ELLIPSE
5
243
100
AcDbEntity
8
1
62
256
6
ByLayer
370
18
48
1
60
0
100
AcDbEllipse
10
69.8
20
2.57074
30
0
11
-6.27851787087892
21
6.27851787087892
31
0
210
0
220
0
230
1
40
0.267949
41
0.261799387799144
42
1.52300563832826
0
ELLIPSE
5
244
100
AcDbEntity
8
1
62
256
6
ByLayer
370
18
48
1
60
0
100
AcDbEllipse
10
68.062812
20
2.57074
30
0
11
-0.693745454159258
21
6.49986357729704
31
0
210
0
220
0
230
1
40
0.060703
41
1.77832610928274
42
3.13511373674498
0
ELLIPSE
5
245
100
AcDbEntity
8
1
62
256
6
ByLayer
370
18
48
1
60
0
100
AcDbEllipse
10
68.55
20
-11.058639
30
0
11
0.0816597072834166
21
2.74012717769684
31
0
210
0
220
0
230
1
40
0.180023
41
3.13111404128849
42
-2.19884077262491
0
ELLIPSE
5
246
100
AcDbEntity
8
1
62
256
6
ByLayer
370
18
48
1
60
0
100
AcDbEllipse
10
68.55
20
-13.552259
30
0
11
0.499999999999984
21
0
31
0
210
0
220
0
230
1
40
0.5
41
-1.74532925199434
42
0
0
ELLIPSE
5
247
100
AcDbEntity
8
1
62
256
6
ByLayer
370
18
48
1
60
0
100
AcDbEllipse
10
68.062812
20
2.57074
30
0
11
-0.693745454153357
21
6.49986357724306
31
0
210
0
220
0
230
1
40
0.060703
41
3.13511373674496
42
-2.9058315666207
0
ELLIPSE
5
248
100
AcDbEntity
8
1
62
256
6
ByLayer
370
18
48
1
60
0
100
AcDbEllipse
10
63.870875
20
2.570756
30
0
11
-17.8252748278858
21
3.58781320650021
31
0
210
0
220
0
230
1
40
0.30407
41
1.90176794012851
42
1.91328138223692
0
ELLIPSE
5
249
100
AcDbEntity
8
1
62
256
6
ByLayer
370
18
48
1
60
0
100
AcDbEllipse
10
69.206
20
-18.065436
30
0
11
0.794000000000139
21
0
31
0
210
0
220
0
230
1
40
0.5
41
-1.7453292519942
42
0
0
ELLIPSE
5
24A
100
AcDbEntity
8
1
62
256
6
ByLayer
370
18
48
1
60
0
100
AcDbEllipse
10
69.206
20
-19.762845
30
0
11
0.240851501810622
21
0
31
0
210
0
220
0
230
1
40
0.5
41
-1.22977468662032
42
-0.515554565377444
0
ELLIPSE
5
24B
100
AcDbEntity
8
1
62
256
6
ByLayer
370
18
48
1
60
0
100
AcDbEllipse
10
69.206
20
-13.943155
30
0
11
0.240851501808734
21
0
31
0
210
0
220
0
230
1
40
0.5
41
-1.22977468662217
42
-0.515554565373149
0
ELLIPSE
5
24C
100
AcDbEntity
8
1
62
256
6
ByLayer
370
18
48
1
60
0
100
AcDbEllipse
10
69.206
20
-9.998854
30
0
11
0.794000000000465
21
0
31
0
210
0
220
0
230
1
40
0.5
41
0
42
1.02988885044544
0
ELLIPSE
5
24D
100
AcDbEntity
8
1
62
256
6
ByLayer
370
18
48
1
60
0
100
AcDbEllipse
10
63.307122
20
-3.121385
30
0
11
2
21
0
31
0
210
0
220
0
230
1
40
0.5
41
3.14159265358979
42
-4.44089209850064E-16
0
ELLIPSE
5
24E
100
AcDbEntity
8
1
62
256
6
ByLayer
370
18
48
1
60
0
100
AcDbEllipse
10
63.307122
20
-3.121385
30
0
11
2
21
0
31
0
210
0
220
0
230
1
40
0.5
41
0
42
3.14159265358979
0
ELLIPSE
5
24F
100
AcDbEntity
8
1
62
256
6
ByLayer
370
18
48
1
60
0
100
AcDbEllipse
10
69.8
20
-17.17464
30
0
11
6.27851787090245
21
6.27851787090245
31
0
210
0
220
0
230
1
40
0.267949
41
2.87979326579114
42
-2.87979326579113
0
ELLIPSE
5
250
100
AcDbEntity
8
1
62
256
6
ByLayer
370
18
48
1
60
0
100
AcDbEllipse
10
69.8
20
-17.17464
30
0
11
6.27851787088228
21
6.27851787088228
31
0
210
0
220
0
230
1
40
0.267949
41
-2.87979326579056
42
-2.14218579086007
0
ELLIPSE
5
251
100
AcDbEntity
8
1
62
256
6
ByLayer
370
18
48
1
60
0
100
AcDbEllipse
10
68.062812
20
-17.17464
30
0
11
0.693745454160254
21
6.49986357731293
31
0
210
0
220
0
230
1
40
0.060703
41
-2.3975062618143
42
-1.75254860723523
0
ELLIPSE
5
252
100
AcDbEntity
8
1
62
256
6
ByLayer
370
18
48
1
60
0
100
AcDbEllipse
10
68.55
20
-10.025654
30
0
11
-0.498796811461759
21
3.53545217668574
31
0
210
0
220
0
230
1
40
0.009805
41
2.41888183076002
42
-3.07220471769855
0
ELLIPSE
5
253
100
AcDbEntity
8
1
62
256
6
ByLayer
370
18
48
1
60
0
100
AcDbEllipse
10
46.7
20
-15.09843
30
0
11
2.1
21
0
31
0
210
0
220
0
230
1
40
0.866025
41
3.14159265358979
42
0
0
ELLIPSE
5
254
100
AcDbEntity
8
1
62
256
6
ByLayer
370
18
48
1
60
0
100
AcDbEllipse
10
46.7
20
-15.09843
30
0
11
2.1
21
0
31
0
210
0
220
0
230
1
40
0.866025
41
0
42
3.14159265358979
0
ELLIPSE
5
255
100
AcDbEntity
8
1
62
256
6
ByLayer
370
18
48
1
60
0
100
AcDbEllipse
10
46.7
20
-13.671942
30
0
11
2.00000000000001
21
0
31
0
210
0
220
0
230
1
40
0.866025
41
-2.78448776801205
42
-0.92729521800161
0
ELLIPSE
5
256
100
AcDbEntity
8
1
62
256
6
ByLayer
370
18
48
1
60
0
100
AcDbEllipse
10
68.55
20
-22.898556
30
0
11
0.498796811464538
21
3.53545217670157
31
0
210
0
220
0
230
1
40
0.009805
41
-0.861486694610073
42
-0.0693879358915416
0
ELLIPSE
5
257
100
AcDbEntity
8
1
62
256
6
ByLayer
370
18
48
1
60
0
100
AcDbEllipse
10
67.5
20
6.562598
30
0
11
-4.82962913143772
21
4.82962913143772
31
0
210
0
220
0
230
1
40
0.267949
41
0.261799387799079
42
0.835312492222845
0
ELLIPSE
5
258
100
AcDbEntity
8
1
62
256
6
ByLayer
370
18
48
1
60
0
100
AcDbEllipse
10
63.307122
20
-3.121385
30
0
11
2.5
21
0
31
0
210
0
220
0
230
1
40
0.5
41
0
42
3.14159265358979
0
ELLIPSE
5
259
100
AcDbEntity
8
1
62
256
6
ByLayer
370
18
48
1
60
0
100
AcDbEllipse
10
46.7
20
-13.821942
30
0
11
1.7
21
0
31
0
210
0
220
0
230
1
40
0.866025
41
-3.01100862501633
42
-0.787128270656119
0
ELLIPSE
5
25A
100
AcDbEntity
8
1
62
256
6
ByLayer
370
18
48
1
60
0
100
AcDbEllipse
10
69.206
20
-12.423725
30
0
11
-0.793999964633842
21
7.91797392778164E-10
31
0
210
0
220
0
230
1
40
0.5
41
-3.14088031552236
42
-3.07172330028092
0
ELLIPSE
5
25B
100
AcDbEntity
8
1
62
256
6
ByLayer
370
18
48
1
60
0
100
AcDbEllipse
10
69.206
20
-8.301444
30
0
11
0.240851501813472
21
0
31
0
210
0
220
0
230
1
40
0.5
41
0.515554565368163
42
0.880708836215934
0
ELLIPSE
5
25C
100
AcDbEntity
8
1
62
256
6
ByLayer
370
18
48
1
60
0
100
AcDbEllipse
10
63.307122
20
-28.888133
30
0
11
2.41481456572271
21
2.41481456572271
31
0
210
0
220
0
230
1
40
0.267949
41
-0.261799387799128
42
2.11818842186827
0
POINT
5
6C
100
AcDbEntity
8
SK1
62
256
6
ByLayer
370
18
48
1
60
0
100
AcDbPoint
10
0
20
0
30
0
39
0
210
0
220
0
230
1
50
360
0
POINT
5
6E
100
AcDbEntity
8
80
62
256
6
ByLayer
370
13
48
0.05
60
0
100
AcDbPoint
10
0
20
0
30
0
39
0
210
0
220
0
230
1
50
360
0
POINT
5
70
100
AcDbEntity
8
81
62
256
6
ByLayer
370
13
48
1
60
0
100
AcDbPoint
10
70
20
34.5
30
0
39
0
210
0
220
0
230
1
50
360
0
SPLINE
5
25D
100
AcDbEntity
8
1
62
256
6
ByLayer
370
18
48
1
60
0
100
AcDbSpline
70
4
71
3
72
23
73
19
40
0
40
0
40
0
40
0
40
0.0661178580367935
40
0.132247559341326
40
0.198381149516659
40
0.26451073183776
40
0.330628490064143
40
0.385939777187363
40
0.441253388643636
40
0.496564672393449
40
0.551462709122104
40
0.606363021782556
40
0.661261061590412
40
0.729000309607297
40
0.796752275743968
40
0.864508552471912
40
0.932260645520694
40
1
40
1
40
1
40
1
41
1
10
56.3912211553143
20
-16.418119800906
30
0
41
1
10
56.3776675076707
20
-16.4172812835147
30
0
41
1
10
56.3505477704947
20
-16.4158142549903
30
0
41
1
10
56.3098315728518
20
-16.4142437758129
30
0
41
1
10
56.2690919849349
20
-16.4133046423494
30
0
41
1
10
56.2283426562209
20
-16.4129980440747
30
0
41
1
10
56.1898142922864
20
-16.4133076460715
30
0
41
1
10
56.1535142804437
20
-16.41411908144
30
0
41
1
10
56.1194449551872
20
-16.415324745565
30
0
41
1
10
56.0854775143886
20
-16.4169702328018
30
0
41
1
10
56.051617602401
20
-16.4190517340692
30
0
41
1
10
56.0178706723428
20
-16.4215647884771
30
0
41
1
10
55.9815291388961
20
-16.4247438867725
30
0
41
1
10
55.9426078639179
20
-16.4287163859536
30
0
41
1
10
55.9011289338614
20
-16.4336191176118
30
0
41
1
10
55.8597289979833
20
-16.439181367799
30
0
41
1
10
55.8184226175779
20
-16.4454003474758
30
0
41
1
10
55.790956818217
20
-16.4499823089879
30
0
41
1
10
55.7772419866854
20
-16.4523822499083
30
0
0
SPLINE
5
25E
100
AcDbEntity
8
1
62
256
6
ByLayer
370
18
48
1
60
0
100
AcDbSpline
70
4
71
3
72
32
73
28
40
0
40
0
40
0
40
0
40
0.0410004619696802
40
0.0820105343392927
40
0.123023882190105
40
0.164034083593467
40
0.205034653810395
40
0.24603349744995
40
0.287041569034616
40
0.328052912252549
40
0.3690613477709
40
0.410060496714076
40
0.411674283862915
40
0.452347417005574
40
0.493028896723245
40
0.533713437215681
40
0.574395439002706
40
0.615069010100286
40
0.659272937397905
40
0.703486442973684
40
0.747703600521773
40
0.791917968560685
40
0.836122619372352
40
0.877073697957503
40
0.918024819130502
40
0.959012388235522
40
1
40
1
40
1
40
1
41
1
10
55.7772419866854
20
-3.47559784516805
30
0
41
1
10
55.789456333141
20
-3.47559811988698
30
0
41
1
10
55.8138834497237
20
-3.47581466327677
30
0
41
1
10
55.8505185319035
20
-3.47678864650441
30
0
41
1
10
55.8871325477045
20
-3.47840886665061
30
0
41
1
10
55.9237096055582
20
-3.4806735584787
30
0
41
1
10
55.9602365649559
20
-3.48358100682825
30
0
41
1
10
55.9967058434472
20
-3.48713028711507
30
0
41
1
10
56.0331104330347
20
-3.49131592229391
30
0
41
1
10
56.0694394147787
20
-3.4961326724881
30
0
41
1
10
56.1056767485777
20
-3.50157473323044
30
0
41
1
10
56.1302416870635
20
-3.50569610677814
30
0
41
1
10
56.1546691068567
20
-3.51001778318979
30
0
41
1
10
56.1789656943116
20
-3.51453730553424
30
0
41
1
10
56.2145863535825
20
-3.52178325226152
30
0
41
1
10
56.25008383643
20
-3.52962018996071
30
0
41
1
10
56.2854445739428
20
-3.53803956840916
30
0
41
1
10
56.3216781060987
20
-3.54729415720673
30
0
41
1
10
56.3587641958862
20
-3.55743705368864
30
0
41
1
10
56.3966808233457
20
-3.56851766076962
30
0
41
1
10
56.4344042654337
20
-3.58024637686701
30
0
41
1
10
56.4719206876516
20
-3.59260968548617
30
0
41
1
10
56.5083059417904
20
-3.60527746851686
30
0
41
1
10
56.5435717888558
20
-3.61818675567128
30
0
41
1
10
56.5777440750406
20
-3.6312813087248
30
0
41
1
10
56.6117278104423
20
-3.64488616751048
30
0
41
1
10
56.6342537287682
20
-3.65428703595848
30
0
41
1
10
56.64548287502
20
-3.6590703396073
30
0
0
SPLINE
5
25F
100
AcDbEntity
8
1
62
256
6
ByLayer
370
18
48
1
60
0
100
AcDbSpline
70
4
71
3
72
57
73
53
40
0
40
0
40
0
40
0
40
0.0208072991889668
40
0.041619107815823
40
0.0624309395209437
40
0.0832382701870847
40
0.104045391128755
40
0.124856983439103
40
0.145668585562015
40
0.166475719887333
40
0.18728278295042
40
0.20809430477815
40
0.228905827264719
40
0.249712891226411
40
0.267562246887985
40
0.285415828588538
40
0.303270817652604
40
0.321124393291456
40
0.338973743867824
40
0.359780872278018
40
0.380592472787658
40
0.401404069103098
40
0.422211191792696
40
0.443018353617527
40
0.463829994564467
40
0.484641633960379
40
0.505448793669709
40
0.526255955848187
40
0.547067597295702
40
0.567879240735523
40
0.588686405631369
40
0.606537147878838
40
0.624392123915499
40
0.642248516583735
40
0.660103499341078
40
0.677954247226585
40
0.697815725732128
40
0.71768108537583
40
0.737546448031646
40
0.757407930645417
40
0.777406865855185
40
0.797409759866905
40
0.817412652924772
40
0.837411586833576
40
0.857538615234685
40
0.877669687896168
40
0.897800751665269
40
0.917927767937967
40
0.938443681484581
40
0.958963909866931
40
0.979484116338293
40
1
40
1
40
1
40
1
41
1
10
56.3912211553143
20
21.101777177615
30
0
41
1
10
56.385459596558
20
21.0911641750196
30
0
41
1
10
56.374157651852
20
21.0698220041478
30
0
41
1
10
56.3578684749891
20
21.0374593030064
30
0
41
1
10
56.3422527286703
20
21.0047681629992
30
0
41
1
10
56.3273179529672
20
20.9717634365602
30
0
41
1
10
56.3130708440895
20
20.9384568367088
30
0
41
1
10
56.29951518673
20
20.9048606631016
30
0
41
1
10
56.2866573545902
20
20.8709916998286
30
0
41
1
10
56.2745040547208
20
20.8368667039016
30
0
41
1
10
56.2630608155623
20
20.8024973731688
30
0
41
1
10
56.2523304477198
20
20.7678963233032
30
0
41
1
10
56.2423179486587
20
20.7330808244556
30
0
41
1
10
56.2334686910429
20
20.6997268682706
30
0
41
1
10
56.2256716776468
20
20.6678764639978
30
0
41
1
10
56.2188191122221
20
20.6375632587452
30
0
41
1
10
56.2125049143718
20
20.6071306879918
30
0
41
1
10
56.2067320637991
20
20.576593058476
30
0
41
1
10
56.2012140855089
20
20.5442689124946
30
0
41
1
10
56.1960632927166
20
20.5101461672999
30
0
41
1
10
56.1913982677971
20
20.4742192292608
30
0
41
1
10
56.1874772146089
20
20.4382031590953
30
0
41
1
10
56.184302454463
20
20.4021159377552
30
0
41
1
10
56.1818764604338
20
20.3659703802386
30
0
41
1
10
56.1801988025969
20
20.3297795645476
30
0
41
1
10
56.1792699807016
20
20.2935616708423
30
0
41
1
10
56.1790908178657
20
20.257334847428
30
0
41
1
10
56.1796627031344
20
20.2211121151156
30
0
41
1
10
56.180984103074
20
20.1849064668004
30
0
41
1
10
56.1830540017317
20
20.1487360705014
30
0
41
1
10
56.1857382383531
20
20.1143294276927
30
0
41
1
10
56.1889181887498
20
20.0816895452024
30
0
41
1
10
56.1924809911569
20
20.0508124953227
30
0
41
1
10
56.1965914091301
20
20.0200013442923
30
0
41
1
10
56.2012474853198
20
19.9892706323378
30
0
41
1
10
56.2066432252532
20
19.9574806280409
30
0
41
1
10
56.2128520741393
20
19.9246511249664
30
0
41
1
10
56.2199479328979
20
19.8908067994964
30
0
41
1
10
56.2277105205329
20
19.8571093575964
30
0
41
1
10
56.2361560043199
20
19.8234968017822
30
0
41
1
10
56.2452880752629
20
19.7899816067179
30
0
41
1
10
56.2551080158562
20
19.7565759697074
30
0
41
1
10
56.2655900737946
20
19.723372078559
30
0
41
1
10
56.2767535036204
20
19.6903148370349
30
0
41
1
10
56.2886006471722
20
19.6574170796792
30
0
41
1
10
56.3011314031478
20
19.6246911621765
30
0
41
1
10
56.3143144964896
20
19.5922221333465
30
0
41
1
10
56.3282331252575
20
19.5598179275712
30
0
41
1
10
56.3428984836706
20
19.527495909972
30
0
41
1
10
56.3583187933052
20
19.4952739668754
30
0
41
1
10
56.3743936194322
20
19.463371727709
30
0
41
1
10
56.3855403095525
20
19.4423301262595
30
0
41
1
10
56.3912211553143
20
19.4318658139603
30
0
0
SPLINE
5
260
100
AcDbEntity
8
1
62
256
6
ByLayer
370
18
48
1
60
0
100
AcDbSpline
70
4
71
3
72
23
73
19
40
0
40
0
40
0
40
0
40
0.0661178580367943
40
0.132247559341327
40
0.198381149516659
40
0.264510731837762
40
0.330628490064145
40
0.385939777187364
40
0.441253388643636
40
0.496564672393449
40
0.551462709122104
40
0.606363021782556
40
0.661261061590412
40
0.729000309607297
40
0.796752275743968
40
0.864508552471912
40
0.932260645520694
40
1
40
1
40
1
40
1
41
1
10
56.3912211553143
20
31.2947143830758
30
0
41
1
10
56.3776675076707
20
31.2930374620291
30
0
41
1
10
56.3505477704947
20
31.2897947654652
30
0
41
1
10
56.3098315728518
20
31.2852646868394
30
0
41
1
10
56.2690919849349
20
31.2810691391054
30
0
41
1
10
56.2283426562209
20
31.2772091429545
30
0
41
1
10
56.1898142922864
20
31.2738774871158
30
0
41
1
10
56.1535142804437
20
31.2710133584909
30
0
41
1
10
56.1194449551872
20
31.2685592804856
30
0
41
1
10
56.0854775143886
20
31.2663455321767
30
0
41
1
10
56.051617602401
20
31.2643698989786
30
0
41
1
10
56.0178706723428
20
31.2626297225593
30
0
41
1
10
55.9815291388961
20
31.2610016378497
30
0
41
1
10
55.9426078639179
20
31.2595522265008
30
0
41
1
10
55.9011289338614
20
31.2583526304662
30
0
41
1
10
55.8597289979833
20
31.2574982821195
30
0
41
1
10
55.8184226175779
20
31.2569873970265
30
0
41
1
10
55.790956818217
20
31.256873951499
30
0
41
1
10
55.7772419866854
20
31.2568741528222
30
0
0
SPLINE
5
261
100
AcDbEntity
8
1
62
256
6
ByLayer
370
18
48
1
60
0
100
AcDbSpline
70
4
71
3
72
23
73
19
40
0
40
0
40
0
40
0
40
0.0663613248861976
40
0.132729327457833
40
0.199099557118622
40
0.265467559690256
40
0.331828884576457
40
0.387249676670657
40
0.442671765187441
40
0.498092557281643
40
0.553280728303459
40
0.608470179490681
40
0.663658350512496
40
0.730922044259522
40
0.798192691849034
40
0.865465658663461
40
0.932736306252971
40
1
40
1
40
1
40
1
41
1
10
56.64548287502
20
-12.7565723371648
30
0
41
1
10
56.626471545322
20
-12.7548962624399
30
0
41
1
10
56.5884110962675
20
-12.7516542890793
30
0
41
1
10
56.5312076062478
20
-12.747122040952
30
0
41
1
10
56.4739017131089
20
-12.7429211588727
30
0
41
1
10
56.4165041473982
20
-12.7390524371569
30
0
41
1
10
56.362182086282
20
-12.7357108684938
30
0
41
1
10
56.3109566570632
20
-12.7328358990342
30
0
41
1
10
56.2628439128662
20
-12.7303709592126
30
0
41
1
10
56.2147531222206
20
-12.7281419326582
30
0
41
1
10
56.1666889828618
20
-12.7261479413624
30
0
41
1
10
56.1186561402138
20
-12.7243879792647
30
0
41
1
10
56.0670860842082
20
-12.7227478968839
30
0
41
1
10
56.0119740186886
20
-12.7212907907105
30
0
41
1
10
55.9533191227919
20
-12.7200851210493
30
0
41
1
10
55.8946381107336
20
-12.7192236910611
30
0
41
1
10
55.8359422755692
20
-12.7187066585211
30
0
41
1
10
55.7968091134951
20
-12.7185917513552
30
0
41
1
10
55.7772419866854
20
-12.7185917196953
30
0
0
SPLINE
5
262
100
AcDbEntity
8
1
62
256
6
ByLayer
370
18
48
1
60
0
100
AcDbSpline
70
4
71
3
72
43
73
39
40
0
40
0
40
0
40
0
40
0.0916093029893213
40
0.17558068987087
40
0.259552074652874
40
0.347854265439457
40
0.436156449584214
40
0.495024635839594
40
0.553892833422367
40
0.612761003006006
40
0.661097606297257
40
0.709434303729091
40
0.757770904266495
40
0.806107375428669
40
0.838127842034561
40
0.870148277096003
40
0.891574891346033
40
0.913001474004403
40
0.92734086318745
40
0.941680220708163
40
0.951278300355875
40
0.96087634823538
40
0.967302524906707
40
0.97372866965105
40
0.978032870857217
40
0.982337039897911
40
0.988106179149656
40
0.991975985845628
40
0.994575215185225
40
0.996324534193193
40
0.997505417683282
40
0.998306249408708
40
0.998853180446266
40
0.99923080278805
40
0.999625316649832
40
0.999783986251145
40
0.999917150553597
40
1
40
1
40
1
40
1
41
1
10
57.8844545098978
20
-13.0228539299724
30
0
41
1
10
57.8665934952872
20
-13.1479263644136
30
0
41
1
10
57.832360776389
20
-13.387595246059
30
0
41
1
10
57.7817566597552
20
-13.7417594179102
30
0
41
1
10
57.7317978032991
20
-14.0912625753457
30
0
41
1
10
57.6809951881964
20
-14.4464977704233
30
0
41
1
10
57.6350875036239
20
-14.7673068800315
30
0
41
1
10
57.594918956259
20
-15.0478380079045
30
0
41
1
10
57.5604893675087
20
-15.2881451058843
30
0
41
1
10
57.5281137061505
20
-15.5139471487236
30
0
41
1
10
57.497791884088
20
-15.7252718438424
30
0
41
1
10
57.4695240147472
20
-15.9221076200237
30
0
41
1
10
57.4412575084728
20
-16.1186932307386
30
0
41
1
10
57.4161731137737
20
-16.2928834591974
30
0
41
1
10
57.3942706290032
20
-16.4447391259257
30
0
41
1
10
57.3776145097729
20
-16.5600039417074
30
0
41
1
10
57.3630246417036
20
-16.6607676476843
30
0
41
1
10
57.3518816919926
20
-16.7375497306945
30
0
41
1
10
57.3421212607235
20
-16.8046395471988
30
0
41
1
10
57.3346665946505
20
-16.8557364064187
30
0
41
1
10
57.3281370324603
20
-16.900356397771
30
0
41
1
10
57.3231498113662
20
-16.9343187618095
30
0
41
1
10
57.3187816867263
20
-16.9639537149996
30
0
41
1
10
57.3154451797507
20
-16.9864929696212
30
0
41
1
10
57.3125230470366
20
-17.0061414669937
30
0
41
1
10
57.3097306524523
20
-17.0248180440471
30
0
41
1
10
57.3070258256612
20
-17.0427628156531
30
0
41
1
10
57.3046578397973
20
-17.0582476763487
30
0
41
1
10
57.3030737903642
20
-17.0684195720245
30
0
41
1
10
57.302014322343
20
-17.0750671329742
30
0
41
1
10
57.3013057815574
20
-17.0793817370871
30
0
41
1
10
57.3008324470949
20
-17.0821515580791
30
0
41
1
10
57.30051617064
20
-17.0839048548731
30
0
41
1
10
57.3002838786151
20
-17.0850920455238
30
0
41
1
10
57.3001291575222
20
-17.085775677069
30
0
41
1
10
57.3000390066173
20
-17.0860016724176
30
0
41
1
10
57.3000055976772
20
-17.0859620036541
30
0
41
1
10
57.3000003561518
20
-17.0858281848246
30
0
41
1
10
57.3000000000004
20
-17.0857628604785
30
0
0
SPLINE
5
263
100
AcDbEntity
8
1
62
256
6
ByLayer
370
18
48
1
60
0
100
AcDbSpline
70
4
71
3
72
42
73
38
40
0
40
0
40
0
40
0
40
0.0001119288918651
40
0.0002597860393121
40
0.0005331469712958
40
0.0011152752889367
40
0.0017012848325802
40
0.0028503759725979
40
0.0040010804028203
40
0.0051535528456057
40
0.0063050576165833
40
0.0099669225645725
40
0.0136295295019216
40
0.0172935101770559
40
0.0209581073364332
40
0.0246216419141003
40
0.0368155394490836
40
0.0490097768055388
40
0.0612049369659893
40
0.0734008797200546
40
0.0855969231226531
40
0.0977920247516674
40
0.127048927946402
40
0.156306011981349
40
0.185563349343483
40
0.214820782424976
40
0.24407797837052
40
0.292845104614786
40
0.341612290654166
40
0.390379457821215
40
0.463518968805431
40
0.536658492180835
40
0.609797943385494
40
0.68293739865591
40
0.78862491675904
40
0.894312464239621
40
1
40
1
40
1
40
1
41
1
10
57.9561233469324
20
-17.4767315384278
30
0
41
1
10
57.9559411681259
20
-17.4767088659126
30
0
41
1
10
57.9555404159335
20
-17.4766103174784
30
0
41
1
10
57.9548151873233
20
-17.4761232498465
30
0
41
1
10
57.9538140662752
20
-17.4748933070354
30
0
41
1
10
57.9528043938988
20
-17.4729026853269
30
0
41
1
10
57.9516664018007
20
-17.469578663149
30
0
41
1
10
57.9504749782527
20
-17.465389089221
30
0
41
1
10
57.9493942705542
20
-17.4603259917659
30
0
41
1
10
57.9485295860843
20
-17.4552392332552
30
0
41
1
10
57.9472109620322
20
-17.4464430785037
30
0
41
1
10
57.9455537179225
20
-17.4339320923704
30
0
41
1
10
57.9438870352317
20
-17.4176960983044
30
0
41
1
10
57.9425445353572
20
-17.4014526454428
30
0
41
1
10
57.9414312585249
20
-17.3852085538118
30
0
41
1
10
57.9396240791807
20
-17.3563612193208
30
0
41
1
10
57.9373204551283
20
-17.3149134721189
30
0
41
1
10
57.9350039648514
20
-17.2608772856028
30
0
41
1
10
57.9331865968732
20
-17.2068558267621
30
0
41
1
10
57.9317545137979
20
-17.1528479593
30
0
41
1
10
57.9305828554962
20
-17.0988526199027
30
0
41
1
10
57.9290187286002
20
-17.0196864555902
30
0
41
1
10
57.9272288556943
20
-16.9153577992258
30
0
41
1
10
57.9256293034803
20
-16.7858888275763
30
0
41
1
10
57.9244732660618
20
-16.6564453155416
30
0
41
1
10
57.9236734785898
20
-16.5270235917765
30
0
41
1
10
57.9229747401122
20
-16.3688520208942
30
0
41
1
10
57.922480277012
20
-16.1819375417967
30
0
41
1
10
57.9223800319533
20
-15.9662931300064
30
0
41
1
10
57.9226707205512
20
-15.7147524234877
30
0
41
1
10
57.9234575511641
20
-15.4273232000134
30
0
41
1
10
57.9248497350719
20
-15.1040139798698
30
0
41
1
10
57.9266291022592
20
-14.7807328828943
30
0
41
1
10
57.9290565659797
20
-14.409525248078
30
0
41
1
10
57.9322219692345
20
-13.9903978492345
30
0
41
1
10
57.93623012679
20
-13.5233589559407
30
0
41
1
10
57.9391469275253
20
-13.2120183118781
30
0
41
1
10
57.9406728124148
20
-13.0563531119695
30
0
0
SPLINE
5
264
100
AcDbEntity
8
1
62
256
6
ByLayer
370
18
48
1
60
0
100
AcDbSpline
70
4
71
3
72
41
73
37
40
0
40
0
40
0
40
0
40
0.0285489142322726
40
0.0570978449592002
40
0.0845575062608956
40
0.112040831621636
40
0.139524451707929
40
0.166984515253665
40
0.195225317528982
40
0.223490897066696
40
0.251757076411998
40
0.279998697321198
40
0.30780802210315
40
0.335639587789794
40
0.363471884500449
40
0.391282206925775
40
0.419809088037901
40
0.44835814270117
40
0.476908086591495
40
0.505436181221591
40
0.53501163362476
40
0.564609589421333
40
0.594208560867244
40
0.6237853992919
40
0.654077655783892
40
0.6843917549996
40
0.714706874309726
40
0.745000522833996
40
0.776511334830234
40
0.808044328302145
40
0.839578340387469
40
0.871090542371561
40
0.903306632960006
40
0.935544222427915
40
0.967782698967366
40
1
40
1
40
1
40
1
41
1
10
61.9981638440348
20
27.3711298033918
30
0
41
1
10
61.9975120182475
20
27.3673706977255
30
0
41
1
10
61.9963566287244
20
27.3598351816081
30
0
41
1
10
61.9950828569294
20
27.3486146159352
30
0
41
1
10
61.9942540643175
20
27.3375047976583
30
0
41
1
10
61.9938492539965
20
27.3265241129216
30
0
41
1
10
61.9938556977246
20
27.315550221305
30
0
41
1
10
61.9942766162804
20
27.3045010781346
30
0
41
1
10
61.995126398064
20
27.2933937673214
30
0
41
1
10
61.9964114027139
20
27.2822460797707
30
0
41
1
10
61.9981171035341
20
27.2711833514146
30
0
41
1
10
62.0002269411448
20
27.2602833603573
30
0
41
1
10
62.002729984314
20
27.2495600910065
30
0
41
1
10
62.0056088375277
20
27.2390236892313
30
0
41
1
10
62.0088664889386
20
27.2286370152269
30
0
41
1
10
62.0125248586181
20
27.2183302818822
30
0
41
1
10
62.0165886255629
20
27.2081217248745
30
0
41
1
10
62.0210561885963
20
27.1980273924844
30
0
41
1
10
62.0258799580644
20
27.1881490914751
30
0
41
1
10
62.0311106132425
20
27.178384365274
30
0
41
1
10
62.036753760638
20
27.1687545263033
30
0
41
1
10
62.0428091518213
20
27.1592783385613
30
0
41
1
10
62.0491931887314
20
27.1500837523495
30
0
41
1
10
62.0559444467027
20
27.14111199432
30
0
41
1
10
62.0630603272418
20
27.1323805959747
30
0
41
1
10
62.0705338253449
20
27.1239032718383
30
0
41
1
10
62.0782908982186
20
27.1157588549017
30
0
41
1
10
62.0864221235674
20
27.1078525452018
30
0
41
1
10
62.0949274707361
20
27.1002072745523
30
0
41
1
10
62.1038027020877
20
27.0928425090034
30
0
41
1
10
62.1129179090195
20
27.0858646265272
30
0
41
1
10
62.1223242868993
20
27.0792315537857
30
0
41
1
10
62.1320141873573
20
27.0729582348628
30
0
41
1
10
62.1419769731629
20
27.0670555742446
30
0
41
1
10
62.152124339685
20
27.0615730465414
30
0
41
1
10
62.1589968876697
20
27.0582015458891
30
0
41
1
10
62.1624603103405
20
27.0565868299794
30
0
0
SPLINE
5
265
100
AcDbEntity
8
1
62
256
6
ByLayer
370
18
48
1
60
0
100
AcDbSpline
70
4
71
3
72
36
73
32
40
0
40
0
40
0
40
0
40
0.034795663494615
40
0.0696184338143923
40
0.104439972397009
40
0.139233954930665
40
0.174980893752304
40
0.210760551741535
40
0.246538446311781
40
0.282282978248451
40
0.31720721963104
40
0.352165838815506
40
0.387122551041671
40
0.422044189440873
40
0.45819929004025
40
0.494397454045957
40
0.530593251797741
40
0.566745121805218
40
0.598371827140248
40
0.630030600458244
40
0.661688058793255
40
0.693312969137837
40
0.726069039036866
40
0.758863745292677
40
0.791657264856279
40
0.8244117146192
40
0.859479733751483
40
0.894623405776278
40
0.929791631573722
40
0.964933498272478
40
1
40
1
40
1
40
1
41
1
10
62.2621245655597
20
27.6122602583093
30
0
41
1
10
62.2579765468739
20
27.611922227757
30
0
41
1
10
62.2496829749782
20
27.6110657218684
30
0
41
1
10
62.2372487115971
20
27.6092412615169
30
0
41
1
10
62.2248508272635
20
27.60687328207
30
0
41
1
10
62.2123992153239
20
27.603931860633
30
0
41
1
10
62.1999156249105
20
27.6003918405572
30
0
41
1
10
62.1874242866533
20
27.5962354854562
30
0
41
1
10
62.1750666050417
20
27.5914955747848
30
0
41
1
10
62.1629664293875
20
27.5862130662601
30
0
41
1
10
62.1511438408128
20
27.5803986556852
30
0
41
1
10
62.1396157118358
20
27.5740723425755
30
0
41
1
10
62.1283207831043
20
27.5671958775404
30
0
41
1
10
62.1171611041872
20
27.5596884256983
30
0
41
1
10
62.1061752411446
20
27.551526042549
30
0
41
1
10
62.0954018989364
20
27.5426982122255
30
0
41
1
10
62.0850028145402
20
27.5333160145262
30
0
41
1
10
62.0754319953086
20
27.5238094040439
30
0
41
1
10
62.0666610380054
20
27.5142626305264
30
0
41
1
10
62.0586449644895
20
27.5047586512406
30
0
41
1
10
62.0510077528071
20
27.4948817190969
30
0
41
1
10
62.0436872300904
20
27.4845285434093
30
0
41
1
10
62.036722881164
20
27.4736946390064
30
0
41
1
10
62.0301478068587
20
27.4623874187286
30
0
41
1
10
62.0240645193023
20
27.4507616592724
30
0
41
1
10
62.0183639523355
20
27.4385660690953
30
0
41
1
10
62.0131143619649
20
27.4257903212611
30
0
41
1
10
62.008371883878
20
27.412442179945
30
0
41
1
10
62.0042675042743
20
27.3988515249776
30
0
41
1
10
62.0008193201568
20
27.385071235129
30
0
41
1
10
61.9989741169612
20
27.3757918651078
30
0
41
1
10
61.9981638440348
20
27.3711298033918
30
0
0
SPLINE
5
266
100
AcDbEntity
8
1
62
256
6
ByLayer
370
18
48
1
60
0
100
AcDbSpline
70
4
71
3
72
39
73
35
40
0
40
0
40
0
40
0
40
0.034919456521682
40
0.0698387037325822
40
0.104976872370422
40
0.140114793667729
40
0.17597202457997
40
0.21182895226391
40
0.247950465326074
40
0.284071631713487
40
0.319068743948989
40
0.354065524109726
40
0.389339734951115
40
0.424613581468184
40
0.460816717140749
40
0.497019433348713
40
0.533569497472062
40
0.570119123176596
40
0.601822710028877
40
0.633526056065537
40
0.665487921892521
40
0.697449555569209
40
0.730263832417771
40
0.763077881400417
40
0.796202763596757
40
0.829327453067642
40
0.850440628263686
40
0.87155377896019
40
0.892752762785122
40
0.913951728262571
40
0.935417900515905
40
0.956884060936527
40
0.978442032496142
40
1
40
1
40
1
40
1
41
1
10
62.4950738430579
20
26.1466908201817
30
0
41
1
10
62.4933332628425
20
26.1429321383963
30
0
41
1
10
62.4900101710534
20
26.1353315019253
30
0
41
1
10
62.4854836528986
20
26.1236492012416
30
0
41
1
10
62.4814386922382
20
26.1117051975134
30
0
41
1
10
62.4778660992883
20
26.0994305204651
30
0
41
1
10
62.4748019139274
20
26.0868631109033
30
0
41
1
10
62.4722654106115
20
26.0739872358525
30
0
41
1
10
62.4702973307767
20
26.0609072402873
30
0
41
1
10
62.468929050391
20
26.0477830503509
30
0
41
1
10
62.468158112445
20
26.0346758544023
30
0
41
1
10
62.4679719895756
20
26.0215796054123
30
0
41
1
10
62.4683797383698
20
26.0083798071037
30
0
41
1
10
62.4694032612588
20
25.9949865262568
30
0
41
1
10
62.4710705708318
20
25.9814622852284
30
0
41
1
10
62.4734134036101
20
25.9677953079047
30
0
41
1
10
62.4764325311529
20
25.95413657725
30
0
41
1
10
62.4799727964263
20
25.941123726114
30
0
41
1
10
62.4839269893413
20
25.9288197348949
30
0
41
1
10
62.488209357013
20
25.91719927185
30
0
41
1
10
62.4930158758664
20
25.9056930976139
30
0
41
1
10
62.4983930838014
20
25.894227264099
30
0
41
1
10
62.5043400508404
20
25.8828662970323
30
0
41
1
10
62.5108832863241
20
25.8716091431562
30
0
41
1
10
62.5179682925095
20
25.860587861972
30
0
41
1
10
62.5246656398364
20
25.8511331090014
30
0
41
1
10
62.5307503910528
20
25.843184839083
30
0
41
1
10
62.536069722197
20
25.8366360963597
30
0
41
1
10
62.5415901294958
20
25.830228193131
30
0
41
1
10
62.5473311489452
20
25.8239422757777
30
0
41
1
10
62.5532830378003
20
25.8177965316147
30
0
41
1
10
62.5594508189754
20
25.8117916043325
30
0
41
1
10
62.5658053527352
20
25.8059602971863
30
0
41
1
10
62.5701603688989
20
25.8021948368502
30
0
41
1
10
62.5723665723605
20
25.8003435306576
30
0
0
SPLINE
5
267
100
AcDbEntity
8
1
62
256
6
ByLayer
370
18
48
1
60
0
100
AcDbSpline
70
4
71
3
72
41
73
37
40
0
40
0
40
0
40
0
40
0.0315855627467043
40
0.0631711528143827
40
0.0906191266077611
40
0.118090700568748
40
0.145562583568335
40
0.173010979139443
40
0.201237411658152
40
0.229488515474366
40
0.257740229932289
40
0.28596749586875
40
0.313807088355867
40
0.341668908438098
40
0.369531468973147
40
0.397372071969902
40
0.425928446215692
40
0.454506958063662
40
0.483086364405054
40
0.511643959353222
40
0.541283718857623
40
0.570946009149289
40
0.600609320841931
40
0.63025047421582
40
0.660607773961
40
0.690986934722843
40
0.721367117244589
40
0.751725811293509
40
0.782425144963854
40
0.813144898465737
40
0.843865562558072
40
0.874566138761881
40
0.905914247589705
40
0.937282132456794
40
0.968650809819532
40
1
40
1
40
1
40
1
41
1
10
62.5723665723605
20
25.8003435306576
30
0
41
1
10
62.5756007457959
20
25.7976301128097
30
0
41
1
10
62.582177673891
20
25.7923501683692
30
0
41
1
10
62.5919339825555
20
25.7851889975802
30
0
41
1
10
62.6015070939469
20
25.7787440907324
30
0
41
1
10
62.6108398534095
20
25.772958428858
30
0
41
1
10
62.620369433039
20
25.7675332995862
30
0
41
1
10
62.6301684110321
20
25.7624309105919
30
0
41
1
10
62.6402290150225
20
25.7576720730447
30
0
41
1
10
62.6505389507696
20
25.7532709847448
30
0
41
1
10
62.6609825873114
20
25.7492768356027
30
0
41
1
10
62.6714898328935
20
25.7457117660045
30
0
41
1
10
62.6820433879124
20
25.7425738735786
30
0
41
1
10
62.6926259961399
20
25.7398537879178
30
0
41
1
10
62.7032657666525
20
25.7375373187047
30
0
41
1
10
62.714034023314
20
25.7356089030253
30
0
41
1
10
62.7249172405178
20
25.7340815530849
30
0
41
1
10
62.7359007047337
20
25.7329617673931
30
0
41
1
10
62.746872628206
20
25.732258571867
30
0
41
1
10
62.7579514823992
20
25.7319650772305
30
0
41
1
10
62.7691215034111
20
25.7320972474524
30
0
41
1
10
62.7803661743659
20
25.732664719631
30
0
41
1
10
62.7915286347748
20
25.7336581590959
30
0
41
1
10
62.8026790431588
20
25.735081934588
30
0
41
1
10
62.8138008740659
20
25.7369424461372
30
0
41
1
10
62.8248787405904
20
25.7392403938569
30
0
41
1
10
62.8358074875235
20
25.7419504647932
30
0
41
1
10
62.8466106280305
20
25.7450744401911
30
0
41
1
10
62.8572740396787
20
25.748609990777
30
0
41
1
10
62.8677860390255
20
25.7525504089699
30
0
41
1
10
62.8780929909696
20
25.7568704807389
30
0
41
1
10
62.8882518891871
20
25.7615916981128
30
0
41
1
10
62.8982474799479
20
25.7667145118222
30
0
41
1
10
62.9080663247713
20
25.7722352657207
30
0
41
1
10
62.9176284382864
20
25.7781063350887
30
0
41
1
10
62.9238221936745
20
25.7822432139248
30
0
41
1
10
62.9268738099088
20
25.7843676272549
30
0
0
SPLINE
5
268
100
AcDbEntity
8
1
62
256
6
ByLayer
370
18
48
1
60
0
100
AcDbSpline
70
4
71
3
72
41
73
37
40
0
40
0
40
0
40
0
40
0.0312551393154166
40
0.0625823703024669
40
0.0896927746630286
40
0.116803221969233
40
0.144100780408775
40
0.171398407502619
40
0.199276491732334
40
0.227154674431495
40
0.255228320251052
40
0.283302087888135
40
0.310805501425508
40
0.338309041681863
40
0.365988563520942
40
0.393668225672363
40
0.421882152566209
40
0.450096237548583
40
0.478485494990684
40
0.506874916950173
40
0.536160850950946
40
0.565446969657447
40
0.594911297793026
40
0.624375809671408
40
0.654374918793052
40
0.684374216097376
40
0.714546388485355
40
0.744718741335351
40
0.776180626370426
40
0.807642707981692
40
0.839284641888974
40
0.87092675792058
40
0.903107655793888
40
0.935288727089281
40
0.967644286227053
40
1
40
1
40
1
40
1
41
1
10
63.0810016705405
20
28.6616056733269
30
0
41
1
10
63.0770351968905
20
28.6601743438568
30
0
41
1
10
63.0691654722741
20
28.6571408822787
30
0
41
1
10
63.0580822220993
20
28.6523072383417
30
0
41
1
10
63.0477175891771
20
28.6472785022915
30
0
41
1
10
63.0380370253941
20
28.6421254690704
30
0
41
1
10
63.0285484329
20
28.6366068343446
30
0
41
1
10
63.0192023346881
20
28.6306902168742
30
0
41
1
10
63.0100418635924
20
28.6243908019269
30
0
41
1
10
63.001066181053
20
28.6176990811373
30
0
41
1
10
62.9923560776267
20
28.6106695168704
30
0
41
1
10
62.9839830632827
20
28.603365173777
30
0
41
1
10
62.9759727840283
20
28.5958239068617
30
0
41
1
10
62.9683109125401
20
28.5880516270653
30
0
41
1
10
62.9609548426464
20
28.5800090910164
30
0
41
1
10
62.9538692159313
20
28.5716573175127
30
0
41
1
10
62.9470855124727
20
28.5630233889815
30
0
41
1
10
62.9406040459317
20
28.5541011064932
30
0
41
1
10
62.9344771824245
20
28.5449599731482
30
0
41
1
10
62.9286509385943
20
28.5355175869017
30
0
41
1
10
62.9231568047884
20
28.5258027386907
30
0
41
1
10
62.9180010976116
20
28.5158074821663
30
0
41
1
10
62.9132466630107
20
28.5056483413097
30
0
41
1
10
62.9088707691522
20
28.4952800912338
30
0
41
1
10
62.9048934473871
20
28.4847379612918
30
0
41
1
10
62.9013158152232
20
28.4740172155938
30
0
41
1
10
62.8981645698658
20
28.4631974608529
30
0
41
1
10
62.8954014169112
20
28.4521402129925
30
0
41
1
10
62.8930528066734
20
28.4408802739449
30
0
41
1
10
62.8911332767648
20
28.4294119469143
30
0
41
1
10
62.8896756044786
20
28.4179085628829
30
0
41
1
10
62.8886720539575
20
28.4063219457443
30
0
41
1
10
62.8881306482986
20
28.3946907709621
30
0
41
1
10
62.8880540540027
20
28.3830115975546
30
0
41
1
10
62.8884438773924
20
28.3713646205774
30
0
41
1
10
62.8890104597186
20
28.3636361513175
30
0
41
1
10
62.8893708273192
20
28.3597832442021
30
0
0
SPLINE
5
269
100
AcDbEntity
8
1
62
256
6
ByLayer
370
18
48
1
60
0
100
AcDbSpline
70
4
71
3
72
36
73
32
40
0
40
0
40
0
40
0
40
0.0350164104035059
40
0.0700601087633599
40
0.105102555518595
40
0.14011725784734
40
0.176091639212424
40
0.212098982323865
40
0.248104544065408
40
0.284076494041983
40
0.319196352427222
40
0.354350765012241
40
0.38950326758734
40
0.424620518825047
40
0.460977132431138
40
0.497376996171985
40
0.5337745054892
40
0.570127904660144
40
0.601945623804491
40
0.633795554614912
40
0.665644185542341
40
0.697460130311197
40
0.73041132563548
40
0.763401259175163
40
0.796390035126412
40
0.829339650055087
40
0.863426905749396
40
0.897582384773281
40
0.931760048627413
40
0.965914015280208
40
1
40
1
40
1
40
1
41
1
10
63.4192958113839
20
28.5544250536478
30
0
41
1
10
63.4169136749556
20
28.5578276801981
30
0
41
1
10
63.4119953285727
20
28.5645402401182
30
0
41
1
10
63.4041563682256
20
28.5743329591539
30
0
41
1
10
63.3958678645133
20
28.5838214953778
30
0
41
1
10
63.3870585298477
20
28.593068439738
30
0
41
1
10
63.3777175997116
20
28.6020423632724
30
0
41
1
10
63.3678419887156
20
28.6107134513422
30
0
41
1
10
63.3575312496245
20
28.6189762888349
30
0
41
1
10
63.3468857123323
20
28.6267428125398
30
0
41
1
10
63.3359250592187
20
28.6340014501849
30
0
41
1
10
63.3246753360465
20
28.6407481600806
30
0
41
1
10
63.3130699614018
20
28.6470183698222
30
0
41
1
10
63.3009901570909
20
28.652855812255
30
0
41
1
10
63.2884347636508
20
28.6582153653601
30
0
41
1
10
63.2754142414505
20
28.6630585827896
30
0
41
1
10
63.2621054769608
20
28.6673021678539
30
0
41
1
10
63.2491051426522
20
28.6707716446485
30
0
41
1
10
63.2364712563764
20
28.6735334634891
30
0
41
1
10
63.2242524319361
20
28.675667689177
30
0
41
1
10
63.2119034727306
20
28.6772891502184
30
0
41
1
10
63.1993044615421
20
28.6783996603831
30
0
41
1
10
63.1864714017536
20
28.6789632014725
30
0
41
1
10
63.1734272680819
20
28.6789552102768
30
0
41
1
10
63.160356455344
20
28.6783652470575
30
0
41
1
10
63.1471446787668
20
28.6771754107213
30
0
41
1
10
63.1338168530324
20
28.6753488727279
30
0
41
1
10
63.1204022252696
20
28.6728676935501
30
0
41
1
10
63.107089676802
20
28.6697613614375
30
0
41
1
10
63.0939282506102
20
28.666039537463
30
0
41
1
10
63.0852880949308
20
28.663150798916
30
0
41
1
10
63.0810016705405
20
28.6616056733269
30
0
0
SPLINE
5
26A
100
AcDbEntity
8
1
62
256
6
ByLayer
370
18
48
1
60
0
100
AcDbSpline
70
4
71
3
72
36
73
32
40
0
40
0
40
0
40
0
40
0.0350164104035039
40
0.0700601087633571
40
0.105102555518594
40
0.140117257847338
40
0.176091639212426
40
0.212098982323876
40
0.248104544065415
40
0.284076494041987
40
0.319196352427226
40
0.354350765012248
40
0.389503267587344
40
0.424620518825048
40
0.46097713243114
40
0.497376996171989
40
0.533774505489206
40
0.570127904660148
40
0.601945623804504
40
0.633795554614921
40
0.665644185542349
40
0.6974601303112
40
0.730411325635489
40
0.763401259175167
40
0.796390035126416
40
0.829339650055091
40
0.863426905749399
40
0.897582384773285
40
0.931760048627419
40
0.965914015280212
40
1
40
1
40
1
40
1
41
1
10
63.8807041886161
20
25.6148090254454
30
0
41
1
10
63.8830863250444
20
25.611406398895
30
0
41
1
10
63.8880046714274
20
25.604693838975
30
0
41
1
10
63.8958436317744
20
25.5949011199392
30
0
41
1
10
63.9041321354867
20
25.5854125837153
30
0
41
1
10
63.9129414701523
20
25.5761656393551
30
0
41
1
10
63.9222824002884
20
25.5671917158207
30
0
41
1
10
63.9321580112844
20
25.5585206277509
30
0
41
1
10
63.9424687503755
20
25.5502577902583
30
0
41
1
10
63.9531142876677
20
25.5424912665533
30
0
41
1
10
63.9640749407813
20
25.5352326289082
30
0
41
1
10
63.9753246639535
20
25.5284859190125
30
0
41
1
10
63.9869300385982
20
25.5222157092709
30
0
41
1
10
63.9990098429091
20
25.5163782668382
30
0
41
1
10
64.0115652363492
20
25.5110187137331
30
0
41
1
10
64.0245857585495
20
25.5061754963035
30
0
41
1
10
64.0378945230392
20
25.5019319112393
30
0
41
1
10
64.0508948573479
20
25.4984624344446
30
0
41
1
10
64.0635287436236
20
25.495700615604
30
0
41
1
10
64.0757475680639
20
25.4935663899161
30
0
41
1
10
64.0880965272694
20
25.4919449288748
30
0
41
1
10
64.1006955384579
20
25.4908344187101
30
0
41
1
10
64.1135285982464
20
25.4902708776206
30
0
41
1
10
64.1265727319181
20
25.4902788688164
30
0
41
1
10
64.139643544656
20
25.4908688320356
30
0
41
1
10
64.1528553212333
20
25.4920586683719
30
0
41
1
10
64.1661831469676
20
25.4938852063652
30
0
41
1
10
64.1795977747304
20
25.496366385543
30
0
41
1
10
64.192910323198
20
25.4994727176557
30
0
41
1
10
64.2060717493898
20
25.5031945416301
30
0
41
1
10
64.2147119050693
20
25.5060832801772
30
0
41
1
10
64.2189983294595
20
25.5076284057662
30
0
0
SPLINE
5
26B
100
AcDbEntity
8
1
62
256
6
ByLayer
370
18
48
1
60
0
100
AcDbSpline
70
4
71
3
72
41
73
37
40
0
40
0
40
0
40
0
40
0.0312551393154197
40
0.0625823703024742
40
0.08969277466304
40
0.116803221969241
40
0.144100780408783
40
0.17139840750263
40
0.199276491732342
40
0.227154674431507
40
0.25522832025106
40
0.283302087888143
40
0.310805501425514
40
0.338309041681881
40
0.365988563520961
40
0.393668225672368
40
0.421882152566226
40
0.450096237548593
40
0.478485494990693
40
0.506874916950174
40
0.536160850950956
40
0.565446969657457
40
0.594911297793042
40
0.624375809671425
40
0.654374918793064
40
0.684374216097386
40
0.714546388485365
40
0.744718741335361
40
0.776180626370464
40
0.807642707981752
40
0.839284641889053
40
0.870926757920687
40
0.903107655793987
40
0.935288727089372
40
0.967644286227105
40
1
40
1
40
1
40
1
41
1
10
64.2189983294595
20
25.5076284057662
30
0
41
1
10
64.2229648031095
20
25.5090597352363
30
0
41
1
10
64.2308345277259
20
25.5120931968144
30
0
41
1
10
64.2419177779007
20
25.5169268407514
30
0
41
1
10
64.2522824108229
20
25.5219555768016
30
0
41
1
10
64.2619629746059
20
25.5271086100227
30
0
41
1
10
64.2714515671001
20
25.5326272447485
30
0
41
1
10
64.2807976653119
20
25.538543862219
30
0
41
1
10
64.2899581364076
20
25.5448432771663
30
0
41
1
10
64.298933818947
20
25.5515349979558
30
0
41
1
10
64.3076439223733
20
25.5585645622227
30
0
41
1
10
64.3160169367173
20
25.5658689053161
30
0
41
1
10
64.3240272159717
20
25.5734101722315
30
0
41
1
10
64.3316890874599
20
25.5811824520278
30
0
41
1
10
64.3390451573536
20
25.5892249880767
30
0
41
1
10
64.3461307840687
20
25.5975767615805
30
0
41
1
10
64.3529144875273
20
25.6062106901116
30
0
41
1
10
64.3593959540683
20
25.6151329725999
30
0
41
1
10
64.3655228175755
20
25.6242741059449
30
0
41
1
10
64.3713490614058
20
25.6337164921915
30
0
41
1
10
64.3768431952116
20
25.6434313404025
30
0
41
1
10
64.3819989023884
20
25.6534265969268
30
0
41
1
10
64.3867533369893
20
25.6635857377834
30
0
41
1
10
64.3911292308478
20
25.6739539878594
30
0
41
1
10
64.3951065526129
20
25.6844961178014
30
0
41
1
10
64.3986841847768
20
25.6952168634993
30
0
41
1
10
64.4018354301342
20
25.7060366182403
30
0
41
1
10
64.4045985830888
20
25.7170938661007
30
0
41
1
10
64.4069471933266
20
25.7283538051482
30
0
41
1
10
64.4088667232352
20
25.7398221321788
30
0
41
1
10
64.4103243955214
20
25.7513255162103
30
0
41
1
10
64.4113279460425
20
25.7629121333489
30
0
41
1
10
64.4118693517015
20
25.7745433081311
30
0
41
1
10
64.4119459459973
20
25.7862224815385
30
0
41
1
10
64.4115561226078
20
25.7978694585158
30
0
41
1
10
64.4109895402816
20
25.8055979277757
30
0
41
1
10
64.4106291726811
20
25.8094508348911
30
0
0
SPLINE
5
26C
100
AcDbEntity
8
1
62
256
6
ByLayer
370
18
48
1
60
0
100
AcDbSpline
70
4
71
3
72
36
73
32
40
0
40
0
40
0
40
0
40
0.0350163753311966
40
0.0700600385354608
40
0.105102450140309
40
0.140117117403828
40
0.176091460625322
40
0.212098765482667
40
0.248104288978206
40
0.284076200822254
40
0.319196063779024
40
0.354350480940648
40
0.389502988091845
40
0.424620243900347
40
0.460976862274798
40
0.497376730791581
40
0.533774244883549
40
0.570127648821231
40
0.60194537161063
40
0.633795306071536
40
0.665643940648499
40
0.697459889061121
40
0.730411088254248
40
0.763401025671764
40
0.796389805499463
40
0.829339424295099
40
0.863426724966428
40
0.89758224923634
40
0.931759958422532
40
0.965913970311483
40
1
40
1
40
1
40
1
41
1
10
64.8049261569421
20
28.0225432589114
30
0
41
1
10
64.8066713367178
20
28.0263124437505
30
0
41
1
10
64.810004142774
20
28.0339374589324
30
0
41
1
10
64.8145327766971
20
28.0456352280514
30
0
41
1
10
64.8185725498167
20
28.0575688580299
30
0
41
1
10
64.8221417639614
20
28.0698314323318
30
0
41
1
10
64.8252078366817
20
28.0824164678876
30
0
41
1
10
64.8277434394001
20
28.0953116531352
30
0
41
1
10
64.8297074442694
20
28.1083779504467
30
0
41
1
10
64.8310741172532
20
28.1214843729828
30
0
41
1
10
64.8318433405781
20
28.1346080890135
30
0
41
1
10
64.8320247046219
20
28.1477245482175
30
0
41
1
10
64.8316153892657
20
28.1609091127316
30
0
41
1
10
64.8305935312229
20
28.1742864534083
30
0
41
1
10
64.8289195342406
20
28.1878349027953
30
0
41
1
10
64.8265654120022
20
28.2015261005717
30
0
41
1
10
64.8235480142594
20
28.2151652564471
30
0
41
1
10
64.820016261339
20
28.2281488119956
30
0
41
1
10
64.8160567570039
20
28.2404599890142
30
0
41
1
10
64.8117631517383
20
28.2520969804106
30
0
41
1
10
64.8069608146736
20
28.2635888694608
30
0
41
1
10
64.8015910658871
20
28.275040251101
30
0
41
1
10
64.7956308033947
20
28.286419192306
30
0
41
1
10
64.7890703320063
20
28.2976934875972
30
0
41
1
10
64.7819932678738
20
28.3086984591439
30
0
41
1
10
64.7743267117618
20
28.3195239313075
30
0
41
1
10
64.7660513374293
20
28.33012985851
30
0
41
1
10
64.7571663273839
20
28.3404819392063
30
0
41
1
10
64.7477920781468
20
28.3504316724314
30
0
41
1
10
64.7379615829773
20
28.3599415080238
30
0
41
1
10
64.7311229519556
20
28.3659606811905
30
0
41
1
10
64.7276334276395
20
28.3688905484355
30
0
0
SPLINE
5
26D
100
AcDbEntity
8
1
62
256
6
ByLayer
370
18
48
1
60
0
100
AcDbSpline
70
4
71
3
72
41
73
37
40
0
40
0
40
0
40
0
40
0.0315855627467132
40
0.0631711528143864
40
0.0906191266077646
40
0.118090700568751
40
0.145562583568333
40
0.173010979139446
40
0.20123741165815
40
0.229488515474368
40
0.257740229932287
40
0.285967495868755
40
0.313807088355865
40
0.341668908438099
40
0.369531468973147
40
0.397372071969896
40
0.425928446215691
40
0.45450695806366
40
0.483086364405052
40
0.51164395935322
40
0.541283718857625
40
0.57094600914929
40
0.600609320841923
40
0.630250474215817
40
0.660607773960998
40
0.690986934722843
40
0.721367117244588
40
0.751725811293507
40
0.782425144963856
40
0.813144898465735
40
0.843865562558078
40
0.874566138761881
40
0.905914247589705
40
0.937282132456795
40
0.968650809819533
40
1
40
1
40
1
40
1
41
1
10
64.7276334276395
20
28.3688905484355
30
0
41
1
10
64.7243992542041
20
28.3716039662834
30
0
41
1
10
64.717822326109
20
28.3768839107239
30
0
41
1
10
64.7080660174445
20
28.384045081513
30
0
41
1
10
64.6984929060531
20
28.3904899883608
30
0
41
1
10
64.6891601465905
20
28.3962756502351
30
0
41
1
10
64.6796305669611
20
28.4017007795069
30
0
41
1
10
64.6698315889679
20
28.4068031685013
30
0
41
1
10
64.6597709849775
20
28.4115620060484
30
0
41
1
10
64.6494610492304
20
28.4159630943483
30
0
41
1
10
64.6390174126886
20
28.4199572434904
30
0
41
1
10
64.6285101671065
20
28.4235223130886
30
0
41
1
10
64.6179566120876
20
28.4266602055146
30
0
41
1
10
64.6073740038602
20
28.4293802911754
30
0
41
1
10
64.5967342333475
20
28.4316967603885
30
0
41
1
10
64.585965976686
20
28.4336251760679
30
0
41
1
10
64.5750827594822
20
28.4351525260083
30
0
41
1
10
64.5640992952663
20
28.4362723117001
30
0
41
1
10
64.553127371794
20
28.4369755072262
30
0
41
1
10
64.5420485176008
20
28.4372690018626
30
0
41
1
10
64.5308784965889
20
28.4371368316407
30
0
41
1
10
64.5196338256341
20
28.4365693594622
30
0
41
1
10
64.5084713652252
20
28.4355759199973
30
0
41
1
10
64.4973209568412
20
28.4341521445051
30
0
41
1
10
64.4861991259341
20
28.4322916329559
30
0
41
1
10
64.4751212594096
20
28.4299936852362
30
0
41
1
10
64.4641925124765
20
28.4272836142999
30
0
41
1
10
64.4533893719695
20
28.424159638902
30
0
41
1
10
64.4427259603213
20
28.4206240883161
30
0
41
1
10
64.4322139609745
20
28.4166836701233
30
0
41
1
10
64.4219070090304
20
28.4123635983543
30
0
41
1
10
64.411748110813
20
28.4076423809803
30
0
41
1
10
64.4017525200521
20
28.4025195672709
30
0
41
1
10
64.3919336752287
20
28.3969988133724
30
0
41
1
10
64.3823715617136
20
28.3911277440044
30
0
41
1
10
64.3761778063256
20
28.3869908651683
30
0
41
1
10
64.3731261900912
20
28.3848664518383
30
0
0
SPLINE
5
26E
100
AcDbEntity
8
1
62
256
6
ByLayer
370
18
48
1
60
0
100
AcDbSpline
70
4
71
1
72
4
73
2
40
0
40
0
40
1
40
1
41
1
10
69.0683194344498
20
-18.456409141951
30
0
41
1
10
69.0681233469323
20
-18.4564042432426
30
0
0
SPLINE
5
26F
100
AcDbEntity
8
1
62
256
6
ByLayer
370
18
48
1
60
0
100
AcDbSpline
70
4
71
3
72
12
73
8
40
0
40
0
40
0
40
0
40
0.0692336874369304
40
0.301925052359209
40
0.534616423985601
40
0.76730821042754
40
1
40
1
40
1
40
1
41
1
10
69.6147897656906
20
-18.4057343618971
30
0
41
1
10
69.6101917299553
20
-18.4384527662261
30
0
41
1
10
69.5901398634816
20
-18.5811265557646
30
0
41
1
10
69.5546338692095
20
-18.8336773311105
30
0
41
1
10
69.508271494264
20
-19.1633083649332
30
0
41
1
10
69.4619086926825
20
-19.4928214661526
30
0
41
1
10
69.4309999291954
20
-19.7124304859111
30
0
41
1
10
69.4155454901022
20
-19.8222173482202
30
0
0
SPLINE
5
270
100
AcDbEntity
8
1
62
256
6
ByLayer
370
18
48
1
60
0
100
AcDbSpline
70
4
71
3
72
43
73
39
40
0
40
0
40
0
40
0
40
0.0001119291921846
40
0.000259786736383
40
0.0005331484018595
40
0.000821247727856
40
0.0011099571209212
40
0.0017015185090778
40
0.002847487051335
40
0.0039943812295565
40
0.0063041913120192
40
0.0093536765131725
40
0.0124038353523698
40
0.0154539546733549
40
0.0200369037352775
40
0.0246199142243245
40
0.0337638114396603
40
0.0429080487910121
40
0.0520525925925607
40
0.0611969077075248
40
0.0794932246692397
40
0.0977896014043926
40
0.127046583097469
40
0.156303745631241
40
0.185561161492882
40
0.214818673074138
40
0.24407594751881
40
0.292843204608727
40
0.341610521493921
40
0.390377819506732
40
0.463517449145928
40
0.5366572457314
40
0.609796859517093
40
0.682936544530565
40
0.762202335765524
40
0.841468129284224
40
0.920734064108909
40
1
40
1
40
1
40
1
41
1
10
70
20
-18.0654355652982
30
0
41
1
10
69.9999991256366
20
-18.06552196992
30
0
41
1
10
69.9999907689054
20
-18.0656672653568
30
0
41
1
10
69.9999347745679
20
-18.0656452218687
30
0
41
1
10
69.99982825818
20
-18.0652644725464
30
0
41
1
10
69.9996859383358
20
-18.0646118714552
30
0
41
1
10
69.9994793841776
20
-18.063551744916
30
0
41
1
10
69.9991083859031
20
-18.0614975785426
30
0
41
1
10
69.9985661256638
20
-18.0582947817092
30
0
41
1
10
69.9976893630383
20
-18.0528998050212
30
0
41
1
10
69.9964398192608
20
-18.0449945002521
30
0
41
1
10
69.9948166896397
20
-18.0345059666278
30
0
41
1
10
69.9930452521455
20
-18.022884737929
30
0
41
1
10
69.9909735202118
20
-18.0091638664268
30
0
41
1
10
69.9886020736314
20
-17.9933566710152
30
0
41
1
10
69.985044145896
20
-17.9694742562055
30
0
41
1
10
69.9805965417047
20
-17.9394460797324
30
0
41
1
10
69.975258369293
20
-17.9031908404038
30
0
41
1
10
69.9699177680119
20
-17.8667559176081
30
0
41
1
10
69.9627937121762
20
-17.8180178461424
30
0
41
1
10
69.9538854385909
20
-17.7568997460567
30
0
41
1
10
69.9410567003465
20
-17.6685914571702
30
0
41
1
10
69.9260901662126
20
-17.5653151545684
30
0
41
1
10
69.9089854446579
20
-17.4469984518257
30
0
41
1
10
69.8918788439816
20
-17.3284353934524
30
0
41
1
10
69.8747709910059
20
-17.2096849057043
30
0
41
1
10
69.853859529245
20
-17.0643901984464
30
0
41
1
10
69.8291441802567
20
-16.8924977474968
30
0
41
1
10
69.8006244421871
20
-16.6939072089644
30
0
41
1
10
69.7673525564054
20
-16.4620197479269
30
0
41
1
10
69.7293282808368
20
-16.1967772349684
30
0
41
1
10
69.6865515225292
20
-15.8981307725648
30
0
41
1
10
69.6437739301402
20
-15.5992778106963
30
0
41
1
10
69.5998013642669
20
-15.2919051972776
30
0
41
1
10
69.5546338698817
20
-14.9760260736546
30
0
41
1
10
69.508271494083
20
-14.6516497486665
30
0
41
1
10
69.4619086927342
20
-14.3271496532697
30
0
41
1
10
69.4309999291954
20
-14.1107466091301
30
0
41
1
10
69.4155454901022
20
-14.0025266347886
30
0
0
SPLINE
5
271
100
AcDbEntity
8
1
62
256
6
ByLayer
370
18
48
1
60
0
100
AcDbSpline
70
4
71
3
72
34
73
30
40
0
40
0
40
0
40
0
40
0.0137792612395554
40
0.177840464964445
40
0.34190122957166
40
0.450583185149654
40
0.559265033661362
40
0.631989968361272
40
0.704714795834656
40
0.753384694493229
40
0.802054485685404
40
0.834631714658997
40
0.867208835806842
40
0.889020181109257
40
0.910831418047019
40
0.925440480901998
40
0.940049434582847
40
0.959630702765351
40
0.972765369755959
40
0.98158751891197
40
0.987524953136698
40
0.991533037444821
40
0.994251172726012
40
0.996107533437007
40
0.997389236671238
40
0.998728272087513
40
0.99926681898737
40
0.999718797327335
40
1
40
1
40
1
40
1
41
1
10
69.8281015654405
20
-11.1790911041907
30
0
41
1
10
69.8288929748295
20
-11.1735769438734
30
0
41
1
10
69.839107166064
20
-11.102417196973
30
0
41
1
10
69.8587423381624
20
-10.9659536373263
30
0
41
1
10
69.8838269122201
20
-10.7917285196004
30
0
41
1
10
69.9057293651055
20
-10.6398790441982
30
0
41
1
10
69.9223854910791
20
-10.5246129049595
30
0
41
1
10
69.9369753578819
20
-10.4238494366978
30
0
41
1
10
69.9481183078358
20
-10.3470673028295
30
0
41
1
10
69.9578787390476
20
-10.2799774955359
30
0
41
1
10
69.9653334051335
20
-10.2288806343289
30
0
41
1
10
69.9718629673287
20
-10.1842606432771
30
0
41
1
10
69.9768501884365
20
-10.1502982790675
30
0
41
1
10
69.981218313092
20
-10.1206633257796
30
0
41
1
10
69.9845548200849
20
-10.0981240710331
30
0
41
1
10
69.9874769528158
20
-10.0784755735435
30
0
41
1
10
69.9902693474204
20
-10.059798996348
30
0
41
1
10
69.9929741742344
20
-10.0418542245814
30
0
41
1
10
69.9953421601226
20
-10.0263693637178
30
0
41
1
10
69.9969262095753
20
-10.0161974679071
30
0
41
1
10
69.9979856776119
20
-10.0095499068518
30
0
41
1
10
69.9986942184094
20
-10.0052353026589
30
0
41
1
10
69.999167552881
20
-10.0024654816064
30
0
41
1
10
69.9994838293424
20
-10.0007121847681
30
0
41
1
10
69.9997161213728
20
-9.99952499408438
30
0
41
1
10
69.9998708424683
20
-9.99884136251143
30
0
41
1
10
69.9999609933789
20
-9.99861536714032
30
0
41
1
10
69.999994402318
20
-9.99865503588416
30
0
41
1
10
69.9999996438515
20
-9.99878885472583
30
0
41
1
10
70
20
-9.99885417906465
30
0
0
SPLINE
5
272
100
AcDbEntity
8
1
62
256
6
ByLayer
370
18
48
1
60
0
100
AcDbSpline
70
4
71
3
72
15
73
11
40
0
40
0
40
0
40
0
40
0.124986749985307
40
0.249973504868357
40
0.374965693955596
40
0.499957887279599
40
0.624965885820454
40
0.749973887989322
40
0.874986942468339
40
1
40
1
40
1
40
1
41
1
10
56.4517822926671
20
21.2047797343649
30
0
41
1
10
56.4577766666906
20
21.2142200002099
30
0
41
1
10
56.4699166638868
20
21.2329446826135
30
0
41
1
10
56.4885847894633
20
21.2605640934224
30
0
41
1
10
56.5076987306972
20
21.2877172610549
30
0
41
1
10
56.5272523022138
20
21.3144060727303
30
0
41
1
10
56.547237147482
20
21.3406309787809
30
0
41
1
10
56.5676464602083
20
21.3663930451176
30
0
41
1
10
56.5884730134583
20
21.3916918525144
30
0
41
1
10
56.6026298864444
20
21.4082494793761
30
0
41
1
10
56.6097768747153
20
21.4164511241213
30
0
0
SPLINE
5
273
100
AcDbEntity
8
1
62
256
6
ByLayer
370
18
48
1
60
0
100
AcDbSpline
70
4
71
3
72
71
73
67
40
0
40
0
40
0
40
0
40
0.02060125803042
40
0.0411860202425096
40
0.0617195916040764
40
0.0822356858344626
40
0.0997249791085899
40
0.117214204179769
40
0.134655237371933
40
0.152096189571191
40
0.168553139953195
40
0.184998791642996
40
0.201749689963404
40
0.218487617423472
40
0.235120993277744
40
0.251754264879088
40
0.268329399563713
40
0.284904420437744
40
0.297873051854738
40
0.310843581096828
40
0.323812052514162
40
0.336705371715174
40
0.349600759449773
40
0.362493920925235
40
0.375145347415516
40
0.387798919075282
40
0.400450211799935
40
0.413019139624782
40
0.425590336985528
40
0.438159162276209
40
0.453455654501759
40
0.468752106243724
40
0.483978358689129
40
0.499204596907615
40
0.513378132760198
40
0.527537546536693
40
0.541986050690774
40
0.556419848372918
40
0.570748098314591
40
0.585076393012665
40
0.599350658094305
40
0.613624979454425
40
0.628383890501118
40
0.643146317066964
40
0.657905489589137
40
0.672551733669496
40
0.687201080244206
40
0.701847587955676
40
0.716207864897205
40
0.730570747314242
40
0.744931253144326
40
0.759209031975475
40
0.773489085257811
40
0.787767061112456
40
0.805980819498924
40
0.824194705404948
40
0.842347410673216
40
0.860500222453418
40
0.877843289447599
40
0.895174636498417
40
0.912721487918118
40
0.930257035384389
40
0.947712984629885
40
0.965168985847953
40
0.982584471944388
40
1
40
1
40
1
40
1
41
1
10
65.1375396896595
20
27.1126472491137
30
0
41
1
10
65.1312683140819
20
27.1155708368501
30
0
41
1
10
65.1188008812697
20
27.1216168237054
30
0
41
1
10
65.100321514769
20
27.1312790806962
30
0
41
1
10
65.0820912039328
20
27.1415300823401
30
0
41
1
10
65.0650013250014
20
27.1518383776875
30
0
41
1
10
65.0490115347975
20
27.1621137171027
30
0
41
1
10
65.0341011938802
20
27.1722578805954
30
0
41
1
10
65.0194084814198
20
27.1828306058694
30
0
41
1
10
65.0052155671146
20
27.1936238926555
30
0
41
1
10
64.9915091834769
20
27.2046168786784
30
0
41
1
10
64.9782030888837
20
27.2158505363967
30
0
41
1
10
64.9650480954622
20
27.2275443515218
30
0
41
1
10
64.952084616753
20
27.2396826425046
30
0
41
1
10
64.9394034289014
20
27.2521891500974
30
0
41
1
10
64.9270261754036
20
27.2650466280028
30
0
41
1
10
64.9149387744687
20
27.2782768858049
30
0
41
1
10
64.9040079549179
20
27.2908879603032
30
0
41
1
10
64.8941621423456
20
27.3028009991725
30
0
41
1
10
64.885343362046
20
27.313931613143
30
0
41
1
10
64.8767402249086
20
27.3252649237001
30
0
41
1
10
64.8683589749031
20
27.3367960347375
30
0
41
1
10
64.8602051133405
20
27.3485185402207
30
0
41
1
10
64.8523192770237
20
27.360375254035
30
0
41
1
10
64.8447044486214
20
27.3723566505167
30
0
41
1
10
64.8373621890853
20
27.3844519743594
30
0
41
1
10
64.8302666116493
20
27.3967039521657
30
0
41
1
10
64.8234233466868
20
27.4091047250254
30
0
41
1
10
64.8168364722574
20
27.4216449607048
30
0
41
1
10
64.8100389215757
20
27.4352621485014
30
0
41
1
10
64.8031059563787
20
27.4499882073264
30
0
41
1
10
64.7961317770965
20
27.465826142983
30
0
41
1
10
64.7895628377784
20
27.4818275874953
30
0
41
1
10
64.783546505766
20
27.497601174282
30
0
41
1
10
64.7780503792103
20
27.5131361067555
30
0
41
1
10
64.7730134396764
20
27.5285094251708
30
0
41
1
10
64.768317105566
20
27.5440781628662
30
0
41
1
10
64.7639821159423
20
27.5597948780078
30
0
41
1
10
64.7600391315837
20
27.5755381334123
30
0
41
1
10
64.7564889509156
20
27.5912772265097
30
0
41
1
10
64.7533216289348
20
27.6070353890914
30
0
41
1
10
64.75050299451
20
27.6229761732239
30
0
41
1
10
64.7480439273732
20
27.6391072070124
30
0
41
1
10
64.7459570377367
20
27.6554127978681
30
0
41
1
10
64.7442711240071
20
27.6716590059702
30
0
41
1
10
64.7429805462803
20
27.6878326204093
30
0
41
1
10
64.7420768466628
20
27.7039221516788
30
0
41
1
10
64.7415559171155
20
27.7198533978481
30
0
41
1
10
64.7414054057993
20
27.7356170181791
30
0
41
1
10
64.741611382469
20
27.7512057068019
30
0
41
1
10
64.7421669179452
20
27.7666853027677
30
0
41
1
10
64.7430651702022
20
27.7820483720449
30
0
41
1
10
64.7442981714691
20
27.7972887217754
30
0
41
1
10
64.7460062583922
20
27.8138204836211
30
0
41
1
10
64.7482978157006
20
27.8316006888924
30
0
41
1
10
64.7512837842833
20
27.850556298003
30
0
41
1
10
64.7547741670954
20
27.8692978136429
30
0
41
1
10
64.7586969930187
20
27.8875413842824
30
0
41
1
10
64.7630203805008
20
27.9053062738773
30
0
41
1
10
64.7677302207428
20
27.9226681309012
30
0
41
1
10
64.7728891877482
20
27.9398863627988
30
0
41
1
10
64.7784872731524
20
27.956929997284
30
0
41
1
10
64.7844926770213
20
27.9737237796393
30
0
41
1
10
64.7908912760874
20
27.9902541337033
30
0
41
1
10
64.7976844502518
20
28.0065424040221
30
0
41
1
10
64.802468708483
20
28.017235585898
30
0
41
1
10
64.8049261569421
20
28.0225432589114
30
0
0
SPLINE
5
274
100
AcDbEntity
8
1
62
256
6
ByLayer
370
18
48
1
60
0
100
AcDbSpline
70
4
71
3
72
41
73
37
40
0
40
0
40
0
40
0
40
0.0285219951516253
40
0.0570977290526553
40
0.0844746846364181
40
0.111851680843178
40
0.139418067990474
40
0.166984521961957
40
0.195138918043427
40
0.223293411306584
40
0.251646062321634
40
0.279998834576667
40
0.307730720802839
40
0.335462733036167
40
0.363372495015462
40
0.391282397099621
40
0.419732180308499
40
0.448182121923458
40
0.476809176044048
40
0.505436395480699
40
0.534933679212791
40
0.564431148136886
40
0.594108287919899
40
0.623785612327504
40
0.654002016524281
40
0.684218610190421
40
0.714609560904877
40
0.74500069365254
40
0.776434465590103
40
0.807868429896848
40
0.83947944830428
40
0.871090645377245
40
0.903231997469764
40
0.93537352007969
40
0.967686683730425
40
1
40
1
40
1
40
1
41
1
10
65.3018361559652
20
26.7981042757013
30
0
41
1
10
65.3024874504821
20
26.8018598308228
30
0
41
1
10
65.3036431511238
20
26.8093953070118
30
0
41
1
10
65.3049153654198
20
26.8206049456002
30
0
41
1
10
65.3057442271665
20
26.8316930660006
30
0
41
1
10
65.3061518636013
20
26.8426595897602
30
0
41
1
10
65.3061463640768
20
26.8536446267125
30
0
41
1
10
65.3057244771869
20
26.8647074097588
30
0
41
1
10
65.3048775400143
20
26.8758028891211
30
0
41
1
10
65.3035976266385
20
26.8869366050823
30
0
41
1
10
65.3018911891618
20
26.8980109399767
30
0
41
1
10
65.2997779340482
20
26.9089263907518
30
0
41
1
10
65.2972784713721
20
26.9196417382017
30
0
41
1
10
65.2944058064703
20
26.9301666197106
30
0
41
1
10
65.2911459785329
20
26.940563371309
30
0
41
1
10
65.287482944498
20
26.9508822292092
30
0
41
1
10
65.2834242659126
20
26.9610822924226
30
0
41
1
10
65.2789643582913
20
26.9711664038063
30
0
41
1
10
65.2741370428778
20
26.9810541907969
30
0
41
1
10
65.2689002111306
20
26.9908298279534
30
0
41
1
10
65.263263431858
20
27.0004518643061
30
0
41
1
10
65.2572171005696
20
27.0099191727915
30
0
41
1
10
65.2508281898468
20
27.0191226065814
30
0
41
1
10
65.2440689850658
20
27.0281045294033
30
0
41
1
10
65.2369598608682
20
27.0368299206167
30
0
41
1
10
65.2294961443044
20
27.0453001936342
30
0
41
1
10
65.2217332398803
20
27.0534522601965
30
0
41
1
10
65.2135933902644
20
27.0613667020619
30
0
41
1
10
65.2050960065395
20
27.0690066960717
30
0
41
1
10
65.1962314986085
20
27.076366031724
30
0
41
1
10
65.1871094174629
20
27.0833505902673
30
0
41
1
10
65.1776929683093
20
27.0899906104039
30
0
41
1
10
65.16801088568
20
27.0962604131218
30
0
41
1
10
65.1580590160576
20
27.1021595461003
30
0
41
1
10
65.1479041891069
20
27.1076472743875
30
0
41
1
10
65.1410135067335
20
27.1110278808485
30
0
41
1
10
65.1375396896595
20
27.1126472491137
30
0
0
SPLINE
5
275
100
AcDbEntity
8
1
62
256
6
ByLayer
370
18
48
1
60
0
100
AcDbSpline
70
4
71
3
72
36
73
32
40
0
40
0
40
0
40
0
40
0.0347956634946065
40
0.0696184338143889
40
0.104439972397002
40
0.139233954930665
40
0.174980893752295
40
0.21076055174153
40
0.246538446311778
40
0.282282978248444
40
0.317207219631034
40
0.352165838815501
40
0.387122551041673
40
0.422044189440869
40
0.458199290040243
40
0.494397454045961
40
0.530593251797737
40
0.566745121805223
40
0.598371827140243
40
0.630030600458243
40
0.66168805879326
40
0.693312969137842
40
0.726069039036864
40
0.758863745292667
40
0.791657264856272
40
0.82441171461919
40
0.859479733751484
40
0.894623405776279
40
0.929791631573723
40
0.964933498272471
40
1
40
1
40
1
40
1
41
1
10
65.0378754344403
20
26.5569738207839
30
0
41
1
10
65.0420234531261
20
26.5573118513361
30
0
41
1
10
65.0503170250218
20
26.5581683572247
30
0
41
1
10
65.0627512884029
20
26.5599928175763
30
0
41
1
10
65.0751491727365
20
26.5623607970231
30
0
41
1
10
65.0876007846761
20
26.5653022184601
30
0
41
1
10
65.1000843750895
20
26.568842238536
30
0
41
1
10
65.1125757133467
20
26.5729985936369
30
0
41
1
10
65.1249333949583
20
26.5777385043083
30
0
41
1
10
65.1370335706125
20
26.583021012833
30
0
41
1
10
65.1488561591872
20
26.588835423408
30
0
41
1
10
65.1603842881642
20
26.5951617365177
30
0
41
1
10
65.1716792168957
20
26.6020382015527
30
0
41
1
10
65.1828388958128
20
26.6095456533949
30
0
41
1
10
65.1938247588554
20
26.6177080365442
30
0
41
1
10
65.2045981010636
20
26.6265358668676
30
0
41
1
10
65.2149971854598
20
26.6359180645669
30
0
41
1
10
65.2245680046914
20
26.6454246750493
30
0
41
1
10
65.2333389619946
20
26.6549714485667
30
0
41
1
10
65.2413550355105
20
26.6644754278525
30
0
41
1
10
65.248992247193
20
26.6743523599962
30
0
41
1
10
65.2563127699096
20
26.6847055356839
30
0
41
1
10
65.263277118836
20
26.6955394400867
30
0
41
1
10
65.2698521931413
20
26.7068466603645
30
0
41
1
10
65.2759354806977
20
26.7184724198208
30
0
41
1
10
65.2816360476645
20
26.7306680099978
30
0
41
1
10
65.2868856380351
20
26.7434437578321
30
0
41
1
10
65.291628116122
20
26.7567918991482
30
0
41
1
10
65.2957324957257
20
26.7703825541155
30
0
41
1
10
65.2991806798432
20
26.7841628439641
30
0
41
1
10
65.3010258830388
20
26.7934422139853
30
0
41
1
10
65.3018361559652
20
26.7981042757013
30
0
0
SPLINE
5
276
100
AcDbEntity
8
1
62
256
6
ByLayer
370
18
48
1
60
0
100
AcDbSpline
70
4
71
3
72
33
73
29
40
0
40
0
40
0
40
0
40
0.0251961836579121
40
0.0503924070211594
40
0.0755346171120966
40
0.100676872841712
40
0.141615309492402
40
0.182591285037555
40
0.223582851679917
40
0.264564525561515
40
0.305507745897638
40
0.34539096001032
40
0.385301661976236
40
0.425223957303797
40
0.465139184037422
40
0.505026195766555
40
0.547426298370879
40
0.589844738229385
40
0.632264676516698
40
0.674666823303562
40
0.715098711385091
40
0.755530771574727
40
0.79644001265396
40
0.837349402947752
40
0.878005683020776
40
0.918674001081274
40
0.959342911681354
40
1
40
1
40
1
40
1
41
1
10
64.6255251787853
20
26.3746924833042
30
0
41
1
10
64.6285131740444
20
26.3774817403002
30
0
41
1
10
64.6345317483238
20
26.3830007699969
30
0
41
1
10
64.6436833544557
20
26.3910966554118
30
0
41
1
10
64.6529507594423
20
26.3990055598896
30
0
41
1
10
64.6642921018557
20
26.4083426318302
30
0
41
1
10
64.6778115153609
20
26.4189523855582
30
0
41
1
10
64.693604283074
20
26.430629447981
30
0
41
1
10
64.709651118288
20
26.4418026763315
30
0
41
1
10
64.7259203305935
20
26.4524599286876
30
0
41
1
10
64.7422476923205
20
26.4625071925944
30
0
41
1
10
64.7586135322879
20
26.4719586218411
30
0
41
1
10
64.7750006741277
20
26.4808365958584
30
0
41
1
10
64.7915353945099
20
26.489224404849
30
0
41
1
10
64.8081947239095
20
26.4971197775909
30
0
41
1
10
64.8253150377523
20
26.504678593802
30
0
41
1
10
64.8428944699934
20
26.5118676653737
30
0
41
1
10
64.8609289834998
20
26.5186570310178
30
0
41
1
10
64.8790475966412
20
26.5249051227437
30
0
41
1
10
64.8969529526382
20
26.5305268371581
30
0
41
1
10
64.9146293485793
20
26.5355548227849
30
0
41
1
10
64.9321344625325
20
26.5400403786788
30
0
41
1
10
64.9497417463982
20
26.5440610660567
30
0
41
1
10
64.9674053562486
20
26.547607565244
30
0
41
1
10
64.9850492744854
20
26.5506716855689
30
0
41
1
10
65.0026644117813
20
26.5532611885796
30
0
41
1
10
65.0202779166063
20
26.5553859175891
30
0
41
1
10
65.032011179458
20
26.556495827161
30
0
41
1
10
65.0378754344403
20
26.5569738207839
30
0
0
SPLINE
5
277
100
AcDbEntity
8
1
62
256
6
ByLayer
370
18
48
1
60
0
100
AcDbSpline
70
4
71
3
72
35
73
31
40
0
40
0
40
0
40
0
40
0.0394668833887329
40
0.0789124963779371
40
0.118292551577805
40
0.157650327528136
40
0.193196010996583
40
0.228745931173055
40
0.264291311562199
40
0.299670263385349
40
0.335053787991097
40
0.370432359954467
40
0.405259403567128
40
0.440091287301203
40
0.474917885776162
40
0.509550096884173
40
0.544187643943183
40
0.578819328703189
40
0.615390741104707
40
0.651961940765777
40
0.688410235790168
40
0.724858304850986
40
0.758911653575547
40
0.792936917439259
40
0.827688307390892
40
0.862407567828463
40
0.896874515694524
40
0.931341293364106
40
0.965670717256757
40
1
40
1
40
1
40
1
41
1
10
64.4106291726811
20
25.8094508348911
30
0
41
1
10
64.4100975914979
20
25.8151375078373
30
0
41
1
10
64.4091768403698
20
25.8265358416133
30
0
41
1
10
64.4082203995335
20
25.8437095176685
30
0
41
1
10
64.407694333231
20
25.860945076175
30
0
41
1
10
64.4076046732194
20
25.8776810442685
30
0
41
1
10
64.4079079683662
20
25.8939130472757
30
0
41
1
10
64.4085617261662
20
25.9096317665786
30
0
41
1
10
64.4095786359846
20
25.9253671609195
30
0
41
1
10
64.4109608723992
20
25.9411131434772
30
0
41
1
10
64.4127100466389
20
25.9568634681128
30
0
41
1
10
64.4148212204667
20
25.9725544535621
30
0
41
1
10
64.417291852549
20
25.9881790174696
30
0
41
1
10
64.4201185590747
20
26.003730121117
30
0
41
1
10
64.42331203253
20
26.0192536617486
30
0
41
1
10
64.4268738899241
20
26.0347420042961
30
0
41
1
10
64.4308046196539
20
26.0501871704619
30
0
41
1
10
64.435194559191
20
26.0658974234279
30
0
41
1
10
64.4400722641352
20
26.081860754871
30
0
41
1
10
64.4454604514801
20
26.0980462355929
30
0
41
1
10
64.451272785423
20
26.1141544303689
30
0
41
1
10
64.4573725914659
20
26.1298219672151
30
0
41
1
10
64.4637338283634
20
26.1450552661526
30
0
41
1
10
64.470371793427
20
26.1599541716954
30
0
41
1
10
64.4774389438416
20
26.1748481724773
30
0
41
1
10
64.484926823501
20
26.1896889281774
30
0
41
1
10
64.4927803602281
20
26.2043586615426
30
0
41
1
10
64.5009840468858
20
26.2188288244816
30
0
41
1
10
64.5095524507882
20
26.2331220494609
30
0
41
1
10
64.5155013956922
20
26.2425193061974
30
0
41
1
10
64.5185373766055
20
26.2471893856927
30
0
0
SPLINE
5
278
100
AcDbEntity
8
1
62
256
6
ByLayer
370
18
48
1
60
0
100
AcDbSpline
70
4
71
3
72
33
73
29
40
0
40
0
40
0
40
0
40
0.0251961836579093
40
0.0503924070211594
40
0.0755346171121044
40
0.100676872841713
40
0.141615309492407
40
0.182591285037558
40
0.223582851679921
40
0.264564525561519
40
0.305507745897639
40
0.345390960010321
40
0.38530166197624
40
0.425223957303801
40
0.465139184037427
40
0.505026195766556
40
0.547426298370883
40
0.589844738229387
40
0.6322646765167
40
0.674666823303564
40
0.715098711385092
40
0.75553077157473
40
0.796440012653963
40
0.837349402947754
40
0.878005683020776
40
0.918674001081278
40
0.959342911681358
40
1
40
1
40
1
40
1
41
1
10
62.6744748212147
20
27.7945415957889
30
0
41
1
10
62.6714868259555
20
27.791752338793
30
0
41
1
10
62.6654682516762
20
27.7862333090962
30
0
41
1
10
62.6563166455443
20
27.7781374236813
30
0
41
1
10
62.6470492405577
20
27.7702285192035
30
0
41
1
10
62.6357078981443
20
27.760891447263
30
0
41
1
10
62.6221884846391
20
27.7502816935349
30
0
41
1
10
62.606395716926
20
27.7386046311121
30
0
41
1
10
62.590348881712
20
27.7274314027617
30
0
41
1
10
62.5740796694065
20
27.7167741504055
30
0
41
1
10
62.5577523076795
20
27.7067268864987
30
0
41
1
10
62.5413864677121
20
27.697275457252
30
0
41
1
10
62.5249993258723
20
27.6883974832347
30
0
41
1
10
62.5084646054901
20
27.6800096742442
30
0
41
1
10
62.4918052760906
20
27.6721143015022
30
0
41
1
10
62.4746849622477
20
27.6645554852912
30
0
41
1
10
62.4571055300066
20
27.6573664137194
30
0
41
1
10
62.4390710165002
20
27.6505770480754
30
0
41
1
10
62.4209524033588
20
27.6443289563494
30
0
41
1
10
62.4030470473618
20
27.638707241935
30
0
41
1
10
62.3853706514207
20
27.6336792563082
30
0
41
1
10
62.3678655374676
20
27.6291937004144
30
0
41
1
10
62.3502582536018
20
27.6251730130365
30
0
41
1
10
62.3325946437514
20
27.6216265138492
30
0
41
1
10
62.3149507255146
20
27.6185623935242
30
0
41
1
10
62.2973355882187
20
27.6159728905135
30
0
41
1
10
62.2797220833937
20
27.613848161504
30
0
41
1
10
62.267988820542
20
27.6127382519321
30
0
41
1
10
62.2621245655597
20
27.6122602583093
30
0
0
SPLINE
5
279
100
AcDbEntity
8
1
62
256
6
ByLayer
370
18
48
1
60
0
100
AcDbSpline
70
4
71
3
72
35
73
31
40
0
40
0
40
0
40
0
40
0.0394668833886845
40
0.0789124963778589
40
0.118292551577713
40
0.157650327528036
40
0.193196010996484
40
0.228745931172964
40
0.264291311562104
40
0.299670263385255
40
0.335053787991012
40
0.370432359954383
40
0.405259403567045
40
0.44009128730112
40
0.474917885776075
40
0.509550096884093
40
0.544187643943105
40
0.578819328703114
40
0.615390741104647
40
0.651961940765718
40
0.688410235790111
40
0.724858304850938
40
0.758911653575507
40
0.792936917439235
40
0.827688307390863
40
0.862407567828444
40
0.896874515694506
40
0.931341293364103
40
0.965670717256764
40
1
40
1
40
1
40
1
41
1
10
62.8893708273192
20
28.3597832442021
30
0
41
1
10
62.8899024085022
20
28.3540965712558
30
0
41
1
10
62.8908231596301
20
28.3426982374798
30
0
41
1
10
62.8917796004665
20
28.3255245614246
30
0
41
1
10
62.892305666769
20
28.3082890029182
30
0
41
1
10
62.8923953267806
20
28.2915530348247
30
0
41
1
10
62.8920920316338
20
28.2753210318175
30
0
41
1
10
62.8914382738338
20
28.2596023125146
30
0
41
1
10
62.8904213640154
20
28.2438669181737
30
0
41
1
10
62.8890391276009
20
28.228120935616
30
0
41
1
10
62.8872899533611
20
28.2123706109804
30
0
41
1
10
62.8851787795333
20
28.1966796255311
30
0
41
1
10
62.882708147451
20
28.1810550616236
30
0
41
1
10
62.8798814409254
20
28.1655039579761
30
0
41
1
10
62.87668796747
20
28.1499804173446
30
0
41
1
10
62.8731261100759
20
28.1344920747971
30
0
41
1
10
62.8691953803461
20
28.1190469086313
30
0
41
1
10
62.8648054408091
20
28.1033366556653
30
0
41
1
10
62.8599277358649
20
28.0873733242222
30
0
41
1
10
62.8545395485199
20
28.0711878435002
30
0
41
1
10
62.8487272145771
20
28.0550796487243
30
0
41
1
10
62.8426274085341
20
28.0394121118781
30
0
41
1
10
62.8362661716366
20
28.0241788129405
30
0
41
1
10
62.829628206573
20
28.0092799073978
30
0
41
1
10
62.8225610561584
20
27.9943859066159
30
0
41
1
10
62.815073176499
20
27.9795451509157
30
0
41
1
10
62.8072196397719
20
27.9648754175506
30
0
41
1
10
62.7990159531142
20
27.9504052546115
30
0
41
1
10
62.7904475492118
20
27.9361120296322
30
0
41
1
10
62.7844986043078
20
27.9267147728957
30
0
41
1
10
62.7814626233945
20
27.9220446934005
30
0
0
SPLINE
5
27A
100
AcDbEntity
8
1
62
256
6
ByLayer
370
18
48
1
60
0
100
AcDbSpline
70
4
71
3
72
67
73
63
40
0
40
0
40
0
40
0
40
0.0205551394682164
40
0.0411186358342156
40
0.0616816159039099
40
0.0822360510422532
40
0.0996985653378835
40
0.117166981847675
40
0.134634989085299
40
0.152096945091503
40
0.168548378730397
40
0.18499973669609
40
0.201744292974331
40
0.21848875512247
40
0.235089852760192
40
0.25169803700258
40
0.268305621772897
40
0.284905901594362
40
0.300417158982624
40
0.315939218072845
40
0.331464123891839
40
0.346984720907132
40
0.362494751194319
40
0.377620254540542
40
0.392757585212285
40
0.407898302081362
40
0.423034543068129
40
0.438159131775642
40
0.453416272882032
40
0.468682131169015
40
0.483947838759007
40
0.499204774251724
40
0.513371322202594
40
0.52753787906814
40
0.541979094399358
40
0.556420338984504
40
0.570718099803401
40
0.585022695148242
40
0.599327569483628
40
0.613625710924673
40
0.631257985132582
40
0.648906508464382
40
0.666561756494777
40
0.684212700918789
40
0.70184700761374
40
0.719021887515965
40
0.736208688453557
40
0.753400512362329
40
0.770589266294314
40
0.787765785343675
40
0.80594487651379
40
0.824131819753974
40
0.842319404760006
40
0.860499371437733
40
0.877836647962117
40
0.895173998654214
40
0.912715273923262
40
0.930256613695688
40
0.947689735194818
40
0.965128002599574
40
0.98256652740174
40
1
40
1
40
1
40
1
41
1
10
64.3731261900912
20
28.3848664518383
30
0
41
1
10
64.3674602592267
20
28.380921893115
30
0
41
1
10
64.355988041371
20
28.3731923251304
30
0
41
1
10
64.3383614957177
20
28.3620749383052
30
0
41
1
10
64.3203266715451
20
28.3514532171154
30
0
41
1
10
64.3028159420373
20
28.3418483353835
30
0
41
1
10
64.2859011586103
20
28.3331870987729
30
0
41
1
10
64.2696460794127
20
28.3253943217011
30
0
41
1
10
64.2531149255663
20
28.3179976390662
30
0
41
1
10
64.236638720527
20
28.3111426865967
30
0
41
1
10
64.2202408044239
20
28.3048122309614
30
0
41
1
10
64.203844899575
20
28.2989519851331
30
0
41
1
10
64.1871229739658
20
28.2934523844052
30
0
41
1
10
64.1701259409827
20
28.2883453118105
30
0
41
1
10
64.1529588540088
20
28.2836690626609
30
0
41
1
10
64.1356325441537
20
28.2794286292514
30
0
41
1
10
64.1181096767769
20
28.2756205731019
30
0
41
1
10
64.100790080761
20
28.2723289382763
30
0
41
1
10
64.0836937236996
20
28.2695309157236
30
0
41
1
10
64.0668405446681
20
28.2671993094236
30
0
41
1
10
64.04985309497
20
28.2652768406033
30
0
41
1
10
64.0327515790712
20
28.2637717063753
30
0
41
1
10
64.0156925462707
20
28.2627003603044
30
0
41
1
10
63.9986868470733
20
28.2620591950177
30
0
41
1
10
63.9817472740881
20
28.2618384505094
30
0
41
1
10
63.9647486015086
20
28.2620358064964
30
0
41
1
10
63.9477161049504
20
28.2626547975842
30
0
41
1
10
63.9306184908914
20
28.2637025484149
30
0
41
1
10
63.913468970612
20
28.2651881383691
30
0
41
1
10
63.8962826504084
20
28.2671135028298
30
0
41
1
10
63.8791320774359
20
28.2694726596845
30
0
41
1
10
63.8624473970626
20
28.2721982064327
30
0
41
1
10
63.8462428236421
20
28.2752535012682
30
0
41
1
10
63.830422649424
20
28.2786212882049
30
0
41
1
10
63.8145994509184
20
28.2823834348648
30
0
41
1
10
63.7988434068371
20
28.2865282590167
30
0
41
1
10
63.7832674388354
20
28.291023974618
30
0
41
1
10
63.7678837766328
20
28.2958588977318
30
0
41
1
10
63.7526559298349
20
28.3010395977825
30
0
41
1
10
63.7364289990035
20
28.3069869406614
30
0
41
1
10
63.7192628030509
20
28.3137946687556
30
0
41
1
10
63.7012297997046
20
28.3215518444208
30
0
41
1
10
63.6835022747475
20
28.3297825348211
30
0
41
1
10
63.6661069011268
20
28.3384654490729
30
0
41
1
10
63.6492088213149
20
28.3475056397414
30
0
41
1
10
63.6328059467354
20
28.3568789249084
30
0
41
1
10
63.6168877096461
20
28.3665590403182
30
0
41
1
10
63.6013178615965
20
28.3766135394096
30
0
41
1
10
63.5861101600323
20
28.3870236239527
30
0
41
1
10
63.5709837102995
20
28.397984586837
30
0
41
1
10
63.5559662137241
20
28.4095095685419
30
0
41
1
10
63.5410833928523
20
28.4216083033759
30
0
41
1
10
63.5266220545335
20
28.4340489727524
30
0
41
1
10
63.5128040924183
20
28.4466191769146
30
0
41
1
10
63.4996094986065
20
28.4592891836431
30
0
41
1
10
63.4869655119984
20
28.4720827892753
30
0
41
1
10
63.4746686992855
20
28.4851955602924
30
0
41
1
10
63.4627499584101
20
28.4985928284667
30
0
41
1
10
63.4512543290458
20
28.5122135653066
30
0
41
1
10
63.440179669414
20
28.5260460944758
30
0
41
1
10
63.4295038968422
20
28.5401087352398
30
0
41
1
10
63.4226537758096
20
28.5496287492706
30
0
41
1
10
63.4192958113839
20
28.5544250536478
30
0
0
SPLINE
5
27B
100
AcDbEntity
8
1
62
256
6
ByLayer
370
18
48
1
60
0
100
AcDbSpline
70
4
71
3
72
67
73
63
40
0
40
0
40
0
40
0
40
0.0205551394682183
40
0.0411186358342169
40
0.0616816159039113
40
0.0822360510422533
40
0.099698565337886
40
0.117166981847676
40
0.1346349890853
40
0.152096945091503
40
0.168548378730397
40
0.184999736696091
40
0.201744292974332
40
0.21848875512247
40
0.235089852760193
40
0.251698037002581
40
0.268305621772898
40
0.284905901594364
40
0.300417158982625
40
0.315939218072845
40
0.331464123891839
40
0.346984720907134
40
0.362494751194319
40
0.377620254540543
40
0.392757585212285
40
0.407898302081362
40
0.423034543068129
40
0.438159131775642
40
0.453416272882034
40
0.468682131169015
40
0.483947838759007
40
0.499204774251726
40
0.513371322202594
40
0.527537879068141
40
0.541979094399359
40
0.556420338984505
40
0.5707180998034
40
0.585022695148243
40
0.599327569483629
40
0.613625710924674
40
0.631257985132583
40
0.648906508464383
40
0.666561756494777
40
0.68421270091879
40
0.701847007613741
40
0.719021887515966
40
0.736208688453558
40
0.753400512362328
40
0.770589266294313
40
0.787765785343676
40
0.80594487651379
40
0.824131819753973
40
0.842319404760007
40
0.860499371437732
40
0.877836647962116
40
0.895173998654215
40
0.912715273923263
40
0.930256613695688
40
0.947689735194819
40
0.965128002599573
40
0.982566527401737
40
1
40
1
40
1
40
1
41
1
10
62.9268738099088
20
25.7843676272549
30
0
41
1
10
62.9325397407733
20
25.7883121859781
30
0
41
1
10
62.944011958629
20
25.7960417539628
30
0
41
1
10
62.9616385042823
20
25.8071591407879
30
0
41
1
10
62.9796733284549
20
25.8177808619777
30
0
41
1
10
62.9971840579627
20
25.8273857437097
30
0
41
1
10
63.0140988413897
20
25.8360469803203
30
0
41
1
10
63.0303539205873
20
25.8438397573921
30
0
41
1
10
63.0468850744337
20
25.8512364400269
30
0
41
1
10
63.063361279473
20
25.8580913924964
30
0
41
1
10
63.0797591955761
20
25.8644218481317
30
0
41
1
10
63.096155100425
20
25.8702820939601
30
0
41
1
10
63.1128770260342
20
25.8757816946879
30
0
41
1
10
63.1298740590173
20
25.8808887672826
30
0
41
1
10
63.1470411459912
20
25.8855650164322
30
0
41
1
10
63.1643674558463
20
25.8898054498417
30
0
41
1
10
63.1818903232231
20
25.8936135059913
30
0
41
1
10
63.1992099192391
20
25.8969051408168
30
0
41
1
10
63.2163062763004
20
25.8997031633696
30
0
41
1
10
63.2331594553319
20
25.9020347696695
30
0
41
1
10
63.25014690503
20
25.9039572384899
30
0
41
1
10
63.2672484209288
20
25.9054623727178
30
0
41
1
10
63.2843074537293
20
25.9065337187887
30
0
41
1
10
63.3013131529268
20
25.9071748840755
30
0
41
1
10
63.318252725912
20
25.9073956285837
30
0
41
1
10
63.3352513984914
20
25.9071982725968
30
0
41
1
10
63.3522838950497
20
25.9065792815089
30
0
41
1
10
63.3693815091086
20
25.9055315306782
30
0
41
1
10
63.386531029388
20
25.904045940724
30
0
41
1
10
63.4037173495916
20
25.9021205762633
30
0
41
1
10
63.4208679225641
20
25.8997614194086
30
0
41
1
10
63.4375526029374
20
25.8970358726604
30
0
41
1
10
63.4537571763579
20
25.8939805778249
30
0
41
1
10
63.4695773505761
20
25.8906127908882
30
0
41
1
10
63.4854005490817
20
25.8868506442283
30
0
41
1
10
63.5011565931629
20
25.8827058200765
30
0
41
1
10
63.5167325611646
20
25.8782101044751
30
0
41
1
10
63.5321162233672
20
25.8733751813613
30
0
41
1
10
63.5473440701651
20
25.8681944813106
30
0
41
1
10
63.5635710009966
20
25.8622471384317
30
0
41
1
10
63.5807371969491
20
25.8554394103375
30
0
41
1
10
63.5987702002954
20
25.8476822346724
30
0
41
1
10
63.6164977252525
20
25.839451544272
30
0
41
1
10
63.6338930988732
20
25.8307686300202
30
0
41
1
10
63.6507911786851
20
25.8217284393517
30
0
41
1
10
63.6671940532646
20
25.8123551541848
30
0
41
1
10
63.6831122903539
20
25.802675038775
30
0
41
1
10
63.6986821384035
20
25.7926205396835
30
0
41
1
10
63.7138898399677
20
25.7822104551404
30
0
41
1
10
63.7290162897005
20
25.7712494922562
30
0
41
1
10
63.7440337862759
20
25.7597245105512
30
0
41
1
10
63.7589166071477
20
25.7476257757173
30
0
41
1
10
63.7733779454665
20
25.7351851063408
30
0
41
1
10
63.7871959075817
20
25.7226149021785
30
0
41
1
10
63.8003905013935
20
25.7099448954501
30
0
41
1
10
63.8130344880016
20
25.6971512898179
30
0
41
1
10
63.8253313007145
20
25.6840385188007
30
0
41
1
10
63.8372500415898
20
25.6706412506264
30
0
41
1
10
63.8487456709542
20
25.6570205137865
30
0
41
1
10
63.859820330586
20
25.6431879846174
30
0
41
1
10
63.8704961031578
20
25.6291253438533
30
0
41
1
10
63.8773462241904
20
25.6196053298225
30
0
41
1
10
63.8807041886161
20
25.6148090254454
30
0
0
SPLINE
5
27C
100
AcDbEntity
8
1
62
256
6
ByLayer
370
18
48
1
60
0
100
AcDbSpline
70
4
71
3
72
43
73
39
40
0
40
0
40
0
40
0
40
4.15129330182E-05
40
0.0001746827387846
40
0.0003333588979972
40
0.0007278890670395
40
0.0011055270167035
40
0.0016524806602964
40
0.0024533454864881
40
0.0036342777873313
40
0.0053836691024326
40
0.0079830058818465
40
0.0118529725409313
40
0.0176223502704852
40
0.0219266972360959
40
0.0262310763685117
40
0.0326574867615126
40
0.0390839290828165
40
0.0486823737371042
40
0.0582808501609122
40
0.0726208004706921
40
0.0869607824441132
40
0.108388250890077
40
0.129815750929006
40
0.161837509764134
40
0.193859300145015
40
0.242197769533726
40
0.290536368303013
40
0.338875063970739
40
0.387213665493988
40
0.446084268683934
40
0.504954899874172
40
0.563825519736549
40
0.652131354287864
40
0.74043719548128
40
0.824412051634864
40
0.908386909888079
40
1
40
1
40
1
40
1
41
1
10
69.0683194344498
20
-18.456409141951
30
0
41
1
10
69.0683848968614
20
-18.4564060738957
30
0
41
1
10
69.0686554616692
20
-18.4563801685476
30
0
41
1
10
69.06914207182
20
-18.4561994840982
30
0
41
1
10
69.0699655244222
20
-18.4555898303725
30
0
41
1
10
69.0707949891874
20
-18.4544934927302
30
0
41
1
10
69.0717241546066
20
-18.4528189394806
30
0
41
1
10
69.0727194577833
20
-18.4505154000025
30
0
41
1
10
69.073921806344
20
-18.4470425324478
30
0
41
1
10
69.0753898511153
20
-18.4418147489096
30
0
41
1
10
69.0771989414423
20
-18.4339636817499
30
0
41
1
10
69.0794450776727
20
-18.4221848339209
30
0
41
1
10
69.0822533819717
20
-18.4045282609954
30
0
41
1
10
69.0849545303276
20
-18.3843154138584
30
0
41
1
10
69.0874460115689
20
-18.363421987665
30
0
41
1
10
69.0898480489816
20
-18.3415397357532
30
0
41
1
10
69.0923848957603
20
-18.3165363166768
30
0
41
1
10
69.0954564328747
20
-18.2837800548066
30
0
41
1
10
69.0987126977048
20
-18.246359137803
30
0
41
1
10
69.1026717369013
20
-18.1973386556961
30
0
41
1
10
69.1068861275176
20
-18.1413460459042
30
0
41
1
10
69.1120328853606
20
-18.0680019209358
30
0
41
1
10
69.1175357798125
20
-17.9842360770365
30
0
41
1
10
69.1242876301817
20
-17.8745184569123
30
0
41
1
10
69.1315412663547
20
-17.749222307495
30
0
41
1
10
69.1405191228198
20
-17.58441079915
30
0
41
1
10
69.1502624671102
20
-17.3956085991478
30
0
41
1
10
69.1606543424962
20
-17.1828038715364
30
0
41
1
10
69.1705726606656
20
-16.9699470874273
30
0
41
1
10
69.1808437890432
20
-16.7415916274371
30
0
41
1
10
69.1914889230511
20
-16.4977402178354
30
0
41
1
10
69.2024547288692
20
-16.2383874904358
30
0
41
1
10
69.2149174862107
20
-15.9357749083789
30
0
41
1
10
69.2287734427372
20
-15.5898919741686
30
0
41
1
10
69.2436741740888
20
-15.2070909522023
30
0
41
1
10
69.2579967075709
20
-14.8306185494724
30
0
41
1
10
69.2722149107062
20
-14.449258185316
30
0
41
1
10
69.2816686328802
20
-14.191260665375
30
0
41
1
10
69.286552802596
20
-14.0566454930441
30
0
0
SPLINE
5
27D
100
AcDbEntity
8
1
62
256
6
ByLayer
370
18
48
1
60
0
100
AcDbSpline
70
4
71
3
72
131
73
127
40
0
40
0
40
0
40
0
40
0.0052800354375001
40
0.0176951282026834
40
0.0293458089619891
40
0.0402377539242409
40
0.0504652604761935
40
0.0586483377257757
40
0.0663771649251974
40
0.073651741266282
40
0.0804720659914997
40
0.0868381383949887
40
0.0927013170715734
40
0.0951663641785159
40
0.0970761796650929
40
0.0984307632960385
40
0.0996535847113238
40
0.101954433043347
40
0.105098917794307
40
0.109087039539458
40
0.113918799001201
40
0.119594197052229
40
0.126113234717006
40
0.133475913172789
40
0.141674929610908
40
0.155864082122182
40
0.169561311323713
40
0.182766615732049
40
0.199681695505412
40
0.215714410710152
40
0.230864758238792
40
0.24514766880537
40
0.276146514961896
40
0.293234743605291
40
0.297552145546636
40
0.301511185457492
40
0.304842030123236
40
0.30754467911212
40
0.30961913207444
40
0.310908253083262
40
0.311895942177979
40
0.313170095183599
40
0.314780577131015
40
0.316727388130916
40
0.320517745280395
40
0.325159349462863
40
0.330652201460567
40
0.336996302198287
40
0.349760941780069
40
0.362570895677859
40
0.375381720125611
40
0.388193415079815
40
0.401005980497021
40
0.422362190435881
40
0.443700920419667
40
0.464748941493226
40
0.48213742200905
40
0.499259423158741
40
0.504651448869838
40
0.510016496167152
40
0.515354565019631
40
0.520665655396435
40
0.525914938639479
40
0.530689598829433
40
0.534869927607509
40
0.538455924499338
40
0.540961714830451
40
0.543064820018043
40
0.544765239902443
40
0.546062974357274
40
0.547128384097338
40
0.548623357828503
40
0.550819801151869
40
0.553606397289106
40
0.556983146541778
40
0.560950049274743
40
0.565507105916494
40
0.570386997479836
40
0.5752146876419
40
0.587750162476204
40
0.599900464083483
40
0.611665591572944
40
0.623045544089404
40
0.634181051249449
40
0.645894018648681
40
0.658317752807214
40
0.67145225525092
40
0.685297527587313
40
0.699853571507328
40
0.715120388786867
40
0.73109798128824
40
0.740078404263193
40
0.748397853206722
40
0.75603502012873
40
0.762989904110808
40
0.76926250431664
40
0.774852819992735
40
0.780303964532423
40
0.784899249705952
40
0.788638674837412
40
0.790323329210489
40
0.791787171550353
40
0.793034001491039
40
0.794063818987007
40
0.795138579470566
40
0.796735952070874
40
0.79886602498205
40
0.802026455160334
40
0.805912803399386
40
0.810525070158484
40
0.815863255980931
40
0.821927361494926
40
0.828717387414123
40
0.836233334538106
40
0.844475203752841
40
0.853442996031115
40
0.863136712433023
40
0.874638244210324
40
0.887018147219348
40
0.900276423241716
40
0.914413074190301
40
0.929709233062615
40
0.945916002560957
40
0.963033385130925
40
0.981061383364202
40
1
40
1
40
1
40
1
41
1
10
69.9029933217161
20
-11.7153281890661
30
0
41
1
10
69.9031602480799
20
-11.7165262689328
30
0
41
1
10
69.9037196821766
20
-11.7205414343352
30
0
41
1
10
69.904647506962
20
-11.7272002841027
30
0
41
1
10
69.9057528418829
20
-11.7351325706409
30
0
41
1
10
69.9067890597897
20
-11.7425683893881
30
0
41
1
10
69.9077156951451
20
-11.7492174696077
30
0
41
1
10
69.9085423543119
20
-11.7551488734347
30
0
41
1
10
69.9092756628054
20
-11.7604102457048
30
0
41
1
10
69.9099659011808
20
-11.7653623963768
30
0
41
1
10
69.9106130603745
20
-11.770005297332
30
0
41
1
10
69.9112155950187
20
-11.7743278965006
30
0
41
1
10
69.9116803781515
20
-11.7776621537349
30
0
41
1
10
69.9120042163475
20
-11.7799852497918
30
0
41
1
10
69.9121854446318
20
-11.781285299664
30
0
41
1
10
69.9123273810747
20
-11.7823034787597
30
0
41
1
10
69.9124816740758
20
-11.7834102898627
30
0
41
1
10
69.9126925652795
20
-11.7849230904249
30
0
41
1
10
69.9129909121942
20
-11.7870632121748
30
0
41
1
10
69.9133693058349
20
-11.7897774790152
30
0
41
1
10
69.9138277554359
20
-11.7930659208613
30
0
41
1
10
69.9143662708316
20
-11.7969285643742
30
0
41
1
10
69.9149848641944
20
-11.8013654454963
30
0
41
1
10
69.9156833179276
20
-11.8063749448009
30
0
41
1
10
69.9166244522002
20
-11.8131247391356
30
0
41
1
10
69.9177660704286
20
-11.8213119208003
30
0
41
1
10
69.9190662015078
20
-11.830635210754
30
0
41
1
10
69.9204527125984
20
-11.8405772436248
30
0
41
1
10
69.9219132757792
20
-11.8510494588217
30
0
41
1
10
69.9234355553025
20
-11.8619632608176
30
0
41
1
10
69.9248746647614
20
-11.8722799685563
30
0
41
1
10
69.9267876465793
20
-11.8859927610088
30
0
41
1
10
69.9287621888328
20
-11.9001452289387
30
0
41
1
10
69.9304214196608
20
-11.9120362960848
30
0
41
1
10
69.9312245517031
20
-11.9177917304793
30
0
41
1
10
69.9315920870497
20
-11.9204255222737
30
0
41
1
10
69.9319085005155
20
-11.922692929482
30
0
41
1
10
69.9321652427064
20
-11.9245327073578
30
0
41
1
10
69.9323573334603
20
-11.9259091861851
30
0
41
1
10
69.9324951183932
20
-11.926896513685
30
0
41
1
10
69.9326075552453
20
-11.9277021995925
30
0
41
1
10
69.9327301603391
20
-11.928580742961
30
0
41
1
10
69.9328831306701
20
-11.929676864824
30
0
41
1
10
69.933115765614
20
-11.93134381576
30
0
41
1
10
69.9334443704863
20
-11.933698408468
30
0
41
1
10
69.9338852559635
20
-11.9368574743328
30
0
41
1
10
69.9344070136566
20
-11.9405959198933
30
0
41
1
10
69.9351860016755
20
-11.9461772861307
30
0
41
1
10
69.936196745442
20
-11.9534188231452
30
0
41
1
10
69.9374123529308
20
-11.9621275834488
30
0
41
1
10
69.9386295419286
20
-11.9708471392585
30
0
41
1
10
69.9398469032849
20
-11.9795673977711
30
0
41
1
10
69.9413350333937
20
-11.9902265922873
30
0
41
1
10
69.943093433206
20
-12.002820663166
30
0
41
1
10
69.9451129614932
20
-12.0172835537317
30
0
41
1
10
69.9470070186126
20
-12.0308465472839
30
0
41
1
10
69.9487676568043
20
-12.0434530382927
30
0
41
1
10
69.9500322811857
20
-12.0525072661692
30
0
41
1
10
69.9509159025847
20
-12.0588333349792
30
0
41
1
10
69.9514260494784
20
-12.0624855165151
30
0
41
1
10
69.9519336454833
20
-12.0661193481665
30
0
41
1
10
69.952437586468
20
-12.0697269272567
30
0
41
1
10
69.9529236816116
20
-12.0732066700499
30
0
41
1
10
69.9533739482752
20
-12.076429859857
30
0
41
1
10
69.9537715005853
20
-12.0792756420103
30
0
41
1
10
69.9540971357519
20
-12.0816065821614
30
0
41
1
10
69.9543569238805
20
-12.083466155079
30
0
41
1
10
69.9545569374858
20
-12.0848978450447
30
0
41
1
10
69.9547186526229
20
-12.086055386175
30
0
41
1
10
69.9548474695337
20
-12.086977438858
30
0
41
1
10
69.9549697643954
20
-12.0878528030549
30
0
41
1
10
69.9551205412628
20
-12.088932030073
30
0
41
1
10
69.9553258737674
20
-12.0904017420386
30
0
41
1
10
69.9555908540455
20
-12.092298374873
30
0
41
1
10
69.9559119574989
20
-12.0945966856005
30
0
41
1
10
69.9562891882513
20
-12.0972966857153
30
0
41
1
10
69.9567140780787
20
-12.1003377445784
30
0
41
1
10
69.9571662672139
20
-12.1035741249161
30
0
41
1
10
69.9578713877952
20
-12.1086206625614
30
0
41
1
10
69.9588070243551
20
-12.1153167435532
30
0
41
1
10
69.9599626547671
20
-12.1235868095005
30
0
41
1
10
69.9610817053689
20
-12.1315946805423
30
0
41
1
10
69.9621686286459
20
-12.1393722589691
30
0
41
1
10
69.9632539360177
20
-12.1471378964628
30
0
41
1
10
69.9643723916755
20
-12.1551403241862
30
0
41
1
10
69.9655543000987
20
-12.1635963118655
30
0
41
1
10
69.966803906446
20
-12.1725361580832
30
0
41
1
10
69.9681212299532
20
-12.181959921733
30
0
41
1
10
69.9695062907232
20
-12.1918676643356
30
0
41
1
10
69.9709591099431
20
-12.202259451697
30
0
41
1
10
69.9722351854734
20
-12.2113864235264
30
0
41
1
10
69.9732909466592
20
-12.2189372330262
30
0
41
1
10
69.9740821434056
20
-12.2245956736942
30
0
41
1
10
69.9748091094501
20
-12.2297945813547
30
0
41
1
10
69.9754711581174
20
-12.2345290893888
30
0
41
1
10
69.9760682795435
20
-12.2387991674223
30
0
41
1
10
69.9766176992615
20
-12.2427280301365
30
0
41
1
10
69.977113902612
20
-12.2462762662405
30
0
41
1
10
69.9775513733931
20
-12.2494044551838
30
0
41
1
10
69.9778693172139
20
-12.2516779132537
30
0
41
1
10
69.9780878820521
20
-12.2532407444411
30
0
41
1
10
69.9782273534897
20
-12.2542380179303
30
0
41
1
10
69.9783460447742
20
-12.255086700803
30
0
41
1
10
69.9784523904311
20
-12.2558471047465
30
0
41
1
10
69.9785698497232
20
-12.256686970993
30
0
41
1
10
69.9787222046566
20
-12.2577763447756
30
0
41
1
10
69.9789407258203
20
-12.2593388109494
30
0
41
1
10
69.9792318623131
20
-12.2614204676905
30
0
41
1
10
69.9796017492334
20
-12.2640651606677
30
0
41
1
10
69.9800407332876
20
-12.2672038446122
30
0
41
1
10
69.9805488212801
20
-12.270836540714
30
0
41
1
10
69.9811260208585
20
-12.2749632719618
30
0
41
1
10
69.9817723407911
20
-12.2795840651681
30
0
41
1
10
69.9824877908567
20
-12.2846989502246
30
0
41
1
10
69.9832723818668
20
-12.290307960313
30
0
41
1
10
69.9841261256462
20
-12.2964111318223
30
0
41
1
10
69.9850833695183
20
-12.3032539427973
30
0
41
1
10
69.9861489739873
20
-12.3108710451167
30
0
41
1
10
69.9873278040232
20
-12.3192971049074
30
0
41
1
10
69.988590382185
20
-12.3283213275457
30
0
41
1
10
69.989945655889
20
-12.3380075701448
30
0
41
1
10
69.9913946755699
20
-12.3483632310251
30
0
41
1
10
69.9929384939396
20
-12.3593957161269
30
0
41
1
10
69.9945692368575
20
-12.3710486398378
30
0
41
1
10
69.9962869340337
20
-12.3833220969277
30
0
41
1
10
69.9974611308462
20
-12.3917114967112
30
0
41
1
10
69.9980627294948
20
-12.3960096437605
30
0
0
SPLINE
5
27E
100
AcDbEntity
8
1
62
256
6
ByLayer
370
18
48
1
60
0
100
AcDbSpline
70
4
71
3
72
71
73
67
40
0
40
0
40
0
40
0
40
0.0206012580304175
40
0.0411860202425096
40
0.0617195916040748
40
0.0822356858344594
40
0.0997249791085897
40
0.117214204179765
40
0.13465523737193
40
0.152096189571188
40
0.168553139953194
40
0.184998791642993
40
0.2017496899634
40
0.218487617423472
40
0.235120993277743
40
0.251754264879087
40
0.268329399563712
40
0.284904420437741
40
0.297873051854735
40
0.310843581096823
40
0.323812052514157
40
0.336705371715172
40
0.34960075944977
40
0.36249392092523
40
0.375145347415516
40
0.38779891907528
40
0.400450211799933
40
0.413019139624784
40
0.425590336985528
40
0.438159162276208
40
0.453455654501757
40
0.468752106243725
40
0.483978358689127
40
0.499204596907613
40
0.5133781327602
40
0.527537546536689
40
0.541986050690773
40
0.556419848372916
40
0.57074809831459
40
0.585076393012663
40
0.599350658094301
40
0.613624979454421
40
0.628383890501113
40
0.643146317066963
40
0.657905489589136
40
0.672551733669498
40
0.687201080244208
40
0.701847587955678
40
0.716207864897201
40
0.730570747314238
40
0.744931253144328
40
0.759209031975477
40
0.773489085257813
40
0.787767061112459
40
0.805980819498927
40
0.82419470540495
40
0.842347410673218
40
0.860500222453421
40
0.877843289447599
40
0.895174636498417
40
0.91272148791812
40
0.930257035384391
40
0.947712984629885
40
0.965168985847956
40
0.982584471944389
40
1
40
1
40
1
40
1
41
1
10
62.1624603103405
20
27.0565868299794
30
0
41
1
10
62.1687316859181
20
27.0536632422432
30
0
41
1
10
62.1811991187303
20
27.0476172553877
30
0
41
1
10
62.1996784852311
20
27.037954998397
30
0
41
1
10
62.2179087960672
20
27.027703996753
30
0
41
1
10
62.2349986749987
20
27.0173957014057
30
0
41
1
10
62.2509884652025
20
27.0071203619905
30
0
41
1
10
62.2658988061198
20
26.9969761984978
30
0
41
1
10
62.2805915185802
20
26.9864034732238
30
0
41
1
10
62.2947844328854
20
26.9756101864376
30
0
41
1
10
62.3084908165231
20
26.9646172004147
30
0
41
1
10
62.3217969111163
20
26.9533835426965
30
0
41
1
10
62.3349519045378
20
26.9416897275713
30
0
41
1
10
62.347915383247
20
26.9295514365886
30
0
41
1
10
62.3605965710986
20
26.9170449289958
30
0
41
1
10
62.3729738245964
20
26.9041874510903
30
0
41
1
10
62.3850612255313
20
26.8909571932882
30
0
41
1
10
62.3959920450821
20
26.8783461187899
30
0
41
1
10
62.4058378576544
20
26.8664330799206
30
0
41
1
10
62.414656637954
20
26.8553024659501
30
0
41
1
10
62.4232597750914
20
26.843969155393
30
0
41
1
10
62.4316410250969
20
26.8324380443557
30
0
41
1
10
62.4397948866595
20
26.8207155388724
30
0
41
1
10
62.4476807229763
20
26.8088588250581
30
0
41
1
10
62.4552955513786
20
26.7968774285764
30
0
41
1
10
62.4626378109147
20
26.7847821047338
30
0
41
1
10
62.4697333883507
20
26.7725301269275
30
0
41
1
10
62.4765766533132
20
26.7601293540678
30
0
41
1
10
62.4831635277426
20
26.7475891183884
30
0
41
1
10
62.4899610784243
20
26.7339719305918
30
0
41
1
10
62.4968940436213
20
26.7192458717668
30
0
41
1
10
62.5038682229035
20
26.7034079361102
30
0
41
1
10
62.5104371622216
20
26.6874064915978
30
0
41
1
10
62.516453494234
20
26.6716329048111
30
0
41
1
10
62.5219496207897
20
26.6560979723377
30
0
41
1
10
62.5269865603236
20
26.6407246539223
30
0
41
1
10
62.531682894434
20
26.6251559162269
30
0
41
1
10
62.5360178840577
20
26.6094392010854
30
0
41
1
10
62.5399608684163
20
26.5936959456809
30
0
41
1
10
62.5435110490844
20
26.5779568525835
30
0
41
1
10
62.5466783710652
20
26.5621986900018
30
0
41
1
10
62.54949700549
20
26.5462579058693
30
0
41
1
10
62.5519560726269
20
26.5301268720808
30
0
41
1
10
62.5540429622633
20
26.5138212812251
30
0
41
1
10
62.5557288759929
20
26.4975750731229
30
0
41
1
10
62.5570194537197
20
26.4814014586838
30
0
41
1
10
62.5579231533372
20
26.4653119274144
30
0
41
1
10
62.5584440828845
20
26.4493806812451
30
0
41
1
10
62.5585945942007
20
26.4336170609141
30
0
41
1
10
62.558388617531
20
26.4180283722913
30
0
41
1
10
62.5578330820549
20
26.4025487763254
30
0
41
1
10
62.5569348297978
20
26.3871857070483
30
0
41
1
10
62.5557018285309
20
26.3719453573178
30
0
41
1
10
62.5539937416078
20
26.355413595472
30
0
41
1
10
62.5517021842994
20
26.3376333902007
30
0
41
1
10
62.5487162157167
20
26.3186777810902
30
0
41
1
10
62.5452258329046
20
26.2999362654502
30
0
41
1
10
62.5413030069813
20
26.2816926948107
30
0
41
1
10
62.5369796194992
20
26.2639278052158
30
0
41
1
10
62.5322697792572
20
26.246565948192
30
0
41
1
10
62.5271108122518
20
26.2293477162943
30
0
41
1
10
62.5215127268476
20
26.2123040818091
30
0
41
1
10
62.5155073229787
20
26.1955102994539
30
0
41
1
10
62.5091087239126
20
26.1789799453898
30
0
41
1
10
62.5023155497482
20
26.1626916750711
30
0
41
1
10
62.497531291517
20
26.1519984931952
30
0
41
1
10
62.4950738430579
20
26.1466908201817
30
0
0
SPLINE
5
27F
100
AcDbEntity
8
1
62
256
6
ByLayer
370
18
48
1
60
0
100
AcDbSpline
70
4
71
3
72
20
73
16
40
0
40
0
40
0
40
0
40
0.030140987485891
40
0.0882964685282172
40
0.146452105226894
40
0.204607858503016
40
0.262763498514954
40
0.333590073933037
40
0.404416683037963
40
0.475243278514465
40
0.581483057144312
40
0.687722843765199
40
0.788752069903679
40
0.889781298568201
40
1
40
1
40
1
40
1
41
1
10
69.9016547119716
20
-11.7057205375799
30
0
41
1
10
69.8967721584643
20
-11.6706825048336
30
0
41
1
10
69.8824686550065
20
-11.5680852219634
30
0
41
1
10
69.8587424781741
20
-11.3981583750032
30
0
41
1
10
69.8304759888289
20
-11.1960029076018
30
0
41
1
10
69.8022081149599
20
-10.9940806814226
30
0
41
1
10
69.7718862941669
20
-10.7776728282437
30
0
41
1
10
69.7395106323991
20
-10.5467701796342
30
0
41
1
10
69.7050810437652
20
-10.3013989635526
30
0
41
1
10
69.6649124963658
20
-10.0152956226023
30
0
41
1
10
69.6190048118067
20
-9.6885115679757
30
0
41
1
10
69.5682021967
20
-9.32710364591029
30
0
41
1
10
69.518243340245
20
-8.9718661010365
30
0
41
1
10
69.4676392236109
20
-8.61218725847615
30
0
41
1
10
69.4334065047128
20
-8.36895496771161
30
0
41
1
10
69.4155454901022
20
-8.24207239614268
30
0
0
SPLINE
5
280
100
AcDbEntity
8
1
62
256
6
ByLayer
370
18
48
1
60
0
100
AcDbSpline
70
4
71
1
72
4
73
2
40
0
40
0
40
1
40
1
41
1
10
69.9029966491468
20
-11.715352236208
30
0
41
1
10
69.9016547119716
20
-11.7057205375799
30
0
0
SPLINE
5
281
100
AcDbEntity
8
1
62
256
6
ByLayer
370
18
48
1
60
0
100
AcDbSpline
70
4
71
3
72
31
73
27
40
0
40
0
40
0
40
0
40
0.0004974583221581
40
0.0012970253550751
40
0.0022497354934414
40
0.0046185405446808
40
0.006885922765151
40
0.0101698961206665
40
0.0149783817706978
40
0.0220688367650046
40
0.0325723858212984
40
0.0481791063229134
40
0.0714148364130833
40
0.106054851469203
40
0.131898651305978
40
0.15774264427598
40
0.196327559659131
40
0.234912666743517
40
0.29254284455063
40
0.350173213105632
40
0.43627194195005
40
0.522370860906659
40
0.651023872302665
40
0.779677073386512
40
0.971939435235818
40
1
40
1
40
1
40
1
41
1
10
69.9999999999987
20
-12.4237253096529
30
0
41
1
10
69.9999996438507
20
-12.4236549613276
30
0
41
1
10
69.9999944023186
20
-12.4234472032273
30
0
41
1
10
69.9999609933787
20
-12.4229362538827
30
0
41
1
10
69.9998708424685
20
-12.4218905424895
30
0
41
1
10
69.9997161213728
20
-12.4203916130225
30
0
41
1
10
69.9994838293425
20
-12.4183019943443
30
0
41
1
10
69.9991675528809
20
-12.4155937620088
30
0
41
1
10
69.9986942184094
20
-12.4116865273501
30
0
41
1
10
69.9979856776119
20
-12.4060061561851
30
0
41
1
10
69.9969262095753
20
-12.3977084142241
30
0
41
1
10
69.9953421601226
20
-12.385535040291
30
0
41
1
10
69.9929741742344
20
-12.3676160933814
30
0
41
1
10
69.9902693474204
20
-12.3474054371923
30
0
41
1
10
69.9874769528158
20
-12.3266913182411
30
0
41
1
10
69.9845548200849
20
-12.3051189788531
30
0
41
1
10
69.9812183130921
20
-12.2805920585809
30
0
41
1
10
69.9768501884362
20
-12.2486084030292
30
0
41
1
10
69.9718629673305
20
-12.2122189223136
30
0
41
1
10
69.9653334051255
20
-12.1647301563579
30
0
41
1
10
69.9578787390939
20
-12.1106683447457
30
0
41
1
10
69.9481183076299
20
-12.0400734322729
30
0
41
1
10
69.9369753590819
20
-11.9596681912487
30
0
41
1
10
69.922385485733
20
-11.8546218809966
30
0
41
1
10
69.9110588577171
20
-11.773223752955
30
0
41
1
10
69.9039074660012
20
-11.7218892960489
30
0
41
1
10
69.9029966491468
20
-11.715352236208
30
0
0
LINE
5
72
100
AcDbEntity
8
1
62
256
6
ByLayer
370
18
48
1
60
0
100
AcDbLine
10
38.743055
20
29.855233
30
0
11
38.903261
21
29.863629
31
0
39
0
210
0
220
0
230
1
0
LINE
5
74
100
AcDbEntity
8
1
62
256
6
ByLayer
370
18
48
1
60
0
100
AcDbLine
10
42.5
20
-8.263729
30
0
11
42.5
21
9.902722
31
0
39
0
210
0
220
0
230
1
0
LINE
5
75
100
AcDbEntity
8
1
62
256
6
ByLayer
370
18
48
1
60
0
100
AcDbLine
10
0.3
20
-24.99
30
0
11
33.877822
21
-24.99
31
0
39
0
210
0
220
0
230
1
0
LINE
5
76
100
AcDbEntity
8
1
62
256
6
ByLayer
370
18
48
1
60
0
100
AcDbLine
10
51.4
20
-11.102356
30
0
11
43.5
21
-10.895345
31
0
39
0
210
0
220
0
230
1
0
LINE
5
77
100
AcDbEntity
8
1
62
256
6
ByLayer
370
18
48
1
60
0
100
AcDbLine
10
8.538675
20
-23.82379
30
0
11
11.461325
21
-23.82379
31
0
39
0
210
0
220
0
230
1
0
LINE
5
78
100
AcDbEntity
8
1
62
256
6
ByLayer
370
18
48
1
60
0
100
AcDbLine
10
69
20
3.576531
30
0
11
69
21
-3.576531
31
0
39
0
210
0
220
0
230
1
0
LINE
5
79
100
AcDbEntity
8
1
62
256
6
ByLayer
370
18
48
1
60
0
100
AcDbLine
10
11.461325
20
-7.545007
30
0
11
8.538675
21
-7.545007
31
0
39
0
210
0
220
0
230
1
0
LINE
5
7A
100
AcDbEntity
8
1
62
256
6
ByLayer
370
18
48
1
60
0
100
AcDbLine
10
43.5
20
25.041804
30
0
11
43.5
21
24.66765
31
0
39
0
210
0
220
0
230
1
0
LINE
5
7B
100
AcDbEntity
8
1
62
256
6
ByLayer
370
18
48
1
60
0
100
AcDbLine
10
49.811424
20
21.859657
30
0
11
50.53741
21
15.831291
31
0
39
0
210
0
220
0
230
1
0
LINE
5
7C
100
AcDbEntity
8
1
62
256
6
ByLayer
370
18
48
1
60
0
100
AcDbLine
10
38.903261
20
29.863629
30
0
11
43.5
21
30.104534
31
0
39
0
210
0
220
0
230
1
0
LINE
5
7D
100
AcDbEntity
8
1
62
256
6
ByLayer
370
18
48
1
60
0
100
AcDbLine
10
49.811424
20
21.859657
30
0
11
49.746414
21
22.153341
31
0
39
0
210
0
220
0
230
1
0
LINE
5
7E
100
AcDbEntity
8
1
62
256
6
ByLayer
370
18
48
1
60
0
100
AcDbLine
10
8.538675
20
-7.545007
30
0
11
8.538675
21
-23.82379
31
0
39
0
210
0
220
0
230
1
0
LINE
5
7F
100
AcDbEntity
8
1
62
256
6
ByLayer
370
18
48
1
60
0
100
AcDbLine
10
11.894338
20
-8.071876
30
0
11
11.894338
21
-23.650474
31
0
39
0
210
0
220
0
230
1
0
LINE
5
80
100
AcDbEntity
8
SK1
62
256
6
ByLayer
370
18
48
1
60
0
100
AcDbLine
10
-0.194914
20
-5.108839
30
0
11
-0.194914
21
-17.365174
31
0
39
0
210
0
220
0
230
1
0
LINE
5
81
100
AcDbEntity
8
1
62
256
6
ByLayer
370
18
48
1
60
0
100
AcDbLine
10
0.3
20
24.99
30
0
11
0
21
24.69
31
0
39
0
210
0
220
0
230
1
0
LINE
5
82
100
AcDbEntity
8
1
62
256
6
ByLayer
370
18
48
1
60
0
100
AcDbLine
10
38.903261
20
-17.542881
30
0
11
43.5
21
-17.663334
31
0
39
0
210
0
220
0
230
1
0
LINE
5
83
100
AcDbEntity
8
1
62
256
6
ByLayer
370
18
48
1
60
0
100
AcDbLine
10
11.461325
20
23.82379
30
0
11
8.538675
21
23.82379
31
0
39
0
210
0
220
0
230
1
0
LINE
5
84
100
AcDbEntity
8
1
62
256
6
ByLayer
370
18
48
1
60
0
100
AcDbLine
10
49.746414
20
22.153341
30
0
11
49.746394
21
6.758983
31
0
39
0
210
0
220
0
230
1
0
LINE
5
85
100
AcDbEntity
8
1
62
256
6
ByLayer
370
18
48
1
60
0
100
AcDbLine
10
11.461325
20
-7.545007
30
0
11
11.461325
21
-23.82379
31
0
39
0
210
0
220
0
230
1
0
LINE
5
86
100
AcDbEntity
8
SK1
62
256
6
ByLayer
370
18
48
1
60
0
100
AcDbLine
10
-1.307107
20
-3.91807
30
0
11
-1.307107
21
3.91807
31
0
39
0
210
0
220
0
230
1
0
LINE
5
87
100
AcDbEntity
8
1
62
256
6
ByLayer
370
18
48
1
60
0
100
AcDbLine
10
43.5
20
25.041804
30
0
11
43.5
21
30.104534
31
0
39
0
210
0
220
0
230
1
0
LINE
5
88
100
AcDbEntity
8
1
62
256
6
ByLayer
370
18
48
1
60
0
100
AcDbLine
10
43.5
20
-10.895345
30
0
11
43.5
21
-17.663334
31
0
39
0
210
0
220
0
230
1
0
LINE
5
89
100
AcDbEntity
8
1
62
256
6
ByLayer
370
18
48
1
60
0
100
AcDbLine
10
38.748226
20
29.860404
30
0
11
33.877822
21
24.99
31
0
39
0
210
0
220
0
230
1
0
LINE
5
8A
100
AcDbEntity
8
1
62
256
6
ByLayer
370
18
48
1
60
0
100
AcDbLine
10
8.105662
20
23.650474
30
0
11
8.105662
21
8.071876
31
0
39
0
210
0
220
0
230
1
0
LINE
5
8B
100
AcDbEntity
8
1
62
256
6
ByLayer
370
18
48
1
60
0
100
AcDbLine
10
66
20
8.95
30
0
11
66.5
21
9.45
31
0
39
0
210
0
220
0
230
1
0
LINE
5
8C
100
AcDbEntity
8
1
62
256
6
ByLayer
370
18
48
1
60
0
100
AcDbLine
10
39
20
-11.624809
30
0
11
39
21
12.297858
31
0
39
0
210
0
220
0
230
1
0
LINE
5
8D
100
AcDbEntity
8
1
62
256
6
ByLayer
370
18
48
1
60
0
100
AcDbLine
10
43.5
20
24.42685
30
0
11
43.5
21
24.66765
31
0
39
0
210
0
220
0
230
1
0
LINE
5
8E
100
AcDbEntity
8
1
62
256
6
ByLayer
370
18
48
1
60
0
100
AcDbLine
10
0
20
-24.69
30
0
11
0
21
24.69
31
0
39
0
210
0
220
0
230
1
0
LINE
5
8F
100
AcDbEntity
8
1
62
256
6
ByLayer
370
18
48
1
60
0
100
AcDbLine
10
8.538675
20
7.545007
30
0
11
11.461325
21
7.545007
31
0
39
0
210
0
220
0
230
1
0
LINE
5
90
100
AcDbEntity
8
1
62
256
6
ByLayer
370
18
48
1
60
0
100
AcDbLine
10
8.538675
20
23.82379
30
0
11
8.538675
21
7.545007
31
0
39
0
210
0
220
0
230
1
0
LINE
5
91
100
AcDbEntity
8
1
62
256
6
ByLayer
370
18
48
1
60
0
100
AcDbLine
10
11.461325
20
23.82379
30
0
11
11.461325
21
7.545007
31
0
39
0
210
0
220
0
230
1
0
LINE
5
92
100
AcDbEntity
8
1
62
256
6
ByLayer
370
18
48
1
60
0
100
AcDbLine
10
36.60403
20
27.551732
30
0
11
43.5
21
25.041804
31
0
39
0
210
0
220
0
230
1
0
LINE
5
93
100
AcDbEntity
8
1
62
256
6
ByLayer
370
18
48
1
60
0
100
AcDbLine
10
66.5
20
7.39769
30
0
11
66
21
7.89769
31
0
39
0
210
0
220
0
230
1
0
LINE
5
94
100
AcDbEntity
8
SK1
62
256
6
ByLayer
370
18
48
1
60
0
100
AcDbLine
10
-30
20
15.991832
30
0
11
-30
21
-15.991828
31
0
39
0
210
0
220
0
230
1
0
LINE
5
95
100
AcDbEntity
8
SK1
62
256
6
ByLayer
370
18
48
1
60
0
100
AcDbLine
10
-28.5
20
-16.854292
30
0
11
-28.5
21
16.854292
31
0
39
0
210
0
220
0
230
1
0
LINE
5
96
100
AcDbEntity
8
SK1
62
256
6
ByLayer
370
18
48
1
60
0
100
AcDbLine
10
-1.794977
20
17.324989
30
0
11
-1.794977
21
-17.324989
31
0
39
0
210
0
220
0
230
1
0
LINE
5
97
100
AcDbEntity
8
1
62
256
6
ByLayer
370
18
48
1
60
0
100
AcDbLine
10
33.877822
20
-24.99
30
0
11
33.877822
21
24.99
31
0
39
0
210
0
220
0
230
1
0
LINE
5
98
100
AcDbEntity
8
1
62
256
6
ByLayer
370
18
48
1
60
0
100
AcDbLine
10
11.894338
20
23.650474
30
0
11
11.894338
21
8.071876
31
0
39
0
210
0
220
0
230
1
0
LINE
5
99
100
AcDbEntity
8
1
62
256
6
ByLayer
370
18
48
1
60
0
100
AcDbLine
10
0.3
20
-24.99
30
0
11
0.3
21
24.99
31
0
39
0
210
0
220
0
230
1
0
LINE
5
9A
100
AcDbEntity
8
1
62
256
6
ByLayer
370
18
48
1
60
0
100
AcDbLine
10
33.877822
20
-24.99
30
0
11
37.579074
21
-28.691252
31
0
39
0
210
0
220
0
230
1
0
LINE
5
9B
100
AcDbEntity
8
1
62
256
6
ByLayer
370
18
48
1
60
0
100
AcDbLine
10
36.593086
20
-16.383066
30
0
11
36.348389
21
-16.427597
31
0
39
0
210
0
220
0
230
1
0
LINE
5
9C
100
AcDbEntity
8
1
62
256
6
ByLayer
370
18
48
1
60
0
100
AcDbLine
10
8.105662
20
-8.071876
30
0
11
8.105662
21
-23.650474
31
0
39
0
210
0
220
0
230
1
0
LINE
5
9D
100
AcDbEntity
8
1
62
256
6
ByLayer
370
18
48
1
60
0
100
AcDbLine
10
67.4
20
4.00525
30
0
11
66.5
21
4.00525
31
0
39
0
210
0
220
0
230
1
0
LINE
5
9E
100
AcDbEntity
8
1
62
256
6
ByLayer
370
18
48
1
60
0
100
AcDbLine
10
69
20
3.576531
30
0
11
67.4
21
4.00525
31
0
39
0
210
0
220
0
230
1
0
LINE
5
9F
100
AcDbEntity
8
1
62
256
6
ByLayer
370
18
48
1
60
0
100
AcDbLine
10
43.5
20
-14.862685
30
0
11
44
21
-14.771693
31
0
39
0
210
0
220
0
230
1
0
LINE
5
A0
100
AcDbEntity
8
SK1
62
256
6
ByLayer
370
18
48
1
60
0
100
AcDbLine
10
-1.999937
20
17.519835
30
0
11
-1.999937
21
-17.519835
31
0
39
0
210
0
220
0
230
1
0
LINE
5
A1
100
AcDbEntity
8
SK1
62
256
6
ByLayer
370
18
48
1
60
0
100
AcDbLine
10
-0.194914
20
17.365174
30
0
11
-0.194914
21
5.108839
31
0
39
0
210
0
220
0
230
1
0
LINE
5
A2
100
AcDbEntity
8
1
62
256
6
ByLayer
370
18
48
1
60
0
100
AcDbLine
10
43.5
20
24.66765
30
0
11
36.348389
21
27.270623
31
0
39
0
210
0
220
0
230
1
0
LINE
5
A3
100
AcDbEntity
8
1
62
256
6
ByLayer
370
18
48
1
60
0
100
AcDbLine
10
49.746414
20
22.153341
30
0
11
43.5
21
24.42685
31
0
39
0
210
0
220
0
230
1
0
LINE
5
A4
100
AcDbEntity
8
1
62
256
6
ByLayer
370
18
48
1
60
0
100
AcDbLine
10
33.877822
20
24.99
30
0
11
0.3
21
24.99
31
0
39
0
210
0
220
0
230
1
0
LINE
5
A5
100
AcDbEntity
8
1
62
256
6
ByLayer
370
18
48
1
60
0
100
AcDbLine
10
0
20
-24.69
30
0
11
0.3
21
-24.99
31
0
39
0
210
0
220
0
230
1
0
LINE
5
A6
100
AcDbEntity
8
4
62
256
6
ByLayer
370
13
48
0.05
60
0
100
AcDbLine
10
0
20
0
30
0
11
70
21
0
31
0
39
0
210
0
220
0
230
1
0
LINE
5
A8
100
AcDbEntity
8
SK4
62
256
6
ByLayer
370
13
48
0.05
60
0
100
AcDbLine
10
-35.49007
20
2E-06
30
0
11
75.741405
21
2E-06
31
0
39
0
210
0
220
0
230
1
0
LINE
5
AA
100
AcDbEntity
8
SK1
62
256
6
ByLayer
370
18
48
1
60
0
100
AcDbLine
10
-1.998481
20
17.505542
30
0
11
-1.999937
21
17.525123
31
0
39
0
210
0
220
0
230
1
0
LINE
5
AB
100
AcDbEntity
8
SK1
62
256
6
ByLayer
370
18
48
1
60
0
100
AcDbLine
10
-28.5
20
-16.854266
30
0
11
-25.849994
21
-16.920823
31
0
39
0
210
0
220
0
230
1
0
LINE
5
AC
100
AcDbEntity
8
SK1
62
256
6
ByLayer
370
18
48
1
60
0
100
AcDbLine
10
-25.849994
20
-16.920823
30
0
11
-23.199987
21
-16.98738
31
0
39
0
210
0
220
0
230
1
0
LINE
5
AD
100
AcDbEntity
8
SK1
62
256
6
ByLayer
370
18
48
1
60
0
100
AcDbLine
10
-23.199987
20
-16.98738
30
0
11
-20.549981
21
-17.053937
31
0
39
0
210
0
220
0
230
1
0
LINE
5
AE
100
AcDbEntity
8
SK1
62
256
6
ByLayer
370
18
48
1
60
0
100
AcDbLine
10
-20.549981
20
-17.053937
30
0
11
-17.899975
21
-17.120494
31
0
39
0
210
0
220
0
230
1
0
LINE
5
AF
100
AcDbEntity
8
SK1
62
256
6
ByLayer
370
18
48
1
60
0
100
AcDbLine
10
-17.899975
20
-17.120494
30
0
11
-15.249969
21
-17.187051
31
0
39
0
210
0
220
0
230
1
0
LINE
5
B0
100
AcDbEntity
8
SK1
62
256
6
ByLayer
370
18
48
1
60
0
100
AcDbLine
10
-15.249969
20
-17.187051
30
0
11
-12.599962
21
-17.253608
31
0
39
0
210
0
220
0
230
1
0
LINE
5
B1
100
AcDbEntity
8
SK1
62
256
6
ByLayer
370
18
48
1
60
0
100
AcDbLine
10
-12.599962
20
-17.253608
30
0
11
-9.949956
21
-17.320165
31
0
39
0
210
0
220
0
230
1
0
LINE
5
B2
100
AcDbEntity
8
SK1
62
256
6
ByLayer
370
18
48
1
60
0
100
AcDbLine
10
-9.949956
20
-17.320165
30
0
11
-7.29995
21
-17.386722
31
0
39
0
210
0
220
0
230
1
0
LINE
5
B3
100
AcDbEntity
8
SK1
62
256
6
ByLayer
370
18
48
1
60
0
100
AcDbLine
10
-7.29995
20
-17.386722
30
0
11
-4.649943
21
-17.453279
31
0
39
0
210
0
220
0
230
1
0
LINE
5
B4
100
AcDbEntity
8
SK1
62
256
6
ByLayer
370
18
48
1
60
0
100
AcDbLine
10
-4.649943
20
-17.453279
30
0
11
-1.999937
21
-17.519836
31
0
39
0
210
0
220
0
230
1
0
LINE
5
B5
100
AcDbEntity
8
SK1
62
256
6
ByLayer
370
18
48
1
60
0
100
AcDbLine
10
-30
20
-15.991828
30
0
11
-29.850912
21
-16.077895
31
0
39
0
210
0
220
0
230
1
0
LINE
5
B6
100
AcDbEntity
8
SK1
62
256
6
ByLayer
370
18
48
1
60
0
100
AcDbLine
10
-29.850912
20
-16.077895
30
0
11
-29.701824
21
-16.163962
31
0
39
0
210
0
220
0
230
1
0
LINE
5
B7
100
AcDbEntity
8
SK1
62
256
6
ByLayer
370
18
48
1
60
0
100
AcDbLine
10
-29.701824
20
-16.163962
30
0
11
-29.552735
21
-16.250029
31
0
39
0
210
0
220
0
230
1
0
LINE
5
B8
100
AcDbEntity
8
SK1
62
256
6
ByLayer
370
18
48
1
60
0
100
AcDbLine
10
-29.552735
20
-16.250029
30
0
11
-29.403647
21
-16.336095
31
0
39
0
210
0
220
0
230
1
0
LINE
5
B9
100
AcDbEntity
8
SK1
62
256
6
ByLayer
370
18
48
1
60
0
100
AcDbLine
10
-29.403647
20
-16.336095
30
0
11
-29.254559
21
-16.422162
31
0
39
0
210
0
220
0
230
1
0
LINE
5
BA
100
AcDbEntity
8
SK1
62
256
6
ByLayer
370
18
48
1
60
0
100
AcDbLine
10
-29.254559
20
-16.422162
30
0
11
-29.105471
21
-16.508229
31
0
39
0
210
0
220
0
230
1
0
LINE
5
BB
100
AcDbEntity
8
SK1
62
256
6
ByLayer
370
18
48
1
60
0
100
AcDbLine
10
-29.105471
20
-16.508229
30
0
11
-28.956382
21
-16.594296
31
0
39
0
210
0
220
0
230
1
0
LINE
5
BC
100
AcDbEntity
8
SK1
62
256
6
ByLayer
370
18
48
1
60
0
100
AcDbLine
10
-28.956382
20
-16.594296
30
0
11
-28.807294
21
-16.680363
31
0
39
0
210
0
220
0
230
1
0
LINE
5
BD
100
AcDbEntity
8
SK1
62
256
6
ByLayer
370
18
48
1
60
0
100
AcDbLine
10
-28.807294
20
-16.680363
30
0
11
-28.658206
21
-16.76643
31
0
39
0
210
0
220
0
230
1
0
LINE
5
BE
100
AcDbEntity
8
SK1
62
256
6
ByLayer
370
18
48
1
60
0
100
AcDbLine
10
-28.658206
20
-16.76643
30
0
11
-28.509118
21
-16.852497
31
0
39
0
210
0
220
0
230
1
0
LINE
5
BF
100
AcDbEntity
8
SK1
62
256
6
ByLayer
370
18
48
1
60
0
100
AcDbLine
10
-1.794977
20
17.324982
30
0
11
-1.218954
21
17.339449
31
0
39
0
210
0
220
0
230
1
0
LINE
5
C0
100
AcDbEntity
8
SK1
62
256
6
ByLayer
370
18
48
1
60
0
100
AcDbLine
10
-1.218954
20
17.339449
30
0
11
-0.194914
21
17.365169
31
0
39
0
210
0
220
0
230
1
0
LINE
5
C1
100
AcDbEntity
8
1
62
256
6
ByLayer
370
18
48
1
60
0
100
AcDbLine
10
38.903261
20
29.863629
30
0
11
36.60403
21
27.551732
31
0
39
0
210
0
220
0
230
1
0
LINE
5
C2
100
AcDbEntity
8
SK1
62
256
6
ByLayer
370
18
48
1
60
0
100
AcDbLine
10
-1.999937
20
-17.525123
30
0
11
-1.998481
21
-17.505542
31
0
39
0
210
0
220
0
230
1
0
LINE
5
C3
100
AcDbEntity
8
SK1
62
256
6
ByLayer
370
18
48
1
60
0
100
AcDbLine
10
-28.5
20
16.854266
30
0
11
-25.849994
21
16.920823
31
0
39
0
210
0
220
0
230
1
0
LINE
5
C4
100
AcDbEntity
8
SK1
62
256
6
ByLayer
370
18
48
1
60
0
100
AcDbLine
10
-25.849994
20
16.920823
30
0
11
-23.199987
21
16.98738
31
0
39
0
210
0
220
0
230
1
0
LINE
5
C5
100
AcDbEntity
8
SK1
62
256
6
ByLayer
370
18
48
1
60
0
100
AcDbLine
10
-23.199987
20
16.98738
30
0
11
-20.549981
21
17.053937
31
0
39
0
210
0
220
0
230
1
0
LINE
5
C6
100
AcDbEntity
8
SK1
62
256
6
ByLayer
370
18
48
1
60
0
100
AcDbLine
10
-20.549981
20
17.053937
30
0
11
-17.899975
21
17.120494
31
0
39
0
210
0
220
0
230
1
0
LINE
5
C7
100
AcDbEntity
8
SK1
62
256
6
ByLayer
370
18
48
1
60
0
100
AcDbLine
10
-17.899975
20
17.120494
30
0
11
-15.249969
21
17.187051
31
0
39
0
210
0
220
0
230
1
0
LINE
5
C8
100
AcDbEntity
8
SK1
62
256
6
ByLayer
370
18
48
1
60
0
100
AcDbLine
10
-15.249969
20
17.187051
30
0
11
-12.599962
21
17.253608
31
0
39
0
210
0
220
0
230
1
0
LINE
5
C9
100
AcDbEntity
8
SK1
62
256
6
ByLayer
370
18
48
1
60
0
100
AcDbLine
10
-12.599962
20
17.253608
30
0
11
-9.949956
21
17.320165
31
0
39
0
210
0
220
0
230
1
0
LINE
5
CA
100
AcDbEntity
8
SK1
62
256
6
ByLayer
370
18
48
1
60
0
100
AcDbLine
10
-9.949956
20
17.320165
30
0
11
-7.29995
21
17.386722
31
0
39
0
210
0
220
0
230
1
0
LINE
5
CB
100
AcDbEntity
8
SK1
62
256
6
ByLayer
370
18
48
1
60
0
100
AcDbLine
10
-7.29995
20
17.386722
30
0
11
-4.649943
21
17.453279
31
0
39
0
210
0
220
0
230
1
0
LINE
5
CC
100
AcDbEntity
8
SK1
62
256
6
ByLayer
370
18
48
1
60
0
100
AcDbLine
10
-4.649943
20
17.453279
30
0
11
-1.999937
21
17.519836
31
0
39
0
210
0
220
0
230
1
0
LINE
5
CD
100
AcDbEntity
8
SK1
62
256
6
ByLayer
370
18
48
1
60
0
100
AcDbLine
10
-30
20
15.991828
30
0
11
-29.85
21
16.078421
31
0
39
0
210
0
220
0
230
1
0
LINE
5
CE
100
AcDbEntity
8
SK1
62
256
6
ByLayer
370
18
48
1
60
0
100
AcDbLine
10
-29.85
20
16.078421
30
0
11
-29.7
21
16.165015
31
0
39
0
210
0
220
0
230
1
0
LINE
5
CF
100
AcDbEntity
8
SK1
62
256
6
ByLayer
370
18
48
1
60
0
100
AcDbLine
10
-29.7
20
16.165015
30
0
11
-29.55
21
16.251608
31
0
39
0
210
0
220
0
230
1
0
LINE
5
D0
100
AcDbEntity
8
SK1
62
256
6
ByLayer
370
18
48
1
60
0
100
AcDbLine
10
-29.55
20
16.251608
30
0
11
-29.4
21
16.338201
31
0
39
0
210
0
220
0
230
1
0
LINE
5
D1
100
AcDbEntity
8
SK1
62
256
6
ByLayer
370
18
48
1
60
0
100
AcDbLine
10
-29.4
20
16.338201
30
0
11
-29.25
21
16.424794
31
0
39
0
210
0
220
0
230
1
0
LINE
5
D2
100
AcDbEntity
8
SK1
62
256
6
ByLayer
370
18
48
1
60
0
100
AcDbLine
10
-29.25
20
16.424794
30
0
11
-29.1
21
16.511387
31
0
39
0
210
0
220
0
230
1
0
LINE
5
D3
100
AcDbEntity
8
SK1
62
256
6
ByLayer
370
18
48
1
60
0
100
AcDbLine
10
-29.1
20
16.511387
30
0
11
-28.95
21
16.597981
31
0
39
0
210
0
220
0
230
1
0
LINE
5
D4
100
AcDbEntity
8
SK1
62
256
6
ByLayer
370
18
48
1
60
0
100
AcDbLine
10
-28.95
20
16.597981
30
0
11
-28.8
21
16.684574
31
0
39
0
210
0
220
0
230
1
0
LINE
5
D5
100
AcDbEntity
8
SK1
62
256
6
ByLayer
370
18
48
1
60
0
100
AcDbLine
10
-28.8
20
16.684574
30
0
11
-28.65
21
16.771167
31
0
39
0
210
0
220
0
230
1
0
LINE
5
D6
100
AcDbEntity
8
SK1
62
256
6
ByLayer
370
18
48
1
60
0
100
AcDbLine
10
-28.65
20
16.771167
30
0
11
-28.5
21
16.85776
31
0
39
0
210
0
220
0
230
1
0
LINE
5
D7
100
AcDbEntity
8
SK1
62
256
6
ByLayer
370
18
48
1
60
0
100
AcDbLine
10
-1.794977
20
-17.324982
30
0
11
-1.218954
21
-17.339449
31
0
39
0
210
0
220
0
230
1
0
LINE
5
D8
100
AcDbEntity
8
SK1
62
256
6
ByLayer
370
18
48
1
60
0
100
AcDbLine
10
-1.218954
20
-17.339449
30
0
11
-0.194914
21
-17.365169
31
0
39
0
210
0
220
0
230
1
0
LINE
5
D9
100
AcDbEntity
8
1
62
256
6
ByLayer
370
18
48
1
60
0
100
AcDbLine
10
38.903261
20
-17.542881
30
0
11
36.60403
21
-16.386933
31
0
39
0
210
0
220
0
230
1
0
LINE
5
DA
100
AcDbEntity
8
SK1
62
256
6
ByLayer
370
18
48
1
60
0
100
AcDbLine
10
-28.509118
20
-16.852497
30
0
11
-28.5
21
-16.85776
31
0
39
0
210
0
220
0
230
1
0
LINE
5
DB
100
AcDbEntity
8
1
62
256
6
ByLayer
370
18
48
1
60
0
100
AcDbLine
10
44
20
30.130738
30
0
11
43.5
21
30.104534
31
0
39
0
210
0
220
0
230
1
0
LINE
5
DC
100
AcDbEntity
8
1
62
256
6
ByLayer
370
18
48
1
60
0
100
AcDbLine
10
44
20
-15.275921
30
0
11
43.5
21
-15.366913
31
0
39
0
210
0
220
0
230
1
0
LINE
5
DD
100
AcDbEntity
8
1
62
256
6
ByLayer
370
18
48
1
60
0
100
AcDbLine
10
51.668718
20
-10.84208
30
0
11
51.4
21
-11.102356
31
0
39
0
210
0
220
0
230
1
0
LINE
5
DE
100
AcDbEntity
8
80
62
256
6
ByLayer
370
13
48
1
60
0
100
AcDbLine
10
0
20
0
30
0
11
-34
21
0
31
0
39
0
210
0
220
0
230
1
0
LINE
5
DF
100
AcDbEntity
8
1
62
256
6
ByLayer
370
18
48
1
60
0
100
AcDbLine
10
44
20
31.256874
30
0
11
44
21
24.244865
31
0
39
0
210
0
220
0
230
1
0
LINE
5
E0
100
AcDbEntity
8
1
62
256
6
ByLayer
370
18
48
1
60
0
100
AcDbLine
10
50.016231
20
29.737689
30
0
11
49.890246
21
29.721103
31
0
39
0
210
0
220
0
230
1
0
LINE
5
E1
100
AcDbEntity
8
1
62
256
6
ByLayer
370
18
48
1
60
0
100
AcDbLine
10
49.890246
20
29.486697
30
0
11
50.016231
21
29.470111
31
0
39
0
210
0
220
0
230
1
0
LINE
5
E2
100
AcDbEntity
8
1
62
256
6
ByLayer
370
18
48
1
60
0
100
AcDbLine
10
49.890246
20
29.721103
30
0
11
49.694011
21
29.695268
31
0
39
0
210
0
220
0
230
1
0
LINE
5
E3
100
AcDbEntity
8
1
62
256
6
ByLayer
370
18
48
1
60
0
100
AcDbLine
10
49.694011
20
29.512532
30
0
11
49.890246
21
29.486697
31
0
39
0
210
0
220
0
230
1
0
LINE
5
E4
100
AcDbEntity
8
1
62
256
6
ByLayer
370
18
48
1
60
0
100
AcDbLine
10
49.737293
20
5.974052
30
0
11
49.737293
21
15.831291
31
0
39
0
210
0
220
0
230
1
0
LINE
5
E5
100
AcDbEntity
8
1
62
256
6
ByLayer
370
18
48
1
60
0
100
AcDbLine
10
44
20
-13.520429
30
0
11
44
21
-11.391837
31
0
39
0
210
0
220
0
230
1
0
LINE
5
E6
100
AcDbEntity
8
1
62
256
6
ByLayer
370
18
48
1
60
0
100
AcDbLine
10
44
20
-11.391837
30
0
11
49.678812
21
-11.640252
31
0
39
0
210
0
220
0
230
1
0
LINE
5
E7
100
AcDbEntity
8
1
62
256
6
ByLayer
370
18
48
1
60
0
100
AcDbLine
10
49.906689
20
-11.794191
30
0
11
49.678812
21
-11.640252
31
0
39
0
210
0
220
0
230
1
0
LINE
5
E8
100
AcDbEntity
8
1
62
256
6
ByLayer
370
18
48
1
60
0
100
AcDbLine
10
51.676953
20
-9.533589
30
0
11
51.858028
21
-9.736871
31
0
39
0
210
0
220
0
230
1
0
LINE
5
E9
100
AcDbEntity
8
1
62
256
6
ByLayer
370
18
48
1
60
0
100
AcDbLine
10
51.676953
20
-9.533589
30
0
11
51.04013
21
-5.180553
31
0
39
0
210
0
220
0
230
1
0
LINE
5
EA
100
AcDbEntity
8
1
62
256
6
ByLayer
370
18
48
1
60
0
100
AcDbLine
10
49.906689
20
-11.794191
30
0
11
49.906689
21
-11.063225
31
0
39
0
210
0
220
0
230
1
0
LINE
5
EB
100
AcDbEntity
8
1
62
256
6
ByLayer
370
18
48
1
60
0
100
AcDbLine
10
44
20
-18.378934
30
0
11
44
21
-13.520429
31
0
39
0
210
0
220
0
230
1
0
LINE
5
EC
100
AcDbEntity
8
1
62
256
6
ByLayer
370
18
48
1
60
0
100
AcDbLine
10
49.678812
20
-11.640252
30
0
11
49.678812
21
-11.057254
31
0
39
0
210
0
220
0
230
1
0
LINE
5
ED
100
AcDbEntity
8
1
62
256
6
ByLayer
370
18
48
1
60
0
100
AcDbLine
10
49.737293
20
5.974052
30
0
11
51.04013
21
-5.180553
31
0
39
0
210
0
220
0
230
1
0
LINE
5
EE
100
AcDbEntity
8
1
62
256
6
ByLayer
370
18
48
1
60
0
100
AcDbLine
10
44
20
-11.391837
30
0
11
44
21
-10.908447
31
0
39
0
210
0
220
0
230
1
0
LINE
5
EF
100
AcDbEntity
8
1
62
256
6
ByLayer
370
13
48
0.05
60
0
100
AcDbLine
10
69.068123
20
-34.487937
30
0
11
61.131123
21
-33.08843
31
0
39
0
210
0
220
0
230
1
0
LINE
5
F0
100
AcDbEntity
8
1
62
256
6
ByLayer
370
13
48
0.05
60
0
100
AcDbLine
10
70
20
-25.646559
30
0
11
70
21
-33.706
31
0
39
0
210
0
220
0
230
1
0
LINE
5
F1
100
AcDbEntity
8
81
62
256
6
ByLayer
370
13
48
0.05
60
0
100
AcDbLine
10
70
20
34.5
30
0
11
74.189439
21
34.5
31
0
39
0
210
0
220
0
230
1
0
LINE
5
F2
100
AcDbEntity
8
1
62
256
6
ByLayer
370
18
48
1
60
0
100
AcDbLine
10
55.777242
20
-12.718592
30
0
11
44
21
-12.718592
31
0
39
0
210
0
220
0
230
1
0
LINE
5
F3
100
AcDbEntity
8
1
62
256
6
ByLayer
370
18
48
1
60
0
100
AcDbLine
10
46.7
20
-14.821942
30
0
11
47.7
21
-14.321942
31
0
39
0
210
0
220
0
230
1
0
LINE
5
F4
100
AcDbEntity
8
1
62
256
6
ByLayer
370
18
48
1
60
0
100
AcDbLine
10
46.7
20
-13.571942
30
0
11
46.7
21
-14.821942
31
0
39
0
210
0
220
0
230
1
0
LINE
5
F5
100
AcDbEntity
8
1
62
256
6
ByLayer
370
18
48
1
60
0
100
AcDbLine
10
45.7
20
-14.321942
30
0
11
46.7
21
-14.821942
31
0
39
0
210
0
220
0
230
1
0
LINE
5
F6
100
AcDbEntity
8
1
62
256
6
ByLayer
370
18
48
1
60
0
100
AcDbLine
10
49.713418
20
-20.368571
30
0
11
49.958136
21
-18.378934
31
0
39
0
210
0
220
0
230
1
0
LINE
5
F7
100
AcDbEntity
8
1
62
256
6
ByLayer
370
18
48
1
60
0
100
AcDbLine
10
60.3
20
-20.368571
30
0
11
49.713418
21
-20.368571
31
0
39
0
210
0
220
0
230
1
0
LINE
5
F8
100
AcDbEntity
8
1
62
256
6
ByLayer
370
18
48
1
60
0
100
AcDbLine
10
49.713418
20
-30.22581
30
0
11
49.713418
21
-20.368571
31
0
39
0
210
0
220
0
230
1
0
LINE
5
F9
100
AcDbEntity
8
1
62
256
6
ByLayer
370
18
48
1
60
0
100
AcDbLine
10
60.3
20
5.974052
30
0
11
49.713418
21
5.974052
31
0
39
0
210
0
220
0
230
1
0
LINE
5
FA
100
AcDbEntity
8
1
62
256
6
ByLayer
370
18
48
1
60
0
100
AcDbLine
10
53.4
20
31.256874
30
0
11
53.4
21
15.831291
31
0
39
0
210
0
220
0
230
1
0
LINE
5
FB
100
AcDbEntity
8
1
62
256
6
ByLayer
370
18
48
1
60
0
100
AcDbLine
10
53.4
20
31.256874
30
0
11
44
21
31.256874
31
0
39
0
210
0
220
0
230
1
0
LINE
5
FC
100
AcDbEntity
8
1
62
256
6
ByLayer
370
18
48
1
60
0
100
AcDbLine
10
55.777242
20
31.256874
30
0
11
53.4
21
31.256874
31
0
39
0
210
0
220
0
230
1
0
LINE
5
FD
100
AcDbEntity
8
1
62
256
6
ByLayer
370
18
48
1
60
0
100
AcDbLine
10
55.777242
20
-16.452382
30
0
11
55.777242
21
-12.718592
31
0
39
0
210
0
220
0
230
1
0
LINE
5
FE
100
AcDbEntity
8
1
62
256
6
ByLayer
370
18
48
1
60
0
100
AcDbLine
10
50.828765
20
-3.475598
30
0
11
55.777242
21
-3.475598
31
0
39
0
210
0
220
0
230
1
0
LINE
5
FF
100
AcDbEntity
8
1
62
256
6
ByLayer
370
18
48
1
60
0
100
AcDbLine
10
55.777242
20
-12.718592
30
0
11
55.777242
21
-3.475598
31
0
39
0
210
0
220
0
230
1
0
LINE
5
100
100
AcDbEntity
8
1
62
256
6
ByLayer
370
18
48
1
60
0
100
AcDbLine
10
56.391221
20
19.431866
30
0
11
56.391221
21
15.831291
31
0
39
0
210
0
220
0
230
1
0
LINE
5
101
100
AcDbEntity
8
1
62
256
6
ByLayer
370
18
48
1
60
0
100
AcDbLine
10
56.391221
20
31.294714
30
0
11
56.391221
21
21.101777
31
0
39
0
210
0
220
0
230
1
0
LINE
5
102
100
AcDbEntity
8
1
62
256
6
ByLayer
370
18
48
1
60
0
100
AcDbLine
10
56.43793
20
21.46941
30
0
11
56.437751
21
21.428354
31
0
39
0
210
0
220
0
230
1
0
LINE
5
103
100
AcDbEntity
8
1
62
256
6
ByLayer
370
18
48
1
60
0
100
AcDbLine
10
56.437751
20
21.428354
30
0
11
56.609784
21
21.427603
31
0
39
0
210
0
220
0
230
1
0
LINE
5
104
100
AcDbEntity
8
1
62
256
6
ByLayer
370
18
48
1
60
0
100
AcDbLine
10
56.43793
20
21.46941
30
0
11
56.609963
21
21.46866
31
0
39
0
210
0
220
0
230
1
0
LINE
5
105
100
AcDbEntity
8
1
62
256
6
ByLayer
370
18
48
1
60
0
100
AcDbLine
10
56.609963
20
21.46866
30
0
11
56.609784
21
21.427603
31
0
39
0
210
0
220
0
230
1
0
LINE
5
106
100
AcDbEntity
8
1
62
256
6
ByLayer
370
18
48
1
60
0
100
AcDbLine
10
57.381543
20
-16.502074
30
0
11
56.645483
21
-16.43718
31
0
39
0
210
0
220
0
230
1
0
LINE
5
107
100
AcDbEntity
8
1
62
256
6
ByLayer
370
18
48
1
60
0
100
AcDbLine
10
56.645483
20
-16.43718
30
0
11
56.645483
21
-12.756572
31
0
39
0
210
0
220
0
230
1
0
LINE
5
108
100
AcDbEntity
8
1
62
256
6
ByLayer
370
18
48
1
60
0
100
AcDbLine
10
57.553711
20
-12.836645
30
0
11
56.645483
21
-12.756572
31
0
39
0
210
0
220
0
230
1
0
LINE
5
109
100
AcDbEntity
8
1
62
256
6
ByLayer
370
18
48
1
60
0
100
AcDbLine
10
56.645483
20
-12.756572
30
0
11
56.645483
21
-3.65907
31
0
39
0
210
0
220
0
230
1
0
LINE
5
10A
100
AcDbEntity
8
1
62
256
6
ByLayer
370
18
48
1
60
0
100
AcDbLine
10
57.3
20
-17.085763
30
0
11
57.3
21
-16.494885
31
0
39
0
210
0
220
0
230
1
0
LINE
5
10B
100
AcDbEntity
8
1
62
256
6
ByLayer
370
18
48
1
60
0
100
AcDbLine
10
69.286553
20
-14.056645
30
0
11
57.940673
21
-13.056353
31
0
39
0
210
0
220
0
230
1
0
LINE
5
10C
100
AcDbEntity
8
1
62
256
6
ByLayer
370
18
48
1
60
0
100
AcDbLine
10
60.3
20
-30.22581
30
0
11
49.713418
21
-30.22581
31
0
39
0
210
0
220
0
230
1
0
LINE
5
10D
100
AcDbEntity
8
1
62
256
6
ByLayer
370
18
48
1
60
0
100
AcDbLine
10
60.3
20
-30.22581
30
0
11
60.3
21
-20.368571
31
0
39
0
210
0
220
0
230
1
0
LINE
5
10E
100
AcDbEntity
8
1
62
256
6
ByLayer
370
18
48
1
60
0
100
AcDbLine
10
60.3
20
-30.22581
30
0
11
61.497799
21
-29.592448
31
0
39
0
210
0
220
0
230
1
0
LINE
5
10F
100
AcDbEntity
8
1
62
256
6
ByLayer
370
18
48
1
60
0
100
AcDbLine
10
60.3
20
15.831291
30
0
11
49.713418
21
15.831291
31
0
39
0
210
0
220
0
230
1
0
LINE
5
110
100
AcDbEntity
8
1
62
256
6
ByLayer
370
18
48
1
60
0
100
AcDbLine
10
60.3
20
5.974052
30
0
11
60.3
21
15.831291
31
0
39
0
210
0
220
0
230
1
0
LINE
5
111
100
AcDbEntity
8
1
62
256
6
ByLayer
370
18
48
1
60
0
100
AcDbLine
10
60.3
20
15.831291
30
0
11
62.5
21
14.561121
31
0
39
0
210
0
220
0
230
1
0
LINE
5
112
100
AcDbEntity
8
1
62
256
6
ByLayer
370
18
48
1
60
0
100
AcDbLine
10
60.3
20
5.974052
30
0
11
61.497799
21
4.532765
31
0
39
0
210
0
220
0
230
1
0
LINE
5
113
100
AcDbEntity
8
1
62
256
6
ByLayer
370
18
48
1
60
0
100
AcDbLine
10
63.3
20
-22.160271
30
0
11
63.3
21
-22.803805
31
0
39
0
210
0
220
0
230
1
0
LINE
5
114
100
AcDbEntity
8
1
62
256
6
ByLayer
370
18
48
1
60
0
100
AcDbLine
10
65.807122
20
-4.903596
30
0
11
65.807122
21
-0.652556
31
0
39
0
210
0
220
0
230
1
0
LINE
5
115
100
AcDbEntity
8
1
62
256
6
ByLayer
370
18
48
1
60
0
100
AcDbLine
10
65.807122
20
-0.652556
30
0
11
65.807122
21
-0.061823
31
0
39
0
210
0
220
0
230
1
0
LINE
5
116
100
AcDbEntity
8
1
62
256
6
ByLayer
370
18
48
1
60
0
100
AcDbLine
10
65.807122
20
-0.652556
30
0
11
67.819657
21
-3.074197
31
0
39
0
210
0
220
0
230
1
0
LINE
5
117
100
AcDbEntity
8
1
62
256
6
ByLayer
370
18
48
1
60
0
100
AcDbLine
10
65.807122
20
-27.313802
30
0
11
67.819657
21
-26.249632
31
0
39
0
210
0
220
0
230
1
0
LINE
5
118
100
AcDbEntity
8
1
62
256
6
ByLayer
370
18
48
1
60
0
100
AcDbLine
10
67.819657
20
-26.249632
30
0
11
67.819657
21
-21.985158
31
0
39
0
210
0
220
0
230
1
0
LINE
5
119
100
AcDbEntity
8
1
62
256
6
ByLayer
370
18
48
1
60
0
100
AcDbLine
10
67.819657
20
-26.249632
30
0
11
68.389725
21
-23.794634
31
0
39
0
210
0
220
0
230
1
0
LINE
5
11A
100
AcDbEntity
8
1
62
256
6
ByLayer
370
18
48
1
60
0
100
AcDbLine
10
67.819657
20
-3.074197
30
0
11
67.819657
21
1.190277
31
0
39
0
210
0
220
0
230
1
0
LINE
5
11B
100
AcDbEntity
8
1
62
256
6
ByLayer
370
18
48
1
60
0
100
AcDbLine
10
67.819657
20
-3.074197
30
0
11
68.389725
21
-8.660829
31
0
39
0
210
0
220
0
230
1
0
LINE
5
11C
100
AcDbEntity
8
1
62
256
6
ByLayer
370
18
48
1
60
0
100
AcDbLine
10
56.645483
20
-3.65907
30
0
11
68.389725
21
-8.660829
31
0
39
0
210
0
220
0
230
1
0
LINE
5
11D
100
AcDbEntity
8
1
62
256
6
ByLayer
370
18
48
1
60
0
100
AcDbLine
10
68.389725
20
-8.660829
30
0
11
68.901176
21
-12.680533
31
0
39
0
210
0
220
0
230
1
0
LINE
5
11E
100
AcDbEntity
8
1
62
256
6
ByLayer
370
18
48
1
60
0
100
AcDbLine
10
57.553711
20
-12.836645
30
0
11
68.463176
21
-13.798461
31
0
39
0
210
0
220
0
230
1
0
LINE
5
11F
100
AcDbEntity
8
1
62
256
6
ByLayer
370
18
48
1
60
0
100
AcDbLine
10
68.82953
20
-3.73948
30
0
11
69.05
21
-5.334626
31
0
39
0
210
0
220
0
230
1
0
LINE
5
120
100
AcDbEntity
8
1
62
256
6
ByLayer
370
18
48
1
60
0
100
AcDbLine
10
69.05
20
-8.181302
30
0
11
69.05
21
-13.552259
31
0
39
0
210
0
220
0
230
1
0
LINE
5
121
100
AcDbEntity
8
1
62
256
6
ByLayer
370
18
48
1
60
0
100
AcDbLine
10
69.05
20
-8.181302
30
0
11
69.359327
21
-8.208573
31
0
39
0
210
0
220
0
230
1
0
LINE
5
122
100
AcDbEntity
8
1
62
256
6
ByLayer
370
18
48
1
60
0
100
AcDbLine
10
69.05
20
-8.003643
30
0
11
69.05
21
-8.181302
31
0
39
0
210
0
220
0
230
1
0
LINE
5
123
100
AcDbEntity
8
1
62
256
6
ByLayer
370
18
48
1
60
0
100
AcDbLine
10
69.068123
20
-18.456404
30
0
11
57.956123
21
-17.476732
31
0
39
0
210
0
220
0
230
1
0
LINE
5
124
100
AcDbEntity
8
1
62
256
6
ByLayer
370
18
48
1
60
0
100
AcDbLine
10
69.415545
20
-18.448361
30
0
11
69.415545
21
-19.822217
31
0
39
0
210
0
220
0
230
1
0
LINE
5
125
100
AcDbEntity
8
1
62
256
6
ByLayer
370
18
48
1
60
0
100
AcDbLine
10
69.415545
20
-8.242072
30
0
11
69.415545
21
-14.002527
31
0
39
0
210
0
220
0
230
1
0
LINE
5
126
100
AcDbEntity
8
1
62
256
6
ByLayer
370
18
48
1
60
0
100
AcDbLine
10
70
20
-9.998854
30
0
11
70
21
-12.423725
31
0
39
0
210
0
220
0
230
1
0
LINE
5
127
100
AcDbEntity
8
1
62
256
6
ByLayer
370
18
48
1
60
0
100
AcDbLine
10
57.3
20
20.463234
30
0
11
57.3
21
31.746655
31
0
39
0
210
0
220
0
230
1
0
LINE
5
128
100
AcDbEntity
8
1
62
256
6
ByLayer
370
18
48
1
60
0
100
AcDbLine
10
69.343877
20
21.640642
30
0
11
58.231877
21
19.681297
31
0
39
0
210
0
220
0
230
1
0
LINE
5
129
100
AcDbEntity
8
1
62
256
6
ByLayer
370
18
48
1
60
0
100
AcDbLine
10
70
20
33.706
30
0
11
70
21
22.422579
31
0
39
0
210
0
220
0
230
1
0
LINE
5
12A
100
AcDbEntity
8
1
62
256
6
ByLayer
370
18
48
1
60
0
100
AcDbLine
10
57.956123
20
32.528592
30
0
11
69.068123
21
34.487937
31
0
39
0
210
0
220
0
230
1
0
LINE
5
12B
100
AcDbEntity
8
1
62
256
6
ByLayer
370
18
48
1
60
0
100
AcDbLine
10
57.553711
20
-15.174914
30
0
11
57.553711
21
-12.836645
31
0
39
0
210
0
220
0
230
1
0
LINE
5
12C
100
AcDbEntity
8
1
62
256
6
ByLayer
370
18
48
1
60
0
100
AcDbLine
10
57.381543
20
-16.502074
30
0
11
57.553711
21
-15.174914
31
0
39
0
210
0
220
0
230
1
0
LINE
5
12D
100
AcDbEntity
8
1
62
256
6
ByLayer
370
18
48
1
60
0
100
AcDbLine
10
46.7
20
-13.571942
30
0
11
46.214293
21
-13.329089
31
0
39
0
210
0
220
0
230
1
0
LINE
5
12E
100
AcDbEntity
8
1
62
256
6
ByLayer
370
18
48
1
60
0
100
AcDbLine
10
47.185707
20
-13.329089
30
0
11
46.7
21
-13.571942
31
0
39
0
210
0
220
0
230
1
0
LINE
5
12F
100
AcDbEntity
8
1
62
256
6
ByLayer
370
18
48
1
60
0
100
AcDbLine
10
45.7
20
-14.321942
30
0
11
45.7
21
-13.499211
31
0
39
0
210
0
220
0
230
1
0
LINE
5
130
100
AcDbEntity
8
1
62
256
6
ByLayer
370
18
48
1
60
0
100
AcDbLine
10
68.901176
20
-20.599591
30
0
11
68.389725
21
-23.794634
31
0
39
0
210
0
220
0
230
1
0
LINE
5
131
100
AcDbEntity
8
1
62
256
6
ByLayer
370
18
48
1
60
0
100
AcDbLine
10
69.05
20
-18.454806
30
0
11
69.05
21
-19.37195
31
0
39
0
210
0
220
0
230
1
0
LINE
5
132
100
AcDbEntity
8
1
62
256
6
ByLayer
370
18
48
1
60
0
100
AcDbLine
10
62.46049
20
-17.873852
30
0
11
60.3
21
-20.368571
31
0
39
0
210
0
220
0
230
1
0
LINE
5
133
100
AcDbEntity
8
1
62
256
6
ByLayer
370
18
48
1
60
0
100
AcDbLine
10
60.807122
20
-4.903596
30
0
11
60.807122
21
1.455103
31
0
39
0
210
0
220
0
230
1
0
LINE
5
134
100
AcDbEntity
8
1
62
256
6
ByLayer
370
18
48
1
60
0
100
AcDbLine
10
65.807122
20
-4.903596
30
0
11
60.807122
21
-4.903596
31
0
39
0
210
0
220
0
230
1
0
LINE
5
135
100
AcDbEntity
8
1
62
256
6
ByLayer
370
18
48
1
60
0
100
AcDbLine
10
62.5
20
-21.496625
30
0
11
62.5
21
-17.877336
31
0
39
0
210
0
220
0
230
1
0
LINE
5
136
100
AcDbEntity
8
1
62
256
6
ByLayer
370
18
48
1
60
0
100
AcDbLine
10
62.5
20
10.892725
30
0
11
62.5
21
14.561121
31
0
39
0
210
0
220
0
230
1
0
LINE
5
137
100
AcDbEntity
8
1
62
256
6
ByLayer
370
18
48
1
60
0
100
AcDbLine
10
63.3
20
8.199905
30
0
11
63.3
21
8.843439
31
0
39
0
210
0
220
0
230
1
0
LINE
5
138
100
AcDbEntity
8
1
62
256
6
ByLayer
370
18
48
1
60
0
100
AcDbLine
10
69.05
20
16.488943
30
0
11
69.05
21
21.588824
31
0
39
0
210
0
220
0
230
1
0
LINE
5
139
100
AcDbEntity
8
1
62
256
6
ByLayer
370
18
48
1
60
0
100
AcDbLine
10
65.789899
20
15.302363
30
0
11
69.05
21
16.488943
31
0
39
0
210
0
220
0
230
1
0
LINE
5
13A
100
AcDbEntity
8
1
62
256
6
ByLayer
370
18
48
1
60
0
100
AcDbLine
10
68.997857
20
-19.850884
30
0
11
69.286553
21
-19.876336
31
0
39
0
210
0
220
0
230
1
0
LINE
5
13B
100
AcDbEntity
8
1
62
256
6
ByLayer
370
18
48
1
60
0
100
AcDbLine
10
44
20
-18.378934
30
0
11
53.4
21
-18.378934
31
0
39
0
210
0
220
0
230
1
0
LINE
5
13C
100
AcDbEntity
8
1
62
256
6
ByLayer
370
18
48
1
60
0
100
AcDbLine
10
56.645483
20
31.332835
30
0
11
57.3
21
31.448244
31
0
39
0
210
0
220
0
230
1
0
LINE
5
13D
100
AcDbEntity
8
1
62
256
6
ByLayer
370
18
48
1
60
0
100
AcDbLine
10
47.9
20
-16.590911
30
0
11
47.9
21
-13.605948
31
0
39
0
210
0
220
0
230
1
0
LINE
5
13E
100
AcDbEntity
8
1
62
256
6
ByLayer
370
18
48
1
60
0
100
AcDbLine
10
70
20
-18.065436
30
0
11
70
21
-12.423725
31
0
39
0
210
0
220
0
230
1
0
LINE
5
13F
100
AcDbEntity
8
1
62
256
6
ByLayer
370
18
48
1
60
0
100
AcDbLine
10
65.807122
20
-26.723069
30
0
11
65.807122
21
-27.313802
31
0
39
0
210
0
220
0
230
1
0
LINE
5
140
100
AcDbEntity
8
1
62
256
6
ByLayer
370
18
48
1
60
0
100
AcDbLine
10
57.884455
20
-12.865804
30
0
11
57.884455
21
-13.022854
31
0
39
0
210
0
220
0
230
1
0
LINE
5
141
100
AcDbEntity
8
1
62
256
6
ByLayer
370
18
48
1
60
0
100
AcDbLine
10
69.05
20
-8.003643
30
0
11
69.05
21
-5.334626
31
0
39
0
210
0
220
0
230
1
0
LINE
5
142
100
AcDbEntity
8
1
62
256
6
ByLayer
370
18
48
1
60
0
100
AcDbLine
10
47.7
20
-13.499211
30
0
11
47.7
21
-14.321942
31
0
39
0
210
0
220
0
230
1
0
LINE
5
143
100
AcDbEntity
8
1
62
256
6
ByLayer
370
18
48
1
60
0
100
AcDbLine
10
63.235843
20
8.95
30
0
11
66
21
8.95
31
0
39
0
210
0
220
0
230
1
0
LINE
5
144
100
AcDbEntity
8
1
62
256
6
ByLayer
370
18
48
1
60
0
100
AcDbLine
10
66
20
7.89769
30
0
11
63.324362
21
7.89769
31
0
39
0
210
0
220
0
230
1
0
LINE
5
145
100
AcDbEntity
8
1
62
256
6
ByLayer
370
18
48
1
60
0
100
AcDbLine
10
66
20
8.95
30
0
11
66
21
15.378834
31
0
39
0
210
0
220
0
230
1
0
LINE
5
146
100
AcDbEntity
8
1
62
256
6
ByLayer
370
18
48
1
60
0
100
AcDbLine
10
66.5
20
15.560819
30
0
11
66.5
21
9.45
31
0
39
0
210
0
220
0
230
1
0
LINE
5
147
100
AcDbEntity
8
1
62
256
6
ByLayer
370
18
48
1
60
0
100
AcDbLine
10
66
20
3.224877
30
0
11
66
21
7.89769
31
0
39
0
210
0
220
0
230
1
0
LINE
5
148
100
AcDbEntity
8
1
62
256
6
ByLayer
370
18
48
1
60
0
100
AcDbLine
10
66.5
20
7.39769
30
0
11
66.5
21
2.628623
31
0
39
0
210
0
220
0
230
1
0
LINE
5
149
100
AcDbEntity
8
1
62
256
6
ByLayer
370
18
48
1
60
0
100
AcDbLine
10
67.4
20
1.628853
30
0
11
67.4
21
4.00525
31
0
39
0
210
0
220
0
230
1
0
LINE
5
14A
100
AcDbEntity
8
1
62
256
6
ByLayer
370
18
48
1
60
0
100
AcDbLine
10
68.617702
20
-3.678968
30
0
11
69
21
-3.576531
31
0
39
0
210
0
220
0
230
1
0
MTEXT
5
282
100
AcDbEntity
8
SK6
62
256
6
ByLayer
370
18
48
1
60
0
100
AcDbMText
10
75.75
20
44.25
30
0
210
0
220
0
230
1
1
\W0.6964;BR30-79CC12F-C5
40
3
41
0
44
1.084337
50
0
71
7
72
5
7
iso_b_vert
0
MTEXT
5
286
100
AcDbEntity
8
2
62
256
6
ByLayer
370
18
48
1
60
0
100
AcDbMText
10
105.75
20
-14.1
30
0
210
0
220
0
230
1
1
\W0.7889;Dc = 69.0 - 78.5
40
3
41
0
44
1.084337
50
89.9999999999996
71
7
72
5
7
iso_b_vert
0
DIMENSION
5
292
100
AcDbEntity
8
SK2
62
256
6
ByLayer
370
13
48
1
60
0
100
AcDbDimension
2
DimnDraft3D1
10
-41.92498
20
-24.99
30
0
11
-41.92498
21
-4.073684
31
0
70
32
71
5
72
1
41
1
210
0
220
0
230
1
3
Standard
100
AcDbAlignedDimension
13
-1.7
23
24.99
33
0
14
-1.7
24
-24.99
34
0
50
90
100
AcDbRotatedDimension
1001
ACAD
1000
DSTYLE
1002
{
1070
    74
1070
     0
1070
   279
1070
     0
1070
   172
1070
     1
1070
   173
1070
     1
1070
   340
1005
283
1070
   271
1070
     1
1070
   272
1070
     3
1070
    77
1070
     1
1070
    73
1070
     0
1070
   171
1070
     4
1070
   274
1070
     4
1070
   177
1070
     7
1070
   176
1070
     7
1070
   178
1070
     7
1070
    78
1070
     8
1070
    41
1041
3.175
1070
   147
1041
1.5
1070
    42
1041
2.0
1070
    44
1041
2.0
1070
   140
1041
3.0
1070
   343
1005
0
1070
   344
1005
0
1002
}
0
DIMENSION
5
29C
100
AcDbEntity
8
2
62
256
6
ByLayer
370
13
48
1
60
0
100
AcDbDimension
2
DimnDraft3D2
10
106.75
20
-34.5
30
0
11
106.75
21
-0.506579
31
0
70
32
71
5
72
1
41
1
210
0
220
0
230
1
3
Standard
100
AcDbAlignedDimension
13
72
23
34.5
33
0
14
71.884806
24
-34.5
34
0
50
90
100
AcDbRotatedDimension
1001
ACAD
1000
DSTYLE
1002
{
1070
    74
1070
     0
1070
   279
1070
     0
1070
   172
1070
     1
1070
   173
1070
     1
1070
   340
1005
283
1070
    77
1070
     1
1070
    73
1070
     0
1070
   171
1070
     4
1070
   274
1070
     4
1070
   177
1070
     7
1070
   176
1070
     7
1070
   178
1070
     7
1070
    78
1070
     8
1070
    41
1041
3.175
1070
   147
1041
1.75
1070
    42
1041
2.0
1070
    44
1041
2.0
1070
   140
1041
3.5
1070
   343
1005
0
1070
   344
1005
0
1002
}
0
DIMENSION
5
2A6
100
AcDbEntity
8
2
62
256
6
ByLayer
370
13
48
1
60
0
100
AcDbDimension
2
DimnDraft3D3
10
71
20
34.5
30
0
11
79.625859
21
24.874141
31
0
70
34
71
5
72
1
41
1
210
0
220
0
230
1
3
Standard
100
AcDb2LineAngularDimension
13
70
23
33.706
33
0
14
70
24
22.422579
34
0
15
70
25
34.5
35
0
16
81.747179
26
22.752821
36
0
40
0
0
DIMENSION
5
2B0
100
AcDbEntity
8
2
62
256
6
ByLayer
370
13
48
1
60
0
100
AcDbDimension
2
DimnDraft3D4
10
70
20
58.5
30
0
11
33.247368
21
58.5
31
0
70
32
71
5
72
1
41
1
210
0
220
0
230
1
3
Standard
100
AcDbAlignedDimension
13
0
23
26.69
33
0
14
70
24
36.5
34
0
50
0
100
AcDbRotatedDimension
1001
ACAD
1000
DSTYLE
1002
{
1070
   279
1070
     0
1070
   172
1070
     1
1070
   173
1070
     1
1070
   340
1005
283
1070
   271
1070
     1
1070
   272
1070
     3
1070
    77
1070
     1
1070
    73
1070
     0
1070
   171
1070
     4
1070
   274
1070
     4
1070
   177
1070
     7
1070
   176
1070
     7
1070
   178
1070
     7
1070
    78
1070
     8
1070
    41
1041
3.175
1070
   147
1041
1.5
1070
    42
1041
2.0
1070
    44
1041
2.0
1070
   140
1041
3.0
1070
   343
1005
0
1070
   344
1005
0
1002
}
0
DIMENSION
5
2BA
100
AcDbEntity
8
SK2
62
256
6
ByLayer
370
13
48
1
60
0
100
AcDbDimension
2
DimnDraft3D5
10
70
20
73.5
30
0
11
17.521053
21
73.5
31
0
70
32
71
5
72
1
41
1
210
0
220
0
230
1
3
Standard
100
AcDbAlignedDimension
13
-30
23
17.991832
33
0
14
70
24
36.5
34
0
50
0
100
AcDbRotatedDimension
1001
ACAD
1000
DSTYLE
1002
{
1070
   279
1070
     0
1070
   172
1070
     1
1070
   173
1070
     1
1070
   340
1005
283
1070
   271
1070
     1
1070
   272
1070
     3
1070
    77
1070
     1
1070
    73
1070
     0
1070
   171
1070
     4
1070
   274
1070
     4
1070
   177
1070
     7
1070
   176
1070
     7
1070
   178
1070
     7
1070
    78
1070
     8
1070
    41
1041
3.175
1070
   147
1041
1.5
1070
    42
1041
2.0
1070
    44
1041
2.0
1070
   140
1041
3.0
1070
   343
1005
0
1070
   344
1005
0
1002
}
0
ENDSEC
0
SECTION
2
OBJECTS
0
DICTIONARY
5
32b
330
0
100
AcDbDictionary
280
0
281
1
3
ACAD_GROUP
350
32c
3
ACAD_GROUP
350
32d
3
ACAD_MLINESTYLE
350
32e
0
DICTIONARY
5
32c
330
0
100
AcDbDictionary
280
0
281
1
0
DICTIONARY
5
32d
330
0
100
AcDbDictionary
280
0
281
1
3
_DC
350
2C7
3
_DC_55
350
2C6
3
<200936839MOD000_00>
350
2C3
3
R820D_AR18SCFC12A_A1
350
2C4
3
TEST_R820D_AR90
350
2C5
0
DICTIONARY
5
32e
330
0
100
AcDbDictionary
280
0
281
1
3
Standard
350
18
0
GROUP
5
2C7
330
32d
100
AcDbGroup
300

70
0
71
1
340
286
0
GROUP
5
2C6
330
32d
100
AcDbGroup
300

70
0
71
1
340
286
340
286
0
GROUP
5
2C3
330
32d
100
AcDbGroup
300

70
0
71
1
340
6C
340
6E
340
70
340
72
340
74
340
75
340
76
340
77
340
78
340
79
340
7A
340
7B
340
7C
340
7D
340
7E
340
7F
340
80
340
81
340
82
340
83
340
84
340
85
340
86
340
87
340
88
340
89
340
8A
340
8B
340
8C
340
8D
340
8E
340
8F
340
90
340
91
340
92
340
93
340
94
340
95
340
96
340
97
340
98
340
99
340
9A
340
9B
340
9C
340
9D
340
9E
340
9F
340
A0
340
A1
340
A2
340
A3
340
A4
340
A5
340
A6
340
A8
340
AA
340
AB
340
AC
340
AD
340
AE
340
AF
340
B0
340
B1
340
B2
340
B3
340
B4
340
B5
340
B6
340
B7
340
B8
340
B9
340
BA
340
BB
340
BC
340
BD
340
BE
340
BF
340
C0
340
C1
340
C2
340
C3
340
C4
340
C5
340
C6
340
C7
340
C8
340
C9
340
CA
340
CB
340
CC
340
CD
340
CE
340
CF
340
D0
340
D1
340
D2
340
D3
340
D4
340
D5
340
D6
340
D7
340
D8
340
D9
340
DA
340
DB
340
DC
340
DD
340
DE
340
DF
340
E0
340
E1
340
E2
340
E3
340
E4
340
E5
340
E6
340
E7
340
E8
340
E9
340
EA
340
EB
340
EC
340
ED
340
EE
340
EF
340
F0
340
F1
340
F2
340
F3
340
F4
340
F5
340
F6
340
F7
340
F8
340
F9
340
FA
340
FB
340
FC
340
FD
340
FE
340
FF
340
100
340
101
340
102
340
103
340
104
340
105
340
106
340
107
340
108
340
109
340
10A
340
10B
340
10C
340
10D
340
10E
340
10F
340
110
340
111
340
112
340
113
340
114
340
115
340
116
340
117
340
118
340
119
340
11A
340
11B
340
11C
340
11D
340
11E
340
11F
340
120
340
121
340
122
340
123
340
124
340
125
340
126
340
127
340
128
340
129
340
12A
340
12B
340
12C
340
12D
340
12E
340
12F
340
130
340
131
340
132
340
133
340
134
340
135
340
136
340
137
340
138
340
139
340
13A
340
13B
340
13C
340
13D
340
13E
340
13F
340
140
340
141
340
142
340
143
340
144
340
145
340
146
340
147
340
148
340
149
340
14A
340
14B
340
14C
340
14D
340
14E
340
14F
340
150
340
151
340
152
340
153
340
154
340
155
340
156
340
157
340
158
340
159
340
15A
340
15B
340
15C
340
15D
340
15E
340
15F
340
160
340
161
340
162
340
163
340
164
340
165
340
166
340
167
340
168
340
169
340
16A
340
16B
340
16C
340
16D
340
16E
340
16F
340
170
340
171
340
172
340
173
340
174
340
175
340
176
340
177
340
178
340
179
340
17A
340
17B
340
17C
340
17D
340
17E
340
17F
340
180
340
181
340
182
340
183
340
184
340
185
340
186
340
187
340
188
340
189
340
18A
340
18B
340
18C
340
18D
340
18E
340
18F
340
190
340
191
340
192
340
193
340
194
340
195
340
196
340
197
340
198
340
199
340
19A
340
19B
340
19C
340
19D
340
19E
340
19F
340
1A0
340
1A1
340
1A2
340
1A3
340
1A4
340
1A5
340
1A6
340
1A7
340
1A8
340
1A9
340
1AA
340
1AB
340
1AC
340
1AD
340
1AE
340
1AF
340
1B0
340
1B1
340
1B2
340
1B3
340
1B4
340
1B5
340
1B6
340
1B7
340
1B8
340
1B9
340
1BA
340
1BB
340
1BC
340
1BD
340
1BE
340
1BF
340
1C0
340
1C1
340
1C2
340
1C3
340
1C4
340
1C5
340
1C6
340
1C7
340
1C8
340
1C9
340
1CA
340
1CB
340
1CC
340
1CD
340
1CE
340
1CF
340
1D0
340
1D1
340
1D2
340
1D3
340
1D4
340
1D5
340
1D6
340
1D7
340
1D8
340
1D9
340
1DA
340
1DB
340
1DC
340
1DD
340
1DE
340
1DF
340
1E0
340
1E1
340
1E2
340
1E3
340
1E4
340
1E5
340
1E6
340
1E7
340
1E8
340
1E9
340
1EA
340
1EB
340
1EC
340
1ED
340
1EE
340
1EF
340
1F0
340
1F1
340
1F2
340
1F3
340
1F4
340
1F5
340
1F6
340
1F7
340
1F8
340
1F9
340
1FA
340
1FB
340
1FC
340
1FD
340
1FE
340
1FF
340
200
340
201
340
202
340
203
340
204
340
205
340
206
340
207
340
208
340
209
340
20A
340
20B
340
20C
340
20D
340
20E
340
20F
340
210
340
211
340
212
340
213
340
214
340
215
340
216
340
217
340
218
340
219
340
21A
340
21B
340
21C
340
21D
340
21E
340
21F
340
220
340
221
340
222
340
223
340
224
340
225
340
226
340
227
340
228
340
229
340
22A
340
22B
340
22C
340
22D
340
22E
340
22F
340
230
340
231
340
232
340
233
340
234
340
235
340
236
340
237
340
238
340
239
340
23A
340
23B
340
23C
340
23D
340
23E
340
23F
340
240
340
241
340
242
340
243
340
244
340
245
340
246
340
247
340
248
340
249
340
24A
340
24B
340
24C
340
24D
340
24E
340
24F
340
250
340
251
340
252
340
253
340
254
340
255
340
256
340
257
340
258
340
259
340
25A
340
25B
340
25C
340
25D
340
25E
340
25F
340
260
340
261
340
262
340
263
340
264
340
265
340
266
340
267
340
268
340
269
340
26A
340
26B
340
26C
340
26D
340
26E
340
26F
340
270
340
271
340
272
340
273
340
274
340
275
340
276
340
277
340
278
340
279
340
27A
340
27B
340
27C
340
27D
340
27E
340
27F
340
280
340
281
340
70
340
DF
340
E0
340
E1
340
E2
340
E3
340
E4
340
E5
340
E6
340
E7
340
E8
340
E9
340
EA
340
EB
340
EC
340
ED
340
EE
340
EF
340
F0
340
F1
340
F2
340
F3
340
F4
340
F5
340
F6
340
F7
340
F8
340
F9
340
FA
340
FB
340
FC
340
FD
340
FE
340
FF
340
100
340
101
340
102
340
103
340
104
340
105
340
106
340
107
340
108
340
109
340
10A
340
10B
340
10C
340
10D
340
10E
340
10F
340
110
340
111
340
112
340
113
340
114
340
115
340
116
340
117
340
118
340
119
340
11A
340
11B
340
11C
340
11D
340
11E
340
11F
340
120
340
121
340
122
340
123
340
124
340
125
340
126
340
127
340
128
340
129
340
12A
340
12B
340
12C
340
12D
340
12E
340
12F
340
130
340
131
340
132
340
133
340
134
340
135
340
136
340
137
340
138
340
139
340
13A
340
13B
340
13C
340
13D
340
13E
340
13F
340
140
340
141
340
142
340
214
340
215
340
216
340
217
340
218
340
219
340
21A
340
21B
340
21C
340
21D
340
21E
340
21F
340
220
340
221
340
222
340
223
340
224
340
225
340
226
340
227
340
228
340
229
340
22A
340
22B
340
22C
340
22D
340
22E
340
22F
340
230
340
231
340
232
340
233
340
234
340
235
340
236
340
237
340
238
340
239
340
23A
340
23B
340
23C
340
23D
340
23E
340
23F
340
240
340
241
340
242
340
243
340
244
340
245
340
246
340
247
340
248
340
249
340
24A
340
24B
340
24C
340
24D
340
24E
340
24F
340
250
340
251
340
252
340
253
340
254
340
255
340
256
340
257
340
258
340
259
340
25A
340
25B
340
25C
340
25D
340
25E
340
25F
340
260
340
261
340
262
340
263
340
264
340
265
340
266
340
267
340
268
340
269
340
26A
340
26B
340
26C
340
26D
340
26E
340
26F
340
270
340
271
340
272
340
273
340
274
340
275
340
276
340
277
340
278
340
279
340
27A
340
27B
340
27C
340
27D
340
27E
340
27F
340
280
340
281
340
F2
340
F3
340
F4
340
F5
340
F6
340
F7
340
F8
340
F9
340
FA
340
FB
340
FC
340
FD
340
FE
340
FF
340
100
340
101
340
102
340
103
340
104
340
105
340
106
340
107
340
108
340
109
340
10A
340
10B
340
10C
340
10D
340
10E
340
10F
340
110
340
111
340
112
340
113
340
114
340
115
340
116
340
117
340
118
340
119
340
11A
340
11B
340
11C
340
11D
340
11E
340
11F
340
120
340
121
340
122
340
123
340
124
340
125
340
126
340
127
340
128
340
129
340
12A
340
12B
340
12C
340
12D
340
12E
340
12F
340
130
340
131
340
132
340
133
340
134
340
135
340
136
340
137
340
138
340
139
340
13A
340
13B
340
13C
340
13D
340
13E
340
13F
340
140
340
141
340
142
340
218
340
219
340
21A
340
21B
340
21C
340
21D
340
21E
340
21F
340
220
340
221
340
222
340
223
340
224
340
225
340
226
340
227
340
228
340
229
340
22A
340
22B
340
22C
340
22D
340
22E
340
22F
340
230
340
231
340
232
340
233
340
234
340
235
340
236
340
237
340
23B
340
23C
340
23D
340
23E
340
23F
340
240
340
241
340
242
340
243
340
244
340
245
340
246
340
247
340
248
340
249
340
24A
340
24B
340
24C
340
24D
340
24E
340
24F
340
250
340
251
340
252
340
253
340
254
340
255
340
256
340
257
340
258
340
259
340
25A
340
25B
340
25C
340
25D
340
25E
340
25F
340
260
340
261
340
262
340
263
340
264
340
265
340
266
340
267
340
268
340
269
340
26A
340
26B
340
26C
340
26D
340
26E
340
26F
340
270
340
271
340
272
340
273
340
274
340
275
340
276
340
277
340
278
340
279
340
27A
340
27B
340
27C
340
27D
340
27E
340
27F
340
280
340
281
340
286
340
286
340
286
340
282
340
286
340
29C
340
2A6
340
F2
340
F3
340
F4
340
F5
340
F6
340
F7
340
F8
340
F9
340
FA
340
FB
340
FC
340
FD
340
FE
340
FF
340
100
340
101
340
102
340
103
340
104
340
105
340
106
340
107
340
108
340
109
340
10A
340
10B
340
10C
340
10D
340
10E
340
10F
340
110
340
111
340
112
340
113
340
114
340
115
340
116
340
117
340
118
340
119
340
11A
340
11B
340
11C
340
11D
340
11E
340
11F
340
120
340
121
340
122
340
123
340
124
340
125
340
126
340
127
340
128
340
129
340
12A
340
12B
340
12C
340
12D
340
12E
340
12F
340
130
340
131
340
132
340
133
340
134
340
135
340
136
340
137
340
138
340
139
340
13A
340
13B
340
13C
340
13D
340
13E
340
13F
340
140
340
141
340
142
340
218
340
219
340
21A
340
21B
340
21C
340
21D
340
21E
340
21F
340
220
340
221
340
222
340
223
340
224
340
225
340
226
340
227
340
228
340
229
340
22A
340
22B
340
22C
340
22D
340
22E
340
22F
340
230
340
231
340
232
340
233
340
234
340
235
340
236
340
237
340
23B
340
23C
340
23D
340
23E
340
23F
340
240
340
241
340
242
340
243
340
244
340
245
340
246
340
247
340
248
340
249
340
24A
340
24B
340
24C
340
24D
340
24E
340
24F
340
250
340
251
340
252
340
253
340
254
340
255
340
256
340
257
340
258
340
259
340
25A
340
25B
340
25C
340
25D
340
25E
340
25F
340
260
340
261
340
262
340
263
340
264
340
265
340
266
340
267
340
268
340
269
340
26A
340
26B
340
26C
340
26D
340
26E
340
26F
340
270
340
271
340
272
340
273
340
274
340
275
340
276
340
277
340
278
340
279
340
27A
340
27B
340
27C
340
27D
340
27E
340
27F
340
280
340
281
340
286
340
286
340
286
340
282
340
286
340
292
340
29C
340
2A6
340
2B0
340
2BA
0
GROUP
5
2C4
330
32d
100
AcDbGroup
300

70
0
71
1
340
70
340
DF
340
E0
340
E1
340
E2
340
E3
340
E4
340
E5
340
E6
340
E7
340
E8
340
E9
340
EA
340
EB
340
EC
340
ED
340
EE
340
EF
340
F0
340
F1
340
F2
340
F3
340
F4
340
F5
340
F6
340
F7
340
F8
340
F9
340
FA
340
FB
340
FC
340
FD
340
FE
340
FF
340
100
340
101
340
102
340
103
340
104
340
105
340
106
340
107
340
108
340
109
340
10A
340
10B
340
10C
340
10D
340
10E
340
10F
340
110
340
111
340
112
340
113
340
114
340
115
340
116
340
117
340
118
340
119
340
11A
340
11B
340
11C
340
11D
340
11E
340
11F
340
120
340
121
340
122
340
123
340
124
340
125
340
126
340
127
340
128
340
129
340
12A
340
12B
340
12C
340
12D
340
12E
340
12F
340
130
340
131
340
132
340
133
340
134
340
135
340
136
340
137
340
138
340
139
340
13A
340
13B
340
13C
340
13D
340
13E
340
13F
340
140
340
141
340
142
340
214
340
215
340
216
340
217
340
218
340
219
340
21A
340
21B
340
21C
340
21D
340
21E
340
21F
340
220
340
221
340
222
340
223
340
224
340
225
340
226
340
227
340
228
340
229
340
22A
340
22B
340
22C
340
22D
340
22E
340
22F
340
230
340
231
340
232
340
233
340
234
340
235
340
236
340
237
340
238
340
239
340
23A
340
23B
340
23C
340
23D
340
23E
340
23F
340
240
340
241
340
242
340
243
340
244
340
245
340
246
340
247
340
248
340
249
340
24A
340
24B
340
24C
340
24D
340
24E
340
24F
340
250
340
251
340
252
340
253
340
254
340
255
340
256
340
257
340
258
340
259
340
25A
340
25B
340
25C
340
25D
340
25E
340
25F
340
260
340
261
340
262
340
263
340
264
340
265
340
266
340
267
340
268
340
269
340
26A
340
26B
340
26C
340
26D
340
26E
340
26F
340
270
340
271
340
272
340
273
340
274
340
275
340
276
340
277
340
278
340
279
340
27A
340
27B
340
27C
340
27D
340
27E
340
27F
340
280
340
281
340
F2
340
F3
340
F4
340
F5
340
F6
340
F7
340
F8
340
F9
340
FA
340
FB
340
FC
340
FD
340
FE
340
FF
340
100
340
101
340
102
340
103
340
104
340
105
340
106
340
107
340
108
340
109
340
10A
340
10B
340
10C
340
10D
340
10E
340
10F
340
110
340
111
340
112
340
113
340
114
340
115
340
116
340
117
340
118
340
119
340
11A
340
11B
340
11C
340
11D
340
11E
340
11F
340
120
340
121
340
122
340
123
340
124
340
125
340
126
340
127
340
128
340
129
340
12A
340
12B
340
12C
340
12D
340
12E
340
12F
340
130
340
131
340
132
340
133
340
134
340
135
340
136
340
137
340
138
340
139
340
13A
340
13B
340
13C
340
13D
340
13E
340
13F
340
140
340
141
340
142
340
218
340
219
340
21A
340
21B
340
21C
340
21D
340
21E
340
21F
340
220
340
221
340
222
340
223
340
224
340
225
340
226
340
227
340
228
340
229
340
22A
340
22B
340
22C
340
22D
340
22E
340
22F
340
230
340
231
340
232
340
233
340
234
340
235
340
236
340
237
340
23B
340
23C
340
23D
340
23E
340
23F
340
240
340
241
340
242
340
243
340
244
340
245
340
246
340
247
340
248
340
249
340
24A
340
24B
340
24C
340
24D
340
24E
340
24F
340
250
340
251
340
252
340
253
340
254
340
255
340
256
340
257
340
258
340
259
340
25A
340
25B
340
25C
340
25D
340
25E
340
25F
340
260
340
261
340
262
340
263
340
264
340
265
340
266
340
267
340
268
340
269
340
26A
340
26B
340
26C
340
26D
340
26E
340
26F
340
270
340
271
340
272
340
273
340
274
340
275
340
276
340
277
340
278
340
279
340
27A
340
27B
340
27C
340
27D
340
27E
340
27F
340
280
340
281
340
286
340
286
340
286
340
282
340
286
340
29C
340
2A6
0
GROUP
5
2C5
330
32d
100
AcDbGroup
300

70
0
71
1
340
F2
340
F3
340
F4
340
F5
340
F6
340
F7
340
F8
340
F9
340
FA
340
FB
340
FC
340
FD
340
FE
340
FF
340
100
340
101
340
102
340
103
340
104
340
105
340
106
340
107
340
108
340
109
340
10A
340
10B
340
10C
340
10D
340
10E
340
10F
340
110
340
111
340
112
340
113
340
114
340
115
340
116
340
117
340
118
340
119
340
11A
340
11B
340
11C
340
11D
340
11E
340
11F
340
120
340
121
340
122
340
123
340
124
340
125
340
126
340
127
340
128
340
129
340
12A
340
12B
340
12C
340
12D
340
12E
340
12F
340
130
340
131
340
132
340
133
340
134
340
135
340
136
340
137
340
138
340
139
340
13A
340
13B
340
13C
340
13D
340
13E
340
13F
340
140
340
141
340
142
340
218
340
219
340
21A
340
21B
340
21C
340
21D
340
21E
340
21F
340
220
340
221
340
222
340
223
340
224
340
225
340
226
340
227
340
228
340
229
340
22A
340
22B
340
22C
340
22D
340
22E
340
22F
340
230
340
231
340
232
340
233
340
234
340
235
340
236
340
237
340
23B
340
23C
340
23D
340
23E
340
23F
340
240
340
241
340
242
340
243
340
244
340
245
340
246
340
247
340
248
340
249
340
24A
340
24B
340
24C
340
24D
340
24E
340
24F
340
250
340
251
340
252
340
253
340
254
340
255
340
256
340
257
340
258
340
259
340
25A
340
25B
340
25C
340
25D
340
25E
340
25F
340
260
340
261
340
262
340
263
340
264
340
265
340
266
340
267
340
268
340
269
340
26A
340
26B
340
26C
340
26D
340
26E
340
26F
340
270
340
271
340
272
340
273
340
274
340
275
340
276
340
277
340
278
340
279
340
27A
340
27B
340
27C
340
27D
340
27E
340
27F
340
280
340
281
0
MLINESTYLE
5
18
330
32e
100
AcDbMlineStyle
2
Standard
70
0
3

62
256
51
90
52
90
71
2
49
-0.5
62
256
6
ByLayer
49
0.5
62
256
6
ByLayer
0
RASTERVARIABLES
5
318
330

100
AcDbRasterVariables
90
0
70
1
71
1
72
1
0
ENDSEC
0
EOF
